  0
SECTION
  2
HEADER
  9
$ACADVER
  1
AC1014
  9
$ACADMAINTVER
 70
     9
  9
$DWGCODEPAGE
  3
ANSI_932
  9
$INSBASE
 10
0.0
 20
0.0
 30
0.0
  9
$EXTMIN
 10
-0.0256328098773793
 20
-610.448710255388
 30
-0.0000000100021362
  9
$EXTMAX
 10
797.6000995626677
 20
-58.74511362061866
 30
0.0000000100021363
  9
$LIMMIN
 10
0.0
 20
0.0
  9
$LIMMAX
 10
840.0
 20
594.0
  9
$ORTHOMODE
 70
     0
  9
$REGENMODE
 70
     1
  9
$FILLMODE
 70
     1
  9
$QTEXTMODE
 70
     0
  9
$MIRRTEXT
 70
     1
  9
$DRAGMODE
 70
     2
  9
$LTSCALE
 40
2.0
  9
$OSMODE
 70
    37
  9
$ATTMODE
 70
     1
  9
$TEXTSIZE
 40
5.0
  9
$TRACEWID
 40
1.0
  9
$TEXTSTYLE
  7
STANDARD
  9
$CLAYER
  8
SEIHIN
  9
$CELTYPE
  6
BYLAYER
  9
$CECOLOR
 62
   256
  9
$CELTSCALE
 40
1.0
  9
$DELOBJ
 70
     1
  9
$DISPSILH
 70
     0
  9
$DIMSCALE
 40
1.0
  9
$DIMASZ
 40
7.0
  9
$DIMEXO
 40
6.0
  9
$DIMDLI
 40
14.0
  9
$DIMRND
 40
0.0
  9
$DIMDLE
 40
0.0
  9
$DIMEXE
 40
3.0
  9
$DIMTP
 40
0.0
  9
$DIMTM
 40
0.0
  9
$DIMTXT
 40
6.0
  9
$DIMCEN
 40
150.0
  9
$DIMTSZ
 40
0.0
  9
$DIMTOL
 70
     0
  9
$DIMLIM
 70
     0
  9
$DIMTIH
 70
     0
  9
$DIMTOH
 70
     0
  9
$DIMSE1
 70
     0
  9
$DIMSE2
 70
     0
  9
$DIMTAD
 70
     3
  9
$DIMZIN
 70
     0
  9
$DIMBLK
  1

  9
$DIMASO
 70
     1
  9
$DIMSHO
 70
     1
  9
$DIMPOST
  1

  9
$DIMAPOST
  1

  9
$DIMALT
 70
     0
  9
$DIMALTD
 70
     2
  9
$DIMALTF
 40
25.4
  9
$DIMLFAC
 40
1.0
  9
$DIMTOFL
 70
     1
  9
$DIMTVP
 40
0.0
  9
$DIMTIX
 70
     0
  9
$DIMSOXD
 70
     0
  9
$DIMSAH
 70
     1
  9
$DIMBLK1
  1
OPEN
  9
$DIMBLK2
  1
OPEN
  9
$DIMSTYLE
  2
STANDARD
  9
$DIMCLRD
 70
   256
  9
$DIMCLRE
 70
   256
  9
$DIMCLRT
 70
   256
  9
$DIMTFAC
 40
1.0
  9
$DIMGAP
 40
2.0
  9
$DIMJUST
 70
     0
  9
$DIMSD1
 70
     0
  9
$DIMSD2
 70
     0
  9
$DIMTOLJ
 70
     1
  9
$DIMTZIN
 70
     0
  9
$DIMALTZ
 70
     0
  9
$DIMALTTZ
 70
     0
  9
$DIMFIT
 70
     3
  9
$DIMUPT
 70
     0
  9
$DIMUNIT
 70
     2
  9
$DIMDEC
 70
     0
  9
$DIMTDEC
 70
     0
  9
$DIMALTU
 70
     2
  9
$DIMALTTD
 70
     2
  9
$DIMTXSTY
  7
STANDARD
  9
$DIMAUNIT
 70
     0
  9
$LUNITS
 70
     2
  9
$LUPREC
 70
     4
  9
$SKETCHINC
 40
1.0
  9
$FILLETRAD
 40
0.0
  9
$AUNITS
 70
     0
  9
$AUPREC
 70
     0
  9
$MENU
  1
.
  9
$ELEVATION
 40
0.0
  9
$PELEVATION
 40
0.0
  9
$THICKNESS
 40
0.0
  9
$LIMCHECK
 70
     0
  9
$BLIPMODE
 70
     0
  9
$CHAMFERA
 40
0.0
  9
$CHAMFERB
 40
0.0
  9
$CHAMFERC
 40
40.0
  9
$CHAMFERD
 40
0.0
  9
$SKPOLY
 70
     0
  9
$TDCREATE
 40
2451159.670660069
  9
$TDUPDATE
 40
2454635.396098715
  9
$TDINDWG
 40
0.4036048727
  9
$TDUSRTIMER
 40
0.4036048727
  9
$USRTIMER
 70
     1
  9
$ANGBASE
 50
0.0
  9
$ANGDIR
 70
     0
  9
$PDMODE
 70
     0
  9
$PDSIZE
 40
0.0
  9
$PLINEWID
 40
0.0
  9
$COORDS
 70
     0
  9
$SPLFRAME
 70
     0
  9
$SPLINETYPE
 70
     6
  9
$SPLINESEGS
 70
     8
  9
$ATTDIA
 70
     0
  9
$ATTREQ
 70
     1
  9
$HANDLING
 70
 10241
  9
$HANDSEED
  5
BFAA
  9
$SURFTAB1
 70
     6
  9
$SURFTAB2
 70
     6
  9
$SURFTYPE
 70
     6
  9
$SURFU
 70
     6
  9
$SURFV
 70
     6
  9
$UCSNAME
  2

  9
$UCSORG
 10
0.0
 20
0.0
 30
0.0
  9
$UCSXDIR
 10
1.0
 20
0.0
 30
0.0
  9
$UCSYDIR
 10
0.0
 20
1.0
 30
0.0
  9
$PUCSNAME
  2

  9
$PUCSORG
 10
0.0
 20
0.0
 30
0.0
  9
$PUCSXDIR
 10
1.0
 20
0.0
 30
0.0
  9
$PUCSYDIR
 10
0.0
 20
1.0
 30
0.0
  9
$USERI1
 70
     0
  9
$USERI2
 70
     0
  9
$USERI3
 70
     0
  9
$USERI4
 70
     0
  9
$USERI5
 70
     0
  9
$USERR1
 40
0.0
  9
$USERR2
 40
0.0
  9
$USERR3
 40
0.0
  9
$USERR4
 40
0.0
  9
$USERR5
 40
0.0
  9
$WORLDVIEW
 70
     1
  9
$SHADEDGE
 70
     3
  9
$SHADEDIF
 70
    70
  9
$TILEMODE
 70
     1
  9
$MAXACTVP
 70
    16
  9
$PINSBASE
 10
0.0
 20
0.0
 30
0.0
  9
$PLIMCHECK
 70
     0
  9
$PEXTMIN
 10
0.0
 20
0.0
 30
0.0
  9
$PEXTMAX
 10
420.0
 20
297.0
 30
0.0
  9
$PLIMMIN
 10
0.0
 20
0.0
  9
$PLIMMAX
 10
420.0
 20
297.0
  9
$UNITMODE
 70
     0
  9
$VISRETAIN
 70
     0
  9
$PLINEGEN
 70
     0
  9
$PSLTSCALE
 70
     1
  9
$TREEDEPTH
 70
  3020
  9
$PICKSTYLE
 70
     1
  9
$CMLSTYLE
  2
STANDARD
  9
$CMLJUST
 70
     0
  9
$CMLSCALE
 40
1.0
  9
$PROXYGRAPHICS
 70
     1
  9
$MEASUREMENT
 70
     0
  0
ENDSEC
  0
SECTION
  2
CLASSES
  0
CLASS
  1
ACDBDICTIONARYWDFLT
  2
AcDbDictionaryWithDefault
  3
AutoCAD 2000
 90
        0
280
     0
281
     0
  0
CLASS
  1
ACDBPLACEHOLDER
  2
AcDbPlaceHolder
  3
AutoCAD 2000
 90
        0
280
     0
281
     0
  0
CLASS
  1
LAYOUT
  2
AcDbLayout
  3
AutoCAD 2000
 90
        0
280
     0
281
     0
  0
CLASS
  1
LONG_TRANSACTION
  2
AcDbLongTransaction
  3
AutoCAD 2000
 90
        0
280
     0
281
     0
  0
CLASS
  1
LWPOLYLINE
  2
AcDbPolyline
  3
AutoCAD 2000
 90
        0
280
     0
281
     1
  0
CLASS
  1
HATCH
  2
AcDbHatch
  3
AutoCAD 2000
 90
        0
280
     0
281
     1
  0
CLASS
  1
XRECORD
  2
AcDbXrecord
  3
AutoCAD 2000
 90
        0
280
     0
281
     0
  0
CLASS
  1
LONG_TRANSACTION
  2
AcDbLongTransaction
  3
AutoCAD 2000
 90
        0
280
     0
281
     0
  0
CLASS
  1
LWPOLYLINE
  2
AcDbPolyline
  3
AutoCAD 2000
 90
        0
280
     0
281
     1
  0
CLASS
  1
HATCH
  2
AcDbHatch
  3
AutoCAD 2000
 90
        0
280
     0
281
     1
  0
CLASS
  1
XRECORD
  2
AcDbXrecord
  3
AutoCAD 2000
 90
        0
280
     0
281
     0
  0
CLASS
  1
LONG_TRANSACTION
  2
AcDbLongTransaction
  3
AutoCAD 2000
 90
        0
280
     0
281
     0
  0
CLASS
  1
LWPOLYLINE
  2
AcDbPolyline
  3
AutoCAD 2000
 90
        0
280
     0
281
     1
  0
CLASS
  1
HATCH
  2
AcDbHatch
  3
AutoCAD 2000
 90
        0
280
     0
281
     1
  0
CLASS
  1
XRECORD
  2
AcDbXrecord
  3
AutoCAD 2000
 90
        0
280
     0
281
     0
  0
CLASS
  1
LONG_TRANSACTION
  2
AcDbLongTransaction
  3
AutoCAD 2000
 90
        0
280
     0
281
     0
  0
CLASS
  1
LWPOLYLINE
  2
AcDbPolyline
  3
AutoCAD 2000
 90
        0
280
     0
281
     1
  0
CLASS
  1
HATCH
  2
AcDbHatch
  3
AutoCAD 2000
 90
        0
280
     0
281
     1
  0
CLASS
  1
XRECORD
  2
AcDbXrecord
  3
AutoCAD 2000
 90
        0
280
     0
281
     0
  0
CLASS
  1
LONG_TRANSACTION
  2
AcDbLongTransaction
  3
AutoCAD 2000
 90
        0
280
     0
281
     0
  0
CLASS
  1
LWPOLYLINE
  2
AcDbPolyline
  3
AutoCAD 2000
 90
        0
280
     0
281
     1
  0
CLASS
  1
HATCH
  2
AcDbHatch
  3
AutoCAD 2000
 90
        0
280
     0
281
     1
  0
CLASS
  1
XRECORD
  2
AcDbXrecord
  3
AutoCAD 2000
 90
        0
280
     0
281
     0
  0
CLASS
  1
LONG_TRANSACTION
  2
AcDbLongTransaction
  3
AutoCAD 2000
 90
        0
280
     0
281
     0
  0
CLASS
  1
LWPOLYLINE
  2
AcDbPolyline
  3
AutoCAD 2000
 90
        0
280
     0
281
     1
  0
CLASS
  1
HATCH
  2
AcDbHatch
  3
AutoCAD 2000
 90
        0
280
     0
281
     1
  0
CLASS
  1
XRECORD
  2
AcDbXrecord
  3
AutoCAD 2000
 90
        0
280
     0
281
     0
  0
CLASS
  1
LONG_TRANSACTION
  2
AcDbLongTransaction
  3
AutoCAD 2000
 90
        0
280
     0
281
     0
  0
CLASS
  1
LWPOLYLINE
  2
AcDbPolyline
  3
AutoCAD 2000
 90
        0
280
     0
281
     1
  0
CLASS
  1
HATCH
  2
AcDbHatch
  3
AutoCAD 2000
 90
        0
280
     0
281
     1
  0
CLASS
  1
XRECORD
  2
AcDbXrecord
  3
AutoCAD 2000
 90
        0
280
     0
281
     0
  0
CLASS
  1
LONG_TRANSACTION
  2
AcDbLongTransaction
  3
AutoCAD 2000
 90
        0
280
     0
281
     0
  0
CLASS
  1
LWPOLYLINE
  2
AcDbPolyline
  3
AutoCAD 2000
 90
        0
280
     0
281
     1
  0
CLASS
  1
HATCH
  2
AcDbHatch
  3
AutoCAD 2000
 90
        0
280
     0
281
     1
  0
CLASS
  1
XRECORD
  2
AcDbXrecord
  3
AutoCAD 2000
 90
        0
280
     0
281
     0
  0
CLASS
  1
LONG_TRANSACTION
  2
AcDbLongTransaction
  3
AutoCAD 2000
 90
        0
280
     0
281
     0
  0
CLASS
  1
LWPOLYLINE
  2
AcDbPolyline
  3
AutoCAD 2000
 90
        0
280
     0
281
     1
  0
CLASS
  1
HATCH
  2
AcDbHatch
  3
AutoCAD 2000
 90
        0
280
     0
281
     1
  0
CLASS
  1
XRECORD
  2
AcDbXrecord
  3
AutoCAD 2000
 90
        0
280
     0
281
     0
  0
CLASS
  1
LONG_TRANSACTION
  2
AcDbLongTransaction
  3
AutoCAD 2000
 90
        0
280
     0
281
     0
  0
CLASS
  1
LWPOLYLINE
  2
AcDbPolyline
  3
AutoCAD 2000
 90
        0
280
     0
281
     1
  0
CLASS
  1
HATCH
  2
AcDbHatch
  3
AutoCAD 2000
 90
        0
280
     0
281
     1
  0
CLASS
  1
XRECORD
  2
AcDbXrecord
  3
AutoCAD 2000
 90
        0
280
     0
281
     0
  0
CLASS
  1
LONG_TRANSACTION
  2
AcDbLongTransaction
  3
AutoCAD 2000
 90
        0
280
     0
281
     0
  0
CLASS
  1
LWPOLYLINE
  2
AcDbPolyline
  3
AutoCAD 2000
 90
        0
280
     0
281
     1
  0
CLASS
  1
HATCH
  2
AcDbHatch
  3
AutoCAD 2000
 90
        0
280
     0
281
     1
  0
CLASS
  1
XRECORD
  2
AcDbXrecord
  3
AutoCAD 2000
 90
        0
280
     0
281
     0
  0
CLASS
  1
LONG_TRANSACTION
  2
AcDbLongTransaction
  3
AutoCAD 2000
 90
        0
280
     0
281
     0
  0
CLASS
  1
LWPOLYLINE
  2
AcDbPolyline
  3
AutoCAD 2000
 90
        0
280
     0
281
     1
  0
CLASS
  1
HATCH
  2
AcDbHatch
  3
AutoCAD 2000
 90
        0
280
     0
281
     1
  0
CLASS
  1
XRECORD
  2
AcDbXrecord
  3
AutoCAD 2000
 90
        0
280
     0
281
     0
  0
CLASS
  1
LONG_TRANSACTION
  2
AcDbLongTransaction
  3
AutoCAD 2000
 90
        0
280
     0
281
     0
  0
CLASS
  1
LWPOLYLINE
  2
AcDbPolyline
  3
AutoCAD 2000
 90
        0
280
     0
281
     1
  0
CLASS
  1
HATCH
  2
AcDbHatch
  3
AutoCAD 2000
 90
        0
280
     0
281
     1
  0
CLASS
  1
XRECORD
  2
AcDbXrecord
  3
AutoCAD 2000
 90
        0
280
     0
281
     0
  0
CLASS
  1
LONG_TRANSACTION
  2
AcDbLongTransaction
  3
AutoCAD 2000
 90
        0
280
     0
281
     0
  0
CLASS
  1
LWPOLYLINE
  2
AcDbPolyline
  3
AutoCAD 2000
 90
        0
280
     0
281
     1
  0
CLASS
  1
HATCH
  2
AcDbHatch
  3
AutoCAD 2000
 90
        0
280
     0
281
     1
  0
CLASS
  1
XRECORD
  2
AcDbXrecord
  3
AutoCAD 2000
 90
        0
280
     0
281
     0
  0
ENDSEC
  0
SECTION
  2
TABLES
  0
TABLE
  2
VPORT
  5
8
330
0
100
AcDbSymbolTable
 70
     3
  0
VPORT
  5
BF2C
330
8
100
AcDbSymbolTableRecord
100
AcDbViewportTableRecord
  2
*ACTIVE
 70
     0
 10
0.0
 20
0.0
 11
1.0
 21
1.0
 12
422.1910236535609
 22
-329.4801898127147
 13
0.0
 23
0.0
 14
5.0
 24
5.0
 15
0.0
 25
0.0
 16
0.0
 26
0.0
 36
1.0
 17
0.0
 27
0.0
 37
0.0
 40
636.1962153742544
 41
1.570153061224489
 42
50.0
 43
0.0
 44
0.0
 50
0.0
 51
0.0
 71
     0
 72
   100
 73
     1
 74
     0
 75
     0
 76
     0
 77
     0
 78
     0
  0
ENDTAB
  0
TABLE
  2
LTYPE
  5
5
330
0
100
AcDbSymbolTable
 70
     2
  0
LTYPE
  5
14
330
5
100
AcDbSymbolTableRecord
100
AcDbLinetypeTableRecord
  2
BYBLOCK
 70
     0
  3

 72
    65
 73
     0
 40
0.0
  0
LTYPE
  5
15
330
5
100
AcDbSymbolTableRecord
100
AcDbLinetypeTableRecord
  2
BYLAYER
 70
     0
  3

 72
    65
 73
     0
 40
0.0
  0
LTYPE
  5
16
330
5
100
AcDbSymbolTableRecord
100
AcDbLinetypeTableRecord
  2
CONTINUOUS
 70
     0
  3
Solid line
 72
    65
 73
     0
 40
0.0
  0
LTYPE
  5
135
330
5
100
AcDbSymbolTableRecord
100
AcDbLinetypeTableRecord
  2
CENTER
 70
     0
  3
____ _ ____ _ ____ _ ____ _ ____ _ ____ _ ____ 
 72
    65
 73
     4
 40
2.0
 49
1.25
 74
     0
 49
-0.25
 74
     0
 49
0.25
 74
     0
 49
-0.25
 74
     0
  0
ENDTAB
  0
TABLE
  2
LAYER
  5
2
102
{ACAD_XDICTIONARY
360
BB23
102
}
330
0
100
AcDbSymbolTable
 70
     9
  0
LAYER
  5
F
330
2
100
AcDbSymbolTableRecord
100
AcDbLayerTableRecord
  2
0
 70
     0
 62
     7
  6
CONTINUOUS
  0
LAYER
  5
62
330
2
100
AcDbSymbolTableRecord
100
AcDbLayerTableRecord
  2
VIEWPORT
 70
     0
 62
     7
  6
CONTINUOUS
  0
LAYER
  5
65
330
2
100
AcDbSymbolTableRecord
100
AcDbLayerTableRecord
  2
ZUWAKU
 70
     0
 62
     7
  6
CONTINUOUS
  0
LAYER
  5
2CF
330
2
100
AcDbSymbolTableRecord
100
AcDbLayerTableRecord
  2
SUNPOU
 70
     0
 62
     4
  6
CONTINUOUS
  0
LAYER
  5
2D1
330
2
100
AcDbSymbolTableRecord
100
AcDbLayerTableRecord
  2
SEIHIN
 70
     0
 62
     3
  6
CONTINUOUS
  0
LAYER
  5
532
330
2
100
AcDbSymbolTableRecord
100
AcDbLayerTableRecord
  2
DEFPOINTS
 70
     0
 62
     7
  6
CONTINUOUS
  0
LAYER
  5
809
330
2
100
AcDbSymbolTableRecord
100
AcDbLayerTableRecord
  2
CENTER_L
 70
     0
 62
     1
  6
CENTER
  0
LAYER
  5
6FB6
330
2
100
AcDbSymbolTableRecord
100
AcDbLayerTableRecord
  2
MOJI
 70
     0
 62
     2
  6
CONTINUOUS
  0
LAYER
  5
BBB6
330
2
100
AcDbSymbolTableRecord
100
AcDbLayerTableRecord
  2
CENTER_L0
 70
     0
 62
     1
  6
CENTER
  0
ENDTAB
  0
TABLE
  2
STYLE
  5
3
330
0
100
AcDbSymbolTable
 70
     3
  0
STYLE
  5
10
330
3
100
AcDbSymbolTableRecord
100
AcDbTextStyleTableRecord
  2
STANDARD
 70
     0
 40
0.0
 41
1.0
 50
0.0
 71
     0
 42
5.0
  3
TXT
  4
bigfont.shx
  0
STYLE
  5
6FB7
330
3
100
AcDbSymbolTableRecord
100
AcDbTextStyleTableRecord
  2
ｽﾀｲﾙ1
 70
     0
 40
0.0
 41
1.0
 50
0.0
 71
     0
 42
2.5
  3
MS PGothic.ttf
  4

1001
ACAD
1000
MS PGothic
1071
    32818
  0
ENDTAB
  0
TABLE
  2
VIEW
  5
6
330
0
100
AcDbSymbolTable
 70
     0
  0
ENDTAB
  0
TABLE
  2
UCS
  5
7
330
0
100
AcDbSymbolTable
 70
     0
  0
ENDTAB
  0
TABLE
  2
APPID
  5
9
330
0
100
AcDbSymbolTable
 70
     1
  0
APPID
  5
11
330
9
100
AcDbSymbolTableRecord
100
AcDbRegAppTableRecord
  2
ACAD
 70
     0
  0
ENDTAB
  0
TABLE
  2
DIMSTYLE
  5
A
330
0
100
AcDbSymbolTable
 70
     2
  0
DIMSTYLE
105
1D
102
{ACAD_REACTORS
330
A771
330
A708
330
A778
330
A6F1
330
A71D
330
A71C
330
A788
330
B94A
330
B946
330
B951
330
B94E
330
B944
330
B962
330
B966
330
BD4C
330
BD4D
330
BD85
330
BCFF
330
BD87
330
BD05
330
BD04
330
BD45
330
BD94
330
BD95
330
BD83
330
BD49
102
}
330
A
100
AcDbSymbolTableRecord
100
AcDbDimStyleTableRecord
  2
STANDARD
 70
     0
  3

  4

  5

  6

  7

 40
1.0
 41
0.18
 42
0.0625
 43
0.38
 44
0.18
 45
0.0
 46
0.0
 47
0.0
 48
0.0
140
0.18
141
0.09
142
0.0
143
25.4
144
1.0
145
0.0
146
1.0
147
0.09
 71
     0
 72
     0
 73
     1
 74
     1
 75
     0
 76
     0
 77
     0
 78
     0
170
     0
171
     2
172
     0
173
     0
174
     0
175
     0
176
     0
177
     0
178
     0
270
     2
271
     4
272
     4
273
     2
274
     2
340
10
275
     0
280
     0
281
     0
282
     0
283
     1
284
     0
285
     0
286
     0
287
     3
288
     0
  0
ENDTAB
  0
TABLE
  2
BLOCK_RECORD
  5
1
330
0
100
AcDbSymbolTable
 70
    40
  0
BLOCK_RECORD
  5
1A
102
{ACAD_XDICTIONARY
360
9DE
102
}
330
1
100
AcDbSymbolTableRecord
100
AcDbBlockTableRecord
  2
*MODEL_SPACE
  0
BLOCK_RECORD
  5
17
102
{ACAD_XDICTIONARY
360
9DC
102
}
330
1
100
AcDbSymbolTableRecord
100
AcDbBlockTableRecord
  2
*PAPER_SPACE
  0
BLOCK_RECORD
  5
6D
330
1
100
AcDbSymbolTableRecord
100
AcDbBlockTableRecord
  2
_OPEN
  0
BLOCK_RECORD
  5
A7F7
330
1
100
AcDbSymbolTableRecord
100
AcDbBlockTableRecord
  2
*D1
  0
BLOCK_RECORD
  5
A803
330
1
100
AcDbSymbolTableRecord
100
AcDbBlockTableRecord
  2
*D2
  0
BLOCK_RECORD
  5
A80F
330
1
100
AcDbSymbolTableRecord
100
AcDbBlockTableRecord
  2
*D3
  0
BLOCK_RECORD
  5
A81B
330
1
100
AcDbSymbolTableRecord
100
AcDbBlockTableRecord
  2
*D4
  0
BLOCK_RECORD
  5
A827
330
1
100
AcDbSymbolTableRecord
100
AcDbBlockTableRecord
  2
*D5
  0
BLOCK_RECORD
  5
A833
330
1
100
AcDbSymbolTableRecord
100
AcDbBlockTableRecord
  2
*D6
  0
BLOCK_RECORD
  5
A83F
330
1
100
AcDbSymbolTableRecord
100
AcDbBlockTableRecord
  2
*D7
  0
BLOCK_RECORD
  5
B9C5
330
1
100
AcDbSymbolTableRecord
100
AcDbBlockTableRecord
  2
*D8
  0
BLOCK_RECORD
  5
B9D1
330
1
100
AcDbSymbolTableRecord
100
AcDbBlockTableRecord
  2
*D9
  0
BLOCK_RECORD
  5
B9DD
330
1
100
AcDbSymbolTableRecord
100
AcDbBlockTableRecord
  2
*D10
  0
BLOCK_RECORD
  5
B9E9
330
1
100
AcDbSymbolTableRecord
100
AcDbBlockTableRecord
  2
*D11
  0
BLOCK_RECORD
  5
B9F5
330
1
100
AcDbSymbolTableRecord
100
AcDbBlockTableRecord
  2
*D12
  0
BLOCK_RECORD
  5
BA01
330
1
100
AcDbSymbolTableRecord
100
AcDbBlockTableRecord
  2
*D13
  0
BLOCK_RECORD
  5
BA0D
330
1
100
AcDbSymbolTableRecord
100
AcDbBlockTableRecord
  2
*D14
  0
ENDTAB
  0
ENDSEC
  0
SECTION
  2
BLOCKS
  0
BLOCK
  5
1B
330
1A
100
AcDbEntity
  8
0
100
AcDbBlockBegin
  2
*MODEL_SPACE
 70
     0
 10
0.0
 20
0.0
 30
0.0
  3
*MODEL_SPACE
  1

  0
ENDBLK
  5
1C
330
1A
100
AcDbEntity
  8
0
100
AcDbBlockEnd
  0
BLOCK
  5
18
330
17
100
AcDbEntity
 67
     1
  8
0
100
AcDbBlockBegin
  2
*PAPER_SPACE
 70
     0
 10
0.0
 20
0.0
 30
0.0
  3
*PAPER_SPACE
  1

  0
ENDBLK
  5
19
330
17
100
AcDbEntity
 67
     1
  8
0
100
AcDbBlockEnd
  0
BLOCK
  5
6E
330
6D
100
AcDbEntity
  8
0
100
AcDbBlockBegin
  2
_OPEN
 70
     0
 10
0.0
 20
0.0
 30
0.0
  3
_OPEN
  1

  0
LINE
  5
6F
330
6D
100
AcDbEntity
  8
0
  6
BYBLOCK
 62
     0
100
AcDbLine
 10
-1.0
 20
0.1666666666666666
 30
0.0
 11
0.0
 21
0.0
 31
0.0
  0
LINE
  5
70
330
6D
100
AcDbEntity
  8
0
  6
BYBLOCK
 62
     0
100
AcDbLine
 10
0.0
 20
0.0
 30
0.0
 11
-1.0
 21
-0.1666666666666666
 31
0.0
  0
LINE
  5
71
330
6D
100
AcDbEntity
  8
0
  6
BYBLOCK
 62
     0
100
AcDbLine
 10
0.0
 20
0.0
 30
0.0
 11
-1.0
 21
0.0
 31
0.0
  0
ENDBLK
  5
72
330
6D
100
AcDbEntity
  8
0
100
AcDbBlockEnd
  0
BLOCK
  5
A801
330
A7F7
100
AcDbEntity
  8
0
100
AcDbBlockBegin
  2
*D1
 70
     1
 10
0.0
 20
0.0
 30
0.0
  3
*D1
  1

  0
LINE
  5
BAD6
330
A7F7
100
AcDbEntity
  8
SUNPOU
100
AcDbLine
 10
703.03868961636
 20
-307.5881093525425
 30
0.0
 11
703.03868961636
 21
-287.2977555255611
 31
0.0
  0
LINE
  5
BAD7
330
A7F7
100
AcDbEntity
  8
SUNPOU
100
AcDbLine
 10
566.6389138728755
 20
-308.5066094779507
 30
0.0
 11
566.6389138728755
 21
-287.2977555255611
 31
0.0
  0
LINE
  5
BAD8
330
A7F7
100
AcDbEntity
  8
SUNPOU
100
AcDbLine
 10
696.0386896163599
 20
-290.2977555255611
 30
0.0
 11
573.6389138728754
 21
-290.2977555255611
 31
0.0
  0
INSERT
  5
BAD9
330
A7F7
100
AcDbEntity
  8
SUNPOU
100
AcDbBlockReference
  2
_OPEN
 10
703.03868961636
 20
-290.2977555255611
 30
0.0
 41
7.0
 42
7.0
 43
7.0
  0
INSERT
  5
BADA
330
A7F7
100
AcDbEntity
  8
SUNPOU
100
AcDbBlockReference
  2
_OPEN
 10
566.6389138728755
 20
-290.2977555255611
 30
0.0
 41
7.0
 42
7.0
 43
7.0
 50
180.0
  0
MTEXT
  5
BADB
330
A7F7
100
AcDbEntity
  8
SUNPOU
100
AcDbMText
 10
634.8388017446177
 20
-285.2977555255611
 30
0.0
 40
6.0
 41
0.0
 71
     5
 72
     1
  1
\A1;136
1001
ACAD
1000
MTEXTBEGIN
1070
    73
1070
     1
1070
    44
1040
1.0
1070
    74
1070
     0
1000
MTEXTEND
  0
POINT
  5
BADC
330
A7F7
100
AcDbEntity
  8
DEFPOINTS
 62
     0
100
AcDbPoint
 10
703.03868961636
 20
-313.5881093525425
 30
0.0
  0
POINT
  5
BADD
330
A7F7
100
AcDbEntity
  8
DEFPOINTS
 62
     0
100
AcDbPoint
 10
566.6389138728755
 20
-314.5066094779507
 30
0.0
  0
POINT
  5
BADE
330
A7F7
100
AcDbEntity
  8
DEFPOINTS
 62
     0
100
AcDbPoint
 10
566.6389138728755
 20
-290.2977555255611
 30
0.0
  0
ENDBLK
  5
A802
330
A7F7
100
AcDbEntity
  8
0
100
AcDbBlockEnd
  0
BLOCK
  5
A80D
330
A803
100
AcDbEntity
  8
0
100
AcDbBlockBegin
  2
*D2
 70
     1
 10
0.0
 20
0.0
 30
0.0
  3
*D2
  1

  0
LINE
  5
BADF
330
A803
100
AcDbEntity
  8
SUNPOU
100
AcDbLine
 10
702.9775260619098
 20
-431.6854433688364
 30
0.0
 11
702.9775260619098
 21
-450.3344156227274
 31
0.0
  0
LINE
  5
BAE0
330
A803
100
AcDbEntity
  8
SUNPOU
100
AcDbLine
 10
618.1928188830989
 20
-432.2641394356363
 30
0.0
 11
618.1928188830989
 21
-450.3344156227274
 31
0.0
  0
LINE
  5
BAE1
330
A803
100
AcDbEntity
  8
SUNPOU
100
AcDbLine
 10
695.9775260619099
 20
-447.3344156227274
 30
0.0
 11
625.1928188830988
 21
-447.3344156227274
 31
0.0
  0
INSERT
  5
BAE2
330
A803
100
AcDbEntity
  8
SUNPOU
100
AcDbBlockReference
  2
_OPEN
 10
702.9775260619098
 20
-447.3344156227274
 30
0.0
 41
7.0
 42
7.0
 43
7.0
  0
INSERT
  5
BAE3
330
A803
100
AcDbEntity
  8
SUNPOU
100
AcDbBlockReference
  2
_OPEN
 10
618.1928188830989
 20
-447.3344156227274
 30
0.0
 41
7.0
 42
7.0
 43
7.0
 50
180.0
  0
MTEXT
  5
BAE4
330
A803
100
AcDbEntity
  8
SUNPOU
100
AcDbMText
 10
660.5851724725043
 20
-442.3344156227273
 30
0.0
 40
6.0
 41
0.0
 71
     5
 72
     1
  1
\A1;85
1001
ACAD
1000
MTEXTBEGIN
1070
    73
1070
     1
1070
    44
1040
1.0
1070
    74
1070
     0
1000
MTEXTEND
  0
POINT
  5
BAE5
330
A803
100
AcDbEntity
  8
DEFPOINTS
 62
     0
100
AcDbPoint
 10
702.9775260619098
 20
-425.6854433688364
 30
0.0
  0
POINT
  5
BAE6
330
A803
100
AcDbEntity
  8
DEFPOINTS
 62
     0
100
AcDbPoint
 10
618.1928188830989
 20
-426.2641394356363
 30
0.0
  0
POINT
  5
BAE7
330
A803
100
AcDbEntity
  8
DEFPOINTS
 62
     0
100
AcDbPoint
 10
618.1928188830989
 20
-447.3344156227274
 30
0.0
  0
ENDBLK
  5
A80E
330
A803
100
AcDbEntity
  8
0
100
AcDbBlockEnd
  0
BLOCK
  5
A819
330
A80F
100
AcDbEntity
  8
0
100
AcDbBlockBegin
  2
*D3
 70
     1
 10
0.0
 20
0.0
 30
0.0
  3
*D3
  1

  0
LINE
  5
BF6B
330
A80F
100
AcDbEntity
  8
SUNPOU
100
AcDbLine
 10
566.4947995816414
 20
-338.7386919413836
 30
0.0
 11
546.4076149361155
 21
-338.7386919413836
 31
0.0
  0
LINE
  5
BF6C
330
A80F
100
AcDbEntity
  8
SUNPOU
100
AcDbLine
 10
563.7245345741884
 20
-311.5087342643276
 30
0.0
 11
546.4076149361155
 21
-311.5087342643276
 31
0.0
  0
LINE
  5
BF6D
330
A80F
100
AcDbEntity
  8
SUNPOU
100
AcDbLine
 10
549.4076149361156
 20
-331.7386919413836
 30
0.0
 11
549.4076149361156
 21
-318.5087342643276
 31
0.0
  0
INSERT
  5
BF6E
330
A80F
100
AcDbEntity
  8
SUNPOU
100
AcDbBlockReference
  2
_OPEN
 10
549.4076149361156
 20
-338.7386919413836
 30
0.0
 41
7.0
 42
7.0
 43
7.0
 50
270.0
  0
INSERT
  5
BF6F
330
A80F
100
AcDbEntity
  8
SUNPOU
100
AcDbBlockReference
  2
_OPEN
 10
549.4076149361156
 20
-311.5087342643276
 30
0.0
 41
7.0
 42
7.0
 43
7.0
 50
90.0
  0
MTEXT
  5
BF70
330
A80F
100
AcDbEntity
  8
SUNPOU
100
AcDbMText
 10
544.4076149361157
 20
-325.1237131028555
 30
0.0
 40
6.0
 41
0.0
 71
     5
 72
     1
  1
\A1;27
 11
0.0000000000000001
 21
1.0
 31
0.0
  0
POINT
  5
BF71
330
A80F
100
AcDbEntity
  8
DEFPOINTS
 62
     0
100
AcDbPoint
 10
572.4947995816414
 20
-338.7386919413836
 30
0.0
  0
POINT
  5
BF72
330
A80F
100
AcDbEntity
  8
DEFPOINTS
 62
     0
100
AcDbPoint
 10
569.7245345741885
 20
-311.5087342643276
 30
0.0
  0
POINT
  5
BF73
330
A80F
100
AcDbEntity
  8
DEFPOINTS
 62
     0
100
AcDbPoint
 10
549.4076149361156
 20
-311.5087342643276
 30
0.0
  0
ENDBLK
  5
A81A
330
A80F
100
AcDbEntity
  8
0
100
AcDbBlockEnd
  0
BLOCK
  5
A825
330
A81B
100
AcDbEntity
  8
0
100
AcDbBlockBegin
  2
*D4
 70
     1
 10
0.0
 20
0.0
 30
0.0
  3
*D4
  1

  0
LINE
  5
BF50
330
A81B
100
AcDbEntity
  8
SUNPOU
100
AcDbLine
 10
564.3369126946108
 20
-311.5881127500073
 30
0.0
 11
528.2062103729876
 21
-311.5881127500073
 31
0.0
  0
LINE
  5
BF51
330
A81B
100
AcDbEntity
  8
SUNPOU
100
AcDbLine
 10
648.438917461075
 20
-428.1751149429672
 30
0.0
 11
528.2062103729876
 21
-428.1751149429672
 31
0.0
  0
LINE
  5
BF52
330
A81B
100
AcDbEntity
  8
SUNPOU
100
AcDbLine
 10
531.2062103729877
 20
-318.5881127500073
 30
0.0
 11
531.2062103729877
 21
-421.1751149429672
 31
0.0
  0
INSERT
  5
BF53
330
A81B
100
AcDbEntity
  8
SUNPOU
100
AcDbBlockReference
  2
_OPEN
 10
531.2062103729877
 20
-311.5881127500073
 30
0.0
 41
7.0
 42
7.0
 43
7.0
 50
90.0
  0
INSERT
  5
BF54
330
A81B
100
AcDbEntity
  8
SUNPOU
100
AcDbBlockReference
  2
_OPEN
 10
531.2062103729877
 20
-428.1751149429672
 30
0.0
 41
7.0
 42
7.0
 43
7.0
 50
270.0
  0
MTEXT
  5
BF55
330
A81B
100
AcDbEntity
  8
SUNPOU
100
AcDbMText
 10
526.2062103729878
 20
-369.8816138464872
 30
0.0
 40
6.0
 41
0.0
 71
     5
 72
     1
  1
\A1;117
 11
0.0000000000000001
 21
1.0
 31
0.0
  0
POINT
  5
BF56
330
A81B
100
AcDbEntity
  8
DEFPOINTS
 62
     0
100
AcDbPoint
 10
570.3369126946109
 20
-311.5881127500073
 30
0.0
  0
POINT
  5
BF57
330
A81B
100
AcDbEntity
  8
DEFPOINTS
 62
     0
100
AcDbPoint
 10
654.4389174610751
 20
-428.1751149429672
 30
0.0
  0
POINT
  5
BF58
330
A81B
100
AcDbEntity
  8
DEFPOINTS
 62
     0
100
AcDbPoint
 10
531.2062103729877
 20
-428.1751149429672
 30
0.0
  0
ENDBLK
  5
A826
330
A81B
100
AcDbEntity
  8
0
100
AcDbBlockEnd
  0
BLOCK
  5
A831
330
A827
100
AcDbEntity
  8
0
100
AcDbBlockBegin
  2
*D5
 70
     1
 10
0.0
 20
0.0
 30
0.0
  3
*D5
  1

  0
LINE
  5
BF62
330
A827
100
AcDbEntity
  8
SUNPOU
100
AcDbLine
 10
481.933220062604
 20
-432.8309822209805
 30
0.0
 11
481.933220062604
 21
-470.0735497927444
 31
0.0
  0
LINE
  5
BF63
330
A827
100
AcDbEntity
  8
SUNPOU
100
AcDbLine
 10
454.933220062604
 20
-429.4746065551855
 30
0.0
 11
454.933220062604
 21
-470.0735497927444
 31
0.0
  0
LINE
  5
BF64
330
A827
100
AcDbEntity
  8
SUNPOU
100
AcDbLine
 10
474.9332200626041
 20
-467.0735497927444
 30
0.0
 11
461.933220062604
 21
-467.0735497927444
 31
0.0
  0
INSERT
  5
BF65
330
A827
100
AcDbEntity
  8
SUNPOU
100
AcDbBlockReference
  2
_OPEN
 10
481.933220062604
 20
-467.0735497927444
 30
0.0
 41
7.0
 42
7.0
 43
7.0
  0
INSERT
  5
BF66
330
A827
100
AcDbEntity
  8
SUNPOU
100
AcDbBlockReference
  2
_OPEN
 10
454.933220062604
 20
-467.0735497927444
 30
0.0
 41
7.0
 42
7.0
 43
7.0
 50
180.0
  0
MTEXT
  5
BF67
330
A827
100
AcDbEntity
  8
SUNPOU
100
AcDbMText
 10
468.433220062604
 20
-462.0735497927443
 30
0.0
 40
6.0
 41
0.0
 71
     5
 72
     1
  1
\A1;27
  0
POINT
  5
BF68
330
A827
100
AcDbEntity
  8
DEFPOINTS
 62
     0
100
AcDbPoint
 10
481.933220062604
 20
-426.8309822209806
 30
0.0
  0
POINT
  5
BF69
330
A827
100
AcDbEntity
  8
DEFPOINTS
 62
     0
100
AcDbPoint
 10
454.933220062604
 20
-423.4746065551855
 30
0.0
  0
POINT
  5
BF6A
330
A827
100
AcDbEntity
  8
DEFPOINTS
 62
     0
100
AcDbPoint
 10
454.933220062604
 20
-467.0735497927444
 30
0.0
  0
ENDBLK
  5
A832
330
A827
100
AcDbEntity
  8
0
100
AcDbBlockEnd
  0
BLOCK
  5
A83D
330
A833
100
AcDbEntity
  8
0
100
AcDbBlockBegin
  2
*D6
 70
     1
 10
0.0
 20
0.0
 30
0.0
  3
*D6
  1

  0
LINE
  5
BF59
330
A833
100
AcDbEntity
  8
SUNPOU
100
AcDbLine
 10
479.433220062604
 20
-429.4746065551855
 30
0.0
 11
479.433220062604
 21
-450.7406760557228
 31
0.0
  0
LINE
  5
BF5A
330
A833
100
AcDbEntity
  8
SUNPOU
100
AcDbLine
 10
454.933220062604
 20
-435.4746065551855
 30
0.0
 11
454.933220062604
 21
-450.7406760557228
 31
0.0
  0
LINE
  5
BF5B
330
A833
100
AcDbEntity
  8
SUNPOU
100
AcDbLine
 10
472.433220062604
 20
-447.7406760557228
 30
0.0
 11
461.933220062604
 21
-447.7406760557228
 31
0.0
  0
INSERT
  5
BF5C
330
A833
100
AcDbEntity
  8
SUNPOU
100
AcDbBlockReference
  2
_OPEN
 10
479.433220062604
 20
-447.7406760557228
 30
0.0
 41
7.0
 42
7.0
 43
7.0
  0
INSERT
  5
BF5D
330
A833
100
AcDbEntity
  8
SUNPOU
100
AcDbBlockReference
  2
_OPEN
 10
454.933220062604
 20
-447.7406760557228
 30
0.0
 41
7.0
 42
7.0
 43
7.0
 50
180.0
  0
MTEXT
  5
BF5E
330
A833
100
AcDbEntity
  8
SUNPOU
100
AcDbMText
 10
467.183220062604
 20
-442.7406760557228
 30
0.0
 40
6.0
 41
0.0
 71
     5
 72
     1
  1
\A1;\U+203B25
  0
POINT
  5
BF5F
330
A833
100
AcDbEntity
  8
DEFPOINTS
 62
     0
100
AcDbPoint
 10
479.433220062604
 20
-423.4746065551855
 30
0.0
  0
POINT
  5
BF60
330
A833
100
AcDbEntity
  8
DEFPOINTS
 62
     0
100
AcDbPoint
 10
454.933220062604
 20
-429.4746065551855
 30
0.0
  0
POINT
  5
BF61
330
A833
100
AcDbEntity
  8
DEFPOINTS
 62
     0
100
AcDbPoint
 10
454.933220062604
 20
-447.7406760557228
 30
0.0
  0
ENDBLK
  5
A83E
330
A833
100
AcDbEntity
  8
0
100
AcDbBlockEnd
  0
BLOCK
  5
A849
330
A83F
100
AcDbEntity
  8
0
100
AcDbBlockBegin
  2
*D7
 70
     1
 10
0.0
 20
0.0
 30
0.0
  3
*D7
  1

  0
LINE
  5
BF74
330
A83F
100
AcDbEntity
  8
SUNPOU
100
AcDbLine
 10
485.8878124016042
 20
-305.6686639150856
 30
0.0
 11
485.8878124016042
 21
-287.2977555255611
 31
0.0
  0
LINE
  5
BF75
330
A83F
100
AcDbEntity
  8
SUNPOU
100
AcDbLine
 10
454.933220062604
 20
-305.8178858801856
 30
0.0
 11
454.933220062604
 21
-287.2977555255611
 31
0.0
  0
LINE
  5
BF76
330
A83F
100
AcDbEntity
  8
SUNPOU
100
AcDbLine
 10
478.8878124016042
 20
-290.2977555255611
 30
0.0
 11
461.933220062604
 21
-290.2977555255611
 31
0.0
  0
INSERT
  5
BF77
330
A83F
100
AcDbEntity
  8
SUNPOU
100
AcDbBlockReference
  2
_OPEN
 10
485.8878124016042
 20
-290.2977555255611
 30
0.0
 41
7.0
 42
7.0
 43
7.0
  0
INSERT
  5
BF78
330
A83F
100
AcDbEntity
  8
SUNPOU
100
AcDbBlockReference
  2
_OPEN
 10
454.933220062604
 20
-290.2977555255611
 30
0.0
 41
7.0
 42
7.0
 43
7.0
 50
180.0
  0
MTEXT
  5
BF79
330
A83F
100
AcDbEntity
  8
SUNPOU
100
AcDbMText
 10
470.4105162321041
 20
-285.2977555255611
 30
0.0
 40
6.0
 41
0.0
 71
     5
 72
     1
  1
\A1;31
  0
POINT
  5
BF7A
330
A83F
100
AcDbEntity
  8
DEFPOINTS
 62
     0
100
AcDbPoint
 10
485.8878124016042
 20
-311.6686639150856
 30
0.0
  0
POINT
  5
BF7B
330
A83F
100
AcDbEntity
  8
DEFPOINTS
 62
     0
100
AcDbPoint
 10
454.933220062604
 20
-311.8178858801856
 30
0.0
  0
POINT
  5
BF7C
330
A83F
100
AcDbEntity
  8
DEFPOINTS
 62
     0
100
AcDbPoint
 10
454.933220062604
 20
-290.2977555255611
 30
0.0
  0
ENDBLK
  5
A84A
330
A83F
100
AcDbEntity
  8
0
100
AcDbBlockEnd
  0
BLOCK
  5
B9CF
330
B9C5
100
AcDbEntity
  8
0
100
AcDbBlockBegin
  2
*D8
 70
     1
 10
0.0
 20
0.0
 30
0.0
  3
*D8
  1

  0
LINE
  5
BF7D
330
B9C5
100
AcDbEntity
  8
SUNPOU
100
AcDbLine
 10
248.1034587578014
 20
-311.5881127500073
 30
0.0
 11
284.2341610794247
 21
-311.5881127500073
 31
0.0
  0
LINE
  5
BF7E
330
B9C5
100
AcDbEntity
  8
SUNPOU
100
AcDbLine
 10
164.0014539913372
 20
-428.1751149429672
 30
0.0
 11
284.2341610794246
 21
-428.1751149429672
 31
0.0
  0
LINE
  5
BF7F
330
B9C5
100
AcDbEntity
  8
SUNPOU
100
AcDbLine
 10
281.2341610794247
 20
-318.5881127500073
 30
0.0
 11
281.2341610794246
 21
-421.1751149429672
 31
0.0
  0
INSERT
  5
BF80
330
B9C5
100
AcDbEntity
  8
SUNPOU
100
AcDbBlockReference
  2
_OPEN
 10
281.2341610794247
 20
-311.5881127500073
 30
0.0
 41
7.0
 42
7.0
 43
7.0
 50
90.0
  0
INSERT
  5
BF81
330
B9C5
100
AcDbEntity
  8
SUNPOU
100
AcDbBlockReference
  2
_OPEN
 10
281.2341610794246
 20
-428.1751149429672
 30
0.0
 41
7.0
 42
7.0
 43
7.0
 50
270.0
  0
MTEXT
  5
BF82
330
B9C5
100
AcDbEntity
  8
SUNPOU
100
AcDbMText
 10
276.2341610794247
 20
-369.8816138464872
 30
0.0
 40
6.0
 41
0.0
 71
     5
 72
     1
  1
\A1;117
 11
0.0000000000000001
 21
1.0
 31
0.0
  0
POINT
  5
BF83
330
B9C5
100
AcDbEntity
  8
DEFPOINTS
 62
     0
100
AcDbPoint
 10
242.1034587578014
 20
-311.5881127500073
 30
0.0
  0
POINT
  5
BF84
330
B9C5
100
AcDbEntity
  8
DEFPOINTS
 62
     0
100
AcDbPoint
 10
158.0014539913372
 20
-428.1751149429672
 30
0.0
  0
POINT
  5
BF85
330
B9C5
100
AcDbEntity
  8
DEFPOINTS
 62
     0
100
AcDbPoint
 10
281.2341610794246
 20
-428.1751149429672
 30
0.0
  0
ENDBLK
  5
B9D0
330
B9C5
100
AcDbEntity
  8
0
100
AcDbBlockEnd
  0
BLOCK
  5
B9DB
330
B9D1
100
AcDbEntity
  8
0
100
AcDbBlockBegin
  2
*D9
 70
     1
 10
0.0
 20
0.0
 30
0.0
  3
*D9
  1

  0
LINE
  5
BAA0
330
B9D1
100
AcDbEntity
  8
SUNPOU
100
AcDbLine
 10
109.4628453905024
 20
-431.6854433688364
 30
0.0
 11
109.4628453905024
 21
-450.3344156227274
 31
0.0
  0
LINE
  5
BAA1
330
B9D1
100
AcDbEntity
  8
SUNPOU
100
AcDbLine
 10
194.2475525693135
 20
-432.2641394356363
 30
0.0
 11
194.2475525693135
 21
-450.3344156227274
 31
0.0
  0
LINE
  5
BAA2
330
B9D1
100
AcDbEntity
  8
SUNPOU
100
AcDbLine
 10
116.4628453905024
 20
-447.3344156227274
 30
0.0
 11
187.2475525693134
 21
-447.3344156227274
 31
0.0
  0
INSERT
  5
BAA3
330
B9D1
100
AcDbEntity
  8
SUNPOU
100
AcDbBlockReference
  2
_OPEN
 10
109.4628453905024
 20
-447.3344156227274
 30
0.0
 41
7.0
 42
7.0
 43
7.0
 50
180.0
  0
INSERT
  5
BAA4
330
B9D1
100
AcDbEntity
  8
SUNPOU
100
AcDbBlockReference
  2
_OPEN
 10
194.2475525693135
 20
-447.3344156227274
 30
0.0
 41
7.0
 42
7.0
 43
7.0
  0
MTEXT
  5
BAA5
330
B9D1
100
AcDbEntity
  8
SUNPOU
100
AcDbMText
 10
151.8551989799079
 20
-442.3344156227273
 30
0.0
 40
6.0
 41
0.0
 71
     5
 72
     1
  1
\A1;85
1001
ACAD
1000
MTEXTBEGIN
1070
    73
1070
     1
1070
    44
1040
1.0
1070
    74
1070
     0
1000
MTEXTEND
  0
POINT
  5
BAA6
330
B9D1
100
AcDbEntity
  8
DEFPOINTS
 62
     0
100
AcDbPoint
 10
109.4628453905024
 20
-425.6854433688364
 30
0.0
  0
POINT
  5
BAA7
330
B9D1
100
AcDbEntity
  8
DEFPOINTS
 62
     0
100
AcDbPoint
 10
194.2475525693135
 20
-426.2641394356363
 30
0.0
  0
POINT
  5
BAA8
330
B9D1
100
AcDbEntity
  8
DEFPOINTS
 62
     0
100
AcDbPoint
 10
194.2475525693135
 20
-447.3344156227274
 30
0.0
  0
ENDBLK
  5
B9DC
330
B9D1
100
AcDbEntity
  8
0
100
AcDbBlockEnd
  0
BLOCK
  5
B9E7
330
B9DD
100
AcDbEntity
  8
0
100
AcDbBlockBegin
  2
*D10
 70
     1
 10
0.0
 20
0.0
 30
0.0
  3
*D10
  1

  0
LINE
  5
BF8F
330
B9DD
100
AcDbEntity
  8
SUNPOU
100
AcDbLine
 10
333.0071513898083
 20
-429.4746065551855
 30
0.0
 11
333.0071513898083
 21
-450.7406760557228
 31
0.0
  0
LINE
  5
BF90
330
B9DD
100
AcDbEntity
  8
SUNPOU
100
AcDbLine
 10
357.5071513898083
 20
-435.4746065551855
 30
0.0
 11
357.5071513898083
 21
-450.7406760557228
 31
0.0
  0
LINE
  5
BF91
330
B9DD
100
AcDbEntity
  8
SUNPOU
100
AcDbLine
 10
340.0071513898083
 20
-447.7406760557228
 30
0.0
 11
350.5071513898083
 21
-447.7406760557228
 31
0.0
  0
INSERT
  5
BF92
330
B9DD
100
AcDbEntity
  8
SUNPOU
100
AcDbBlockReference
  2
_OPEN
 10
333.0071513898083
 20
-447.7406760557228
 30
0.0
 41
7.0
 42
7.0
 43
7.0
 50
180.0
  0
INSERT
  5
BF93
330
B9DD
100
AcDbEntity
  8
SUNPOU
100
AcDbBlockReference
  2
_OPEN
 10
357.5071513898083
 20
-447.7406760557228
 30
0.0
 41
7.0
 42
7.0
 43
7.0
  0
MTEXT
  5
BF94
330
B9DD
100
AcDbEntity
  8
SUNPOU
100
AcDbMText
 10
345.2571513898083
 20
-442.7406760557228
 30
0.0
 40
6.0
 41
0.0
 71
     5
 72
     1
  1
\A1;\U+203B25
  0
POINT
  5
BF95
330
B9DD
100
AcDbEntity
  8
DEFPOINTS
 62
     0
100
AcDbPoint
 10
333.0071513898083
 20
-423.4746065551855
 30
0.0
  0
POINT
  5
BF96
330
B9DD
100
AcDbEntity
  8
DEFPOINTS
 62
     0
100
AcDbPoint
 10
357.5071513898083
 20
-429.4746065551855
 30
0.0
  0
POINT
  5
BF97
330
B9DD
100
AcDbEntity
  8
DEFPOINTS
 62
     0
100
AcDbPoint
 10
357.5071513898083
 20
-447.7406760557228
 30
0.0
  0
ENDBLK
  5
B9E8
330
B9DD
100
AcDbEntity
  8
0
100
AcDbBlockEnd
  0
BLOCK
  5
B9F3
330
B9E9
100
AcDbEntity
  8
0
100
AcDbBlockBegin
  2
*D11
 70
     1
 10
0.0
 20
0.0
 30
0.0
  3
*D11
  1

  0
LINE
  5
BF86
330
B9E9
100
AcDbEntity
  8
SUNPOU
100
AcDbLine
 10
330.5071513898083
 20
-432.8309822209805
 30
0.0
 11
330.5071513898083
 21
-470.0735497927444
 31
0.0
  0
LINE
  5
BF87
330
B9E9
100
AcDbEntity
  8
SUNPOU
100
AcDbLine
 10
357.5071513898083
 20
-429.4746065551855
 30
0.0
 11
357.5071513898083
 21
-470.0735497927444
 31
0.0
  0
LINE
  5
BF88
330
B9E9
100
AcDbEntity
  8
SUNPOU
100
AcDbLine
 10
337.5071513898083
 20
-467.0735497927444
 30
0.0
 11
350.5071513898083
 21
-467.0735497927444
 31
0.0
  0
INSERT
  5
BF89
330
B9E9
100
AcDbEntity
  8
SUNPOU
100
AcDbBlockReference
  2
_OPEN
 10
330.5071513898083
 20
-467.0735497927444
 30
0.0
 41
7.0
 42
7.0
 43
7.0
 50
180.0
  0
INSERT
  5
BF8A
330
B9E9
100
AcDbEntity
  8
SUNPOU
100
AcDbBlockReference
  2
_OPEN
 10
357.5071513898083
 20
-467.0735497927444
 30
0.0
 41
7.0
 42
7.0
 43
7.0
  0
MTEXT
  5
BF8B
330
B9E9
100
AcDbEntity
  8
SUNPOU
100
AcDbMText
 10
344.0071513898083
 20
-462.0735497927443
 30
0.0
 40
6.0
 41
0.0
 71
     5
 72
     1
  1
\A1;27
  0
POINT
  5
BF8C
330
B9E9
100
AcDbEntity
  8
DEFPOINTS
 62
     0
100
AcDbPoint
 10
330.5071513898083
 20
-426.8309822209806
 30
0.0
  0
POINT
  5
BF8D
330
B9E9
100
AcDbEntity
  8
DEFPOINTS
 62
     0
100
AcDbPoint
 10
357.5071513898083
 20
-423.4746065551855
 30
0.0
  0
POINT
  5
BF8E
330
B9E9
100
AcDbEntity
  8
DEFPOINTS
 62
     0
100
AcDbPoint
 10
357.5071513898083
 20
-467.0735497927444
 30
0.0
  0
ENDBLK
  5
B9F4
330
B9E9
100
AcDbEntity
  8
0
100
AcDbBlockEnd
  0
BLOCK
  5
B9FF
330
B9F5
100
AcDbEntity
  8
0
100
AcDbBlockBegin
  2
*D12
 70
     1
 10
0.0
 20
0.0
 30
0.0
  3
*D12
  1

  0
LINE
  5
BA97
330
B9F5
100
AcDbEntity
  8
SUNPOU
100
AcDbLine
 10
109.4016818360523
 20
-307.5881093525425
 30
0.0
 11
109.4016818360523
 21
-287.2977555255611
 31
0.0
  0
LINE
  5
BA98
330
B9F5
100
AcDbEntity
  8
SUNPOU
100
AcDbLine
 10
245.8014575795368
 20
-308.5066094779507
 30
0.0
 11
245.8014575795368
 21
-287.2977555255611
 31
0.0
  0
LINE
  5
BA99
330
B9F5
100
AcDbEntity
  8
SUNPOU
100
AcDbLine
 10
116.4016818360523
 20
-290.2977555255611
 30
0.0
 11
238.8014575795368
 21
-290.2977555255611
 31
0.0
  0
INSERT
  5
BA9A
330
B9F5
100
AcDbEntity
  8
SUNPOU
100
AcDbBlockReference
  2
_OPEN
 10
109.4016818360523
 20
-290.2977555255611
 30
0.0
 41
7.0
 42
7.0
 43
7.0
 50
180.0
  0
INSERT
  5
BA9B
330
B9F5
100
AcDbEntity
  8
SUNPOU
100
AcDbBlockReference
  2
_OPEN
 10
245.8014575795368
 20
-290.2977555255611
 30
0.0
 41
7.0
 42
7.0
 43
7.0
  0
MTEXT
  5
BA9C
330
B9F5
100
AcDbEntity
  8
SUNPOU
100
AcDbMText
 10
177.6015697077946
 20
-285.2977555255611
 30
0.0
 40
6.0
 41
0.0
 71
     5
 72
     1
  1
\A1;136
1001
ACAD
1000
MTEXTBEGIN
1070
    73
1070
     1
1070
    44
1040
1.0
1070
    74
1070
     0
1000
MTEXTEND
  0
POINT
  5
BA9D
330
B9F5
100
AcDbEntity
  8
DEFPOINTS
 62
     0
100
AcDbPoint
 10
109.4016818360523
 20
-313.5881093525425
 30
0.0
  0
POINT
  5
BA9E
330
B9F5
100
AcDbEntity
  8
DEFPOINTS
 62
     0
100
AcDbPoint
 10
245.8014575795368
 20
-314.5066094779507
 30
0.0
  0
POINT
  5
BA9F
330
B9F5
100
AcDbEntity
  8
DEFPOINTS
 62
     0
100
AcDbPoint
 10
245.8014575795368
 20
-290.2977555255611
 30
0.0
  0
ENDBLK
  5
BA00
330
B9F5
100
AcDbEntity
  8
0
100
AcDbBlockEnd
  0
BLOCK
  5
BA0B
330
BA01
100
AcDbEntity
  8
0
100
AcDbBlockBegin
  2
*D13
 70
     1
 10
0.0
 20
0.0
 30
0.0
  3
*D13
  1

  0
LINE
  5
BF98
330
BA01
100
AcDbEntity
  8
SUNPOU
100
AcDbLine
 10
245.9455718707709
 20
-338.7386919413836
 30
0.0
 11
266.0327565162968
 21
-338.7386919413836
 31
0.0
  0
LINE
  5
BF99
330
BA01
100
AcDbEntity
  8
SUNPOU
100
AcDbLine
 10
248.7158368782238
 20
-311.5087342643276
 30
0.0
 11
266.0327565162968
 21
-311.5087342643276
 31
0.0
  0
LINE
  5
BF9A
330
BA01
100
AcDbEntity
  8
SUNPOU
100
AcDbLine
 10
263.0327565162967
 20
-331.7386919413836
 30
0.0
 11
263.0327565162967
 21
-318.5087342643276
 31
0.0
  0
INSERT
  5
BF9B
330
BA01
100
AcDbEntity
  8
SUNPOU
100
AcDbBlockReference
  2
_OPEN
 10
263.0327565162967
 20
-338.7386919413836
 30
0.0
 41
7.0
 42
7.0
 43
7.0
 50
270.0
  0
INSERT
  5
BF9C
330
BA01
100
AcDbEntity
  8
SUNPOU
100
AcDbBlockReference
  2
_OPEN
 10
263.0327565162967
 20
-311.5087342643276
 30
0.0
 41
7.0
 42
7.0
 43
7.0
 50
90.0
  0
MTEXT
  5
BF9D
330
BA01
100
AcDbEntity
  8
SUNPOU
100
AcDbMText
 10
258.0327565162968
 20
-325.1237131028556
 30
0.0
 40
6.0
 41
0.0
 71
     5
 72
     1
  1
\A1;27
 11
0.0000000000000001
 21
1.0
 31
0.0
  0
POINT
  5
BF9E
330
BA01
100
AcDbEntity
  8
DEFPOINTS
 62
     0
100
AcDbPoint
 10
239.9455718707709
 20
-338.7386919413836
 30
0.0
  0
POINT
  5
BF9F
330
BA01
100
AcDbEntity
  8
DEFPOINTS
 62
     0
100
AcDbPoint
 10
242.7158368782238
 20
-311.5087342643276
 30
0.0
  0
POINT
  5
BFA0
330
BA01
100
AcDbEntity
  8
DEFPOINTS
 62
     0
100
AcDbPoint
 10
263.0327565162967
 20
-311.5087342643276
 30
0.0
  0
ENDBLK
  5
BA0C
330
BA01
100
AcDbEntity
  8
0
100
AcDbBlockEnd
  0
BLOCK
  5
BA17
330
BA0D
100
AcDbEntity
  8
0
100
AcDbBlockBegin
  2
*D14
 70
     1
 10
0.0
 20
0.0
 30
0.0
  3
*D14
  1

  0
LINE
  5
BFA1
330
BA0D
100
AcDbEntity
  8
SUNPOU
100
AcDbLine
 10
326.5525590508081
 20
-305.6686639150856
 30
0.0
 11
326.5525590508081
 21
-287.2977555255611
 31
0.0
  0
LINE
  5
BFA2
330
BA0D
100
AcDbEntity
  8
SUNPOU
100
AcDbLine
 10
357.5071513898083
 20
-305.8178858801856
 30
0.0
 11
357.5071513898083
 21
-287.2977555255611
 31
0.0
  0
LINE
  5
BFA3
330
BA0D
100
AcDbEntity
  8
SUNPOU
100
AcDbLine
 10
333.5525590508081
 20
-290.2977555255611
 30
0.0
 11
350.5071513898083
 21
-290.2977555255611
 31
0.0
  0
INSERT
  5
BFA4
330
BA0D
100
AcDbEntity
  8
SUNPOU
100
AcDbBlockReference
  2
_OPEN
 10
326.5525590508081
 20
-290.2977555255611
 30
0.0
 41
7.0
 42
7.0
 43
7.0
 50
180.0
  0
INSERT
  5
BFA5
330
BA0D
100
AcDbEntity
  8
SUNPOU
100
AcDbBlockReference
  2
_OPEN
 10
357.5071513898083
 20
-290.2977555255611
 30
0.0
 41
7.0
 42
7.0
 43
7.0
  0
MTEXT
  5
BFA6
330
BA0D
100
AcDbEntity
  8
SUNPOU
100
AcDbMText
 10
342.0298552203082
 20
-285.2977555255611
 30
0.0
 40
6.0
 41
0.0
 71
     5
 72
     1
  1
\A1;31
  0
POINT
  5
BFA7
330
BA0D
100
AcDbEntity
  8
DEFPOINTS
 62
     0
100
AcDbPoint
 10
326.5525590508081
 20
-311.6686639150856
 30
0.0
  0
POINT
  5
BFA8
330
BA0D
100
AcDbEntity
  8
DEFPOINTS
 62
     0
100
AcDbPoint
 10
357.5071513898083
 20
-311.8178858801856
 30
0.0
  0
POINT
  5
BFA9
330
BA0D
100
AcDbEntity
  8
DEFPOINTS
 62
     0
100
AcDbPoint
 10
357.5071513898083
 20
-290.2977555255611
 30
0.0
  0
ENDBLK
  5
BA18
330
BA0D
100
AcDbEntity
  8
0
100
AcDbBlockEnd
  0
ENDSEC
  0
SECTION
  2
ENTITIES
  0
DIMENSION
  5
A6F1
330
1A
100
AcDbEntity
  8
SUNPOU
100
AcDbDimension
  2
*D4
 10
531.2062103729877
 20
-428.1751149429672
 30
0.0
 11
526.2062103729878
 21
-369.8816138464872
 31
0.0
 70
    32
  3
STANDARD
100
AcDbAlignedDimension
 13
570.3369126946109
 23
-311.5881127500073
 33
0.0
 14
654.4389174610751
 24
-428.1751149429672
 34
0.0
 50
90.0
100
AcDbRotatedDimension
1001
ACAD
1000
DSTYLE
1002
{
1070
   287
1070
     5
1070
   287
1070
     5
1070
   287
1070
     5
1070
   287
1070
     5
1070
   287
1070
     5
1070
   287
1070
     5
1070
   287
1070
     5
1070
   287
1070
     5
1070
   287
1070
     5
1070
   287
1070
     5
1070
   287
1070
     5
1070
   287
1070
     5
1070
    41
1040
7.0
1070
    42
1040
6.0
1070
    43
1040
14.0
1070
    44
1040
3.0
1070
    73
1070
     0
1070
    74
1070
     0
1070
    77
1070
     3
1070
   140
1040
6.0
1070
   141
1040
150.0
1070
   147
1040
2.0
1070
   172
1070
     1
1070
   173
1070
     1
1070
   176
1070
   256
1070
   177
1070
   256
1070
   178
1070
   256
1070
   271
1070
     0
1070
   272
1070
     0
1070
   279
1070
     2
1070
   341
1005
6D
1070
     6
1000
OPEN
1070
     7
1000
OPEN
1070
   371
1070
    -1
1070
   372
1070
    -1
1002
}
  0
LINE
  5
A6F2
330
1A
100
AcDbEntity
  8
SEIHIN
100
AcDbLine
 10
584.4389174610751
 20
-343.5420779031635
 30
0.0
 11
584.438917132041
 21
-338.7386919413836
 31
0.0
  0
LINE
  5
A6F3
330
1A
100
AcDbEntity
  8
SEIHIN
100
AcDbLine
 10
702.9775260619098
 20
-425.6854433688364
 30
0.0
 11
702.9775260619098
 21
-337.391592792294
 31
0.0
  0
LINE
  5
A6F8
330
1A
100
AcDbEntity
  8
SEIHIN
100
AcDbLine
 10
454.933220062604
 20
-423.4746065551855
 30
0.0
 11
454.933220062604
 21
-336.6945914225856
 31
0.0
  0
LINE
  5
A6F9
330
1A
100
AcDbEntity
  8
SEIHIN
100
AcDbLine
 10
482.9886900823039
 20
-414.8267720957855
 30
0.0
 11
482.9886900823039
 21
-337.4721464823855
 31
0.0
  0
ELLIPSE
  5
A707
330
1A
100
AcDbEntity
  8
SEIHIN
100
AcDbEllipse
 10
503.0348868648038
 20
-413.7100128289856
 30
0.0
 11
28.05546919065125
 21
1.56568198455011
 31
0.0
210
0.0
220
0.0
230
0.9999999999999998
 40
0.0355874201
 41
3.24472607296105
 42
3.915640069447357
  0
DIMENSION
  5
A708
330
1A
100
AcDbEntity
  8
SUNPOU
100
AcDbDimension
  2
*D2
 10
618.1928188830989
 20
-447.3344156227274
 30
0.0
 11
660.5851724725043
 21
-442.3344156227273
 31
0.0
 70
    32
  3
STANDARD
100
AcDbAlignedDimension
 13
702.9775260619098
 23
-425.6854433688364
 33
0.0
 14
618.1928188830989
 24
-426.2641394356363
 34
0.0
 50
180.0
100
AcDbRotatedDimension
1001
ACAD
1000
DSTYLE
1002
{
1070
    41
1040
7.0
1070
    42
1040
6.0
1070
    43
1040
14.0
1070
    44
1040
3.0
1070
    73
1070
     0
1070
    74
1070
     0
1070
    77
1070
     3
1070
   140
1040
6.0
1070
   141
1040
150.0
1070
   147
1040
2.0
1070
   172
1070
     1
1070
   173
1070
     1
1070
   176
1070
   256
1070
   177
1070
   256
1070
   178
1070
   256
1070
   271
1070
     0
1070
   272
1070
     0
1070
   341
1005
6D
1070
     6
1000
OPEN
1070
     7
1000
OPEN
1070
   371
1070
    -1
1070
   372
1070
    -1
1002
}
  0
LINE
  5
A709
330
1A
100
AcDbEntity
  8
SEIHIN
100
AcDbLine
 10
702.9775260619098
 20
-416.1922051766055
 30
0.0
 11
608.8924006849902
 21
-416.1922051766055
 31
0.0
  0
ARC
  5
A70A
330
1A
100
AcDbEntity
  8
SEIHIN
100
AcDbCircle
 10
654.4389174610751
 20
574.3077951288681
 30
0.0
 40
1002.5
100
AcDbArc
 50
268.0319162589281
 51
272.6371916615792
  0
LWPOLYLINE
  5
A70B
330
1A
100
AcDbEntity
  8
SEIHIN
100
AcDbPolyline
 90
        4
 70
   128
 43
0.0
 10
700.5665422708171
 20
-427.1304166372032
 10
701.5515388280528
 20
-426.9157448046938
 10
702.4098717898505
 20
-426.38687756463
 10
702.9775260619098
 20
-425.6854433688364
  0
LINE
  5
A70C
330
1A
100
AcDbEntity
  8
SEIHIN
100
AcDbLine
 10
700.5665422708171
 20
-427.1304166372032
 30
0.0
 11
700.5653732846231
 21
-427.1304706035522
 31
0.0
  0
ARC
  5
A70D
330
1A
100
AcDbEntity
  8
SEIHIN
100
AcDbCircle
 10
1548.471812589951
 20
-68.50239511277482
 30
0.0
 40
1002.5
100
AcDbArc
 50
195.9235084710835
 51
200.2532989701011
  0
LINE
  5
A70E
330
1A
100
AcDbEntity
  8
CENTER_L
  6
CENTER
 62
     1
 48
5.0
100
AcDbLine
 10
654.4389174610751
 20
-404.9826889924644
 30
0.0
 11
654.4389174610751
 21
-435.3008718665354
 31
0.0
  0
LINE
  5
A70F
330
1A
100
AcDbEntity
  8
SEIHIN
100
AcDbLine
 10
618.1928188830989
 20
-426.2641394356363
 30
0.0
 11
614.899829897322
 21
-416.8611462422744
 31
0.0
  0
LWPOLYLINE
  5
A710
330
1A
100
AcDbEntity
  8
SEIHIN
100
AcDbPolyline
 90
        5
 70
   128
 43
0.0
 10
618.1936049193518
 20
-426.2663874737085
 10
618.3486366004126
 20
-426.6038553518341
 10
618.7763446301596
 20
-427.1196938547404
 10
619.3511680990832
 20
-427.4651215140806
 10
620.0078883499282
 20
-427.6007597995088
  0
LWPOLYLINE
  5
A711
330
1A
100
AcDbEntity
  8
SEIHIN
100
AcDbPolyline
 90
        3
 70
   128
 43
0.0
 10
620.0102725357192
 20
-427.600842687218
 10
620.0090804428237
 20
-427.6008014761941
 10
620.0078883499282
 20
-427.6007597995088
  0
LWPOLYLINE
  5
A712
330
1A
100
AcDbEntity
  8
SEIHIN
100
AcDbPolyline
 90
        3
 70
   128
 43
0.0
 10
618.1936049193518
 20
-426.2663874737085
 10
618.1932100385802
 20
-426.2652635419839
 10
618.1928188830989
 20
-426.2641394356363
  0
ARC
  5
A713
330
1A
100
AcDbEntity
  8
SEIHIN
100
AcDbCircle
 10
608.8920163009372
 20
-415.1935569722346
 30
0.0
 40
0.9986482132848875
100
AcDbArc
 50
200.2608421669845
 51
269.9923446012411
  0
LINE
  5
A714
330
1A
100
AcDbEntity
  8
SEIHIN
100
AcDbLine
 10
608.8924006849902
 20
-416.1922051766055
 30
0.0
 11
608.8918828696387
 21
-416.1922051766055
 31
0.0
  0
ARC
  5
A715
330
1A
100
AcDbEntity
  8
SEIHIN
100
AcDbCircle
 10
1548.471812589951
 20
-68.50239511277482
 30
0.0
 40
1002.5
100
AcDbArc
 50
200.2532989701011
 51
200.2533284953957
  0
LINE
  5
A716
330
1A
100
AcDbEntity
  8
SEIHIN
100
AcDbLine
 10
613.9571787149089
 20
-416.1922051766055
 30
0.0
 11
613.9567838341372
 21
-416.1922051766055
 31
0.0
  0
LWPOLYLINE
  5
A717
330
1A
100
AcDbEntity
  8
SEIHIN
100
AcDbPolyline
 90
        5
 70
   128
 43
0.0
 10
614.8994648188727
 20
-416.860105023636
 10
614.8041718930381
 20
-416.6617696368233
 10
614.5813920826094
 20
-416.4112904303805
 10
614.2879397899287
 20
-416.2485725441114
 10
613.9571787149089
 20
-416.1922051766054
  0
LINE
  5
A718
330
1A
100
AcDbEntity
  8
SEIHIN
100
AcDbLine
 10
614.899829897322
 20
-416.8611462422744
 30
0.0
 11
614.8994648188727
 21
-416.860105023636
 31
0.0
  0
DIMENSION
  5
A71C
330
1A
100
AcDbEntity
  8
SUNPOU
100
AcDbDimension
  2
*D6
 10
454.933220062604
 20
-447.7406760557228
 30
0.0
 11
467.183220062604
 21
-442.7406760557228
 31
0.0
 70
    32
  1
\U+203B<>
  3
STANDARD
100
AcDbAlignedDimension
 13
479.433220062604
 23
-423.4746065551855
 33
0.0
 14
454.933220062604
 24
-429.4746065551855
 34
0.0
 50
180.0
100
AcDbRotatedDimension
1001
ACAD
1000
DSTYLE
1002
{
1070
    41
1040
7.0
1070
    42
1040
6.0
1070
    43
1040
14.0
1070
    44
1040
3.0
1070
    73
1070
     0
1070
    74
1070
     0
1070
    77
1070
     3
1070
   140
1040
6.0
1070
   141
1040
150.0
1070
   147
1040
2.0
1070
   172
1070
     1
1070
   173
1070
     1
1070
   176
1070
   256
1070
   177
1070
   256
1070
   178
1070
   256
1070
   271
1070
     0
1070
   272
1070
     0
1070
   341
1005
6D
1070
     6
1000
OPEN
1070
     7
1000
OPEN
1070
   371
1070
    -1
1070
   372
1070
    -1
1002
}
  0
DIMENSION
  5
A71D
330
1A
100
AcDbEntity
  8
SUNPOU
100
AcDbDimension
  2
*D5
 10
454.933220062604
 20
-467.0735497927444
 30
0.0
 11
468.433220062604
 21
-462.0735497927443
 31
0.0
 70
    32
  3
STANDARD
100
AcDbAlignedDimension
 13
481.933220062604
 23
-426.8309822209806
 33
0.0
 14
454.933220062604
 24
-423.4746065551855
 34
0.0
 50
180.0
100
AcDbRotatedDimension
1001
ACAD
1000
DSTYLE
1002
{
1070
    41
1040
7.0
1070
    42
1040
6.0
1070
    43
1040
14.0
1070
    44
1040
3.0
1070
    73
1070
     0
1070
    74
1070
     0
1070
    77
1070
     3
1070
   140
1040
6.0
1070
   141
1040
150.0
1070
   147
1040
2.0
1070
   172
1070
     1
1070
   173
1070
     1
1070
   176
1070
   256
1070
   177
1070
   256
1070
   178
1070
   256
1070
   271
1070
     0
1070
   272
1070
     0
1070
   341
1005
6D
1070
     6
1000
OPEN
1070
     7
1000
OPEN
1070
   371
1070
    -1
1070
   372
1070
    -1
1002
}
  0
LWPOLYLINE
  5
A71E
330
1A
100
AcDbEntity
  8
SEIHIN
100
AcDbPolyline
 90
        3
 70
   128
 43
0.0
 10
481.933220062604
 20
-426.8309822209806
 10
475.993998072204
 20
-427.1640251924856
 10
474.9332221141039
 20
-427.2337213483856
  0
LINE
  5
A71F
330
1A
100
AcDbEntity
  8
SEIHIN
100
AcDbLine
 10
481.933220062604
 20
-426.8309822209806
 30
0.0
 11
481.933220062604
 21
-416.1813186607855
 31
0.0
  0
ARC
  5
A720
330
1A
100
AcDbEntity
  8
SEIHIN
100
AcDbCircle
 10
488.4120561556037
 20
-416.3675217072856
 30
0.0
 40
6.481511297102771
100
AcDbArc
 50
172.8155881430002
 51
178.3537609885996
  0
ARC
  5
A721
330
1A
100
AcDbEntity
  8
SEIHIN
100
AcDbCircle
 10
478.472607626104
 20
-415.3260022723856
 30
0.0
 40
4.543592358469249
100
AcDbArc
 50
357.4576764547541
 51
6.30814755239993
  0
LINE
  5
A722
330
1A
100
AcDbEntity
  8
SEIHIN
100
AcDbLine
 10
454.933220062604
 20
-426.4692062854855
 30
0.0
 11
454.933220062604
 21
-423.4746065551855
 31
0.0
  0
LWPOLYLINE
  5
A723
330
1A
100
AcDbEntity
  8
SEIHIN
100
AcDbPolyline
 90
        3
 70
   128
 43
0.0
 10
474.9332200626041
 20
-427.2337749017856
 10
468.942408320104
 20
-427.0048171869856
 10
454.933220062604
 20
-426.4692062854855
  0
LINE
  5
A724
330
1A
100
AcDbEntity
  8
SEIHIN
100
AcDbLine
 10
475.13422776461
 20
-415.3701637082856
 30
0.0
 11
454.933220062604
 21
-415.3701637082856
 31
0.0
  0
ELLIPSE
  5
A770
330
1A
100
AcDbEntity
  8
SEIHIN
100
AcDbEllipse
 10
485.8878124016042
 20
-313.6686639150856
 30
0.0
 11
-0.0000000000000373
 21
2.0
 31
0.0
210
0.0
220
0.0
230
1.0
 40
0.0227038305000065
 41
4.712388980384689
 42
6.283185307178762
  0
DIMENSION
  5
A771
330
1A
100
AcDbEntity
  8
SUNPOU
100
AcDbDimension
  2
*D1
 10
566.6389138728755
 20
-290.2977555255611
 30
0.0
 11
634.8388017446177
 21
-285.2977555255611
 31
0.0
 70
    32
  3
STANDARD
100
AcDbAlignedDimension
 13
703.03868961636
 23
-313.5881093525425
 33
0.0
 14
566.6389138728755
 24
-314.5066094779507
 34
0.0
 50
180.0
100
AcDbRotatedDimension
1001
ACAD
1000
DSTYLE
1002
{
1070
    41
1040
7.0
1070
    42
1040
6.0
1070
    43
1040
14.0
1070
    44
1040
3.0
1070
    73
1070
     0
1070
    74
1070
     0
1070
    77
1070
     3
1070
   140
1040
6.0
1070
   141
1040
150.0
1070
   147
1040
2.0
1070
   172
1070
     1
1070
   173
1070
     1
1070
   176
1070
   256
1070
   177
1070
   256
1070
   178
1070
   256
1070
   271
1070
     0
1070
   272
1070
     0
1070
   341
1005
6D
1070
     6
1000
OPEN
1070
     7
1000
OPEN
1070
   371
1070
    -1
1070
   372
1070
    -1
1002
}
  0
LINE
  5
A772
330
1A
100
AcDbEntity
  8
SEIHIN
100
AcDbLine
 10
700.9684416699705
 20
-311.5881102249856
 30
0.0
 11
570.3369005781869
 21
-311.5881102249856
 31
0.0
  0
LINE
  5
A773
330
1A
100
AcDbEntity
  8
SEIHIN
100
AcDbLine
 10
572.4947995816414
 20
-338.7386919413836
 30
0.0
 11
703.03868961636
 21
-338.7386919413836
 31
0.0
  0
LINE
  5
A774
330
1A
100
AcDbEntity
  8
SEIHIN
100
AcDbLine
 10
703.03868961636
 20
-338.7386919413836
 30
0.0
 11
703.03868961636
 21
-313.5881093525425
 31
0.0
  0
LWPOLYLINE
  5
A775
330
1A
100
AcDbEntity
  8
SEIHIN
100
AcDbPolyline
 90
        9
 70
   128
 43
0.0
 10
703.03868961636
 20
-313.5881093525425
 10
703.0002185434478
 20
-313.1979298972622
 10
702.8862917155402
 20
-312.8227410101429
 10
702.7012788981574
 20
-312.4769670152203
 10
702.4522991210597
 20
-312.1738997482792
 10
702.1489114791529
 20
-311.9251695656315
 10
701.8027798563617
 20
-311.7403504633442
 10
701.4272072643416
 20
-311.6265428447262
 10
701.0366217524188
 20
-311.5881127500073
  0
LINE
  5
A776
330
1A
100
AcDbEntity
  8
SEIHIN
100
AcDbLine
 10
701.0366217524188
 20
-311.5881127500073
 30
0.0
 11
700.9684416699705
 21
-311.5881102249856
 31
0.0
  0
LINE
  5
A777
330
1A
100
AcDbEntity
  8
SEIHIN
100
AcDbLine
 10
566.6389138728755
 20
-320.5854562305943
 30
0.0
 11
566.6389138728755
 21
-314.5066094779507
 31
0.0
  0
DIMENSION
  5
A778
330
1A
100
AcDbEntity
  8
SUNPOU
100
AcDbDimension
  2
*D3
 10
549.4076149361156
 20
-311.5087342643276
 30
0.0
 11
544.4076149361157
 21
-325.1237131028555
 31
0.0
 70
    32
  3
STANDARD
100
AcDbAlignedDimension
 13
572.4947995816414
 23
-338.7386919413836
 33
0.0
 14
569.7245345741885
 24
-311.5087342643276
 34
0.0
 50
90.0
100
AcDbRotatedDimension
1001
ACAD
1000
DSTYLE
1002
{
1070
   287
1070
     4
1070
   287
1070
     4
1070
   287
1070
     4
1070
   287
1070
     4
1070
   287
1070
     4
1070
   287
1070
     4
1070
   287
1070
     4
1070
   287
1070
     4
1070
   287
1070
     4
1070
   287
1070
     4
1070
   287
1070
     4
1070
   287
1070
     4
1070
   279
1070
     1
1070
    41
1040
7.0
1070
    42
1040
6.0
1070
    43
1040
14.0
1070
    44
1040
3.0
1070
    73
1070
     0
1070
    74
1070
     0
1070
    77
1070
     3
1070
   140
1040
6.0
1070
   141
1040
150.0
1070
   147
1040
2.0
1070
   172
1070
     1
1070
   173
1070
     1
1070
   176
1070
   256
1070
   177
1070
   256
1070
   178
1070
   256
1070
   271
1070
     0
1070
   272
1070
     0
1070
   341
1005
6D
1070
     6
1000
OPEN
1070
     7
1000
OPEN
1070
   371
1070
    -1
1070
   372
1070
    -1
1002
}
  0
LINE
  5
A779
330
1A
100
AcDbEntity
  8
SEIHIN
100
AcDbLine
 10
572.4947995816414
 20
-338.7386919413836
 30
0.0
 11
566.6389138728755
 21
-320.5854562305943
 31
0.0
  0
LINE
  5
A77A
330
1A
100
AcDbEntity
  8
SEIHIN
100
AcDbLine
 10
570.3369126946109
 20
-311.5881127500073
 30
0.0
 11
570.2535034448283
 21
-311.5707305454745
 31
0.0
  0
LWPOLYLINE
  5
A77B
330
1A
100
AcDbEntity
  8
SEIHIN
100
AcDbPolyline
 90
       11
 70
   128
 43
0.0
 10
570.2535034448283
 20
-311.5707305454746
 10
569.7245345741885
 20
-311.5087342643276
 10
569.1929505497592
 20
-311.5410697841182
 10
568.675485375561
 20
-311.666731276466
 10
568.1884185701983
 20
-311.8817699336544
 10
567.7470610767977
 20
-312.1794057273403
 10
567.3653082281726
 20
-312.5502881788746
 10
567.0551629096644
 20
-312.9827496790424
 10
566.8263779312747
 20
-313.4631780170932
 10
566.6861580044406
 20
-313.9764634155766
 10
566.6389138728755
 20
-314.5064604663387
  0
DIMENSION
  5
A788
330
1A
100
AcDbEntity
  8
SUNPOU
100
AcDbDimension
  2
*D7
 10
454.933220062604
 20
-290.2977555255611
 30
0.0
 11
470.4105162321041
 21
-285.2977555255611
 31
0.0
 70
    32
  3
STANDARD
100
AcDbAlignedDimension
 13
485.8878124016042
 23
-311.6686639150856
 33
0.0
 14
454.933220062604
 24
-311.8178858801856
 34
0.0
 50
180.0
100
AcDbRotatedDimension
1001
ACAD
1000
DSTYLE
1002
{
1070
    41
1040
7.0
1070
    42
1040
6.0
1070
    43
1040
14.0
1070
    44
1040
3.0
1070
    73
1070
     0
1070
    74
1070
     0
1070
    77
1070
     3
1070
   140
1040
6.0
1070
   141
1040
150.0
1070
   147
1040
2.0
1070
   172
1070
     1
1070
   173
1070
     1
1070
   176
1070
   256
1070
   177
1070
   256
1070
   178
1070
   256
1070
   271
1070
     0
1070
   272
1070
     0
1070
   341
1005
6D
1070
     6
1000
OPEN
1070
     7
1000
OPEN
1070
   371
1070
    -1
1070
   372
1070
    -1
1002
}
  0
LINE
  5
A789
330
1A
100
AcDbEntity
  8
SEIHIN
100
AcDbLine
 10
485.9332200626041
 20
-337.3922048710856
 30
0.0
 11
485.9332200626041
 21
-313.6686639150856
 31
0.0
  0
LINE
  5
A78A
330
1A
100
AcDbEntity
  8
SEIHIN
100
AcDbLine
 10
454.933220062604
 20
-320.3514083086856
 30
0.0
 11
454.933220062604
 21
-316.4727585611856
 31
0.0
  0
LINE
  5
A78B
330
1A
100
AcDbEntity
  8
SEIHIN
100
AcDbLine
 10
485.933220062604
 20
-320.4596140125857
 30
0.0
 11
454.933220062604
 21
-320.4596140125857
 31
0.0
  0
LINE
  5
A78C
330
1A
100
AcDbEntity
  8
SEIHIN
100
AcDbLine
 10
485.9332200626041
 20
-337.3922048710856
 30
0.0
 11
454.933220062604
 21
-337.3922048710856
 31
0.0
  0
LINE
  5
A78D
330
1A
100
AcDbEntity
  8
SEIHIN
100
AcDbLine
 10
454.933220062604
 20
-334.6945914225856
 30
0.0
 11
454.933220062604
 21
-320.3514083086856
 31
0.0
  0
LINE
  5
A78E
330
1A
100
AcDbEntity
  8
SEIHIN
100
AcDbLine
 10
454.933220062604
 20
-336.6945914225856
 30
0.0
 11
454.933220062604
 21
-334.6945914225856
 31
0.0
  0
LINE
  5
A78F
330
1A
100
AcDbEntity
  8
SEIHIN
100
AcDbLine
 10
471.433220062604
 20
-311.6686639150856
 30
0.0
 11
483.433220062604
 21
-311.6686639150856
 31
0.0
  0
LINE
  5
A790
330
1A
100
AcDbEntity
  8
SEIHIN
100
AcDbLine
 10
483.433220062604
 20
-311.6686639150856
 30
0.0
 11
485.8878124016042
 21
-311.6686639150856
 31
0.0
  0
LINE
  5
A791
330
1A
100
AcDbEntity
  8
SEIHIN
100
AcDbLine
 10
471.433220062604
 20
-311.6803858801856
 30
0.0
 11
454.933220062604
 21
-311.8178858801856
 31
0.0
  0
LINE
  5
A792
330
1A
100
AcDbEntity
  8
SEIHIN
100
AcDbLine
 10
454.933220062604
 20
-312.6264720850856
 30
0.0
 11
454.933220062604
 21
-311.8178858801856
 31
0.0
  0
LINE
  5
A793
330
1A
100
AcDbEntity
  8
SEIHIN
100
AcDbLine
 10
454.933220062604
 20
-316.4727585611856
 30
0.0
 11
454.933220062604
 21
-315.1865443774855
 31
0.0
  0
LINE
  5
A794
330
1A
100
AcDbEntity
  8
SEIHIN
100
AcDbLine
 10
454.933220062604
 20
-315.1865443774855
 30
0.0
 11
454.933220062604
 21
-314.9766651948856
 31
0.0
  0
LINE
  5
A795
330
1A
100
AcDbEntity
  8
SEIHIN
100
AcDbLine
 10
454.933220062604
 20
-314.9766651948856
 30
0.0
 11
454.933220062604
 21
-312.6264720850856
 31
0.0
  0
LWPOLYLINE
  5
A88A
330
1A
100
AcDbEntity
  8
ZUWAKU
100
AcDbPolyline
 90
        4
 70
     1
 43
0.0
 10
0.800000013555973
 20
-59.61195732358238
 10
0.800000013555973
 20
-609.6119573235823
 10
796.8000000135559
 20
-609.6119573235823
 10
796.8000000135559
 20
-59.61195732358238
  0
LWPOLYLINE
  5
A88B
330
1A
100
AcDbEntity
  8
ZUWAKU
100
AcDbPolyline
 90
        4
 70
     1
 43
0.0
 10
0.4000000135559958
 20
-59.21195732358239
 10
0.4000000135559958
 20
-610.0119573235823
 10
797.200000013556
 20
-610.0119573235823
 10
797.200000013556
 20
-59.21195732358239
  0
LWPOLYLINE
  5
A88C
330
1A
100
AcDbEntity
  8
ZUWAKU
100
AcDbPolyline
 90
        4
 70
     1
 43
0.0
 10
0.0000000135560185
 20
-58.81195732358242
 10
0.0000000135560185
 20
-610.4119573235824
 10
797.6000000135561
 20
-610.4119573235823
 10
797.6000000135561
 20
-58.8119573235823
  0
LWPOLYLINE
  5
A88D
330
1A
100
AcDbEntity
  8
ZUWAKU
100
AcDbPolyline
 90
        4
 70
     1
 43
0.0
 10
0.6000000135559276
 20
-59.41195732358233
 10
0.6000000135559276
 20
-609.8119573235824
 10
797.0000000135562
 20
-609.8119573235824
 10
797.000000013556
 20
-59.41195732358233
  0
LWPOLYLINE
  5
A88E
330
1A
100
AcDbEntity
  8
ZUWAKU
100
AcDbPolyline
 90
        4
 70
     1
 43
0.0
 10
0.2000000135559503
 20
-59.01195732358235
 10
0.2000000135559503
 20
-610.2119573235824
 10
797.4000000135559
 20
-610.2119573235824
 10
797.4000000135561
 20
-59.01195732358235
  0
LINE
  5
A88F
330
1A
100
AcDbEntity
  8
ZUWAKU
100
AcDbLine
 10
0.0000000135560185
 20
-580.4119573235824
 30
0.0
 11
797.4000000135559
 21
-580.4119573235824
 31
0.0
  0
LINE
  5
A890
330
1A
100
AcDbEntity
  8
ZUWAKU
100
AcDbLine
 10
0.0000000135560185
 20
-580.2119573235824
 30
0.0
 11
797.4000000135559
 21
-580.2119573235824
 31
0.0
  0
LINE
  5
A891
330
1A
100
AcDbEntity
  8
ZUWAKU
100
AcDbLine
 10
0.0000000135560185
 20
-580.0119573235824
 30
0.0
 11
797.4000000135559
 21
-580.0119573235824
 31
0.0
  0
LINE
  5
A892
330
1A
100
AcDbEntity
  8
ZUWAKU
100
AcDbLine
 10
0.0000000135560185
 20
-579.8119573235823
 30
0.0
 11
797.4000000135559
 21
-579.8119573235823
 31
0.0
  0
LINE
  5
A893
330
1A
100
AcDbEntity
  8
ZUWAKU
100
AcDbLine
 10
0.0000000135560185
 20
-579.6119573235824
 30
0.0
 11
797.4000000135559
 21
-579.6119573235824
 31
0.0
  0
LINE
  5
A894
330
1A
100
AcDbEntity
  8
ZUWAKU
100
AcDbLine
 10
208.646601303624
 20
-595.0119573235824
 30
0.0
 11
447.4243639845474
 21
-595.0119573235824
 31
0.0
  0
LINE
  5
A895
330
1A
100
AcDbEntity
  8
ZUWAKU
100
AcDbLine
 10
208.646601303624
 20
-594.8119573235824
 30
0.0
 11
447.4243639845474
 21
-594.8119573235824
 31
0.0
  0
LINE
  5
A896
330
1A
100
AcDbEntity
  8
ZUWAKU
100
AcDbLine
 10
208.646601303624
 20
-595.2119573235823
 30
0.0
 11
447.4243639845474
 21
-595.2119573235823
 31
0.0
  0
LINE
  5
A897
330
1A
100
AcDbEntity
  8
ZUWAKU
100
AcDbLine
 10
51.89221216833721
 20
-589.9619573235823
 30
0.0
 11
48.91721216833719
 21
-589.9619573235823
 31
0.0
  0
LINE
  5
A898
330
1A
100
AcDbEntity
  8
ZUWAKU
100
AcDbLine
 10
48.3922121683372
 20
-587.1619573235824
 30
0.0
 11
51.89221216833721
 21
-587.1619573235824
 31
0.0
  0
LINE
  5
A899
330
1A
100
AcDbEntity
  8
ZUWAKU
100
AcDbLine
 10
51.71206064932073
 20
-595.6769068172437
 30
0.0
 11
48.80226267467595
 21
-592.767108842599
 31
0.0
  0
ARC
  5
A89A
330
1A
100
AcDbEntity
  8
ZUWAKU
100
AcDbCircle
 10
50.14221216833721
 20
-600.4619573235824
 30
0.0
 40
2.799999999999999
100
AcDbArc
 50
270.0
 51
0.0
  0
HATCH
  5
A89B
330
1A
100
AcDbEntity
  8
ZUWAKU
100
AcDbHatch
 10
0.0
 20
0.0
 30
0.0
210
0.0
220
0.0
230
1.0
  2
ANSI37
 70
     0
 71
     0
 91
        8
 92
        7
 72
     1
 73
     1
 93
       24
 10
14.50226267467587
 20
-592.7671088425988
 42
-0.1989123673796348
 10
14.09221216833714
 20
-591.7771593489378
 42
0.0
 10
14.09221216833714
 20
-590.4869573235823
 42
-0.4142135623730912
 10
14.61721216833711
 20
-589.9619573235823
 42
0.0
 10
17.59221216833702
 20
-589.9619573235823
 42
0.4142135623731546
 10
18.11721216833712
 20
-589.4369573235824
 42
0.0
 10
18.11721216833712
 20
-587.6869573235824
 42
0.4142135623731586
 10
17.59221216833702
 20
-587.1619573235824
 42
0.0
 10
14.09221216833714
 20
-587.1619573235824
 42
0.4142135623730928
 10
11.29221216833718
 20
-589.9619573235823
 42
0.0
 10
11.29221216833718
 20
-591.7771593489375
 42
0.1989123673796619
 10
12.52236368735361
 20
-594.7470078299212
 42
0.0
 10
15.43216166199829
 20
-597.6568058045659
 42
-0.1989123673796613
 10
15.84221216833714
 20
-598.6467552982271
 42
0.0
 10
15.84221216833714
 20
-599.9369573235824
 42
-0.4142135623730911
 10
15.31721216833716
 20
-600.4619573235824
 42
0.0
 10
12.34221216833725
 20
-600.4619573235824
 42
0.4142135623731526
 10
11.81721216833716
 20
-600.9869573235824
 42
0.0
 10
11.81721216833716
 20
-602.7369573235825
 42
0.4142135623731526
 10
12.34221216833725
 20
-603.2619573235824
 42
0.0
 10
15.84221216833714
 20
-603.2619573235824
 42
0.4142135623731044
 10
18.64221216833721
 20
-600.4619573235824
 42
0.0
 10
18.64221216833721
 20
-598.6467552982271
 42
0.1989123673796604
 10
17.41206064932066
 20
-595.6769068172437
 42
0.0
 97
        0
 92
        7
 72
     1
 73
     1
 93
       16
 10
23.54221216833718
 20
-591.3619573235823
 42
-0.4142135623730935
 10
24.94221216833716
 20
-589.9619573235823
 42
0.0
 10
26.86721216833712
 20
-589.9619573235823
 42
0.4142135623731546
 10
27.39221216833721
 20
-589.4369573235824
 42
0.0
 10
27.39221216833721
 20
-587.6869573235824
 42
0.4142135623730951
 10
26.86721216833723
 20
-587.1619573235824
 42
0.0
 10
24.94221216833705
 20
-587.1619573235824
 42
0.4142135623730892
 10
20.74221216833711
 20
-591.3619573235824
 42
0.0
 10
20.74221216833711
 20
-599.0619573235824
 42
0.4142135623730969
 10
24.94221216833716
 20
-603.2619573235824
 42
0.0
 10
26.86721216833712
 20
-603.2619573235824
 42
0.4142135623731526
 10
27.39221216833721
 20
-602.7369573235825
 42
0.0
 10
27.39221216833721
 20
-600.9869573235824
 42
0.4142135623730891
 10
26.86721216833723
 20
-600.4619573235824
 42
0.0
 10
24.94221216833716
 20
-600.4619573235824
 42
-0.4142135623730928
 10
23.54221216833718
 20
-599.0619573235824
 42
0.0
 97
        0
 92
        7
 72
     1
 73
     1
 93
        2
 10
24.24221216833712
 20
-595.2119573235823
 42
1.0
 10
27.74221216833712
 20
-595.2119573235823
 42
1.0
 97
        0
 92
        7
 72
     1
 73
     1
 93
       26
 10
37.31485865051513
 20
-591.2069101300189
 42
0.0
 10
38.37649828365295
 20
-587.8450512917494
 42
0.5069206636600134
 10
37.87586738445759
 20
-587.1619573235824
 42
0.0
 10
36.17697800484836
 20
-587.1619573235824
 42
0.3272098845218764
 10
35.676347105653
 20
-587.5288633554155
 42
0.0
 10
33.80807723102122
 20
-593.4450512917493
 42
-0.3272098845219541
 10
33.30744633182575
 20
-593.8119573235824
 42
0.0
 10
33.1672121683373
 20
-593.8119573235824
 42
-0.4142135623731526
 10
32.64221216833721
 20
-593.2869573235824
 42
0.0
 10
32.64221216833721
 20
-587.6869573235824
 42
0.4142135623730951
 10
32.11721216833723
 20
-587.1619573235824
 42
0.0
 10
30.36721216833711
 20
-587.1619573235824
 42
0.4142135623730871
 10
29.84221216833714
 20
-587.6869573235824
 42
0.0
 10
29.84221216833714
 20
-602.7369573235825
 42
0.4142135623730891
 10
30.36721216833711
 20
-603.2619573235824
 42
0.0
 10
32.11721216833712
 20
-603.2619573235824
 42
0.4142135623731526
 10
32.64221216833721
 20
-602.7369573235825
 42
0.0
 10
32.64221216833721
 20
-597.1369573235825
 42
-0.4142135623731526
 10
33.1672121683373
 20
-596.6119573235824
 42
0.0
 10
33.30744633182587
 20
-596.6119573235824
 42
-0.3272098845218915
 10
33.80807723102122
 20
-596.9788633554156
 42
0.0
 10
35.676347105653
 20
-602.8950512917494
 42
0.3272098845218902
 10
36.17697800484836
 20
-603.2619573235824
 42
0.0
 10
37.87586738445759
 20
-603.2619573235824
 42
0.5069206636600335
 10
38.37649828365295
 20
-602.5788633554155
 42
0.0
 10
36.05010690517929
 20
-595.2119573235822
 42
0.0
 97
        0
 92
        7
 72
     1
 73
     1
 93
        8
 10
43.49221216833711
 20
-587.6869573235824
 42
0.4142135623731546
 10
42.96721216833702
 20
-587.1619573235824
 42
0.0
 10
41.21721216833726
 20
-587.1619573235824
 42
0.4142135623731507
 10
40.69221216833716
 20
-587.6869573235824
 42
0.0
 10
40.69221216833716
 20
-602.7369573235825
 42
0.4142135623731526
 10
41.21721216833726
 20
-603.2619573235824
 42
0.0
 10
42.96721216833702
 20
-603.2619573235824
 42
0.4142135623731526
 10
43.49221216833711
 20
-602.7369573235825
 42
0.0
 97
        0
 92
        7
 72
     1
 73
     1
 93
       24
 10
48.3922121683372
 20
-590.4869573235823
 42
-0.4142135623731546
 10
48.9172121683373
 20
-589.9619573235823
 42
0.0
 10
51.89221216833721
 20
-589.9619573235823
 42
0.4142135623730911
 10
52.41721216833719
 20
-589.4369573235824
 42
0.0
 10
52.41721216833719
 20
-587.6869573235824
 42
0.4142135623730952
 10
51.89221216833721
 20
-587.1619573235824
 42
0.0
 10
48.3922121683372
 20
-587.1619573235824
 42
0.4142135623731048
 10
45.59221216833714
 20
-589.9619573235823
 42
0.0
 10
45.59221216833714
 20
-591.7771593489375
 42
0.1989123673796613
 10
46.82236368735368
 20
-594.7470078299212
 42
0.0
 10
49.73216166199836
 20
-597.6568058045659
 42
-0.1989123673796402
 10
50.14221216833721
 20
-598.6467552982269
 42
0.0
 10
50.14221216833721
 20
-599.9369573235824
 42
-0.4142135623730911
 10
49.61721216833723
 20
-600.4619573235824
 42
0.0
 10
46.64221216833721
 20
-600.4619573235824
 42
0.4142135623731526
 10
46.11721216833712
 20
-600.9869573235824
 42
0.0
 10
46.11721216833712
 20
-602.7369573235825
 42
0.4142135623730891
 10
46.64221216833709
 20
-603.2619573235824
 42
0.0
 10
50.14221216833721
 20
-603.2619573235824
 42
0.4142135623730925
 10
52.94221216833716
 20
-600.4619573235824
 42
0.0
 10
52.94221216833716
 20
-598.6467552982271
 42
0.1989123673796675
 10
51.71206064932062
 20
-595.6769068172435
 42
0.0
 10
48.80226267467605
 20
-592.767108842599
 42
-0.1989123673796652
 10
48.3922121683372
 20
-591.7771593489378
 42
0.0
 97
        0
 92
        7
 72
     1
 73
     1
 93
       16
 10
57.84221216833714
 20
-587.6869573235824
 42
0.414213562373103
 10
57.31721216833716
 20
-587.1619573235824
 42
0.0
 10
55.56721216833716
 20
-587.1619573235824
 42
0.4142135623730871
 10
55.04221216833719
 20
-587.6869573235824
 42
0.0
 10
55.04221216833719
 20
-600.4619573235824
 42
0.4142135623730926
 10
57.84221216833714
 20
-603.2619573235824
 42
0.0
 10
61.34221216833714
 20
-603.2619573235824
 42
0.4142135623731044
 10
64.14221216833721
 20
-600.4619573235824
 42
0.0
 10
64.14221216833721
 20
-587.6869573235824
 42
0.4142135623730951
 10
63.61721216833723
 20
-587.1619573235824
 42
0.0
 10
61.86721216833712
 20
-587.1619573235824
 42
0.4142135623730871
 10
61.34221216833714
 20
-587.6869573235824
 42
0.0
 10
61.34221216833714
 20
-599.4119573235824
 42
-0.414213562373088
 10
60.29221216833718
 20
-600.4619573235824
 42
0.0
 10
58.89221216833721
 20
-600.4619573235824
 42
-0.4142135623731197
 10
57.84221216833714
 20
-599.4119573235824
 42
0.0
 97
        0
 92
        7
 72
     1
 73
     1
 93
        8
 10
69.04221216833718
 20
-587.6869573235824
 42
0.4142135623730871
 10
68.51721216833721
 20
-587.1619573235824
 42
0.0
 10
66.76721216833721
 20
-587.1619573235824
 42
0.4142135623731507
 10
66.24221216833712
 20
-587.6869573235824
 42
0.0
 10
66.24221216833712
 20
-602.7369573235825
 42
0.4142135623730891
 10
66.76721216833709
 20
-603.2619573235824
 42
0.0
 10
68.51721216833721
 20
-603.2619573235824
 42
0.4142135623730891
 10
69.04221216833718
 20
-602.7369573235825
 42
0.0
 97
        0
 75
     0
 76
     1
 52
0.0
 41
0.2
 77
     0
 78
     2
 53
45.0
 43
-900.942304321123
 44
-623.6119573235823
 45
-0.4490128060534576
 46
0.4490128060534577
 79
     0
 53
135.0
 43
-900.942304321123
 44
-623.6119573235823
 45
-0.4490128060534577
 46
-0.4490128060534576
 79
     0
 47
0.057451373970553
 98
        8
 10
16.07985497657932
 20
-595.2447836776968
 10
22.40451501999519
 20
-591.5678951411314
 10
25.16436789921567
 20
-594.9000756775117
 10
30.91405999519315
 20
-594.2106596771409
 10
41.83847203251275
 20
-593.7510474095993
 10
46.89820090868557
 20
-590.9933810071752
 10
56.55768598595637
 20
-591.6827994084874
 10
67.82707963317875
 20
-591.2231871409458
  0
ARC
  5
A89C
330
1A
100
AcDbEntity
  8
ZUWAKU
100
AcDbCircle
 10
46.64221216833721
 20
-600.9869573235825
 30
0.0
 40
0.525
100
AcDbArc
 50
90.0
 51
180.0
  0
LINE
  5
A89D
330
1A
100
AcDbEntity
  8
ZUWAKU
100
AcDbLine
 10
38.37649828365295
 20
-602.5788633554155
 30
0.0
 11
36.05010690517929
 21
-595.2119573235823
 31
0.0
  0
ARC
  5
A89E
330
1A
100
AcDbEntity
  8
ZUWAKU
100
AcDbCircle
 10
26.86721216833712
 20
-600.9869573235825
 30
0.0
 40
0.525
100
AcDbArc
 50
0.0
 51
90.0
  0
LINE
  5
A89F
330
1A
100
AcDbEntity
  8
ZUWAKU
100
AcDbLine
 10
32.64221216833721
 20
-602.7369573235825
 30
0.0
 11
32.64221216833721
 21
-597.1369573235825
 31
0.0
  0
LINE
  5
A8A0
330
1A
100
AcDbEntity
  8
ZUWAKU
100
AcDbLine
 10
35.676347105653
 20
-602.8950512917494
 30
0.0
 11
33.80807723102122
 21
-596.9788633554154
 31
0.0
  0
LINE
  5
A8A1
330
1A
100
AcDbEntity
  8
ZUWAKU
100
AcDbLine
 10
29.84221216833714
 20
-587.6869573235824
 30
0.0
 11
29.84221216833714
 21
-602.7369573235825
 31
0.0
  0
LINE
  5
A8A2
330
1A
100
AcDbEntity
  8
ZUWAKU
100
AcDbLine
 10
43.49221216833711
 20
-602.7369573235825
 30
0.0
 11
43.49221216833711
 21
-587.6869573235824
 31
0.0
  0
LINE
  5
A8A3
330
1A
100
AcDbEntity
  8
ZUWAKU
100
AcDbLine
 10
40.69221216833716
 20
-587.6869573235824
 30
0.0
 11
40.69221216833716
 21
-602.7369573235825
 31
0.0
  0
ARC
  5
A8A4
330
1A
100
AcDbEntity
  8
ZUWAKU
100
AcDbCircle
 10
12.34221216833714
 20
-600.9869573235825
 30
0.0
 40
0.525
100
AcDbArc
 50
90.0
 51
180.0
  0
ARC
  5
A8A5
330
1A
100
AcDbEntity
  8
ZUWAKU
100
AcDbCircle
 10
24.94221216833716
 20
-599.0619573235824
 30
0.0
 40
4.199999999999999
100
AcDbArc
 50
180.0
 51
270.0
  0
ARC
  5
A8A6
330
1A
100
AcDbEntity
  8
ZUWAKU
100
AcDbCircle
 10
15.84221216833714
 20
-600.4619573235824
 30
0.0
 40
2.799999999999999
100
AcDbArc
 50
270.0
 51
0.0
  0
LINE
  5
A8A7
330
1A
100
AcDbEntity
  8
ZUWAKU
100
AcDbLine
 10
12.34221216833714
 20
-603.2619573235824
 30
0.0
 11
15.84221216833714
 21
-603.2619573235824
 31
0.0
  0
ARC
  5
A8A8
330
1A
100
AcDbEntity
  8
ZUWAKU
100
AcDbCircle
 10
12.34221216833714
 20
-602.7369573235825
 30
0.0
 40
0.525
100
AcDbArc
 50
180.0
 51
270.0
  0
LINE
  5
A8A9
330
1A
100
AcDbEntity
  8
ZUWAKU
100
AcDbLine
 10
11.81721216833716
 20
-602.7369573235825
 30
0.0
 11
11.81721216833716
 21
-600.9869573235825
 31
0.0
  0
ARC
  5
A8AA
330
1A
100
AcDbEntity
  8
ZUWAKU
100
AcDbCircle
 10
30.36721216833711
 20
-602.7369573235825
 30
0.0
 40
0.525
100
AcDbArc
 50
180.0
 51
270.0
  0
ARC
  5
A8AB
330
1A
100
AcDbEntity
  8
ZUWAKU
100
AcDbCircle
 10
26.86721216833712
 20
-602.7369573235825
 30
0.0
 40
0.525
100
AcDbArc
 50
270.0
 51
0.0
  0
LINE
  5
A8AC
330
1A
100
AcDbEntity
  8
ZUWAKU
100
AcDbLine
 10
27.39221216833721
 20
-600.9869573235825
 30
0.0
 11
27.39221216833721
 21
-602.7369573235825
 31
0.0
  0
ARC
  5
A8AD
330
1A
100
AcDbEntity
  8
ZUWAKU
100
AcDbCircle
 10
32.11721216833712
 20
-602.7369573235825
 30
0.0
 40
0.525
100
AcDbArc
 50
270.0
 51
0.0
  0
LINE
  5
A8AE
330
1A
100
AcDbEntity
  8
ZUWAKU
100
AcDbLine
 10
30.36721216833711
 20
-603.2619573235824
 30
0.0
 11
32.11721216833712
 21
-603.2619573235824
 31
0.0
  0
LINE
  5
A8AF
330
1A
100
AcDbEntity
  8
ZUWAKU
100
AcDbLine
 10
26.86721216833712
 20
-603.2619573235824
 30
0.0
 11
24.94221216833716
 21
-603.2619573235824
 31
0.0
  0
LINE
  5
A8B0
330
1A
100
AcDbEntity
  8
ZUWAKU
100
AcDbLine
 10
46.64221216833721
 20
-603.2619573235824
 30
0.0
 11
50.14221216833721
 21
-603.2619573235824
 31
0.0
  0
ARC
  5
A8B1
330
1A
100
AcDbEntity
  8
ZUWAKU
100
AcDbCircle
 10
42.96721216833714
 20
-602.7369573235825
 30
0.0
 40
0.525
100
AcDbArc
 50
270.0
 51
0.0
  0
ARC
  5
A8B2
330
1A
100
AcDbEntity
  8
ZUWAKU
100
AcDbCircle
 10
46.64221216833721
 20
-602.7369573235825
 30
0.0
 40
0.525
100
AcDbArc
 50
180.0
 51
270.0
  0
LINE
  5
A8B3
330
1A
100
AcDbEntity
  8
ZUWAKU
100
AcDbLine
 10
46.11721216833712
 20
-602.7369573235825
 30
0.0
 11
46.11721216833712
 21
-600.9869573235825
 31
0.0
  0
ARC
  5
A8B4
330
1A
100
AcDbEntity
  8
ZUWAKU
100
AcDbCircle
 10
36.17697800484847
 20
-602.7369573235825
 30
0.0
 40
0.525
100
AcDbArc
 50
197.525568373723
 51
270.0
  0
ARC
  5
A8B5
330
1A
100
AcDbEntity
  8
ZUWAKU
100
AcDbCircle
 10
37.87586738445748
 20
-602.7369573235825
 30
0.0
 40
0.525
100
AcDbArc
 50
270.0
 51
17.52556837372303
  0
LINE
  5
A8B6
330
1A
100
AcDbEntity
  8
ZUWAKU
100
AcDbLine
 10
36.17697800484847
 20
-603.2619573235824
 30
0.0
 11
37.87586738445748
 21
-603.2619573235824
 31
0.0
  0
ARC
  5
A8B7
330
1A
100
AcDbEntity
  8
ZUWAKU
100
AcDbCircle
 10
41.21721216833714
 20
-602.7369573235825
 30
0.0
 40
0.525
100
AcDbArc
 50
180.0
 51
270.0
  0
LINE
  5
A8B8
330
1A
100
AcDbEntity
  8
ZUWAKU
100
AcDbLine
 10
41.21721216833714
 20
-603.2619573235824
 30
0.0
 11
42.96721216833714
 21
-603.2619573235824
 31
0.0
  0
LINE
  5
A8B9
330
1A
100
AcDbEntity
  8
ZUWAKU
100
AcDbLine
 10
18.11721216833712
 20
-587.6869573235824
 30
0.0
 11
18.11721216833712
 21
-589.4369573235824
 31
0.0
  0
ARC
  5
A8BA
330
1A
100
AcDbEntity
  8
ZUWAKU
100
AcDbCircle
 10
14.09221216833714
 20
-589.9619573235823
 30
0.0
 40
2.799999999999999
100
AcDbArc
 50
90.0
 51
180.0
  0
LINE
  5
A8BB
330
1A
100
AcDbEntity
  8
ZUWAKU
100
AcDbLine
 10
11.29221216833718
 20
-589.9619573235823
 30
0.0
 11
11.29221216833718
 21
-591.7771593489377
 31
0.0
  0
LINE
  5
A8BC
330
1A
100
AcDbEntity
  8
ZUWAKU
100
AcDbLine
 10
17.59221216833714
 20
-589.9619573235823
 30
0.0
 11
14.61721216833711
 21
-589.9619573235823
 31
0.0
  0
LINE
  5
A8BD
330
1A
100
AcDbEntity
  8
ZUWAKU
100
AcDbLine
 10
14.09221216833714
 20
-590.4869573235824
 30
0.0
 11
14.09221216833714
 21
-591.7771593489377
 31
0.0
  0
ARC
  5
A8BE
330
1A
100
AcDbEntity
  8
ZUWAKU
100
AcDbCircle
 10
14.61721216833711
 20
-590.4869573235824
 30
0.0
 40
0.525
100
AcDbArc
 50
90.0
 51
180.0
  0
ARC
  5
A8BF
330
1A
100
AcDbEntity
  8
ZUWAKU
100
AcDbCircle
 10
17.59221216833714
 20
-589.4369573235824
 30
0.0
 40
0.525
100
AcDbArc
 50
270.0
 51
0.0
  0
LINE
  5
A8C0
330
1A
100
AcDbEntity
  8
ZUWAKU
100
AcDbLine
 10
18.64221216833721
 20
-600.4619573235824
 30
0.0
 11
18.64221216833721
 21
-598.646755298227
 31
0.0
  0
LINE
  5
A8C1
330
1A
100
AcDbEntity
  8
ZUWAKU
100
AcDbLine
 10
12.52236368735361
 20
-594.7470078299212
 30
0.0
 11
15.43216166199829
 21
-597.6568058045659
 31
0.0
  0
LINE
  5
A8C2
330
1A
100
AcDbEntity
  8
ZUWAKU
100
AcDbLine
 10
12.34221216833714
 20
-600.4619573235824
 30
0.0
 11
15.31721216833716
 21
-600.4619573235824
 31
0.0
  0
ARC
  5
A8C3
330
1A
100
AcDbEntity
  8
ZUWAKU
100
AcDbCircle
 10
14.44221216833716
 20
-598.646755298227
 30
0.0
 40
1.399999999999999
100
AcDbArc
 50
0.0
 51
45.0
  0
ARC
  5
A8C4
330
1A
100
AcDbEntity
  8
ZUWAKU
100
AcDbCircle
 10
15.31721216833716
 20
-599.9369573235824
 30
0.0
 40
0.525
100
AcDbArc
 50
270.0
 51
0.0
  0
LINE
  5
A8C5
330
1A
100
AcDbEntity
  8
ZUWAKU
100
AcDbLine
 10
15.84221216833714
 20
-599.9369573235824
 30
0.0
 11
15.84221216833714
 21
-598.646755298227
 31
0.0
  0
LINE
  5
A8C6
330
1A
100
AcDbEntity
  8
ZUWAKU
100
AcDbLine
 10
17.41206064932066
 20
-595.6769068172437
 30
0.0
 11
14.50226267467598
 21
-592.767108842599
 31
0.0
  0
ARC
  5
A8C7
330
1A
100
AcDbEntity
  8
ZUWAKU
100
AcDbCircle
 10
14.44221216833716
 20
-598.6467552982271
 30
0.0
 40
4.199999999999999
100
AcDbArc
 50
0.0
 51
45.0
  0
ARC
  5
A8C8
330
1A
100
AcDbEntity
  8
ZUWAKU
100
AcDbCircle
 10
15.49221216833712
 20
-591.7771593489377
 30
0.0
 40
4.199999999999999
100
AcDbArc
 50
180.0
 51
225.0
  0
ARC
  5
A8C9
330
1A
100
AcDbEntity
  8
ZUWAKU
100
AcDbCircle
 10
15.49221216833712
 20
-591.7771593489377
 30
0.0
 40
1.399999999999999
100
AcDbArc
 50
180.0000000000016
 51
224.9999999999988
  0
LINE
  5
A8CA
330
1A
100
AcDbEntity
  8
ZUWAKU
100
AcDbLine
 10
14.09221216833714
 20
-587.1619573235824
 30
0.0
 11
17.59221216833714
 21
-587.1619573235824
 31
0.0
  0
ARC
  5
A8CB
330
1A
100
AcDbEntity
  8
ZUWAKU
100
AcDbCircle
 10
17.59221216833714
 20
-587.6869573235824
 30
0.0
 40
0.525
100
AcDbArc
 50
0.0
 51
90.0
  0
ARC
  5
A8CC
330
1A
100
AcDbEntity
  8
ZUWAKU
100
AcDbCircle
 10
48.3922121683372
 20
-589.9619573235823
 30
0.0
 40
2.799999999999999
100
AcDbArc
 50
90.0
 51
180.0
  0
LINE
  5
A8CD
330
1A
100
AcDbEntity
  8
ZUWAKU
100
AcDbLine
 10
38.37649828365295
 20
-587.8450512917494
 30
0.0
 11
37.31485865051513
 21
-591.2069101300189
 31
0.0
  0
LINE
  5
A8CE
330
1A
100
AcDbEntity
  8
ZUWAKU
100
AcDbLine
 10
27.39221216833721
 20
-587.6869573235824
 30
0.0
 11
27.39221216833721
 21
-589.4369573235824
 31
0.0
  0
LINE
  5
A8CF
330
1A
100
AcDbEntity
  8
ZUWAKU
100
AcDbLine
 10
35.676347105653
 20
-587.5288633554155
 30
0.0
 11
33.80807723102122
 21
-593.4450512917494
 31
0.0
  0
LINE
  5
A8D0
330
1A
100
AcDbEntity
  8
ZUWAKU
100
AcDbLine
 10
32.64221216833721
 20
-593.2869573235824
 30
0.0
 11
32.64221216833721
 21
-587.6869573235824
 31
0.0
  0
ARC
  5
A8D1
330
1A
100
AcDbEntity
  8
ZUWAKU
100
AcDbCircle
 10
24.94221216833716
 20
-591.3619573235824
 30
0.0
 40
4.199999999999999
100
AcDbArc
 50
90.0
 51
180.0
  0
ARC
  5
A8D2
330
1A
100
AcDbEntity
  8
ZUWAKU
100
AcDbCircle
 10
26.86721216833712
 20
-589.4369573235824
 30
0.0
 40
0.525
100
AcDbArc
 50
270.0
 51
0.0
  0
ARC
  5
A8D3
330
1A
100
AcDbEntity
  8
ZUWAKU
100
AcDbCircle
 10
33.16721216833718
 20
-597.1369573235825
 30
0.0
 40
0.525
100
AcDbArc
 50
90.0
 51
180.0
  0
ARC
  5
A8D4
330
1A
100
AcDbEntity
  8
ZUWAKU
100
AcDbCircle
 10
33.30744633182587
 20
-597.1369573235825
 30
0.0
 40
0.525
100
AcDbArc
 50
17.52556837372303
 51
90.0
  0
ARC
  5
A8D5
330
1A
100
AcDbEntity
  8
ZUWAKU
100
AcDbCircle
 10
33.16721216833718
 20
-593.2869573235824
 30
0.0
 40
0.525
100
AcDbArc
 50
180.0
 51
270.0
  0
LINE
  5
A8D6
330
1A
100
AcDbEntity
  8
ZUWAKU
100
AcDbLine
 10
33.16721216833718
 20
-596.6119573235824
 30
0.0
 11
33.30744633182587
 21
-596.6119573235824
 31
0.0
  0
LINE
  5
A8D7
330
1A
100
AcDbEntity
  8
ZUWAKU
100
AcDbLine
 10
33.30744633182587
 20
-593.8119573235824
 30
0.0
 11
33.16721216833718
 21
-593.8119573235824
 31
0.0
  0
ARC
  5
A8D8
330
1A
100
AcDbEntity
  8
ZUWAKU
100
AcDbCircle
 10
33.30744633182587
 20
-593.2869573235824
 30
0.0
 40
0.525
100
AcDbArc
 50
270.0
 51
342.4744316262769
  0
ARC
  5
A8D9
330
1A
100
AcDbEntity
  8
ZUWAKU
100
AcDbCircle
 10
24.94221216833716
 20
-591.3619573235824
 30
0.0
 40
1.399999999999999
100
AcDbArc
 50
90.0
 51
180.0
  0
ARC
  5
A8DA
330
1A
100
AcDbEntity
  8
ZUWAKU
100
AcDbCircle
 10
24.94221216833716
 20
-599.0619573235824
 30
0.0
 40
1.399999999999999
100
AcDbArc
 50
180.0
 51
270.0
  0
LINE
  5
A8DB
330
1A
100
AcDbEntity
  8
ZUWAKU
100
AcDbLine
 10
20.74221216833711
 20
-599.0619573235824
 30
0.0
 11
20.74221216833711
 21
-591.3619573235824
 31
0.0
  0
LINE
  5
A8DC
330
1A
100
AcDbEntity
  8
ZUWAKU
100
AcDbLine
 10
23.54221216833718
 20
-591.3619573235824
 30
0.0
 11
23.54221216833718
 21
-599.0619573235824
 31
0.0
  0
CIRCLE
  5
A8DD
330
1A
100
AcDbEntity
  8
ZUWAKU
100
AcDbCircle
 10
25.99221216833711
 20
-595.2119573235823
 30
0.0
 40
1.75
  0
LINE
  5
A8DE
330
1A
100
AcDbEntity
  8
ZUWAKU
100
AcDbLine
 10
24.94221216833716
 20
-600.4619573235824
 30
0.0
 11
26.86721216833712
 21
-600.4619573235824
 31
0.0
  0
LINE
  5
A8DF
330
1A
100
AcDbEntity
  8
ZUWAKU
100
AcDbLine
 10
26.86721216833712
 20
-589.9619573235823
 30
0.0
 11
24.94221216833716
 21
-589.9619573235823
 31
0.0
  0
LINE
  5
A8E0
330
1A
100
AcDbEntity
  8
ZUWAKU
100
AcDbLine
 10
45.59221216833714
 20
-589.9619573235823
 30
0.0
 11
45.59221216833714
 21
-591.7771593489377
 31
0.0
  0
LINE
  5
A8E1
330
1A
100
AcDbEntity
  8
ZUWAKU
100
AcDbLine
 10
48.3922121683372
 20
-590.4869573235824
 30
0.0
 11
48.3922121683372
 21
-591.7771593489377
 31
0.0
  0
ARC
  5
A8E2
330
1A
100
AcDbEntity
  8
ZUWAKU
100
AcDbCircle
 10
48.91721216833719
 20
-590.4869573235824
 30
0.0
 40
0.525
100
AcDbArc
 50
90.0
 51
180.0
  0
LINE
  5
A8E3
330
1A
100
AcDbEntity
  8
ZUWAKU
100
AcDbLine
 10
46.82236368735368
 20
-594.7470078299212
 30
0.0
 11
49.73216166199836
 21
-597.6568058045659
 31
0.0
  0
LINE
  5
A8E4
330
1A
100
AcDbEntity
  8
ZUWAKU
100
AcDbLine
 10
46.64221216833721
 20
-600.4619573235824
 30
0.0
 11
49.61721216833712
 21
-600.4619573235824
 31
0.0
  0
ARC
  5
A8E5
330
1A
100
AcDbEntity
  8
ZUWAKU
100
AcDbCircle
 10
49.61721216833712
 20
-599.9369573235824
 30
0.0
 40
0.525
100
AcDbArc
 50
270.0
 51
0.0
  0
ARC
  5
A8E6
330
1A
100
AcDbEntity
  8
ZUWAKU
100
AcDbCircle
 10
48.74221216833712
 20
-598.646755298227
 30
0.0
 40
1.399999999999999
100
AcDbArc
 50
0.0
 51
45.0
  0
LINE
  5
A8E7
330
1A
100
AcDbEntity
  8
ZUWAKU
100
AcDbLine
 10
50.14221216833721
 20
-599.9369573235824
 30
0.0
 11
50.14221216833721
 21
-598.646755298227
 31
0.0
  0
LINE
  5
A8E8
330
1A
100
AcDbEntity
  8
ZUWAKU
100
AcDbLine
 10
37.31485865051513
 20
-591.2069101300189
 30
0.0
 11
36.05010690517929
 21
-595.2119573235823
 31
0.0
  0
ARC
  5
A8E9
330
1A
100
AcDbEntity
  8
ZUWAKU
100
AcDbCircle
 10
49.79221216833718
 20
-591.7771593489377
 30
0.0
 40
4.199999999999999
100
AcDbArc
 50
180.0
 51
225.0
  0
ARC
  5
A8EA
330
1A
100
AcDbEntity
  8
ZUWAKU
100
AcDbCircle
 10
49.79221216833718
 20
-591.7771593489377
 30
0.0
 40
1.399999999999999
100
AcDbArc
 50
180.0000000000016
 51
224.9999999999988
  0
ARC
  5
A8EB
330
1A
100
AcDbEntity
  8
ZUWAKU
100
AcDbCircle
 10
30.36721216833711
 20
-587.6869573235824
 30
0.0
 40
0.525
100
AcDbArc
 50
90.0
 51
180.0
  0
ARC
  5
A8EC
330
1A
100
AcDbEntity
  8
ZUWAKU
100
AcDbCircle
 10
26.86721216833712
 20
-587.6869573235824
 30
0.0
 40
0.525
100
AcDbArc
 50
0.0
 51
90.0
  0
LINE
  5
A8ED
330
1A
100
AcDbEntity
  8
ZUWAKU
100
AcDbLine
 10
32.11721216833712
 20
-587.1619573235824
 30
0.0
 11
30.36721216833711
 21
-587.1619573235824
 31
0.0
  0
ARC
  5
A8EE
330
1A
100
AcDbEntity
  8
ZUWAKU
100
AcDbCircle
 10
32.11721216833712
 20
-587.6869573235824
 30
0.0
 40
0.525
100
AcDbArc
 50
0.0
 51
90.0
  0
LINE
  5
A8EF
330
1A
100
AcDbEntity
  8
ZUWAKU
100
AcDbLine
 10
24.94221216833716
 20
-587.1619573235824
 30
0.0
 11
26.86721216833712
 21
-587.1619573235824
 31
0.0
  0
ARC
  5
A8F0
330
1A
100
AcDbEntity
  8
ZUWAKU
100
AcDbCircle
 10
42.96721216833714
 20
-587.6869573235824
 30
0.0
 40
0.525
100
AcDbArc
 50
0.0
 51
90.0
  0
ARC
  5
A8F1
330
1A
100
AcDbEntity
  8
ZUWAKU
100
AcDbCircle
 10
36.17697800484847
 20
-587.6869573235824
 30
0.0
 40
0.525
100
AcDbArc
 50
90.0
 51
162.4744316262769
  0
ARC
  5
A8F2
330
1A
100
AcDbEntity
  8
ZUWAKU
100
AcDbCircle
 10
37.87586738445748
 20
-587.6869573235824
 30
0.0
 40
0.525
100
AcDbArc
 50
342.4744316262769
 51
90.0
  0
LINE
  5
A8F3
330
1A
100
AcDbEntity
  8
ZUWAKU
100
AcDbLine
 10
36.17697800484847
 20
-587.1619573235824
 30
0.0
 11
37.87586738445748
 21
-587.1619573235824
 31
0.0
  0
ARC
  5
A8F4
330
1A
100
AcDbEntity
  8
ZUWAKU
100
AcDbCircle
 10
41.21721216833714
 20
-587.6869573235824
 30
0.0
 40
0.525
100
AcDbArc
 50
90.0
 51
180.0
  0
LINE
  5
A8F5
330
1A
100
AcDbEntity
  8
ZUWAKU
100
AcDbLine
 10
42.96721216833714
 20
-587.1619573235824
 30
0.0
 11
41.21721216833714
 21
-587.1619573235824
 31
0.0
  0
TEXT
  5
A8F6
330
1A
100
AcDbEntity
  8
ZUWAKU
100
AcDbText
 10
209.7240463258335
 20
-600.7566007851968
 30
0.0
 40
4.0
  1
サイズ
 41
0.9
  7
ｽﾀｲﾙ1
100
AcDbText
  0
LINE
  5
A8F7
330
1A
100
AcDbEntity
  8
ZUWAKU
100
AcDbLine
 10
208.4466013036237
 20
-580.4119573235824
 30
0.0
 11
208.446601303624
 21
-609.6119573235823
 31
0.0
  0
LINE
  5
A8F8
330
1A
100
AcDbEntity
  8
ZUWAKU
100
AcDbLine
 10
208.6466013036238
 20
-580.4119573235824
 30
0.0
 11
208.646601303624
 21
-609.6119573235823
 31
0.0
  0
LINE
  5
A8F9
330
1A
100
AcDbEntity
  8
ZUWAKU
100
AcDbLine
 10
208.2466013036239
 20
-580.4119573235824
 30
0.0
 11
208.2466013036239
 21
-609.6119573235823
 31
0.0
  0
TEXT
  5
A8FA
330
1A
100
AcDbEntity
  8
MOJI
100
AcDbText
 10
239.827202694407
 20
-607.207036266175
 30
0.0
 40
5.599999999999999
  1
ＶＭ１２０
 41
0.9
  7
ｽﾀｲﾙ1
100
AcDbText
  0
ARC
  5
A8FB
330
1A
100
AcDbEntity
  8
ZUWAKU
100
AcDbCircle
 10
61.34221216833714
 20
-600.4619573235824
 30
0.0
 40
2.799999999999999
100
AcDbArc
 50
270.0
 51
0.0
  0
ARC
  5
A8FC
330
1A
100
AcDbEntity
  8
ZUWAKU
100
AcDbCircle
 10
57.84221216833714
 20
-600.4619573235824
 30
0.0
 40
2.799999999999999
100
AcDbArc
 50
180.0
 51
270.0
  0
LINE
  5
A8FD
330
1A
100
AcDbEntity
  8
ZUWAKU
100
AcDbLine
 10
66.24221216833712
 20
-587.6869573235824
 30
0.0
 11
66.24221216833712
 21
-602.7369573235825
 31
0.0
  0
LINE
  5
A8FE
330
1A
100
AcDbEntity
  8
ZUWAKU
100
AcDbLine
 10
69.04221216833718
 20
-602.7369573235825
 30
0.0
 11
69.04221216833718
 21
-587.6869573235824
 31
0.0
  0
LINE
  5
A8FF
330
1A
100
AcDbEntity
  8
ZUWAKU
100
AcDbLine
 10
79.12662956154441
 20
-580.4119573235824
 30
0.0
 11
79.12662956154441
 21
-609.6119573235823
 31
0.0
  0
LINE
  5
A900
330
1A
100
AcDbEntity
  8
ZUWAKU
100
AcDbLine
 10
79.52662956154426
 20
-580.4119573235824
 30
0.0
 11
79.52662956154449
 21
-609.6119573235823
 31
0.0
  0
LINE
  5
A901
330
1A
100
AcDbEntity
  8
ZUWAKU
100
AcDbLine
 10
79.32662956154422
 20
-580.4119573235824
 30
0.0
 11
79.32662956154445
 21
-609.6119573235823
 31
0.0
  0
LINE
  5
A902
330
1A
100
AcDbEntity
  8
ZUWAKU
100
AcDbLine
 10
66.76721216833721
 20
-603.2619573235824
 30
0.0
 11
68.51721216833721
 21
-603.2619573235824
 31
0.0
  0
ARC
  5
A903
330
1A
100
AcDbEntity
  8
ZUWAKU
100
AcDbCircle
 10
66.76721216833721
 20
-602.7369573235825
 30
0.0
 40
0.525
100
AcDbArc
 50
180.0
 51
270.0
  0
LINE
  5
A904
330
1A
100
AcDbEntity
  8
ZUWAKU
100
AcDbLine
 10
57.84221216833714
 20
-603.2619573235824
 30
0.0
 11
61.34221216833714
 21
-603.2619573235824
 31
0.0
  0
ARC
  5
A905
330
1A
100
AcDbEntity
  8
ZUWAKU
100
AcDbCircle
 10
68.51721216833721
 20
-602.7369573235825
 30
0.0
 40
0.525
100
AcDbArc
 50
270.0
 51
0.0
  0
TEXT
  5
A906
330
1A
100
AcDbEntity
  8
MOJI
100
AcDbText
 10
92.95778960172516
 20
-597.6707791933076
 30
0.0
 40
6.0
  1
アートフェイスＶＭ１２０
 41
0.9
  7
ｽﾀｲﾙ1
100
AcDbText
  0
LINE
  5
A907
330
1A
100
AcDbEntity
  8
ZUWAKU
100
AcDbLine
 10
52.41721216833719
 20
-587.6869573235824
 30
0.0
 11
52.41721216833719
 21
-589.4369573235824
 31
0.0
  0
LINE
  5
A908
330
1A
100
AcDbEntity
  8
ZUWAKU
100
AcDbLine
 10
57.84221216833714
 20
-599.4119573235824
 30
0.0
 11
57.84221216833714
 21
-587.6869573235824
 31
0.0
  0
LINE
  5
A909
330
1A
100
AcDbEntity
  8
ZUWAKU
100
AcDbLine
 10
55.04221216833719
 20
-587.6869573235824
 30
0.0
 11
55.04221216833719
 21
-600.4619573235824
 31
0.0
  0
LINE
  5
A90A
330
1A
100
AcDbEntity
  8
ZUWAKU
100
AcDbLine
 10
61.34221216833714
 20
-587.6869573235824
 30
0.0
 11
61.34221216833714
 21
-599.4119573235824
 31
0.0
  0
LINE
  5
A90B
330
1A
100
AcDbEntity
  8
ZUWAKU
100
AcDbLine
 10
64.14221216833721
 20
-600.4619573235824
 30
0.0
 11
64.14221216833721
 21
-587.6869573235824
 31
0.0
  0
ARC
  5
A90C
330
1A
100
AcDbEntity
  8
ZUWAKU
100
AcDbCircle
 10
51.89221216833721
 20
-589.4369573235824
 30
0.0
 40
0.525
100
AcDbArc
 50
270.0
 51
0.0
  0
ARC
  5
A90D
330
1A
100
AcDbEntity
  8
ZUWAKU
100
AcDbCircle
 10
60.29221216833718
 20
-599.4119573235824
 30
0.0
 40
1.049999999999999
100
AcDbArc
 50
270.0
 51
0.0
  0
ARC
  5
A90E
330
1A
100
AcDbEntity
  8
ZUWAKU
100
AcDbCircle
 10
58.89221216833721
 20
-599.4119573235824
 30
0.0
 40
1.049999999999999
100
AcDbArc
 50
180.0
 51
270.0
  0
ARC
  5
A90F
330
1A
100
AcDbEntity
  8
ZUWAKU
100
AcDbCircle
 10
48.74221216833712
 20
-598.6467552982271
 30
0.0
 40
4.199999999999999
100
AcDbArc
 50
0.0
 51
45.0
  0
LINE
  5
A910
330
1A
100
AcDbEntity
  8
ZUWAKU
100
AcDbLine
 10
52.94221216833716
 20
-600.4619573235824
 30
0.0
 11
52.94221216833716
 21
-598.646755298227
 31
0.0
  0
LINE
  5
A911
330
1A
100
AcDbEntity
  8
ZUWAKU
100
AcDbLine
 10
60.29221216833718
 20
-600.4619573235824
 30
0.0
 11
58.89221216833721
 21
-600.4619573235824
 31
0.0
  0
LINE
  5
A912
330
1A
100
AcDbEntity
  8
ZUWAKU
100
AcDbLine
 10
68.51721216833721
 20
-587.1619573235824
 30
0.0
 11
66.76721216833721
 21
-587.1619573235824
 31
0.0
  0
ARC
  5
A913
330
1A
100
AcDbEntity
  8
ZUWAKU
100
AcDbCircle
 10
61.86721216833712
 20
-587.6869573235824
 30
0.0
 40
0.525
100
AcDbArc
 50
90.0
 51
180.0
  0
LINE
  5
A914
330
1A
100
AcDbEntity
  8
ZUWAKU
100
AcDbLine
 10
63.61721216833712
 20
-587.1619573235824
 30
0.0
 11
61.86721216833712
 21
-587.1619573235824
 31
0.0
  0
ARC
  5
A915
330
1A
100
AcDbEntity
  8
ZUWAKU
100
AcDbCircle
 10
63.61721216833712
 20
-587.6869573235824
 30
0.0
 40
0.525
100
AcDbArc
 50
0.0
 51
90.0
  0
ARC
  5
A916
330
1A
100
AcDbEntity
  8
ZUWAKU
100
AcDbCircle
 10
66.76721216833721
 20
-587.6869573235824
 30
0.0
 40
0.525
100
AcDbArc
 50
90.0
 51
180.0
  0
ARC
  5
A917
330
1A
100
AcDbEntity
  8
ZUWAKU
100
AcDbCircle
 10
51.89221216833721
 20
-587.6869573235824
 30
0.0
 40
0.525
100
AcDbArc
 50
0.0
 51
90.0
  0
LINE
  5
A918
330
1A
100
AcDbEntity
  8
ZUWAKU
100
AcDbLine
 10
57.31721216833716
 20
-587.1619573235824
 30
0.0
 11
55.56721216833716
 21
-587.1619573235824
 31
0.0
  0
ARC
  5
A919
330
1A
100
AcDbEntity
  8
ZUWAKU
100
AcDbCircle
 10
55.56721216833716
 20
-587.6869573235824
 30
0.0
 40
0.525
100
AcDbArc
 50
90.0
 51
180.0
  0
ARC
  5
A91A
330
1A
100
AcDbEntity
  8
ZUWAKU
100
AcDbCircle
 10
57.31721216833716
 20
-587.6869573235824
 30
0.0
 40
0.525
100
AcDbArc
 50
0.0
 51
90.0
  0
ARC
  5
A91B
330
1A
100
AcDbEntity
  8
ZUWAKU
100
AcDbCircle
 10
68.51721216833721
 20
-587.6869573235824
 30
0.0
 40
0.525
100
AcDbArc
 50
0.0
 51
90.0
  0
TEXT
  5
A91C
330
1A
100
AcDbEntity
  8
MOJI
100
AcDbText
 10
239.827202694407
 20
-592.407036266175
 30
0.0
 40
5.599999999999999
  1
止りⅡ （右）（左）
 41
0.9
  7
ｽﾀｲﾙ1
100
AcDbText
  0
TEXT
  5
A91D
330
1A
100
AcDbEntity
  8
ZUWAKU
100
AcDbText
 10
209.7240463258333
 20
-586.3566007851968
 30
0.0
 40
4.0
  1
品名
 41
0.9
  7
ｽﾀｲﾙ1
100
AcDbText
  0
LINE
  5
A91E
330
1A
100
AcDbEntity
  8
ZUWAKU
100
AcDbLine
 10
552.5269557796685
 20
-580.4119573235824
 30
0.0
 11
552.5269557796685
 21
-609.6119573235823
 31
0.0
  0
LINE
  5
A91F
330
1A
100
AcDbEntity
  8
ZUWAKU
100
AcDbLine
 10
552.9269557796683
 20
-580.4119573235824
 30
0.0
 11
552.9269557796685
 21
-609.6119573235823
 31
0.0
  0
LINE
  5
A920
330
1A
100
AcDbEntity
  8
ZUWAKU
100
AcDbLine
 10
552.7269557796683
 20
-580.4119573235824
 30
0.0
 11
552.7269557796684
 21
-609.6119573235823
 31
0.0
  0
TEXT
  5
A921
330
1A
100
AcDbEntity
  8
MOJI
100
AcDbText
 10
528.0409079858689
 20
-607.207036266175
 30
0.0
 40
5.599999999999999
  1
１/２
 41
0.9
  7
ｽﾀｲﾙ1
100
AcDbText
  0
TEXT
  5
A922
330
1A
100
AcDbEntity
  8
ZUWAKU
100
AcDbText
 10
506.6766245339067
 20
-600.7566007851968
 30
0.0
 40
4.0
  1
縮尺
 41
0.9
  7
ｽﾀｲﾙ1
100
AcDbText
  0
LINE
  5
A923
330
1A
100
AcDbEntity
  8
ZUWAKU
100
AcDbLine
 10
504.799179511697
 20
-580.4119573235824
 30
0.0
 11
504.799179511697
 21
-609.6119573235823
 31
0.0
  0
LINE
  5
A924
330
1A
100
AcDbEntity
  8
ZUWAKU
100
AcDbLine
 10
505.1991795116968
 20
-580.4119573235824
 30
0.0
 11
505.1991795116971
 21
-609.6119573235823
 31
0.0
  0
LINE
  5
A925
330
1A
100
AcDbEntity
  8
ZUWAKU
100
AcDbLine
 10
504.9991795116969
 20
-580.4119573235824
 30
0.0
 11
504.999179511697
 21
-609.6119573235823
 31
0.0
  0
LINE
  5
A926
330
1A
100
AcDbEntity
  8
ZUWAKU
100
AcDbLine
 10
447.4243639845474
 20
-580.4119573235824
 30
0.0
 11
447.4243639845474
 21
-609.6119573235823
 31
0.0
  0
LINE
  5
A927
330
1A
100
AcDbEntity
  8
ZUWAKU
100
AcDbLine
 10
447.8243639845472
 20
-580.4119573235824
 30
0.0
 11
447.8243639845475
 21
-609.6119573235823
 31
0.0
  0
LINE
  5
A928
330
1A
100
AcDbEntity
  8
ZUWAKU
100
AcDbLine
 10
447.6243639845472
 20
-580.4119573235824
 30
0.0
 11
447.6243639845474
 21
-609.6119573235823
 31
0.0
  0
TEXT
  5
A929
330
1A
100
AcDbEntity
  8
ZUWAKU
100
AcDbText
 10
461.3127663936491
 20
-607.7978864124429
 30
0.0
 40
3.0
  1
□には色品番が入ります
 41
0.9
  7
ｽﾀｲﾙ1
100
AcDbText
  0
TEXT
  5
A92A
330
1A
100
AcDbEntity
  8
MOJI
100
AcDbText
 10
458.6978397385862
 20
-597.4587094337807
 30
0.0
 40
5.599999999999999
  1
ＰＧ57□
 41
0.9
  7
ｽﾀｲﾙ1
100
AcDbText
  0
TEXT
  5
A92B
330
1A
100
AcDbEntity
  8
ZUWAKU
100
AcDbText
 10
449.3018090067569
 20
-586.3566007851968
 30
0.0
 40
4.0
  1
品番
 41
0.9
  7
ｽﾀｲﾙ1
100
AcDbText
  0
TEXT
  5
A92C
330
1A
100
AcDbEntity
  8
MOJI
100
AcDbText
 10
528.0409079858689
 20
-592.407036266175
 30
0.0
 40
5.599999999999999
  1
Ａ３
 41
0.9
  7
ｽﾀｲﾙ1
100
AcDbText
  0
LINE
  5
A92D
330
1A
100
AcDbEntity
  8
ZUWAKU
100
AcDbLine
 10
505.1991795116968
 20
-594.8119573235824
 30
0.0
 11
552.5269557796685
 21
-594.8119573235824
 31
0.0
  0
LINE
  5
A92E
330
1A
100
AcDbEntity
  8
ZUWAKU
100
AcDbLine
 10
505.1991795116968
 20
-595.0119573235824
 30
0.0
 11
552.5269557796685
 21
-595.0119573235824
 31
0.0
  0
LINE
  5
A92F
330
1A
100
AcDbEntity
  8
ZUWAKU
100
AcDbLine
 10
505.1991795116968
 20
-595.2119573235823
 30
0.0
 11
552.5269557796685
 21
-595.2119573235823
 31
0.0
  0
TEXT
  5
A930
330
1A
100
AcDbEntity
  8
ZUWAKU
100
AcDbText
 10
506.6766245339065
 20
-586.3566007851968
 30
0.0
 40
4.0
  1
用紙
 41
0.9
  7
ｽﾀｲﾙ1
100
AcDbText
  0
TEXT
  5
A931
330
1A
100
AcDbEntity
  8
ZUWAKU
100
AcDbText
 10
708.5280842057998
 20
-603.7631170097284
 30
0.0
 40
6.0
  1
建材事業部
 41
0.9
  7
ｽﾀｲﾙ1
100
AcDbText
  0
LINE
  5
A932
330
1A
100
AcDbEntity
  8
ZUWAKU
100
AcDbLine
 10
697.8490105620972
 20
-580.4119573235824
 30
0.0
 11
697.8490105620974
 21
-609.6119573235823
 31
0.0
  0
LINE
  5
A933
330
1A
100
AcDbEntity
  8
ZUWAKU
100
AcDbLine
 10
697.6490105620971
 20
-580.4119573235824
 30
0.0
 11
697.6490105620974
 21
-609.6119573235823
 31
0.0
  0
LINE
  5
A934
330
1A
100
AcDbEntity
  8
ZUWAKU
100
AcDbLine
 10
697.4490105620973
 20
-580.4119573235824
 30
0.0
 11
697.4490105620973
 21
-609.6119573235823
 31
0.0
  0
LINE
  5
A935
330
1A
100
AcDbEntity
  8
ZUWAKU
100
AcDbLine
 10
697.2490105620972
 20
-580.4119573235824
 30
0.0
 11
697.2490105620972
 21
-609.6119573235823
 31
0.0
  0
LINE
  5
A936
330
1A
100
AcDbEntity
  8
ZUWAKU
100
AcDbLine
 10
648.4172025237605
 20
-580.4119573235824
 30
0.0
 11
648.4172025237605
 21
-609.6119573235823
 31
0.0
  0
LINE
  5
A937
330
1A
100
AcDbEntity
  8
ZUWAKU
100
AcDbLine
 10
648.8172025237604
 20
-580.4119573235824
 30
0.0
 11
648.8172025237607
 21
-609.6119573235823
 31
0.0
  0
LINE
  5
A938
330
1A
100
AcDbEntity
  8
ZUWAKU
100
AcDbLine
 10
648.6172025237603
 20
-580.4119573235824
 30
0.0
 11
648.6172025237606
 21
-609.6119573235823
 31
0.0
  0
TEXT
  5
A939
330
1A
100
AcDbEntity
  8
ZUWAKU
100
AcDbText
 10
658.2039377008584
 20
-592.407036266175
 30
0.0
 40
5.599999999999999
  1
　　．　　．　　
 41
0.9
  7
ｽﾀｲﾙ1
100
AcDbText
  0
LINE
  5
A93A
330
1A
100
AcDbEntity
  8
ZUWAKU
100
AcDbLine
 10
648.8172025237602
 20
-594.8119573235824
 30
0.0
 11
697.2490105620972
 21
-594.8119573235824
 31
0.0
  0
LINE
  5
A93B
330
1A
100
AcDbEntity
  8
ZUWAKU
100
AcDbLine
 10
648.8172025237604
 20
-595.0119573235823
 30
0.0
 11
697.2490105620972
 21
-595.0119573235824
 31
0.0
  0
LINE
  5
A93C
330
1A
100
AcDbEntity
  8
ZUWAKU
100
AcDbLine
 10
648.8172025237602
 20
-595.2119573235823
 30
0.0
 11
697.2490105620972
 21
-595.2119573235823
 31
0.0
  0
TEXT
  5
A93D
330
1A
100
AcDbEntity
  8
SUNPOU
 62
     4
100
AcDbText
 10
683.1701524307764
 20
-574.136125493093
 30
0.0
 40
6.0
  1
※　のきといの差込み寸法を示す
100
AcDbText
  0
TEXT
  5
A93E
330
1A
100
AcDbEntity
  8
ZUWAKU
100
AcDbText
 10
650.29464754597
 20
-586.3566007851968
 30
0.0
 40
4.0
  1
DATE
 41
0.9
  7
ｽﾀｲﾙ1
100
AcDbText
  0
TEXT
  5
A93F
330
1A
100
AcDbEntity
  8
ZUWAKU
100
AcDbText
 10
708.5280842057998
 20
-592.8581179878956
 30
0.0
 40
6.0
  1
積水化学工業株式会社
 41
0.9
  7
ｽﾀｲﾙ1
100
AcDbText
  0
ELLIPSE
  5
B93C
330
1A
100
AcDbEntity
  8
SEIHIN
100
AcDbEllipse
 10
326.5525590508081
 20
-313.6686639150856
 30
0.0
 11
0.0000000000000373
 21
2.0
 31
0.0
210
0.0
220
0.0
230
-1.0
 40
0.0227038305000065
 41
4.712388980384689
 42
6.283185307178762
  0
ELLIPSE
  5
B93D
330
1A
100
AcDbEntity
  8
SEIHIN
100
AcDbEllipse
 10
309.4054845876085
 20
-413.7100128289856
 30
0.0
 11
-28.05546919065125
 21
1.56568198455011
 31
0.0
210
0.0
220
0.0
230
-0.9999999999999998
 40
0.0355874201
 41
3.24472607296105
 42
3.915640069447357
  0
LINE
  5
B942
330
1A
100
AcDbEntity
  8
SEIHIN
100
AcDbLine
 10
111.4719297824417
 20
-311.5881102249856
 30
0.0
 11
242.1034708742254
 21
-311.5881102249856
 31
0.0
  0
LINE
  5
B943
330
1A
100
AcDbEntity
  8
SEIHIN
100
AcDbLine
 10
239.9455718707709
 20
-338.7386919413836
 30
0.0
 11
109.4016818360523
 21
-338.7386919413836
 31
0.0
  0
DIMENSION
  5
B944
330
1A
100
AcDbEntity
  8
SUNPOU
100
AcDbDimension
  2
*D12
 10
245.8014575795368
 20
-290.2977555255611
 30
0.0
 11
177.6015697077946
 21
-285.2977555255611
 31
0.0
 70
    32
  3
STANDARD
100
AcDbAlignedDimension
 13
109.4016818360523
 23
-313.5881093525425
 33
0.0
 14
245.8014575795368
 24
-314.5066094779507
 34
0.0
100
AcDbRotatedDimension
1001
ACAD
1000
DSTYLE
1002
{
1070
    41
1040
7.0
1070
    42
1040
6.0
1070
    43
1040
14.0
1070
    44
1040
3.0
1070
    73
1070
     0
1070
    74
1070
     0
1070
    77
1070
     3
1070
   140
1040
6.0
1070
   141
1040
150.0
1070
   147
1040
2.0
1070
   172
1070
     1
1070
   173
1070
     1
1070
   176
1070
   256
1070
   177
1070
   256
1070
   178
1070
   256
1070
   271
1070
     0
1070
   272
1070
     0
1070
   341
1005
6D
1070
     6
1000
OPEN
1070
     7
1000
OPEN
1070
   371
1070
    -1
1070
   372
1070
    -1
1002
}
  0
DIMENSION
  5
B946
330
1A
100
AcDbEntity
  8
SUNPOU
100
AcDbDimension
  2
*D9
 10
194.2475525693135
 20
-447.3344156227274
 30
0.0
 11
151.8551989799079
 21
-442.3344156227273
 31
0.0
 70
    32
  3
STANDARD
100
AcDbAlignedDimension
 13
109.4628453905024
 23
-425.6854433688364
 33
0.0
 14
194.2475525693135
 24
-426.2641394356363
 34
0.0
100
AcDbRotatedDimension
1001
ACAD
1000
DSTYLE
1002
{
1070
    41
1040
7.0
1070
    42
1040
6.0
1070
    43
1040
14.0
1070
    44
1040
3.0
1070
    73
1070
     0
1070
    74
1070
     0
1070
    77
1070
     3
1070
   140
1040
6.0
1070
   141
1040
150.0
1070
   147
1040
2.0
1070
   172
1070
     1
1070
   173
1070
     1
1070
   176
1070
   256
1070
   177
1070
   256
1070
   178
1070
   256
1070
   271
1070
     0
1070
   272
1070
     0
1070
   341
1005
6D
1070
     6
1000
OPEN
1070
     7
1000
OPEN
1070
   371
1070
    -1
1070
   372
1070
    -1
1002
}
  0
LINE
  5
B947
330
1A
100
AcDbEntity
  8
SEIHIN
100
AcDbLine
 10
109.4628453905024
 20
-416.1922051766055
 30
0.0
 11
203.5479707674221
 21
-416.1922051766055
 31
0.0
  0
ARC
  5
B948
330
1A
100
AcDbEntity
  8
SEIHIN
100
AcDbCircle
 10
158.0014539913372
 20
574.3077951288681
 30
0.0
 40
1002.5
100
AcDbArc
 50
267.3628083384207
 51
271.9680837410718
  0
ARC
  5
B949
330
1A
100
AcDbEntity
  8
SEIHIN
100
AcDbCircle
 10
-736.0314411375386
 20
-68.50239511277482
 30
0.0
 40
1002.5
100
AcDbArc
 50
339.7467010298989
 51
344.0764915289164
  0
DIMENSION
  5
B94A
330
1A
100
AcDbEntity
  8
SUNPOU
100
AcDbDimension
  2
*D8
 10
281.2341610794246
 20
-428.1751149429672
 30
0.0
 11
276.2341610794247
 21
-369.8816138464872
 31
0.0
 70
    32
  3
STANDARD
100
AcDbAlignedDimension
 13
242.1034587578014
 23
-311.5881127500073
 33
0.0
 14
158.0014539913372
 24
-428.1751149429672
 34
0.0
 50
90.0
100
AcDbRotatedDimension
1001
ACAD
1000
DSTYLE
1002
{
1070
   287
1070
     5
1070
   287
1070
     5
1070
   287
1070
     5
1070
   287
1070
     5
1070
   287
1070
     5
1070
   287
1070
     5
1070
   287
1070
     5
1070
   287
1070
     5
1070
   287
1070
     5
1070
   287
1070
     5
1070
   287
1070
     5
1070
   287
1070
     5
1070
    41
1040
7.0
1070
    42
1040
6.0
1070
    43
1040
14.0
1070
    44
1040
3.0
1070
    73
1070
     0
1070
    74
1070
     0
1070
    77
1070
     3
1070
   140
1040
6.0
1070
   141
1040
150.0
1070
   147
1040
2.0
1070
   172
1070
     1
1070
   173
1070
     1
1070
   176
1070
   256
1070
   177
1070
   256
1070
   178
1070
   256
1070
   271
1070
     0
1070
   272
1070
     0
1070
   279
1070
     2
1070
   341
1005
6D
1070
     6
1000
OPEN
1070
     7
1000
OPEN
1070
   371
1070
    -1
1070
   372
1070
    -1
1002
}
  0
LINE
  5
B94C
330
1A
100
AcDbEntity
  8
SEIHIN
100
AcDbLine
 10
329.4516813701084
 20
-414.8267720957855
 30
0.0
 11
329.4516813701084
 21
-337.4721464823855
 31
0.0
  0
LINE
  5
B94D
330
1A
100
AcDbEntity
  8
SEIHIN
100
AcDbLine
 10
357.5071513898083
 20
-423.4746065551855
 30
0.0
 11
357.5071513898083
 21
-336.6945914225856
 31
0.0
  0
DIMENSION
  5
B94E
330
1A
100
AcDbEntity
  8
SUNPOU
100
AcDbDimension
  2
*D11
 10
357.5071513898083
 20
-467.0735497927444
 30
0.0
 11
344.0071513898083
 21
-462.0735497927443
 31
0.0
 70
    32
  3
STANDARD
100
AcDbAlignedDimension
 13
330.5071513898083
 23
-426.8309822209806
 33
0.0
 14
357.5071513898083
 24
-423.4746065551855
 34
0.0
100
AcDbRotatedDimension
1001
ACAD
1000
DSTYLE
1002
{
1070
    41
1040
7.0
1070
    42
1040
6.0
1070
    43
1040
14.0
1070
    44
1040
3.0
1070
    73
1070
     0
1070
    74
1070
     0
1070
    77
1070
     3
1070
   140
1040
6.0
1070
   141
1040
150.0
1070
   147
1040
2.0
1070
   172
1070
     1
1070
   173
1070
     1
1070
   176
1070
   256
1070
   177
1070
   256
1070
   178
1070
   256
1070
   271
1070
     0
1070
   272
1070
     0
1070
   341
1005
6D
1070
     6
1000
OPEN
1070
     7
1000
OPEN
1070
   371
1070
    -1
1070
   372
1070
    -1
1002
}
  0
LINE
  5
B94F
330
1A
100
AcDbEntity
  8
SEIHIN
100
AcDbLine
 10
337.3061436878023
 20
-415.3701637082856
 30
0.0
 11
357.5071513898083
 21
-415.3701637082856
 31
0.0
  0
LWPOLYLINE
  5
B950
330
1A
100
AcDbEntity
  8
SEIHIN
100
AcDbPolyline
 90
        3
 70
   128
 43
0.0
 10
337.5071513898083
 20
-427.2337749017856
 10
343.4979631323083
 20
-427.0048171869856
 10
357.5071513898083
 20
-426.4692062854855
  0
DIMENSION
  5
B951
330
1A
100
AcDbEntity
  8
SUNPOU
100
AcDbDimension
  2
*D10
 10
357.5071513898083
 20
-447.7406760557228
 30
0.0
 11
345.2571513898083
 21
-442.7406760557228
 31
0.0
 70
    32
  1
\U+203B<>
  3
STANDARD
100
AcDbAlignedDimension
 13
333.0071513898083
 23
-423.4746065551855
 33
0.0
 14
357.5071513898083
 24
-429.4746065551855
 34
0.0
100
AcDbRotatedDimension
1001
ACAD
1000
DSTYLE
1002
{
1070
    41
1040
7.0
1070
    42
1040
6.0
1070
    43
1040
14.0
1070
    44
1040
3.0
1070
    73
1070
     0
1070
    74
1070
     0
1070
    77
1070
     3
1070
   140
1040
6.0
1070
   141
1040
150.0
1070
   147
1040
2.0
1070
   172
1070
     1
1070
   173
1070
     1
1070
   176
1070
   256
1070
   177
1070
   256
1070
   178
1070
   256
1070
   271
1070
     0
1070
   272
1070
     0
1070
   341
1005
6D
1070
     6
1000
OPEN
1070
     7
1000
OPEN
1070
   371
1070
    -1
1070
   372
1070
    -1
1002
}
  0
LINE
  5
B952
330
1A
100
AcDbEntity
  8
SEIHIN
100
AcDbLine
 10
357.5071513898083
 20
-426.4692062854855
 30
0.0
 11
357.5071513898083
 21
-423.4746065551855
 31
0.0
  0
LWPOLYLINE
  5
B953
330
1A
100
AcDbEntity
  8
SEIHIN
100
AcDbPolyline
 90
        3
 70
   128
 43
0.0
 10
330.5071513898083
 20
-426.8309822209806
 10
336.4463733802083
 20
-427.1640251924856
 10
337.5071493383084
 20
-427.2337213483856
  0
ARC
  5
B954
330
1A
100
AcDbEntity
  8
SEIHIN
100
AcDbCircle
 10
324.0283152968086
 20
-416.3675217072856
 30
0.0
 40
6.481511297102771
100
AcDbArc
 50
1.6462390114004
 51
7.184411856999802
  0
LINE
  5
B955
330
1A
100
AcDbEntity
  8
SEIHIN
100
AcDbLine
 10
330.5071513898083
 20
-426.8309822209806
 30
0.0
 11
330.5071513898083
 21
-416.1813186607855
 31
0.0
  0
ARC
  5
B956
330
1A
100
AcDbEntity
  8
SEIHIN
100
AcDbCircle
 10
333.9677638263083
 20
-415.3260022723856
 30
0.0
 40
4.543592358469249
100
AcDbArc
 50
173.6918524476
 51
182.5423235452458
  0
LINE
  5
B957
330
1A
100
AcDbEntity
  8
SEIHIN
100
AcDbLine
 10
194.2475525693135
 20
-426.2641394356363
 30
0.0
 11
197.5405415550904
 21
-416.8611462422744
 31
0.0
  0
ARC
  5
B958
330
1A
100
AcDbEntity
  8
SEIHIN
100
AcDbCircle
 10
203.548355151475
 20
-415.1935569722346
 30
0.0
 40
0.9986482132848875
100
AcDbArc
 50
270.0076553987587
 51
339.7391578330154
  0
ARC
  5
B959
330
1A
100
AcDbEntity
  8
SEIHIN
100
AcDbCircle
 10
-736.0314411375386
 20
-68.50239511277482
 30
0.0
 40
1002.5
100
AcDbArc
 50
339.7466715046042
 51
339.7467010298989
  0
LINE
  5
B95A
330
1A
100
AcDbEntity
  8
SEIHIN
100
AcDbLine
 10
198.4831927375035
 20
-416.1922051766055
 30
0.0
 11
198.4835876182751
 21
-416.1922051766055
 31
0.0
  0
LWPOLYLINE
  5
B95B
330
1A
100
AcDbEntity
  8
SEIHIN
100
AcDbPolyline
 90
        5
 70
   128
 43
0.0
 10
197.5409066335396
 20
-416.860105023636
 10
197.6361995593743
 20
-416.6617696368233
 10
197.8589793698029
 20
-416.4112904303805
 10
198.1524316624836
 20
-416.2485725441114
 10
198.4831927375035
 20
-416.1922051766054
  0
LINE
  5
B95C
330
1A
100
AcDbEntity
  8
SEIHIN
100
AcDbLine
 10
197.5405415550904
 20
-416.8611462422744
 30
0.0
 11
197.5409066335396
 21
-416.860105023636
 31
0.0
  0
LINE
  5
B95D
330
1A
100
AcDbEntity
  8
SEIHIN
100
AcDbLine
 10
203.5479707674221
 20
-416.1922051766055
 30
0.0
 11
203.5484885827736
 21
-416.1922051766055
 31
0.0
  0
LWPOLYLINE
  5
B95E
330
1A
100
AcDbEntity
  8
SEIHIN
100
AcDbPolyline
 90
        5
 70
   128
 43
0.0
 10
194.2467665330605
 20
-426.2663874737085
 10
194.0917348519997
 20
-426.6038553518341
 10
193.6640268222527
 20
-427.1196938547404
 10
193.0892033533291
 20
-427.4651215140806
 10
192.4324831024842
 20
-427.6007597995088
  0
LWPOLYLINE
  5
B95F
330
1A
100
AcDbEntity
  8
SEIHIN
100
AcDbPolyline
 90
        3
 70
   128
 43
0.0
 10
192.4300989166931
 20
-427.600842687218
 10
192.4312910095886
 20
-427.6008014761941
 10
192.4324831024842
 20
-427.6007597995088
  0
LWPOLYLINE
  5
B960
330
1A
100
AcDbEntity
  8
SEIHIN
100
AcDbPolyline
 90
        3
 70
   128
 43
0.0
 10
194.2467665330605
 20
-426.2663874737085
 10
194.2471614138321
 20
-426.2652635419839
 10
194.2475525693135
 20
-426.2641394356363
  0
LINE
  5
B961
330
1A
100
AcDbEntity
  8
CENTER_L
  6
CENTER
 62
     1
 48
5.0
100
AcDbLine
 10
158.0014539913372
 20
-404.9826889924644
 30
0.0
 11
158.0014539913372
 21
-435.3008718665354
 31
0.0
  0
DIMENSION
  5
B962
330
1A
100
AcDbEntity
  8
SUNPOU
100
AcDbDimension
  2
*D13
 10
263.0327565162967
 20
-311.5087342643276
 30
0.0
 11
258.0327565162968
 21
-325.1237131028556
 31
0.0
 70
    32
  3
STANDARD
100
AcDbAlignedDimension
 13
239.9455718707709
 23
-338.7386919413836
 33
0.0
 14
242.7158368782238
 24
-311.5087342643276
 34
0.0
 50
90.0
100
AcDbRotatedDimension
1001
ACAD
1000
DSTYLE
1002
{
1070
   287
1070
     4
1070
   287
1070
     4
1070
   287
1070
     4
1070
   287
1070
     4
1070
   287
1070
     4
1070
   287
1070
     4
1070
   287
1070
     4
1070
   287
1070
     4
1070
   287
1070
     4
1070
   287
1070
     4
1070
   287
1070
     4
1070
   287
1070
     4
1070
   279
1070
     1
1070
    41
1040
7.0
1070
    42
1040
6.0
1070
    43
1040
14.0
1070
    44
1040
3.0
1070
    73
1070
     0
1070
    74
1070
     0
1070
    77
1070
     3
1070
   140
1040
6.0
1070
   141
1040
150.0
1070
   147
1040
2.0
1070
   172
1070
     1
1070
   173
1070
     1
1070
   176
1070
   256
1070
   177
1070
   256
1070
   178
1070
   256
1070
   271
1070
     0
1070
   272
1070
     0
1070
   341
1005
6D
1070
     6
1000
OPEN
1070
     7
1000
OPEN
1070
   371
1070
    -1
1070
   372
1070
    -1
1002
}
  0
LINE
  5
B963
330
1A
100
AcDbEntity
  8
SEIHIN
100
AcDbLine
 10
329.0071513898083
 20
-311.6686639150856
 30
0.0
 11
326.5525590508082
 21
-311.6686639150856
 31
0.0
  0
LINE
  5
B964
330
1A
100
AcDbEntity
  8
SEIHIN
100
AcDbLine
 10
326.5071513898083
 20
-337.3922048710856
 30
0.0
 11
357.5071513898083
 21
-337.3922048710856
 31
0.0
  0
LINE
  5
B965
330
1A
100
AcDbEntity
  8
SEIHIN
100
AcDbLine
 10
326.5071513898083
 20
-320.4596140125857
 30
0.0
 11
357.5071513898083
 21
-320.4596140125857
 31
0.0
  0
DIMENSION
  5
B966
330
1A
100
AcDbEntity
  8
SUNPOU
100
AcDbDimension
  2
*D14
 10
357.5071513898083
 20
-290.2977555255611
 30
0.0
 11
342.0298552203082
 21
-285.2977555255611
 31
0.0
 70
    32
  3
STANDARD
100
AcDbAlignedDimension
 13
326.5525590508081
 23
-311.6686639150856
 33
0.0
 14
357.5071513898083
 24
-311.8178858801856
 34
0.0
100
AcDbRotatedDimension
1001
ACAD
1000
DSTYLE
1002
{
1070
    41
1040
7.0
1070
    42
1040
6.0
1070
    43
1040
14.0
1070
    44
1040
3.0
1070
    73
1070
     0
1070
    74
1070
     0
1070
    77
1070
     3
1070
   140
1040
6.0
1070
   141
1040
150.0
1070
   147
1040
2.0
1070
   172
1070
     1
1070
   173
1070
     1
1070
   176
1070
   256
1070
   177
1070
   256
1070
   178
1070
   256
1070
   271
1070
     0
1070
   272
1070
     0
1070
   341
1005
6D
1070
     6
1000
OPEN
1070
     7
1000
OPEN
1070
   371
1070
    -1
1070
   372
1070
    -1
1002
}
  0
LINE
  5
B967
330
1A
100
AcDbEntity
  8
SEIHIN
100
AcDbLine
 10
357.5071513898083
 20
-312.6264720850856
 30
0.0
 11
357.5071513898083
 21
-311.8178858801856
 31
0.0
  0
LINE
  5
B968
330
1A
100
AcDbEntity
  8
SEIHIN
100
AcDbLine
 10
357.5071513898083
 20
-336.6945914225856
 30
0.0
 11
357.5071513898083
 21
-334.6945914225856
 31
0.0
  0
LINE
  5
B969
330
1A
100
AcDbEntity
  8
SEIHIN
100
AcDbLine
 10
357.5071513898083
 20
-314.9766651948856
 30
0.0
 11
357.5071513898083
 21
-312.6264720850856
 31
0.0
  0
LINE
  5
B96A
330
1A
100
AcDbEntity
  8
SEIHIN
100
AcDbLine
 10
357.5071513898083
 20
-315.1865443774855
 30
0.0
 11
357.5071513898083
 21
-314.9766651948856
 31
0.0
  0
LINE
  5
B96B
330
1A
100
AcDbEntity
  8
SEIHIN
100
AcDbLine
 10
357.5071513898083
 20
-316.4727585611856
 30
0.0
 11
357.5071513898083
 21
-315.1865443774855
 31
0.0
  0
LINE
  5
B96C
330
1A
100
AcDbEntity
  8
SEIHIN
100
AcDbLine
 10
357.5071513898083
 20
-334.6945914225856
 30
0.0
 11
357.5071513898083
 21
-320.3514083086856
 31
0.0
  0
LINE
  5
B96D
330
1A
100
AcDbEntity
  8
SEIHIN
100
AcDbLine
 10
357.5071513898083
 20
-320.3514083086856
 30
0.0
 11
357.5071513898083
 21
-316.4727585611856
 31
0.0
  0
LINE
  5
B96E
330
1A
100
AcDbEntity
  8
SEIHIN
100
AcDbLine
 10
341.0071513898083
 20
-311.6803858801856
 30
0.0
 11
357.5071513898083
 21
-311.8178858801856
 31
0.0
  0
LINE
  5
B96F
330
1A
100
AcDbEntity
  8
SEIHIN
100
AcDbLine
 10
341.0071513898083
 20
-311.6686639150856
 30
0.0
 11
329.0071513898083
 21
-311.6686639150856
 31
0.0
  0
LINE
  5
B970
330
1A
100
AcDbEntity
  8
SEIHIN
100
AcDbLine
 10
326.5071513898083
 20
-337.3922048710856
 30
0.0
 11
326.5071513898083
 21
-313.6686639150856
 31
0.0
  0
LWPOLYLINE
  5
B973
330
1A
100
AcDbEntity
  8
SEIHIN
100
AcDbPolyline
 90
       11
 70
   128
 43
0.0
 10
242.186868007584
 20
-311.5707305454746
 10
242.7158368782238
 20
-311.5087342643276
 10
243.2474209026531
 20
-311.5410697841182
 10
243.7648860768513
 20
-311.666731276466
 10
244.251952882214
 20
-311.8817699336544
 10
244.6933103756145
 20
-312.1794057273403
 10
245.0750632242397
 20
-312.5502881788746
 10
245.3852085427479
 20
-312.9827496790424
 10
245.6139935211376
 20
-313.4631780170932
 10
245.7542134479717
 20
-313.9764634155766
 10
245.8014575795368
 20
-314.5064604663387
  0
LINE
  5
B974
330
1A
100
AcDbEntity
  8
SEIHIN
100
AcDbLine
 10
239.9455718707709
 20
-338.7386919413836
 30
0.0
 11
245.8014575795368
 21
-320.5854562305943
 31
0.0
  0
LINE
  5
B975
330
1A
100
AcDbEntity
  8
SEIHIN
100
AcDbLine
 10
245.8014575795368
 20
-320.5854562305943
 30
0.0
 11
245.8014575795368
 21
-314.5066094779507
 31
0.0
  0
LINE
  5
B976
330
1A
100
AcDbEntity
  8
SEIHIN
100
AcDbLine
 10
242.1034587578014
 20
-311.5881127500073
 30
0.0
 11
242.186868007584
 21
-311.5707305454745
 31
0.0
  0
LINE
  5
B977
330
1A
100
AcDbEntity
  8
SEIHIN
100
AcDbLine
 10
228.0014539913372
 20
-343.5420779031635
 30
0.0
 11
228.0014543203713
 21
-338.7386919413836
 31
0.0
  0
LINE
  5
B9A8
330
1A
100
AcDbEntity
  8
SEIHIN
100
AcDbLine
 10
109.4628453905024
 20
-425.6854433688364
 30
0.0
 11
109.4628453905024
 21
-337.391592792294
 31
0.0
  0
LINE
  5
B9A9
330
1A
100
AcDbEntity
  8
SEIHIN
100
AcDbLine
 10
111.8738291815952
 20
-427.1304166372032
 30
0.0
 11
111.8749981677892
 21
-427.1304706035522
 31
0.0
  0
LWPOLYLINE
  5
B9AA
330
1A
100
AcDbEntity
  8
SEIHIN
100
AcDbPolyline
 90
        4
 70
   128
 43
0.0
 10
111.8738291815952
 20
-427.1304166372032
 10
110.8888326243595
 20
-426.9157448046938
 10
110.0304996625618
 20
-426.38687756463
 10
109.4628453905024
 20
-425.6854433688364
  0
LWPOLYLINE
  5
B9AB
330
1A
100
AcDbEntity
  8
SEIHIN
100
AcDbPolyline
 90
        9
 70
   128
 43
0.0
 10
109.4016818360523
 20
-313.5881093525425
 10
109.4401529089646
 20
-313.1979298972622
 10
109.5540797368721
 20
-312.8227410101429
 10
109.7390925542549
 20
-312.4769670152203
 10
109.9880723313526
 20
-312.1738997482792
 10
110.2914599732594
 20
-311.9251695656315
 10
110.6375915960507
 20
-311.7403504633442
 10
111.0131641880707
 20
-311.6265428447262
 10
111.4037496999935
 20
-311.5881127500073
  0
LINE
  5
B9AC
330
1A
100
AcDbEntity
  8
SEIHIN
100
AcDbLine
 10
109.4016818360523
 20
-338.7386919413836
 30
0.0
 11
109.4016818360523
 21
-313.5881093525425
 31
0.0
  0
LINE
  5
B9AD
330
1A
100
AcDbEntity
  8
SEIHIN
100
AcDbLine
 10
111.4037496999935
 20
-311.5881127500073
 30
0.0
 11
111.4719297824417
 21
-311.5881102249856
 31
0.0
  0
ELLIPSE
  5
BCF3
330
1A
100
AcDbEntity
  8
SEIHIN
100
AcDbEllipse
 10
585.7694741967684
 20
-228.8856935010414
 30
0.0
 11
0.9999999945836785
 21
0.0102030193161795
 31
0.0
210
0.0
220
0.0
230
-1.0
 40
0.0102008957
 41
4.7127012635289
 42
6.283185307179585
  0
ELLIPSE
  5
BCF4
330
1A
100
AcDbEntity
  8
SEIHIN
100
AcDbEllipse
 10
1548.302369325668
 20
-1421.197999433441
 30
0.0
 11
0.0
 21
-4317.7333333333
 31
0.0
210
0.0
220
0.0
230
-1.0
 40
0.2307692308
 41
1.850216199308461
 42
1.851463227211461
  0
ELLIPSE
  5
BCF5
330
1A
100
AcDbEntity
  8
SEIHIN
100
AcDbEllipse
 10
1548.302369325668
 20
-2150.511646502942
 30
0.0
 11
0.0
 21
-4628.336606403308
 31
0.0
210
0.0
220
0.0
230
-1.0
 40
0.2278862081
 41
1.998947278511994
 42
1.99982015793545
  0
ELLIPSE
  5
BCF6
330
1A
100
AcDbEntity
  8
SEIHIN
100
AcDbEllipse
 10
226.6708972556439
 20
-228.8856935010414
 30
0.0
 11
-0.9999999945836783
 21
0.0102030193161795
 31
0.0
210
0.0
220
0.0
230
1.0
 40
0.0102008957
 41
4.7127012635289
 42
6.283185307179585
  0
ELLIPSE
  5
BCF7
330
1A
100
AcDbEntity
  8
SEIHIN
100
AcDbEllipse
 10
-735.8619978732559
 20
-2150.511646502942
 30
0.0
 11
0.0
 21
-4628.336606403308
 31
0.0
210
0.0
220
0.0
230
1.0
 40
0.2278862081
 41
1.998947278511994
 42
1.99982015793545
  0
ELLIPSE
  5
BCF8
330
1A
100
AcDbEntity
  8
SEIHIN
100
AcDbEllipse
 10
-735.8619978732559
 20
-1421.197999433441
 30
0.0
 11
0.0
 21
-4317.7333333333
 31
0.0
210
0.0
220
0.0
230
1.0
 40
0.2307692308
 41
1.850216199308461
 42
1.851463227211461
  0
ARC
  5
BCF9
330
1A
100
AcDbEntity
  8
SEIHIN
100
AcDbCircle
 10
159.1397983713441
 20
-220.8754904816414
 30
0.0
 40
2.999999999999943
100
AcDbArc
 50
21.80140948639777
 51
90.0
  0
LINE
  5
BCFA
330
1A
100
AcDbEntity
  8
SEIHIN
100
AcDbLine
 10
187.0662521230442
 20
-232.8754904816414
 30
0.0
 11
112.0683171726441
 21
-232.8754904816414
 31
0.0
  0
LINE
  5
BCFB
330
1A
100
AcDbEntity
  8
SEIHIN
100
AcDbLine
 10
187.2329187896439
 20
-230.8754904816414
 30
0.0
 11
121.6830754191441
 21
-230.8754904816414
 31
0.0
  0
LINE
  5
BCFC
330
1A
100
AcDbEntity
  8
SEIHIN
100
AcDbLine
 10
112.1364989907442
 20
-234.3754904816414
 30
0.0
 11
242.5827273093441
 21
-234.3754904816414
 31
0.0
  0
LINE
  5
BCFD
330
1A
100
AcDbEntity
  8
SEIHIN
100
AcDbLine
 10
125.046968201444
 20
-204.3754904816414
 30
0.0
 11
191.5034771859441
 21
-204.3754904816414
 31
0.0
  0
LINE
  5
BCFE
330
1A
100
AcDbEntity
  8
SEIHIN
100
AcDbLine
 10
187.2329187896439
 20
-229.3754904816414
 30
0.0
 11
126.9014440844443
 21
-229.3754904816414
 31
0.0
  0
LINE
  5
BD28
330
1A
100
AcDbEntity
  8
CENTER_L0
  6
CENTER
 48
10.0
100
AcDbLine
 10
158.1187848171839
 20
-241.5440667997863
 30
0.0
 11
158.1187848171839
 21
-197.6614811301215
 31
0.0
  0
LINE
  5
BD29
330
1A
100
AcDbEntity
  8
SEIHIN
100
AcDbLine
 10
121.579888486644
 20
-204.3754904816414
 30
0.0
 11
121.579888486644
 21
-230.8754904816414
 31
0.0
  0
LINE
  5
BD2A
330
1A
100
AcDbEntity
  8
SEIHIN
100
AcDbLine
 10
110.0424928579441
 20
-232.3527866512415
 30
0.0
 11
109.6798884866439
 21
-224.3754904816414
 31
0.0
  0
LINE
  5
BD2B
330
1A
100
AcDbEntity
  8
SEIHIN
100
AcDbLine
 10
127.4014440844439
 20
-229.3754904816414
 30
0.0
 11
127.4014440844439
 21
-217.8754904816414
 31
0.0
  0
LINE
  5
BD2C
330
1A
100
AcDbEntity
  8
SEIHIN
100
AcDbLine
 10
121.6830754191441
 20
-230.8754904816414
 30
0.0
 11
121.6830754191441
 21
-232.3754904816414
 31
0.0
  0
LINE
  5
BD2D
330
1A
100
AcDbEntity
  8
SEIHIN
100
AcDbLine
 10
121.6830754191441
 20
-232.3754904816414
 30
0.0
 11
121.6830754191441
 21
-232.8754904816414
 31
0.0
  0
LINE
  5
BD2E
330
1A
100
AcDbEntity
  8
SEIHIN
100
AcDbLine
 10
126.9014440844439
 20
-230.8754904816414
 30
0.0
 11
126.9014440844439
 21
-229.3754904816414
 31
0.0
  0
LINE
  5
BD2F
330
1A
100
AcDbEntity
  8
SEIHIN
100
AcDbLine
 10
110.1364979257441
 20
-234.4208981426414
 30
0.0
 11
110.0662521230442
 21
-232.8754904816414
 31
0.0
  0
LINE
  5
BD30
330
1A
100
AcDbEntity
  8
SEIHIN
100
AcDbLine
 10
112.1364989907442
 20
-234.3754904816414
 30
0.0
 11
110.1364979257441
 21
-234.4208981426414
 31
0.0
  0
LINE
  5
BD31
330
1A
100
AcDbEntity
  8
SEIHIN
100
AcDbLine
 10
110.0662521230442
 20
-232.8754904816414
 30
0.0
 11
110.0424928579441
 21
-232.3527866512415
 31
0.0
  0
LINE
  5
BD32
330
1A
100
AcDbEntity
  8
SEIHIN
100
AcDbLine
 10
110.0662521230442
 20
-232.8754904816414
 30
0.0
 11
112.0683171726441
 21
-232.8754904816414
 31
0.0
  0
LWPOLYLINE
  5
BD33
330
1A
100
AcDbEntity
  8
SEIHIN
100
AcDbPolyline
 90
        3
 70
   128
 43
0.0
 10
123.8567715427443
 20
-217.8754904816414
 10
123.8326896612443
 20
-216.6011176917414
 10
123.6016574856439
 20
-204.3754904816414
  0
LINE
  5
BD34
330
1A
100
AcDbEntity
  8
SEIHIN
100
AcDbLine
 10
109.6798884866439
 20
-224.3754904816414
 30
0.0
 11
110.479888486644
 21
-204.3754904816414
 31
0.0
  0
LINE
  5
BD35
330
1A
100
AcDbEntity
  8
SEIHIN
100
AcDbLine
 10
128.3677279341441
 20
-217.8754904816414
 30
0.0
 11
159.1397983713441
 21
-217.8754904816414
 31
0.0
  0
LINE
  5
BD36
330
1A
100
AcDbEntity
  8
SEIHIN
100
AcDbLine
 10
122.2697749562439
 20
-217.8754904816414
 30
0.0
 11
127.4014440844439
 21
-217.8754904816414
 31
0.0
  0
LINE
  5
BD37
330
1A
100
AcDbEntity
  8
SEIHIN
100
AcDbLine
 10
121.8324079450439
 20
-217.8754904816414
 30
0.0
 11
122.2697749562439
 21
-217.8754904816414
 31
0.0
  0
LWPOLYLINE
  5
BD38
330
1A
100
AcDbEntity
  8
SEIHIN
100
AcDbPolyline
 90
        3
 70
   128
 43
0.0
 10
121.8324079450439
 20
-217.8754904816414
 10
121.8263117198439
 20
-217.8755044024414
 10
121.6050757103439
 20
-217.9037903060414
  0
LINE
  5
BD39
330
1A
100
AcDbEntity
  8
SEIHIN
100
AcDbLine
 10
127.4014440844439
 20
-217.8754904816414
 30
0.0
 11
128.3677279341441
 21
-217.8754904816414
 31
0.0
  0
LINE
  5
BD3A
330
1A
100
AcDbEntity
  8
SEIHIN
100
AcDbLine
 10
123.6016574856439
 20
-204.3754904816414
 30
0.0
 11
125.046968201444
 21
-204.3754904816414
 31
0.0
  0
LINE
  5
BD3B
330
1A
100
AcDbEntity
  8
SEIHIN
100
AcDbLine
 10
119.6798884866439
 20
-204.3754904816414
 30
0.0
 11
121.579888486644
 21
-204.3754904816414
 31
0.0
  0
LINE
  5
BD3C
330
1A
100
AcDbEntity
  8
SEIHIN
100
AcDbLine
 10
121.579888486644
 20
-204.3754904816414
 30
0.0
 11
123.6016574856439
 21
-204.3754904816414
 31
0.0
  0
LINE
  5
BD3D
330
1A
100
AcDbEntity
  8
SEIHIN
100
AcDbLine
 10
110.479888486644
 20
-204.3754904816414
 30
0.0
 11
112.4814878471443
 21
-204.3754904816414
 31
0.0
  0
LINE
  5
BD3E
330
1A
100
AcDbEntity
  8
SEIHIN
100
AcDbLine
 10
112.4814878471443
 20
-204.3754904816414
 30
0.0
 11
119.6798884866439
 21
-204.3754904816414
 31
0.0
  0
LINE
  5
BD7C
330
1A
100
AcDbEntity
  8
SEIHIN
100
AcDbLine
 10
684.0726435182682
 20
-217.8754904816414
 30
0.0
 11
653.3005730810682
 21
-217.8754904816414
 31
0.0
  0
LINE
  5
BD7D
330
1A
100
AcDbEntity
  8
SEIHIN
100
AcDbLine
 10
625.2074526627684
 20
-229.3754904816414
 30
0.0
 11
685.5389273679679
 21
-229.3754904816414
 31
0.0
  0
LINE
  5
BD7E
330
1A
100
AcDbEntity
  8
SEIHIN
100
AcDbLine
 10
687.3934032509683
 20
-204.3754904816414
 30
0.0
 11
620.9368942664682
 21
-204.3754904816414
 31
0.0
  0
LINE
  5
BD7F
330
1A
100
AcDbEntity
  8
SEIHIN
100
AcDbLine
 10
700.3038724616681
 20
-234.3754904816414
 30
0.0
 11
569.8576441430682
 21
-234.3754904816414
 31
0.0
  0
LINE
  5
BD80
330
1A
100
AcDbEntity
  8
SEIHIN
100
AcDbLine
 10
625.2074526627684
 20
-230.8754904816414
 30
0.0
 11
690.7572960332681
 21
-230.8754904816414
 31
0.0
  0
LINE
  5
BD81
330
1A
100
AcDbEntity
  8
SEIHIN
100
AcDbLine
 10
625.3741193293681
 20
-232.8754904816414
 30
0.0
 11
700.3720542797682
 21
-232.8754904816414
 31
0.0
  0
LINE
  5
BDA3
330
1A
100
AcDbEntity
  8
SEIHIN
100
AcDbLine
 10
225.6708972556439
 20
-228.8754904816414
 30
0.0
 11
226.1708972556439
 21
-204.3754904816414
 31
0.0
  0
LINE
  5
BDA4
330
1A
100
AcDbEntity
  8
SEIHIN
100
AcDbLine
 10
199.0662521230442
 20
-232.8754904816414
 30
0.0
 11
198.0662521230442
 21
-220.8754904816414
 31
0.0
  0
LINE
  5
BDA5
330
1A
100
AcDbEntity
  8
SEIHIN
100
AcDbLine
 10
188.0662521230442
 20
-220.8754904816414
 30
0.0
 11
187.0662521230442
 21
-232.8754904816414
 31
0.0
  0
LINE
  5
BDA6
330
1A
100
AcDbEntity
  8
SEIHIN
100
AcDbLine
 10
205.0077047627441
 20
-230.3754904816414
 30
0.0
 11
205.0077047627441
 21
-222.8754904816414
 31
0.0
  0
LINE
  5
BDA7
330
1A
100
AcDbEntity
  8
SEIHIN
100
AcDbLine
 10
236.0833301769439
 20
-204.3754904816414
 30
0.0
 11
236.0833301769439
 21
-232.8754904816414
 31
0.0
  0
LINE
  5
BDA8
330
1A
100
AcDbEntity
  8
SEIHIN
100
AcDbLine
 10
245.9708972556441
 20
-224.3754904816414
 30
0.0
 11
245.5861179998442
 21
-232.8406341095415
 31
0.0
  0
LINE
  5
BDA9
330
1A
100
AcDbEntity
  8
SEIHIN
100
AcDbLine
 10
226.6706890741443
 20
-228.8754904816414
 30
0.0
 11
224.1708972556439
 21
-228.8754904816414
 31
0.0
  0
LINE
  5
BDAA
330
1A
100
AcDbEntity
  8
SEIHIN
100
AcDbLine
 10
242.5827273093441
 20
-232.8754904816414
 30
0.0
 11
199.0662521230442
 21
-232.8754904816414
 31
0.0
  0
ARC
  5
BDAB
330
1A
100
AcDbEntity
  8
SEIHIN
100
AcDbCircle
 10
221.4826191920437
 20
-230.4722051132414
 30
0.0
 40
0.4050329184418268
100
AcDbArc
 50
275.3243126551976
 51
357.7763875996018
  0
LINE
  5
BDAC
330
1A
100
AcDbEntity
  8
SEIHIN
100
AcDbLine
 10
221.893224062544
 20
-230.3754904816414
 30
0.0
 11
221.887347125244
 21
-230.4879202350415
 31
0.0
  0
LINE
  5
BDAD
330
1A
100
AcDbEntity
  8
SEIHIN
100
AcDbLine
 10
223.6708972556439
 20
-228.8754904816414
 30
0.0
 11
224.1708972556439
 21
-228.8754904816414
 31
0.0
  0
LINE
  5
BDAE
330
1A
100
AcDbEntity
  8
SEIHIN
100
AcDbLine
 10
224.1708972556439
 20
-228.8754904816414
 30
0.0
 11
224.1708972556439
 21
-230.8754904816414
 31
0.0
  0
LINE
  5
BDAF
330
1A
100
AcDbEntity
  8
SEIHIN
100
AcDbLine
 10
223.6708972556439
 20
-230.8754904816414
 30
0.0
 11
223.6708972556439
 21
-228.8754904816414
 31
0.0
  0
ARC
  5
BDB0
330
1A
100
AcDbEntity
  8
SEIHIN
100
AcDbCircle
 10
204.2193553982442
 20
-230.4967599248413
 30
0.0
 40
0.7976220898595316
100
AcDbArc
 50
331.6520723186969
 51
8.745092006697229
  0
LINE
  5
BDB1
330
1A
100
AcDbEntity
  8
SEIHIN
100
AcDbLine
 10
224.1708972556439
 20
-230.8754904816414
 30
0.0
 11
198.8995854563441
 21
-230.8754904816414
 31
0.0
  0
LINE
  5
BDB2
330
1A
100
AcDbEntity
  8
SEIHIN
100
AcDbLine
 10
245.5163518011441
 20
-234.3754904816414
 30
0.0
 11
245.5845336193442
 21
-232.8754904816414
 31
0.0
  0
LINE
  5
BDB3
330
1A
100
AcDbEntity
  8
SEIHIN
100
AcDbLine
 10
245.5163518011441
 20
-234.3754904816414
 30
0.0
 11
245.5142878165442
 21
-234.4208981426414
 31
0.0
  0
LINE
  5
BDB4
330
1A
100
AcDbEntity
  8
SEIHIN
100
AcDbLine
 10
242.5827273093441
 20
-234.3754904816414
 30
0.0
 11
245.5163518011441
 21
-234.3754904816414
 31
0.0
  0
LINE
  5
BDB5
330
1A
100
AcDbEntity
  8
SEIHIN
100
AcDbLine
 10
245.5861179998442
 20
-232.8406341095415
 30
0.0
 11
245.5845336193442
 21
-232.8754904816414
 31
0.0
  0
LINE
  5
BDB6
330
1A
100
AcDbEntity
  8
SEIHIN
100
AcDbLine
 10
243.5824685696989
 20
-232.8754904816414
 30
0.0
 11
242.5827273093441
 21
-232.8754904816414
 31
0.0
  0
LINE
  5
BDB7
330
1A
100
AcDbEntity
  8
SEIHIN
100
AcDbLine
 10
236.0833301769439
 20
-228.8754904816414
 30
0.0
 11
226.6706890741443
 21
-228.8754904816414
 31
0.0
  0
LINE
  5
BDB8
330
1A
100
AcDbEntity
  8
SEIHIN
100
AcDbLine
 10
203.1401374488441
 20
-204.3754904816414
 30
0.0
 11
226.1708972556439
 21
-204.3754904816414
 31
0.0
  0
LWPOLYLINE
  5
BDB9
330
1A
100
AcDbEntity
  8
SEIHIN
100
AcDbPolyline
 90
        3
 70
   128
 43
0.0
 10
192.8689153464438
 20
-204.3754904816414
 10
192.6897490700439
 20
-216.6111715234415
 10
192.627310503944
 20
-220.8754904816414
  0
LWPOLYLINE
  5
BDBA
330
1A
100
AcDbEntity
  8
SEIHIN
100
AcDbPolyline
 90
        3
 70
   128
 43
0.0
 10
202.4075151235438
 20
-222.8754904816414
 10
202.4966017318438
 20
-216.6205283936414
 10
202.670969878844
 20
-204.3754904816414
  0
LINE
  5
BDBB
330
1A
100
AcDbEntity
  8
SEIHIN
100
AcDbLine
 10
197.5893612410441
 20
-204.3754904816414
 30
0.0
 11
197.350500928444
 21
-220.8754904816414
 31
0.0
  0
LINE
  5
BDBC
330
1A
100
AcDbEntity
  8
SEIHIN
100
AcDbLine
 10
188.0662521230442
 20
-220.8754904816414
 30
0.0
 11
198.0662521230442
 21
-220.8754904816414
 31
0.0
  0
LINE
  5
BDBD
330
1A
100
AcDbEntity
  8
SEIHIN
100
AcDbLine
 10
163.1708972556443
 20
-222.8754904816414
 30
0.0
 11
187.899585456344
 21
-222.8754904816414
 31
0.0
  0
LINE
  5
BDBE
330
1A
100
AcDbEntity
  8
SEIHIN
100
AcDbLine
 10
163.1708972556443
 20
-222.8754904816414
 30
0.0
 11
161.925228444044
 21
-219.7613184526415
 31
0.0
  0
ARC
  5
BDBF
330
1A
100
AcDbEntity
  8
SEIHIN
100
AcDbCircle
 10
221.458965300344
 20
-224.6228677984414
 30
0.0
 40
1.751057993957521
100
AcDbArc
 50
26.58773452900337
 51
93.71558611859835
  0
LWPOLYLINE
  5
BDC0
330
1A
100
AcDbEntity
  8
SEIHIN
100
AcDbPolyline
 90
        3
 70
   128
 43
0.0
 10
223.0248490330441
 20
-223.8391508635416
 10
223.1630146243442
 20
-224.3949800263414
 10
223.2839075170441
 20
-225.2009119615414
  0
LINE
  5
BDC1
330
1A
100
AcDbEntity
  8
SEIHIN
100
AcDbLine
 10
220.7022697932443
 20
-222.8754904816414
 30
0.0
 11
221.3454901444438
 21
-222.8754904816414
 31
0.0
  0
LWPOLYLINE
  5
BDC2
330
1A
100
AcDbEntity
  8
SEIHIN
100
AcDbPolyline
 90
        5
 70
   128
 43
0.0
 10
221.5497897138439
 20
-225.2009119615414
 10
221.4406208184441
 20
-224.2867176801414
 10
221.2540853439441
 20
-223.5534146342415
 10
221.0052700872438
 20
-223.0619865462415
 10
220.7022697932443
 20
-222.8754904816414
  0
LINE
  5
BDC3
330
1A
100
AcDbEntity
  8
SEIHIN
100
AcDbLine
 10
198.2329187896439
 20
-222.8754904816414
 30
0.0
 11
205.0077047627441
 21
-222.8754904816414
 31
0.0
  0
LINE
  5
BDC4
330
1A
100
AcDbEntity
  8
SEIHIN
100
AcDbLine
 10
205.0077047627441
 20
-222.8754904816414
 30
0.0
 11
205.3936552322438
 21
-222.8754904816414
 31
0.0
  0
LINE
  5
BDC5
330
1A
100
AcDbEntity
  8
SEIHIN
100
AcDbLine
 10
205.3936552322438
 20
-222.8754904816414
 30
0.0
 11
220.7022697932443
 21
-222.8754904816414
 31
0.0
  0
LINE
  5
BDC6
330
1A
100
AcDbEntity
  8
SEIHIN
100
AcDbLine
 10
191.5034771859441
 20
-204.3754904816414
 30
0.0
 11
192.8689153464438
 21
-204.3754904816414
 31
0.0
  0
LINE
  5
BDC7
330
1A
100
AcDbEntity
  8
SEIHIN
100
AcDbLine
 10
202.670969878844
 20
-204.3754904816414
 30
0.0
 11
203.1401374488441
 21
-204.3754904816414
 31
0.0
  0
LINE
  5
BDC8
330
1A
100
AcDbEntity
  8
SEIHIN
100
AcDbLine
 10
197.5893612410441
 20
-204.3754904816414
 30
0.0
 11
202.670969878844
 21
-204.3754904816414
 31
0.0
  0
LINE
  5
BDC9
330
1A
100
AcDbEntity
  8
SEIHIN
100
AcDbLine
 10
196.1739596012439
 20
-204.3754904816414
 30
0.0
 11
197.5893612410441
 21
-204.3754904816414
 31
0.0
  0
LINE
  5
BDCA
330
1A
100
AcDbEntity
  8
SEIHIN
100
AcDbLine
 10
192.8689153464438
 20
-204.3754904816414
 30
0.0
 11
196.1739596012439
 21
-204.3754904816414
 31
0.0
  0
LINE
  5
BDCB
330
1A
100
AcDbEntity
  8
SEIHIN
100
AcDbLine
 10
245.1708972556439
 20
-204.3754904816414
 30
0.0
 11
245.9708972556441
 21
-224.3754904816414
 31
0.0
  0
LINE
  5
BDCC
330
1A
100
AcDbEntity
  8
SEIHIN
100
AcDbLine
 10
237.675421668744
 20
-204.3754904816414
 30
0.0
 11
241.556635452544
 21
-204.3754904816414
 31
0.0
  0
LINE
  5
BDCD
330
1A
100
AcDbEntity
  8
SEIHIN
100
AcDbLine
 10
241.556635452544
 20
-204.3754904816414
 30
0.0
 11
245.1708972556439
 21
-204.3754904816414
 31
0.0
  0
LINE
  5
BDCE
330
1A
100
AcDbEntity
  8
SEIHIN
100
AcDbLine
 10
236.0833301769439
 20
-204.3754904816414
 30
0.0
 11
237.675421668744
 21
-204.3754904816414
 31
0.0
  0
LINE
  5
BDCF
330
1A
100
AcDbEntity
  8
SEIHIN
100
AcDbLine
 10
226.1708972556439
 20
-204.3754904816414
 30
0.0
 11
227.1706890741443
 21
-204.3754904816414
 31
0.0
  0
LINE
  5
BDD0
330
1A
100
AcDbEntity
  8
SEIHIN
100
AcDbLine
 10
227.1706890741443
 20
-204.3754904816414
 30
0.0
 11
236.0833301769439
 21
-204.3754904816414
 31
0.0
  0
LINE
  5
BDD1
330
1A
100
AcDbEntity
  8
CENTER_L0
  6
CENTER
 48
10.0
100
AcDbLine
 10
654.3215866352284
 20
-241.5440667997863
 30
0.0
 11
654.3215866352284
 21
-197.6614811301215
 31
0.0
  0
LINE
  5
BDD2
330
1A
100
AcDbEntity
  8
SEIHIN
100
AcDbLine
 10
566.4694741967682
 20
-224.3754904816414
 30
0.0
 11
566.8542534525681
 21
-232.8406341095415
 31
0.0
  0
LINE
  5
BDD3
330
1A
100
AcDbEntity
  8
SEIHIN
100
AcDbLine
 10
607.4326666896681
 20
-230.3754904816414
 30
0.0
 11
607.4326666896681
 21
-222.8754904816414
 31
0.0
  0
LINE
  5
BDD4
330
1A
100
AcDbEntity
  8
SEIHIN
100
AcDbLine
 10
624.3741193293681
 20
-220.8754904816414
 30
0.0
 11
625.3741193293681
 21
-232.8754904816414
 31
0.0
  0
LINE
  5
BDD5
330
1A
100
AcDbEntity
  8
SEIHIN
100
AcDbLine
 10
613.3741193293681
 20
-232.8754904816414
 30
0.0
 11
614.374119329368
 21
-220.8754904816414
 31
0.0
  0
LINE
  5
BDD6
330
1A
100
AcDbEntity
  8
SEIHIN
100
AcDbLine
 10
576.3570412754684
 20
-204.3754904816414
 30
0.0
 11
576.3570412754684
 21
-232.8754904816414
 31
0.0
  0
LINE
  5
BDD7
330
1A
100
AcDbEntity
  8
SEIHIN
100
AcDbLine
 10
586.7694741967684
 20
-228.8754904816414
 30
0.0
 11
586.2694741967684
 21
-204.3754904816414
 31
0.0
  0
LINE
  5
BDD8
330
1A
100
AcDbEntity
  8
SEIHIN
100
AcDbLine
 10
588.2694741967684
 20
-230.8754904816414
 30
0.0
 11
613.5407859960682
 21
-230.8754904816414
 31
0.0
  0
LINE
  5
BDD9
330
1A
100
AcDbEntity
  8
SEIHIN
100
AcDbLine
 10
569.8576441430682
 20
-232.8754904816414
 30
0.0
 11
613.3741193293681
 21
-232.8754904816414
 31
0.0
  0
LINE
  5
BDDA
330
1A
100
AcDbEntity
  8
SEIHIN
100
AcDbLine
 10
568.8579028827134
 20
-232.8754904816414
 30
0.0
 11
569.8576441430682
 21
-232.8754904816414
 31
0.0
  0
LINE
  5
BDDB
330
1A
100
AcDbEntity
  8
SEIHIN
100
AcDbLine
 10
566.8542534525681
 20
-232.8406341095415
 30
0.0
 11
566.8558378330681
 21
-232.8754904816414
 31
0.0
  0
LINE
  5
BDDC
330
1A
100
AcDbEntity
  8
SEIHIN
100
AcDbLine
 10
569.8576441430682
 20
-234.3754904816414
 30
0.0
 11
566.9240196512682
 21
-234.3754904816414
 31
0.0
  0
LINE
  5
BDDD
330
1A
100
AcDbEntity
  8
SEIHIN
100
AcDbLine
 10
566.9240196512682
 20
-234.3754904816414
 30
0.0
 11
566.926083635868
 21
-234.4208981426414
 31
0.0
  0
LINE
  5
BDDE
330
1A
100
AcDbEntity
  8
SEIHIN
100
AcDbLine
 10
566.9240196512682
 20
-234.3754904816414
 30
0.0
 11
566.8558378330681
 21
-232.8754904816414
 31
0.0
  0
LINE
  5
BDDF
330
1A
100
AcDbEntity
  8
SEIHIN
100
AcDbLine
 10
588.7694741967684
 20
-230.8754904816414
 30
0.0
 11
588.7694741967684
 21
-228.8754904816414
 31
0.0
  0
LINE
  5
BDE0
330
1A
100
AcDbEntity
  8
SEIHIN
100
AcDbLine
 10
588.2694741967684
 20
-228.8754904816414
 30
0.0
 11
588.2694741967684
 21
-230.8754904816414
 31
0.0
  0
LINE
  5
BDE1
330
1A
100
AcDbEntity
  8
SEIHIN
100
AcDbLine
 10
588.7694741967684
 20
-228.8754904816414
 30
0.0
 11
588.2694741967684
 21
-228.8754904816414
 31
0.0
  0
LINE
  5
BDE2
330
1A
100
AcDbEntity
  8
SEIHIN
100
AcDbLine
 10
585.769682378268
 20
-228.8754904816414
 30
0.0
 11
588.2694741967684
 21
-228.8754904816414
 31
0.0
  0
LINE
  5
BDE3
330
1A
100
AcDbEntity
  8
SEIHIN
100
AcDbLine
 10
590.5471473898683
 20
-230.3754904816414
 30
0.0
 11
590.5530243271682
 21
-230.4879202350415
 31
0.0
  0
ARC
  5
BDE4
330
1A
100
AcDbEntity
  8
SEIHIN
100
AcDbCircle
 10
590.9577522603686
 20
-230.4722051132414
 30
0.0
 40
0.4050329184418268
100
AcDbArc
 50
182.223612400398
 51
264.6756873448024
  0
LINE
  5
BDE5
330
1A
100
AcDbEntity
  8
SEIHIN
100
AcDbLine
 10
576.3570412754684
 20
-228.8754904816414
 30
0.0
 11
585.769682378268
 21
-228.8754904816414
 31
0.0
  0
ARC
  5
BDE6
330
1A
100
AcDbEntity
  8
SEIHIN
100
AcDbCircle
 10
608.2210160541681
 20
-230.4967599248413
 30
0.0
 40
0.7976220898595316
100
AcDbArc
 50
171.2549079933027
 51
208.3479276813029
  0
LINE
  5
BDE7
330
1A
100
AcDbEntity
  8
SEIHIN
100
AcDbLine
 10
609.3002340035682
 20
-204.3754904816414
 30
0.0
 11
586.2694741967684
 21
-204.3754904816414
 31
0.0
  0
LINE
  5
BDE8
330
1A
100
AcDbEntity
  8
SEIHIN
100
AcDbLine
 10
607.0467162201684
 20
-222.8754904816414
 30
0.0
 11
591.738101659168
 21
-222.8754904816414
 31
0.0
  0
LINE
  5
BDE9
330
1A
100
AcDbEntity
  8
SEIHIN
100
AcDbLine
 10
567.2694741967684
 20
-204.3754904816414
 30
0.0
 11
566.4694741967682
 21
-224.3754904816414
 31
0.0
  0
LWPOLYLINE
  5
BDEA
330
1A
100
AcDbEntity
  8
SEIHIN
100
AcDbPolyline
 90
        5
 70
   128
 43
0.0
 10
590.8905817385685
 20
-225.2009119615414
 10
590.9997506339682
 20
-224.2867176801414
 10
591.1862861084682
 20
-223.5534146342415
 10
591.4351013651685
 20
-223.0619865462415
 10
591.738101659168
 20
-222.8754904816414
  0
LINE
  5
BDEB
330
1A
100
AcDbEntity
  8
SEIHIN
100
AcDbLine
 10
591.738101659168
 20
-222.8754904816414
 30
0.0
 11
591.0948813079685
 21
-222.8754904816414
 31
0.0
  0
LWPOLYLINE
  5
BDEC
330
1A
100
AcDbEntity
  8
SEIHIN
100
AcDbPolyline
 90
        3
 70
   128
 43
0.0
 10
589.4155224193682
 20
-223.8391508635416
 10
589.2773568280681
 20
-224.3949800263414
 10
589.1564639353682
 20
-225.2009119615414
  0
ARC
  5
BDED
330
1A
100
AcDbEntity
  8
SEIHIN
100
AcDbCircle
 10
590.9814061520683
 20
-224.6228677984414
 30
0.0
 40
1.751057993957521
100
AcDbArc
 50
86.28441388140165
 51
153.4122654709966
  0
LINE
  5
BDEE
330
1A
100
AcDbEntity
  8
SEIHIN
100
AcDbLine
 10
574.7649497836682
 20
-204.3754904816414
 30
0.0
 11
570.8837359998683
 21
-204.3754904816414
 31
0.0
  0
LINE
  5
BDEF
330
1A
100
AcDbEntity
  8
SEIHIN
100
AcDbLine
 10
570.8837359998683
 20
-204.3754904816414
 30
0.0
 11
567.2694741967684
 21
-204.3754904816414
 31
0.0
  0
LINE
  5
BDF0
330
1A
100
AcDbEntity
  8
SEIHIN
100
AcDbLine
 10
576.3570412754684
 20
-204.3754904816414
 30
0.0
 11
574.7649497836682
 21
-204.3754904816414
 31
0.0
  0
LINE
  5
BDF1
330
1A
100
AcDbEntity
  8
SEIHIN
100
AcDbLine
 10
586.2694741967684
 20
-204.3754904816414
 30
0.0
 11
585.269682378268
 21
-204.3754904816414
 31
0.0
  0
LINE
  5
BDF2
330
1A
100
AcDbEntity
  8
SEIHIN
100
AcDbLine
 10
585.269682378268
 20
-204.3754904816414
 30
0.0
 11
576.3570412754684
 21
-204.3754904816414
 31
0.0
  0
LINE
  5
BDF3
330
1A
100
AcDbEntity
  8
SEIHIN
100
AcDbLine
 10
614.8510102113682
 20
-204.3754904816414
 30
0.0
 11
615.0898705239683
 21
-220.8754904816414
 31
0.0
  0
LWPOLYLINE
  5
BDF4
330
1A
100
AcDbEntity
  8
SEIHIN
100
AcDbPolyline
 90
        3
 70
   128
 43
0.0
 10
610.0328563288685
 20
-222.8754904816414
 10
609.9437697205685
 20
-216.6205283936414
 10
609.7694015735683
 20
-204.3754904816414
  0
LWPOLYLINE
  5
BDF5
330
1A
100
AcDbEntity
  8
SEIHIN
100
AcDbPolyline
 90
        3
 70
   128
 43
0.0
 10
619.5714561059685
 20
-204.3754904816414
 10
619.7506223823684
 20
-216.6111715234415
 10
619.8130609484683
 20
-220.8754904816414
  0
LINE
  5
BDF6
330
1A
100
AcDbEntity
  8
SEIHIN
100
AcDbLine
 10
649.269474196768
 20
-222.8754904816414
 30
0.0
 11
624.5407859960683
 21
-222.8754904816414
 31
0.0
  0
LINE
  5
BDF7
330
1A
100
AcDbEntity
  8
SEIHIN
100
AcDbLine
 10
607.4326666896681
 20
-222.8754904816414
 30
0.0
 11
607.0467162201684
 21
-222.8754904816414
 31
0.0
  0
LINE
  5
BDF8
330
1A
100
AcDbEntity
  8
SEIHIN
100
AcDbLine
 10
624.3741193293681
 20
-220.8754904816414
 30
0.0
 11
614.374119329368
 21
-220.8754904816414
 31
0.0
  0
LINE
  5
BDF9
330
1A
100
AcDbEntity
  8
SEIHIN
100
AcDbLine
 10
614.2074526627684
 20
-222.8754904816414
 30
0.0
 11
607.4326666896681
 21
-222.8754904816414
 31
0.0
  0
ARC
  5
BDFA
330
1A
100
AcDbEntity
  8
SEIHIN
100
AcDbCircle
 10
653.3005730810682
 20
-220.8754904816414
 30
0.0
 40
2.999999999999943
100
AcDbArc
 50
90.0
 51
158.1985905136022
  0
LINE
  5
BDFB
330
1A
100
AcDbEntity
  8
SEIHIN
100
AcDbLine
 10
649.269474196768
 20
-222.8754904816414
 30
0.0
 11
650.5151430083683
 21
-219.7613184526415
 31
0.0
  0
LINE
  5
BDFC
330
1A
100
AcDbEntity
  8
SEIHIN
100
AcDbLine
 10
619.5714561059685
 20
-204.3754904816414
 30
0.0
 11
616.2664118511684
 21
-204.3754904816414
 31
0.0
  0
LINE
  5
BDFD
330
1A
100
AcDbEntity
  8
SEIHIN
100
AcDbLine
 10
616.2664118511684
 20
-204.3754904816414
 30
0.0
 11
614.8510102113682
 21
-204.3754904816414
 31
0.0
  0
LINE
  5
BDFE
330
1A
100
AcDbEntity
  8
SEIHIN
100
AcDbLine
 10
620.9368942664682
 20
-204.3754904816414
 30
0.0
 11
619.5714561059685
 21
-204.3754904816414
 31
0.0
  0
LINE
  5
BDFF
330
1A
100
AcDbEntity
  8
SEIHIN
100
AcDbLine
 10
614.8510102113682
 20
-204.3754904816414
 30
0.0
 11
609.7694015735683
 21
-204.3754904816414
 31
0.0
  0
LINE
  5
BE00
330
1A
100
AcDbEntity
  8
SEIHIN
100
AcDbLine
 10
609.7694015735683
 20
-204.3754904816414
 30
0.0
 11
609.3002340035682
 21
-204.3754904816414
 31
0.0
  0
LINE
  5
BE14
330
1A
100
AcDbEntity
  8
SEIHIN
100
AcDbLine
 10
685.0389273679684
 20
-229.3754904816414
 30
0.0
 11
685.0389273679684
 21
-217.8754904816414
 31
0.0
  0
LINE
  5
BE15
330
1A
100
AcDbEntity
  8
SEIHIN
100
AcDbLine
 10
702.3978785944682
 20
-232.3527866512415
 30
0.0
 11
702.7604829657684
 21
-224.3754904816414
 31
0.0
  0
LINE
  5
BE16
330
1A
100
AcDbEntity
  8
SEIHIN
100
AcDbLine
 10
690.8604829657683
 20
-204.3754904816414
 30
0.0
 11
690.8604829657683
 21
-230.8754904816414
 31
0.0
  0
LINE
  5
BE17
330
1A
100
AcDbEntity
  8
SEIHIN
100
AcDbLine
 10
702.374119329368
 20
-232.8754904816414
 30
0.0
 11
700.3720542797682
 21
-232.8754904816414
 31
0.0
  0
LINE
  5
BE18
330
1A
100
AcDbEntity
  8
SEIHIN
100
AcDbLine
 10
700.3038724616681
 20
-234.3754904816414
 30
0.0
 11
702.3038735266681
 21
-234.4208981426414
 31
0.0
  0
LINE
  5
BE19
330
1A
100
AcDbEntity
  8
SEIHIN
100
AcDbLine
 10
685.5389273679683
 20
-230.8754904816414
 30
0.0
 11
685.5389273679683
 21
-229.3754904816414
 31
0.0
  0
LINE
  5
BE1A
330
1A
100
AcDbEntity
  8
SEIHIN
100
AcDbLine
 10
690.7572960332681
 20
-232.3754904816414
 30
0.0
 11
690.7572960332681
 21
-232.8754904816414
 31
0.0
  0
LINE
  5
BE1B
330
1A
100
AcDbEntity
  8
SEIHIN
100
AcDbLine
 10
690.7572960332681
 20
-230.8754904816414
 30
0.0
 11
690.7572960332681
 21
-232.3754904816414
 31
0.0
  0
LINE
  5
BE1C
330
1A
100
AcDbEntity
  8
SEIHIN
100
AcDbLine
 10
702.374119329368
 20
-232.8754904816414
 30
0.0
 11
702.3978785944682
 21
-232.3527866512415
 31
0.0
  0
LINE
  5
BE1D
330
1A
100
AcDbEntity
  8
SEIHIN
100
AcDbLine
 10
702.3038735266681
 20
-234.4208981426414
 30
0.0
 11
702.374119329368
 21
-232.8754904816414
 31
0.0
  0
LINE
  5
BE1E
330
1A
100
AcDbEntity
  8
SEIHIN
100
AcDbLine
 10
702.7604829657684
 20
-224.3754904816414
 30
0.0
 11
701.9604829657683
 21
-204.3754904816414
 31
0.0
  0
LWPOLYLINE
  5
BE1F
330
1A
100
AcDbEntity
  8
SEIHIN
100
AcDbPolyline
 90
        3
 70
   128
 43
0.0
 10
688.583599909668
 20
-217.8754904816414
 10
688.607681791168
 20
-216.6011176917414
 10
688.8387139667684
 20
-204.3754904816414
  0
LINE
  5
BE20
330
1A
100
AcDbEntity
  8
SEIHIN
100
AcDbLine
 10
685.0389273679684
 20
-217.8754904816414
 30
0.0
 11
684.0726435182682
 21
-217.8754904816414
 31
0.0
  0
LWPOLYLINE
  5
BE21
330
1A
100
AcDbEntity
  8
SEIHIN
100
AcDbPolyline
 90
        3
 70
   128
 43
0.0
 10
690.6079635073683
 20
-217.8754904816414
 10
690.6140597325684
 20
-217.8755044024414
 10
690.8352957420683
 20
-217.9037903060414
  0
LINE
  5
BE22
330
1A
100
AcDbEntity
  8
SEIHIN
100
AcDbLine
 10
690.6079635073683
 20
-217.8754904816414
 30
0.0
 11
690.1705964961684
 21
-217.8754904816414
 31
0.0
  0
LINE
  5
BE23
330
1A
100
AcDbEntity
  8
SEIHIN
100
AcDbLine
 10
690.1705964961684
 20
-217.8754904816414
 30
0.0
 11
685.0389273679684
 21
-217.8754904816414
 31
0.0
  0
LINE
  5
BE24
330
1A
100
AcDbEntity
  8
SEIHIN
100
AcDbLine
 10
701.9604829657683
 20
-204.3754904816414
 30
0.0
 11
699.958883605268
 21
-204.3754904816414
 31
0.0
  0
LINE
  5
BE25
330
1A
100
AcDbEntity
  8
SEIHIN
100
AcDbLine
 10
690.8604829657683
 20
-204.3754904816414
 30
0.0
 11
688.8387139667684
 21
-204.3754904816414
 31
0.0
  0
LINE
  5
BE26
330
1A
100
AcDbEntity
  8
SEIHIN
100
AcDbLine
 10
692.7604829657684
 20
-204.3754904816414
 30
0.0
 11
690.8604829657683
 21
-204.3754904816414
 31
0.0
  0
LINE
  5
BE27
330
1A
100
AcDbEntity
  8
SEIHIN
100
AcDbLine
 10
688.8387139667684
 20
-204.3754904816414
 30
0.0
 11
687.3934032509683
 21
-204.3754904816414
 31
0.0
  0
LINE
  5
BE28
330
1A
100
AcDbEntity
  8
SEIHIN
100
AcDbLine
 10
699.958883605268
 20
-204.3754904816414
 30
0.0
 11
692.7604829657684
 21
-204.3754904816414
 31
0.0
  0
VIEWPORT
  5
22
330
17
100
AcDbEntity
 67
     1
  8
0
100
AcDbViewport
 10
313.6808219178082
 20
148.5
 30
0.0
 40
627.3616438356165
 41
297.0
 68
     2
 69
     1
1001
ACAD
1000
MVIEW
1002
{
1070
    16
1010
0.0
1020
0.0
1030
0.0
1010
0.0
1020
0.0
1030
1.0
1040
0.0
1040
297.0
1040
313.6808219178082
1040
148.5
1040
50.0
1040
0.0
1040
0.0
1070
     0
1070
   100
1070
     1
1070
     0
1070
     0
1070
     0
1070
     0
1070
     0
1040
0.0
1040
0.0
1040
0.0
1040
1.0
1040
1.0
1040
10.0
1040
10.0
1070
     0
1002
{
1002
}
1002
}
  0
VIEWPORT
  5
64
330
17
100
AcDbEntity
 67
     1
  8
VIEWPORT
100
AcDbViewport
 10
210.0
 20
148.5
 30
0.0
 40
420.0
 41
297.0
 68
     1
 69
     2
1001
ACAD
1000
MVIEW
1002
{
1070
    16
1010
0.0
1020
0.0
1030
0.0
1010
0.0
1020
0.0
1030
1.0
1040
0.0
1040
605.8799999999997
1040
420.0
1040
297.0
1040
50.0
1040
0.0
1040
0.0
1070
     0
1070
   100
1070
     1
1070
     0
1070
     0
1070
     0
1070
     0
1070
     0
1040
0.0
1040
0.0
1040
0.0
1040
10.0
1040
10.0
1040
0.0
1040
0.0
1070
     0
1002
{
1002
}
1002
}
  0
ENDSEC
  0
SECTION
  2
OBJECTS
  0
DICTIONARY
  5
C
330
0
100
AcDbDictionary
  3
ACAD_GROUP
350
D
  3
ACAD_LAYOUT
350
8CD
  3
ACAD_MLINESTYLE
350
E
  3
ACAD_PLOTSETTINGS
350
8CE
  3
ACAD_PLOTSTYLENAME
350
8CB
  3
ACDBHEADERROUNDTRIPXREC
350
BF2D
  0
DICTIONARY
  5
BB23
330
2
100
AcDbDictionary
280
     1
  3
ACAD_LAYERFILTERS
360
BB24
  0
DICTIONARY
  5
9DE
330
1A
100
AcDbDictionary
280
     1
  3
ACAD_LAYOUTSELFREF
360
BF4F
  0
DICTIONARY
  5
9DC
330
17
100
AcDbDictionary
280
     1
  3
ACAD_LAYOUTSELFREF
360
BF4E
  0
DICTIONARY
  5
D
102
{ACAD_REACTORS
330
C
102
}
330
C
100
AcDbDictionary
  3
*A1
350
2642
  3
*A2
350
4DE4
  3
*A3
350
4F66
  3
*A4
350
4FB3
  3
*A5
350
5690
  3
*A6
350
5CC5
  0
DICTIONARY
  5
8CD
102
{ACAD_REACTORS
330
C
102
}
330
C
100
AcDbDictionary
  0
DICTIONARY
  5
E
102
{ACAD_REACTORS
330
C
102
}
330
C
100
AcDbDictionary
  3
STANDARD
350
13
  0
DICTIONARY
  5
8CE
102
{ACAD_REACTORS
330
C
102
}
330
C
100
AcDbDictionary
  0
ACDBDICTIONARYWDFLT
  5
8CB
102
{ACAD_REACTORS
330
C
102
}
330
C
100
AcDbDictionary
281
     1
  3
Normal
350
8CC
100
AcDbDictionaryWithDefault
340
8CC
1001
ACAD
1000
TREAT_AS_HARD
1070
     0
1000
TREAT_AS_HARD
1070
     0
1000
TREAT_AS_HARD
1070
     0
1000
TREAT_AS_HARD
1070
     0
1000
TREAT_AS_HARD
1070
     0
1000
TREAT_AS_HARD
1070
     0
1000
TREAT_AS_HARD
1070
     0
1000
TREAT_AS_HARD
1070
     0
1000
TREAT_AS_HARD
1070
     0
1000
TREAT_AS_HARD
1070
     0
1000
TREAT_AS_HARD
1070
     0
1000
TREAT_AS_HARD
1070
     0
  0
DICTIONARY
  5
BF2D
102
{ACAD_REACTORS
330
C
102
}
330
C
100
AcDbDictionary
  3
TSTACKALIGN
350
BF2E
  3
TSTACKSIZE
350
BF2F
  3
HYPERLINKBASE
350
BF30
  3
STYLESHEET
350
BF31
  3
LAYOUTDICT
350
BF32
  3
PLOTSETDICT
350
BF33
  3
PLOTSTYLNAMDICT
350
BF34
  3
LWETCUNION
350
BF35
  3
INSUNITS
350
BF36
  3
CEPSNTYPE
350
BF37
  3
FINGERPRINTGUID
350
BF38
  3
VERSIONGUID
350
BF39
  3
PSVPSCALE
350
BF3A
  3
DIMSTYLEDATA
350
BF3B
  3
PUCSORTHOREF
350
BF3C
  3
PUCSORTHOVIEW
350
BF3D
  3
PUCSBASE
350
BF3E
  3
PUCSORGTOP
350
BF3F
  3
PUCSORGBOTTOM
350
BF40
  3
PUCSORGLEFT
350
BF41
  3
PUCSORGRIGHT
350
BF42
  3
PUCSORGFRONT
350
BF43
  3
PUCSORGBACK
350
BF44
  3
UCSORTHOREF
350
BF45
  3
UCSORTHOVIEW
350
BF46
  3
UCSBASE
350
BF47
  3
UCSORGTOP
350
BF48
  3
UCSORGBOTTOM
350
BF49
  3
UCSORGLEFT
350
BF4A
  3
UCSORGRIGHT
350
BF4B
  3
UCSORGFRONT
350
BF4C
  3
UCSORGBACK
350
BF4D
  0
DICTIONARY
  5
BB24
102
{ACAD_REACTORS
330
BB23
102
}
330
BB23
100
AcDbDictionary
280
     1
  3
50
360
BB25
  0
XRECORD
  5
BF4F
102
{ACAD_REACTORS
330
9DE
102
}
330
9DE
100
AcDbXrecord
340
1A
  0
XRECORD
  5
BF4E
102
{ACAD_REACTORS
330
9DC
102
}
330
9DC
100
AcDbXrecord
340
17
  0
GROUP
  5
2642
102
{ACAD_REACTORS
330
D
102
}
330
D
100
AcDbGroup
300

 70
     1
 71
     1
  0
GROUP
  5
4DE4
102
{ACAD_REACTORS
330
D
102
}
330
D
100
AcDbGroup
300

 70
     1
 71
     1
  0
GROUP
  5
4F66
102
{ACAD_REACTORS
330
D
102
}
330
D
100
AcDbGroup
300

 70
     1
 71
     1
  0
GROUP
  5
4FB3
102
{ACAD_REACTORS
330
D
102
}
330
D
100
AcDbGroup
300

 70
     1
 71
     1
  0
GROUP
  5
5690
102
{ACAD_REACTORS
330
D
102
}
330
D
100
AcDbGroup
300

 70
     1
 71
     1
  0
GROUP
  5
5CC5
102
{ACAD_REACTORS
330
D
102
}
330
D
100
AcDbGroup
300

 70
     1
 71
     1
  0
MLINESTYLE
  5
13
102
{ACAD_REACTORS
330
E
102
}
330
E
100
AcDbMlineStyle
  2
STANDARD
 70
     0
  3

 62
     0
 51
90.0
 52
90.0
 71
     2
 49
0.5
 62
   256
  6
BYLAYER
 49
-0.5
 62
   256
  6
BYLAYER
  0
ACDBPLACEHOLDER
  5
8CC
102
{ACAD_REACTORS
330
8CB
102
}
330
8CB
100
AcDbPlaceHolder
280
     0
  0
XRECORD
  5
BF2E
102
{ACAD_REACTORS
330
BF2D
102
}
330
BF2D
100
AcDbXrecord
 90
        1
  0
XRECORD
  5
BF2F
102
{ACAD_REACTORS
330
BF2D
102
}
330
BF2D
100
AcDbXrecord
 90
       70
  0
XRECORD
  5
BF30
102
{ACAD_REACTORS
330
BF2D
102
}
330
BF2D
100
AcDbXrecord
  1

  0
XRECORD
  5
BF31
102
{ACAD_REACTORS
330
BF2D
102
}
330
BF2D
100
AcDbXrecord
  1
systemprinter.ctb
  0
XRECORD
  5
BF32
102
{ACAD_REACTORS
330
BF2D
102
}
330
BF2D
100
AcDbXrecord
340
8CD
  0
XRECORD
  5
BF33
102
{ACAD_REACTORS
330
BF2D
102
}
330
BF2D
100
AcDbXrecord
340
8CE
  0
XRECORD
  5
BF34
102
{ACAD_REACTORS
330
BF2D
102
}
330
BF2D
100
AcDbXrecord
340
8CB
  0
XRECORD
  5
BF35
102
{ACAD_REACTORS
330
BF2D
102
}
330
BF2D
100
AcDbXrecord
 90
    10781
  0
XRECORD
  5
BF36
102
{ACAD_REACTORS
330
BF2D
102
}
330
BF2D
100
AcDbXrecord
 90
        0
  0
XRECORD
  5
BF37
102
{ACAD_REACTORS
330
BF2D
102
}
330
BF2D
100
AcDbXrecord
 90
        0
  0
XRECORD
  5
BF38
102
{ACAD_REACTORS
330
BF2D
102
}
330
BF2D
100
AcDbXrecord
  1
{B4B71FC0-A839-11D5-932D-0050DA99388B}
  0
XRECORD
  5
BF39
102
{ACAD_REACTORS
330
BF2D
102
}
330
BF2D
100
AcDbXrecord
  1
{172B8378-D8F7-4590-B7D8-1A8B51A4DDA9}
  0
XRECORD
  5
BF3A
102
{ACAD_REACTORS
330
BF2D
102
}
330
BF2D
100
AcDbXrecord
 40
0.0
  0
XRECORD
  5
BF3B
102
{ACAD_REACTORS
330
BF2D
102
}
330
BF2D
100
AcDbXrecord
1000
DSTYLE
1002
{
1070
   341
340
6D
1070
   343
340
6D
1070
   344
340
6D
1070
   371
 70
    -1
1070
   372
 70
    -1
1002
}
  0
XRECORD
  5
BF3C
102
{ACAD_REACTORS
330
BF2D
102
}
330
BF2D
100
AcDbXrecord
340
0
  0
XRECORD
  5
BF3D
102
{ACAD_REACTORS
330
BF2D
102
}
330
BF2D
100
AcDbXrecord
 70
     0
  0
XRECORD
  5
BF3E
102
{ACAD_REACTORS
330
BF2D
102
}
330
BF2D
100
AcDbXrecord
340
0
  0
XRECORD
  5
BF3F
102
{ACAD_REACTORS
330
BF2D
102
}
330
BF2D
100
AcDbXrecord
 10
0.0
 20
0.0
 30
0.0
  0
XRECORD
  5
BF40
102
{ACAD_REACTORS
330
BF2D
102
}
330
BF2D
100
AcDbXrecord
 10
0.0
 20
0.0
 30
0.0
  0
XRECORD
  5
BF41
102
{ACAD_REACTORS
330
BF2D
102
}
330
BF2D
100
AcDbXrecord
 10
0.0
 20
0.0
 30
0.0
  0
XRECORD
  5
BF42
102
{ACAD_REACTORS
330
BF2D
102
}
330
BF2D
100
AcDbXrecord
 10
0.0
 20
0.0
 30
0.0
  0
XRECORD
  5
BF43
102
{ACAD_REACTORS
330
BF2D
102
}
330
BF2D
100
AcDbXrecord
 10
0.0
 20
0.0
 30
0.0
  0
XRECORD
  5
BF44
102
{ACAD_REACTORS
330
BF2D
102
}
330
BF2D
100
AcDbXrecord
 10
0.0
 20
0.0
 30
0.0
  0
XRECORD
  5
BF45
102
{ACAD_REACTORS
330
BF2D
102
}
330
BF2D
100
AcDbXrecord
340
0
  0
XRECORD
  5
BF46
102
{ACAD_REACTORS
330
BF2D
102
}
330
BF2D
100
AcDbXrecord
 70
     0
  0
XRECORD
  5
BF47
102
{ACAD_REACTORS
330
BF2D
102
}
330
BF2D
100
AcDbXrecord
340
0
  0
XRECORD
  5
BF48
102
{ACAD_REACTORS
330
BF2D
102
}
330
BF2D
100
AcDbXrecord
 10
0.0
 20
0.0
 30
0.0
  0
XRECORD
  5
BF49
102
{ACAD_REACTORS
330
BF2D
102
}
330
BF2D
100
AcDbXrecord
 10
0.0
 20
0.0
 30
0.0
  0
XRECORD
  5
BF4A
102
{ACAD_REACTORS
330
BF2D
102
}
330
BF2D
100
AcDbXrecord
 10
0.0
 20
0.0
 30
0.0
  0
XRECORD
  5
BF4B
102
{ACAD_REACTORS
330
BF2D
102
}
330
BF2D
100
AcDbXrecord
 10
0.0
 20
0.0
 30
0.0
  0
XRECORD
  5
BF4C
102
{ACAD_REACTORS
330
BF2D
102
}
330
BF2D
100
AcDbXrecord
 10
0.0
 20
0.0
 30
0.0
  0
XRECORD
  5
BF4D
102
{ACAD_REACTORS
330
BF2D
102
}
330
BF2D
100
AcDbXrecord
 10
0.0
 20
0.0
 30
0.0
  0
XRECORD
  5
BB25
102
{ACAD_REACTORS
330
BB24
102
}
330
BB24
100
AcDbXrecord
  1
50
  1
*-50
  1
*
  1
*
 70
     0
  1
*
  1
*
  0
ENDSEC
  0
EOF
