  0
SECTION
  2
HEADER
  9
$ACADVER
  1
AC1014
  9
$ACADMAINTVER
 70
     9
  9
$DWGCODEPAGE
  3
ANSI_932
  9
$INSBASE
 10
0.0
 20
0.0
 30
0.0
  9
$EXTMIN
 10
0.0000000135560185
 20
-0.0000001317113174
 30
-0.00000001
  9
$EXTMAX
 10
797.600000013556
 20
551.5999998682888
 30
0.00000001
  9
$LIMMIN
 10
0.0
 20
0.0
  9
$LIMMAX
 10
840.0
 20
594.0
  9
$ORTHOMODE
 70
     0
  9
$REGENMODE
 70
     1
  9
$FILLMODE
 70
     1
  9
$QTEXTMODE
 70
     0
  9
$MIRRTEXT
 70
     1
  9
$DRAGMODE
 70
     2
  9
$LTSCALE
 40
2.0
  9
$OSMODE
 70
    37
  9
$ATTMODE
 70
     1
  9
$TEXTSIZE
 40
5.0
  9
$TRACEWID
 40
1.0
  9
$TEXTSTYLE
  7
STANDARD
  9
$CLAYER
  8
SEIHIN
  9
$CELTYPE
  6
BYLAYER
  9
$CECOLOR
 62
     1
  9
$CELTSCALE
 40
1.0
  9
$DELOBJ
 70
     1
  9
$DISPSILH
 70
     0
  9
$DIMSCALE
 40
1.0
  9
$DIMASZ
 40
7.0
  9
$DIMEXO
 40
6.0
  9
$DIMDLI
 40
14.0
  9
$DIMRND
 40
0.0
  9
$DIMDLE
 40
0.0
  9
$DIMEXE
 40
3.0
  9
$DIMTP
 40
0.0
  9
$DIMTM
 40
0.0
  9
$DIMTXT
 40
6.0
  9
$DIMCEN
 40
150.0
  9
$DIMTSZ
 40
0.0
  9
$DIMTOL
 70
     0
  9
$DIMLIM
 70
     0
  9
$DIMTIH
 70
     0
  9
$DIMTOH
 70
     0
  9
$DIMSE1
 70
     0
  9
$DIMSE2
 70
     0
  9
$DIMTAD
 70
     3
  9
$DIMZIN
 70
     0
  9
$DIMBLK
  1

  9
$DIMASO
 70
     1
  9
$DIMSHO
 70
     1
  9
$DIMPOST
  1

  9
$DIMAPOST
  1

  9
$DIMALT
 70
     0
  9
$DIMALTD
 70
     2
  9
$DIMALTF
 40
25.4
  9
$DIMLFAC
 40
1.0
  9
$DIMTOFL
 70
     1
  9
$DIMTVP
 40
0.0
  9
$DIMTIX
 70
     0
  9
$DIMSOXD
 70
     0
  9
$DIMSAH
 70
     1
  9
$DIMBLK1
  1
OPEN
  9
$DIMBLK2
  1
OPEN
  9
$DIMSTYLE
  2
STANDARD
  9
$DIMCLRD
 70
   256
  9
$DIMCLRE
 70
   256
  9
$DIMCLRT
 70
   256
  9
$DIMTFAC
 40
1.0
  9
$DIMGAP
 40
2.0
  9
$DIMJUST
 70
     0
  9
$DIMSD1
 70
     0
  9
$DIMSD2
 70
     0
  9
$DIMTOLJ
 70
     1
  9
$DIMTZIN
 70
     0
  9
$DIMALTZ
 70
     0
  9
$DIMALTTZ
 70
     0
  9
$DIMFIT
 70
     3
  9
$DIMUPT
 70
     0
  9
$DIMUNIT
 70
     2
  9
$DIMDEC
 70
     0
  9
$DIMTDEC
 70
     0
  9
$DIMALTU
 70
     2
  9
$DIMALTTD
 70
     2
  9
$DIMTXSTY
  7
STANDARD
  9
$DIMAUNIT
 70
     0
  9
$LUNITS
 70
     2
  9
$LUPREC
 70
     4
  9
$SKETCHINC
 40
1.0
  9
$FILLETRAD
 40
1.0
  9
$AUNITS
 70
     0
  9
$AUPREC
 70
     0
  9
$MENU
  1
.
  9
$ELEVATION
 40
0.0
  9
$PELEVATION
 40
0.0
  9
$THICKNESS
 40
0.0
  9
$LIMCHECK
 70
     0
  9
$BLIPMODE
 70
     0
  9
$CHAMFERA
 40
0.0
  9
$CHAMFERB
 40
0.0
  9
$CHAMFERC
 40
40.0
  9
$CHAMFERD
 40
0.0
  9
$SKPOLY
 70
     0
  9
$TDCREATE
 40
2451159.670660069
  9
$TDUPDATE
 40
2454741.575407268
  9
$TDINDWG
 40
0.2896217014
  9
$TDUSRTIMER
 40
0.2896211458
  9
$USRTIMER
 70
     1
  9
$ANGBASE
 50
0.0
  9
$ANGDIR
 70
     0
  9
$PDMODE
 70
     0
  9
$PDSIZE
 40
0.0
  9
$PLINEWID
 40
0.0
  9
$COORDS
 70
     0
  9
$SPLFRAME
 70
     0
  9
$SPLINETYPE
 70
     6
  9
$SPLINESEGS
 70
     8
  9
$ATTDIA
 70
     0
  9
$ATTREQ
 70
     1
  9
$HANDLING
 70
 10241
  9
$HANDSEED
  5
87CC
  9
$SURFTAB1
 70
     6
  9
$SURFTAB2
 70
     6
  9
$SURFTYPE
 70
     6
  9
$SURFU
 70
     6
  9
$SURFV
 70
     6
  9
$UCSNAME
  2

  9
$UCSORG
 10
0.0
 20
0.0
 30
0.0
  9
$UCSXDIR
 10
1.0
 20
0.0
 30
0.0
  9
$UCSYDIR
 10
0.0
 20
1.0
 30
0.0
  9
$PUCSNAME
  2

  9
$PUCSORG
 10
0.0
 20
0.0
 30
0.0
  9
$PUCSXDIR
 10
1.0
 20
0.0
 30
0.0
  9
$PUCSYDIR
 10
0.0
 20
1.0
 30
0.0
  9
$USERI1
 70
     0
  9
$USERI2
 70
     0
  9
$USERI3
 70
     0
  9
$USERI4
 70
     0
  9
$USERI5
 70
     0
  9
$USERR1
 40
0.0
  9
$USERR2
 40
0.0
  9
$USERR3
 40
0.0
  9
$USERR4
 40
0.0
  9
$USERR5
 40
0.0
  9
$WORLDVIEW
 70
     1
  9
$SHADEDGE
 70
     3
  9
$SHADEDIF
 70
    70
  9
$TILEMODE
 70
     1
  9
$MAXACTVP
 70
    16
  9
$PINSBASE
 10
0.0
 20
0.0
 30
0.0
  9
$PLIMCHECK
 70
     0
  9
$PEXTMIN
 10
0.0
 20
0.0
 30
0.0
  9
$PEXTMAX
 10
420.0
 20
297.0
 30
0.0
  9
$PLIMMIN
 10
0.0
 20
0.0
  9
$PLIMMAX
 10
420.0
 20
297.0
  9
$UNITMODE
 70
     0
  9
$VISRETAIN
 70
     0
  9
$PLINEGEN
 70
     0
  9
$PSLTSCALE
 70
     1
  9
$TREEDEPTH
 70
  3020
  9
$PICKSTYLE
 70
     1
  9
$CMLSTYLE
  2
STANDARD
  9
$CMLJUST
 70
     0
  9
$CMLSCALE
 40
1.0
  9
$PROXYGRAPHICS
 70
     1
  9
$MEASUREMENT
 70
     1
  0
ENDSEC
  0
SECTION
  2
CLASSES
  0
CLASS
  1
ACDBDICTIONARYWDFLT
  2
AcDbDictionaryWithDefault
  3
AutoCAD 2000
 90
        0
280
     0
281
     0
  0
CLASS
  1
ACDBPLACEHOLDER
  2
AcDbPlaceHolder
  3
AutoCAD 2000
 90
        0
280
     0
281
     0
  0
CLASS
  1
LAYOUT
  2
AcDbLayout
  3
AutoCAD 2000
 90
        0
280
     0
281
     0
  0
CLASS
  1
LONG_TRANSACTION
  2
AcDbLongTransaction
  3
AutoCAD 2000
 90
        0
280
     0
281
     0
  0
CLASS
  1
LWPOLYLINE
  2
AcDbPolyline
  3
AutoCAD 2000
 90
        0
280
     0
281
     1
  0
CLASS
  1
HATCH
  2
AcDbHatch
  3
AutoCAD 2000
 90
        0
280
     0
281
     1
  0
CLASS
  1
XRECORD
  2
AcDbXrecord
  3
AutoCAD 2000
 90
        0
280
     0
281
     0
  0
CLASS
  1
LONG_TRANSACTION
  2
AcDbLongTransaction
  3
AutoCAD 2000
 90
        0
280
     0
281
     0
  0
CLASS
  1
LWPOLYLINE
  2
AcDbPolyline
  3
AutoCAD 2000
 90
        0
280
     0
281
     1
  0
CLASS
  1
HATCH
  2
AcDbHatch
  3
AutoCAD 2000
 90
        0
280
     0
281
     1
  0
CLASS
  1
XRECORD
  2
AcDbXrecord
  3
AutoCAD 2000
 90
        0
280
     0
281
     0
  0
CLASS
  1
LONG_TRANSACTION
  2
AcDbLongTransaction
  3
AutoCAD 2000
 90
        0
280
     0
281
     0
  0
CLASS
  1
LWPOLYLINE
  2
AcDbPolyline
  3
AutoCAD 2000
 90
        0
280
     0
281
     1
  0
CLASS
  1
HATCH
  2
AcDbHatch
  3
AutoCAD 2000
 90
        0
280
     0
281
     1
  0
CLASS
  1
XRECORD
  2
AcDbXrecord
  3
AutoCAD 2000
 90
        0
280
     0
281
     0
  0
CLASS
  1
LONG_TRANSACTION
  2
AcDbLongTransaction
  3
AutoCAD 2000
 90
        0
280
     0
281
     0
  0
CLASS
  1
LWPOLYLINE
  2
AcDbPolyline
  3
AutoCAD 2000
 90
        0
280
     0
281
     1
  0
CLASS
  1
HATCH
  2
AcDbHatch
  3
AutoCAD 2000
 90
        0
280
     0
281
     1
  0
CLASS
  1
XRECORD
  2
AcDbXrecord
  3
AutoCAD 2000
 90
        0
280
     0
281
     0
  0
CLASS
  1
LONG_TRANSACTION
  2
AcDbLongTransaction
  3
AutoCAD 2000
 90
        0
280
     0
281
     0
  0
CLASS
  1
LWPOLYLINE
  2
AcDbPolyline
  3
AutoCAD 2000
 90
        0
280
     0
281
     1
  0
CLASS
  1
HATCH
  2
AcDbHatch
  3
AutoCAD 2000
 90
        0
280
     0
281
     1
  0
CLASS
  1
XRECORD
  2
AcDbXrecord
  3
AutoCAD 2000
 90
        0
280
     0
281
     0
  0
CLASS
  1
LONG_TRANSACTION
  2
AcDbLongTransaction
  3
AutoCAD 2000
 90
        0
280
     0
281
     0
  0
CLASS
  1
LWPOLYLINE
  2
AcDbPolyline
  3
AutoCAD 2000
 90
        0
280
     0
281
     1
  0
CLASS
  1
HATCH
  2
AcDbHatch
  3
AutoCAD 2000
 90
        0
280
     0
281
     1
  0
CLASS
  1
XRECORD
  2
AcDbXrecord
  3
AutoCAD 2000
 90
        0
280
     0
281
     0
  0
CLASS
  1
LONG_TRANSACTION
  2
AcDbLongTransaction
  3
AutoCAD 2000
 90
        0
280
     0
281
     0
  0
CLASS
  1
LWPOLYLINE
  2
AcDbPolyline
  3
AutoCAD 2000
 90
        0
280
     0
281
     1
  0
CLASS
  1
HATCH
  2
AcDbHatch
  3
AutoCAD 2000
 90
        0
280
     0
281
     1
  0
CLASS
  1
XRECORD
  2
AcDbXrecord
  3
AutoCAD 2000
 90
        0
280
     0
281
     0
  0
CLASS
  1
LONG_TRANSACTION
  2
AcDbLongTransaction
  3
AutoCAD 2000
 90
        0
280
     0
281
     0
  0
CLASS
  1
LWPOLYLINE
  2
AcDbPolyline
  3
AutoCAD 2000
 90
        0
280
     0
281
     1
  0
CLASS
  1
HATCH
  2
AcDbHatch
  3
AutoCAD 2000
 90
        0
280
     0
281
     1
  0
CLASS
  1
XRECORD
  2
AcDbXrecord
  3
AutoCAD 2000
 90
        0
280
     0
281
     0
  0
CLASS
  1
LONG_TRANSACTION
  2
AcDbLongTransaction
  3
AutoCAD 2000
 90
        0
280
     0
281
     0
  0
CLASS
  1
LWPOLYLINE
  2
AcDbPolyline
  3
AutoCAD 2000
 90
        0
280
     0
281
     1
  0
CLASS
  1
HATCH
  2
AcDbHatch
  3
AutoCAD 2000
 90
        0
280
     0
281
     1
  0
CLASS
  1
XRECORD
  2
AcDbXrecord
  3
AutoCAD 2000
 90
        0
280
     0
281
     0
  0
CLASS
  1
LONG_TRANSACTION
  2
AcDbLongTransaction
  3
AutoCAD 2000
 90
        0
280
     0
281
     0
  0
CLASS
  1
LWPOLYLINE
  2
AcDbPolyline
  3
AutoCAD 2000
 90
        0
280
     0
281
     1
  0
CLASS
  1
HATCH
  2
AcDbHatch
  3
AutoCAD 2000
 90
        0
280
     0
281
     1
  0
CLASS
  1
XRECORD
  2
AcDbXrecord
  3
AutoCAD 2000
 90
        0
280
     0
281
     0
  0
CLASS
  1
LONG_TRANSACTION
  2
AcDbLongTransaction
  3
AutoCAD 2000
 90
        0
280
     0
281
     0
  0
CLASS
  1
LWPOLYLINE
  2
AcDbPolyline
  3
AutoCAD 2000
 90
        0
280
     0
281
     1
  0
CLASS
  1
HATCH
  2
AcDbHatch
  3
AutoCAD 2000
 90
        0
280
     0
281
     1
  0
CLASS
  1
XRECORD
  2
AcDbXrecord
  3
AutoCAD 2000
 90
        0
280
     0
281
     0
  0
CLASS
  1
LONG_TRANSACTION
  2
AcDbLongTransaction
  3
AutoCAD 2000
 90
        0
280
     0
281
     0
  0
CLASS
  1
LWPOLYLINE
  2
AcDbPolyline
  3
AutoCAD 2000
 90
        0
280
     0
281
     1
  0
CLASS
  1
HATCH
  2
AcDbHatch
  3
AutoCAD 2000
 90
        0
280
     0
281
     1
  0
CLASS
  1
XRECORD
  2
AcDbXrecord
  3
AutoCAD 2000
 90
        0
280
     0
281
     0
  0
CLASS
  1
LONG_TRANSACTION
  2
AcDbLongTransaction
  3
AutoCAD 2000
 90
        0
280
     0
281
     0
  0
CLASS
  1
LWPOLYLINE
  2
AcDbPolyline
  3
AutoCAD 2000
 90
        0
280
     0
281
     1
  0
CLASS
  1
HATCH
  2
AcDbHatch
  3
AutoCAD 2000
 90
        0
280
     0
281
     1
  0
CLASS
  1
XRECORD
  2
AcDbXrecord
  3
AutoCAD 2000
 90
        0
280
     0
281
     0
  0
ENDSEC
  0
SECTION
  2
TABLES
  0
TABLE
  2
VPORT
  5
8
330
0
100
AcDbSymbolTable
 70
     3
  0
VPORT
  5
87A8
330
8
100
AcDbSymbolTableRecord
100
AcDbViewportTableRecord
  2
*ACTIVE
 70
     0
 10
0.0
 20
0.0
 11
1.0
 21
1.0
 12
414.8865659931589
 22
273.905187430281
 13
0.0
 23
0.0
 14
5.0
 24
5.0
 15
0.0
 25
0.0
 16
0.0
 26
0.0
 36
1.0
 17
0.0
 27
0.0
 37
0.0
 40
679.4568790335858
 41
1.570153061224489
 42
50.0
 43
0.0
 44
0.0
 50
0.0
 51
0.0
 71
     0
 72
   100
 73
     1
 74
     0
 75
     0
 76
     0
 77
     0
 78
     0
  0
ENDTAB
  0
TABLE
  2
LTYPE
  5
5
330
0
100
AcDbSymbolTable
 70
     2
  0
LTYPE
  5
14
330
5
100
AcDbSymbolTableRecord
100
AcDbLinetypeTableRecord
  2
BYBLOCK
 70
     0
  3

 72
    65
 73
     0
 40
0.0
  0
LTYPE
  5
15
330
5
100
AcDbSymbolTableRecord
100
AcDbLinetypeTableRecord
  2
BYLAYER
 70
     0
  3

 72
    65
 73
     0
 40
0.0
  0
LTYPE
  5
16
330
5
100
AcDbSymbolTableRecord
100
AcDbLinetypeTableRecord
  2
CONTINUOUS
 70
     0
  3
Solid line
 72
    65
 73
     0
 40
0.0
  0
LTYPE
  5
135
330
5
100
AcDbSymbolTableRecord
100
AcDbLinetypeTableRecord
  2
CENTER
 70
     0
  3
____ _ ____ _ ____ _ ____ _ ____ _ ____ _ ____ 
 72
    65
 73
     4
 40
2.0
 49
1.25
 74
     0
 49
-0.25
 74
     0
 49
0.25
 74
     0
 49
-0.25
 74
     0
  0
ENDTAB
  0
TABLE
  2
LAYER
  5
2
102
{ACAD_XDICTIONARY
360
8327
102
}
330
0
100
AcDbSymbolTable
 70
     9
  0
LAYER
  5
F
330
2
100
AcDbSymbolTableRecord
100
AcDbLayerTableRecord
  2
0
 70
     0
 62
     7
  6
CONTINUOUS
  0
LAYER
  5
62
330
2
100
AcDbSymbolTableRecord
100
AcDbLayerTableRecord
  2
VIEWPORT
 70
     0
 62
     7
  6
CONTINUOUS
  0
LAYER
  5
65
330
2
100
AcDbSymbolTableRecord
100
AcDbLayerTableRecord
  2
ZUWAKU
 70
     0
 62
     7
  6
CONTINUOUS
  0
LAYER
  5
2CF
330
2
100
AcDbSymbolTableRecord
100
AcDbLayerTableRecord
  2
SUNPOU
 70
     0
 62
     4
  6
CONTINUOUS
  0
LAYER
  5
2D1
330
2
100
AcDbSymbolTableRecord
100
AcDbLayerTableRecord
  2
SEIHIN
 70
     0
 62
     3
  6
CONTINUOUS
  0
LAYER
  5
532
330
2
100
AcDbSymbolTableRecord
100
AcDbLayerTableRecord
  2
DEFPOINTS
 70
     0
 62
     7
  6
CONTINUOUS
  0
LAYER
  5
809
330
2
100
AcDbSymbolTableRecord
100
AcDbLayerTableRecord
  2
CENTER_L
 70
     0
 62
     1
  6
CENTER
  0
LAYER
  5
5EC3
330
2
100
AcDbSymbolTableRecord
100
AcDbLayerTableRecord
  2
MOJI
 70
     0
 62
     2
  6
CONTINUOUS
  0
LAYER
  5
8399
330
2
100
AcDbSymbolTableRecord
100
AcDbLayerTableRecord
  2
CENTER_L0
 70
     0
 62
     1
  6
CENTER
  0
ENDTAB
  0
TABLE
  2
STYLE
  5
3
330
0
100
AcDbSymbolTable
 70
     2
  0
STYLE
  5
10
330
3
100
AcDbSymbolTableRecord
100
AcDbTextStyleTableRecord
  2
STANDARD
 70
     0
 40
0.0
 41
1.0
 50
0.0
 71
     0
 42
5.0
  3
TXT
  4
bigfont.shx
  0
STYLE
  5
5EC4
330
3
100
AcDbSymbolTableRecord
100
AcDbTextStyleTableRecord
  2
ｽﾀｲﾙ1
 70
     0
 40
0.0
 41
1.0
 50
0.0
 71
     0
 42
2.5
  3
MS PGothic.ttf
  4

1001
ACAD
1000
MS PGothic
1071
    32818
  0
ENDTAB
  0
TABLE
  2
VIEW
  5
6
330
0
100
AcDbSymbolTable
 70
     0
  0
ENDTAB
  0
TABLE
  2
UCS
  5
7
330
0
100
AcDbSymbolTable
 70
     0
  0
ENDTAB
  0
TABLE
  2
APPID
  5
9
330
0
100
AcDbSymbolTable
 70
     1
  0
APPID
  5
11
330
9
100
AcDbSymbolTableRecord
100
AcDbRegAppTableRecord
  2
ACAD
 70
     0
  0
ENDTAB
  0
TABLE
  2
DIMSTYLE
  5
A
330
0
100
AcDbSymbolTable
 70
     1
  0
DIMSTYLE
105
1D
102
{ACAD_REACTORS
330
45FF
330
460C
330
462F
330
46E8
330
4797
330
5A19
330
5A28
330
5A35
330
5A42
330
4622
102
}
330
A
100
AcDbSymbolTableRecord
100
AcDbDimStyleTableRecord
  2
STANDARD
 70
     0
  3

  4

  5

  6

  7

 40
1.0
 41
0.18
 42
0.0625
 43
0.38
 44
0.18
 45
0.0
 46
0.0
 47
0.0
 48
0.0
140
0.18
141
0.09
142
0.0
143
25.4
144
1.0
145
0.0
146
1.0
147
0.09
 71
     0
 72
     0
 73
     1
 74
     1
 75
     0
 76
     0
 77
     0
 78
     0
170
     0
171
     2
172
     0
173
     0
174
     0
175
     0
176
     0
177
     0
178
     0
270
     2
271
     4
272
     4
273
     2
274
     2
340
10
275
     0
280
     0
281
     0
282
     0
283
     1
284
     0
285
     0
286
     0
287
     3
288
     0
  0
ENDTAB
  0
TABLE
  2
BLOCK_RECORD
  5
1
330
0
100
AcDbSymbolTable
 70
    11
  0
BLOCK_RECORD
  5
1A
102
{ACAD_XDICTIONARY
360
9DE
102
}
330
1
100
AcDbSymbolTableRecord
100
AcDbBlockTableRecord
  2
*MODEL_SPACE
  0
BLOCK_RECORD
  5
17
102
{ACAD_XDICTIONARY
360
9DC
102
}
330
1
100
AcDbSymbolTableRecord
100
AcDbBlockTableRecord
  2
*PAPER_SPACE
  0
BLOCK_RECORD
  5
6D
330
1
100
AcDbSymbolTableRecord
100
AcDbBlockTableRecord
  2
_OPEN
  0
BLOCK_RECORD
  5
4600
330
1
100
AcDbSymbolTableRecord
100
AcDbBlockTableRecord
  2
*D1
  0
BLOCK_RECORD
  5
460D
330
1
100
AcDbSymbolTableRecord
100
AcDbBlockTableRecord
  2
*D2
  0
BLOCK_RECORD
  5
4623
330
1
100
AcDbSymbolTableRecord
100
AcDbBlockTableRecord
  2
*D3
  0
BLOCK_RECORD
  5
4630
330
1
100
AcDbSymbolTableRecord
100
AcDbBlockTableRecord
  2
*D4
  0
BLOCK_RECORD
  5
46E9
330
1
100
AcDbSymbolTableRecord
100
AcDbBlockTableRecord
  2
*D5
  0
BLOCK_RECORD
  5
4798
330
1
100
AcDbSymbolTableRecord
100
AcDbBlockTableRecord
  2
*D6
  0
BLOCK_RECORD
  5
5A1A
330
1
100
AcDbSymbolTableRecord
100
AcDbBlockTableRecord
  2
*D7
  0
BLOCK_RECORD
  5
5A29
330
1
100
AcDbSymbolTableRecord
100
AcDbBlockTableRecord
  2
*D8
  0
BLOCK_RECORD
  5
5A36
330
1
100
AcDbSymbolTableRecord
100
AcDbBlockTableRecord
  2
*D9
  0
BLOCK_RECORD
  5
5A43
330
1
100
AcDbSymbolTableRecord
100
AcDbBlockTableRecord
  2
*D10
  0
ENDTAB
  0
ENDSEC
  0
SECTION
  2
BLOCKS
  0
BLOCK
  5
1B
330
1A
100
AcDbEntity
  8
0
100
AcDbBlockBegin
  2
*MODEL_SPACE
 70
     0
 10
0.0
 20
0.0
 30
0.0
  3
*MODEL_SPACE
  1

  0
ENDBLK
  5
1C
330
1A
100
AcDbEntity
  8
0
100
AcDbBlockEnd
  0
BLOCK
  5
18
330
17
100
AcDbEntity
 67
     1
  8
0
100
AcDbBlockBegin
  2
*PAPER_SPACE
 70
     0
 10
0.0
 20
0.0
 30
0.0
  3
*PAPER_SPACE
  1

  0
ENDBLK
  5
19
330
17
100
AcDbEntity
 67
     1
  8
0
100
AcDbBlockEnd
  0
BLOCK
  5
6E
330
6D
100
AcDbEntity
  8
0
100
AcDbBlockBegin
  2
_OPEN
 70
     0
 10
0.0
 20
0.0
 30
0.0
  3
_OPEN
  1

  0
LINE
  5
6F
330
6D
100
AcDbEntity
  8
0
  6
BYBLOCK
 62
     0
100
AcDbLine
 10
-1.0
 20
0.1666666666666666
 30
0.0
 11
0.0
 21
0.0
 31
0.0
  0
LINE
  5
70
330
6D
100
AcDbEntity
  8
0
  6
BYBLOCK
 62
     0
100
AcDbLine
 10
0.0
 20
0.0
 30
0.0
 11
-1.0
 21
-0.1666666666666666
 31
0.0
  0
LINE
  5
71
330
6D
100
AcDbEntity
  8
0
  6
BYBLOCK
 62
     0
100
AcDbLine
 10
0.0
 20
0.0
 30
0.0
 11
-1.0
 21
0.0
 31
0.0
  0
ENDBLK
  5
72
330
6D
100
AcDbEntity
  8
0
100
AcDbBlockEnd
  0
BLOCK
  5
460A
330
4600
100
AcDbEntity
  8
0
100
AcDbBlockBegin
  2
*D1
 70
     1
 10
0.0
 20
0.0
 30
0.0
  3
*D1
  1

  0
LINE
  5
7FEE
330
4600
100
AcDbEntity
  8
SUNPOU
100
AcDbLine
 10
320.1074029363468
 20
242.8887028902904
 30
0.0
 11
295.7870821157557
 21
242.8887028902905
 31
0.0
  0
LINE
  5
7FEF
330
4600
100
AcDbEntity
  8
SUNPOU
100
AcDbLine
 10
397.814651054243
 20
132.9979774893039
 30
0.0
 11
295.7870821157557
 21
132.997977489304
 31
0.0
  0
LINE
  5
7FF0
330
4600
100
AcDbEntity
  8
SUNPOU
100
AcDbLine
 10
298.7870821157557
 20
235.8887028902906
 30
0.0
 11
298.7870821157557
 21
139.997977489304
 31
0.0
  0
INSERT
  5
7FF1
330
4600
100
AcDbEntity
  8
SUNPOU
100
AcDbBlockReference
  2
_OPEN
 10
298.7870821157557
 20
242.8887028902905
 30
0.0
 41
7.0
 42
7.0
 43
7.0
 50
90.0
  0
INSERT
  5
7FF2
330
4600
100
AcDbEntity
  8
SUNPOU
100
AcDbBlockReference
  2
_OPEN
 10
298.7870821157557
 20
132.997977489304
 30
0.0
 41
7.0
 42
7.0
 43
7.0
 50
270.0
  0
MTEXT
  5
7FF3
330
4600
100
AcDbEntity
  8
SUNPOU
100
AcDbMText
 10
293.7870821157556
 20
187.9433401897973
 30
0.0
 40
6.0
 41
0.0
 71
     5
 72
     1
  1
\A1;110
 11
0.0000000000000001
 21
1.0
 31
0.0
1001
ACAD
1000
MTEXTBEGIN
1070
    73
1070
     1
1070
    44
1040
1.0
1070
    74
1070
     0
1000
MTEXTEND
1000
MTEXTBEGIN
1070
    73
1070
     1
1070
    44
1040
1.0
1070
    74
1070
     0
1000
MTEXTEND
  0
POINT
  5
7FF4
330
4600
100
AcDbEntity
  8
DEFPOINTS
 62
     0
100
AcDbPoint
 10
326.1074029363468
 20
242.8887028902904
 30
0.0
  0
POINT
  5
7FF5
330
4600
100
AcDbEntity
  8
DEFPOINTS
 62
     0
100
AcDbPoint
 10
403.814651054243
 20
132.9979774893039
 30
0.0
  0
POINT
  5
7FF6
330
4600
100
AcDbEntity
  8
DEFPOINTS
 62
     0
100
AcDbPoint
 10
298.7870821157557
 20
132.997977489304
 30
0.0
  0
ENDBLK
  5
460B
330
4600
100
AcDbEntity
  8
0
100
AcDbBlockEnd
  0
BLOCK
  5
4617
330
460D
100
AcDbEntity
  8
0
100
AcDbBlockBegin
  2
*D2
 70
     1
 10
0.0
 20
0.0
 30
0.0
  3
*D2
  1

  0
LINE
  5
8000
330
460D
100
AcDbEntity
  8
SUNPOU
100
AcDbLine
 10
446.687655808347
 20
203.4178376076905
 30
0.0
 11
471.9022261891876
 21
203.4178376076905
 31
0.0
  0
LINE
  5
8001
330
460D
100
AcDbEntity
  8
SUNPOU
100
AcDbLine
 10
409.814651054243
 20
132.9979774893039
 30
0.0
 11
471.9022261891876
 21
132.9979774893039
 31
0.0
  0
LINE
  5
8002
330
460D
100
AcDbEntity
  8
SUNPOU
100
AcDbLine
 10
468.9022261891876
 20
196.4178376076905
 30
0.0
 11
468.9022261891876
 21
139.9979774893039
 31
0.0
  0
INSERT
  5
8003
330
460D
100
AcDbEntity
  8
SUNPOU
100
AcDbBlockReference
  2
_OPEN
 10
468.9022261891876
 20
203.4178376076905
 30
0.0
 41
7.0
 42
7.0
 43
7.0
 50
90.0
  0
INSERT
  5
8004
330
460D
100
AcDbEntity
  8
SUNPOU
100
AcDbBlockReference
  2
_OPEN
 10
468.9022261891876
 20
132.9979774893039
 30
0.0
 41
7.0
 42
7.0
 43
7.0
 50
270.0
  0
MTEXT
  5
8005
330
460D
100
AcDbEntity
  8
SUNPOU
100
AcDbMText
 10
463.9022261891875
 20
168.2079075484972
 30
0.0
 40
6.0
 41
0.0
 71
     5
 72
     1
  1
\A1;70
 11
0.0000000000000001
 21
1.0
 31
0.0
1001
ACAD
1000
MTEXTBEGIN
1070
    73
1070
     1
1070
    44
1040
1.0
1070
    74
1070
     0
1000
MTEXTEND
1000
MTEXTBEGIN
1070
    73
1070
     1
1070
    44
1040
1.0
1070
    74
1070
     0
1000
MTEXTEND
  0
POINT
  5
8006
330
460D
100
AcDbEntity
  8
DEFPOINTS
 62
     0
100
AcDbPoint
 10
440.687655808347
 20
203.4178376076905
 30
0.0
  0
POINT
  5
8007
330
460D
100
AcDbEntity
  8
DEFPOINTS
 62
     0
100
AcDbPoint
 10
403.814651054243
 20
132.9979774893039
 30
0.0
  0
POINT
  5
8008
330
460D
100
AcDbEntity
  8
DEFPOINTS
 62
     0
100
AcDbPoint
 10
468.9022261891876
 20
132.9979774893039
 30
0.0
  0
ENDBLK
  5
4618
330
460D
100
AcDbEntity
  8
0
100
AcDbBlockEnd
  0
BLOCK
  5
462D
330
4623
100
AcDbEntity
  8
0
100
AcDbBlockBegin
  2
*D3
 70
     1
 10
0.0
 20
0.0
 30
0.0
  3
*D3
  1

  0
LINE
  5
8318
330
4623
100
AcDbEntity
  8
SUNPOU
100
AcDbLine
 10
327.1069374502467
 20
233.2887028902907
 30
0.0
 11
327.1069374502467
 21
263.8146513512538
 31
0.0
  0
LINE
  5
8319
330
4623
100
AcDbEntity
  8
SUNPOU
100
AcDbLine
 10
442.5285710917469
 20
207.4178376076905
 30
0.0
 11
442.5285710917469
 21
263.8146513512538
 31
0.0
  0
LINE
  5
831A
330
4623
100
AcDbEntity
  8
SUNPOU
100
AcDbLine
 10
334.1069374502467
 20
260.8146513512538
 30
0.0
 11
435.5285710917469
 21
260.8146513512538
 31
0.0
  0
INSERT
  5
831B
330
4623
100
AcDbEntity
  8
SUNPOU
100
AcDbBlockReference
  2
_OPEN
 10
327.1069374502467
 20
260.8146513512538
 30
0.0
 41
7.0
 42
7.0
 43
7.0
 50
180.0
  0
INSERT
  5
831C
330
4623
100
AcDbEntity
  8
SUNPOU
100
AcDbBlockReference
  2
_OPEN
 10
442.5285710917469
 20
260.8146513512538
 30
0.0
 41
7.0
 42
7.0
 43
7.0
  0
MTEXT
  5
831D
330
4623
100
AcDbEntity
  8
SUNPOU
100
AcDbMText
 10
384.8177542709968
 20
265.8146513512538
 30
0.0
 40
6.0
 41
0.0
 71
     5
 72
     1
  1
\A1;115
1001
ACAD
1000
MTEXTBEGIN
1070
    73
1070
     1
1070
    44
1040
1.0
1070
    74
1070
     0
1000
MTEXTEND
1000
MTEXTBEGIN
1070
    73
1070
     1
1070
    44
1040
1.0
1070
    74
1070
     0
1000
MTEXTEND
  0
POINT
  5
831E
330
4623
100
AcDbEntity
  8
DEFPOINTS
 62
     0
100
AcDbPoint
 10
327.1069374502467
 20
227.2887028902907
 30
0.0
  0
POINT
  5
831F
330
4623
100
AcDbEntity
  8
DEFPOINTS
 62
     0
100
AcDbPoint
 10
442.5285710917469
 20
201.4178376076905
 30
0.0
  0
POINT
  5
8320
330
4623
100
AcDbEntity
  8
DEFPOINTS
 62
     0
100
AcDbPoint
 10
442.5285710917469
 20
260.8146513512538
 30
0.0
  0
ENDBLK
  5
462E
330
4623
100
AcDbEntity
  8
0
100
AcDbBlockEnd
  0
BLOCK
  5
463A
330
4630
100
AcDbEntity
  8
0
100
AcDbBlockBegin
  2
*D4
 70
     1
 10
0.0
 20
0.0
 30
0.0
  3
*D4
  1

  0
LINE
  5
830F
330
4630
100
AcDbEntity
  8
SUNPOU
100
AcDbLine
 10
327.1069374502467
 20
423.1233704063336
 30
0.0
 11
327.1069374502467
 21
442.9837551620476
 31
0.0
  0
LINE
  5
8310
330
4630
100
AcDbEntity
  8
SUNPOU
100
AcDbLine
 10
442.5285710917469
 20
423.1233704063336
 30
0.0
 11
442.5285710917469
 21
442.9837551620476
 31
0.0
  0
LINE
  5
8311
330
4630
100
AcDbEntity
  8
SUNPOU
100
AcDbLine
 10
334.1069374502466
 20
439.9837551620477
 30
0.0
 11
435.5285710917469
 21
439.9837551620477
 31
0.0
  0
INSERT
  5
8312
330
4630
100
AcDbEntity
  8
SUNPOU
100
AcDbBlockReference
  2
_OPEN
 10
327.1069374502467
 20
439.9837551620477
 30
0.0
 41
7.0
 42
7.0
 43
7.0
 50
180.0
  0
INSERT
  5
8313
330
4630
100
AcDbEntity
  8
SUNPOU
100
AcDbBlockReference
  2
_OPEN
 10
442.5285710917469
 20
439.9837551620477
 30
0.0
 41
7.0
 42
7.0
 43
7.0
  0
MTEXT
  5
8314
330
4630
100
AcDbEntity
  8
SUNPOU
100
AcDbMText
 10
384.8177542709967
 20
444.9837551620476
 30
0.0
 40
6.0
 41
0.0
 71
     5
 72
     1
  1
\A1;115
1001
ACAD
1000
MTEXTBEGIN
1070
    73
1070
     1
1070
    44
1040
1.0
1070
    74
1070
     0
1000
MTEXTEND
1000
MTEXTBEGIN
1070
    73
1070
     1
1070
    44
1040
1.0
1070
    74
1070
     0
1000
MTEXTEND
  0
POINT
  5
8315
330
4630
100
AcDbEntity
  8
DEFPOINTS
 62
     0
100
AcDbPoint
 10
327.1069374502467
 20
417.1233704063337
 30
0.0
  0
POINT
  5
8316
330
4630
100
AcDbEntity
  8
DEFPOINTS
 62
     0
100
AcDbPoint
 10
442.5285710917469
 20
417.1233704063337
 30
0.0
  0
POINT
  5
8317
330
4630
100
AcDbEntity
  8
DEFPOINTS
 62
     0
100
AcDbPoint
 10
442.5285710917469
 20
439.9837551620477
 30
0.0
  0
ENDBLK
  5
463B
330
4630
100
AcDbEntity
  8
0
100
AcDbBlockEnd
  0
BLOCK
  5
46F3
330
46E9
100
AcDbEntity
  8
0
100
AcDbBlockBegin
  2
*D5
 70
     1
 10
0.0
 20
0.0
 30
0.0
  3
*D5
  1

  0
LINE
  5
6034
330
46E9
100
AcDbEntity
  8
SUNPOU
100
AcDbLine
 10
371.5267961328036
 20
127.5007735545237
 30
0.0
 11
371.5267961328036
 21
104.5597947814477
 31
0.0
  0
LINE
  5
6035
330
46E9
100
AcDbEntity
  8
SUNPOU
100
AcDbLine
 10
436.6138284529505
 20
127.492149288221
 30
0.0
 11
436.6138284529505
 21
104.5597947814477
 31
0.0
  0
LINE
  5
6036
330
46E9
100
AcDbEntity
  8
SUNPOU
100
AcDbLine
 10
378.5267961328036
 20
107.5597947814477
 30
0.0
 11
429.6138284529503
 21
107.5597947814477
 31
0.0
  0
INSERT
  5
6037
330
46E9
100
AcDbEntity
  8
SUNPOU
100
AcDbBlockReference
  2
_OPEN
 10
371.5267961328036
 20
107.5597947814477
 30
0.0
 41
7.0
 42
7.0
 43
7.0
 50
180.0
  0
INSERT
  5
6038
330
46E9
100
AcDbEntity
  8
SUNPOU
100
AcDbBlockReference
  2
_OPEN
 10
436.6138284529505
 20
107.5597947814477
 30
0.0
 41
7.0
 42
7.0
 43
7.0
  0
MTEXT
  5
6039
330
46E9
100
AcDbEntity
  8
SUNPOU
100
AcDbMText
 10
404.0703122928769
 20
112.5597947814477
 30
0.0
 40
6.0
 41
0.0
 71
     5
 72
     1
  1
\A1;65
1001
ACAD
1000
MTEXTBEGIN
1070
    73
1070
     1
1070
    44
1040
1.0
1070
    74
1070
     0
1000
MTEXTEND
1000
MTEXTBEGIN
1070
    73
1070
     1
1070
    44
1040
1.0
1070
    74
1070
     0
1000
MTEXTEND
  0
POINT
  5
603A
330
46E9
100
AcDbEntity
  8
DEFPOINTS
 62
     0
100
AcDbPoint
 10
371.5267961328036
 20
133.5007735545237
 30
0.0
  0
POINT
  5
603B
330
46E9
100
AcDbEntity
  8
DEFPOINTS
 62
     0
100
AcDbPoint
 10
436.6138284529505
 20
133.4921492882211
 30
0.0
  0
POINT
  5
603C
330
46E9
100
AcDbEntity
  8
DEFPOINTS
 62
     0
100
AcDbPoint
 10
436.6138284529505
 20
107.5597947814477
 30
0.0
  0
ENDBLK
  5
46F4
330
46E9
100
AcDbEntity
  8
0
100
AcDbBlockEnd
  0
BLOCK
  5
47A2
330
4798
100
AcDbEntity
  8
0
100
AcDbBlockBegin
  2
*D6
 70
     1
 10
0.0
 20
0.0
 30
0.0
  3
*D6
  1

  0
LINE
  5
82F4
330
4798
100
AcDbEntity
  8
SUNPOU
100
AcDbLine
 10
321.1069374502466
 20
417.1233704063337
 30
0.0
 11
295.7870821157557
 21
417.1233704063337
 31
0.0
  0
LINE
  5
82F5
330
4798
100
AcDbEntity
  8
SUNPOU
100
AcDbLine
 10
321.1069374502466
 20
307.1233704063335
 30
0.0
 11
295.7870821157557
 21
307.1233704063335
 31
0.0
  0
LINE
  5
82F6
330
4798
100
AcDbEntity
  8
SUNPOU
100
AcDbLine
 10
298.7870821157557
 20
410.1233704063337
 30
0.0
 11
298.7870821157557
 21
314.1233704063334
 31
0.0
  0
INSERT
  5
82F7
330
4798
100
AcDbEntity
  8
SUNPOU
100
AcDbBlockReference
  2
_OPEN
 10
298.7870821157557
 20
417.1233704063337
 30
0.0
 41
7.0
 42
7.0
 43
7.0
 50
90.0
  0
INSERT
  5
82F8
330
4798
100
AcDbEntity
  8
SUNPOU
100
AcDbBlockReference
  2
_OPEN
 10
298.7870821157557
 20
307.1233704063335
 30
0.0
 41
7.0
 42
7.0
 43
7.0
 50
270.0
  0
MTEXT
  5
82F9
330
4798
100
AcDbEntity
  8
SUNPOU
100
AcDbMText
 10
293.7870821157556
 20
362.1233704063336
 30
0.0
 40
6.0
 41
0.0
 71
     5
 72
     1
  1
\A1;110
 11
0.0000000000000001
 21
1.0
 31
0.0
1001
ACAD
1000
MTEXTBEGIN
1070
    73
1070
     1
1070
    44
1040
1.0
1070
    74
1070
     0
1000
MTEXTEND
1000
MTEXTBEGIN
1070
    73
1070
     1
1070
    44
1040
1.0
1070
    74
1070
     0
1000
MTEXTEND
  0
POINT
  5
82FA
330
4798
100
AcDbEntity
  8
DEFPOINTS
 62
     0
100
AcDbPoint
 10
327.1069374502467
 20
417.1233704063337
 30
0.0
  0
POINT
  5
82FB
330
4798
100
AcDbEntity
  8
DEFPOINTS
 62
     0
100
AcDbPoint
 10
327.1069374502467
 20
307.1233704063335
 30
0.0
  0
POINT
  5
82FC
330
4798
100
AcDbEntity
  8
DEFPOINTS
 62
     0
100
AcDbPoint
 10
298.7870821157557
 20
307.1233704063335
 30
0.0
  0
ENDBLK
  5
47A3
330
4798
100
AcDbEntity
  8
0
100
AcDbBlockEnd
  0
BLOCK
  5
5A26
330
5A1A
100
AcDbEntity
  8
0
100
AcDbBlockBegin
  2
*D7
 70
     1
 10
0.0
 20
0.0
 30
0.0
  3
*D7
  1

  0
LINE
  5
607C
330
5A1A
100
AcDbEntity
  8
SUNPOU
100
AcDbLine
 10
569.0108833334328
 20
396.8904091662701
 30
0.0
 11
569.0108833334328
 21
410.6672526247284
 31
0.0
  0
LINE
  5
607D
330
5A1A
100
AcDbEntity
  8
SUNPOU
100
AcDbLine
 10
580.0956392549538
 20
394.6554462780639
 30
0.0
 11
580.0956392549538
 21
410.6672526247284
 31
0.0
  0
LINE
  5
607E
330
5A1A
100
AcDbEntity
  8
SUNPOU
100
AcDbLine
 10
562.0108833334328
 20
407.6672526247284
 30
0.0
 11
555.0108833334328
 21
407.6672526247284
 31
0.0
  0
LINE
  5
607F
330
5A1A
100
AcDbEntity
  8
SUNPOU
100
AcDbLine
 10
587.095639254954
 20
407.6672526247284
 30
0.0
 11
594.095639254954
 21
407.6672526247284
 31
0.0
  0
LINE
  5
6080
330
5A1A
100
AcDbEntity
  8
SUNPOU
100
AcDbLine
 10
569.0108833334328
 20
407.6672526247284
 30
0.0
 11
580.0956392549538
 21
407.6672526247284
 31
0.0
  0
INSERT
  5
6081
330
5A1A
100
AcDbEntity
  8
SUNPOU
100
AcDbBlockReference
  2
_OPEN
 10
569.0108833334328
 20
407.6672526247284
 30
0.0
 41
7.0
 42
7.0
 43
7.0
  0
INSERT
  5
6082
330
5A1A
100
AcDbEntity
  8
SUNPOU
100
AcDbBlockReference
  2
_OPEN
 10
580.0956392549538
 20
407.6672526247284
 30
0.0
 41
7.0
 42
7.0
 43
7.0
 50
180.0
  0
MTEXT
  5
6083
330
5A1A
100
AcDbEntity
  8
SUNPOU
100
AcDbMText
 10
574.5532612941935
 20
412.6672526247284
 30
0.0
 40
6.0
 41
0.0
 71
     5
 72
     1
  1
\A1;11
1001
ACAD
1000
MTEXTBEGIN
1070
    73
1070
     1
1070
    44
1040
1.0
1070
    74
1070
     0
1000
MTEXTEND
1000
MTEXTBEGIN
1070
    73
1070
     1
1070
    44
1040
1.0
1070
    74
1070
     0
1000
MTEXTEND
  0
POINT
  5
6084
330
5A1A
100
AcDbEntity
  8
DEFPOINTS
 62
     0
100
AcDbPoint
 10
569.0108833334328
 20
390.8904091662701
 30
0.0
  0
POINT
  5
6085
330
5A1A
100
AcDbEntity
  8
DEFPOINTS
 62
     0
100
AcDbPoint
 10
580.0956392549538
 20
388.6554462780639
 30
0.0
  0
POINT
  5
6086
330
5A1A
100
AcDbEntity
  8
DEFPOINTS
 62
     0
100
AcDbPoint
 10
580.0956392549538
 20
407.6672526247284
 30
0.0
  0
ENDBLK
  5
5A27
330
5A1A
100
AcDbEntity
  8
0
100
AcDbBlockEnd
  0
BLOCK
  5
5A33
330
5A29
100
AcDbEntity
  8
0
100
AcDbBlockBegin
  2
*D8
 70
     1
 10
0.0
 20
0.0
 30
0.0
  3
*D8
  1

  0
LINE
  5
6073
330
5A29
100
AcDbEntity
  8
SUNPOU
100
AcDbLine
 10
561.7836782105041
 20
375.2054498675638
 30
0.0
 11
561.7836782105041
 21
425.5968968890641
 31
0.0
  0
LINE
  5
6074
330
5A29
100
AcDbEntity
  8
SUNPOU
100
AcDbLine
 10
581.0956392549541
 20
373.949065666264
 30
0.0
 11
581.0956392549541
 21
425.5968968890641
 31
0.0
  0
LINE
  5
6075
330
5A29
100
AcDbEntity
  8
SUNPOU
100
AcDbLine
 10
568.7836782105041
 20
422.5968968890643
 30
0.0
 11
574.0956392549541
 21
422.5968968890643
 31
0.0
  0
INSERT
  5
6076
330
5A29
100
AcDbEntity
  8
SUNPOU
100
AcDbBlockReference
  2
_OPEN
 10
561.7836782105041
 20
422.5968968890643
 30
0.0
 41
7.0
 42
7.0
 43
7.0
 50
180.0
  0
INSERT
  5
6077
330
5A29
100
AcDbEntity
  8
SUNPOU
100
AcDbBlockReference
  2
_OPEN
 10
581.0956392549541
 20
422.5968968890643
 30
0.0
 41
7.0
 42
7.0
 43
7.0
  0
MTEXT
  5
6078
330
5A29
100
AcDbEntity
  8
SUNPOU
100
AcDbMText
 10
571.4396587327293
 20
427.5968968890643
 30
0.0
 40
6.0
 41
0.0
 71
     5
 72
     1
  1
\A1;19
1001
ACAD
1000
MTEXTBEGIN
1070
    73
1070
     1
1070
    44
1040
1.0
1070
    74
1070
     0
1000
MTEXTEND
1000
MTEXTBEGIN
1070
    73
1070
     1
1070
    44
1040
1.0
1070
    74
1070
     0
1000
MTEXTEND
  0
POINT
  5
6079
330
5A29
100
AcDbEntity
  8
DEFPOINTS
 62
     0
100
AcDbPoint
 10
561.7836782105041
 20
369.2054498675638
 30
0.0
  0
POINT
  5
607A
330
5A29
100
AcDbEntity
  8
DEFPOINTS
 62
     0
100
AcDbPoint
 10
581.0956392549541
 20
367.949065666264
 30
0.0
  0
POINT
  5
607B
330
5A29
100
AcDbEntity
  8
DEFPOINTS
 62
     0
100
AcDbPoint
 10
581.0956392549541
 20
422.5968968890643
 30
0.0
  0
ENDBLK
  5
5A34
330
5A29
100
AcDbEntity
  8
0
100
AcDbBlockEnd
  0
BLOCK
  5
5A40
330
5A36
100
AcDbEntity
  8
0
100
AcDbBlockBegin
  2
*D9
 70
     1
 10
0.0
 20
0.0
 30
0.0
  3
*D9
  1

  0
LINE
  5
6087
330
5A36
100
AcDbEntity
  8
SUNPOU
100
AcDbLine
 10
617.4789234934201
 20
399.9172523117638
 30
0.0
 11
617.4789234934201
 21
425.5968968890641
 31
0.0
  0
LINE
  5
6088
330
5A36
100
AcDbEntity
  8
SUNPOU
100
AcDbLine
 10
647.4789234934201
 20
399.9172523117638
 30
0.0
 11
647.4789234934201
 21
425.5968968890641
 31
0.0
  0
LINE
  5
6089
330
5A36
100
AcDbEntity
  8
SUNPOU
100
AcDbLine
 10
624.47892349342
 20
422.5968968890643
 30
0.0
 11
640.4789234934201
 21
422.5968968890643
 31
0.0
  0
INSERT
  5
608A
330
5A36
100
AcDbEntity
  8
SUNPOU
100
AcDbBlockReference
  2
_OPEN
 10
617.4789234934201
 20
422.5968968890643
 30
0.0
 41
7.0
 42
7.0
 43
7.0
 50
180.0
  0
INSERT
  5
608B
330
5A36
100
AcDbEntity
  8
SUNPOU
100
AcDbBlockReference
  2
_OPEN
 10
647.4789234934201
 20
422.5968968890643
 30
0.0
 41
7.0
 42
7.0
 43
7.0
  0
MTEXT
  5
608C
330
5A36
100
AcDbEntity
  8
SUNPOU
100
AcDbMText
 10
632.47892349342
 20
427.5968968890643
 30
0.0
 40
6.0
 41
0.0
 71
     5
 72
     1
  1
\A1;30
1001
ACAD
1000
MTEXTBEGIN
1070
    73
1070
     1
1070
    44
1040
1.0
1070
    74
1070
     0
1000
MTEXTEND
1000
MTEXTBEGIN
1070
    73
1070
     1
1070
    44
1040
1.0
1070
    74
1070
     0
1000
MTEXTEND
  0
POINT
  5
608D
330
5A36
100
AcDbEntity
  8
DEFPOINTS
 62
     0
100
AcDbPoint
 10
617.4789234934201
 20
393.9172523117638
 30
0.0
  0
POINT
  5
608E
330
5A36
100
AcDbEntity
  8
DEFPOINTS
 62
     0
100
AcDbPoint
 10
647.4789234934201
 20
393.9172523117638
 30
0.0
  0
POINT
  5
608F
330
5A36
100
AcDbEntity
  8
DEFPOINTS
 62
     0
100
AcDbPoint
 10
647.4789234934201
 20
422.5968968890643
 30
0.0
  0
ENDBLK
  5
5A41
330
5A36
100
AcDbEntity
  8
0
100
AcDbBlockEnd
  0
BLOCK
  5
5A4D
330
5A43
100
AcDbEntity
  8
0
100
AcDbBlockBegin
  2
*D10
 70
     1
 10
0.0
 20
0.0
 30
0.0
  3
*D10
  1

  0
LINE
  5
606A
330
5A43
100
AcDbEntity
  8
SUNPOU
100
AcDbLine
 10
653.47892349342
 20
393.9172523117638
 30
0.0
 11
675.2260913867011
 21
393.9172523117638
 31
0.0
  0
LINE
  5
606B
330
5A43
100
AcDbEntity
  8
SUNPOU
100
AcDbLine
 10
653.47892349342
 20
367.4490816587638
 30
0.0
 11
675.2260913867011
 21
367.4490816587638
 31
0.0
  0
LINE
  5
606C
330
5A43
100
AcDbEntity
  8
SUNPOU
100
AcDbLine
 10
672.2260913867009
 20
386.9172523117638
 30
0.0
 11
672.2260913867009
 21
374.4490816587638
 31
0.0
  0
INSERT
  5
606D
330
5A43
100
AcDbEntity
  8
SUNPOU
100
AcDbBlockReference
  2
_OPEN
 10
672.2260913867009
 20
393.9172523117638
 30
0.0
 41
7.0
 42
7.0
 43
7.0
 50
90.0
  0
INSERT
  5
606E
330
5A43
100
AcDbEntity
  8
SUNPOU
100
AcDbBlockReference
  2
_OPEN
 10
672.2260913867009
 20
367.4490816587638
 30
0.0
 41
7.0
 42
7.0
 43
7.0
 50
270.0
  0
MTEXT
  5
606F
330
5A43
100
AcDbEntity
  8
SUNPOU
100
AcDbMText
 10
667.226091386701
 20
380.6831669852638
 30
0.0
 40
6.0
 41
0.0
 71
     5
 72
     1
  1
\A1;26
 11
0.0000000000000001
 21
1.0
 31
0.0
1001
ACAD
1000
MTEXTBEGIN
1070
    73
1070
     1
1070
    44
1040
1.0
1070
    74
1070
     0
1000
MTEXTEND
1000
MTEXTBEGIN
1070
    73
1070
     1
1070
    44
1040
1.0
1070
    74
1070
     0
1000
MTEXTEND
  0
POINT
  5
6070
330
5A43
100
AcDbEntity
  8
DEFPOINTS
 62
     0
100
AcDbPoint
 10
647.4789234934201
 20
393.9172523117638
 30
0.0
  0
POINT
  5
6071
330
5A43
100
AcDbEntity
  8
DEFPOINTS
 62
     0
100
AcDbPoint
 10
647.4789234934202
 20
367.4490816587638
 30
0.0
  0
POINT
  5
6072
330
5A43
100
AcDbEntity
  8
DEFPOINTS
 62
     0
100
AcDbPoint
 10
672.2260913867009
 20
367.4490816587638
 30
0.0
  0
ENDBLK
  5
5A4E
330
5A43
100
AcDbEntity
  8
0
100
AcDbBlockEnd
  0
ENDSEC
  0
SECTION
  2
ENTITIES
  0
DIMENSION
  5
45FF
330
1A
100
AcDbEntity
  8
SUNPOU
100
AcDbDimension
  2
*D1
 10
298.7870821157557
 20
132.997977489304
 30
0.0
 11
293.7870821157556
 21
187.9433401897973
 31
0.0
 70
    32
  3
STANDARD
100
AcDbAlignedDimension
 13
326.1074029363468
 23
242.8887028902904
 33
0.0
 14
403.814651054243
 24
132.9979774893039
 34
0.0
 50
90.0
100
AcDbRotatedDimension
1001
ACAD
1000
DSTYLE
1002
{
1070
    41
1040
7.0
1070
    42
1040
6.0
1070
    43
1040
14.0
1070
    44
1040
3.0
1070
    73
1070
     0
1070
    74
1070
     0
1070
    77
1070
     3
1070
   140
1040
6.0
1070
   141
1040
150.0
1070
   147
1040
2.0
1070
   172
1070
     1
1070
   173
1070
     1
1070
   176
1070
   256
1070
   177
1070
   256
1070
   178
1070
   256
1070
   271
1070
     0
1070
   272
1070
     0
1070
   341
1005
6D
1070
     6
1000
OPEN
1070
     7
1000
OPEN
1070
   371
1070
    -1
1070
   372
1070
    -1
1002
}
  0
DIMENSION
  5
460C
330
1A
100
AcDbEntity
  8
SUNPOU
100
AcDbDimension
  2
*D2
 10
468.9022261891876
 20
132.9979774893039
 30
0.0
 11
463.9022261891875
 21
168.2079075484972
 31
0.0
 70
    32
  3
STANDARD
100
AcDbAlignedDimension
 13
440.687655808347
 23
203.4178376076905
 33
0.0
 14
403.814651054243
 24
132.9979774893039
 34
0.0
 50
90.0
100
AcDbRotatedDimension
1001
ACAD
1000
DSTYLE
1002
{
1070
    41
1040
7.0
1070
    42
1040
6.0
1070
    43
1040
14.0
1070
    44
1040
3.0
1070
    73
1070
     0
1070
    74
1070
     0
1070
    77
1070
     3
1070
   140
1040
6.0
1070
   141
1040
150.0
1070
   147
1040
2.0
1070
   172
1070
     1
1070
   173
1070
     1
1070
   176
1070
   256
1070
   177
1070
   256
1070
   178
1070
   256
1070
   271
1070
     0
1070
   272
1070
     0
1070
   341
1005
6D
1070
     6
1000
OPEN
1070
     7
1000
OPEN
1070
   371
1070
    -1
1070
   372
1070
    -1
1002
}
  0
DIMENSION
  5
4622
330
1A
100
AcDbEntity
  8
SUNPOU
100
AcDbDimension
  2
*D3
 10
442.5285710917469
 20
260.8146513512538
 30
0.0
 11
384.8177542709968
 21
265.8146513512538
 31
0.0
 70
    32
  3
STANDARD
100
AcDbAlignedDimension
 13
327.1069374502467
 23
227.2887028902907
 33
0.0
 14
442.5285710917469
 24
201.4178376076905
 34
0.0
100
AcDbRotatedDimension
1001
ACAD
1000
DSTYLE
1002
{
1070
    41
1040
7.0
1070
    42
1040
6.0
1070
    43
1040
14.0
1070
    44
1040
3.0
1070
    73
1070
     0
1070
    74
1070
     0
1070
    77
1070
     3
1070
   140
1040
6.0
1070
   141
1040
150.0
1070
   147
1040
2.0
1070
   172
1070
     1
1070
   173
1070
     1
1070
   176
1070
   256
1070
   177
1070
   256
1070
   178
1070
   256
1070
   271
1070
     0
1070
   272
1070
     0
1070
   341
1005
6D
1070
     6
1000
OPEN
1070
     7
1000
OPEN
1070
   371
1070
    -1
1070
   372
1070
    -1
1002
}
  0
DIMENSION
  5
462F
330
1A
100
AcDbEntity
  8
SUNPOU
100
AcDbDimension
  2
*D4
 10
442.5285710917469
 20
439.9837551620477
 30
0.0
 11
384.8177542709967
 21
444.9837551620476
 31
0.0
 70
    32
  3
STANDARD
100
AcDbAlignedDimension
 13
327.1069374502467
 23
417.1233704063337
 33
0.0
 14
442.5285710917469
 24
417.1233704063337
 34
0.0
100
AcDbRotatedDimension
1001
ACAD
1000
DSTYLE
1002
{
1070
    41
1040
7.0
1070
    42
1040
6.0
1070
    43
1040
14.0
1070
    44
1040
3.0
1070
    73
1070
     0
1070
    74
1070
     0
1070
    77
1070
     3
1070
   140
1040
6.0
1070
   141
1040
150.0
1070
   147
1040
2.0
1070
   172
1070
     1
1070
   173
1070
     1
1070
   176
1070
   256
1070
   177
1070
   256
1070
   178
1070
   256
1070
   271
1070
     0
1070
   272
1070
     0
1070
   341
1005
6D
1070
     6
1000
OPEN
1070
     7
1000
OPEN
1070
   371
1070
    -1
1070
   372
1070
    -1
1002
}
  0
DIMENSION
  5
46E8
330
1A
100
AcDbEntity
  8
SUNPOU
100
AcDbDimension
  2
*D5
 10
436.6138284529505
 20
107.5597947814477
 30
0.0
 11
404.0703122928769
 21
112.5597947814477
 31
0.0
 70
    32
  3
STANDARD
100
AcDbAlignedDimension
 13
371.5267961328036
 23
133.5007735545237
 33
0.0
 14
436.6138284529505
 24
133.4921492882211
 34
0.0
100
AcDbRotatedDimension
1001
ACAD
1000
DSTYLE
1002
{
1070
    41
1040
7.0
1070
    42
1040
6.0
1070
    43
1040
14.0
1070
    44
1040
3.0
1070
    73
1070
     0
1070
    74
1070
     0
1070
    77
1070
     3
1070
   140
1040
6.0
1070
   141
1040
150.0
1070
   147
1040
2.0
1070
   172
1070
     1
1070
   173
1070
     1
1070
   176
1070
   256
1070
   177
1070
   256
1070
   178
1070
   256
1070
   271
1070
     0
1070
   272
1070
     0
1070
   341
1005
6D
1070
     6
1000
OPEN
1070
     7
1000
OPEN
1070
   371
1070
    -1
1070
   372
1070
    -1
1002
}
  0
DIMENSION
  5
4797
330
1A
100
AcDbEntity
  8
SUNPOU
100
AcDbDimension
  2
*D6
 10
298.7870821157557
 20
307.1233704063335
 30
0.0
 11
293.7870821157556
 21
362.1233704063336
 31
0.0
 70
    32
  3
STANDARD
100
AcDbAlignedDimension
 13
327.1069374502467
 23
417.1233704063337
 33
0.0
 14
327.1069374502467
 24
307.1233704063335
 34
0.0
 50
90.0
100
AcDbRotatedDimension
1001
ACAD
1000
DSTYLE
1002
{
1070
    41
1040
7.0
1070
    42
1040
6.0
1070
    43
1040
14.0
1070
    44
1040
3.0
1070
    73
1070
     0
1070
    74
1070
     0
1070
    77
1070
     3
1070
   140
1040
6.0
1070
   141
1040
150.0
1070
   147
1040
2.0
1070
   172
1070
     1
1070
   173
1070
     1
1070
   176
1070
   256
1070
   177
1070
   256
1070
   178
1070
   256
1070
   271
1070
     0
1070
   272
1070
     0
1070
   341
1005
6D
1070
     6
1000
OPEN
1070
     7
1000
OPEN
1070
   371
1070
    -1
1070
   372
1070
    -1
1002
}
  0
LINE
  5
5889
330
1A
100
AcDbEntity
  8
SEIHIN
  6
CONTINUOUS
 62
     3
 48
5.0
100
AcDbLine
 10
575.319337465754
 20
370.5317629733638
 30
0.0
 11
580.3383723380537
 21
367.5203420500638
 31
0.0
  0
LINE
  5
588A
330
1A
100
AcDbEntity
  8
SEIHIN
  6
CONTINUOUS
 62
     3
 48
5.0
100
AcDbLine
 10
564.1794844945539
 20
368.8981984003638
 30
0.0
 11
566.8881819478541
 21
373.4126941557638
 31
0.0
  0
LINE
  5
588B
330
1A
100
AcDbEntity
  8
SEIHIN
  6
CONTINUOUS
 62
     3
 48
5.0
100
AcDbLine
 10
561.8504796350538
 20
369.4126843605638
 30
0.0
 11
564.9486992745538
 21
374.5763837597638
 31
0.0
  0
ARC
  5
588C
330
1A
100
AcDbEntity
  8
SEIHIN
  6
CONTINUOUS
 62
     3
 48
5.0
100
AcDbCircle
 10
580.3338332212537
 20
369.2723510885638
 30
0.0
 40
0.7618060337000001
100
AcDbArc
 50
0.0
 51
59.0362434679019
  0
LINE
  5
588D
330
1A
100
AcDbEntity
  8
SEIHIN
  6
CONTINUOUS
 62
     3
 48
5.0
100
AcDbLine
 10
562.2792541784539
 20
368.6554462780639
 30
0.0
 11
563.7507380317538
 21
368.6554462780639
 31
0.0
  0
LWPOLYLINE
  5
588E
330
1A
100
AcDbEntity
  8
SEIHIN
  6
CONTINUOUS
 62
     3
 48
5.0
100
AcDbPolyline
 90
       13
 70
   128
 43
0.0
 10
561.8504796350538
 20
369.4126843605638
 10
561.812072493354
 20
369.333670510564
 10
561.788088454254
 20
369.2491544191639
 10
561.7792679667541
 20
369.1617453159639
 10
561.7858833421538
 20
369.074141745264
 10
561.8077303466539
 20
368.9890482549639
 10
561.8441345070538
 20
368.9090919004638
 10
561.8939719329538
 20
368.8367411404638
 10
561.9557040147538
 20
368.7742296294639
 10
562.0274249238541
 20
368.7234872587639
 10
562.1069204510538
 20
368.6860805761638
 10
562.1917363644536
 20
368.6631644223638
 10
562.2792541784539
 20
368.6554462780639
  0
ARC
  5
588F
330
1A
100
AcDbEntity
  8
SEIHIN
  6
CONTINUOUS
 62
     3
 48
5.0
100
AcDbCircle
 10
563.7507380317538
 20
369.1554462780639
 30
0.0
 40
0.5
100
AcDbArc
 50
270.0
 51
329.0362434679019
  0
LWPOLYLINE
  5
5890
330
1A
100
AcDbEntity
  8
SEIHIN
  6
CONTINUOUS
 62
     3
 48
5.0
100
AcDbPolyline
 90
       13
 70
   128
 43
0.0
 10
580.3383723380537
 20
367.5203420500638
 10
580.4173891967537
 20
367.4819327603638
 10
580.5019085064541
 20
367.4579457726637
 10
580.5893209380541
 20
367.4491216270638
 10
580.6769278445541
 20
367.4557327476638
 10
580.762024575054
 20
367.4775750321638
 10
580.841983974154
 20
367.5139741528638
 10
580.9143374891539
 20
367.5638063752638
 10
580.9768513805537
 20
367.625533250064
 10
581.0275956834539
 20
367.6972491096638
 10
581.0650037903541
 20
367.7767399006639
 10
581.0879208167538
 20
367.8615515374639
 10
581.0956392549541
 20
367.949065666264
  0
LINE
  5
5891
330
1A
100
AcDbEntity
  8
SEIHIN
  6
CONTINUOUS
 62
     3
 48
5.0
100
AcDbLine
 10
581.0956392549541
 20
369.2723510885638
 30
0.0
 11
581.0956392549541
 21
367.949065666264
 31
0.0
  0
LINE
  5
5892
330
1A
100
AcDbEntity
  8
SEIHIN
  6
CONTINUOUS
 62
     3
 48
5.0
100
AcDbLine
 10
572.2642156316537
 20
391.6554462780639
 30
0.0
 11
574.8338332212536
 21
391.6554462780639
 31
0.0
  0
LINE
  5
5893
330
1A
100
AcDbEntity
  8
SEIHIN
  6
CONTINUOUS
 62
     3
 48
5.0
100
AcDbLine
 10
572.2642156316537
 20
393.9172523117638
 30
0.0
 11
574.8338332212536
 21
393.9172523117638
 31
0.0
  0
LINE
  5
5894
330
1A
100
AcDbEntity
  8
SEIHIN
  6
CONTINUOUS
 62
     3
 48
5.0
100
AcDbLine
 10
570.1008529446538
 20
374.583411679564
 30
0.0
 11
571.2668134977539
 21
390.7274808766639
 31
0.0
  0
LINE
  5
5895
330
1A
100
AcDbEntity
  8
SEIHIN
  6
CONTINUOUS
 62
     3
 48
5.0
100
AcDbLine
 10
567.9454523654539
 20
376.1382880713639
 30
0.0
 11
569.0108833333537
 21
390.8904091662638
 31
0.0
  0
LINE
  5
5896
330
1A
100
AcDbEntity
  8
SEIHIN
  6
CONTINUOUS
 62
     3
 48
5.0
100
AcDbLine
 10
567.3169284106537
 20
373.6554462780639
 30
0.0
 11
569.103450810854
 21
373.6554462780639
 31
0.0
  0
ARC
  5
5897
330
1A
100
AcDbEntity
  8
SEIHIN
  6
CONTINUOUS
 62
     3
 48
5.0
100
AcDbCircle
 10
567.3169284106537
 20
373.1554462780639
 30
0.0
 40
0.5
100
AcDbArc
 50
90.0
 51
149.0362434679019
  0
ARC
  5
5898
330
1A
100
AcDbEntity
  8
SEIHIN
  6
CONTINUOUS
 62
     3
 48
5.0
100
AcDbCircle
 10
567.3169284106537
 20
373.1554462780639
 30
0.0
 40
2.7618060337
100
AcDbArc
 50
90.0
 51
149.0362434679019
  0
ARC
  5
5899
330
1A
100
AcDbEntity
  8
SEIHIN
  6
CONTINUOUS
 62
     3
 48
5.0
100
AcDbCircle
 10
567.7078771951538
 20
376.1554462780639
 30
0.0
 40
0.2381939663
100
AcDbArc
 50
270.0
 51
355.869143766699
  0
LINE
  5
589A
330
1A
100
AcDbEntity
  8
SEIHIN
  6
CONTINUOUS
 62
     3
 48
5.0
100
AcDbLine
 10
567.3169284106537
 20
375.9172523117638
 30
0.0
 11
567.7078771951538
 21
375.9172523117638
 31
0.0
  0
ARC
  5
589B
330
1A
100
AcDbEntity
  8
SEIHIN
  6
CONTINUOUS
 62
     3
 48
5.0
100
AcDbCircle
 10
569.103450810854
 20
374.6554462780639
 30
0.0
 40
1.0
100
AcDbArc
 50
270.0
 51
355.869143766699
  0
ARC
  5
589C
330
1A
100
AcDbEntity
  8
SEIHIN
  6
CONTINUOUS
 62
     3
 48
5.0
100
AcDbCircle
 10
572.2642156316537
 20
390.6554462780638
 30
0.0
 40
3.2618060337
100
AcDbArc
 50
90.0
 51
175.8691437666989
  0
ARC
  5
589D
330
1A
100
AcDbEntity
  8
SEIHIN
  6
CONTINUOUS
 62
     3
 48
5.0
100
AcDbCircle
 10
572.2642156316537
 20
390.6554462780638
 30
0.0
 40
1.0
100
AcDbArc
 50
90.0
 51
175.8691437666989
  0
LINE
  5
589E
330
1A
100
AcDbEntity
  8
SEIHIN
  6
CONTINUOUS
 62
     3
 48
5.0
100
AcDbLine
 10
577.8338332212537
 20
388.6554462780639
 30
0.0
 11
577.8338332212537
 21
372.2385414675638
 31
0.0
  0
LINE
  5
589F
330
1A
100
AcDbEntity
  8
SEIHIN
  6
CONTINUOUS
 62
     3
 48
5.0
100
AcDbLine
 10
580.0956392549538
 20
388.6554462780639
 30
0.0
 11
580.0956392549538
 21
370.3036783355639
 31
0.0
  0
LINE
  5
58A0
330
1A
100
AcDbEntity
  8
SEIHIN
  6
CONTINUOUS
 62
     3
 48
5.0
100
AcDbLine
 10
577.0765853435541
 20
371.809795004664
 30
0.0
 11
575.5910810989538
 21
372.701097551464
 31
0.0
  0
LINE
  5
58A1
330
1A
100
AcDbEntity
  8
SEIHIN
  6
CONTINUOUS
 62
     3
 48
5.0
100
AcDbLine
 10
574.8338332212536
 20
372.2723510885638
 30
0.0
 11
574.8338332212536
 21
371.3892558990638
 31
0.0
  0
ARC
  5
58A2
330
1A
100
AcDbEntity
  8
SEIHIN
  6
CONTINUOUS
 62
     3
 48
5.0
100
AcDbCircle
 10
575.3338332212536
 20
372.2723510885638
 30
0.0
 40
0.5
100
AcDbArc
 50
59.0362434679019
 51
180.0
  0
ARC
  5
58A3
330
1A
100
AcDbEntity
  8
SEIHIN
  6
CONTINUOUS
 62
     3
 48
5.0
100
AcDbCircle
 10
575.8338332212537
 20
371.3892558990638
 30
0.0
 40
1.0
100
AcDbArc
 50
180.0
 51
239.0362434679019
  0
ARC
  5
58A4
330
1A
100
AcDbEntity
  8
SEIHIN
  6
CONTINUOUS
 62
     3
 48
5.0
100
AcDbCircle
 10
577.3338332212537
 20
372.2385414675638
 30
0.0
 40
0.5
100
AcDbArc
 50
239.0362434679019
 51
0.0
  0
LINE
  5
58A5
330
1A
100
AcDbEntity
  8
SEIHIN
  6
CONTINUOUS
 62
     3
 48
5.0
100
AcDbLine
 10
580.0956392549538
 20
370.3036783355639
 30
0.0
 11
580.7257791920541
 21
369.9255943732638
 31
0.0
  0
ARC
  5
58A6
330
1A
100
AcDbEntity
  8
SEIHIN
  6
CONTINUOUS
 62
     3
 48
5.0
100
AcDbCircle
 10
574.8338332212536
 20
388.6554462780639
 30
0.0
 40
5.2618060337
100
AcDbArc
 50
0.0
 51
90.0
  0
ARC
  5
58A7
330
1A
100
AcDbEntity
  8
SEIHIN
  6
CONTINUOUS
 62
     3
 48
5.0
100
AcDbCircle
 10
574.8338332212536
 20
388.6554462780639
 30
0.0
 40
3.0
100
AcDbArc
 50
0.0
 51
90.0
  0
LINE
  5
58B6
330
1A
100
AcDbEntity
  8
SEIHIN
  6
CONTINUOUS
 62
     3
 48
5.0
100
AcDbLine
 10
617.4789234934198
 20
393.9172523117638
 30
0.0
 11
617.4789234934201
 21
367.4490816587638
 31
0.0
  0
LINE
  5
58B9
330
1A
100
AcDbEntity
  8
SEIHIN
  6
CONTINUOUS
 62
     3
 48
5.0
100
AcDbLine
 10
647.4789234934202
 20
367.4490816587638
 30
0.0
 11
647.4789234934201
 21
393.9172523117638
 31
0.0
  0
LINE
  5
595C
330
1A
100
AcDbEntity
  8
CENTER_L
 48
6.0
100
AcDbLine
 10
632.4789234934199
 20
362.839088908566
 30
0.0
 11
632.47892349342
 21
399.8771846204601
 31
0.0
  0
TEXT
  5
5960
330
1A
100
AcDbEntity
  8
SUNPOU
 62
     4
100
AcDbText
 10
574.3826938136488
 20
337.0659762881738
 30
0.0
 40
8.0
  1
クリップ　２個
100
AcDbText
  0
DIMENSION
  5
5A19
330
1A
100
AcDbEntity
  8
SUNPOU
100
AcDbDimension
  2
*D7
 10
580.0956392549538
 20
407.6672526247284
 30
0.0
 11
574.5532612941935
 21
412.6672526247284
 31
0.0
 70
    32
  3
STANDARD
100
AcDbAlignedDimension
 13
569.0108833334328
 23
390.8904091662701
 33
0.0
 14
580.0956392549538
 24
388.6554462780639
 34
0.0
100
AcDbRotatedDimension
1001
ACAD
1000
DSTYLE
1002
{
1070
    41
1040
7.0
1070
    42
1040
6.0
1070
    43
1040
14.0
1070
    44
1040
3.0
1070
    73
1070
     0
1070
    74
1070
     0
1070
    77
1070
     3
1070
   140
1040
6.0
1070
   141
1040
150.0
1070
   147
1040
2.0
1070
   172
1070
     1
1070
   173
1070
     1
1070
   176
1070
   256
1070
   177
1070
   256
1070
   178
1070
   256
1070
   271
1070
     0
1070
   272
1070
     0
1070
   341
1005
6D
1070
     6
1000
OPEN
1070
     7
1000
OPEN
1070
   371
1070
    -1
1070
   372
1070
    -1
1002
}
  0
DIMENSION
  5
5A28
330
1A
100
AcDbEntity
  8
SUNPOU
100
AcDbDimension
  2
*D8
 10
581.0956392549541
 20
422.5968968890643
 30
0.0
 11
571.4396587327293
 21
427.5968968890643
 31
0.0
 70
    32
  3
STANDARD
100
AcDbAlignedDimension
 13
561.7836782105041
 23
369.2054498675638
 33
0.0
 14
581.0956392549541
 24
367.949065666264
 34
0.0
100
AcDbRotatedDimension
1001
ACAD
1000
DSTYLE
1002
{
1070
    41
1040
7.0
1070
    42
1040
6.0
1070
    43
1040
14.0
1070
    44
1040
3.0
1070
    73
1070
     0
1070
    74
1070
     0
1070
    77
1070
     3
1070
   140
1040
6.0
1070
   141
1040
150.0
1070
   147
1040
2.0
1070
   172
1070
     1
1070
   173
1070
     1
1070
   176
1070
   256
1070
   177
1070
   256
1070
   178
1070
   256
1070
   271
1070
     0
1070
   272
1070
     0
1070
   341
1005
6D
1070
     6
1000
OPEN
1070
     7
1000
OPEN
1070
   371
1070
    -1
1070
   372
1070
    -1
1002
}
  0
DIMENSION
  5
5A35
330
1A
100
AcDbEntity
  8
SUNPOU
100
AcDbDimension
  2
*D9
 10
647.4789234934201
 20
422.5968968890643
 30
0.0
 11
632.47892349342
 21
427.5968968890643
 31
0.0
 70
    32
  3
STANDARD
100
AcDbAlignedDimension
 13
617.4789234934201
 23
393.9172523117638
 33
0.0
 14
647.4789234934201
 24
393.9172523117638
 34
0.0
100
AcDbRotatedDimension
1001
ACAD
1000
DSTYLE
1002
{
1070
    41
1040
7.0
1070
    42
1040
6.0
1070
    43
1040
14.0
1070
    44
1040
3.0
1070
    73
1070
     0
1070
    74
1070
     0
1070
    77
1070
     3
1070
   140
1040
6.0
1070
   141
1040
150.0
1070
   147
1040
2.0
1070
   172
1070
     1
1070
   173
1070
     1
1070
   176
1070
   256
1070
   177
1070
   256
1070
   178
1070
   256
1070
   271
1070
     0
1070
   272
1070
     0
1070
   341
1005
6D
1070
     6
1000
OPEN
1070
     7
1000
OPEN
1070
   371
1070
    -1
1070
   372
1070
    -1
1002
}
  0
DIMENSION
  5
5A42
330
1A
100
AcDbEntity
  8
SUNPOU
100
AcDbDimension
  2
*D10
 10
672.2260913867009
 20
367.4490816587638
 30
0.0
 11
667.226091386701
 21
380.6831669852638
 31
0.0
 70
    32
  3
STANDARD
100
AcDbAlignedDimension
 13
647.4789234934201
 23
393.9172523117638
 33
0.0
 14
647.4789234934202
 24
367.4490816587638
 34
0.0
 50
90.0
100
AcDbRotatedDimension
1001
ACAD
1000
DSTYLE
1002
{
1070
    41
1040
7.0
1070
    42
1040
6.0
1070
    43
1040
14.0
1070
    44
1040
3.0
1070
    73
1070
     0
1070
    74
1070
     0
1070
    77
1070
     3
1070
   140
1040
6.0
1070
   141
1040
150.0
1070
   147
1040
2.0
1070
   172
1070
     1
1070
   173
1070
     1
1070
   176
1070
   256
1070
   177
1070
   256
1070
   178
1070
   256
1070
   271
1070
     0
1070
   272
1070
     0
1070
   341
1005
6D
1070
     6
1000
OPEN
1070
     7
1000
OPEN
1070
   371
1070
    -1
1070
   372
1070
    -1
1002
}
  0
LINE
  5
5C7A
330
1A
100
AcDbEntity
  8
SEIHIN
100
AcDbLine
 10
617.4789234934198
 20
393.9172523117638
 30
0.0
 11
647.4789234934202
 21
393.9172523117638
 31
0.0
  0
LINE
  5
5C8D
330
1A
100
AcDbEntity
  8
SEIHIN
100
AcDbLine
 10
617.4789234934198
 20
370.3036783355639
 30
0.0
 11
647.4789234934202
 21
370.3036783355639
 31
0.0
  0
LINE
  5
5C8E
330
1A
100
AcDbEntity
  8
SEIHIN
100
AcDbLine
 10
617.4789234934201
 20
367.4490816587638
 30
0.0
 11
647.4789234934202
 21
367.4490816587638
 31
0.0
  0
LINE
  5
5F7F
330
1A
100
AcDbEntity
  8
ZUWAKU
100
AcDbLine
 10
208.646601303624
 20
15.19999986828872
 30
0.0
 11
447.4243639845473
 21
15.19999986828871
 31
0.0
  0
LINE
  5
5F80
330
1A
100
AcDbEntity
  8
ZUWAKU
100
AcDbLine
 10
208.646601303624
 20
15.59999986828871
 30
0.0
 11
447.4243639845473
 21
15.59999986828872
 31
0.0
  0
LINE
  5
5F81
330
1A
100
AcDbEntity
  8
ZUWAKU
100
AcDbLine
 10
208.646601303624
 20
15.3999998682887
 30
0.0
 11
447.4243639845473
 21
15.3999998682887
 31
0.0
  0
LINE
  5
5F82
330
1A
100
AcDbEntity
  8
ZUWAKU
100
AcDbLine
 10
0.0000000135560185
 20
30.79999986828869
 30
0.0
 11
797.4000000135559
 21
30.79999986828869
 31
0.0
  0
LINE
  5
5F83
330
1A
100
AcDbEntity
  8
ZUWAKU
100
AcDbLine
 10
0.0000000135560185
 20
30.59999986828869
 30
0.0
 11
797.4000000135559
 21
30.59999986828869
 31
0.0
  0
LINE
  5
5F84
330
1A
100
AcDbEntity
  8
ZUWAKU
100
AcDbLine
 10
0.0000000135560185
 20
30.39999986828869
 30
0.0
 11
797.4000000135559
 21
30.39999986828869
 31
0.0
  0
LINE
  5
5F85
330
1A
100
AcDbEntity
  8
ZUWAKU
100
AcDbLine
 10
0.0000000135560185
 20
30.19999986828867
 30
0.0
 11
797.4000000135559
 21
30.19999986828867
 31
0.0
  0
LINE
  5
5F86
330
1A
100
AcDbEntity
  8
ZUWAKU
100
AcDbLine
 10
0.0000000135560185
 20
29.99999986828868
 30
0.0
 11
797.4000000135559
 21
29.99999986828868
 31
0.0
  0
LWPOLYLINE
  5
5F87
330
1A
100
AcDbEntity
  8
ZUWAKU
100
AcDbPolyline
 90
        4
 70
     1
 43
0.0
 10
0.2000000135559503
 20
551.3999998682886
 10
0.2000000135559503
 20
0.1999998682887281
 10
797.4000000135559
 20
0.1999998682887511
 10
797.4000000135561
 20
551.3999998682886
  0
LWPOLYLINE
  5
5F88
330
1A
100
AcDbEntity
  8
ZUWAKU
100
AcDbPolyline
 90
        4
 70
     1
 43
0.0
 10
0.6000000135559276
 20
550.9999998682888
 10
0.6000000135559276
 20
0.5999998682887055
 10
797.0000000135562
 20
0.5999998682887516
 10
797.000000013556
 20
550.9999998682888
  0
LWPOLYLINE
  5
5F89
330
1A
100
AcDbEntity
  8
ZUWAKU
100
AcDbPolyline
 90
        4
 70
     1
 43
0.0
 10
0.0000000135560185
 20
551.5999998682887
 10
0.0000000135560185
 20
-0.0000001317113174
 10
797.600000013556
 20
-0.0000001317112499
 10
797.600000013556
 20
551.5999998682888
  0
LWPOLYLINE
  5
5F8A
330
1A
100
AcDbEntity
  8
ZUWAKU
100
AcDbPolyline
 90
        4
 70
     1
 43
0.0
 10
0.4000000135559958
 20
551.1999998682886
 10
0.4000000135559958
 20
0.3999998682887735
 10
797.200000013556
 20
0.3999998682887504
 10
797.200000013556
 20
551.1999998682886
  0
LWPOLYLINE
  5
5F8B
330
1A
100
AcDbEntity
  8
ZUWAKU
100
AcDbPolyline
 90
        4
 70
     1
 43
0.0
 10
0.800000013555973
 20
550.7999998682886
 10
0.800000013555973
 20
0.7999998682887508
 10
796.8000000135559
 20
0.7999998682887508
 10
796.8000000135559
 20
550.7999998682886
  0
TEXT
  5
5F8C
330
1A
100
AcDbEntity
  8
MOJI
100
AcDbText
 10
92.95778960172516
 20
12.74117799856344
 30
0.0
 40
6.0
  1
アートフェイスＶＭ１２０
 41
0.9
  7
ｽﾀｲﾙ1
100
AcDbText
  0
HATCH
  5
5F8D
330
1A
100
AcDbEntity
  8
ZUWAKU
100
AcDbHatch
 10
0.0
 20
0.0
 30
0.0
210
0.0
220
0.0
230
1.0
  2
ANSI37
 70
     0
 71
     0
 91
        8
 92
        7
 72
     1
 73
     1
 93
       24
 10
14.50226267467587
 20
17.64484834927226
 42
-0.1989123673796348
 10
14.09221216833714
 20
18.6347978429333
 42
0.0
 10
14.09221216833714
 20
19.92499986828869
 42
-0.4142135623730912
 10
14.6172121683371
 20
20.44999986828867
 42
0.0
 10
17.59221216833701
 20
20.44999986828867
 42
0.4142135623731546
 10
18.11721216833712
 20
20.97499986828867
 42
0.0
 10
18.11721216833712
 20
22.72499986828869
 42
0.4142135623731586
 10
17.59221216833701
 20
23.24999986828867
 42
0.0
 10
14.09221216833714
 20
23.24999986828867
 42
0.4142135623730928
 10
11.29221216833718
 20
20.44999986828871
 42
0.0
 10
11.29221216833718
 20
18.63479784293344
 42
0.1989123673796619
 10
12.52236368735361
 20
15.66494936194983
 42
0.0
 10
15.43216166199828
 20
12.75515138730517
 42
-0.1989123673796613
 10
15.84221216833713
 20
11.76520189364399
 42
0.0
 10
15.84221216833713
 20
10.47499986828867
 42
-0.4142135623730911
 10
15.31721216833715
 20
9.949999868288683
 42
0.0
 10
12.34221216833724
 20
9.949999868288683
 42
0.4142135623731526
 10
11.81721216833715
 20
9.424999868288695
 42
0.0
 10
11.81721216833715
 20
7.674999868288675
 42
0.4142135623731526
 10
12.34221216833724
 20
7.149999868288687
 42
0.0
 10
15.84221216833713
 20
7.149999868288687
 42
0.4142135623731045
 10
18.64221216833721
 20
9.949999868288664
 42
0.0
 10
18.64221216833721
 20
11.76520189364393
 42
0.1989123673796604
 10
17.41206064932065
 20
14.73505037462747
 42
0.0
 97
        0
 92
        7
 72
     1
 73
     1
 93
       16
 10
23.54221216833717
 20
19.04999986828869
 42
-0.4142135623730935
 10
24.94221216833716
 20
20.44999986828867
 42
0.0
 10
26.86721216833712
 20
20.44999986828867
 42
0.4142135623731546
 10
27.39221216833721
 20
20.97499986828867
 42
0.0
 10
27.39221216833721
 20
22.72499986828869
 42
0.4142135623730951
 10
26.86721216833722
 20
23.24999986828867
 42
0.0
 10
24.94221216833705
 20
23.24999986828863
 42
0.4142135623730893
 10
20.74221216833711
 20
19.04999986828862
 42
0.0
 10
20.74221216833711
 20
11.34999986828871
 42
0.4142135623730969
 10
24.94221216833716
 20
7.149999868288687
 42
0.0
 10
26.86721216833712
 20
7.149999868288687
 42
0.4142135623731526
 10
27.39221216833721
 20
7.674999868288675
 42
0.0
 10
27.39221216833721
 20
9.424999868288695
 42
0.4142135623730891
 10
26.86721216833722
 20
9.949999868288683
 42
0.0
 10
24.94221216833716
 20
9.949999868288683
 42
-0.4142135623730928
 10
23.54221216833717
 20
11.34999986828866
 42
0.0
 97
        0
 92
        7
 72
     1
 73
     1
 93
        2
 10
24.24221216833712
 20
15.19999986828867
 42
1.0
 10
27.74221216833712
 20
15.19999986828867
 42
1.0
 97
        0
 92
        7
 72
     1
 73
     1
 93
       26
 10
37.31485865051513
 20
19.2050470618521
 42
0.0
 10
38.37649828365295
 20
22.5669059001217
 42
0.5069206636600134
 10
37.87586738445759
 20
23.24999986828867
 42
0.0
 10
36.17697800484835
 20
23.24999986828867
 42
0.3272098845218764
 10
35.676347105653
 20
22.88309383645565
 42
0.0
 10
33.80807723102121
 20
16.96690590012176
 42
-0.3272098845219541
 10
33.30744633182575
 20
16.59999986828868
 42
0.0
 10
33.1672121683373
 20
16.59999986828868
 42
-0.4142135623731526
 10
32.64221216833721
 20
17.12499986828866
 42
0.0
 10
32.64221216833721
 20
22.72499986828869
 42
0.4142135623730951
 10
32.11721216833723
 20
23.24999986828867
 42
0.0
 10
30.36721216833711
 20
23.24999986828867
 42
0.4142135623730871
 10
29.84221216833714
 20
22.7249998682887
 42
0.0
 10
29.84221216833714
 20
7.674999868288675
 42
0.4142135623730891
 10
30.36721216833711
 20
7.149999868288687
 42
0.0
 10
32.11721216833712
 20
7.149999868288687
 42
0.4142135623731526
 10
32.64221216833721
 20
7.674999868288675
 42
0.0
 10
32.64221216833721
 20
13.27499986828868
 42
-0.4142135623731526
 10
33.1672121683373
 20
13.79999986828868
 42
0.0
 10
33.30744633182587
 20
13.79999986828868
 42
-0.3272098845218915
 10
33.80807723102121
 20
13.43309383645561
 42
0.0
 10
35.676347105653
 20
7.516905900121758
 42
0.3272098845218902
 10
36.17697800484835
 20
7.149999868288687
 42
0.0
 10
37.87586738445759
 20
7.149999868288687
 42
0.5069206636600336
 10
38.37649828365295
 20
7.833093836455695
 42
0.0
 10
36.05010690517929
 20
15.19999986828882
 42
0.0
 97
        0
 92
        7
 72
     1
 73
     1
 93
        8
 10
43.4922121683371
 20
22.7249998682887
 42
0.4142135623731546
 10
42.96721216833701
 20
23.24999986828867
 42
0.0
 10
41.21721216833726
 20
23.24999986828867
 42
0.4142135623731507
 10
40.69221216833716
 20
22.7249998682887
 42
0.0
 10
40.69221216833716
 20
7.674999868288675
 42
0.4142135623731526
 10
41.21721216833726
 20
7.149999868288687
 42
0.0
 10
42.96721216833701
 20
7.149999868288687
 42
0.4142135623731526
 10
43.4922121683371
 20
7.674999868288675
 42
0.0
 97
        0
 92
        7
 72
     1
 73
     1
 93
       24
 10
48.3922121683372
 20
19.92499986828869
 42
-0.4142135623731546
 10
48.9172121683373
 20
20.44999986828867
 42
0.0
 10
51.89221216833721
 20
20.44999986828867
 42
0.4142135623730911
 10
52.41721216833718
 20
20.97499986828867
 42
0.0
 10
52.41721216833718
 20
22.72499986828869
 42
0.4142135623730952
 10
51.89221216833721
 20
23.24999986828867
 42
0.0
 10
48.3922121683372
 20
23.24999986828867
 42
0.4142135623731048
 10
45.59221216833714
 20
20.44999986828871
 42
0.0
 10
45.59221216833714
 20
18.63479784293344
 42
0.1989123673796613
 10
46.82236368735368
 20
15.66494936194989
 42
0.0
 10
49.73216166199835
 20
12.75515138730522
 42
-0.1989123673796402
 10
50.14221216833721
 20
11.76520189364415
 42
0.0
 10
50.14221216833721
 20
10.47499986828867
 42
-0.4142135623730911
 10
49.61721216833723
 20
9.949999868288683
 42
0.0
 10
46.64221216833721
 20
9.949999868288683
 42
0.4142135623731526
 10
46.11721216833712
 20
9.424999868288695
 42
0.0
 10
46.11721216833712
 20
7.674999868288675
 42
0.4142135623730891
 10
46.64221216833709
 20
7.149999868288687
 42
0.0
 10
50.14221216833721
 20
7.149999868288687
 42
0.4142135623730925
 10
52.94221216833715
 20
9.949999868288664
 42
0.0
 10
52.94221216833715
 20
11.76520189364393
 42
0.1989123673796675
 10
51.71206064932062
 20
14.73505037462759
 42
0.0
 10
48.80226267467604
 20
17.6448483492721
 42
-0.1989123673796652
 10
48.3922121683372
 20
18.63479784293326
 42
0.0
 97
        0
 92
        7
 72
     1
 73
     1
 93
       16
 10
57.84221216833714
 20
22.72499986828866
 42
0.414213562373103
 10
57.31721216833715
 20
23.24999986828867
 42
0.0
 10
55.56721216833715
 20
23.24999986828867
 42
0.4142135623730871
 10
55.04221216833718
 20
22.7249998682887
 42
0.0
 10
55.04221216833718
 20
9.949999868288664
 42
0.4142135623730927
 10
57.84221216833714
 20
7.149999868288687
 42
0.0
 10
61.34221216833714
 20
7.149999868288687
 42
0.4142135623731045
 10
64.14221216833721
 20
9.949999868288664
 42
0.0
 10
64.14221216833721
 20
22.72499986828869
 42
0.4142135623730951
 10
63.61721216833723
 20
23.24999986828867
 42
0.0
 10
61.86721216833712
 20
23.24999986828867
 42
0.4142135623730871
 10
61.34221216833714
 20
22.7249998682887
 42
0.0
 10
61.34221216833714
 20
10.99999986828865
 42
-0.4142135623730879
 10
60.29221216833718
 20
9.949999868288683
 42
0.0
 10
58.89221216833721
 20
9.949999868288683
 42
-0.4142135623731197
 10
57.84221216833714
 20
10.99999986828865
 42
0.0
 97
        0
 92
        7
 72
     1
 73
     1
 93
        8
 10
69.04221216833718
 20
22.7249998682887
 42
0.4142135623730871
 10
68.51721216833721
 20
23.24999986828867
 42
0.0
 10
66.76721216833721
 20
23.24999986828867
 42
0.4142135623731507
 10
66.24221216833712
 20
22.7249998682887
 42
0.0
 10
66.24221216833712
 20
7.674999868288675
 42
0.4142135623730891
 10
66.76721216833709
 20
7.149999868288687
 42
0.0
 10
68.51721216833721
 20
7.149999868288687
 42
0.4142135623730891
 10
69.04221216833718
 20
7.674999868288675
 42
0.0
 97
        0
 75
     0
 76
     1
 52
0.0
 41
0.2
 77
     0
 78
     2
 53
45.0
 43
-900.942304321123
 44
-13.20000013171124
 45
-0.4490128060534576
 46
0.4490128060534577
 79
     0
 53
135.0
 43
-900.942304321123
 44
-13.20000013171124
 45
-0.4490128060534577
 46
-0.4490128060534576
 79
     0
 47
0.057451373970553
 98
        8
 10
16.07985497657931
 20
15.16717351417423
 10
22.40451501999519
 20
18.84406205073969
 10
25.16436789921566
 20
15.5118815143594
 10
30.91405999519315
 20
16.20129751473017
 10
41.83847203251274
 20
16.6609097822718
 10
46.89820090868557
 20
19.41857618469589
 10
56.55768598595636
 20
18.72915778338369
 10
67.82707963317875
 20
19.18877005092531
  0
LINE
  5
5F8E
330
1A
100
AcDbEntity
  8
ZUWAKU
100
AcDbLine
 10
24.94221216833716
 20
23.24999986828863
 30
0.0
 11
26.86721216833712
 21
23.24999986828867
 31
0.0
  0
LINE
  5
5F8F
330
1A
100
AcDbEntity
  8
ZUWAKU
100
AcDbLine
 10
26.86721216833712
 20
20.44999986828867
 30
0.0
 11
24.94221216833716
 21
20.44999986828867
 31
0.0
  0
LINE
  5
5F90
330
1A
100
AcDbEntity
  8
ZUWAKU
100
AcDbLine
 10
24.94221216833716
 20
9.949999868288683
 30
0.0
 11
26.86721216833712
 21
9.949999868288683
 31
0.0
  0
LINE
  5
5F91
330
1A
100
AcDbEntity
  8
ZUWAKU
100
AcDbLine
 10
26.86721216833712
 20
7.149999868288687
 30
0.0
 11
24.94221216833716
 21
7.149999868288687
 31
0.0
  0
CIRCLE
  5
5F92
330
1A
100
AcDbEntity
  8
ZUWAKU
100
AcDbCircle
 10
25.99221216833711
 20
15.19999986828867
 30
0.0
 40
1.75
  0
ARC
  5
5F93
330
1A
100
AcDbEntity
  8
ZUWAKU
100
AcDbCircle
 10
15.49221216833712
 20
18.63479784293337
 30
0.0
 40
1.399999999999999
100
AcDbArc
 50
180.0000000000015
 51
224.9999999999988
  0
LINE
  5
5F94
330
1A
100
AcDbEntity
  8
ZUWAKU
100
AcDbLine
 10
23.54221216833717
 20
19.04999986828867
 30
0.0
 11
23.54221216833717
 21
11.34999986828868
 31
0.0
  0
LINE
  5
5F95
330
1A
100
AcDbEntity
  8
ZUWAKU
100
AcDbLine
 10
20.74221216833711
 20
11.34999986828868
 30
0.0
 11
20.74221216833711
 21
19.04999986828864
 31
0.0
  0
ARC
  5
5F96
330
1A
100
AcDbEntity
  8
ZUWAKU
100
AcDbCircle
 10
15.49221216833712
 20
18.63479784293337
 30
0.0
 40
4.199999999999998
100
AcDbArc
 50
180.0
 51
225.0
  0
ARC
  5
5F97
330
1A
100
AcDbEntity
  8
ZUWAKU
100
AcDbCircle
 10
15.84221216833713
 20
9.949999868288683
 30
0.0
 40
2.799999999999998
100
AcDbArc
 50
270.0
 51
0.0
  0
ARC
  5
5F98
330
1A
100
AcDbEntity
  8
ZUWAKU
100
AcDbCircle
 10
24.94221216833716
 20
11.34999986828868
 30
0.0
 40
4.199999999999998
100
AcDbArc
 50
180.0
 51
270.0
  0
ARC
  5
5F99
330
1A
100
AcDbEntity
  8
ZUWAKU
100
AcDbCircle
 10
14.44221216833716
 20
11.76520189364399
 30
0.0
 40
4.199999999999998
100
AcDbArc
 50
0.0
 51
45.0
  0
LINE
  5
5F9A
330
1A
100
AcDbEntity
  8
ZUWAKU
100
AcDbLine
 10
17.41206064932065
 20
14.7350503746275
 30
0.0
 11
14.50226267467598
 21
17.64484834927218
 31
0.0
  0
LINE
  5
5F9B
330
1A
100
AcDbEntity
  8
ZUWAKU
100
AcDbLine
 10
15.84221216833713
 20
10.47499986828869
 30
0.0
 11
15.84221216833713
 21
11.76520189364403
 31
0.0
  0
ARC
  5
5F9C
330
1A
100
AcDbEntity
  8
ZUWAKU
100
AcDbCircle
 10
15.31721216833715
 20
10.47499986828869
 30
0.0
 40
0.525
100
AcDbArc
 50
270.0
 51
0.0
  0
ARC
  5
5F9D
330
1A
100
AcDbEntity
  8
ZUWAKU
100
AcDbCircle
 10
14.44221216833716
 20
11.76520189364403
 30
0.0
 40
1.399999999999999
100
AcDbArc
 50
0.0
 51
45.0
  0
LINE
  5
5F9E
330
1A
100
AcDbEntity
  8
ZUWAKU
100
AcDbLine
 10
11.81721216833715
 20
7.674999868288685
 30
0.0
 11
11.81721216833715
 21
9.424999868288685
 31
0.0
  0
ARC
  5
5F9F
330
1A
100
AcDbEntity
  8
ZUWAKU
100
AcDbCircle
 10
12.34221216833714
 20
7.674999868288685
 30
0.0
 40
0.525
100
AcDbArc
 50
180.0
 51
270.0
  0
ARC
  5
5FA0
330
1A
100
AcDbEntity
  8
ZUWAKU
100
AcDbCircle
 10
12.34221216833714
 20
9.424999868288685
 30
0.0
 40
0.525
100
AcDbArc
 50
90.0
 51
180.0
  0
LINE
  5
5FA1
330
1A
100
AcDbEntity
  8
ZUWAKU
100
AcDbLine
 10
12.34221216833714
 20
7.149999868288687
 30
0.0
 11
15.84221216833713
 21
7.149999868288687
 31
0.0
  0
LINE
  5
5FA2
330
1A
100
AcDbEntity
  8
ZUWAKU
100
AcDbLine
 10
12.34221216833714
 20
9.949999868288683
 30
0.0
 11
15.31721216833715
 21
9.949999868288683
 31
0.0
  0
LINE
  5
5FA3
330
1A
100
AcDbEntity
  8
ZUWAKU
100
AcDbLine
 10
12.52236368735361
 20
15.66494936194986
 30
0.0
 11
15.43216166199828
 21
12.7551513873052
 31
0.0
  0
LINE
  5
5FA4
330
1A
100
AcDbEntity
  8
ZUWAKU
100
AcDbLine
 10
18.64221216833721
 20
9.949999868288683
 30
0.0
 11
18.64221216833721
 21
11.76520189364403
 31
0.0
  0
ARC
  5
5FA5
330
1A
100
AcDbEntity
  8
ZUWAKU
100
AcDbCircle
 10
24.94221216833716
 20
11.34999986828868
 30
0.0
 40
1.399999999999999
100
AcDbArc
 50
180.0
 51
270.0
  0
ARC
  5
5FA6
330
1A
100
AcDbEntity
  8
ZUWAKU
100
AcDbCircle
 10
17.59221216833714
 20
22.72499986828868
 30
0.0
 40
0.525
100
AcDbArc
 50
0.0
 51
90.0
  0
ARC
  5
5FA7
330
1A
100
AcDbEntity
  8
ZUWAKU
100
AcDbCircle
 10
17.59221216833714
 20
20.97499986828867
 30
0.0
 40
0.525
100
AcDbArc
 50
270.0
 51
0.0
  0
LINE
  5
5FA8
330
1A
100
AcDbEntity
  8
ZUWAKU
100
AcDbLine
 10
14.09221216833714
 20
23.24999986828867
 30
0.0
 11
17.59221216833714
 21
23.24999986828867
 31
0.0
  0
ARC
  5
5FA9
330
1A
100
AcDbEntity
  8
ZUWAKU
100
AcDbCircle
 10
14.6172121683371
 20
19.92499986828867
 30
0.0
 40
0.525
100
AcDbArc
 50
90.0
 51
180.0
  0
LINE
  5
5FAA
330
1A
100
AcDbEntity
  8
ZUWAKU
100
AcDbLine
 10
14.09221216833714
 20
19.92499986828867
 30
0.0
 11
14.09221216833714
 21
18.63479784293334
 31
0.0
  0
LINE
  5
5FAB
330
1A
100
AcDbEntity
  8
ZUWAKU
100
AcDbLine
 10
17.59221216833714
 20
20.44999986828867
 30
0.0
 11
14.6172121683371
 21
20.44999986828867
 31
0.0
  0
LINE
  5
5FAC
330
1A
100
AcDbEntity
  8
ZUWAKU
100
AcDbLine
 10
11.29221216833718
 20
20.44999986828867
 30
0.0
 11
11.29221216833718
 21
18.63479784293334
 31
0.0
  0
ARC
  5
5FAD
330
1A
100
AcDbEntity
  8
ZUWAKU
100
AcDbCircle
 10
14.09221216833714
 20
20.44999986828867
 30
0.0
 40
2.799999999999998
100
AcDbArc
 50
90.0
 51
180.0
  0
LINE
  5
5FAE
330
1A
100
AcDbEntity
  8
ZUWAKU
100
AcDbLine
 10
18.11721216833712
 20
22.72499986828868
 30
0.0
 11
18.11721216833712
 21
20.97499986828867
 31
0.0
  0
ARC
  5
5FAF
330
1A
100
AcDbEntity
  8
ZUWAKU
100
AcDbCircle
 10
24.94221216833716
 20
19.04999986828867
 30
0.0
 40
1.399999999999999
100
AcDbArc
 50
90.0
 51
180.0
  0
ARC
  5
5FB0
330
1A
100
AcDbEntity
  8
ZUWAKU
100
AcDbCircle
 10
24.94221216833716
 20
19.04999986828864
 30
0.0
 40
4.199999999999998
100
AcDbArc
 50
90.0
 51
180.0
  0
LINE
  5
5FB1
330
1A
100
AcDbEntity
  8
ZUWAKU
100
AcDbLine
 10
79.32662956154422
 20
29.99999986828868
 30
0.0
 11
79.32662956154445
 21
0.7999998682887508
 31
0.0
  0
LINE
  5
5FB2
330
1A
100
AcDbEntity
  8
ZUWAKU
100
AcDbLine
 10
79.52662956154426
 20
29.99999986828868
 30
0.0
 11
79.52662956154448
 21
0.7999998682887508
 31
0.0
  0
LINE
  5
5FB3
330
1A
100
AcDbEntity
  8
ZUWAKU
100
AcDbLine
 10
79.12662956154441
 20
29.99999986828868
 30
0.0
 11
79.12662956154441
 21
0.7999998682887508
 31
0.0
  0
LINE
  5
5FB4
330
1A
100
AcDbEntity
  8
ZUWAKU
100
AcDbLine
 10
64.14221216833721
 20
9.949999868288683
 30
0.0
 11
64.14221216833721
 21
22.72499986828868
 31
0.0
  0
LINE
  5
5FB5
330
1A
100
AcDbEntity
  8
ZUWAKU
100
AcDbLine
 10
61.34221216833714
 20
22.72499986828868
 30
0.0
 11
61.34221216833714
 21
10.99999986828867
 31
0.0
  0
LINE
  5
5FB6
330
1A
100
AcDbEntity
  8
ZUWAKU
100
AcDbLine
 10
69.04221216833718
 20
7.674999868288685
 30
0.0
 11
69.04221216833718
 21
22.72499986828868
 31
0.0
  0
LINE
  5
5FB7
330
1A
100
AcDbEntity
  8
ZUWAKU
100
AcDbLine
 10
66.24221216833712
 20
22.72499986828868
 30
0.0
 11
66.24221216833712
 21
7.674999868288685
 31
0.0
  0
ARC
  5
5FB8
330
1A
100
AcDbEntity
  8
ZUWAKU
100
AcDbCircle
 10
49.79221216833717
 20
18.63479784293337
 30
0.0
 40
1.399999999999999
100
AcDbArc
 50
180.0000000000015
 51
224.9999999999988
  0
ARC
  5
5FB9
330
1A
100
AcDbEntity
  8
ZUWAKU
100
AcDbCircle
 10
49.79221216833717
 20
18.63479784293337
 30
0.0
 40
4.199999999999998
100
AcDbArc
 50
180.0
 51
225.0
  0
LINE
  5
5FBA
330
1A
100
AcDbEntity
  8
ZUWAKU
100
AcDbLine
 10
37.31485865051513
 20
19.2050470618521
 30
0.0
 11
36.05010690517929
 21
15.19999986828869
 31
0.0
  0
LINE
  5
5FBB
330
1A
100
AcDbEntity
  8
ZUWAKU
100
AcDbLine
 10
40.69221216833716
 20
22.72499986828868
 30
0.0
 11
40.69221216833716
 21
7.674999868288685
 31
0.0
  0
LINE
  5
5FBC
330
1A
100
AcDbEntity
  8
ZUWAKU
100
AcDbLine
 10
43.4922121683371
 20
7.674999868288685
 30
0.0
 11
43.4922121683371
 21
22.72499986828868
 31
0.0
  0
LINE
  5
5FBD
330
1A
100
AcDbEntity
  8
ZUWAKU
100
AcDbLine
 10
55.04221216833718
 20
22.72499986828868
 30
0.0
 11
55.04221216833718
 21
9.949999868288683
 31
0.0
  0
LINE
  5
5FBE
330
1A
100
AcDbEntity
  8
ZUWAKU
100
AcDbLine
 10
57.84221216833714
 20
10.99999986828867
 30
0.0
 11
57.84221216833714
 21
22.72499986828868
 31
0.0
  0
LINE
  5
5FBF
330
1A
100
AcDbEntity
  8
ZUWAKU
100
AcDbLine
 10
32.64221216833721
 20
17.12499986828869
 30
0.0
 11
32.64221216833721
 21
22.72499986828868
 31
0.0
  0
LINE
  5
5FC0
330
1A
100
AcDbEntity
  8
ZUWAKU
100
AcDbLine
 10
29.84221216833714
 20
22.72499986828868
 30
0.0
 11
29.84221216833714
 21
7.674999868288685
 31
0.0
  0
LINE
  5
5FC1
330
1A
100
AcDbEntity
  8
ZUWAKU
100
AcDbLine
 10
35.676347105653
 20
22.88309383645565
 30
0.0
 11
33.80807723102121
 21
16.9669059001217
 31
0.0
  0
LINE
  5
5FC2
330
1A
100
AcDbEntity
  8
ZUWAKU
100
AcDbLine
 10
60.29221216833718
 20
9.949999868288683
 30
0.0
 11
58.89221216833721
 21
9.949999868288683
 31
0.0
  0
LINE
  5
5FC3
330
1A
100
AcDbEntity
  8
ZUWAKU
100
AcDbLine
 10
57.84221216833714
 20
7.149999868288687
 30
0.0
 11
61.34221216833714
 21
7.149999868288687
 31
0.0
  0
LINE
  5
5FC4
330
1A
100
AcDbEntity
  8
ZUWAKU
100
AcDbLine
 10
41.21721216833714
 20
7.149999868288687
 30
0.0
 11
42.96721216833714
 21
7.149999868288687
 31
0.0
  0
LINE
  5
5FC5
330
1A
100
AcDbEntity
  8
ZUWAKU
100
AcDbLine
 10
35.676347105653
 20
7.516905900121712
 30
0.0
 11
33.80807723102121
 21
13.43309383645565
 31
0.0
  0
ARC
  5
5FC6
330
1A
100
AcDbEntity
  8
ZUWAKU
100
AcDbCircle
 10
33.30744633182587
 20
17.12499986828869
 30
0.0
 40
0.525
100
AcDbArc
 50
270.0
 51
342.4744316262769
  0
LINE
  5
5FC7
330
1A
100
AcDbEntity
  8
ZUWAKU
100
AcDbLine
 10
33.30744633182587
 20
16.59999986828868
 30
0.0
 11
33.16721216833718
 21
16.59999986828868
 31
0.0
  0
LINE
  5
5FC8
330
1A
100
AcDbEntity
  8
ZUWAKU
100
AcDbLine
 10
33.16721216833718
 20
13.79999986828868
 30
0.0
 11
33.30744633182587
 21
13.79999986828868
 31
0.0
  0
ARC
  5
5FC9
330
1A
100
AcDbEntity
  8
ZUWAKU
100
AcDbCircle
 10
33.16721216833718
 20
17.12499986828869
 30
0.0
 40
0.525
100
AcDbArc
 50
180.0
 51
270.0
  0
LINE
  5
5FCA
330
1A
100
AcDbEntity
  8
ZUWAKU
100
AcDbLine
 10
30.36721216833711
 20
7.149999868288687
 30
0.0
 11
32.11721216833712
 21
7.149999868288687
 31
0.0
  0
ARC
  5
5FCB
330
1A
100
AcDbEntity
  8
ZUWAKU
100
AcDbCircle
 10
32.11721216833712
 20
7.674999868288685
 30
0.0
 40
0.525
100
AcDbArc
 50
270.0
 51
0.0
  0
LINE
  5
5FCC
330
1A
100
AcDbEntity
  8
ZUWAKU
100
AcDbLine
 10
32.64221216833721
 20
7.674999868288685
 30
0.0
 11
32.64221216833721
 21
13.27499986828867
 31
0.0
  0
LINE
  5
5FCD
330
1A
100
AcDbEntity
  8
ZUWAKU
100
AcDbLine
 10
27.39221216833721
 20
9.424999868288685
 30
0.0
 11
27.39221216833721
 21
7.674999868288685
 31
0.0
  0
ARC
  5
5FCE
330
1A
100
AcDbEntity
  8
ZUWAKU
100
AcDbCircle
 10
26.86721216833712
 20
7.674999868288685
 30
0.0
 40
0.525
100
AcDbArc
 50
270.0
 51
0.0
  0
ARC
  5
5FCF
330
1A
100
AcDbEntity
  8
ZUWAKU
100
AcDbCircle
 10
26.86721216833712
 20
9.424999868288685
 30
0.0
 40
0.525
100
AcDbArc
 50
0.0
 51
90.0
  0
ARC
  5
5FD0
330
1A
100
AcDbEntity
  8
ZUWAKU
100
AcDbCircle
 10
30.36721216833711
 20
7.674999868288685
 30
0.0
 40
0.525
100
AcDbArc
 50
180.0
 51
270.0
  0
ARC
  5
5FD1
330
1A
100
AcDbEntity
  8
ZUWAKU
100
AcDbCircle
 10
33.30744633182587
 20
13.27499986828867
 30
0.0
 40
0.525
100
AcDbArc
 50
17.52556837372303
 51
90.0
  0
ARC
  5
5FD2
330
1A
100
AcDbEntity
  8
ZUWAKU
100
AcDbCircle
 10
33.16721216833718
 20
13.27499986828867
 30
0.0
 40
0.525
100
AcDbArc
 50
90.0
 51
180.0
  0
ARC
  5
5FD3
330
1A
100
AcDbEntity
  8
ZUWAKU
100
AcDbCircle
 10
41.21721216833714
 20
7.674999868288685
 30
0.0
 40
0.525
100
AcDbArc
 50
180.0
 51
270.0
  0
LINE
  5
5FD4
330
1A
100
AcDbEntity
  8
ZUWAKU
100
AcDbLine
 10
36.17697800484847
 20
7.149999868288687
 30
0.0
 11
37.87586738445748
 21
7.149999868288687
 31
0.0
  0
ARC
  5
5FD5
330
1A
100
AcDbEntity
  8
ZUWAKU
100
AcDbCircle
 10
37.87586738445748
 20
7.674999868288685
 30
0.0
 40
0.525
100
AcDbArc
 50
270.0
 51
17.52556837372303
  0
LINE
  5
5FD6
330
1A
100
AcDbEntity
  8
ZUWAKU
100
AcDbLine
 10
38.37649828365295
 20
7.83309383645566
 30
0.0
 11
36.05010690517929
 21
15.19999986828869
 31
0.0
  0
ARC
  5
5FD7
330
1A
100
AcDbEntity
  8
ZUWAKU
100
AcDbCircle
 10
36.17697800484847
 20
7.674999868288685
 30
0.0
 40
0.525
100
AcDbArc
 50
197.5255683737229
 51
270.0
  0
ARC
  5
5FD8
330
1A
100
AcDbEntity
  8
ZUWAKU
100
AcDbCircle
 10
57.84221216833714
 20
9.949999868288683
 30
0.0
 40
2.799999999999998
100
AcDbArc
 50
180.0
 51
270.0
  0
ARC
  5
5FD9
330
1A
100
AcDbEntity
  8
ZUWAKU
100
AcDbCircle
 10
50.14221216833721
 20
9.949999868288683
 30
0.0
 40
2.799999999999998
100
AcDbArc
 50
270.0
 51
0.0
  0
LINE
  5
5FDA
330
1A
100
AcDbEntity
  8
ZUWAKU
100
AcDbLine
 10
51.71206064932072
 20
14.7350503746275
 30
0.0
 11
48.80226267467595
 21
17.64484834927218
 31
0.0
  0
LINE
  5
5FDB
330
1A
100
AcDbEntity
  8
ZUWAKU
100
AcDbLine
 10
50.14221216833721
 20
10.47499986828869
 30
0.0
 11
50.14221216833721
 21
11.76520189364403
 31
0.0
  0
ARC
  5
5FDC
330
1A
100
AcDbEntity
  8
ZUWAKU
100
AcDbCircle
 10
48.74221216833712
 20
11.76520189364403
 30
0.0
 40
1.399999999999999
100
AcDbArc
 50
0.0
 51
45.0
  0
ARC
  5
5FDD
330
1A
100
AcDbEntity
  8
ZUWAKU
100
AcDbCircle
 10
49.61721216833712
 20
10.47499986828869
 30
0.0
 40
0.525
100
AcDbArc
 50
270.0
 51
0.0
  0
LINE
  5
5FDE
330
1A
100
AcDbEntity
  8
ZUWAKU
100
AcDbLine
 10
46.11721216833712
 20
7.674999868288685
 30
0.0
 11
46.11721216833712
 21
9.424999868288685
 31
0.0
  0
ARC
  5
5FDF
330
1A
100
AcDbEntity
  8
ZUWAKU
100
AcDbCircle
 10
46.64221216833721
 20
7.674999868288685
 30
0.0
 40
0.525
100
AcDbArc
 50
180.0
 51
270.0
  0
ARC
  5
5FE0
330
1A
100
AcDbEntity
  8
ZUWAKU
100
AcDbCircle
 10
42.96721216833714
 20
7.674999868288685
 30
0.0
 40
0.525
100
AcDbArc
 50
270.0
 51
0.0
  0
ARC
  5
5FE1
330
1A
100
AcDbEntity
  8
ZUWAKU
100
AcDbCircle
 10
46.64221216833721
 20
9.424999868288685
 30
0.0
 40
0.525
100
AcDbArc
 50
90.0
 51
180.0
  0
LINE
  5
5FE2
330
1A
100
AcDbEntity
  8
ZUWAKU
100
AcDbLine
 10
46.64221216833721
 20
9.949999868288683
 30
0.0
 11
49.61721216833712
 21
9.949999868288683
 31
0.0
  0
LINE
  5
5FE3
330
1A
100
AcDbEntity
  8
ZUWAKU
100
AcDbLine
 10
46.64221216833721
 20
7.149999868288687
 30
0.0
 11
50.14221216833721
 21
7.149999868288687
 31
0.0
  0
LINE
  5
5FE4
330
1A
100
AcDbEntity
  8
ZUWAKU
100
AcDbLine
 10
46.82236368735368
 20
15.66494936194986
 30
0.0
 11
49.73216166199835
 21
12.7551513873052
 31
0.0
  0
LINE
  5
5FE5
330
1A
100
AcDbEntity
  8
ZUWAKU
100
AcDbLine
 10
52.94221216833715
 20
9.949999868288683
 30
0.0
 11
52.94221216833715
 21
11.76520189364403
 31
0.0
  0
ARC
  5
5FE6
330
1A
100
AcDbEntity
  8
ZUWAKU
100
AcDbCircle
 10
48.74221216833712
 20
11.76520189364399
 30
0.0
 40
4.199999999999998
100
AcDbArc
 50
0.0
 51
45.0
  0
ARC
  5
5FE7
330
1A
100
AcDbEntity
  8
ZUWAKU
100
AcDbCircle
 10
58.89221216833721
 20
10.99999986828867
 30
0.0
 40
1.049999999999998
100
AcDbArc
 50
180.0
 51
270.0
  0
ARC
  5
5FE8
330
1A
100
AcDbEntity
  8
ZUWAKU
100
AcDbCircle
 10
61.34221216833714
 20
9.949999868288683
 30
0.0
 40
2.799999999999998
100
AcDbArc
 50
270.0
 51
0.0
  0
LINE
  5
5FE9
330
1A
100
AcDbEntity
  8
ZUWAKU
100
AcDbLine
 10
66.76721216833721
 20
7.149999868288687
 30
0.0
 11
68.51721216833721
 21
7.149999868288687
 31
0.0
  0
ARC
  5
5FEA
330
1A
100
AcDbEntity
  8
ZUWAKU
100
AcDbCircle
 10
66.76721216833721
 20
7.674999868288685
 30
0.0
 40
0.525
100
AcDbArc
 50
180.0
 51
270.0
  0
ARC
  5
5FEB
330
1A
100
AcDbEntity
  8
ZUWAKU
100
AcDbCircle
 10
60.29221216833718
 20
10.99999986828867
 30
0.0
 40
1.049999999999998
100
AcDbArc
 50
270.0
 51
0.0
  0
ARC
  5
5FEC
330
1A
100
AcDbEntity
  8
ZUWAKU
100
AcDbCircle
 10
68.51721216833721
 20
7.674999868288685
 30
0.0
 40
0.525
100
AcDbArc
 50
270.0
 51
0.0
  0
LINE
  5
5FED
330
1A
100
AcDbEntity
  8
ZUWAKU
100
AcDbLine
 10
42.96721216833714
 20
23.24999986828867
 30
0.0
 11
41.21721216833714
 21
23.24999986828867
 31
0.0
  0
ARC
  5
5FEE
330
1A
100
AcDbEntity
  8
ZUWAKU
100
AcDbCircle
 10
32.11721216833712
 20
22.72499986828868
 30
0.0
 40
0.525
100
AcDbArc
 50
0.0
 51
90.0
  0
LINE
  5
5FEF
330
1A
100
AcDbEntity
  8
ZUWAKU
100
AcDbLine
 10
32.11721216833712
 20
23.24999986828867
 30
0.0
 11
30.36721216833711
 21
23.24999986828867
 31
0.0
  0
ARC
  5
5FF0
330
1A
100
AcDbEntity
  8
ZUWAKU
100
AcDbCircle
 10
26.86721216833712
 20
22.72499986828868
 30
0.0
 40
0.525
100
AcDbArc
 50
0.0
 51
90.0
  0
ARC
  5
5FF1
330
1A
100
AcDbEntity
  8
ZUWAKU
100
AcDbCircle
 10
30.36721216833711
 20
22.72499986828868
 30
0.0
 40
0.525
100
AcDbArc
 50
90.0
 51
180.0
  0
ARC
  5
5FF2
330
1A
100
AcDbEntity
  8
ZUWAKU
100
AcDbCircle
 10
26.86721216833712
 20
20.97499986828867
 30
0.0
 40
0.525
100
AcDbArc
 50
270.0
 51
0.0
  0
LINE
  5
5FF3
330
1A
100
AcDbEntity
  8
ZUWAKU
100
AcDbLine
 10
27.39221216833721
 20
22.72499986828868
 30
0.0
 11
27.39221216833721
 21
20.97499986828867
 31
0.0
  0
ARC
  5
5FF4
330
1A
100
AcDbEntity
  8
ZUWAKU
100
AcDbCircle
 10
41.21721216833714
 20
22.72499986828868
 30
0.0
 40
0.525
100
AcDbArc
 50
90.0
 51
180.0
  0
LINE
  5
5FF5
330
1A
100
AcDbEntity
  8
ZUWAKU
100
AcDbLine
 10
36.17697800484847
 20
23.24999986828867
 30
0.0
 11
37.87586738445748
 21
23.24999986828867
 31
0.0
  0
ARC
  5
5FF6
330
1A
100
AcDbEntity
  8
ZUWAKU
100
AcDbCircle
 10
37.87586738445748
 20
22.72499986828868
 30
0.0
 40
0.525
100
AcDbArc
 50
342.4744316262769
 51
90.0
  0
LINE
  5
5FF7
330
1A
100
AcDbEntity
  8
ZUWAKU
100
AcDbLine
 10
38.37649828365295
 20
22.56690590012171
 30
0.0
 11
37.31485865051513
 21
19.2050470618521
 31
0.0
  0
ARC
  5
5FF8
330
1A
100
AcDbEntity
  8
ZUWAKU
100
AcDbCircle
 10
36.17697800484847
 20
22.72499986828868
 30
0.0
 40
0.525
100
AcDbArc
 50
90.0
 51
162.4744316262769
  0
LINE
  5
5FF9
330
1A
100
AcDbEntity
  8
ZUWAKU
100
AcDbLine
 10
48.3922121683372
 20
23.24999986828867
 30
0.0
 11
51.89221216833721
 21
23.24999986828867
 31
0.0
  0
LINE
  5
5FFA
330
1A
100
AcDbEntity
  8
ZUWAKU
100
AcDbLine
 10
51.89221216833721
 20
20.44999986828867
 30
0.0
 11
48.91721216833718
 21
20.44999986828867
 31
0.0
  0
ARC
  5
5FFB
330
1A
100
AcDbEntity
  8
ZUWAKU
100
AcDbCircle
 10
48.91721216833718
 20
19.92499986828867
 30
0.0
 40
0.525
100
AcDbArc
 50
90.0
 51
180.0
  0
LINE
  5
5FFC
330
1A
100
AcDbEntity
  8
ZUWAKU
100
AcDbLine
 10
48.3922121683372
 20
19.92499986828867
 30
0.0
 11
48.3922121683372
 21
18.63479784293334
 31
0.0
  0
ARC
  5
5FFD
330
1A
100
AcDbEntity
  8
ZUWAKU
100
AcDbCircle
 10
42.96721216833714
 20
22.72499986828868
 30
0.0
 40
0.525
100
AcDbArc
 50
0.0
 51
90.0
  0
LINE
  5
5FFE
330
1A
100
AcDbEntity
  8
ZUWAKU
100
AcDbLine
 10
45.59221216833714
 20
20.44999986828867
 30
0.0
 11
45.59221216833714
 21
18.63479784293334
 31
0.0
  0
ARC
  5
5FFF
330
1A
100
AcDbEntity
  8
ZUWAKU
100
AcDbCircle
 10
48.3922121683372
 20
20.44999986828867
 30
0.0
 40
2.799999999999998
100
AcDbArc
 50
90.0
 51
180.0
  0
ARC
  5
6000
330
1A
100
AcDbEntity
  8
ZUWAKU
100
AcDbCircle
 10
57.31721216833715
 20
22.72499986828868
 30
0.0
 40
0.525
100
AcDbArc
 50
0.0
 51
90.0
  0
ARC
  5
6001
330
1A
100
AcDbEntity
  8
ZUWAKU
100
AcDbCircle
 10
55.56721216833715
 20
22.72499986828868
 30
0.0
 40
0.525
100
AcDbArc
 50
90.0
 51
180.0
  0
LINE
  5
6002
330
1A
100
AcDbEntity
  8
ZUWAKU
100
AcDbLine
 10
57.31721216833715
 20
23.24999986828867
 30
0.0
 11
55.56721216833715
 21
23.24999986828867
 31
0.0
  0
ARC
  5
6003
330
1A
100
AcDbEntity
  8
ZUWAKU
100
AcDbCircle
 10
51.89221216833721
 20
22.72499986828868
 30
0.0
 40
0.525
100
AcDbArc
 50
0.0
 51
90.0
  0
ARC
  5
6004
330
1A
100
AcDbEntity
  8
ZUWAKU
100
AcDbCircle
 10
51.89221216833721
 20
20.97499986828867
 30
0.0
 40
0.525
100
AcDbArc
 50
270.0
 51
0.0
  0
LINE
  5
6005
330
1A
100
AcDbEntity
  8
ZUWAKU
100
AcDbLine
 10
52.41721216833718
 20
22.72499986828868
 30
0.0
 11
52.41721216833718
 21
20.97499986828867
 31
0.0
  0
LINE
  5
6006
330
1A
100
AcDbEntity
  8
ZUWAKU
100
AcDbLine
 10
68.51721216833721
 20
23.24999986828867
 30
0.0
 11
66.76721216833721
 21
23.24999986828867
 31
0.0
  0
ARC
  5
6007
330
1A
100
AcDbEntity
  8
ZUWAKU
100
AcDbCircle
 10
66.76721216833721
 20
22.72499986828868
 30
0.0
 40
0.525
100
AcDbArc
 50
90.0
 51
180.0
  0
ARC
  5
6008
330
1A
100
AcDbEntity
  8
ZUWAKU
100
AcDbCircle
 10
63.61721216833712
 20
22.72499986828868
 30
0.0
 40
0.525
100
AcDbArc
 50
0.0
 51
90.0
  0
LINE
  5
6009
330
1A
100
AcDbEntity
  8
ZUWAKU
100
AcDbLine
 10
63.61721216833712
 20
23.24999986828867
 30
0.0
 11
61.86721216833712
 21
23.24999986828867
 31
0.0
  0
ARC
  5
600A
330
1A
100
AcDbEntity
  8
ZUWAKU
100
AcDbCircle
 10
61.86721216833712
 20
22.72499986828868
 30
0.0
 40
0.525
100
AcDbArc
 50
90.0
 51
180.0
  0
ARC
  5
600B
330
1A
100
AcDbEntity
  8
ZUWAKU
100
AcDbCircle
 10
68.51721216833721
 20
22.72499986828868
 30
0.0
 40
0.525
100
AcDbArc
 50
0.0
 51
90.0
  0
TEXT
  5
600C
330
1A
100
AcDbEntity
  8
MOJI
100
AcDbText
 10
239.827202694407
 20
18.00492092569607
 30
0.0
 40
5.599999999999998
  1
インサイドジョイントⅡ
 41
0.9
  7
ｽﾀｲﾙ1
100
AcDbText
  0
TEXT
  5
600D
330
1A
100
AcDbEntity
  8
MOJI
100
AcDbText
 10
239.827202694407
 20
3.204920925696103
 30
0.0
 40
5.599999999999998
  1
ＶＭ１２０
 41
0.9
  7
ｽﾀｲﾙ1
100
AcDbText
  0
LINE
  5
600E
330
1A
100
AcDbEntity
  8
ZUWAKU
100
AcDbLine
 10
208.2466013036239
 20
29.99999986828868
 30
0.0
 11
208.2466013036239
 21
0.7999998682887508
 31
0.0
  0
LINE
  5
600F
330
1A
100
AcDbEntity
  8
ZUWAKU
100
AcDbLine
 10
208.6466013036238
 20
29.99999986828868
 30
0.0
 11
208.646601303624
 21
0.7999998682887508
 31
0.0
  0
LINE
  5
6010
330
1A
100
AcDbEntity
  8
ZUWAKU
100
AcDbLine
 10
208.4466013036236
 20
29.99999986828868
 30
0.0
 11
208.446601303624
 21
0.7999998682887508
 31
0.0
  0
TEXT
  5
6011
330
1A
100
AcDbEntity
  8
ZUWAKU
100
AcDbText
 10
209.7240463258335
 20
9.6553564066743
 30
0.0
 40
4.0
  1
サイズ
 41
0.9
  7
ｽﾀｲﾙ1
100
AcDbText
  0
TEXT
  5
6012
330
1A
100
AcDbEntity
  8
ZUWAKU
100
AcDbText
 10
209.7240463258333
 20
24.05535640667426
 30
0.0
 40
4.0
  1
品名
 41
0.9
  7
ｽﾀｲﾙ1
100
AcDbText
  0
LINE
  5
6013
330
1A
100
AcDbEntity
  8
ZUWAKU
100
AcDbLine
 10
648.8172025237602
 20
15.19999986828871
 30
0.0
 11
697.2490105620972
 21
15.19999986828871
 31
0.0
  0
LINE
  5
6014
330
1A
100
AcDbEntity
  8
ZUWAKU
100
AcDbLine
 10
648.8172025237603
 20
15.39999986828872
 30
0.0
 11
697.2490105620972
 21
15.3999998682887
 31
0.0
  0
LINE
  5
6015
330
1A
100
AcDbEntity
  8
ZUWAKU
100
AcDbLine
 10
648.8172025237602
 20
15.59999986828871
 30
0.0
 11
697.2490105620972
 21
15.59999986828871
 31
0.0
  0
TEXT
  5
6016
330
1A
100
AcDbEntity
  8
ZUWAKU
100
AcDbText
 10
658.2039377008584
 20
18.00492092569607
 30
0.0
 40
5.599999999999998
  1
　　．　　．　　
 41
0.9
  7
ｽﾀｲﾙ1
100
AcDbText
  0
LINE
  5
6017
330
1A
100
AcDbEntity
  8
ZUWAKU
100
AcDbLine
 10
505.1991795116967
 20
15.19999986828872
 30
0.0
 11
552.5269557796685
 21
15.19999986828872
 31
0.0
  0
LINE
  5
6018
330
1A
100
AcDbEntity
  8
ZUWAKU
100
AcDbLine
 10
505.1991795116967
 20
15.3999998682887
 30
0.0
 11
552.5269557796685
 21
15.3999998682887
 31
0.0
  0
LINE
  5
6019
330
1A
100
AcDbEntity
  8
ZUWAKU
100
AcDbLine
 10
505.1991795116967
 20
15.59999986828871
 30
0.0
 11
552.5269557796685
 21
15.59999986828871
 31
0.0
  0
TEXT
  5
601A
330
1A
100
AcDbEntity
  8
MOJI
100
AcDbText
 10
463.2464320045579
 20
11.94261758994866
 30
0.0
 40
5.599999999999998
  1
ＰＧ６０□
 41
0.9
  7
ｽﾀｲﾙ1
100
AcDbText
  0
LINE
  5
601B
330
1A
100
AcDbEntity
  8
ZUWAKU
100
AcDbLine
 10
447.6243639845471
 20
29.99999986828868
 30
0.0
 11
447.6243639845473
 21
0.7999998682887508
 31
0.0
  0
LINE
  5
601C
330
1A
100
AcDbEntity
  8
ZUWAKU
100
AcDbLine
 10
447.8243639845471
 20
29.99999986828868
 30
0.0
 11
447.8243639845475
 21
0.7999998682887508
 31
0.0
  0
LINE
  5
601D
330
1A
100
AcDbEntity
  8
ZUWAKU
100
AcDbLine
 10
447.4243639845473
 20
29.99999986828868
 30
0.0
 11
447.4243639845473
 21
0.7999998682887508
 31
0.0
  0
TEXT
  5
601E
330
1A
100
AcDbEntity
  8
MOJI
100
AcDbText
 10
528.0409079858689
 20
18.00492092569607
 30
0.0
 40
5.599999999999998
  1
Ａ３
 41
0.9
  7
ｽﾀｲﾙ1
100
AcDbText
  0
LINE
  5
601F
330
1A
100
AcDbEntity
  8
ZUWAKU
100
AcDbLine
 10
504.9991795116969
 20
29.99999986828868
 30
0.0
 11
504.9991795116969
 21
0.7999998682887508
 31
0.0
  0
LINE
  5
6020
330
1A
100
AcDbEntity
  8
ZUWAKU
100
AcDbLine
 10
505.1991795116967
 20
29.99999986828868
 30
0.0
 11
505.1991795116971
 21
0.7999998682887508
 31
0.0
  0
LINE
  5
6021
330
1A
100
AcDbEntity
  8
ZUWAKU
100
AcDbLine
 10
504.799179511697
 20
29.99999986828868
 30
0.0
 11
504.799179511697
 21
0.7999998682887508
 31
0.0
  0
TEXT
  5
6022
330
1A
100
AcDbEntity
  8
ZUWAKU
100
AcDbText
 10
461.9954647886323
 20
2.614070779428174
 30
0.0
 40
3.0
  1
□には色品番が入ります
 41
0.9
  7
ｽﾀｲﾙ1
100
AcDbText
  0
TEXT
  5
6023
330
1A
100
AcDbEntity
  8
ZUWAKU
100
AcDbText
 10
506.6766245339066
 20
9.6553564066743
 30
0.0
 40
4.0
  1
縮尺
 41
0.9
  7
ｽﾀｲﾙ1
100
AcDbText
  0
TEXT
  5
6024
330
1A
100
AcDbEntity
  8
MOJI
100
AcDbText
 10
528.0409079858689
 20
3.204920925696103
 30
0.0
 40
5.599999999999998
  1
１/２
 41
0.9
  7
ｽﾀｲﾙ1
100
AcDbText
  0
TEXT
  5
6025
330
1A
100
AcDbEntity
  8
ZUWAKU
100
AcDbText
 10
449.3018090067569
 20
24.05535640667426
 30
0.0
 40
4.0
  1
品番
 41
0.9
  7
ｽﾀｲﾙ1
100
AcDbText
  0
TEXT
  5
6026
330
1A
100
AcDbEntity
  8
ZUWAKU
100
AcDbText
 10
506.6766245339064
 20
24.05535640667426
 30
0.0
 40
4.0
  1
用紙
 41
0.9
  7
ｽﾀｲﾙ1
100
AcDbText
  0
LINE
  5
6027
330
1A
100
AcDbEntity
  8
ZUWAKU
100
AcDbLine
 10
648.6172025237602
 20
29.99999986828868
 30
0.0
 11
648.6172025237606
 21
0.7999998682887508
 31
0.0
  0
LINE
  5
6028
330
1A
100
AcDbEntity
  8
ZUWAKU
100
AcDbLine
 10
648.8172025237603
 20
29.99999986828868
 30
0.0
 11
648.8172025237608
 21
0.7999998682887508
 31
0.0
  0
LINE
  5
6029
330
1A
100
AcDbEntity
  8
ZUWAKU
100
AcDbLine
 10
648.4172025237605
 20
29.99999986828868
 30
0.0
 11
648.4172025237605
 21
0.7999998682887508
 31
0.0
  0
LINE
  5
602A
330
1A
100
AcDbEntity
  8
ZUWAKU
100
AcDbLine
 10
552.7269557796683
 20
29.99999986828868
 30
0.0
 11
552.7269557796683
 21
0.7999998682887508
 31
0.0
  0
LINE
  5
602B
330
1A
100
AcDbEntity
  8
ZUWAKU
100
AcDbLine
 10
552.9269557796683
 20
29.99999986828868
 30
0.0
 11
552.9269557796684
 21
0.7999998682887508
 31
0.0
  0
LINE
  5
602C
330
1A
100
AcDbEntity
  8
ZUWAKU
100
AcDbLine
 10
552.5269557796685
 20
29.99999986828868
 30
0.0
 11
552.5269557796685
 21
0.7999998682887508
 31
0.0
  0
TEXT
  5
602D
330
1A
100
AcDbEntity
  8
ZUWAKU
100
AcDbText
 10
650.2946475459699
 20
24.05535640667426
 30
0.0
 40
4.0
  1
DATE
 41
0.9
  7
ｽﾀｲﾙ1
100
AcDbText
  0
LINE
  5
602E
330
1A
100
AcDbEntity
  8
ZUWAKU
100
AcDbLine
 10
697.2490105620972
 20
29.99999986828868
 30
0.0
 11
697.2490105620972
 21
0.7999998682887508
 31
0.0
  0
LINE
  5
602F
330
1A
100
AcDbEntity
  8
ZUWAKU
100
AcDbLine
 10
697.4490105620973
 20
29.99999986828868
 30
0.0
 11
697.4490105620973
 21
0.7999998682887508
 31
0.0
  0
LINE
  5
6030
330
1A
100
AcDbEntity
  8
ZUWAKU
100
AcDbLine
 10
697.6490105620971
 20
29.99999986828868
 30
0.0
 11
697.6490105620974
 21
0.7999998682887508
 31
0.0
  0
LINE
  5
6031
330
1A
100
AcDbEntity
  8
ZUWAKU
100
AcDbLine
 10
697.8490105620973
 20
29.99999986828868
 30
0.0
 11
697.8490105620973
 21
0.7999998682887508
 31
0.0
  0
TEXT
  5
6032
330
1A
100
AcDbEntity
  8
ZUWAKU
100
AcDbText
 10
708.5280842057997
 20
17.55383920397547
 30
0.0
 40
6.0
  1
積水化学工業株式会社
 41
0.9
  7
ｽﾀｲﾙ1
100
AcDbText
  0
TEXT
  5
6033
330
1A
100
AcDbEntity
  8
ZUWAKU
100
AcDbText
 10
708.5280842057997
 20
6.648840182142747
 30
0.0
 40
6.0
  1
建材事業部
 41
0.9
  7
ｽﾀｲﾙ1
100
AcDbText
  0
ARC
  5
7C56
330
1A
100
AcDbEntity
  8
SEIHIN
  6
CONTINUOUS
 62
     3
100
AcDbCircle
 10
405.2307495895466
 20
1131.42700425389
 30
0.0
 40
995.9195441161167
100
AcDbArc
 50
268.2507563215021
 51
271.6505075461966
  0
ARC
  5
7C57
330
1A
100
AcDbEntity
  8
SEIHIN
  6
CONTINUOUS
 62
     3
100
AcDbCircle
 10
404.9109767717468
 20
1131.397852743191
 30
0.0
 40
998.3999999780497
100
AcDbArc
 50
268.2300171310013
 51
271.7205692246023
  0
LINE
  5
7C5B
330
1A
100
AcDbEntity
  8
SEIHIN
  6
CONTINUOUS
 62
     3
100
AcDbLine
 10
339.6069374502467
 20
224.2887028902906
 30
0.0
 11
339.6069374502467
 21
214.0887028902906
 31
0.0
  0
LINE
  5
7C5C
330
1A
100
AcDbEntity
  8
SEIHIN
  6
CONTINUOUS
 62
     3
100
AcDbLine
 10
342.1069374502466
 20
214.4339059741906
 30
0.0
 11
342.1069374502466
 21
238.2887028902906
 31
0.0
  0
ARC
  5
7C62
330
1A
100
AcDbEntity
  8
SEIHIN
  6
CONTINUOUS
 62
     3
100
AcDbCircle
 10
357.2600415002466
 20
160.2348868888906
 30
0.0
 40
0.7999999999999009
100
AcDbArc
 50
198.9673679038995
 51
260.0222873799006
  0
ARC
  5
7C63
330
1A
100
AcDbEntity
  8
SEIHIN
  6
CONTINUOUS
 62
     3
100
AcDbCircle
 10
1300.694197809346
 20
484.4844092525908
 30
0.0
 40
995.9000000219267
100
AcDbArc
 50
195.7334403055986
 51
198.8757164402017
  0
ARC
  5
7C69
330
1A
100
AcDbEntity
  8
SEIHIN
  6
CONTINUOUS
 62
     3
100
AcDbCircle
 10
1300.694197809346
 20
484.4844092525908
 30
0.0
 40
998.4000000219264
100
AcDbArc
 50
195.7136050798006
 51
198.9673679038995
  0
LINE
  5
7C6B
330
1A
100
AcDbEntity
  8
SEIHIN
  6
CONTINUOUS
 62
     3
100
AcDbLine
 10
370.7796687745469
 20
145.5982805232906
 30
0.0
 11
368.9024174339468
 21
157.8430299380905
 31
0.0
  0
LINE
  5
7C6C
330
1A
100
AcDbEntity
  8
SEIHIN
  6
CONTINUOUS
 62
     3
100
AcDbLine
 10
366.4639010120469
 20
157.2514655682906
 30
0.0
 11
368.3436338666469
 21
144.9905299795906
 31
0.0
  0
ARC
  5
7C6D
330
1A
100
AcDbEntity
  8
SEIHIN
  6
CONTINUOUS
 62
     3
100
AcDbCircle
 10
374.1504984110466
 20
135.9730173450906
 30
0.0
 40
2.499999999999912
100
AcDbArc
 50
199.3005854308009
 51
268.2300171310013
  0
LINE
  5
7C6E
330
1A
100
AcDbEntity
  8
SEIHIN
  6
CONTINUOUS
 62
     3
100
AcDbLine
 10
373.9167154889468
 20
136.6405747107905
 30
0.0
 11
370.7796687745469
 21
145.5982805232906
 31
0.0
  0
LINE
  5
7C6F
330
1A
100
AcDbEntity
  8
SEIHIN
  6
CONTINUOUS
 62
     3
100
AcDbLine
 10
368.3436338666469
 20
144.9905299795906
 30
0.0
 11
371.7910044749466
 21
135.1467072546906
 31
0.0
  0
ARC
  5
7C70
330
1A
100
AcDbEntity
  8
SEIHIN
  6
CONTINUOUS
 62
     3
100
AcDbCircle
 10
374.8605130633468
 20
136.9710987469906
 30
0.0
 40
1.000000000000025
100
AcDbArc
 50
199.3005854309009
 51
268.2507563215021
  0
LINE
  5
7C71
330
1A
100
AcDbEntity
  8
SEIHIN
  6
CONTINUOUS
 62
     3
100
AcDbLine
 10
366.4568593828469
 20
160.3430351659907
 30
0.0
 11
359.1241086085468
 21
161.6330561355906
 31
0.0
  0
LINE
  5
7C72
330
1A
100
AcDbEntity
  8
SEIHIN
  6
CONTINUOUS
 62
     3
100
AcDbLine
 10
357.1214294314468
 20
159.4469867083905
 30
0.0
 11
365.8117521984468
 21
157.9181336290905
 31
0.0
  0
ARC
  5
7C73
330
1A
100
AcDbEntity
  8
SEIHIN
  6
CONTINUOUS
 62
     3
100
AcDbCircle
 10
359.2973736945466
 20
162.6179313610906
 30
0.0
 40
0.999999999999852
100
AcDbArc
 50
198.8757164402017
 51
260.0222873799006
  0
ARC
  5
7C74
330
1A
100
AcDbEntity
  8
SEIHIN
  6
CONTINUOUS
 62
     3
100
AcDbCircle
 10
365.6731401296468
 20
157.1302334485906
 30
0.0
 40
0.8000000000000046
100
AcDbArc
 50
8.716191035798168
 51
80.02228737980104
  0
ARC
  5
7C75
330
1A
100
AcDbEntity
  8
SEIHIN
  6
CONTINUOUS
 62
     3
100
AcDbCircle
 10
365.9370641248468
 20
157.3884094891907
 30
0.0
 40
3.000000000000001
100
AcDbArc
 50
8.716191035798168
 51
80.02228737980104
  0
ARC
  5
7C84
330
1A
100
AcDbEntity
  8
SEIHIN
  6
CONTINUOUS
 62
     3
100
AcDbCircle
 10
340.6069374502466
 20
238.2887028902906
 30
0.0
 40
1.5
100
AcDbArc
 50
0.0
 51
90.0
  0
LINE
  5
7C85
330
1A
100
AcDbEntity
  8
SEIHIN
  6
CONTINUOUS
 62
     3
100
AcDbLine
 10
340.1069374502466
 20
239.7887028902906
 30
0.0
 11
339.3223756492468
 21
228.5689464165905
 31
0.0
  0
LINE
  5
7C86
330
1A
100
AcDbEntity
  8
SEIHIN
  6
CONTINUOUS
 62
     3
100
AcDbLine
 10
335.4347376116468
 20
238.2775881097906
 30
0.0
 11
328.1216123690469
 21
239.4764611003905
 31
0.0
  0
ARC
  5
7C87
330
1A
100
AcDbEntity
  8
SEIHIN
  6
CONTINUOUS
 62
     3
100
AcDbCircle
 10
336.3069374502468
 20
236.6145822876905
 30
0.0
 40
4.000000000000016
100
AcDbArc
 50
24.56664813320037
 51
80.69005982500092
  0
ARC
  5
7C8A
330
1A
100
AcDbEntity
  8
SEIHIN
  6
CONTINUOUS
 62
     3
100
AcDbCircle
 10
329.1069374502467
 20
227.2887028902907
 30
0.0
 40
2.0
100
AcDbArc
 50
180.0
 51
270.0
  0
LINE
  5
7C8B
330
1A
100
AcDbEntity
  8
SEIHIN
  6
CONTINUOUS
 62
     3
100
AcDbLine
 10
329.1069374502467
 20
225.2887028902907
 30
0.0
 11
338.6069374502466
 21
225.2887028902907
 31
0.0
  0
ARC
  5
7C8C
330
1A
100
AcDbEntity
  8
SEIHIN
  6
CONTINUOUS
 62
     3
100
AcDbCircle
 10
338.6069374502466
 20
224.2887028902906
 30
0.0
 40
1.0
100
AcDbArc
 50
0.0
 51
90.0
  0
ARC
  5
7C8D
330
1A
100
AcDbEntity
  8
SEIHIN
  6
CONTINUOUS
 62
     3
100
AcDbCircle
 10
331.6069374502466
 20
231.2887028902907
 30
0.0
 40
0.5
100
AcDbArc
 50
0.0
 51
90.0
  0
ARC
  5
7C8E
330
1A
100
AcDbEntity
  8
SEIHIN
  6
CONTINUOUS
 62
     3
100
AcDbCircle
 10
332.6069374502466
 20
230.2887028902906
 30
0.0
 40
0.5000000000000285
100
AcDbArc
 50
180.0
 51
270.0
  0
LINE
  5
7C8F
330
1A
100
AcDbEntity
  8
SEIHIN
  6
CONTINUOUS
 62
     3
100
AcDbLine
 10
332.1069374502466
 20
230.2887028902906
 30
0.0
 11
332.1069374502466
 21
231.2887028902907
 31
0.0
  0
ARC
  5
7C90
330
1A
100
AcDbEntity
  8
SEIHIN
  6
CONTINUOUS
 62
     3
100
AcDbCircle
 10
329.0574595787467
 20
226.8465904314906
 30
0.0
 40
1.999999999999993
100
AcDbArc
 50
131.6335393366015
 51
167.2289220042974
  0
LINE
  5
7C91
330
1A
100
AcDbEntity
  8
SEIHIN
  6
CONTINUOUS
 62
     3
100
AcDbLine
 10
331.6069374502466
 20
231.7887028902906
 30
0.0
 11
327.7287319010468
 21
228.3414090687907
 31
0.0
  0
LINE
  5
7C92
330
1A
100
AcDbEntity
  8
SEIHIN
  6
CONTINUOUS
 62
     3
100
AcDbLine
 10
337.8069374502467
 20
230.7887028902907
 30
0.0
 11
337.8069374502467
 21
231.4333239683905
 31
0.0
  0
ARC
  5
7C93
330
1A
100
AcDbEntity
  8
SEIHIN
  6
CONTINUOUS
 62
     3
100
AcDbCircle
 10
336.3069374502468
 20
236.6145822876905
 30
0.0
 40
1.5
100
AcDbArc
 50
0.0
 51
80.69005982500092
  0
ARC
  5
7C94
330
1A
100
AcDbEntity
  8
SEIHIN
  6
CONTINUOUS
 62
     3
100
AcDbCircle
 10
336.3069374502468
 20
236.6145822876905
 30
0.0
 40
4.000000000000016
100
AcDbArc
 50
22.83223852360023
 51
24.56664813320037
  0
LINE
  5
7C95
330
1A
100
AcDbEntity
  8
SEIHIN
  6
CONTINUOUS
 62
     3
100
AcDbLine
 10
337.8069374502467
 20
231.4333239683905
 30
0.0
 11
337.8069374502467
 21
236.6145822876905
 31
0.0
  0
LINE
  5
7C97
330
1A
100
AcDbEntity
  8
SEIHIN
  6
CONTINUOUS
 62
     3
100
AcDbLine
 10
336.5495999908468
 20
238.0948237852906
 30
0.0
 11
335.4347376116468
 21
238.2775881097906
 31
0.0
  0
ARC
  5
7C99
330
1A
100
AcDbEntity
  8
SEIHIN
  6
CONTINUOUS
 62
     3
100
AcDbCircle
 10
338.3248115989466
 20
228.6387028902907
 30
0.0
 40
1.000000000000029
100
AcDbArc
 50
270.0
 51
356.0000000000001
  0
LINE
  5
7C9A
330
1A
100
AcDbEntity
  8
SEIHIN
  6
CONTINUOUS
 62
     3
100
AcDbLine
 10
336.2573266851468
 20
227.6387028902906
 30
0.0
 11
338.3248115989466
 21
227.6387028902906
 31
0.0
  0
LINE
  5
7CA0
330
1A
100
AcDbEntity
  8
SEIHIN
  6
CONTINUOUS
 62
     3
100
AcDbLine
 10
336.2573266851468
 20
229.7887028902906
 30
0.0
 11
336.8069374502467
 21
229.7887028902906
 31
0.0
  0
ARC
  5
7CA3
330
1A
100
AcDbEntity
  8
SEIHIN
  6
CONTINUOUS
 62
     3
100
AcDbCircle
 10
336.8069374502467
 20
230.7887028902907
 30
0.0
 40
1.000000000000007
100
AcDbArc
 50
270.0
 51
297.2434879788981
  0
LWPOLYLINE
  5
7CA4
330
1A
100
AcDbEntity
  8
SEIHIN
  6
CONTINUOUS
 62
     3
100
AcDbPolyline
 90
        4
 70
   128
 43
0.0
 10
337.2647103200469
 20
229.8996337143905
 10
337.2254672913468
 20
229.8743544953906
 10
337.2165350644468
 20
229.8578335648906
 10
337.2167788633467
 20
229.8559409218906
  0
ARC
  5
7CA8
330
1A
100
AcDbEntity
  8
SEIHIN
  6
CONTINUOUS
 62
     3
100
AcDbCircle
 10
334.7573266851468
 20
229.2887028902907
 30
0.0
 40
0.5
100
AcDbArc
 50
0.0
 51
90.0
  0
LINE
  5
7CA9
330
1A
100
AcDbEntity
  8
SEIHIN
  6
CONTINUOUS
 62
     3
100
AcDbLine
 10
334.7573266851468
 20
229.7887028902906
 30
0.0
 11
332.6069374502466
 21
229.7887028902906
 31
0.0
  0
LINE
  5
7CAA
330
1A
100
AcDbEntity
  8
SEIHIN
  6
CONTINUOUS
 62
     3
100
AcDbLine
 10
335.2573266851468
 20
229.2887028902907
 30
0.0
 11
335.2573266851468
 21
228.6387028902907
 31
0.0
  0
ARC
  5
7CAB
330
1A
100
AcDbEntity
  8
SEIHIN
  6
CONTINUOUS
 62
     3
100
AcDbCircle
 10
336.2573266851468
 20
228.6387028902907
 30
0.0
 40
1.0
100
AcDbArc
 50
180.0
 51
270.0
  0
LINE
  5
7CAE
330
1A
100
AcDbEntity
  8
SEIHIN
  6
CONTINUOUS
 62
     3
100
AcDbLine
 10
334.7573266851468
 20
229.7887028902906
 30
0.0
 11
336.2573266851468
 21
229.7887028902906
 31
0.0
  0
ARC
  5
7CAF
330
1A
100
AcDbEntity
  8
SEIHIN
  6
CONTINUOUS
 62
     3
100
AcDbCircle
 10
336.8069374502467
 20
230.7887028902907
 30
0.0
 40
0.9999999999864476
100
AcDbArc
 50
297.2434879784
 51
0.0000000005015608
  0
LINE
  5
7CB0
330
1A
100
AcDbEntity
  8
SEIHIN
  6
CONTINUOUS
 62
     3
100
AcDbLine
 10
340.6069374502466
 20
239.7887028902906
 30
0.0
 11
340.1069374502466
 21
239.7887028902906
 31
0.0
  0
LINE
  5
7CB1
330
1A
100
AcDbEntity
  8
SEIHIN
  6
CONTINUOUS
 62
     3
100
AcDbLine
 10
328.5260499366468
 20
241.9435302630907
 30
0.0
 11
336.9540375584467
 21
240.5618929480906
 31
0.0
  0
ARC
  5
7CB2
330
1A
100
AcDbEntity
  8
SEIHIN
  6
CONTINUOUS
 62
     3
100
AcDbCircle
 10
328.6069374502466
 20
242.4369440956906
 30
0.0
 40
3.000000000000028
100
AcDbArc
 50
181.1056756104999
 51
260.6900598250009
  0
ARC
  5
7CB3
330
1A
100
AcDbEntity
  8
SEIHIN
  6
CONTINUOUS
 62
     3
100
AcDbCircle
 10
326.1074029363468
 20
242.3887028902905
 30
0.0
 40
0.5000000000000191
100
AcDbArc
 50
90.0
 51
181.1056756104999
  0
LINE
  5
7CB4
330
1A
100
AcDbEntity
  8
SEIHIN
  6
CONTINUOUS
 62
     3
100
AcDbLine
 10
326.1074029363468
 20
242.8887028902904
 30
0.0
 11
327.6081017349468
 21
242.8887028902904
 31
0.0
  0
ARC
  5
7CB5
330
1A
100
AcDbEntity
  8
SEIHIN
  6
CONTINUOUS
 62
     3
100
AcDbCircle
 10
327.6081017349468
 20
242.3887028902905
 30
0.0
 40
0.5
100
AcDbArc
 50
2.765090666099333
 51
90.0
  0
ARC
  5
7CB6
330
1A
100
AcDbEntity
  8
SEIHIN
  6
CONTINUOUS
 62
     3
100
AcDbCircle
 10
328.6069374502466
 20
242.4369440956906
 30
0.0
 40
0.5000000000000191
100
AcDbArc
 50
182.7650906660993
 51
260.6900598250009
  0
LINE
  5
7CB7
330
1A
100
AcDbEntity
  8
SEIHIN
  6
CONTINUOUS
 62
     3
100
AcDbLine
 10
437.3050873711467
 20
135.7486289707907
 30
0.0
 11
442.5285710917469
 21
201.4178376076905
 31
0.0
  0
LINE
  5
7CB8
330
1A
100
AcDbEntity
  8
SEIHIN
  6
CONTINUOUS
 62
     3
100
AcDbLine
 10
439.7820477540467
 20
198.4178376076905
 30
0.0
 11
434.8840766854466
 21
136.8409473212907
 31
0.0
  0
ARC
  5
7CB9
330
1A
100
AcDbEntity
  8
SEIHIN
  6
CONTINUOUS
 62
     3
100
AcDbCircle
 10
434.8129587725468
 20
135.9468587566907
 30
0.0
 40
2.499999999999944
100
AcDbArc
 50
271.7205692246023
 51
355.4521338790991
  0
ARC
  5
7CBA
330
1A
100
AcDbEntity
  8
SEIHIN
  6
CONTINUOUS
 62
     3
100
AcDbCircle
 10
433.8872252459467
 20
136.9202392355907
 30
0.0
 40
1.000000000000053
100
AcDbArc
 50
271.6505075461966
 51
355.4521338787004
  0
ARC
  5
7CBD
330
1A
100
AcDbEntity
  8
SEIHIN
  6
CONTINUOUS
 62
     3
100
AcDbCircle
 10
440.2818480672467
 20
202.9178376076905
 30
0.0
 40
0.5
100
AcDbArc
 50
90.0
 51
180.0
  0
LINE
  5
7CBE
330
1A
100
AcDbEntity
  8
SEIHIN
  6
CONTINUOUS
 62
     3
100
AcDbLine
 10
440.687655808347
 20
203.4178376076905
 30
0.0
 11
442.5285710917469
 21
201.4178376076905
 31
0.0
  0
LINE
  5
7CBF
330
1A
100
AcDbEntity
  8
SEIHIN
  6
CONTINUOUS
 62
     3
100
AcDbLine
 10
440.687655808347
 20
203.4178376076905
 30
0.0
 11
440.2818480672467
 21
203.4178376076905
 31
0.0
  0
LINE
  5
7CC0
330
1A
100
AcDbEntity
  8
SEIHIN
  6
CONTINUOUS
 62
     3
100
AcDbLine
 10
439.7818480672468
 20
198.4178376076905
 30
0.0
 11
439.7820477540467
 21
198.4178376076905
 31
0.0
  0
LINE
  5
7CC1
330
1A
100
AcDbEntity
  8
SEIHIN
  6
CONTINUOUS
 62
     3
100
AcDbLine
 10
439.7818480672468
 20
202.9178376076905
 30
0.0
 11
439.7818480672468
 21
198.4178376076905
 31
0.0
  0
LINE
  5
82E8
330
1A
100
AcDbEntity
  8
CENTER_L
  6
CENTER
 62
     1
 48
5.0
100
AcDbLine
 10
404.3726302608866
 20
129.2245570823497
 30
0.0
 11
404.3726302608866
 21
142.8764350720589
 31
0.0
  0
ELLIPSE
  5
8503
330
1A
100
AcDbEntity
  8
SEIHIN
  6
CONTINUOUS
 62
     3
100
AcDbEllipse
 10
339.3272534970467
 20
381.1233704063333
 30
0.0
 11
0.0000000000001167
 21
1.0
 31
0.0
210
0.0
220
0.0
230
-1.0
 40
0.0699268119015878
 41
-0.0698131700797651
 42
-0.000000000001668
  0
ELLIPSE
  5
8504
330
1A
100
AcDbEntity
  8
SEIHIN
  6
CONTINUOUS
 62
     3
100
AcDbEllipse
 10
336.3069374502468
 20
375.9197837015335
 30
0.0
 11
1.5
 21
0.0000000000000048
 31
0.0
210
0.0
220
0.0
230
-1.0
 40
0.1763269806999975
 41
0.0000000000000173
 42
1.408307217577729
  0
ELLIPSE
  5
8505
330
1A
100
AcDbEntity
  8
SEIHIN
  6
CONTINUOUS
 62
     3
100
AcDbEllipse
 10
336.3069374502468
 20
375.9197837015335
 30
0.0
 11
4.0
 21
0.0000000000000571
 31
0.0
210
0.0
220
0.0
230
-1.0
 40
0.1763269807000259
 41
0.0000000000000804
 42
0.4287688961025895
  0
ELLIPSE
  5
8506
330
1A
100
AcDbEntity
  8
SEIHIN
  6
CONTINUOUS
 62
     3
100
AcDbEllipse
 10
336.3069374502468
 20
348.3269571111335
 30
0.0
 11
-4.0
 21
0.0000000000000713
 31
0.0
210
0.0
220
0.0
230
1.0
 40
0.1763269807000423
 41
3.141592653589893
 42
3.570361549692384
  0
ELLIPSE
  5
8507
330
1A
100
AcDbEntity
  8
SEIHIN
  6
CONTINUOUS
 62
     3
100
AcDbEllipse
 10
336.3069374502468
 20
348.3269571111335
 30
0.0
 11
-1.5
 21
0.0000000000000048
 31
0.0
210
0.0
220
0.0
230
1.0
 40
0.1763269806999975
 41
3.141592653589809
 42
4.549899871167522
  0
ELLIPSE
  5
8508
330
1A
100
AcDbEntity
  8
SEIHIN
  6
CONTINUOUS
 62
     3
100
AcDbEllipse
 10
339.3272534970467
 20
343.1233704063334
 30
0.0
 11
-0.0000000000001167
 21
1.0
 31
0.0
210
0.0
220
0.0
230
1.0
 40
0.0699268119015878
 41
3.071779483510028
 42
3.141592653588126
  0
LINE
  5
8509
330
1A
100
AcDbEntity
  8
SEIHIN
  6
CONTINUOUS
 62
     3
100
AcDbLine
 10
199.3240211442788
 20
240.3113746714867
 30
0.0
 11
172.3176601449251
 21
240.3113746714865
 31
0.0
  0
LINE
  5
850A
330
1A
100
AcDbEntity
  8
SEIHIN
100
AcDbLine
 10
240.820840644602
 20
157.8187028903656
 30
0.0
 11
130.8208345297284
 21
157.8187028903656
 31
0.0
  0
LINE
  5
850B
330
1A
100
AcDbEntity
  8
SEIHIN
100
AcDbLine
 10
240.820840644602
 20
159.527137841511
 30
0.0
 11
130.8208346774248
 21
159.5271378415108
 31
0.0
  0
LINE
  5
850C
330
1A
100
AcDbEntity
  8
SEIHIN
  6
CONTINUOUS
 62
     3
100
AcDbLine
 10
240.820840644602
 20
214.0887028897613
 30
0.0
 11
130.8208393943467
 21
214.0887028897613
 31
0.0
  0
LINE
  5
850D
330
1A
100
AcDbEntity
  8
SEIHIN
  6
CONTINUOUS
 62
     3
100
AcDbLine
 10
172.3176601449251
 20
238.3082589933473
 30
0.0
 11
199.3240211442788
 21
238.3082589933473
 31
0.0
  0
LINE
  5
850E
330
1A
100
AcDbEntity
  8
SEIHIN
  6
CONTINUOUS
 62
     3
100
AcDbLine
 10
172.3176601449251
 20
243.0979455897411
 30
0.0
 11
199.3240211442788
 21
243.0979455897411
 31
0.0
  0
LINE
  5
850F
330
1A
100
AcDbEntity
  8
SEIHIN
  6
CONTINUOUS
 62
     3
100
AcDbLine
 10
185.8208406446022
 20
227.497945589741
 30
0.0
 11
238.3208439228547
 21
227.497945589741
 31
0.0
  0
LINE
  5
8510
330
1A
100
AcDbEntity
  8
SEIHIN
  6
CONTINUOUS
 62
     3
100
AcDbLine
 10
130.8208406446021
 20
132.997945589741
 30
0.0
 11
240.820840644602
 21
132.997945589741
 31
0.0
  0
LINE
  5
8511
330
1A
100
AcDbEntity
  8
SEIHIN
  6
CONTINUOUS
 62
     3
100
AcDbLine
 10
130.8208416342364
 20
239.9979463646013
 30
0.0
 11
130.8208323839398
 21
132.997945589741
 31
0.0
  0
LINE
  5
8512
330
1A
100
AcDbEntity
  8
CENTER_L0
  6
CENTER
 48
10.0
100
AcDbLine
 10
185.8208406446021
 20
125.3250645164377
 30
0.0
 11
185.8208406446021
 21
250.2290510982143
 31
0.0
  0
LINE
  5
8513
330
1A
100
AcDbEntity
  8
SEIHIN
  6
CONTINUOUS
 62
     3
100
AcDbLine
 10
172.3176601449251
 20
243.0979455897411
 30
0.0
 11
172.3176601449251
 21
238.3082589933473
 31
0.0
  0
LINE
  5
8514
330
1A
100
AcDbEntity
  8
SEIHIN
  6
CONTINUOUS
 62
     3
100
AcDbLine
 10
171.320840517191
 20
227.497945589741
 30
0.0
 11
171.3208410618346
 21
231.997945053299
 31
0.0
  0
LINE
  5
8515
330
1A
100
AcDbEntity
  8
SEIHIN
  6
CONTINUOUS
 62
     3
100
AcDbLine
 10
185.8208406446022
 20
227.497945589741
 30
0.0
 11
133.3208373663495
 21
227.497945589741
 31
0.0
  0
LINE
  5
8516
330
1A
100
AcDbEntity
  8
SEIHIN
  6
CONTINUOUS
 62
     3
100
AcDbLine
 10
130.8208404239171
 20
225.997945589741
 30
0.0
 11
133.320839825039
 21
225.997945589741
 31
0.0
  0
LINE
  5
8517
330
1A
100
AcDbEntity
  8
SEIHIN
  6
CONTINUOUS
 62
     3
100
AcDbLine
 10
133.3208398250389
 20
225.997945589741
 30
0.0
 11
133.3208373663494
 21
227.497945589741
 31
0.0
  0
LINE
  5
8518
330
1A
100
AcDbEntity
  8
SEIHIN
  6
CONTINUOUS
 62
     3
100
AcDbLine
 10
171.3208410618346
 20
231.997945053299
 30
0.0
 11
130.8208409426252
 21
231.997945053299
 31
0.0
  0
LINE
  5
8519
330
1A
100
AcDbEntity
  8
SEIHIN
  6
CONTINUOUS
 62
     3
100
AcDbLine
 10
160.8208402720731
 20
239.9979463646013
 30
0.0
 11
130.8208409426252
 21
239.9979463646013
 31
0.0
  0
LINE
  5
851A
330
1A
100
AcDbEntity
  8
SEIHIN
  6
CONTINUOUS
 62
     3
100
AcDbLine
 10
171.1734946546596
 20
231.997945053299
 30
0.0
 11
172.2861743989395
 21
238.3082589933473
 31
0.0
  0
LINE
  5
851B
330
1A
100
AcDbEntity
  8
SEIHIN
  6
CONTINUOUS
 62
     3
100
AcDbLine
 10
165.8208410916368
 20
234.9979436823923
 30
0.0
 11
165.8208410916368
 21
231.997945053299
 31
0.0
  0
ARC
  5
851C
330
1A
100
AcDbEntity
  8
SEIHIN
  6
CONTINUOUS
 62
     3
100
AcDbCircle
 10
160.8208390730521
 20
234.9979443460165
 30
0.0
 40
5.00000201858498
100
AcDbArc
 50
0.0
 51
89.99998626023176
  0
LINE
  5
8522
330
1A
100
AcDbEntity
  8
SEIHIN
  6
CONTINUOUS
 62
     3
100
AcDbLine
 10
650.7047599316639
 20
132.997945589741
 30
0.0
 11
650.7047599316639
 21
239.997945589741
 31
0.0
  0
LINE
  5
8523
330
1A
100
AcDbEntity
  8
SEIHIN
  6
CONTINUOUS
 62
     3
100
AcDbLine
 10
540.7047599316642
 20
132.997945589741
 30
0.0
 11
540.7047599316642
 21
239.997945589741
 31
0.0
  0
LINE
  5
8524
330
1A
100
AcDbEntity
  8
CENTER_L0
  6
CENTER
 48
10.0
100
AcDbLine
 10
595.7047599316637
 20
125.3250645164377
 30
0.0
 11
595.7047599316639
 21
250.2290510982143
 31
0.0
  0
LINE
  5
8527
330
1A
100
AcDbEntity
  8
SEIHIN
  6
CONTINUOUS
 62
     3
100
AcDbLine
 10
240.820840644602
 20
239.9979463646013
 30
0.0
 11
240.820840644602
 21
132.997945589741
 31
0.0
  0
LINE
  5
8561
330
1A
100
AcDbEntity
  8
SEIHIN
  6
CONTINUOUS
 62
     3
100
AcDbLine
 10
540.7047599316637
 20
132.997945589741
 30
0.0
 11
650.7047599316637
 21
132.997945589741
 31
0.0
  0
LINE
  5
8562
330
1A
100
AcDbEntity
  8
SEIHIN
  6
CONTINUOUS
 62
     3
100
AcDbLine
 10
540.7047599316642
 20
214.4339059742065
 30
0.0
 11
650.7047599316639
 21
214.4339059742065
 31
0.0
  0
LINE
  5
8563
330
1A
100
AcDbEntity
  8
SEIHIN
  6
CONTINUOUS
 62
     3
100
AcDbLine
 10
650.7047599316639
 20
203.0979455897409
 30
0.0
 11
540.7047599316639
 21
203.0979455897409
 31
0.0
  0
LINE
  5
8564
330
1A
100
AcDbEntity
  8
SEIHIN
  6
CONTINUOUS
 62
     3
100
AcDbLine
 10
650.7047596336405
 20
201.0979435274201
 30
0.0
 11
540.7047602296869
 21
201.0979435274201
 31
0.0
  0
LINE
  5
8572
330
1A
100
AcDbEntity
  8
SEIHIN
  6
CONTINUOUS
 62
     3
100
AcDbLine
 10
440.687655808347
 20
307.1233704063333
 30
0.0
 11
440.687655808347
 21
417.1233704063334
 31
0.0
  0
LINE
  5
8573
330
1A
100
AcDbEntity
  8
SEIHIN
  6
CONTINUOUS
 62
     3
100
AcDbLine
 10
442.5285710917469
 20
417.1233704063334
 30
0.0
 11
442.5285710917469
 21
307.1233704063333
 31
0.0
  0
LINE
  5
8574
330
1A
100
AcDbEntity
  8
SEIHIN
  6
CONTINUOUS
 62
     3
100
AcDbLine
 10
439.7818480672468
 20
307.1233704063333
 30
0.0
 11
439.7818480672468
 21
417.1233704063334
 31
0.0
  0
LINE
  5
8575
330
1A
100
AcDbEntity
  8
SEIHIN
  6
CONTINUOUS
 62
     3
100
AcDbLine
 10
433.9160280530467
 20
307.1233704063333
 30
0.0
 11
433.9160280530467
 21
417.1233704063334
 31
0.0
  0
LINE
  5
8576
330
1A
100
AcDbEntity
  8
CENTER_L0
  6
CENTER
 48
10.0
100
AcDbLine
 10
404.3726302608865
 20
297.5377509919233
 30
0.0
 11
404.3726302608865
 21
423.7036069925743
 31
0.0
  0
LINE
  5
8577
330
1A
100
AcDbEntity
  8
SEIHIN
  6
CONTINUOUS
 62
     3
100
AcDbLine
 10
339.3223756492468
 20
342.1258063560333
 30
0.0
 11
339.3223756492468
 21
307.1233704063333
 31
0.0
  0
LINE
  5
8578
330
1A
100
AcDbEntity
  8
SEIHIN
  6
CONTINUOUS
 62
     3
100
AcDbLine
 10
342.1069374502466
 20
337.1233704063334
 30
0.0
 11
342.1069374502466
 21
307.1233704063333
 31
0.0
  0
LINE
  5
8579
330
1A
100
AcDbEntity
  8
SEIHIN
  6
CONTINUOUS
 62
     3
100
AcDbLine
 10
335.2573266851468
 20
344.6233704063335
 30
0.0
 11
335.2573266851468
 21
307.1233704063333
 31
0.0
  0
LINE
  5
857B
330
1A
100
AcDbEntity
  8
SEIHIN
  6
CONTINUOUS
 62
     3
100
AcDbLine
 10
358.3511511354468
 20
307.1233704063333
 30
0.0
 11
358.3511511354468
 21
417.1233704063334
 31
0.0
  0
LINE
  5
857C
330
1A
100
AcDbEntity
  8
SEIHIN
  6
CONTINUOUS
 62
     3
100
AcDbLine
 10
366.4568593828469
 20
307.1233704063333
 30
0.0
 11
366.4568593828469
 21
417.1233704063334
 31
0.0
  0
LINE
  5
857D
330
1A
100
AcDbEntity
  8
SEIHIN
  6
CONTINUOUS
 62
     3
100
AcDbLine
 10
373.9167154889468
 20
307.1233704063333
 30
0.0
 11
373.9167154889468
 21
417.1233704063334
 31
0.0
  0
LINE
  5
857E
330
1A
100
AcDbEntity
  8
SEIHIN
  6
CONTINUOUS
 62
     3
100
AcDbLine
 10
331.6069374502466
 20
347.6233704063334
 30
0.0
 11
331.6069374502466
 21
307.1233704063333
 31
0.0
  0
LINE
  5
857F
330
1A
100
AcDbEntity
  8
SEIHIN
  6
CONTINUOUS
 62
     3
100
AcDbLine
 10
332.6069374502466
 20
347.6233704063334
 30
0.0
 11
332.6069374502466
 21
307.1233704063333
 31
0.0
  0
LINE
  5
8580
330
1A
100
AcDbEntity
  8
SEIHIN
  6
CONTINUOUS
 62
     3
100
AcDbLine
 10
327.1069374502467
 20
347.6233704063334
 30
0.0
 11
327.1069374502467
 21
307.1233704063333
 31
0.0
  0
LINE
  5
8581
330
1A
100
AcDbEntity
  8
SEIHIN
  6
CONTINUOUS
 62
     3
100
AcDbLine
 10
199.3240211442788
 20
243.0979455897411
 30
0.0
 11
199.3240211442788
 21
238.3082589933473
 31
0.0
  0
LINE
  5
8582
330
1A
100
AcDbEntity
  8
SEIHIN
  6
CONTINUOUS
 62
     3
100
AcDbLine
 10
200.320840772013
 20
227.497945589741
 30
0.0
 11
200.3208402273696
 21
231.997945053299
 31
0.0
  0
LINE
  5
8583
330
1A
100
AcDbEntity
  8
SEIHIN
  6
CONTINUOUS
 62
     3
100
AcDbLine
 10
238.3208414641653
 20
225.997945589741
 30
0.0
 11
240.820840644602
 21
225.997945589741
 31
0.0
  0
LINE
  5
8584
330
1A
100
AcDbEntity
  8
SEIHIN
  6
CONTINUOUS
 62
     3
100
AcDbLine
 10
238.3208414641653
 20
225.997945589741
 30
0.0
 11
238.3208439228547
 21
227.497945589741
 31
0.0
  0
LINE
  5
8585
330
1A
100
AcDbEntity
  8
SEIHIN
  6
CONTINUOUS
 62
     3
100
AcDbLine
 10
210.820841017131
 20
239.9979463646013
 30
0.0
 11
240.8208403465788
 21
239.9979463646013
 31
0.0
  0
LINE
  5
8586
330
1A
100
AcDbEntity
  8
SEIHIN
  6
CONTINUOUS
 62
     3
100
AcDbLine
 10
200.3208402273696
 20
231.997945053299
 30
0.0
 11
240.8208403465788
 21
231.997945053299
 31
0.0
  0
LINE
  5
8587
330
1A
100
AcDbEntity
  8
SEIHIN
  6
CONTINUOUS
 62
     3
100
AcDbLine
 10
205.8208401975673
 20
234.9979436823923
 30
0.0
 11
205.8208401975673
 21
231.997945053299
 31
0.0
  0
LINE
  5
8588
330
1A
100
AcDbEntity
  8
SEIHIN
  6
CONTINUOUS
 62
     3
100
AcDbLine
 10
200.4681866345446
 20
231.997945053299
 30
0.0
 11
199.3555068902647
 21
238.3082589933473
 31
0.0
  0
ARC
  5
8589
330
1A
100
AcDbEntity
  8
SEIHIN
  6
CONTINUOUS
 62
     3
100
AcDbCircle
 10
210.820842216152
 20
234.9979443460165
 30
0.0
 40
5.000002018584933
100
AcDbArc
 50
90.00001373976823
 51
180.0
  0
LINE
  5
85C7
330
1A
100
AcDbEntity
  8
SEIHIN
  6
CONTINUOUS
 62
     3
100
AcDbLine
 10
442.5285710917468
 20
307.1233704063333
 30
0.0
 11
327.1069374502466
 21
307.1233704063333
 31
0.0
  0
LINE
  5
85C8
330
1A
100
AcDbEntity
  8
SEIHIN
  6
CONTINUOUS
 62
     3
100
AcDbLine
 10
540.7047599316642
 20
239.997945589741
 30
0.0
 11
570.7047599316639
 21
239.997945589741
 31
0.0
  0
LINE
  5
85CB
330
1A
100
AcDbEntity
  8
SEIHIN
  6
CONTINUOUS
 62
     3
100
AcDbLine
 10
609.2079404313412
 20
242.6168821696212
 30
0.0
 11
609.2079404313412
 21
243.0979455897411
 31
0.0
  0
LINE
  5
85CC
330
1A
100
AcDbEntity
  8
SEIHIN
  6
CONTINUOUS
 62
     3
100
AcDbLine
 10
582.2015794319871
 20
242.6168821696212
 30
0.0
 11
582.2015794319871
 21
243.0979455897411
 31
0.0
  0
LINE
  5
85CD
330
1A
100
AcDbEntity
  8
SEIHIN
  6
CONTINUOUS
 62
     3
100
AcDbLine
 10
650.7047599316641
 20
239.997945589741
 30
0.0
 11
620.7047599316644
 21
239.997945589741
 31
0.0
  0
LINE
  5
85CE
330
1A
100
AcDbEntity
  8
SEIHIN
  6
CONTINUOUS
 62
     3
100
AcDbLine
 10
615.7047599316646
 20
234.9979455897408
 30
0.0
 11
615.7047599316646
 21
228.8479455897409
 31
0.0
  0
ARC
  5
85CF
330
1A
100
AcDbEntity
  8
SEIHIN
  6
CONTINUOUS
 62
     3
100
AcDbCircle
 10
612.3843843685757
 20
231.9898630231864
 30
0.0
 40
1.999999999999993
100
AcDbArc
 50
190.0000000000017
 51
254.2256310780136
  0
ARC
  5
85D0
330
1A
100
AcDbEntity
  8
SEIHIN
  6
CONTINUOUS
 62
     3
100
AcDbCircle
 10
611.7047599316646
 20
229.497945589741
 30
0.0
 40
0.5
100
AcDbArc
 50
0.0
 51
90.0
  0
ARC
  5
85D1
330
1A
100
AcDbEntity
  8
SEIHIN
  6
CONTINUOUS
 62
     3
100
AcDbCircle
 10
611.7047599316646
 20
229.5840137708947
 30
0.0
 40
0.5000000000000206
100
AcDbArc
 50
0.0
 51
74.2256310780137
  0
ARC
  5
85D2
330
1A
100
AcDbEntity
  8
SEIHIN
  6
CONTINUOUS
 62
     3
100
AcDbCircle
 10
579.0251354947526
 20
231.9898630231864
 30
0.0
 40
1.999999999999993
100
AcDbArc
 50
285.7743689219862
 51
349.999999999998
  0
ARC
  5
85D3
330
1A
100
AcDbEntity
  8
SEIHIN
  6
CONTINUOUS
 62
     3
100
AcDbCircle
 10
579.7047599316639
 20
229.5840137708947
 30
0.0
 40
0.5000000000000206
100
AcDbArc
 50
105.7743689219863
 51
180.0
  0
ARC
  5
85D4
330
1A
100
AcDbEntity
  8
SEIHIN
  6
CONTINUOUS
 62
     3
100
AcDbCircle
 10
579.7047599316639
 20
229.497945589741
 30
0.0
 40
0.5
100
AcDbArc
 50
90.0
 51
180.0
  0
LINE
  5
85D5
330
1A
100
AcDbEntity
  8
SEIHIN
  6
CONTINUOUS
 62
     3
100
AcDbLine
 10
575.7047599316639
 20
234.9979455897408
 30
0.0
 11
575.7047599316639
 21
228.8479455897409
 31
0.0
  0
LINE
  5
85D6
330
1A
100
AcDbEntity
  8
SEIHIN
  6
CONTINUOUS
 62
     3
100
AcDbLine
 10
579.7047599316639
 20
229.997945589741
 30
0.0
 11
611.7047599316639
 21
229.997945589741
 31
0.0
  0
ARC
  5
85D7
330
1A
100
AcDbEntity
  8
SEIHIN
  6
CONTINUOUS
 62
     3
100
AcDbCircle
 10
578.2047599316639
 20
228.8479455897409
 30
0.0
 40
1.0
100
AcDbArc
 50
270.0
 51
0.0
  0
LINE
  5
85D8
330
1A
100
AcDbEntity
  8
SEIHIN
  6
CONTINUOUS
 62
     3
100
AcDbLine
 10
579.2047599316639
 20
229.497945589741
 30
0.0
 11
579.2047599316639
 21
229.5840137708947
 31
0.0
  0
LINE
  5
85D9
330
1A
100
AcDbEntity
  8
SEIHIN
  6
CONTINUOUS
 62
     3
100
AcDbLine
 10
579.2047599316639
 20
228.8479455897409
 30
0.0
 11
579.2047599316639
 21
229.497945589741
 31
0.0
  0
ARC
  5
85DA
330
1A
100
AcDbEntity
  8
SEIHIN
  6
CONTINUOUS
 62
     3
100
AcDbCircle
 10
576.7047599316639
 20
228.8479455897409
 30
0.0
 40
1.0
100
AcDbArc
 50
180.0
 51
270.0
  0
LINE
  5
85DB
330
1A
100
AcDbEntity
  8
SEIHIN
  6
CONTINUOUS
 62
     3
100
AcDbLine
 10
576.7047599316639
 20
227.8479455897409
 30
0.0
 11
578.2047599316639
 21
227.8479455897409
 31
0.0
  0
LINE
  5
85DC
330
1A
100
AcDbEntity
  8
SEIHIN
  6
CONTINUOUS
 62
     3
100
AcDbLine
 10
614.7047599316644
 20
227.8479455897409
 30
0.0
 11
613.2047599316644
 21
227.8479455897409
 31
0.0
  0
ARC
  5
85DD
330
1A
100
AcDbEntity
  8
SEIHIN
  6
CONTINUOUS
 62
     3
100
AcDbCircle
 10
614.7047599316644
 20
228.8479455897409
 30
0.0
 40
1.0
100
AcDbArc
 50
270.0
 51
0.0
  0
LINE
  5
85DE
330
1A
100
AcDbEntity
  8
SEIHIN
  6
CONTINUOUS
 62
     3
100
AcDbLine
 10
612.2047599316646
 20
228.8479455897409
 30
0.0
 11
612.2047599316646
 21
229.497945589741
 31
0.0
  0
LINE
  5
85DF
330
1A
100
AcDbEntity
  8
SEIHIN
  6
CONTINUOUS
 62
     3
100
AcDbLine
 10
612.2047599316646
 20
229.497945589741
 30
0.0
 11
612.2047599316646
 21
229.5840137708947
 31
0.0
  0
ARC
  5
85E0
330
1A
100
AcDbEntity
  8
SEIHIN
  6
CONTINUOUS
 62
     3
100
AcDbCircle
 10
613.2047599316644
 20
228.8479455897409
 30
0.0
 40
1.0
100
AcDbArc
 50
180.0
 51
270.0
  0
LINE
  5
85E1
330
1A
100
AcDbEntity
  8
SEIHIN
100
AcDbLine
 10
582.2015794319871
 20
239.7171552609405
 30
0.0
 11
609.2079404313412
 21
239.7171552609405
 31
0.0
  0
LINE
  5
85E2
330
1A
100
AcDbEntity
  8
SEIHIN
100
AcDbLine
 10
582.2015794319871
 20
242.1041492863178
 30
0.0
 11
609.2079404313412
 21
242.1041492863178
 31
0.0
  0
LINE
  5
85E3
330
1A
100
AcDbEntity
  8
SEIHIN
  6
CONTINUOUS
 62
     3
100
AcDbLine
 10
580.9947510007767
 20
231.6425666678526
 30
0.0
 11
581.9092611731093
 21
236.8290058204729
 31
0.0
  0
LINE
  5
85E4
330
1A
100
AcDbEntity
  8
SEIHIN
  6
CONTINUOUS
 62
     3
100
AcDbLine
 10
582.2015794319871
 20
242.1427342336098
 30
0.0
 11
582.2015794319871
 21
239.7171552609405
 31
0.0
  0
LWPOLYLINE
  5
85E5
330
1A
100
AcDbEntity
  8
SEIHIN
  6
CONTINUOUS
 62
     3
100
AcDbPolyline
 90
        4
 70
   128
 43
0.0
 10
581.9092611731093
 20
236.8290058204729
 10
582.0093913883969
 20
237.3968741724092
 10
582.1074935002093
 20
239.1835595797499
 10
582.2015794319871
 20
239.7171552609405
  0
LINE
  5
85E6
330
1A
100
AcDbEntity
  8
SEIHIN
  6
CONTINUOUS
 62
     3
100
AcDbLine
 10
582.2015794319871
 20
242.1427342336098
 30
0.0
 11
582.2015794319871
 21
242.6168821696212
 31
0.0
  0
ARC
  5
85E7
330
1A
100
AcDbEntity
  8
SEIHIN
  6
CONTINUOUS
 62
     3
100
AcDbCircle
 10
570.7047599316639
 20
234.9979455897408
 30
0.0
 40
5.0
100
AcDbArc
 50
0.0
 51
90.0
  0
LINE
  5
85E8
330
1A
100
AcDbEntity
  8
SEIHIN
  6
CONTINUOUS
 62
     3
100
AcDbLine
 10
581.0574139417216
 20
231.997945053299
 30
0.0
 11
575.7047603786987
 21
231.997945053299
 31
0.0
  0
LINE
  5
85E9
330
1A
100
AcDbEntity
  8
SEIHIN
  6
CONTINUOUS
 62
     3
100
AcDbLine
 10
575.7047603786987
 20
230.4979420134622
 30
0.0
 11
580.3571199015781
 21
230.4979420134622
 31
0.0
  0
LINE
  5
85EA
330
1A
100
AcDbEntity
  8
SEIHIN
  6
CONTINUOUS
 62
     3
100
AcDbLine
 10
615.7047594846296
 20
230.4979420134622
 30
0.0
 11
611.0523999617504
 21
230.4979420134622
 31
0.0
  0
LINE
  5
85EB
330
1A
100
AcDbEntity
  8
SEIHIN
  6
CONTINUOUS
 62
     3
100
AcDbLine
 10
610.352105921607
 20
231.997945053299
 30
0.0
 11
615.7047594846296
 21
231.997945053299
 31
0.0
  0
LINE
  5
85EC
330
1A
100
AcDbEntity
  8
SEIHIN
  6
CONTINUOUS
 62
     3
100
AcDbLine
 10
609.2079404313412
 20
242.1427342336098
 30
0.0
 11
609.2079404313412
 21
239.7171552609405
 31
0.0
  0
LWPOLYLINE
  5
85ED
330
1A
100
AcDbEntity
  8
SEIHIN
  6
CONTINUOUS
 62
     3
100
AcDbPolyline
 90
        4
 70
   128
 43
0.0
 10
609.5002586902189
 20
236.8290058204729
 10
609.4001284749317
 20
237.3968741724092
 10
609.302026680212
 20
237.9532388279038
 10
609.2079404313412
 20
239.7171552609405
  0
LINE
  5
85EE
330
1A
100
AcDbEntity
  8
SEIHIN
  6
CONTINUOUS
 62
     3
100
AcDbLine
 10
610.4147688625515
 20
231.6425666678526
 30
0.0
 11
609.5002586902189
 21
236.8290058204729
 31
0.0
  0
LINE
  5
85EF
330
1A
100
AcDbEntity
  8
SEIHIN
  6
CONTINUOUS
 62
     3
100
AcDbLine
 10
609.2079404313412
 20
242.1427342336098
 30
0.0
 11
609.2079404313412
 21
242.6168821696212
 31
0.0
  0
ARC
  5
85F0
330
1A
100
AcDbEntity
  8
SEIHIN
  6
CONTINUOUS
 62
     3
100
AcDbCircle
 10
620.7047599316644
 20
234.9979455897408
 30
0.0
 40
5.0
100
AcDbArc
 50
90.0
 51
180.0
  0
LINE
  5
85F1
330
1A
100
AcDbEntity
  8
SEIHIN
  6
CONTINUOUS
 62
     3
100
AcDbLine
 10
582.2015794319871
 20
243.0979455897411
 30
0.0
 11
609.2079404313407
 21
243.0979455897411
 31
0.0
  0
LINE
  5
85F2
330
1A
100
AcDbEntity
  8
CENTER_L0
  6
CENTER
 48
10.0
100
AcDbLine
 10
452.5285710917469
 20
362.1233704063334
 30
0.0
 11
315.5173143638216
 21
362.1233704063334
 31
0.0
  0
LINE
  5
85F3
330
1A
100
AcDbEntity
  8
SEIHIN
  6
CONTINUOUS
 62
     3
100
AcDbLine
 10
340.3069374502468
 20
376.8333793372335
 30
0.0
 11
340.3069374502468
 21
378.2592952937333
 31
0.0
  0
LINE
  5
85F4
330
1A
100
AcDbEntity
  8
SEIHIN
  6
CONTINUOUS
 62
     3
100
AcDbLine
 10
342.1069374502466
 20
378.1233704063335
 30
0.0
 11
342.1069374502466
 21
346.1233704063335
 31
0.0
  0
LINE
  5
85F5
330
1A
100
AcDbEntity
  8
SEIHIN
  6
CONTINUOUS
 62
     3
100
AcDbLine
 10
327.1069374502467
 20
376.6233704063334
 30
0.0
 11
327.1069374502467
 21
417.1233704063334
 31
0.0
  0
LINE
  5
85F6
330
1A
100
AcDbEntity
  8
SEIHIN
  6
CONTINUOUS
 62
     3
100
AcDbLine
 10
332.6069374502466
 20
376.6233704063334
 30
0.0
 11
332.6069374502466
 21
417.1233704063334
 31
0.0
  0
LINE
  5
85F7
330
1A
100
AcDbEntity
  8
SEIHIN
  6
CONTINUOUS
 62
     3
100
AcDbLine
 10
331.6069374502466
 20
376.6233704063334
 30
0.0
 11
331.6069374502466
 21
417.1233704063334
 31
0.0
  0
LINE
  5
85F8
330
1A
100
AcDbEntity
  8
SEIHIN
  6
CONTINUOUS
 62
     3
100
AcDbLine
 10
328.1075195925467
 20
375.6265509060334
 30
0.0
 11
328.1075195925467
 21
348.6201899066333
 31
0.0
  0
LINE
  5
85F9
330
1A
100
AcDbEntity
  8
SEIHIN
  6
CONTINUOUS
 62
     3
100
AcDbLine
 10
325.6074960335467
 20
348.6201899066333
 30
0.0
 11
325.6074960335467
 21
375.6265509060334
 31
0.0
  0
LINE
  5
85FA
330
1A
100
AcDbEntity
  8
SEIHIN
  6
CONTINUOUS
 62
     3
100
AcDbLine
 10
336.9540375584467
 20
348.6201899066333
 30
0.0
 11
336.9540375584467
 21
375.6265509060334
 31
0.0
  0
LINE
  5
85FB
330
1A
100
AcDbEntity
  8
SEIHIN
  6
CONTINUOUS
 62
     3
100
AcDbLine
 10
340.3069374502468
 20
375.9197837015332
 30
0.0
 11
340.3069374502468
 21
348.3269571111335
 31
0.0
  0
LINE
  5
85FC
330
1A
100
AcDbEntity
  8
SEIHIN
  6
CONTINUOUS
 62
     3
100
AcDbLine
 10
342.1069374502466
 20
340.6233704063335
 30
0.0
 11
342.1069374502466
 21
337.1233704063334
 31
0.0
  0
LINE
  5
85FD
330
1A
100
AcDbEntity
  8
SEIHIN
  6
CONTINUOUS
 62
     3
100
AcDbLine
 10
332.6069374502466
 20
347.6233704063334
 30
0.0
 11
336.8069374502467
 21
347.6233704063334
 31
0.0
  0
LINE
  5
85FE
330
1A
100
AcDbEntity
  8
SEIHIN
  6
CONTINUOUS
 62
     3
100
AcDbLine
 10
332.1069374502466
 20
347.6233704063334
 30
0.0
 11
332.6069374502466
 21
347.6233704063334
 31
0.0
  0
LINE
  5
85FF
330
1A
100
AcDbEntity
  8
SEIHIN
  6
CONTINUOUS
 62
     3
100
AcDbLine
 10
341.6069374502467
 20
345.6233704063334
 30
0.0
 11
340.6069374502466
 21
345.6233704063334
 31
0.0
  0
LINE
  5
8600
330
1A
100
AcDbEntity
  8
SEIHIN
  6
CONTINUOUS
 62
     3
100
AcDbLine
 10
339.9448505381467
 20
348.6201899066333
 30
0.0
 11
336.9540375584467
 21
348.6201899066333
 31
0.0
  0
LINE
  5
8601
330
1A
100
AcDbEntity
  8
SEIHIN
  6
CONTINUOUS
 62
     3
100
AcDbLine
 10
340.3069374502468
 20
347.4133614754333
 30
0.0
 11
340.3069374502468
 21
348.3269571111335
 31
0.0
  0
LINE
  5
8602
330
1A
100
AcDbEntity
  8
SEIHIN
  6
CONTINUOUS
 62
     3
100
AcDbLine
 10
340.3069374502468
 20
347.4133614754333
 30
0.0
 11
340.3069374502468
 21
345.9874455189335
 31
0.0
  0
ARC
  5
8603
330
1A
100
AcDbEntity
  8
SEIHIN
  6
CONTINUOUS
 62
     3
100
AcDbCircle
 10
337.3069374502467
 20
348.1233704063333
 30
0.0
 40
0.4999999999963621
100
AcDbArc
 50
269.9999999996026
 51
0.0000000004005972
  0
LINE
  5
8604
330
1A
100
AcDbEntity
  8
SEIHIN
  6
CONTINUOUS
 62
     3
100
AcDbLine
 10
336.8069374502467
 20
347.6233704063334
 30
0.0
 11
337.3069374502467
 21
347.6233704063334
 31
0.0
  0
LINE
  5
8605
330
1A
100
AcDbEntity
  8
SEIHIN
  6
CONTINUOUS
 62
     3
100
AcDbLine
 10
337.3077336279468
 20
345.6233704063334
 30
0.0
 11
336.8069374502467
 21
345.6233704063334
 31
0.0
  0
LINE
  5
8606
330
1A
100
AcDbEntity
  8
SEIHIN
  6
CONTINUOUS
 62
     3
100
AcDbLine
 10
340.3069374502468
 20
345.6233704063334
 30
0.0
 11
337.3077336279468
 21
345.6233704063334
 31
0.0
  0
LINE
  5
8607
330
1A
100
AcDbEntity
  8
SEIHIN
  6
CONTINUOUS
 62
     3
100
AcDbLine
 10
340.3069374502468
 20
345.9874455189335
 30
0.0
 11
340.3069374502468
 21
345.6233704063334
 31
0.0
  0
LINE
  5
8608
330
1A
100
AcDbEntity
  8
SEIHIN
  6
CONTINUOUS
 62
     3
100
AcDbLine
 10
336.8069374502467
 20
345.6233704063334
 30
0.0
 11
336.2573266851468
 21
345.6233704063334
 31
0.0
  0
LINE
  5
8609
330
1A
100
AcDbEntity
  8
SEIHIN
  6
CONTINUOUS
 62
     3
100
AcDbLine
 10
336.5495999908468
 20
348.5879636251333
 30
0.0
 11
335.4347376116468
 21
348.6201899066333
 31
0.0
  0
LINE
  5
860A
330
1A
100
AcDbEntity
  8
SEIHIN
  6
CONTINUOUS
 62
     3
100
AcDbLine
 10
340.6069374502466
 20
345.6233704063334
 30
0.0
 11
340.3069374502468
 21
345.6233704063334
 31
0.0
  0
LINE
  5
860B
330
1A
100
AcDbEntity
  8
SEIHIN
  6
CONTINUOUS
 62
     3
100
AcDbLine
 10
328.1075195925467
 20
348.6201899066333
 30
0.0
 11
327.6081017349468
 21
348.6201899066333
 31
0.0
  0
LINE
  5
860C
330
1A
100
AcDbEntity
  8
SEIHIN
  6
CONTINUOUS
 62
     3
100
AcDbLine
 10
326.1074029363468
 20
348.6201899066333
 30
0.0
 11
325.6074960335467
 21
348.6201899066333
 31
0.0
  0
LINE
  5
860D
330
1A
100
AcDbEntity
  8
SEIHIN
  6
CONTINUOUS
 62
     3
100
AcDbLine
 10
326.1074029363468
 20
348.6201899066333
 30
0.0
 11
327.6081017349468
 21
348.6201899066333
 31
0.0
  0
LINE
  5
860E
330
1A
100
AcDbEntity
  8
SEIHIN
  6
CONTINUOUS
 62
     3
100
AcDbLine
 10
328.5260499366468
 20
348.6201899066333
 30
0.0
 11
328.1075195925467
 21
348.6201899066333
 31
0.0
  0
LINE
  5
860F
330
1A
100
AcDbEntity
  8
SEIHIN
  6
CONTINUOUS
 62
     3
100
AcDbLine
 10
327.1069374502467
 20
347.6233704063334
 30
0.0
 11
327.7287319010468
 21
347.6233704063334
 31
0.0
  0
LINE
  5
8610
330
1A
100
AcDbEntity
  8
SEIHIN
  6
CONTINUOUS
 62
     3
100
AcDbLine
 10
327.7287319010468
 20
347.6233704063334
 30
0.0
 11
331.6069374502466
 21
347.6233704063334
 31
0.0
  0
LINE
  5
8611
330
1A
100
AcDbEntity
  8
SEIHIN
  6
CONTINUOUS
 62
     3
100
AcDbLine
 10
328.5260499366468
 20
348.6201899066333
 30
0.0
 11
336.9540375584467
 21
348.6201899066333
 31
0.0
  0
LINE
  5
8612
330
1A
100
AcDbEntity
  8
SEIHIN
  6
CONTINUOUS
 62
     3
100
AcDbLine
 10
331.6069374502466
 20
347.6233704063334
 30
0.0
 11
332.1069374502466
 21
347.6233704063334
 31
0.0
  0
LINE
  5
8613
330
1A
100
AcDbEntity
  8
SEIHIN
  6
CONTINUOUS
 62
     3
100
AcDbLine
 10
342.1069374502466
 20
344.6233704063335
 30
0.0
 11
342.1069374502466
 21
340.6233704063335
 31
0.0
  0
ARC
  5
8614
330
1A
100
AcDbEntity
  8
SEIHIN
  6
CONTINUOUS
 62
     3
100
AcDbCircle
 10
340.6069374502466
 20
340.6233704063335
 30
0.0
 40
1.5
100
AcDbArc
 50
0.0
 51
90.0
  0
LINE
  5
8615
330
1A
100
AcDbEntity
  8
SEIHIN
  6
CONTINUOUS
 62
     3
100
AcDbLine
 10
339.7573033905469
 20
342.1233704063335
 30
0.0
 11
339.3272534970467
 21
342.1233704063335
 31
0.0
  0
LINE
  5
8616
330
1A
100
AcDbEntity
  8
SEIHIN
  6
CONTINUOUS
 62
     3
100
AcDbLine
 10
339.7573033905469
 20
342.1233704063335
 30
0.0
 11
340.6069374502466
 21
342.1233704063335
 31
0.0
  0
ARC
  5
8617
330
1A
100
AcDbEntity
  8
SEIHIN
  6
CONTINUOUS
 62
     3
100
AcDbCircle
 10
340.8994477786468
 20
344.6446255705335
 30
0.0
 40
1.207676732010231
100
AcDbArc
 50
358.9915396638988
 51
54.1385626902025
  0
LINE
  5
8618
330
1A
100
AcDbEntity
  8
SEIHIN
  6
CONTINUOUS
 62
     3
100
AcDbLine
 10
342.1069374502466
 20
346.1233704063335
 30
0.0
 11
342.1069374502466
 21
344.6233704063335
 31
0.0
  0
ARC
  5
8619
330
1A
100
AcDbEntity
  8
SEIHIN
  6
CONTINUOUS
 62
     3
100
AcDbCircle
 10
336.2573266851468
 20
344.6233704063335
 30
0.0
 40
1.0
100
AcDbArc
 50
90.0
 51
180.0
  0
LINE
  5
861A
330
1A
100
AcDbEntity
  8
SEIHIN
  6
CONTINUOUS
 62
     3
100
AcDbLine
 10
336.5495999908468
 20
375.6587771875334
 30
0.0
 11
335.4347376116468
 21
375.6265509060334
 31
0.0
  0
LINE
  5
861B
330
1A
100
AcDbEntity
  8
SEIHIN
  6
CONTINUOUS
 62
     3
100
AcDbLine
 10
336.8069374502467
 20
376.6233704063334
 30
0.0
 11
337.3069374502467
 21
376.6233704063334
 31
0.0
  0
ARC
  5
861C
330
1A
100
AcDbEntity
  8
SEIHIN
  6
CONTINUOUS
 62
     3
100
AcDbCircle
 10
337.3069374502467
 20
376.1233704063335
 30
0.0
 40
0.4999999999963621
100
AcDbArc
 50
359.9999999995993
 51
90.00000000039731
  0
LINE
  5
861D
330
1A
100
AcDbEntity
  8
SEIHIN
  6
CONTINUOUS
 62
     3
100
AcDbLine
 10
340.3069374502468
 20
376.8333793372335
 30
0.0
 11
340.3069374502468
 21
375.9197837015335
 31
0.0
  0
LINE
  5
861E
330
1A
100
AcDbEntity
  8
SEIHIN
  6
CONTINUOUS
 62
     3
100
AcDbLine
 10
339.9448505381467
 20
375.6265509060334
 30
0.0
 11
336.9540375584467
 21
375.6265509060334
 31
0.0
  0
LINE
  5
861F
330
1A
100
AcDbEntity
  8
SEIHIN
  6
CONTINUOUS
 62
     3
100
AcDbLine
 10
332.1069374502466
 20
376.6233704063334
 30
0.0
 11
332.6069374502466
 21
376.6233704063334
 31
0.0
  0
LINE
  5
8620
330
1A
100
AcDbEntity
  8
SEIHIN
  6
CONTINUOUS
 62
     3
100
AcDbLine
 10
332.6069374502466
 20
376.6233704063334
 30
0.0
 11
336.8069374502467
 21
376.6233704063334
 31
0.0
  0
LINE
  5
8621
330
1A
100
AcDbEntity
  8
SEIHIN
  6
CONTINUOUS
 62
     3
100
AcDbLine
 10
327.7287319010468
 20
376.6233704063334
 30
0.0
 11
331.6069374502466
 21
376.6233704063334
 31
0.0
  0
LINE
  5
8622
330
1A
100
AcDbEntity
  8
SEIHIN
  6
CONTINUOUS
 62
     3
100
AcDbLine
 10
327.1069374502467
 20
376.6233704063334
 30
0.0
 11
327.7287319010468
 21
376.6233704063334
 31
0.0
  0
LINE
  5
8623
330
1A
100
AcDbEntity
  8
SEIHIN
  6
CONTINUOUS
 62
     3
100
AcDbLine
 10
328.5260499366468
 20
375.6265509060334
 30
0.0
 11
328.1075195925467
 21
375.6265509060334
 31
0.0
  0
LINE
  5
8624
330
1A
100
AcDbEntity
  8
SEIHIN
  6
CONTINUOUS
 62
     3
100
AcDbLine
 10
326.1074029363468
 20
375.6265509060334
 30
0.0
 11
327.6081017349468
 21
375.6265509060334
 31
0.0
  0
LINE
  5
8625
330
1A
100
AcDbEntity
  8
SEIHIN
  6
CONTINUOUS
 62
     3
100
AcDbLine
 10
326.1074029363468
 20
375.6265509060334
 30
0.0
 11
325.6074960335467
 21
375.6265509060334
 31
0.0
  0
LINE
  5
8626
330
1A
100
AcDbEntity
  8
SEIHIN
  6
CONTINUOUS
 62
     3
100
AcDbLine
 10
328.1075195925467
 20
375.6265509060334
 30
0.0
 11
327.6081017349468
 21
375.6265509060334
 31
0.0
  0
LINE
  5
8627
330
1A
100
AcDbEntity
  8
SEIHIN
  6
CONTINUOUS
 62
     3
100
AcDbLine
 10
331.6069374502466
 20
376.6233704063334
 30
0.0
 11
332.1069374502466
 21
376.6233704063334
 31
0.0
  0
LINE
  5
8628
330
1A
100
AcDbEntity
  8
SEIHIN
  6
CONTINUOUS
 62
     3
100
AcDbLine
 10
328.5260499366468
 20
375.6265509060334
 30
0.0
 11
336.9540375584467
 21
375.6265509060334
 31
0.0
  0
LINE
  5
8629
330
1A
100
AcDbEntity
  8
SEIHIN
  6
CONTINUOUS
 62
     3
100
AcDbLine
 10
335.2573266851468
 20
379.6233704063333
 30
0.0
 11
335.2573266851468
 21
417.1233704063334
 31
0.0
  0
LINE
  5
862A
330
1A
100
AcDbEntity
  8
SEIHIN
  6
CONTINUOUS
 62
     3
100
AcDbLine
 10
342.1069374502466
 20
387.1233704063334
 30
0.0
 11
342.1069374502466
 21
417.1233704063334
 31
0.0
  0
LINE
  5
862B
330
1A
100
AcDbEntity
  8
SEIHIN
  6
CONTINUOUS
 62
     3
100
AcDbLine
 10
339.3223756492468
 20
382.1209344566335
 30
0.0
 11
339.3223756492468
 21
417.1233704063334
 31
0.0
  0
ARC
  5
862C
330
1A
100
AcDbEntity
  8
SEIHIN
  6
CONTINUOUS
 62
     3
100
AcDbCircle
 10
336.2573266851468
 20
379.6233704063333
 30
0.0
 40
1.0
100
AcDbArc
 50
180.0
 51
270.0
  0
LINE
  5
862D
330
1A
100
AcDbEntity
  8
SEIHIN
  6
CONTINUOUS
 62
     3
100
AcDbLine
 10
342.1069374502466
 20
378.1233704063333
 30
0.0
 11
342.1069374502466
 21
379.6233704063333
 31
0.0
  0
ARC
  5
862E
330
1A
100
AcDbEntity
  8
SEIHIN
  6
CONTINUOUS
 62
     3
100
AcDbCircle
 10
340.8994477786468
 20
379.6021152421335
 30
0.0
 40
1.207676732010231
100
AcDbArc
 50
305.8614373097975
 51
1.008460336101164
  0
LINE
  5
862F
330
1A
100
AcDbEntity
  8
SEIHIN
  6
CONTINUOUS
 62
     3
100
AcDbLine
 10
339.7573033905469
 20
382.1233704063333
 30
0.0
 11
340.6069374502466
 21
382.1233704063333
 31
0.0
  0
LINE
  5
8630
330
1A
100
AcDbEntity
  8
SEIHIN
  6
CONTINUOUS
 62
     3
100
AcDbLine
 10
339.7573033905469
 20
382.1233704063333
 30
0.0
 11
339.3272534970467
 21
382.1233704063333
 31
0.0
  0
ARC
  5
8631
330
1A
100
AcDbEntity
  8
SEIHIN
  6
CONTINUOUS
 62
     3
100
AcDbCircle
 10
340.6069374502466
 20
383.6233704063333
 30
0.0
 40
1.5
100
AcDbArc
 50
270.0
 51
0.0
  0
LINE
  5
8632
330
1A
100
AcDbEntity
  8
SEIHIN
  6
CONTINUOUS
 62
     3
100
AcDbLine
 10
342.1069374502466
 20
379.6233704063333
 30
0.0
 11
342.1069374502466
 21
383.6233704063333
 31
0.0
  0
LINE
  5
8633
330
1A
100
AcDbEntity
  8
SEIHIN
  6
CONTINUOUS
 62
     3
100
AcDbLine
 10
342.1069374502466
 20
383.6233704063333
 30
0.0
 11
342.1069374502466
 21
387.1233704063334
 31
0.0
  0
LINE
  5
8634
330
1A
100
AcDbEntity
  8
SEIHIN
  6
CONTINUOUS
 62
     3
100
AcDbLine
 10
340.6069374502466
 20
378.6233704063334
 30
0.0
 11
340.3069374502468
 21
378.6233704063334
 31
0.0
  0
LINE
  5
8635
330
1A
100
AcDbEntity
  8
SEIHIN
  6
CONTINUOUS
 62
     3
100
AcDbLine
 10
336.8069374502467
 20
378.6233704063334
 30
0.0
 11
336.2573266851468
 21
378.6233704063334
 31
0.0
  0
LINE
  5
8636
330
1A
100
AcDbEntity
  8
SEIHIN
  6
CONTINUOUS
 62
     3
100
AcDbLine
 10
340.3069374502468
 20
378.2592952937333
 30
0.0
 11
340.3069374502468
 21
378.6233704063334
 31
0.0
  0
LINE
  5
8637
330
1A
100
AcDbEntity
  8
SEIHIN
  6
CONTINUOUS
 62
     3
100
AcDbLine
 10
340.3069374502468
 20
378.6233704063334
 30
0.0
 11
337.3077336279468
 21
378.6233704063334
 31
0.0
  0
LINE
  5
8638
330
1A
100
AcDbEntity
  8
SEIHIN
  6
CONTINUOUS
 62
     3
100
AcDbLine
 10
337.3077336279468
 20
378.6233704063334
 30
0.0
 11
336.8069374502467
 21
378.6233704063334
 31
0.0
  0
LINE
  5
8639
330
1A
100
AcDbEntity
  8
SEIHIN
  6
CONTINUOUS
 62
     3
100
AcDbLine
 10
341.6069374502467
 20
378.6233704063334
 30
0.0
 11
340.6069374502466
 21
378.6233704063334
 31
0.0
  0
LINE
  5
863A
330
1A
100
AcDbEntity
  8
SEIHIN
  6
CONTINUOUS
 62
     3
100
AcDbLine
 10
442.5285710917468
 20
417.1233704063334
 30
0.0
 11
327.1069374502466
 21
417.1233704063334
 31
0.0
  0
VIEWPORT
  5
22
330
17
100
AcDbEntity
 67
     1
  8
0
100
AcDbViewport
 10
313.6808219178082
 20
148.5
 30
0.0
 40
627.3616438356165
 41
297.0
 68
     2
 69
     1
1001
ACAD
1000
MVIEW
1002
{
1070
    16
1010
0.0
1020
0.0
1030
0.0
1010
0.0
1020
0.0
1030
1.0
1040
0.0
1040
297.0
1040
313.6808219178082
1040
148.5
1040
50.0
1040
0.0
1040
0.0
1070
     0
1070
   100
1070
     1
1070
     0
1070
     0
1070
     0
1070
     0
1070
     0
1040
0.0
1040
0.0
1040
0.0
1040
1.0
1040
1.0
1040
10.0
1040
10.0
1070
     0
1002
{
1002
}
1002
}
  0
VIEWPORT
  5
64
330
17
100
AcDbEntity
 67
     1
  8
VIEWPORT
100
AcDbViewport
 10
210.0
 20
148.5
 30
0.0
 40
420.0
 41
297.0
 68
     1
 69
     2
1001
ACAD
1000
MVIEW
1002
{
1070
    16
1010
0.0
1020
0.0
1030
0.0
1010
0.0
1020
0.0
1030
1.0
1040
0.0
1040
605.8799999999997
1040
420.0
1040
297.0
1040
50.0
1040
0.0
1040
0.0
1070
     0
1070
   100
1070
     1
1070
     0
1070
     0
1070
     0
1070
     0
1070
     0
1040
0.0
1040
0.0
1040
0.0
1040
10.0
1040
10.0
1040
0.0
1040
0.0
1070
     0
1002
{
1002
}
1002
}
  0
ENDSEC
  0
SECTION
  2
OBJECTS
  0
DICTIONARY
  5
C
330
0
100
AcDbDictionary
  3
ACAD_GROUP
350
D
  3
ACAD_LAYOUT
350
8CD
  3
ACAD_MLINESTYLE
350
E
  3
ACAD_PLOTSETTINGS
350
8CE
  3
ACAD_PLOTSTYLENAME
350
8CB
  3
ACDBHEADERROUNDTRIPXREC
350
87A9
  0
DICTIONARY
  5
8327
330
2
100
AcDbDictionary
280
     1
  3
ACAD_LAYERFILTERS
360
8328
  0
DICTIONARY
  5
9DE
330
1A
100
AcDbDictionary
280
     1
  3
ACAD_LAYOUTSELFREF
360
87CB
  0
DICTIONARY
  5
9DC
330
17
100
AcDbDictionary
280
     1
  3
ACAD_LAYOUTSELFREF
360
87CA
  0
DICTIONARY
  5
D
102
{ACAD_REACTORS
330
C
102
}
330
C
100
AcDbDictionary
  3
*A1
350
2642
  3
*A2
350
4794
  0
DICTIONARY
  5
8CD
102
{ACAD_REACTORS
330
C
102
}
330
C
100
AcDbDictionary
  0
DICTIONARY
  5
E
102
{ACAD_REACTORS
330
C
102
}
330
C
100
AcDbDictionary
  3
STANDARD
350
13
  0
DICTIONARY
  5
8CE
102
{ACAD_REACTORS
330
C
102
}
330
C
100
AcDbDictionary
  0
ACDBDICTIONARYWDFLT
  5
8CB
102
{ACAD_REACTORS
330
C
102
}
330
C
100
AcDbDictionary
281
     1
  3
Normal
350
8CC
100
AcDbDictionaryWithDefault
340
8CC
1001
ACAD
1000
TREAT_AS_HARD
1070
     0
1000
TREAT_AS_HARD
1070
     0
1000
TREAT_AS_HARD
1070
     0
1000
TREAT_AS_HARD
1070
     0
1000
TREAT_AS_HARD
1070
     0
1000
TREAT_AS_HARD
1070
     0
1000
TREAT_AS_HARD
1070
     0
1000
TREAT_AS_HARD
1070
     0
1000
TREAT_AS_HARD
1070
     0
1000
TREAT_AS_HARD
1070
     0
  0
DICTIONARY
  5
87A9
102
{ACAD_REACTORS
330
C
102
}
330
C
100
AcDbDictionary
  3
TSTACKALIGN
350
87AA
  3
TSTACKSIZE
350
87AB
  3
HYPERLINKBASE
350
87AC
  3
STYLESHEET
350
87AD
  3
LAYOUTDICT
350
87AE
  3
PLOTSETDICT
350
87AF
  3
PLOTSTYLNAMDICT
350
87B0
  3
LWETCUNION
350
87B1
  3
INSUNITS
350
87B2
  3
CEPSNTYPE
350
87B3
  3
FINGERPRINTGUID
350
87B4
  3
VERSIONGUID
350
87B5
  3
PSVPSCALE
350
87B6
  3
DIMSTYLEDATA
350
87B7
  3
PUCSORTHOREF
350
87B8
  3
PUCSORTHOVIEW
350
87B9
  3
PUCSBASE
350
87BA
  3
PUCSORGTOP
350
87BB
  3
PUCSORGBOTTOM
350
87BC
  3
PUCSORGLEFT
350
87BD
  3
PUCSORGRIGHT
350
87BE
  3
PUCSORGFRONT
350
87BF
  3
PUCSORGBACK
350
87C0
  3
UCSORTHOREF
350
87C1
  3
UCSORTHOVIEW
350
87C2
  3
UCSBASE
350
87C3
  3
UCSORGTOP
350
87C4
  3
UCSORGBOTTOM
350
87C5
  3
UCSORGLEFT
350
87C6
  3
UCSORGRIGHT
350
87C7
  3
UCSORGFRONT
350
87C8
  3
UCSORGBACK
350
87C9
  0
DICTIONARY
  5
8328
102
{ACAD_REACTORS
330
8327
102
}
330
8327
100
AcDbDictionary
280
     1
  3
50
360
8329
  0
XRECORD
  5
87CB
102
{ACAD_REACTORS
330
9DE
102
}
330
9DE
100
AcDbXrecord
340
1A
  0
XRECORD
  5
87CA
102
{ACAD_REACTORS
330
9DC
102
}
330
9DC
100
AcDbXrecord
340
17
  0
GROUP
  5
2642
102
{ACAD_REACTORS
330
D
102
}
330
D
100
AcDbGroup
300

 70
     1
 71
     1
  0
GROUP
  5
4794
102
{ACAD_REACTORS
330
D
102
}
330
D
100
AcDbGroup
300

 70
     1
 71
     1
  0
MLINESTYLE
  5
13
102
{ACAD_REACTORS
330
E
102
}
330
E
100
AcDbMlineStyle
  2
STANDARD
 70
     0
  3

 62
     0
 51
90.0
 52
90.0
 71
     2
 49
0.5
 62
   256
  6
BYLAYER
 49
-0.5
 62
   256
  6
BYLAYER
  0
ACDBPLACEHOLDER
  5
8CC
102
{ACAD_REACTORS
330
8CB
102
}
330
8CB
100
AcDbPlaceHolder
280
     0
  0
XRECORD
  5
87AA
102
{ACAD_REACTORS
330
87A9
102
}
330
87A9
100
AcDbXrecord
 90
        1
  0
XRECORD
  5
87AB
102
{ACAD_REACTORS
330
87A9
102
}
330
87A9
100
AcDbXrecord
 90
       70
  0
XRECORD
  5
87AC
102
{ACAD_REACTORS
330
87A9
102
}
330
87A9
100
AcDbXrecord
  1

  0
XRECORD
  5
87AD
102
{ACAD_REACTORS
330
87A9
102
}
330
87A9
100
AcDbXrecord
  1
systemprinter.ctb
  0
XRECORD
  5
87AE
102
{ACAD_REACTORS
330
87A9
102
}
330
87A9
100
AcDbXrecord
340
8CD
  0
XRECORD
  5
87AF
102
{ACAD_REACTORS
330
87A9
102
}
330
87A9
100
AcDbXrecord
340
8CE
  0
XRECORD
  5
87B0
102
{ACAD_REACTORS
330
87A9
102
}
330
87A9
100
AcDbXrecord
340
8CB
  0
XRECORD
  5
87B1
102
{ACAD_REACTORS
330
87A9
102
}
330
87A9
100
AcDbXrecord
 90
    10781
  0
XRECORD
  5
87B2
102
{ACAD_REACTORS
330
87A9
102
}
330
87A9
100
AcDbXrecord
 90
        0
  0
XRECORD
  5
87B3
102
{ACAD_REACTORS
330
87A9
102
}
330
87A9
100
AcDbXrecord
 90
        0
  0
XRECORD
  5
87B4
102
{ACAD_REACTORS
330
87A9
102
}
330
87A9
100
AcDbXrecord
  1
{B4B71FC0-A839-11D5-932D-0050DA99388B}
  0
XRECORD
  5
87B5
102
{ACAD_REACTORS
330
87A9
102
}
330
87A9
100
AcDbXrecord
  1
{A64D593F-3770-4B93-9A08-01AD8926E29B}
  0
XRECORD
  5
87B6
102
{ACAD_REACTORS
330
87A9
102
}
330
87A9
100
AcDbXrecord
 40
0.0
  0
XRECORD
  5
87B7
102
{ACAD_REACTORS
330
87A9
102
}
330
87A9
100
AcDbXrecord
1000
DSTYLE
1002
{
1070
   341
340
6D
1070
   343
340
6D
1070
   344
340
6D
1070
   371
 70
    -1
1070
   372
 70
    -1
1002
}
  0
XRECORD
  5
87B8
102
{ACAD_REACTORS
330
87A9
102
}
330
87A9
100
AcDbXrecord
340
0
  0
XRECORD
  5
87B9
102
{ACAD_REACTORS
330
87A9
102
}
330
87A9
100
AcDbXrecord
 70
     0
  0
XRECORD
  5
87BA
102
{ACAD_REACTORS
330
87A9
102
}
330
87A9
100
AcDbXrecord
340
0
  0
XRECORD
  5
87BB
102
{ACAD_REACTORS
330
87A9
102
}
330
87A9
100
AcDbXrecord
 10
0.0
 20
0.0
 30
0.0
  0
XRECORD
  5
87BC
102
{ACAD_REACTORS
330
87A9
102
}
330
87A9
100
AcDbXrecord
 10
0.0
 20
0.0
 30
0.0
  0
XRECORD
  5
87BD
102
{ACAD_REACTORS
330
87A9
102
}
330
87A9
100
AcDbXrecord
 10
0.0
 20
0.0
 30
0.0
  0
XRECORD
  5
87BE
102
{ACAD_REACTORS
330
87A9
102
}
330
87A9
100
AcDbXrecord
 10
0.0
 20
0.0
 30
0.0
  0
XRECORD
  5
87BF
102
{ACAD_REACTORS
330
87A9
102
}
330
87A9
100
AcDbXrecord
 10
0.0
 20
0.0
 30
0.0
  0
XRECORD
  5
87C0
102
{ACAD_REACTORS
330
87A9
102
}
330
87A9
100
AcDbXrecord
 10
0.0
 20
0.0
 30
0.0
  0
XRECORD
  5
87C1
102
{ACAD_REACTORS
330
87A9
102
}
330
87A9
100
AcDbXrecord
340
0
  0
XRECORD
  5
87C2
102
{ACAD_REACTORS
330
87A9
102
}
330
87A9
100
AcDbXrecord
 70
     0
  0
XRECORD
  5
87C3
102
{ACAD_REACTORS
330
87A9
102
}
330
87A9
100
AcDbXrecord
340
0
  0
XRECORD
  5
87C4
102
{ACAD_REACTORS
330
87A9
102
}
330
87A9
100
AcDbXrecord
 10
0.0
 20
0.0
 30
0.0
  0
XRECORD
  5
87C5
102
{ACAD_REACTORS
330
87A9
102
}
330
87A9
100
AcDbXrecord
 10
0.0
 20
0.0
 30
0.0
  0
XRECORD
  5
87C6
102
{ACAD_REACTORS
330
87A9
102
}
330
87A9
100
AcDbXrecord
 10
0.0
 20
0.0
 30
0.0
  0
XRECORD
  5
87C7
102
{ACAD_REACTORS
330
87A9
102
}
330
87A9
100
AcDbXrecord
 10
0.0
 20
0.0
 30
0.0
  0
XRECORD
  5
87C8
102
{ACAD_REACTORS
330
87A9
102
}
330
87A9
100
AcDbXrecord
 10
0.0
 20
0.0
 30
0.0
  0
XRECORD
  5
87C9
102
{ACAD_REACTORS
330
87A9
102
}
330
87A9
100
AcDbXrecord
 10
0.0
 20
0.0
 30
0.0
  0
XRECORD
  5
8329
102
{ACAD_REACTORS
330
8328
102
}
330
8328
100
AcDbXrecord
  1
50
  1
*-50
  1
*
  1
*
 70
     0
  1
*
  1
*
  0
ENDSEC
  0
EOF
