  0
SECTION
  2
HEADER
  9
$ACADVER
  1
AC1014
  9
$ACADMAINTVER
 70
     9
  9
$DWGCODEPAGE
  3
ANSI_932
  9
$INSBASE
 10
0.0
 20
0.0
 30
0.0
  9
$EXTMIN
 10
0.0000000135560185
 20
-0.0000001317113174
 30
0.0
  9
$EXTMAX
 10
797.6000000135561
 20
551.5999998682888
 30
0.0
  9
$LIMMIN
 10
0.0
 20
0.0
  9
$LIMMAX
 10
840.0
 20
594.0
  9
$ORTHOMODE
 70
     1
  9
$REGENMODE
 70
     1
  9
$FILLMODE
 70
     1
  9
$QTEXTMODE
 70
     0
  9
$MIRRTEXT
 70
     1
  9
$DRAGMODE
 70
     2
  9
$LTSCALE
 40
2.0
  9
$OSMODE
 70
    35
  9
$ATTMODE
 70
     1
  9
$TEXTSIZE
 40
5.0
  9
$TRACEWID
 40
1.0
  9
$TEXTSTYLE
  7
STANDARD
  9
$CLAYER
  8
SUNPOU
  9
$CELTYPE
  6
BYLAYER
  9
$CECOLOR
 62
   256
  9
$CELTSCALE
 40
1.0
  9
$DELOBJ
 70
     1
  9
$DISPSILH
 70
     0
  9
$DIMSCALE
 40
1.0
  9
$DIMASZ
 40
7.0
  9
$DIMEXO
 40
6.0
  9
$DIMDLI
 40
14.0
  9
$DIMRND
 40
0.0
  9
$DIMDLE
 40
0.0
  9
$DIMEXE
 40
3.0
  9
$DIMTP
 40
0.0
  9
$DIMTM
 40
0.0
  9
$DIMTXT
 40
6.0
  9
$DIMCEN
 40
150.0
  9
$DIMTSZ
 40
0.0
  9
$DIMTOL
 70
     0
  9
$DIMLIM
 70
     0
  9
$DIMTIH
 70
     0
  9
$DIMTOH
 70
     0
  9
$DIMSE1
 70
     0
  9
$DIMSE2
 70
     0
  9
$DIMTAD
 70
     3
  9
$DIMZIN
 70
     0
  9
$DIMBLK
  1

  9
$DIMASO
 70
     1
  9
$DIMSHO
 70
     1
  9
$DIMPOST
  1

  9
$DIMAPOST
  1

  9
$DIMALT
 70
     0
  9
$DIMALTD
 70
     2
  9
$DIMALTF
 40
25.4
  9
$DIMLFAC
 40
1.0
  9
$DIMTOFL
 70
     1
  9
$DIMTVP
 40
0.0
  9
$DIMTIX
 70
     0
  9
$DIMSOXD
 70
     0
  9
$DIMSAH
 70
     1
  9
$DIMBLK1
  1
OPEN
  9
$DIMBLK2
  1
OPEN
  9
$DIMSTYLE
  2
STANDARD
  9
$DIMCLRD
 70
   256
  9
$DIMCLRE
 70
   256
  9
$DIMCLRT
 70
   256
  9
$DIMTFAC
 40
1.0
  9
$DIMGAP
 40
2.0
  9
$DIMJUST
 70
     0
  9
$DIMSD1
 70
     0
  9
$DIMSD2
 70
     0
  9
$DIMTOLJ
 70
     1
  9
$DIMTZIN
 70
     0
  9
$DIMALTZ
 70
     0
  9
$DIMALTTZ
 70
     0
  9
$DIMFIT
 70
     3
  9
$DIMUPT
 70
     0
  9
$DIMUNIT
 70
     2
  9
$DIMDEC
 70
     0
  9
$DIMTDEC
 70
     0
  9
$DIMALTU
 70
     2
  9
$DIMALTTD
 70
     2
  9
$DIMTXSTY
  7
STANDARD
  9
$DIMAUNIT
 70
     0
  9
$LUNITS
 70
     2
  9
$LUPREC
 70
     4
  9
$SKETCHINC
 40
1.0
  9
$FILLETRAD
 40
3.0
  9
$AUNITS
 70
     0
  9
$AUPREC
 70
     0
  9
$MENU
  1
.
  9
$ELEVATION
 40
0.0
  9
$PELEVATION
 40
0.0
  9
$THICKNESS
 40
0.0
  9
$LIMCHECK
 70
     0
  9
$BLIPMODE
 70
     0
  9
$CHAMFERA
 40
0.0
  9
$CHAMFERB
 40
0.0
  9
$CHAMFERC
 40
40.0
  9
$CHAMFERD
 40
0.0
  9
$SKPOLY
 70
     0
  9
$TDCREATE
 40
2451159.670660069
  9
$TDUPDATE
 40
2453481.433639132
  9
$TDINDWG
 40
0.3886569560
  9
$TDUSRTIMER
 40
0.3886567824
  9
$USRTIMER
 70
     1
  9
$ANGBASE
 50
0.0
  9
$ANGDIR
 70
     0
  9
$PDMODE
 70
     0
  9
$PDSIZE
 40
0.0
  9
$PLINEWID
 40
0.0
  9
$COORDS
 70
     1
  9
$SPLFRAME
 70
     0
  9
$SPLINETYPE
 70
     6
  9
$SPLINESEGS
 70
     8
  9
$ATTDIA
 70
     0
  9
$ATTREQ
 70
     1
  9
$HANDLING
 70
 10241
  9
$HANDSEED
  5
74D8
  9
$SURFTAB1
 70
     6
  9
$SURFTAB2
 70
     6
  9
$SURFTYPE
 70
     6
  9
$SURFU
 70
     6
  9
$SURFV
 70
     6
  9
$UCSNAME
  2

  9
$UCSORG
 10
0.0
 20
0.0
 30
0.0
  9
$UCSXDIR
 10
1.0
 20
0.0
 30
0.0
  9
$UCSYDIR
 10
0.0
 20
1.0
 30
0.0
  9
$PUCSNAME
  2

  9
$PUCSORG
 10
0.0
 20
0.0
 30
0.0
  9
$PUCSXDIR
 10
1.0
 20
0.0
 30
0.0
  9
$PUCSYDIR
 10
0.0
 20
1.0
 30
0.0
  9
$USERI1
 70
     0
  9
$USERI2
 70
     0
  9
$USERI3
 70
     0
  9
$USERI4
 70
     0
  9
$USERI5
 70
     0
  9
$USERR1
 40
0.0
  9
$USERR2
 40
0.0
  9
$USERR3
 40
0.0
  9
$USERR4
 40
0.0
  9
$USERR5
 40
0.0
  9
$WORLDVIEW
 70
     1
  9
$SHADEDGE
 70
     3
  9
$SHADEDIF
 70
    70
  9
$TILEMODE
 70
     1
  9
$MAXACTVP
 70
    16
  9
$PINSBASE
 10
0.0
 20
0.0
 30
0.0
  9
$PLIMCHECK
 70
     0
  9
$PEXTMIN
 10
0.0
 20
0.0
 30
0.0
  9
$PEXTMAX
 10
420.0
 20
297.0
 30
0.0
  9
$PLIMMIN
 10
0.0
 20
0.0
  9
$PLIMMAX
 10
420.0
 20
297.0
  9
$UNITMODE
 70
     0
  9
$VISRETAIN
 70
     0
  9
$PLINEGEN
 70
     0
  9
$PSLTSCALE
 70
     1
  9
$TREEDEPTH
 70
  3020
  9
$PICKSTYLE
 70
     1
  9
$CMLSTYLE
  2
STANDARD
  9
$CMLJUST
 70
     0
  9
$CMLSCALE
 40
1.0
  9
$PROXYGRAPHICS
 70
     1
  9
$MEASUREMENT
 70
     1
  0
ENDSEC
  0
SECTION
  2
CLASSES
  0
CLASS
  1
ACDBDICTIONARYWDFLT
  2
AcDbDictionaryWithDefault
  3
AutoCAD 2000
 90
        0
280
     0
281
     0
  0
CLASS
  1
ACDBPLACEHOLDER
  2
AcDbPlaceHolder
  3
AutoCAD 2000
 90
        0
280
     0
281
     0
  0
CLASS
  1
LAYOUT
  2
AcDbLayout
  3
AutoCAD 2000
 90
        0
280
     0
281
     0
  0
CLASS
  1
LONG_TRANSACTION
  2
AcDbLongTransaction
  3
AutoCAD 2000
 90
        0
280
     0
281
     0
  0
CLASS
  1
LWPOLYLINE
  2
AcDbPolyline
  3
AutoCAD 2000
 90
        0
280
     0
281
     1
  0
CLASS
  1
HATCH
  2
AcDbHatch
  3
AutoCAD 2000
 90
        0
280
     0
281
     1
  0
CLASS
  1
XRECORD
  2
AcDbXrecord
  3
AutoCAD 2000
 90
        0
280
     0
281
     0
  0
CLASS
  1
LONG_TRANSACTION
  2
AcDbLongTransaction
  3
AutoCAD 2000
 90
        0
280
     0
281
     0
  0
CLASS
  1
LWPOLYLINE
  2
AcDbPolyline
  3
AutoCAD 2000
 90
        0
280
     0
281
     1
  0
CLASS
  1
HATCH
  2
AcDbHatch
  3
AutoCAD 2000
 90
        0
280
     0
281
     1
  0
CLASS
  1
XRECORD
  2
AcDbXrecord
  3
AutoCAD 2000
 90
        0
280
     0
281
     0
  0
CLASS
  1
LONG_TRANSACTION
  2
AcDbLongTransaction
  3
AutoCAD 2000
 90
        0
280
     0
281
     0
  0
CLASS
  1
LWPOLYLINE
  2
AcDbPolyline
  3
AutoCAD 2000
 90
        0
280
     0
281
     1
  0
CLASS
  1
HATCH
  2
AcDbHatch
  3
AutoCAD 2000
 90
        0
280
     0
281
     1
  0
CLASS
  1
XRECORD
  2
AcDbXrecord
  3
AutoCAD 2000
 90
        0
280
     0
281
     0
  0
CLASS
  1
LONG_TRANSACTION
  2
AcDbLongTransaction
  3
AutoCAD 2000
 90
        0
280
     0
281
     0
  0
CLASS
  1
LWPOLYLINE
  2
AcDbPolyline
  3
AutoCAD 2000
 90
        0
280
     0
281
     1
  0
CLASS
  1
HATCH
  2
AcDbHatch
  3
AutoCAD 2000
 90
        0
280
     0
281
     1
  0
CLASS
  1
XRECORD
  2
AcDbXrecord
  3
AutoCAD 2000
 90
        0
280
     0
281
     0
  0
CLASS
  1
LONG_TRANSACTION
  2
AcDbLongTransaction
  3
AutoCAD 2000
 90
        0
280
     0
281
     0
  0
CLASS
  1
LWPOLYLINE
  2
AcDbPolyline
  3
AutoCAD 2000
 90
        0
280
     0
281
     1
  0
CLASS
  1
HATCH
  2
AcDbHatch
  3
AutoCAD 2000
 90
        0
280
     0
281
     1
  0
CLASS
  1
XRECORD
  2
AcDbXrecord
  3
AutoCAD 2000
 90
        0
280
     0
281
     0
  0
CLASS
  1
LONG_TRANSACTION
  2
AcDbLongTransaction
  3
AutoCAD 2000
 90
        0
280
     0
281
     0
  0
CLASS
  1
LWPOLYLINE
  2
AcDbPolyline
  3
AutoCAD 2000
 90
        0
280
     0
281
     1
  0
CLASS
  1
HATCH
  2
AcDbHatch
  3
AutoCAD 2000
 90
        0
280
     0
281
     1
  0
CLASS
  1
XRECORD
  2
AcDbXrecord
  3
AutoCAD 2000
 90
        0
280
     0
281
     0
  0
CLASS
  1
LONG_TRANSACTION
  2
AcDbLongTransaction
  3
AutoCAD 2000
 90
        0
280
     0
281
     0
  0
CLASS
  1
LWPOLYLINE
  2
AcDbPolyline
  3
AutoCAD 2000
 90
        0
280
     0
281
     1
  0
CLASS
  1
HATCH
  2
AcDbHatch
  3
AutoCAD 2000
 90
        0
280
     0
281
     1
  0
CLASS
  1
XRECORD
  2
AcDbXrecord
  3
AutoCAD 2000
 90
        0
280
     0
281
     0
  0
CLASS
  1
LONG_TRANSACTION
  2
AcDbLongTransaction
  3
AutoCAD 2000
 90
        0
280
     0
281
     0
  0
CLASS
  1
LWPOLYLINE
  2
AcDbPolyline
  3
AutoCAD 2000
 90
        0
280
     0
281
     1
  0
CLASS
  1
HATCH
  2
AcDbHatch
  3
AutoCAD 2000
 90
        0
280
     0
281
     1
  0
CLASS
  1
XRECORD
  2
AcDbXrecord
  3
AutoCAD 2000
 90
        0
280
     0
281
     0
  0
CLASS
  1
LONG_TRANSACTION
  2
AcDbLongTransaction
  3
AutoCAD 2000
 90
        0
280
     0
281
     0
  0
CLASS
  1
LWPOLYLINE
  2
AcDbPolyline
  3
AutoCAD 2000
 90
        0
280
     0
281
     1
  0
CLASS
  1
HATCH
  2
AcDbHatch
  3
AutoCAD 2000
 90
        0
280
     0
281
     1
  0
CLASS
  1
XRECORD
  2
AcDbXrecord
  3
AutoCAD 2000
 90
        0
280
     0
281
     0
  0
ENDSEC
  0
SECTION
  2
TABLES
  0
TABLE
  2
VPORT
  5
8
330
0
100
AcDbSymbolTable
 70
     2
  0
VPORT
  5
746A
330
8
100
AcDbSymbolTableRecord
100
AcDbViewportTableRecord
  2
*ACTIVE
 70
     0
 10
0.0
 20
0.0
 11
1.0
 21
1.0
 12
411.1124888918674
 22
267.0217380785961
 13
0.0
 23
0.0
 14
5.0
 24
5.0
 15
0.0
 25
0.0
 16
0.0
 26
0.0
 36
1.0
 17
0.0
 27
0.0
 37
0.0
 40
600.5848039065281
 41
1.752310536044362
 42
50.0
 43
0.0
 44
0.0
 50
0.0
 51
0.0
 71
     0
 72
   100
 73
     1
 74
     0
 75
     0
 76
     0
 77
     0
 78
     0
  0
ENDTAB
  0
TABLE
  2
LTYPE
  5
5
330
0
100
AcDbSymbolTable
 70
     3
  0
LTYPE
  5
14
330
5
100
AcDbSymbolTableRecord
100
AcDbLinetypeTableRecord
  2
BYBLOCK
 70
     0
  3

 72
    65
 73
     0
 40
0.0
  0
LTYPE
  5
15
330
5
100
AcDbSymbolTableRecord
100
AcDbLinetypeTableRecord
  2
BYLAYER
 70
     0
  3

 72
    65
 73
     0
 40
0.0
  0
LTYPE
  5
16
330
5
100
AcDbSymbolTableRecord
100
AcDbLinetypeTableRecord
  2
CONTINUOUS
 70
     0
  3
Solid line
 72
    65
 73
     0
 40
0.0
  0
LTYPE
  5
135
330
5
100
AcDbSymbolTableRecord
100
AcDbLinetypeTableRecord
  2
CENTER
 70
     0
  3
____ _ ____ _ ____ _ ____ _ ____ _ ____ _ ____ 
 72
    65
 73
     4
 40
2.0
 49
1.25
 74
     0
 49
-0.25
 74
     0
 49
0.25
 74
     0
 49
-0.25
 74
     0
  0
LTYPE
  5
492D
330
5
100
AcDbSymbolTableRecord
100
AcDbLinetypeTableRecord
  2
PHANTOM
 70
     0
  3
______  __  __  ______  __  __  ______  __  __ 
 72
    65
 73
     6
 40
2.5
 49
1.25
 74
     0
 49
-0.25
 74
     0
 49
0.25
 74
     0
 49
-0.25
 74
     0
 49
0.25
 74
     0
 49
-0.25
 74
     0
  0
ENDTAB
  0
TABLE
  2
LAYER
  5
2
330
0
100
AcDbSymbolTable
 70
     9
  0
LAYER
  5
F
330
2
100
AcDbSymbolTableRecord
100
AcDbLayerTableRecord
  2
0
 70
     0
 62
     7
  6
CONTINUOUS
  0
LAYER
  5
62
330
2
100
AcDbSymbolTableRecord
100
AcDbLayerTableRecord
  2
VIEWPORT
 70
     0
 62
     7
  6
CONTINUOUS
  0
LAYER
  5
65
330
2
100
AcDbSymbolTableRecord
100
AcDbLayerTableRecord
  2
ZUWAKU
 70
     0
 62
     7
  6
CONTINUOUS
  0
LAYER
  5
2CF
330
2
100
AcDbSymbolTableRecord
100
AcDbLayerTableRecord
  2
SUNPOU
 70
     0
 62
     4
  6
CONTINUOUS
  0
LAYER
  5
2D1
330
2
100
AcDbSymbolTableRecord
100
AcDbLayerTableRecord
  2
SEIHIN
 70
     0
 62
     3
  6
CONTINUOUS
  0
LAYER
  5
532
330
2
100
AcDbSymbolTableRecord
100
AcDbLayerTableRecord
  2
DEFPOINTS
 70
     0
 62
     7
  6
CONTINUOUS
  0
LAYER
  5
809
330
2
100
AcDbSymbolTableRecord
100
AcDbLayerTableRecord
  2
CENTER_L
 70
     0
 62
     1
  6
CENTER
  0
LAYER
  5
492F
330
2
100
AcDbSymbolTableRecord
100
AcDbLayerTableRecord
  2
NOKITOI
 70
     0
 62
     9
  6
PHANTOM
  0
LAYER
  5
72E6
330
2
100
AcDbSymbolTableRecord
100
AcDbLayerTableRecord
  2
MOJI
 70
     0
 62
     2
  6
CONTINUOUS
  0
ENDTAB
  0
TABLE
  2
STYLE
  5
3
330
0
100
AcDbSymbolTable
 70
     2
  0
STYLE
  5
10
330
3
100
AcDbSymbolTableRecord
100
AcDbTextStyleTableRecord
  2
STANDARD
 70
     0
 40
0.0
 41
1.0
 50
0.0
 71
     0
 42
5.0
  3
TXT
  4
bigfont.shx
  0
STYLE
  5
72E7
330
3
100
AcDbSymbolTableRecord
100
AcDbTextStyleTableRecord
  2
ｽﾀｲﾙ1
 70
     0
 40
0.0
 41
1.0
 50
0.0
 71
     0
 42
2.5
  3
MS PGothic.ttf
  4

1001
ACAD
1000
MS PGothic
1071
    32818
  0
ENDTAB
  0
TABLE
  2
VIEW
  5
6
330
0
100
AcDbSymbolTable
 70
     0
  0
ENDTAB
  0
TABLE
  2
UCS
  5
7
330
0
100
AcDbSymbolTable
 70
     0
  0
ENDTAB
  0
TABLE
  2
APPID
  5
9
330
0
100
AcDbSymbolTable
 70
     1
  0
APPID
  5
11
330
9
100
AcDbSymbolTableRecord
100
AcDbRegAppTableRecord
  2
ACAD
 70
     0
  0
ENDTAB
  0
TABLE
  2
DIMSTYLE
  5
A
330
0
100
AcDbSymbolTable
 70
     1
  0
DIMSTYLE
105
1D
102
{ACAD_REACTORS
330
6BA2
330
6BD2
330
6D5C
330
6D69
330
6D76
330
6D83
330
6D90
330
7000
102
}
330
A
100
AcDbSymbolTableRecord
100
AcDbDimStyleTableRecord
  2
STANDARD
 70
     0
  3

  4

  5

  6

  7

 40
1.0
 41
0.18
 42
0.0625
 43
0.38
 44
0.18
 45
0.0
 46
0.0
 47
0.0
 48
0.0
140
0.18
141
0.09
142
0.0
143
25.4
144
1.0
145
0.0
146
1.0
147
0.09
 71
     0
 72
     0
 73
     1
 74
     1
 75
     0
 76
     0
 77
     0
 78
     0
170
     0
171
     2
172
     0
173
     0
174
     0
175
     0
176
     0
177
     0
178
     0
270
     2
271
     4
272
     4
273
     2
274
     2
340
10
275
     0
280
     0
281
     0
282
     0
283
     1
284
     0
285
     0
286
     0
287
     3
288
     0
  0
ENDTAB
  0
TABLE
  2
BLOCK_RECORD
  5
1
330
0
100
AcDbSymbolTable
 70
     9
  0
BLOCK_RECORD
  5
1A
102
{ACAD_XDICTIONARY
360
9DE
102
}
330
1
100
AcDbSymbolTableRecord
100
AcDbBlockTableRecord
  2
*MODEL_SPACE
  0
BLOCK_RECORD
  5
17
102
{ACAD_XDICTIONARY
360
9DC
102
}
330
1
100
AcDbSymbolTableRecord
100
AcDbBlockTableRecord
  2
*PAPER_SPACE
  0
BLOCK_RECORD
  5
6D
330
1
100
AcDbSymbolTableRecord
100
AcDbBlockTableRecord
  2
_OPEN
  0
BLOCK_RECORD
  5
6BA3
330
1
100
AcDbSymbolTableRecord
100
AcDbBlockTableRecord
  2
*D1
  0
BLOCK_RECORD
  5
6BD3
330
1
100
AcDbSymbolTableRecord
100
AcDbBlockTableRecord
  2
*D2
  0
BLOCK_RECORD
  5
6D5D
330
1
100
AcDbSymbolTableRecord
100
AcDbBlockTableRecord
  2
*D3
  0
BLOCK_RECORD
  5
6D6A
330
1
100
AcDbSymbolTableRecord
100
AcDbBlockTableRecord
  2
*D4
  0
BLOCK_RECORD
  5
6D77
330
1
100
AcDbSymbolTableRecord
100
AcDbBlockTableRecord
  2
*D5
  0
BLOCK_RECORD
  5
6D84
330
1
100
AcDbSymbolTableRecord
100
AcDbBlockTableRecord
  2
*D6
  0
BLOCK_RECORD
  5
6D91
330
1
100
AcDbSymbolTableRecord
100
AcDbBlockTableRecord
  2
*D7
  0
BLOCK_RECORD
  5
7001
330
1
100
AcDbSymbolTableRecord
100
AcDbBlockTableRecord
  2
*D8
  0
ENDTAB
  0
ENDSEC
  0
SECTION
  2
BLOCKS
  0
BLOCK
  5
1B
330
1A
100
AcDbEntity
  8
0
100
AcDbBlockBegin
  2
*MODEL_SPACE
 70
     0
 10
0.0
 20
0.0
 30
0.0
  3
*MODEL_SPACE
  1

  0
ENDBLK
  5
1C
330
1A
100
AcDbEntity
  8
0
100
AcDbBlockEnd
  0
BLOCK
  5
18
330
17
100
AcDbEntity
 67
     1
  8
0
100
AcDbBlockBegin
  2
*PAPER_SPACE
 70
     0
 10
0.0
 20
0.0
 30
0.0
  3
*PAPER_SPACE
  1

  0
ENDBLK
  5
19
330
17
100
AcDbEntity
 67
     1
  8
0
100
AcDbBlockEnd
  0
BLOCK
  5
6E
330
6D
100
AcDbEntity
  8
0
100
AcDbBlockBegin
  2
_OPEN
 70
     0
 10
0.0
 20
0.0
 30
0.0
  3
_OPEN
  1

  0
LINE
  5
6F
330
6D
100
AcDbEntity
  8
0
  6
BYBLOCK
 62
     0
100
AcDbLine
 10
-1.0
 20
0.1666666666666666
 30
0.0
 11
0.0
 21
0.0
 31
0.0
  0
LINE
  5
70
330
6D
100
AcDbEntity
  8
0
  6
BYBLOCK
 62
     0
100
AcDbLine
 10
0.0
 20
0.0
 30
0.0
 11
-1.0
 21
-0.1666666666666666
 31
0.0
  0
LINE
  5
71
330
6D
100
AcDbEntity
  8
0
  6
BYBLOCK
 62
     0
100
AcDbLine
 10
0.0
 20
0.0
 30
0.0
 11
-1.0
 21
0.0
 31
0.0
  0
ENDBLK
  5
72
330
6D
100
AcDbEntity
  8
0
100
AcDbBlockEnd
  0
BLOCK
  5
6BAD
330
6BA3
100
AcDbEntity
  8
0
100
AcDbBlockBegin
  2
*D1
 70
     1
 10
0.0
 20
0.0
 30
0.0
  3
*D1
  1

  0
LINE
  5
748E
330
6BA3
100
AcDbEntity
  8
SUNPOU
100
AcDbLine
 10
510.2850029431535
 20
292.0470775316668
 30
0.0
 11
510.2850029431535
 21
314.7349532768568
 31
0.0
  0
LINE
  5
748F
330
6BA3
100
AcDbEntity
  8
SUNPOU
100
AcDbLine
 10
404.1285047960887
 20
294.0470775316668
 30
0.0
 11
404.1285047960887
 21
314.7349532768568
 31
0.0
  0
LINE
  5
7490
330
6BA3
100
AcDbEntity
  8
SUNPOU
100
AcDbLine
 10
503.2850029431535
 20
311.7349532768568
 30
0.0
 11
411.1285047960887
 21
311.7349532768568
 31
0.0
  0
INSERT
  5
7491
330
6BA3
100
AcDbEntity
  8
SUNPOU
100
AcDbBlockReference
  2
_OPEN
 10
510.2850029431535
 20
311.7349532768568
 30
0.0
 41
7.0
 42
7.0
 43
7.0
  0
INSERT
  5
7492
330
6BA3
100
AcDbEntity
  8
SUNPOU
100
AcDbBlockReference
  2
_OPEN
 10
404.1285047960887
 20
311.7349532768568
 30
0.0
 41
7.0
 42
7.0
 43
7.0
 50
180.0
  0
MTEXT
  5
7493
330
6BA3
100
AcDbEntity
  8
SUNPOU
100
AcDbMText
 10
457.2067538696211
 20
316.7349532768568
 30
0.0
 40
6.0
 41
0.0
 71
     5
 72
     1
  1
\A1;106
  0
POINT
  5
7494
330
6BA3
100
AcDbEntity
  8
DEFPOINTS
 62
     0
100
AcDbPoint
 10
510.2850029431535
 20
286.0470775316668
 30
0.0
  0
POINT
  5
7495
330
6BA3
100
AcDbEntity
  8
DEFPOINTS
 62
     0
100
AcDbPoint
 10
404.1285047960887
 20
288.0470775316668
 30
0.0
  0
POINT
  5
7496
330
6BA3
100
AcDbEntity
  8
DEFPOINTS
 62
     0
100
AcDbPoint
 10
404.1285047960887
 20
311.7349532768568
 30
0.0
  0
ENDBLK
  5
6BAE
330
6BA3
100
AcDbEntity
  8
0
100
AcDbBlockEnd
  0
BLOCK
  5
6BDD
330
6BD3
100
AcDbEntity
  8
0
100
AcDbBlockBegin
  2
*D2
 70
     1
 10
0.0
 20
0.0
 30
0.0
  3
*D2
  1

  0
LINE
  5
7497
330
6BD3
100
AcDbEntity
  8
SUNPOU
100
AcDbLine
 10
433.2272331175771
 20
156.2269762471967
 30
0.0
 11
433.2272331175771
 21
131.8925570186096
 31
0.0
  0
LINE
  5
7498
330
6BD3
100
AcDbEntity
  8
SUNPOU
100
AcDbLine
 10
515.8304199042022
 20
156.6676370324034
 30
0.0
 11
515.8304199042022
 21
131.8925570186096
 31
0.0
  0
LINE
  5
7499
330
6BD3
100
AcDbEntity
  8
SUNPOU
100
AcDbLine
 10
440.2272331175772
 20
134.8925570186096
 30
0.0
 11
508.8304199042022
 21
134.8925570186096
 31
0.0
  0
INSERT
  5
749A
330
6BD3
100
AcDbEntity
  8
SUNPOU
100
AcDbBlockReference
  2
_OPEN
 10
433.2272331175771
 20
134.8925570186096
 30
0.0
 41
7.0
 42
7.0
 43
7.0
 50
180.0
  0
INSERT
  5
749B
330
6BD3
100
AcDbEntity
  8
SUNPOU
100
AcDbBlockReference
  2
_OPEN
 10
515.8304199042022
 20
134.8925570186096
 30
0.0
 41
7.0
 42
7.0
 43
7.0
  0
MTEXT
  5
749C
330
6BD3
100
AcDbEntity
  8
SUNPOU
100
AcDbMText
 10
474.5288265108897
 20
139.8925570186096
 30
0.0
 40
6.0
 41
0.0
 71
     5
 72
     1
  1
\A1;83
  0
POINT
  5
749D
330
6BD3
100
AcDbEntity
  8
DEFPOINTS
 62
     0
100
AcDbPoint
 10
433.2272331175771
 20
162.2269762471966
 30
0.0
  0
POINT
  5
749E
330
6BD3
100
AcDbEntity
  8
DEFPOINTS
 62
     0
100
AcDbPoint
 10
515.8304199042022
 20
162.6676370324034
 30
0.0
  0
POINT
  5
749F
330
6BD3
100
AcDbEntity
  8
DEFPOINTS
 62
     0
100
AcDbPoint
 10
515.8304199042022
 20
134.8925570186096
 30
0.0
  0
ENDBLK
  5
6BDE
330
6BD3
100
AcDbEntity
  8
0
100
AcDbBlockEnd
  0
BLOCK
  5
6D67
330
6D5D
100
AcDbEntity
  8
0
100
AcDbBlockBegin
  2
*D3
 70
     1
 10
0.0
 20
0.0
 30
0.0
  3
*D3
  1

  0
LINE
  5
74A0
330
6D5D
100
AcDbEntity
  8
SUNPOU
100
AcDbLine
 10
377.4863568936433
 20
291.0470775316668
 30
0.0
 11
334.1103457157746
 21
291.0470775316668
 31
0.0
  0
LINE
  5
74A1
330
6D5D
100
AcDbEntity
  8
SUNPOU
100
AcDbLine
 10
467.0406645260003
 20
160.5473528074995
 30
0.0
 11
334.1103457157746
 21
160.5473528074995
 31
0.0
  0
LINE
  5
74A2
330
6D5D
100
AcDbEntity
  8
SUNPOU
100
AcDbLine
 10
337.1103457157746
 20
284.0470775316668
 30
0.0
 11
337.1103457157746
 21
167.5473528074995
 31
0.0
  0
INSERT
  5
74A3
330
6D5D
100
AcDbEntity
  8
SUNPOU
100
AcDbBlockReference
  2
_OPEN
 10
337.1103457157746
 20
291.0470775316668
 30
0.0
 41
7.0
 42
7.0
 43
7.0
 50
90.0
  0
INSERT
  5
74A4
330
6D5D
100
AcDbEntity
  8
SUNPOU
100
AcDbBlockReference
  2
_OPEN
 10
337.1103457157746
 20
160.5473528074995
 30
0.0
 41
7.0
 42
7.0
 43
7.0
 50
270.0
  0
MTEXT
  5
74A5
330
6D5D
100
AcDbEntity
  8
SUNPOU
100
AcDbMText
 10
332.1103457157745
 20
225.7972151695831
 30
0.0
 40
6.0
 41
0.0
 71
     5
 72
     1
  1
\A1;130
 11
0.0000000000000001
 21
1.0
 31
0.0
  0
POINT
  5
74A6
330
6D5D
100
AcDbEntity
  8
DEFPOINTS
 62
     0
100
AcDbPoint
 10
383.4863568936433
 20
291.0470775316668
 30
0.0
  0
POINT
  5
74A7
330
6D5D
100
AcDbEntity
  8
DEFPOINTS
 62
     0
100
AcDbPoint
 10
473.0406645260003
 20
160.5473528074995
 30
0.0
  0
POINT
  5
74A8
330
6D5D
100
AcDbEntity
  8
DEFPOINTS
 62
     0
100
AcDbPoint
 10
337.1103457157746
 20
160.5473528074995
 30
0.0
  0
ENDBLK
  5
6D68
330
6D5D
100
AcDbEntity
  8
0
100
AcDbBlockEnd
  0
BLOCK
  5
6D74
330
6D6A
100
AcDbEntity
  8
0
100
AcDbBlockBegin
  2
*D4
 70
     1
 10
0.0
 20
0.0
 30
0.0
  3
*D4
  1

  0
LINE
  5
74A9
330
6D6A
100
AcDbEntity
  8
SUNPOU
100
AcDbLine
 10
377.4863568936433
 20
291.0470775316668
 30
0.0
 11
350.9854156943123
 21
291.0470775316668
 31
0.0
  0
LINE
  5
74AA
330
6D6A
100
AcDbEntity
  8
SUNPOU
100
AcDbLine
 10
383.9460162551763
 20
250.5470775316668
 30
0.0
 11
350.9854156943123
 21
250.5470775316668
 31
0.0
  0
LINE
  5
74AB
330
6D6A
100
AcDbEntity
  8
SUNPOU
100
AcDbLine
 10
353.9854156943123
 20
284.0470775316668
 30
0.0
 11
353.9854156943123
 21
257.5470775316668
 31
0.0
  0
INSERT
  5
74AC
330
6D6A
100
AcDbEntity
  8
SUNPOU
100
AcDbBlockReference
  2
_OPEN
 10
353.9854156943123
 20
291.0470775316668
 30
0.0
 41
7.0
 42
7.0
 43
7.0
 50
90.0
  0
INSERT
  5
74AD
330
6D6A
100
AcDbEntity
  8
SUNPOU
100
AcDbBlockReference
  2
_OPEN
 10
353.9854156943123
 20
250.5470775316668
 30
0.0
 41
7.0
 42
7.0
 43
7.0
 50
270.0
  0
MTEXT
  5
74AE
330
6D6A
100
AcDbEntity
  8
SUNPOU
100
AcDbMText
 10
348.9854156943122
 20
270.7970775316669
 30
0.0
 40
6.0
 41
0.0
 71
     5
 72
     1
  1
\A1;41
 11
0.0000000000000001
 21
1.0
 31
0.0
  0
POINT
  5
74AF
330
6D6A
100
AcDbEntity
  8
DEFPOINTS
 62
     0
100
AcDbPoint
 10
383.4863568936433
 20
291.0470775316668
 30
0.0
  0
POINT
  5
74B0
330
6D6A
100
AcDbEntity
  8
DEFPOINTS
 62
     0
100
AcDbPoint
 10
389.9460162551763
 20
250.5470775316668
 30
0.0
  0
POINT
  5
74B1
330
6D6A
100
AcDbEntity
  8
DEFPOINTS
 62
     0
100
AcDbPoint
 10
353.9854156943123
 20
250.5470775316668
 30
0.0
  0
ENDBLK
  5
6D75
330
6D6A
100
AcDbEntity
  8
0
100
AcDbBlockEnd
  0
BLOCK
  5
6D81
330
6D77
100
AcDbEntity
  8
0
100
AcDbBlockBegin
  2
*D5
 70
     1
 10
0.0
 20
0.0
 30
0.0
  3
*D5
  1

  0
LINE
  5
74B2
330
6D77
100
AcDbEntity
  8
SUNPOU
100
AcDbLine
 10
531.1850029431536
 20
291.0470775316668
 30
0.0
 11
561.8969790001653
 21
291.0470775316668
 31
0.0
  0
LINE
  5
74B3
330
6D77
100
AcDbEntity
  8
SUNPOU
100
AcDbLine
 10
531.1850029431536
 20
228.5470775316669
 30
0.0
 11
561.8969790001651
 21
228.5470775316669
 31
0.0
  0
LINE
  5
74B4
330
6D77
100
AcDbEntity
  8
SUNPOU
100
AcDbLine
 10
558.8969790001653
 20
284.0470775316668
 30
0.0
 11
558.8969790001652
 21
235.5470775316669
 31
0.0
  0
INSERT
  5
74B5
330
6D77
100
AcDbEntity
  8
SUNPOU
100
AcDbBlockReference
  2
_OPEN
 10
558.8969790001653
 20
291.0470775316668
 30
0.0
 41
7.0
 42
7.0
 43
7.0
 50
90.0
  0
INSERT
  5
74B6
330
6D77
100
AcDbEntity
  8
SUNPOU
100
AcDbBlockReference
  2
_OPEN
 10
558.8969790001652
 20
228.5470775316669
 30
0.0
 41
7.0
 42
7.0
 43
7.0
 50
270.0
  0
MTEXT
  5
74B7
330
6D77
100
AcDbEntity
  8
SUNPOU
100
AcDbMText
 10
553.8969790001651
 20
259.7970775316669
 30
0.0
 40
6.0
 41
0.0
 71
     5
 72
     1
  1
\A1;63
 11
0.0000000000000001
 21
1.0
 31
0.0
  0
POINT
  5
74B8
330
6D77
100
AcDbEntity
  8
DEFPOINTS
 62
     0
100
AcDbPoint
 10
525.1850029431535
 20
291.0470775316668
 30
0.0
  0
POINT
  5
74B9
330
6D77
100
AcDbEntity
  8
DEFPOINTS
 62
     0
100
AcDbPoint
 10
525.1850029431535
 20
228.5470775316669
 30
0.0
  0
POINT
  5
74BA
330
6D77
100
AcDbEntity
  8
DEFPOINTS
 62
     0
100
AcDbPoint
 10
558.8969790001652
 20
228.5470775316669
 30
0.0
  0
ENDBLK
  5
6D82
330
6D77
100
AcDbEntity
  8
0
100
AcDbBlockEnd
  0
BLOCK
  5
6D8E
330
6D84
100
AcDbEntity
  8
0
100
AcDbBlockBegin
  2
*D6
 70
     1
 10
0.0
 20
0.0
 30
0.0
  3
*D6
  1

  0
LINE
  5
74BB
330
6D84
100
AcDbEntity
  8
SUNPOU
100
AcDbLine
 10
378.4863568936433
 20
292.0470775316668
 30
0.0
 11
378.4863568936433
 21
332.6161603572731
 31
0.0
  0
LINE
  5
74BC
330
6D84
100
AcDbEntity
  8
SUNPOU
100
AcDbLine
 10
530.1850029431537
 20
292.0470775316668
 30
0.0
 11
530.1850029431537
 21
332.6161603572731
 31
0.0
  0
LINE
  5
74BD
330
6D84
100
AcDbEntity
  8
SUNPOU
100
AcDbLine
 10
385.4863568936433
 20
329.6161603572731
 30
0.0
 11
523.1850029431536
 21
329.6161603572731
 31
0.0
  0
INSERT
  5
74BE
330
6D84
100
AcDbEntity
  8
SUNPOU
100
AcDbBlockReference
  2
_OPEN
 10
378.4863568936433
 20
329.6161603572731
 30
0.0
 41
7.0
 42
7.0
 43
7.0
 50
180.0
  0
INSERT
  5
74BF
330
6D84
100
AcDbEntity
  8
SUNPOU
100
AcDbBlockReference
  2
_OPEN
 10
530.1850029431537
 20
329.6161603572731
 30
0.0
 41
7.0
 42
7.0
 43
7.0
  0
MTEXT
  5
74C0
330
6D84
100
AcDbEntity
  8
SUNPOU
100
AcDbMText
 10
454.3356799183984
 20
334.6161603572731
 30
0.0
 40
6.0
 41
0.0
 71
     5
 72
     1
  1
\A1;152
  0
POINT
  5
74C1
330
6D84
100
AcDbEntity
  8
DEFPOINTS
 62
     0
100
AcDbPoint
 10
378.4863568936433
 20
286.0470775316668
 30
0.0
  0
POINT
  5
74C2
330
6D84
100
AcDbEntity
  8
DEFPOINTS
 62
     0
100
AcDbPoint
 10
530.1850029431537
 20
286.0470775316668
 30
0.0
  0
POINT
  5
74C3
330
6D84
100
AcDbEntity
  8
DEFPOINTS
 62
     0
100
AcDbPoint
 10
530.1850029431537
 20
329.6161603572731
 30
0.0
  0
ENDBLK
  5
6D8F
330
6D84
100
AcDbEntity
  8
0
100
AcDbBlockEnd
  0
BLOCK
  5
6D9B
330
6D91
100
AcDbEntity
  8
0
100
AcDbBlockBegin
  2
*D7
 70
     1
 10
0.0
 20
0.0
 30
0.0
  3
*D7
  1

  0
LINE
  5
74C4
330
6D91
100
AcDbEntity
  8
SUNPOU
100
AcDbLine
 10
373.2545428161847
 20
423.0035247208664
 30
0.0
 11
350.9854156943124
 21
423.0035247208664
 31
0.0
  0
LINE
  5
74C5
330
6D91
100
AcDbEntity
  8
SUNPOU
100
AcDbLine
 10
373.2545428161847
 20
373.0035247208663
 30
0.0
 11
350.9854156943123
 21
373.0035247208663
 31
0.0
  0
LINE
  5
74C6
330
6D91
100
AcDbEntity
  8
SUNPOU
100
AcDbLine
 10
353.9854156943123
 20
416.0035247208663
 30
0.0
 11
353.9854156943123
 21
380.0035247208663
 31
0.0
  0
INSERT
  5
74C7
330
6D91
100
AcDbEntity
  8
SUNPOU
100
AcDbBlockReference
  2
_OPEN
 10
353.9854156943123
 20
423.0035247208664
 30
0.0
 41
7.0
 42
7.0
 43
7.0
 50
90.0
  0
INSERT
  5
74C8
330
6D91
100
AcDbEntity
  8
SUNPOU
100
AcDbBlockReference
  2
_OPEN
 10
353.9854156943123
 20
373.0035247208663
 30
0.0
 41
7.0
 42
7.0
 43
7.0
 50
270.0
  0
MTEXT
  5
74C9
330
6D91
100
AcDbEntity
  8
SUNPOU
100
AcDbMText
 10
348.9854156943122
 20
398.0035247208663
 30
0.0
 40
6.0
 41
0.0
 71
     5
 72
     1
  1
\A1;50
 11
0.0000000000000001
 21
1.0
 31
0.0
  0
POINT
  5
74CA
330
6D91
100
AcDbEntity
  8
DEFPOINTS
 62
     0
100
AcDbPoint
 10
379.2545428161847
 20
423.0035247208664
 30
0.0
  0
POINT
  5
74CB
330
6D91
100
AcDbEntity
  8
DEFPOINTS
 62
     0
100
AcDbPoint
 10
379.2545428161847
 20
373.0035247208663
 30
0.0
  0
POINT
  5
74CC
330
6D91
100
AcDbEntity
  8
DEFPOINTS
 62
     0
100
AcDbPoint
 10
353.9854156943123
 20
373.0035247208663
 30
0.0
  0
ENDBLK
  5
6D9C
330
6D91
100
AcDbEntity
  8
0
100
AcDbBlockEnd
  0
BLOCK
  5
700D
330
7001
100
AcDbEntity
  8
0
100
AcDbBlockBegin
  2
*D8
 70
     1
 10
0.0
 20
0.0
 30
0.0
  3
*D8
  1

  0
LINE
  5
74CD
330
7001
100
AcDbEntity
  8
SUNPOU
100
AcDbLine
 10
452.2257184624162
 20
160.8234221206729
 30
0.0
 11
455.2257184624163
 21
160.8234221206729
 31
0.0
  0
LINE
  5
74CE
330
7001
100
AcDbEntity
  8
SUNPOU
100
AcDbLine
 10
452.2257184624162
 20
170.8234248734321
 30
0.0
 11
455.2257184624163
 21
170.8234248734321
 31
0.0
  0
LINE
  5
74CF
330
7001
100
AcDbEntity
  8
SUNPOU
100
AcDbLine
 10
458.2257184624163
 20
153.8234221206729
 30
0.0
 11
458.2257184624163
 21
146.8234221206729
 31
0.0
  0
LINE
  5
74D0
330
7001
100
AcDbEntity
  8
SUNPOU
100
AcDbLine
 10
458.2257184624163
 20
177.8234248734321
 30
0.0
 11
458.2257184624163
 21
184.8234248734321
 31
0.0
  0
MTEXT
  5
74D1
330
7001
100
AcDbEntity
  8
SUNPOU
100
AcDbMText
 10
449.5867902943476
 20
178.2451675988746
 30
0.0
 40
6.0
 41
0.0
 71
     5
 72
     1
  1
\A1;10
 11
0.0000000000000001
 21
1.0
 31
0.0
  0
LINE
  5
74D2
330
7001
100
AcDbEntity
  8
SUNPOU
100
AcDbLine
 10
458.2257184624163
 20
160.8234221206729
 30
0.0
 11
458.2257184624163
 21
170.8234248734321
 31
0.0
  0
INSERT
  5
74D3
330
7001
100
AcDbEntity
  8
SUNPOU
100
AcDbBlockReference
  2
_OPEN
 10
458.2257184624163
 20
160.8234221206729
 30
0.0
 41
7.0
 42
7.0
 43
7.0
 50
90.0
  0
INSERT
  5
74D4
330
7001
100
AcDbEntity
  8
SUNPOU
100
AcDbBlockReference
  2
_OPEN
 10
458.2257184624163
 20
170.8234248734321
 30
0.0
 41
7.0
 42
7.0
 43
7.0
 50
270.0
  0
POINT
  5
74D5
330
7001
100
AcDbEntity
  8
DEFPOINTS
 62
     0
100
AcDbPoint
 10
458.2257184624163
 20
160.8234221206729
 30
0.0
  0
POINT
  5
74D6
330
7001
100
AcDbEntity
  8
DEFPOINTS
 62
     0
100
AcDbPoint
 10
458.2257184624163
 20
170.8234248734321
 30
0.0
  0
POINT
  5
74D7
330
7001
100
AcDbEntity
  8
DEFPOINTS
 62
     0
100
AcDbPoint
 10
458.2257184624163
 20
170.8234248734321
 30
0.0
  0
ENDBLK
  5
700E
330
7001
100
AcDbEntity
  8
0
100
AcDbBlockEnd
  0
ENDSEC
  0
SECTION
  2
ENTITIES
  0
LINE
  5
5C5B
330
1A
100
AcDbEntity
  8
CENTER_L
  6
CENTER
 62
     1
 48
5.0
100
AcDbLine
 10
473.8088504485417
 20
431.8928946726726
 30
0.0
 11
473.8088504485416
 21
366.2774602296365
 31
0.0
  0
LINE
  5
5C60
330
1A
100
AcDbEntity
  8
SEIHIN
  6
CONTINUOUS
 62
     3
100
AcDbLine
 10
401.1285047960886
 20
291.0470775316668
 30
0.0
 11
383.4863568936433
 21
291.0470775316668
 31
0.0
  0
ARC
  5
5C61
330
1A
100
AcDbEntity
  8
SEIHIN
  6
CONTINUOUS
 62
     3
100
AcDbCircle
 10
1368.074156818452
 20
527.0430379032453
 30
0.0
 40
1009.999999999999
100
AcDbArc
 50
195.9735539763774
 51
200.3501951018383
  0
LINE
  5
5C62
330
1A
100
AcDbEntity
  8
SEIHIN
  6
CONTINUOUS
 62
     3
100
AcDbLine
 10
405.2863568936436
 20
260.5470775316669
 30
0.0
 11
393.4863536034672
 21
260.5470811079455
 31
0.0
  0
LINE
  5
5C69
330
1A
100
AcDbEntity
  8
SEIHIN
  6
CONTINUOUS
 62
     3
100
AcDbLine
 10
274.4884920221067
 20
172.5470775316669
 30
0.0
 11
274.4884920221067
 21
164.5977119649781
 31
0.0
  0
LINE
  5
5C6A
330
1A
100
AcDbEntity
  8
SEIHIN
  6
CONTINUOUS
 62
     3
100
AcDbLine
 10
277.4884920221067
 20
172.5470775316669
 30
0.0
 11
277.4884920221067
 21
164.5977119649781
 31
0.0
  0
LINE
  5
5C6B
330
1A
100
AcDbEntity
  8
SEIHIN
  6
CONTINUOUS
 62
     3
100
AcDbLine
 10
230.4884920221065
 20
172.5470775316669
 30
0.0
 11
230.4884920221065
 21
164.5977119649781
 31
0.0
  0
LINE
  5
5C6C
330
1A
100
AcDbEntity
  8
SEIHIN
  6
CONTINUOUS
 62
     3
100
AcDbLine
 10
227.4884920221067
 20
172.5470775316669
 30
0.0
 11
227.4884920221067
 21
164.5977119649781
 31
0.0
  0
LWPOLYLINE
  5
5C76
330
1A
100
AcDbEntity
  8
SEIHIN
  6
CONTINUOUS
 62
     3
100
AcDbPolyline
 90
        9
 70
   128
 43
0.0
 10
273.4884917389845
 20
168.092469551341
 10
273.6835814666246
 20
168.0732654470218
 10
273.8711759101843
 20
168.0163905087125
 10
274.0440629076457
 20
167.9240310161573
 10
274.1955984037613
 20
167.7997357740265
 10
274.3199616324401
 20
167.6482815358055
 10
274.4123711835836
 20
167.4754888347549
 10
274.4692768555379
 20
167.2879977680011
 10
274.4884919028974
 20
167.0930135126424
  0
LINE
  5
5C78
330
1A
100
AcDbEntity
  8
SEIHIN
  6
CONTINUOUS
 62
     3
100
AcDbLine
 10
273.4884920221066
 20
168.0924696633665
 30
0.0
 11
231.4884920221067
 21
168.0924696633665
 31
0.0
  0
LINE
  5
5C7A
330
1A
100
AcDbEntity
  8
SEIHIN
  6
CONTINUOUS
 62
     3
100
AcDbLine
 10
230.4884920221065
 20
161.2538309249821
 30
0.0
 11
230.4884920221065
 21
164.5977119649781
 31
0.0
  0
LINE
  5
5C7B
330
1A
100
AcDbEntity
  8
SEIHIN
  6
CONTINUOUS
 62
     3
100
AcDbLine
 10
227.4884920221067
 20
164.5977119649781
 30
0.0
 11
227.4884920221067
 21
161.2538309249821
 31
0.0
  0
LINE
  5
5C7C
330
1A
100
AcDbEntity
  8
SEIHIN
  6
CONTINUOUS
 62
     3
100
AcDbLine
 10
230.4884920221065
 20
161.2538309249821
 30
0.0
 11
230.4884920221065
 21
160.5470775316666
 31
0.0
  0
LINE
  5
5C7D
330
1A
100
AcDbEntity
  8
SEIHIN
  6
CONTINUOUS
 62
     3
100
AcDbLine
 10
227.4884920221067
 20
161.2538309249821
 30
0.0
 11
227.4884920221067
 21
160.5470775316666
 31
0.0
  0
LINE
  5
5C7F
330
1A
100
AcDbEntity
  8
SEIHIN
  6
CONTINUOUS
 62
     3
100
AcDbLine
 10
227.4884920221067
 20
160.5470775316666
 30
0.0
 11
230.4884920221065
 21
160.5470775316666
 31
0.0
  0
LWPOLYLINE
  5
5C81
330
1A
100
AcDbEntity
  8
SEIHIN
  6
CONTINUOUS
 62
     3
100
AcDbPolyline
 90
        9
 70
   128
 43
0.0
 10
231.4884923052287
 20
168.092469551341
 10
231.2934025775885
 20
168.0732654470218
 10
231.1058081340289
 20
168.0163905087125
 10
230.9329211365676
 20
167.9240310161573
 10
230.7813856404519
 20
167.7997357740265
 10
230.6570224117732
 20
167.6482815358055
 10
230.5646128606295
 20
167.4754888347549
 10
230.5077071886754
 20
167.2879977680011
 10
230.4884921413159
 20
167.0930135126424
  0
LINE
  5
5C85
330
1A
100
AcDbEntity
  8
SEIHIN
  6
CONTINUOUS
 62
     3
100
AcDbLine
 10
274.4884920221067
 20
161.2538309249821
 30
0.0
 11
274.4884920221067
 21
164.5977119649781
 31
0.0
  0
LINE
  5
5C86
330
1A
100
AcDbEntity
  8
SEIHIN
  6
CONTINUOUS
 62
     3
100
AcDbLine
 10
277.4884920221067
 20
164.5977119649781
 30
0.0
 11
277.4884920221067
 21
161.2538309249821
 31
0.0
  0
LINE
  5
5C87
330
1A
100
AcDbEntity
  8
SEIHIN
  6
CONTINUOUS
 62
     3
100
AcDbLine
 10
274.4884920221067
 20
161.2538309249821
 30
0.0
 11
274.4884920221067
 21
160.5470775316666
 31
0.0
  0
LINE
  5
5C88
330
1A
100
AcDbEntity
  8
SEIHIN
  6
CONTINUOUS
 62
     3
100
AcDbLine
 10
277.4884920221067
 20
161.2538309249821
 30
0.0
 11
277.4884920221067
 21
160.5470775316666
 31
0.0
  0
LINE
  5
5C8A
330
1A
100
AcDbEntity
  8
SEIHIN
  6
CONTINUOUS
 62
     3
100
AcDbLine
 10
274.4884920221067
 20
160.5470775316666
 30
0.0
 11
277.4884920221067
 21
160.5470775316666
 31
0.0
  0
LINE
  5
5C8E
330
1A
100
AcDbEntity
  8
SEIHIN
  6
CONTINUOUS
 62
     3
100
AcDbLine
 10
274.4884920221067
 20
249.0974648051285
 30
0.0
 11
274.4884920221067
 21
175.8082916591716
 31
0.0
  0
LINE
  5
5C8F
330
1A
100
AcDbEntity
  8
SEIHIN
  6
CONTINUOUS
 62
     3
100
AcDbLine
 10
277.4884920221067
 20
249.0974648051285
 30
0.0
 11
277.4884920221067
 21
175.8082916591716
 31
0.0
  0
LINE
  5
5C90
330
1A
100
AcDbEntity
  8
SEIHIN
  6
CONTINUOUS
 62
     3
100
AcDbLine
 10
230.4884920221065
 20
249.0974648051285
 30
0.0
 11
230.4884920221065
 21
175.8082916591716
 31
0.0
  0
LINE
  5
5C91
330
1A
100
AcDbEntity
  8
SEIHIN
  6
CONTINUOUS
 62
     3
100
AcDbLine
 10
227.4884920221067
 20
249.0974648051285
 30
0.0
 11
227.4884920221067
 21
175.8082916591716
 31
0.0
  0
LWPOLYLINE
  5
5C94
330
1A
100
AcDbEntity
  8
SEIHIN
  6
CONTINUOUS
 62
     3
100
AcDbPolyline
 90
        9
 70
   128
 43
0.0
 10
273.4884917389845
 20
171.1026645910193
 10
273.6835814666246
 20
171.0963136695525
 10
273.8711759101843
 20
171.0775049116661
 10
274.0440629076457
 20
171.046961256509
 10
274.1955984037613
 20
171.0058563160444
 10
274.3199616324401
 20
170.9557698461891
 10
274.4123711835836
 20
170.8986265996669
 10
274.4692768555379
 20
170.8366225769011
 10
274.4884919028974
 20
170.7721405375948
  0
ARC
  5
5C95
330
1A
100
AcDbEntity
  8
SEIHIN
  6
CONTINUOUS
 62
     3
100
AcDbCircle
 10
273.4884920221066
 20
178.5470775316667
 30
0.0
 40
1.0
100
AcDbArc
 50
0.0000000000007633
 51
90.0
  0
LINE
  5
5C97
330
1A
100
AcDbEntity
  8
SEIHIN
  6
CONTINUOUS
 62
     3
100
AcDbLine
 10
231.4884920221067
 20
171.1026645767988
 30
0.0
 11
273.4884920221066
 21
171.1026645767988
 31
0.0
  0
LINE
  5
5C99
330
1A
100
AcDbEntity
  8
SEIHIN
  6
CONTINUOUS
 62
     3
100
AcDbLine
 10
273.4884920221066
 20
179.5470775316667
 30
0.0
 11
231.4884920221067
 21
179.5470775316667
 31
0.0
  0
LWPOLYLINE
  5
5C9C
330
1A
100
AcDbEntity
  8
SEIHIN
  6
CONTINUOUS
 62
     3
100
AcDbPolyline
 90
        9
 70
   128
 43
0.0
 10
231.4884923052287
 20
171.1026645910193
 10
231.2934025775885
 20
171.0963136695525
 10
231.1058081340289
 20
171.0775049116661
 10
230.9329211365676
 20
171.046961256509
 10
230.7813856404519
 20
171.0058563160444
 10
230.6570224117732
 20
170.9557698461891
 10
230.5646128606295
 20
170.8986265996669
 10
230.5077071886754
 20
170.8366225769011
 10
230.4884921413159
 20
170.7721405375948
  0
LINE
  5
5C9D
330
1A
100
AcDbEntity
  8
SEIHIN
  6
CONTINUOUS
 62
     3
100
AcDbLine
 10
230.4884920221065
 20
172.5470775316669
 30
0.0
 11
230.4884920221065
 21
175.8082916591716
 31
0.0
  0
LINE
  5
5C9E
330
1A
100
AcDbEntity
  8
SEIHIN
  6
CONTINUOUS
 62
     3
100
AcDbLine
 10
227.4884920221067
 20
175.8082916591716
 30
0.0
 11
227.4884920221067
 21
172.5470775316669
 31
0.0
  0
LINE
  5
5C9F
330
1A
100
AcDbEntity
  8
SEIHIN
  6
CONTINUOUS
 62
     3
100
AcDbLine
 10
227.4884920221067
 20
172.5470775316669
 30
0.0
 11
230.4884920221065
 21
172.5470775316669
 31
0.0
  0
ARC
  5
5CA3
330
1A
100
AcDbEntity
  8
SEIHIN
  6
CONTINUOUS
 62
     3
100
AcDbCircle
 10
231.4884920221067
 20
178.5470775316667
 30
0.0
 40
1.0
100
AcDbArc
 50
90.0
 51
180.0000000000004
  0
LINE
  5
5CA9
330
1A
100
AcDbEntity
  8
SEIHIN
  6
CONTINUOUS
 62
     3
100
AcDbLine
 10
274.4884920221067
 20
172.5470775316669
 30
0.0
 11
274.4884920221067
 21
175.8082916591716
 31
0.0
  0
LINE
  5
5CAA
330
1A
100
AcDbEntity
  8
SEIHIN
  6
CONTINUOUS
 62
     3
100
AcDbLine
 10
277.4884920221067
 20
175.8082916591716
 30
0.0
 11
277.4884920221067
 21
172.5470775316669
 31
0.0
  0
LINE
  5
5CAB
330
1A
100
AcDbEntity
  8
SEIHIN
  6
CONTINUOUS
 62
     3
100
AcDbLine
 10
277.4884920221067
 20
172.5470775316669
 30
0.0
 11
274.4884920221067
 21
172.5470775316669
 31
0.0
  0
LINE
  5
5CAF
330
1A
100
AcDbEntity
  8
SEIHIN
  6
CONTINUOUS
 62
     3
100
AcDbLine
 10
274.4884920221067
 20
256.5470775316669
 30
0.0
 11
273.4884920221066
 21
256.5470775316669
 31
0.0
  0
LWPOLYLINE
  5
5CB0
330
1A
100
AcDbEntity
  8
SEIHIN
  6
CONTINUOUS
 62
     3
100
AcDbPolyline
 90
        7
 70
   128
 43
0.0
 10
274.4884919028974
 20
252.6893858860446
 10
274.4884211223816
 20
252.6910548160983
 10
274.4620199900364
 20
252.7212222169353
 10
274.3318713855243
 20
252.7642344187213
 10
274.1086892437434
 20
252.7986710022402
 10
273.817125673244
 20
252.8209631393863
 10
273.4884917389845
 20
252.8287042926264
  0
LWPOLYLINE
  5
5CB2
330
1A
100
AcDbEntity
  8
SEIHIN
  6
CONTINUOUS
 62
     3
100
AcDbPolyline
 90
        9
 70
   128
 43
0.0
 10
274.4884919028974
 20
259.2185755322887
 10
274.4692768555379
 20
259.2833732317401
 10
274.4123711835836
 20
259.3456749866915
 10
274.3199616324401
 20
259.403096611352
 10
274.1955984037613
 20
259.4534252832843
 10
274.0440629076457
 20
259.4947313021136
 10
273.8711759101843
 20
259.5254202435924
 10
273.6835814666246
 20
259.5443223665668
 10
273.4884917389845
 20
259.5507000635577
  0
LINE
  5
5CB6
330
1A
100
AcDbEntity
  8
SEIHIN
  6
CONTINUOUS
 62
     3
100
AcDbLine
 10
273.7743491792524
 20
283.5470775316668
 30
0.0
 11
269.4884920221066
 21
283.5470775316668
 31
0.0
  0
LWPOLYLINE
  5
5CBC
330
1A
100
AcDbEntity
  8
SEIHIN
  6
CONTINUOUS
 62
     3
100
AcDbPolyline
 90
        6
 70
   128
 43
0.0
 10
274.4884527873492
 20
286.8001480649425
 10
274.4751795780158
 20
286.6533716271831
 10
274.3281218808388
 20
286.3270883511019
 10
274.0878983985877
 20
286.1055527876331
 10
273.7449761133884
 20
285.9620322535945
 10
273.4884917389845
 20
285.9330792973948
  0
LINE
  5
5CC0
330
1A
100
AcDbEntity
  8
SEIHIN
  6
CONTINUOUS
 62
     3
100
AcDbLine
 10
230.4884921413159
 20
273.0379422257854
 30
0.0
 11
230.4884920221065
 21
253.8864519345473
 31
0.0
  0
LINE
  5
5CC1
330
1A
100
AcDbEntity
  8
SEIHIN
  6
CONTINUOUS
 62
     3
100
AcDbLine
 10
227.4884916495776
 20
273.0379422257854
 30
0.0
 11
227.4884920221067
 21
253.8864519345473
 31
0.0
  0
LINE
  5
5CC2
330
1A
100
AcDbEntity
  8
SEIHIN
  6
CONTINUOUS
 62
     3
100
AcDbLine
 10
273.4884920221066
 20
252.8287036385202
 30
0.0
 11
231.4884920221067
 21
252.8287036385202
 31
0.0
  0
LINE
  5
5CC3
330
1A
100
AcDbEntity
  8
SEIHIN
  6
CONTINUOUS
 62
     3
100
AcDbLine
 10
273.4884920221066
 20
256.5470775316669
 30
0.0
 11
231.4884920221067
 21
256.5470775316669
 31
0.0
  0
LINE
  5
5CC5
330
1A
100
AcDbEntity
  8
SEIHIN
  6
CONTINUOUS
 62
     3
100
AcDbLine
 10
231.4884920221067
 20
259.550702173395
 30
0.0
 11
273.4884920221066
 21
259.550702173395
 31
0.0
  0
LINE
  5
5CC6
330
1A
100
AcDbEntity
  8
SEIHIN
  6
CONTINUOUS
 62
     3
100
AcDbLine
 10
230.4884920221065
 20
250.5470775316668
 30
0.0
 11
230.4884920221065
 21
253.8864519345473
 31
0.0
  0
LINE
  5
5CC7
330
1A
100
AcDbEntity
  8
SEIHIN
  6
CONTINUOUS
 62
     3
100
AcDbLine
 10
227.4884920221067
 20
253.8864519345473
 30
0.0
 11
227.4884920221067
 21
250.5470775316668
 31
0.0
  0
LINE
  5
5CC8
330
1A
100
AcDbEntity
  8
SEIHIN
  6
CONTINUOUS
 62
     3
100
AcDbLine
 10
230.4884920221065
 20
249.0974648051285
 30
0.0
 11
230.4884920221065
 21
250.5470775316668
 31
0.0
  0
LINE
  5
5CC9
330
1A
100
AcDbEntity
  8
SEIHIN
  6
CONTINUOUS
 62
     3
100
AcDbLine
 10
227.4884920221067
 20
250.5470775316668
 30
0.0
 11
227.4884920221067
 21
249.0974648051285
 31
0.0
  0
LINE
  5
5CCB
330
1A
100
AcDbEntity
  8
SEIHIN
  6
CONTINUOUS
 62
     3
100
AcDbLine
 10
227.4884920221067
 20
250.5470775316668
 30
0.0
 11
230.4884920221065
 21
250.5470775316668
 31
0.0
  0
LINE
  5
5CCD
330
1A
100
AcDbEntity
  8
SEIHIN
  6
CONTINUOUS
 62
     3
100
AcDbLine
 10
230.4884920221065
 20
256.5470775316669
 30
0.0
 11
231.4884920221067
 21
256.5470775316669
 31
0.0
  0
LWPOLYLINE
  5
5CCE
330
1A
100
AcDbEntity
  8
SEIHIN
  6
CONTINUOUS
 62
     3
100
AcDbPolyline
 90
        7
 70
   128
 43
0.0
 10
230.4884921413159
 20
252.6893858860446
 10
230.4885629218316
 20
252.6910548160983
 10
230.5149640541768
 20
252.7212222169353
 10
230.645112658689
 20
252.7642344187213
 10
230.8682948004698
 20
252.7986710022402
 10
231.1598583709693
 20
252.8209631393863
 10
231.4884923052287
 20
252.8287042926264
  0
LWPOLYLINE
  5
5CD2
330
1A
100
AcDbEntity
  8
SEIHIN
  6
CONTINUOUS
 62
     3
100
AcDbPolyline
 90
        9
 70
   128
 43
0.0
 10
230.4884921413159
 20
259.2185755322887
 10
230.5077071886754
 20
259.2833732317401
 10
230.5646128606295
 20
259.3456749866915
 10
230.6570224117732
 20
259.403096611352
 10
230.7813856404519
 20
259.4534252832843
 10
230.9329211365676
 20
259.4947313021136
 10
231.1058081340289
 20
259.5254202435924
 10
231.2934025775885
 20
259.5443223665668
 10
231.4884923052287
 20
259.5507000635577
  0
LINE
  5
5CDD
330
1A
100
AcDbEntity
  8
SEIHIN
  6
CONTINUOUS
 62
     3
100
AcDbLine
 10
267.4884920221066
 20
283.5470775316668
 30
0.0
 11
237.4884920221067
 21
283.5470775316668
 31
0.0
  0
LINE
  5
5CDF
330
1A
100
AcDbEntity
  8
SEIHIN
  6
CONTINUOUS
 62
     3
100
AcDbLine
 10
267.4884920221066
 20
285.9330761591631
 30
0.0
 11
237.4884920221067
 21
285.9330761591631
 31
0.0
  0
LINE
  5
5CE0
330
1A
100
AcDbEntity
  8
SEIHIN
  6
CONTINUOUS
 62
     3
100
AcDbLine
 10
235.4884920221067
 20
284.3281541705568
 30
0.0
 11
235.4884920221067
 21
285.8862300526815
 31
0.0
  0
LINE
  5
5CE1
330
1A
100
AcDbEntity
  8
SEIHIN
  6
CONTINUOUS
 62
     3
100
AcDbLine
 10
237.4884920221067
 20
284.3281541705568
 30
0.0
 11
237.4884920221067
 21
285.8862300526815
 31
0.0
  0
LINE
  5
5CE5
330
1A
100
AcDbEntity
  8
SEIHIN
  6
CONTINUOUS
 62
     3
100
AcDbLine
 10
227.4884920221067
 20
286.0470775316668
 30
0.0
 11
227.4884916495776
 21
273.0379422257854
 31
0.0
  0
LINE
  5
5CE6
330
1A
100
AcDbEntity
  8
SEIHIN
  6
CONTINUOUS
 62
     3
100
AcDbLine
 10
230.4884920221065
 20
286.0470775316668
 30
0.0
 11
230.4884921413159
 21
284.8159317921115
 31
0.0
  0
LINE
  5
5CE7
330
1A
100
AcDbEntity
  8
SEIHIN
  6
CONTINUOUS
 62
     3
100
AcDbLine
 10
237.4884920221067
 20
280.0470775316668
 30
0.0
 11
237.4884920221067
 21
275.2343370837186
 31
0.0
  0
LINE
  5
5CE8
330
1A
100
AcDbEntity
  8
SEIHIN
  6
CONTINUOUS
 62
     3
100
AcDbLine
 10
235.4884920221067
 20
275.2343370837186
 30
0.0
 11
235.4884920221067
 21
280.0470775316668
 31
0.0
  0
LINE
  5
5CEA
330
1A
100
AcDbEntity
  8
SEIHIN
  6
CONTINUOUS
 62
     3
100
AcDbLine
 10
230.4884920221065
 20
280.2782197776219
 30
0.0
 11
230.4884921413159
 21
273.0379422257854
 31
0.0
  0
ARC
  5
5CEE
330
1A
100
AcDbEntity
  8
SEIHIN
  6
CONTINUOUS
 62
     3
100
AcDbCircle
 10
236.4884920221066
 20
275.2343370837186
 30
0.0
 40
1.0
100
AcDbArc
 50
270.0
 51
0.0
  0
ARC
  5
5CEF
330
1A
100
AcDbEntity
  8
SEIHIN
  6
CONTINUOUS
 62
     3
100
AcDbCircle
 10
236.4884920221066
 20
275.2343370837186
 30
0.0
 40
1.0
100
AcDbArc
 50
180.0000000000004
 51
270.0
  0
LINE
  5
5CF5
330
1A
100
AcDbEntity
  8
SEIHIN
  6
CONTINUOUS
 62
     3
100
AcDbLine
 10
231.202634864961
 20
283.5470775316668
 30
0.0
 11
235.4884920221067
 21
283.5470775316668
 31
0.0
  0
LINE
  5
5D00
330
1A
100
AcDbEntity
  8
SEIHIN
  6
CONTINUOUS
 62
     3
100
AcDbLine
 10
231.202634864961
 20
283.5470775316668
 30
0.0
 11
230.4884920221065
 21
283.5470775316668
 31
0.0
  0
LINE
  5
5D02
330
1A
100
AcDbEntity
  8
SEIHIN
  6
CONTINUOUS
 62
     3
100
AcDbLine
 10
230.4884920221065
 20
281.5470775316668
 30
0.0
 11
230.4884920221065
 21
280.2782197776219
 31
0.0
  0
LINE
  5
5D03
330
1A
100
AcDbEntity
  8
SEIHIN
  6
CONTINUOUS
 62
     3
100
AcDbLine
 10
230.4884920221065
 20
283.5470775316668
 30
0.0
 11
230.4884920221065
 21
281.5470775316668
 31
0.0
  0
LINE
  5
5D04
330
1A
100
AcDbEntity
  8
SEIHIN
  6
CONTINUOUS
 62
     3
100
AcDbLine
 10
230.4884921413159
 20
284.8159317921115
 30
0.0
 11
230.4884920221065
 21
283.5470775316668
 31
0.0
  0
LINE
  5
5D07
330
1A
100
AcDbEntity
  8
SEIHIN
  6
CONTINUOUS
 62
     3
100
AcDbLine
 10
237.4884920221067
 20
284.3281541705568
 30
0.0
 11
237.4884920221067
 21
284.0470775316668
 31
0.0
  0
LINE
  5
5D08
330
1A
100
AcDbEntity
  8
SEIHIN
  6
CONTINUOUS
 62
     3
100
AcDbLine
 10
235.4884920221067
 20
284.0470775316668
 30
0.0
 11
235.4884920221067
 21
284.3281541705568
 31
0.0
  0
LINE
  5
5D09
330
1A
100
AcDbEntity
  8
SEIHIN
  6
CONTINUOUS
 62
     3
100
AcDbLine
 10
237.4884920221067
 20
281.0470775316669
 30
0.0
 11
237.4884920221067
 21
280.0470775316668
 31
0.0
  0
LINE
  5
5D0A
330
1A
100
AcDbEntity
  8
SEIHIN
  6
CONTINUOUS
 62
     3
100
AcDbLine
 10
235.4884920221067
 20
280.0470775316668
 30
0.0
 11
235.4884920221067
 21
281.0470775316669
 31
0.0
  0
LINE
  5
5D0B
330
1A
100
AcDbEntity
  8
SEIHIN
  6
CONTINUOUS
 62
     3
100
AcDbLine
 10
237.4884920221067
 20
281.5470775316668
 30
0.0
 11
237.4884920221067
 21
281.0470775316669
 31
0.0
  0
LINE
  5
5D0C
330
1A
100
AcDbEntity
  8
SEIHIN
  6
CONTINUOUS
 62
     3
100
AcDbLine
 10
237.4884920221067
 20
284.0470775316668
 30
0.0
 11
237.4884920221067
 21
283.5470775316668
 31
0.0
  0
LINE
  5
5D0D
330
1A
100
AcDbEntity
  8
SEIHIN
  6
CONTINUOUS
 62
     3
100
AcDbLine
 10
235.4884920221067
 20
281.0470775316669
 30
0.0
 11
235.4884920221067
 21
281.5470775316668
 31
0.0
  0
LINE
  5
5D0E
330
1A
100
AcDbEntity
  8
SEIHIN
  6
CONTINUOUS
 62
     3
100
AcDbLine
 10
237.4884920221067
 20
281.5470775316668
 30
0.0
 11
237.4884920221067
 21
283.5470775316668
 31
0.0
  0
LINE
  5
5D0F
330
1A
100
AcDbEntity
  8
SEIHIN
  6
CONTINUOUS
 62
     3
100
AcDbLine
 10
235.4884920221067
 20
283.5470775316668
 30
0.0
 11
235.4884920221067
 21
284.0470775316668
 31
0.0
  0
LINE
  5
5D10
330
1A
100
AcDbEntity
  8
SEIHIN
  6
CONTINUOUS
 62
     3
100
AcDbLine
 10
235.4884920221067
 20
281.5470775316668
 30
0.0
 11
235.4884920221067
 21
283.5470775316668
 31
0.0
  0
LINE
  5
5D12
330
1A
100
AcDbEntity
  8
SEIHIN
  6
CONTINUOUS
 62
     3
100
AcDbLine
 10
235.4884920221067
 20
285.9330761591631
 30
0.0
 11
231.4884920221067
 21
285.9330603879366
 31
0.0
  0
LINE
  5
5D15
330
1A
100
AcDbEntity
  8
SEIHIN
  6
CONTINUOUS
 62
     3
100
AcDbLine
 10
230.4884920221065
 20
286.0470775316668
 30
0.0
 11
230.4884920221065
 21
291.0470775316668
 31
0.0
  0
LINE
  5
5D16
330
1A
100
AcDbEntity
  8
SEIHIN
  6
CONTINUOUS
 62
     3
100
AcDbLine
 10
227.4884920221067
 20
291.0470775316668
 30
0.0
 11
227.4884920221067
 21
286.0470775316668
 31
0.0
  0
LINE
  5
5D17
330
1A
100
AcDbEntity
  8
SEIHIN
  6
CONTINUOUS
 62
     3
100
AcDbLine
 10
230.4884920221065
 20
291.0470775316668
 30
0.0
 11
227.4884920221067
 21
291.0470775316668
 31
0.0
  0
LWPOLYLINE
  5
5D19
330
1A
100
AcDbEntity
  8
SEIHIN
  6
CONTINUOUS
 62
     3
100
AcDbPolyline
 90
        6
 70
   128
 43
0.0
 10
231.4884923052287
 20
285.9330792973948
 10
231.2990575682616
 20
285.9487478683901
 10
230.9698257249093
 20
286.0584725688411
 10
230.7045776050782
 20
286.2602715443088
 10
230.5372077625489
 20
286.5285967539263
 10
230.488531256864
 20
286.8001480649425
  0
LINE
  5
5D1A
330
1A
100
AcDbEntity
  8
SEIHIN
  6
CONTINUOUS
 62
     3
100
AcDbLine
 10
235.4884920221067
 20
285.8862300526815
 30
0.0
 11
235.4884920221067
 21
285.9330761591631
 31
0.0
  0
LINE
  5
5D1B
330
1A
100
AcDbEntity
  8
SEIHIN
  6
CONTINUOUS
 62
     3
100
AcDbLine
 10
237.4884920221067
 20
285.9330761591631
 30
0.0
 11
237.4884920221067
 21
285.8862300526815
 31
0.0
  0
LINE
  5
5D1C
330
1A
100
AcDbEntity
  8
SEIHIN
  6
CONTINUOUS
 62
     3
100
AcDbLine
 10
269.4884920221066
 20
284.3281541705568
 30
0.0
 11
269.4884920221066
 21
285.8862300526815
 31
0.0
  0
LINE
  5
5D1D
330
1A
100
AcDbEntity
  8
SEIHIN
  6
CONTINUOUS
 62
     3
100
AcDbLine
 10
267.4884920221066
 20
284.3281541705568
 30
0.0
 11
267.4884920221066
 21
285.8862300526815
 31
0.0
  0
LINE
  5
5D1F
330
1A
100
AcDbEntity
  8
SEIHIN
  6
CONTINUOUS
 62
     3
100
AcDbLine
 10
267.4884920221066
 20
280.0470775316668
 30
0.0
 11
267.4884920221066
 21
275.2343370837186
 31
0.0
  0
LINE
  5
5D20
330
1A
100
AcDbEntity
  8
SEIHIN
  6
CONTINUOUS
 62
     3
100
AcDbLine
 10
269.4884920221066
 20
275.2343370837186
 30
0.0
 11
269.4884920221066
 21
280.0470775316668
 31
0.0
  0
ARC
  5
5D22
330
1A
100
AcDbEntity
  8
SEIHIN
  6
CONTINUOUS
 62
     3
100
AcDbCircle
 10
268.4884920221067
 20
275.2343370837186
 30
0.0
 40
1.000000000000011
100
AcDbArc
 50
180.0000000000004
 51
270.0
  0
ARC
  5
5D23
330
1A
100
AcDbEntity
  8
SEIHIN
  6
CONTINUOUS
 62
     3
100
AcDbCircle
 10
268.4884920221067
 20
275.2343370837186
 30
0.0
 40
1.0
100
AcDbArc
 50
270.0
 51
0.0
  0
LINE
  5
5D27
330
1A
100
AcDbEntity
  8
SEIHIN
  6
CONTINUOUS
 62
     3
100
AcDbLine
 10
267.4884920221066
 20
284.3281541705568
 30
0.0
 11
267.4884920221066
 21
284.0470775316668
 31
0.0
  0
LINE
  5
5D28
330
1A
100
AcDbEntity
  8
SEIHIN
  6
CONTINUOUS
 62
     3
100
AcDbLine
 10
267.4884920221066
 20
281.0470775316669
 30
0.0
 11
267.4884920221066
 21
280.0470775316668
 31
0.0
  0
LINE
  5
5D29
330
1A
100
AcDbEntity
  8
SEIHIN
  6
CONTINUOUS
 62
     3
100
AcDbLine
 10
267.4884920221066
 20
281.5470775316668
 30
0.0
 11
267.4884920221066
 21
281.0470775316669
 31
0.0
  0
LINE
  5
5D2A
330
1A
100
AcDbEntity
  8
SEIHIN
  6
CONTINUOUS
 62
     3
100
AcDbLine
 10
267.4884920221066
 20
284.0470775316668
 30
0.0
 11
267.4884920221066
 21
283.5470775316668
 31
0.0
  0
LINE
  5
5D2B
330
1A
100
AcDbEntity
  8
SEIHIN
  6
CONTINUOUS
 62
     3
100
AcDbLine
 10
267.4884920221066
 20
281.5470775316668
 30
0.0
 11
267.4884920221066
 21
283.5470775316668
 31
0.0
  0
LINE
  5
5D2C
330
1A
100
AcDbEntity
  8
SEIHIN
  6
CONTINUOUS
 62
     3
100
AcDbLine
 10
269.4884920221066
 20
284.0470775316668
 30
0.0
 11
269.4884920221066
 21
284.3281541705568
 31
0.0
  0
LINE
  5
5D2F
330
1A
100
AcDbEntity
  8
SEIHIN
  6
CONTINUOUS
 62
     3
100
AcDbLine
 10
269.4884920221066
 20
280.0470775316668
 30
0.0
 11
269.4884920221066
 21
281.0470775316669
 31
0.0
  0
LINE
  5
5D32
330
1A
100
AcDbEntity
  8
SEIHIN
  6
CONTINUOUS
 62
     3
100
AcDbLine
 10
269.4884920221066
 20
281.5470775316668
 30
0.0
 11
269.4884920221066
 21
283.5470775316668
 31
0.0
  0
LINE
  5
5D33
330
1A
100
AcDbEntity
  8
SEIHIN
  6
CONTINUOUS
 62
     3
100
AcDbLine
 10
269.4884920221066
 20
281.0470775316669
 30
0.0
 11
269.4884920221066
 21
281.5470775316668
 31
0.0
  0
LINE
  5
5D35
330
1A
100
AcDbEntity
  8
SEIHIN
  6
CONTINUOUS
 62
     3
100
AcDbLine
 10
269.4884920221066
 20
283.5470775316668
 30
0.0
 11
269.4884920221066
 21
284.0470775316668
 31
0.0
  0
LINE
  5
5D39
330
1A
100
AcDbEntity
  8
SEIHIN
  6
CONTINUOUS
 62
     3
100
AcDbLine
 10
267.4884920221066
 20
285.9330761591631
 30
0.0
 11
267.4884920221066
 21
285.8862300526815
 31
0.0
  0
LINE
  5
5D3A
330
1A
100
AcDbEntity
  8
SEIHIN
  6
CONTINUOUS
 62
     3
100
AcDbLine
 10
269.4884920221066
 20
285.8862300526815
 30
0.0
 11
269.4884920221066
 21
285.9330761591631
 31
0.0
  0
LINE
  5
5D3D
330
1A
100
AcDbEntity
  8
SEIHIN
  6
CONTINUOUS
 62
     3
100
AcDbLine
 10
273.4884920221066
 20
285.9330479077306
 30
0.0
 11
269.4884920221066
 21
285.9330761591631
 31
0.0
  0
LINE
  5
5D3E
330
1A
100
AcDbEntity
  8
SEIHIN
  6
CONTINUOUS
 62
     3
100
AcDbLine
 10
274.4884919028974
 20
273.0379422257854
 30
0.0
 11
274.4884920221067
 21
253.8864519345473
 31
0.0
  0
LINE
  5
5D3F
330
1A
100
AcDbEntity
  8
SEIHIN
  6
CONTINUOUS
 62
     3
100
AcDbLine
 10
277.4884923946356
 20
273.0379422257854
 30
0.0
 11
277.4884920221067
 21
253.8864519345473
 31
0.0
  0
LINE
  5
5D40
330
1A
100
AcDbEntity
  8
SEIHIN
  6
CONTINUOUS
 62
     3
100
AcDbLine
 10
393.4863536034672
 20
260.5470811079455
 30
0.0
 11
388.4863583718388
 21
274.7470756123973
 31
0.0
  0
LINE
  5
5D41
330
1A
100
AcDbEntity
  8
SEIHIN
  6
CONTINUOUS
 62
     3
100
AcDbLine
 10
378.4863604580014
 20
273.0379422257854
 30
0.0
 11
385.2298395593566
 21
253.8864519345473
 31
0.0
  0
LINE
  5
5D42
330
1A
100
AcDbEntity
  8
SEIHIN
  6
CONTINUOUS
 62
     3
100
AcDbLine
 10
274.4884920221067
 20
250.5470775316668
 30
0.0
 11
274.4884920221067
 21
253.8864519345473
 31
0.0
  0
LINE
  5
5D43
330
1A
100
AcDbEntity
  8
SEIHIN
  6
CONTINUOUS
 62
     3
100
AcDbLine
 10
277.4884920221067
 20
253.8864519345473
 30
0.0
 11
277.4884920221067
 21
250.5470775316668
 31
0.0
  0
LINE
  5
5D44
330
1A
100
AcDbEntity
  8
SEIHIN
  6
CONTINUOUS
 62
     3
100
AcDbLine
 10
274.4884920221067
 20
249.0974648051285
 30
0.0
 11
274.4884920221067
 21
250.5470775316668
 31
0.0
  0
LINE
  5
5D45
330
1A
100
AcDbEntity
  8
SEIHIN
  6
CONTINUOUS
 62
     3
100
AcDbLine
 10
277.4884920221067
 20
250.5470775316668
 30
0.0
 11
277.4884920221067
 21
249.0974648051285
 31
0.0
  0
LINE
  5
5D47
330
1A
100
AcDbEntity
  8
SEIHIN
  6
CONTINUOUS
 62
     3
100
AcDbLine
 10
277.4884920221067
 20
250.5470775316668
 30
0.0
 11
274.4884920221067
 21
250.5470775316668
 31
0.0
  0
ARC
  5
5D49
330
1A
100
AcDbEntity
  8
SEIHIN
  6
CONTINUOUS
 62
     3
100
AcDbCircle
 10
389.9460162551763
 20
255.5470775316669
 30
0.0
 40
5.000000000000028
100
AcDbArc
 50
199.3978124485584
 51
270.0
  0
LINE
  5
5D4A
330
1A
100
AcDbEntity
  8
SEIHIN
  6
CONTINUOUS
 62
     3
100
AcDbLine
 10
389.9460162551763
 20
250.5470775316668
 30
0.0
 11
395.1486714616798
 21
250.5470775316668
 31
0.0
  0
ARC
  5
5D4B
330
1A
100
AcDbEntity
  8
SEIHIN
  6
CONTINUOUS
 62
     3
100
AcDbCircle
 10
395.1486714616798
 20
248.5470775316668
 30
0.0
 40
2.000000000000026
100
AcDbArc
 50
15.97355397637645
 51
90.0
  0
ARC
  5
5D4D
330
1A
100
AcDbEntity
  8
SEIHIN
  6
CONTINUOUS
 62
     3
100
AcDbCircle
 10
383.4863568936433
 20
286.0470775316668
 30
0.0
 40
5.000000000000011
100
AcDbArc
 50
90.0
 51
180.0000000000004
  0
LINE
  5
5D4E
330
1A
100
AcDbEntity
  8
SEIHIN
  6
CONTINUOUS
 62
     3
100
AcDbLine
 10
274.4884920221067
 20
286.0470775316668
 30
0.0
 11
274.4884919028974
 21
284.8159317921115
 31
0.0
  0
LINE
  5
5D4F
330
1A
100
AcDbEntity
  8
SEIHIN
  6
CONTINUOUS
 62
     3
100
AcDbLine
 10
277.4884920221067
 20
286.0470775316668
 30
0.0
 11
277.4884923946356
 21
273.0379422257854
 31
0.0
  0
LINE
  5
5D50
330
1A
100
AcDbEntity
  8
SEIHIN
  6
CONTINUOUS
 62
     3
100
AcDbLine
 10
378.4863568936433
 20
286.0470775316668
 30
0.0
 11
378.4863604580014
 21
273.0379422257854
 31
0.0
  0
LINE
  5
5D51
330
1A
100
AcDbEntity
  8
SEIHIN
  6
CONTINUOUS
 62
     3
100
AcDbLine
 10
274.4884920221067
 20
280.2782197776219
 30
0.0
 11
274.4884919028974
 21
273.0379422257854
 31
0.0
  0
LINE
  5
5D55
330
1A
100
AcDbEntity
  8
SEIHIN
  6
CONTINUOUS
 62
     3
100
AcDbLine
 10
274.4884920221067
 20
283.5470775316668
 30
0.0
 11
274.4884920221067
 21
281.5470775316668
 31
0.0
  0
LINE
  5
5D56
330
1A
100
AcDbEntity
  8
SEIHIN
  6
CONTINUOUS
 62
     3
100
AcDbLine
 10
274.4884920221067
 20
281.5470775316668
 30
0.0
 11
274.4884920221067
 21
280.2782197776219
 31
0.0
  0
LINE
  5
5D57
330
1A
100
AcDbEntity
  8
SEIHIN
  6
CONTINUOUS
 62
     3
100
AcDbLine
 10
273.7743491792524
 20
283.5470775316668
 30
0.0
 11
274.4884920221067
 21
283.5470775316668
 31
0.0
  0
LINE
  5
5D58
330
1A
100
AcDbEntity
  8
SEIHIN
  6
CONTINUOUS
 62
     3
100
AcDbLine
 10
274.4884919028974
 20
284.8159317921115
 30
0.0
 11
274.4884920221067
 21
283.5470775316668
 31
0.0
  0
LINE
  5
5D59
330
1A
100
AcDbEntity
  8
SEIHIN
  6
CONTINUOUS
 62
     3
100
AcDbLine
 10
274.4884920221067
 20
286.0470775316668
 30
0.0
 11
274.4884920221067
 21
291.0470775316668
 31
0.0
  0
LINE
  5
5D5B
330
1A
100
AcDbEntity
  8
SEIHIN
  6
CONTINUOUS
 62
     3
100
AcDbLine
 10
277.4884920221067
 20
291.0470775316668
 30
0.0
 11
277.4884920221067
 21
286.0470775316668
 31
0.0
  0
LINE
  5
5D5C
330
1A
100
AcDbEntity
  8
SEIHIN
  6
CONTINUOUS
 62
     3
100
AcDbLine
 10
274.4884920221067
 20
291.0470775316668
 30
0.0
 11
277.4884920221067
 21
291.0470775316668
 31
0.0
  0
ARC
  5
5D5D
330
1A
100
AcDbEntity
  8
SEIHIN
  6
CONTINUOUS
 62
     3
100
AcDbCircle
 10
393.3778835804287
 20
283.5470775316668
 30
0.0
 40
5.0
100
AcDbArc
 50
270.0
 51
294.9999999999998
  0
LINE
  5
5D5E
330
1A
100
AcDbEntity
  8
SEIHIN
  6
CONTINUOUS
 62
     3
100
AcDbLine
 10
389.0883340206994
 20
280.9216656301969
 30
0.0
 11
396.3391958151905
 21
279.4110720108461
 31
0.0
  0
LINE
  5
5D5F
330
1A
100
AcDbEntity
  8
SEIHIN
  6
CONTINUOUS
 62
     3
100
AcDbLine
 10
388.4863583718388
 20
274.7470756123973
 30
0.0
 11
388.4863568936433
 21
280.4321754203281
 31
0.0
  0
LINE
  5
5D60
330
1A
100
AcDbEntity
  8
SEIHIN
  6
CONTINUOUS
 62
     3
100
AcDbLine
 10
393.286357668504
 20
280.0470759223415
 30
0.0
 11
392.9863600407689
 21
278.5470803330851
 31
0.0
  0
LINE
  5
5D61
330
1A
100
AcDbEntity
  8
SEIHIN
  6
CONTINUOUS
 62
     3
100
AcDbLine
 10
392.9863600407689
 20
278.5470803330851
 30
0.0
 11
393.3778835804287
 21
278.5470775316669
 31
0.0
  0
ARC
  5
5D62
330
1A
100
AcDbEntity
  8
SEIHIN
  6
CONTINUOUS
 62
     3
100
AcDbCircle
 10
388.9863568936433
 20
280.4321754203281
 30
0.0
 40
0.5000000000000063
100
AcDbArc
 50
78.23171106797443
 51
180.0000000000004
  0
ARC
  5
5D63
330
1A
100
AcDbEntity
  8
SEIHIN
  6
CONTINUOUS
 62
     3
100
AcDbCircle
 10
401.6211814960608
 20
273.0470775316669
 30
0.0
 40
8.000000000000031
100
AcDbArc
 50
90.0
 51
114.9999999999996
  0
LINE
  5
5D65
330
1A
100
AcDbEntity
  8
SEIHIN
  6
CONTINUOUS
 62
     3
100
AcDbLine
 10
396.3391958151905
 20
279.4110720108461
 30
0.0
 11
395.4909748891321
 21
279.0155385964836
 31
0.0
  0
LINE
  5
5D73
330
1A
100
AcDbEntity
  8
SEIHIN
  6
CONTINUOUS
 62
     3
100
AcDbLine
 10
428.692928550109
 20
172.5470776266618
 30
0.0
 11
431.4768488418766
 21
164.5977119649781
 31
0.0
  0
LINE
  5
5D74
330
1A
100
AcDbEntity
  8
SEIHIN
  6
CONTINUOUS
 62
     3
100
AcDbLine
 10
517.3632664931901
 20
165.8526898352303
 30
0.0
 11
522.8483146403878
 21
228.5470758627368
 31
0.0
  0
ARC
  5
5D75
330
1A
100
AcDbEntity
  8
SEIHIN
  6
CONTINUOUS
 62
     3
100
AcDbCircle
 10
473.7863568936436
 20
1170.547077531666
 30
0.0
 40
1010.0
100
AcDbArc
 50
267.8564371446755
 51
272.2009235693109
  0
ARC
  5
5D79
330
1A
100
AcDbEntity
  8
SEIHIN
  6
CONTINUOUS
 62
     3
100
AcDbCircle
 10
436.195836714071
 20
166.2503321458074
 30
0.0
 40
5.000000000000065
100
AcDbArc
 50
199.3005854307726
 51
267.8564371446755
  0
ARC
  5
5D7E
330
1A
100
AcDbEntity
  8
SEIHIN
  6
CONTINUOUS
 62
     3
100
AcDbCircle
 10
512.3822930027313
 20
166.2884685489686
 30
0.0
 40
4.999999999999974
100
AcDbArc
 50
272.2009235693109
 51
355.0000000000004
  0
ARC
  5
5D8D
330
1A
100
AcDbEntity
  8
SEIHIN
  6
CONTINUOUS
 62
     3
100
AcDbCircle
 10
473.7863568936436
 20
1170.547077531666
 30
0.0
 40
1000.0
100
AcDbArc
 50
268.1104374228915
 51
271.8722183374838
  0
ARC
  5
5D8E
330
1A
100
AcDbEntity
  8
SEIHIN
  6
CONTINUOUS
 62
     3
100
AcDbCircle
 10
1368.074156818452
 20
527.0430379032453
 30
0.0
 40
999.9999999999996
100
AcDbArc
 50
195.8902741136706
 51
200.1310183832329
  0
LINE
  5
5D90
330
1A
100
AcDbEntity
  8
SEIHIN
  6
CONTINUOUS
 62
     3
100
AcDbLine
 10
425.8015987526095
 20
172.5470775316669
 30
0.0
 11
428.692928550109
 21
172.5470776266618
 31
0.0
  0
ARC
  5
5D91
330
1A
100
AcDbEntity
  8
SEIHIN
  6
CONTINUOUS
 62
     3
100
AcDbCircle
 10
425.8015987526095
 20
177.5470775316669
 30
0.0
 40
4.999999999999988
100
AcDbArc
 50
200.3501951018538
 51
270.0
  0
ARC
  5
5D93
330
1A
100
AcDbEntity
  8
SEIHIN
  6
CONTINUOUS
 62
     3
100
AcDbCircle
 10
440.8627059625268
 20
172.590022739545
 30
0.0
 40
1.500000000000041
100
AcDbArc
 50
199.3005854307806
 51
268.1104374228915
  0
LINE
  5
5D94
330
1A
100
AcDbEntity
  8
SEIHIN
  6
CONTINUOUS
 62
     3
100
AcDbLine
 10
439.4470096008685
 20
172.0942366852961
 30
0.0
 11
436.1380391351675
 21
181.5428635859156
 31
0.0
  0
LINE
  5
5D95
330
1A
100
AcDbEntity
  8
SEIHIN
  6
CONTINUOUS
 62
     3
100
AcDbLine
 10
434.7223427735094
 20
182.5470775316667
 30
0.0
 11
429.6355444158963
 21
182.5470775316667
 31
0.0
  0
ARC
  5
5D96
330
1A
100
AcDbEntity
  8
SEIHIN
  6
CONTINUOUS
 62
     3
100
AcDbCircle
 10
429.6355444158963
 20
183.0470775316669
 30
0.0
 40
0.5000000000000455
100
AcDbArc
 50
200.131018383254
 51
270.0
  0
ARC
  5
5D97
330
1A
100
AcDbEntity
  8
SEIHIN
  6
CONTINUOUS
 62
     3
100
AcDbCircle
 10
434.7223427735094
 20
181.0470775316669
 30
0.0
 40
1.500000000000034
100
AcDbArc
 50
19.30058543077477
 51
90.0
  0
ARC
  5
5D99
330
1A
100
AcDbEntity
  8
SEIHIN
  6
CONTINUOUS
 62
     3
100
AcDbCircle
 10
405.2863568936436
 20
259.5470775316669
 30
0.0
 40
1.0
100
AcDbArc
 50
0.0
 51
90.0
  0
LINE
  5
5D9A
330
1A
100
AcDbEntity
  8
SEIHIN
  6
CONTINUOUS
 62
     3
100
AcDbLine
 10
406.2863568936436
 20
253.2470775316669
 30
0.0
 11
406.2863568936436
 21
259.5470775316669
 31
0.0
  0
ARC
  5
5D9C
330
1A
100
AcDbEntity
  8
SEIHIN
  6
CONTINUOUS
 62
     3
100
AcDbCircle
 10
409.1285047960885
 20
284.3459948730338
 30
0.0
 40
2.000000000000005
100
AcDbArc
 50
294.9999999999998
 51
0.0
  0
LINE
  5
5D9D
330
1A
100
AcDbEntity
  8
SEIHIN
  6
CONTINUOUS
 62
     3
100
AcDbLine
 10
406.7863552247136
 20
281.0470779488994
 30
0.0
 11
409.9737413195701
 21
282.5333792989604
 31
0.0
  0
LINE
  5
5DA1
330
1A
100
AcDbEntity
  8
SEIHIN
  6
CONTINUOUS
 62
     3
100
AcDbLine
 10
513.525275895005
 20
236.721389017162
 30
0.0
 11
507.9022027088307
 21
172.4493683969333
 31
0.0
  0
LINE
  5
5DA2
330
1A
100
AcDbEntity
  8
SEIHIN
  6
CONTINUOUS
 62
     3
100
AcDbLine
 10
530.1850029431537
 20
233.5470775316669
 30
0.0
 11
530.1850029431537
 21
286.0470775316668
 31
0.0
  0
ARC
  5
5DA3
330
1A
100
AcDbEntity
  8
SEIHIN
  6
CONTINUOUS
 62
     3
100
AcDbCircle
 10
506.4079106616931
 20
172.5801020110548
 30
0.0
 40
1.500000000000274
100
AcDbArc
 50
271.8722183374838
 51
354.9999999998953
  0
ARC
  5
5DA5
330
1A
100
AcDbEntity
  8
SEIHIN
  6
CONTINUOUS
 62
     3
100
AcDbCircle
 10
525.1850029431535
 20
233.5470775316669
 30
0.0
 40
5.0
100
AcDbArc
 50
270.0
 51
0.0
  0
LINE
  5
5DA6
330
1A
100
AcDbEntity
  8
SEIHIN
  6
CONTINUOUS
 62
     3
100
AcDbLine
 10
522.8483146403878
 20
228.5470758627368
 30
0.0
 11
525.1850029431535
 21
228.5470775316669
 31
0.0
  0
LINE
  5
5DAA
330
1A
100
AcDbEntity
  8
SEIHIN
  6
CONTINUOUS
 62
     3
100
AcDbLine
 10
510.2850029431535
 20
286.0470775316668
 30
0.0
 11
510.2850029431535
 21
258.2470775316668
 31
0.0
  0
LINE
  5
5DAB
330
1A
100
AcDbEntity
  8
SEIHIN
  6
CONTINUOUS
 62
     3
100
AcDbLine
 10
520.1850029431535
 20
257.0470775316668
 30
0.0
 11
520.1850029431535
 21
240.5470775316668
 31
0.0
  0
ARC
  5
5DAC
330
1A
100
AcDbEntity
  8
SEIHIN
  6
CONTINUOUS
 62
     3
100
AcDbCircle
 10
515.5176652911883
 20
236.5470775316669
 30
0.0
 40
2.0
100
AcDbArc
 50
90.0
 51
174.999999999999
  0
LINE
  5
5DAD
330
1A
100
AcDbEntity
  8
SEIHIN
  6
CONTINUOUS
 62
     3
100
AcDbLine
 10
518.1850029431537
 20
238.5470775316668
 30
0.0
 11
515.5176652911883
 21
238.5470775316667
 31
0.0
  0
ARC
  5
5DAE
330
1A
100
AcDbEntity
  8
SEIHIN
  6
CONTINUOUS
 62
     3
100
AcDbCircle
 10
518.1850029431537
 20
240.5470775316668
 30
0.0
 40
2.0
100
AcDbArc
 50
270.0
 51
0.0
  0
LINE
  5
5DAF
330
1A
100
AcDbEntity
  8
SEIHIN
  6
CONTINUOUS
 62
     3
100
AcDbLine
 10
513.2850027059165
 20
257.5470750282718
 30
0.0
 11
519.6850029431535
 21
257.5470775316669
 31
0.0
  0
ARC
  5
5DB0
330
1A
100
AcDbEntity
  8
SEIHIN
  6
CONTINUOUS
 62
     3
100
AcDbCircle
 10
512.2850029431536
 20
258.2470775316668
 30
0.0
 40
2.0
100
AcDbArc
 50
180.0000000000004
 51
270.0
  0
LINE
  5
5DB1
330
1A
100
AcDbEntity
  8
SEIHIN
  6
CONTINUOUS
 62
     3
100
AcDbLine
 10
512.2850029431536
 20
256.2470775316668
 30
0.0
 11
513.2850027059165
 21
256.2470753739787
 31
0.0
  0
LINE
  5
5DB2
330
1A
100
AcDbEntity
  8
SEIHIN
  6
CONTINUOUS
 62
     3
100
AcDbLine
 10
513.2850027059165
 20
256.2470753739787
 30
0.0
 11
513.2850027059165
 21
257.5470750282718
 31
0.0
  0
ARC
  5
5DB3
330
1A
100
AcDbEntity
  8
SEIHIN
  6
CONTINUOUS
 62
     3
100
AcDbCircle
 10
519.6850029431535
 20
257.0470775316668
 30
0.0
 40
0.5
100
AcDbArc
 50
0.0
 51
90.0
  0
LINE
  5
5DB4
330
1A
100
AcDbEntity
  8
SEIHIN
  6
CONTINUOUS
 62
     3
100
AcDbLine
 10
525.1850029431535
 20
291.0470775316668
 30
0.0
 11
515.2850029431536
 21
291.0470775316668
 31
0.0
  0
ARC
  5
5DB5
330
1A
100
AcDbEntity
  8
SEIHIN
  6
CONTINUOUS
 62
     3
100
AcDbCircle
 10
515.2850029431536
 20
286.0470775316668
 30
0.0
 40
5.0
100
AcDbArc
 50
90.0
 51
180.0000000000004
  0
ARC
  5
5DB7
330
1A
100
AcDbEntity
  8
SEIHIN
  6
CONTINUOUS
 62
     3
100
AcDbCircle
 10
525.1850029431535
 20
286.0470775316668
 30
0.0
 40
5.0
100
AcDbArc
 50
0.0
 51
90.0
  0
LINE
  5
5DDD
330
1A
100
AcDbEntity
  8
SEIHIN
  6
CONTINUOUS
 62
     3
100
AcDbLine
 10
380.0545428161848
 20
413.0035247208663
 30
0.0
 11
406.224374840327
 21
413.0035247208663
 31
0.0
  0
LINE
  5
5DDF
330
1A
100
AcDbEntity
  8
SEIHIN
  6
CONTINUOUS
 62
     3
100
AcDbLine
 10
380.0545428161848
 20
415.0035247208664
 30
0.0
 11
404.89669071863
 21
415.0035247208664
 31
0.0
  0
LINE
  5
5DE4
330
1A
100
AcDbEntity
  8
SEIHIN
  6
CONTINUOUS
 62
     3
100
AcDbLine
 10
406.8966907186298
 20
423.0035247208664
 30
0.0
 11
384.2545428161847
 21
423.0035247208664
 31
0.0
  0
LINE
  5
5DE5
330
1A
100
AcDbEntity
  8
SEIHIN
  6
CONTINUOUS
 62
     3
100
AcDbLine
 10
404.89669071863
 20
420.0035247208663
 30
0.0
 11
384.2545428161847
 21
420.0035247208663
 31
0.0
  0
LINE
  5
5DEC
330
1A
100
AcDbEntity
  8
SEIHIN
  6
CONTINUOUS
 62
     3
100
AcDbLine
 10
379.5545428161848
 20
383.0035247208663
 30
0.0
 11
379.5545428161848
 21
413.0035247208663
 31
0.0
  0
LINE
  5
5E09
330
1A
100
AcDbEntity
  8
SEIHIN
  6
CONTINUOUS
 62
     3
100
AcDbLine
 10
384.2545428161847
 20
423.0035247208664
 30
0.0
 11
379.2545428161847
 21
423.0035247208664
 31
0.0
  0
LINE
  5
5E0A
330
1A
100
AcDbEntity
  8
SEIHIN
  6
CONTINUOUS
 62
     3
100
AcDbLine
 10
379.2545428161847
 20
420.0035247208663
 30
0.0
 11
384.2545428161847
 21
420.0035247208663
 31
0.0
  0
LINE
  5
5E0D
330
1A
100
AcDbEntity
  8
SEIHIN
  6
CONTINUOUS
 62
     3
100
AcDbLine
 10
379.5545428161848
 20
419.2893818780121
 30
0.0
 11
379.5545428161848
 21
415.0035247208664
 31
0.0
  0
LINE
  5
5E0E
330
1A
100
AcDbEntity
  8
SEIHIN
  6
CONTINUOUS
 62
     3
100
AcDbLine
 10
380.0545428161848
 20
415.0035247208664
 30
0.0
 11
380.0545428161848
 21
419.0035247208664
 31
0.0
  0
LINE
  5
5E0F
330
1A
100
AcDbEntity
  8
SEIHIN
  6
CONTINUOUS
 62
     3
100
AcDbLine
 10
380.0545428161848
 20
413.0035247208663
 30
0.0
 11
379.5545428161848
 21
413.0035247208663
 31
0.0
  0
LINE
  5
5E10
330
1A
100
AcDbEntity
  8
SEIHIN
  6
CONTINUOUS
 62
     3
100
AcDbLine
 10
379.5545428161848
 20
415.0035247208664
 30
0.0
 11
380.0545428161848
 21
415.0035247208664
 31
0.0
  0
ARC
  5
5E11
330
1A
100
AcDbEntity
  8
SEIHIN
  6
CONTINUOUS
 62
     3
100
AcDbCircle
 10
378.5545428161848
 20
419.2893818780121
 30
0.0
 40
1.0
100
AcDbArc
 50
0.0
 51
45.57299599919803
  0
LWPOLYLINE
  5
5E12
330
1A
100
AcDbEntity
  8
SEIHIN
  6
CONTINUOUS
 62
     3
100
AcDbPolyline
 90
        8
 70
   128
 43
0.0
 10
379.5545440082778
 20
419.2893827261516
 10
379.5547600751151
 20
419.2887494268008
 10
379.5610781674613
 20
419.2706761809179
 10
379.5740123753776
 20
419.2364854665586
 10
379.6474452977407
 20
419.0965989532061
 10
379.7151561742057
 20
419.0276140274593
 10
379.7455470924604
 20
419.0116194935629
 10
379.7878738408317
 20
419.0035244377443
  0
LINE
  5
5E14
330
1A
100
AcDbEntity
  8
SEIHIN
  6
CONTINUOUS
 62
     3
100
AcDbLine
 10
379.7878761495179
 20
419.0035247208664
 30
0.0
 11
380.0545428161848
 21
419.0035247208664
 31
0.0
  0
LINE
  5
5E15
330
1A
100
AcDbEntity
  8
SEIHIN
  6
CONTINUOUS
 62
     3
100
AcDbLine
 10
380.0545428161848
 20
419.0035247208664
 30
0.0
 11
380.0545428161848
 21
420.0035247208663
 31
0.0
  0
LINE
  5
5E16
330
1A
100
AcDbEntity
  8
SEIHIN
  6
CONTINUOUS
 62
     3
100
AcDbLine
 10
379.2545428161847
 20
423.0035247208664
 30
0.0
 11
379.2545428161847
 21
420.0035247208663
 31
0.0
  0
LINE
  5
5E18
330
1A
100
AcDbEntity
  8
SEIHIN
  6
CONTINUOUS
 62
     3
100
AcDbLine
 10
386.2545428161847
 20
414.0035247208663
 30
0.0
 11
386.2545428161847
 21
413.0035247208663
 31
0.0
  0
LINE
  5
5E19
330
1A
100
AcDbEntity
  8
SEIHIN
  6
CONTINUOUS
 62
     3
100
AcDbLine
 10
386.2545428161847
 20
415.0035247208664
 30
0.0
 11
386.2545428161847
 21
414.0035247208663
 31
0.0
  0
LINE
  5
5E1A
330
1A
100
AcDbEntity
  8
SEIHIN
  6
CONTINUOUS
 62
     3
100
AcDbLine
 10
394.2545395260085
 20
413.0035243855902
 30
0.0
 11
394.2545395260085
 21
415.0035256447385
 31
0.0
  0
LINE
  5
5E1B
330
1A
100
AcDbEntity
  8
SEIHIN
  6
CONTINUOUS
 62
     3
100
AcDbLine
 10
389.2545428161847
 20
413.0035247208663
 30
0.0
 11
389.2545428161847
 21
413.130267525686
 31
0.0
  0
LWPOLYLINE
  5
5E1C
330
1A
100
AcDbEntity
  8
SEIHIN
  6
CONTINUOUS
 62
     3
100
AcDbPolyline
 90
        7
 70
   128
 43
0.0
 10
389.2545442943801
 20
413.1302671434471
 10
389.3059980039824
 20
413.2296904849002
 10
389.3504854207267
 20
413.3532863037774
 10
389.3866132860411
 20
413.497194268007
 10
389.4132565622557
 20
413.6569207461664
 10
389.4295882349241
 20
413.8274719866106
 10
389.4350867634047
 20
414.0035254808256
  0
LINE
  5
5E1D
330
1A
100
AcDbEntity
  8
SEIHIN
  6
CONTINUOUS
 62
     3
100
AcDbLine
 10
389.2545428161847
 20
414.8767819160467
 30
0.0
 11
389.2545428161847
 21
415.0035247208664
 31
0.0
  0
LWPOLYLINE
  5
5E1E
330
1A
100
AcDbEntity
  8
SEIHIN
  6
CONTINUOUS
 62
     3
100
AcDbPolyline
 90
        7
 70
   128
 43
0.0
 10
389.4350867634047
 20
414.0035254808256
 10
389.4295882349241
 20
414.1795771123955
 10
389.4132565622557
 20
414.3501302154848
 10
389.3866132860411
 20
414.5098557623216
 10
389.3504854207267
 20
414.6537637265512
 10
389.3059980039824
 20
414.7773595454284
 10
389.2545442943801
 20
414.8767819555588
  0
LINE
  5
5EE3
330
1A
100
AcDbEntity
  8
SEIHIN
  6
CONTINUOUS
 62
     3
100
AcDbLine
 10
507.2251024236456
 20
423.0035247208666
 30
0.0
 11
441.5814322191724
 21
423.0035247208666
 31
0.0
  0
LINE
  5
5EE4
330
1A
100
AcDbEntity
  8
SEIHIN
  6
CONTINUOUS
 62
     3
100
AcDbLine
 10
507.2251024236456
 20
373.0035247208667
 30
0.0
 11
441.5814322191724
 21
373.0035247208667
 31
0.0
  0
LINE
  5
5EE5
330
1A
100
AcDbEntity
  8
SEIHIN
  6
CONTINUOUS
 62
     3
100
AcDbLine
 10
441.5814322191724
 20
423.0035247208666
 30
0.0
 11
441.5814322191724
 21
373.0035247208667
 31
0.0
  0
LINE
  5
5EE7
330
1A
100
AcDbEntity
  8
SEIHIN
  6
CONTINUOUS
 62
     3
100
AcDbLine
 10
436.906225057709
 20
423.0035247208665
 30
0.0
 11
436.906225057709
 21
373.0035247208667
 31
0.0
  0
LINE
  5
5EE9
330
1A
100
AcDbEntity
  8
SEIHIN
  6
CONTINUOUS
 62
     3
100
AcDbLine
 10
430.4037303384376
 20
423.0035247208665
 30
0.0
 11
430.4037303384376
 21
373.0035247208667
 31
0.0
  0
LINE
  5
5EED
330
1A
100
AcDbEntity
  8
SEIHIN
  6
CONTINUOUS
 62
     3
100
AcDbLine
 10
407.4922296255492
 20
413.0035247208663
 30
0.0
 11
407.4922296255492
 21
383.0035247208663
 31
0.0
  0
LINE
  5
5EEF
330
1A
100
AcDbEntity
  8
SEIHIN
  6
CONTINUOUS
 62
     3
100
AcDbLine
 10
410.8335341374445
 20
383.0035247208663
 30
0.0
 11
410.8335341374445
 21
413.0035247208663
 31
0.0
  0
LINE
  5
5EF0
330
1A
100
AcDbEntity
  8
SEIHIN
  6
CONTINUOUS
 62
     3
100
AcDbLine
 10
411.8966907186297
 20
383.0035247208663
 30
0.0
 11
411.8966907186297
 21
413.0035247208663
 31
0.0
  0
LINE
  5
5EF3
330
1A
100
AcDbEntity
  8
SEIHIN
  6
CONTINUOUS
 62
     3
100
AcDbLine
 10
429.93427630522
 20
373.0035247208667
 30
0.0
 11
411.8966907186297
 21
373.0035247208663
 31
0.0
  0
LINE
  5
5EF5
330
1A
100
AcDbEntity
  8
SEIHIN
  6
CONTINUOUS
 62
     3
100
AcDbLine
 10
441.5814322191724
 20
373.0035247208667
 30
0.0
 11
440.2151955234097
 21
373.0035247208667
 31
0.0
  0
LINE
  5
5EF6
330
1A
100
AcDbEntity
  8
SEIHIN
  6
CONTINUOUS
 62
     3
100
AcDbLine
 10
435.4905286960506
 20
373.0035247208667
 30
0.0
 11
430.4037303384376
 21
373.0035247208667
 31
0.0
  0
LINE
  5
5EF7
330
1A
100
AcDbEntity
  8
SEIHIN
  6
CONTINUOUS
 62
     3
100
AcDbLine
 10
430.4037303384376
 20
373.0035247208667
 30
0.0
 11
429.93427630522
 21
373.0035247208667
 31
0.0
  0
LINE
  5
5EF8
330
1A
100
AcDbEntity
  8
SEIHIN
  6
CONTINUOUS
 62
     3
100
AcDbLine
 10
440.2151955234097
 20
373.0035247208667
 30
0.0
 11
436.906225057709
 21
373.0035247208667
 31
0.0
  0
LINE
  5
5EF9
330
1A
100
AcDbEntity
  8
SEIHIN
  6
CONTINUOUS
 62
     3
100
AcDbLine
 10
436.906225057709
 20
373.0035247208667
 30
0.0
 11
435.4905286960506
 21
373.0035247208667
 31
0.0
  0
LINE
  5
5F18
330
1A
100
AcDbEntity
  8
SEIHIN
  6
CONTINUOUS
 62
     3
100
AcDbLine
 10
429.93427630522
 20
423.0035247208665
 30
0.0
 11
411.8966907186297
 21
423.0035247208664
 31
0.0
  0
LINE
  5
5F1F
330
1A
100
AcDbEntity
  8
SEIHIN
  6
CONTINUOUS
 62
     3
100
AcDbLine
 10
411.497997161833
 20
413.0035247208663
 30
0.0
 11
411.7093062927033
 21
413.0035247208663
 31
0.0
  0
LINE
  5
5F21
330
1A
100
AcDbEntity
  8
SEIHIN
  6
CONTINUOUS
 62
     3
100
AcDbLine
 10
407.0545401339759
 20
423.0035247208664
 30
0.0
 11
407.0545401339759
 21
413.0035243855902
 31
0.0
  0
LINE
  5
5F23
330
1A
100
AcDbEntity
  8
SEIHIN
  6
CONTINUOUS
 62
     3
100
AcDbLine
 10
407.4922296255492
 20
413.0035247208663
 30
0.0
 11
406.224374840327
 21
413.0035247208663
 31
0.0
  0
LINE
  5
5F25
330
1A
100
AcDbEntity
  8
SEIHIN
  6
CONTINUOUS
 62
     3
100
AcDbLine
 10
407.4922296255492
 20
413.0035247208663
 30
0.0
 11
410.8335341374445
 21
413.0035247208663
 31
0.0
  0
LINE
  5
5F27
330
1A
100
AcDbEntity
  8
SEIHIN
  6
CONTINUOUS
 62
     3
100
AcDbLine
 10
411.497997161833
 20
413.0035247208663
 30
0.0
 11
410.8335341374445
 21
413.0035247208663
 31
0.0
  0
LINE
  5
5F29
330
1A
100
AcDbEntity
  8
SEIHIN
  6
CONTINUOUS
 62
     3
100
AcDbLine
 10
411.8966907186297
 20
413.0035247208663
 30
0.0
 11
411.7093062927033
 21
413.0035247208663
 31
0.0
  0
LINE
  5
5F2B
330
1A
100
AcDbEntity
  8
SEIHIN
  6
CONTINUOUS
 62
     3
100
AcDbLine
 10
411.8966907186297
 20
423.0035247208664
 30
0.0
 11
406.8966907186298
 21
423.0035247208664
 31
0.0
  0
LINE
  5
5F36
330
1A
100
AcDbEntity
  8
SEIHIN
  6
CONTINUOUS
 62
     3
100
AcDbLine
 10
441.5814322191724
 20
423.0035247208666
 30
0.0
 11
440.2151955234097
 21
423.0035247208666
 31
0.0
  0
LINE
  5
5F37
330
1A
100
AcDbEntity
  8
SEIHIN
  6
CONTINUOUS
 62
     3
100
AcDbLine
 10
435.4905286960506
 20
423.0035247208665
 30
0.0
 11
430.4037303384376
 21
423.0035247208665
 31
0.0
  0
LINE
  5
5F38
330
1A
100
AcDbEntity
  8
SEIHIN
  6
CONTINUOUS
 62
     3
100
AcDbLine
 10
430.4037303384376
 20
423.0035247208665
 30
0.0
 11
429.93427630522
 21
423.0035247208665
 31
0.0
  0
LINE
  5
5F39
330
1A
100
AcDbEntity
  8
SEIHIN
  6
CONTINUOUS
 62
     3
100
AcDbLine
 10
440.2151955234097
 20
423.0035247208666
 30
0.0
 11
436.906225057709
 21
423.0035247208665
 31
0.0
  0
LINE
  5
5F3A
330
1A
100
AcDbEntity
  8
SEIHIN
  6
CONTINUOUS
 62
     3
100
AcDbLine
 10
436.906225057709
 20
423.0035247208665
 30
0.0
 11
435.4905286960506
 21
423.0035247208665
 31
0.0
  0
LINE
  5
5F6A
330
1A
100
AcDbEntity
  8
SEIHIN
  6
CONTINUOUS
 62
     3
100
AcDbLine
 10
507.2251024236456
 20
373.0035247208667
 30
0.0
 11
507.2251024236456
 21
423.0035247208666
 31
0.0
  0
LINE
  5
5F6C
330
1A
100
AcDbEntity
  8
SEIHIN
  6
CONTINUOUS
 62
     3
100
AcDbLine
 10
511.0531888656948
 20
377.0035247208665
 30
0.0
 11
511.0531888656948
 21
419.0035247208665
 31
0.0
  0
LINE
  5
5F70
330
1A
100
AcDbEntity
  8
SEIHIN
  6
CONTINUOUS
 62
     3
100
AcDbLine
 10
521.4531888656948
 20
419.0035247208664
 30
0.0
 11
521.4531888656948
 21
377.0035247208663
 31
0.0
  0
LINE
  5
5F71
330
1A
100
AcDbEntity
  8
SEIHIN
  6
CONTINUOUS
 62
     3
100
AcDbLine
 10
528.453188865695
 20
377.0035247208663
 30
0.0
 11
528.453188865695
 21
419.0035247208664
 31
0.0
  0
LINE
  5
5F76
330
1A
100
AcDbEntity
  8
SEIHIN
  6
CONTINUOUS
 62
     3
100
AcDbLine
 10
511.0531888656948
 20
373.0035247208663
 30
0.0
 11
511.0531888656948
 21
376.0035247208663
 31
0.0
  0
LINE
  5
5F79
330
1A
100
AcDbEntity
  8
SEIHIN
  6
CONTINUOUS
 62
     3
100
AcDbLine
 10
530.9531888656948
 20
376.0035247208663
 30
0.0
 11
530.9531888656948
 21
373.0035247208663
 31
0.0
  0
LINE
  5
5F7A
330
1A
100
AcDbEntity
  8
SEIHIN
  6
CONTINUOUS
 62
     3
100
AcDbLine
 10
525.9531888656948
 20
373.0035247208663
 30
0.0
 11
516.0531888656947
 21
373.0035247208663
 31
0.0
  0
LINE
  5
5F7B
330
1A
100
AcDbEntity
  8
SEIHIN
  6
CONTINUOUS
 62
     3
100
AcDbLine
 10
511.0531888656948
 20
373.0035247208663
 30
0.0
 11
508.6703886313721
 21
373.0035247208667
 31
0.0
  0
LINE
  5
5F7C
330
1A
100
AcDbEntity
  8
SEIHIN
  6
CONTINUOUS
 62
     3
100
AcDbLine
 10
508.6703886313721
 20
373.0035247208667
 30
0.0
 11
507.2251024236456
 21
373.0035247208667
 31
0.0
  0
LINE
  5
5F7D
330
1A
100
AcDbEntity
  8
SEIHIN
  6
CONTINUOUS
 62
     3
100
AcDbLine
 10
516.0531888656947
 20
373.0035247208663
 30
0.0
 11
511.0531888656948
 21
373.0035247208663
 31
0.0
  0
LINE
  5
5F7E
330
1A
100
AcDbEntity
  8
SEIHIN
  6
CONTINUOUS
 62
     3
100
AcDbLine
 10
530.9531888656948
 20
373.0035247208663
 30
0.0
 11
525.9531888656948
 21
373.0035247208663
 31
0.0
  0
LINE
  5
5F80
330
1A
100
AcDbEntity
  8
SEIHIN
  6
CONTINUOUS
 62
     3
100
AcDbLine
 10
525.9531888656948
 20
376.0035247208663
 30
0.0
 11
516.0531888656947
 21
376.0035247208663
 31
0.0
  0
LINE
  5
5F82
330
1A
100
AcDbEntity
  8
SEIHIN
  6
CONTINUOUS
 62
     3
100
AcDbLine
 10
511.0531888656948
 20
376.0035247208663
 30
0.0
 11
511.0531888656948
 21
377.0035247208665
 31
0.0
  0
LINE
  5
5F85
330
1A
100
AcDbEntity
  8
SEIHIN
  6
CONTINUOUS
 62
     3
100
AcDbLine
 10
511.0531888656948
 20
376.0035247208663
 30
0.0
 11
516.0531888656947
 21
376.0035247208663
 31
0.0
  0
LINE
  5
5F89
330
1A
100
AcDbEntity
  8
SEIHIN
  6
CONTINUOUS
 62
     3
100
AcDbLine
 10
521.4531888656948
 20
377.0035247208663
 30
0.0
 11
521.4531888656948
 21
376.0035247208663
 31
0.0
  0
LINE
  5
5F8C
330
1A
100
AcDbEntity
  8
SEIHIN
  6
CONTINUOUS
 62
     3
100
AcDbLine
 10
525.9531888656948
 20
376.0035247208663
 30
0.0
 11
530.9531888656948
 21
376.0035247208663
 31
0.0
  0
LINE
  5
5F8F
330
1A
100
AcDbEntity
  8
SEIHIN
  6
CONTINUOUS
 62
     3
100
AcDbLine
 10
528.453188865695
 20
377.0035247208663
 30
0.0
 11
528.453188865695
 21
376.0035247208663
 31
0.0
  0
LINE
  5
5F9D
330
1A
100
AcDbEntity
  8
SEIHIN
  6
CONTINUOUS
 62
     3
100
AcDbLine
 10
525.9531888656948
 20
420.0035247208663
 30
0.0
 11
516.0531888656947
 21
420.0035247208663
 31
0.0
  0
LINE
  5
5F9E
330
1A
100
AcDbEntity
  8
SEIHIN
  6
CONTINUOUS
 62
     3
100
AcDbLine
 10
525.9531888656948
 20
423.0035247208664
 30
0.0
 11
516.0531888656947
 21
423.0035247208664
 31
0.0
  0
LINE
  5
5F9F
330
1A
100
AcDbEntity
  8
SEIHIN
  6
CONTINUOUS
 62
     3
100
AcDbLine
 10
511.0531888656948
 20
423.0035247208664
 30
0.0
 11
508.6703886313721
 21
423.0035247208666
 31
0.0
  0
LINE
  5
5FA0
330
1A
100
AcDbEntity
  8
SEIHIN
  6
CONTINUOUS
 62
     3
100
AcDbLine
 10
508.6703886313721
 20
423.0035247208666
 30
0.0
 11
507.2251024236456
 21
423.0035247208666
 31
0.0
  0
LINE
  5
5FA2
330
1A
100
AcDbEntity
  8
SEIHIN
  6
CONTINUOUS
 62
     3
100
AcDbLine
 10
511.0531888656948
 20
420.0035247208663
 30
0.0
 11
511.0531888656948
 21
419.0035247208665
 31
0.0
  0
LINE
  5
5FA5
330
1A
100
AcDbEntity
  8
SEIHIN
  6
CONTINUOUS
 62
     3
100
AcDbLine
 10
511.0531888656948
 20
420.0035247208663
 30
0.0
 11
516.0531888656947
 21
420.0035247208663
 31
0.0
  0
LINE
  5
5FA6
330
1A
100
AcDbEntity
  8
SEIHIN
  6
CONTINUOUS
 62
     3
100
AcDbLine
 10
516.0531888656947
 20
423.0035247208664
 30
0.0
 11
511.0531888656948
 21
423.0035247208664
 31
0.0
  0
LINE
  5
5FA8
330
1A
100
AcDbEntity
  8
SEIHIN
  6
CONTINUOUS
 62
     3
100
AcDbLine
 10
511.0531888656948
 20
423.0035247208664
 30
0.0
 11
511.0531888656948
 21
420.0035247208663
 31
0.0
  0
LINE
  5
5FAD
330
1A
100
AcDbEntity
  8
SEIHIN
  6
CONTINUOUS
 62
     3
100
AcDbLine
 10
521.4531888656948
 20
419.0035247208664
 30
0.0
 11
521.4531888656948
 21
420.0035247208663
 31
0.0
  0
LINE
  5
5FAE
330
1A
100
AcDbEntity
  8
SEIHIN
  6
CONTINUOUS
 62
     3
100
AcDbLine
 10
525.9531888656948
 20
420.0035247208663
 30
0.0
 11
530.9531888656948
 21
420.0035247208663
 31
0.0
  0
LINE
  5
5FAF
330
1A
100
AcDbEntity
  8
SEIHIN
  6
CONTINUOUS
 62
     3
100
AcDbLine
 10
530.9531888656948
 20
423.0035247208664
 30
0.0
 11
525.9531888656948
 21
423.0035247208664
 31
0.0
  0
LINE
  5
5FB3
330
1A
100
AcDbEntity
  8
SEIHIN
  6
CONTINUOUS
 62
     3
100
AcDbLine
 10
528.453188865695
 20
419.0035247208664
 30
0.0
 11
528.453188865695
 21
420.0035247208663
 31
0.0
  0
LINE
  5
5FB4
330
1A
100
AcDbEntity
  8
SEIHIN
  6
CONTINUOUS
 62
     3
100
AcDbLine
 10
530.9531888656948
 20
420.0035247208663
 30
0.0
 11
530.9531888656948
 21
423.0035247208664
 31
0.0
  0
LINE
  5
6ACE
330
1A
100
AcDbEntity
  8
SEIHIN
  6
CONTINUOUS
 62
     3
100
AcDbLine
 10
404.8966907186302
 20
415.0035247208664
 30
0.0
 11
404.89669071863
 21
423.0035247208664
 31
0.0
  0
LINE
  5
6AD1
330
1A
100
AcDbEntity
  8
SEIHIN
  6
CONTINUOUS
 62
     3
100
AcDbLine
 10
403.3966907186298
 20
415.0035247208663
 30
0.0
 11
403.3966907186298
 21
420.0035247208663
 31
0.0
  0
LINE
  5
6AD2
330
1A
100
AcDbEntity
  8
SEIHIN
  6
CONTINUOUS
 62
     3
100
AcDbLine
 10
403.3966907186298
 20
381.0035247208663
 30
0.0
 11
403.3966907186298
 21
376.0035247208663
 31
0.0
  0
LINE
  5
6AD3
330
1A
100
AcDbEntity
  8
SEIHIN
  6
CONTINUOUS
 62
     3
100
AcDbLine
 10
380.0545428161848
 20
381.0035247208663
 30
0.0
 11
404.89669071863
 21
381.0035247208663
 31
0.0
  0
LINE
  5
6AD4
330
1A
100
AcDbEntity
  8
SEIHIN
  6
CONTINUOUS
 62
     3
100
AcDbLine
 10
404.8966907186302
 20
381.0035247208663
 30
0.0
 11
404.89669071863
 21
373.0035247208663
 31
0.0
  0
ARC
  5
6AD5
330
1A
100
AcDbEntity
  8
SEIHIN
  6
CONTINUOUS
 62
     3
100
AcDbCircle
 10
378.5545428161848
 20
376.7176675637206
 30
0.0
 40
1.0
100
AcDbArc
 50
314.4270040008019
 51
0.0
  0
LINE
  5
6AD6
330
1A
100
AcDbEntity
  8
SEIHIN
  6
CONTINUOUS
 62
     3
100
AcDbLine
 10
380.0545428161848
 20
377.0035247208663
 30
0.0
 11
380.0545428161848
 21
376.0035247208663
 31
0.0
  0
LINE
  5
6AD7
330
1A
100
AcDbEntity
  8
SEIHIN
  6
CONTINUOUS
 62
     3
100
AcDbLine
 10
379.7878761495179
 20
377.0035247208663
 30
0.0
 11
380.0545428161848
 21
377.0035247208663
 31
0.0
  0
LWPOLYLINE
  5
6AD8
330
1A
100
AcDbEntity
  8
SEIHIN
  6
CONTINUOUS
 62
     3
100
AcDbPolyline
 90
        8
 70
   128
 43
0.0
 10
379.5545440082778
 20
376.7176667155811
 10
379.5547600751151
 20
376.7183000149318
 10
379.5610781674613
 20
376.7363732608148
 10
379.5740123753776
 20
376.7705639751741
 10
379.6474452977407
 20
376.9104504885265
 10
379.7151561742057
 20
376.9794354142733
 10
379.7455470924604
 20
376.9954299481697
 10
379.7878738408317
 20
377.0035250039883
  0
LINE
  5
6AD9
330
1A
100
AcDbEntity
  8
SEIHIN
  6
CONTINUOUS
 62
     3
100
AcDbLine
 10
380.0545428161848
 20
381.0035247208663
 30
0.0
 11
380.0545428161848
 21
377.0035247208663
 31
0.0
  0
LINE
  5
6ADA
330
1A
100
AcDbEntity
  8
SEIHIN
  6
CONTINUOUS
 62
     3
100
AcDbLine
 10
407.0545401339759
 20
373.0035247208663
 30
0.0
 11
407.0545401339759
 21
383.0035250561423
 31
0.0
  0
LINE
  5
6ADB
330
1A
100
AcDbEntity
  8
SEIHIN
  6
CONTINUOUS
 62
     3
100
AcDbLine
 10
404.89669071863
 20
376.0035247208663
 30
0.0
 11
384.2545428161847
 21
376.0035247208663
 31
0.0
  0
LINE
  5
6ADC
330
1A
100
AcDbEntity
  8
SEIHIN
  6
CONTINUOUS
 62
     3
100
AcDbLine
 10
411.8966907186297
 20
373.0035247208663
 30
0.0
 11
406.8966907186298
 21
373.0035247208663
 31
0.0
  0
LINE
  5
6ADD
330
1A
100
AcDbEntity
  8
SEIHIN
  6
CONTINUOUS
 62
     3
100
AcDbLine
 10
411.8966907186297
 20
383.0035247208663
 30
0.0
 11
411.7093062927033
 21
383.0035247208663
 31
0.0
  0
LINE
  5
6ADE
330
1A
100
AcDbEntity
  8
SEIHIN
  6
CONTINUOUS
 62
     3
100
AcDbLine
 10
411.497997161833
 20
383.0035247208663
 30
0.0
 11
410.8335341374445
 21
383.0035247208663
 31
0.0
  0
LINE
  5
6ADF
330
1A
100
AcDbEntity
  8
SEIHIN
  6
CONTINUOUS
 62
     3
100
AcDbLine
 10
407.4922296255492
 20
383.0035247208663
 30
0.0
 11
410.8335341374445
 21
383.0035247208663
 31
0.0
  0
LINE
  5
6AE0
330
1A
100
AcDbEntity
  8
SEIHIN
  6
CONTINUOUS
 62
     3
100
AcDbLine
 10
407.4922296255492
 20
383.0035247208663
 30
0.0
 11
406.224374840327
 21
383.0035247208663
 31
0.0
  0
LINE
  5
6AE1
330
1A
100
AcDbEntity
  8
SEIHIN
  6
CONTINUOUS
 62
     3
100
AcDbLine
 10
411.497997161833
 20
383.0035247208663
 30
0.0
 11
411.7093062927033
 21
383.0035247208663
 31
0.0
  0
LWPOLYLINE
  5
6AE2
330
1A
100
AcDbEntity
  8
SEIHIN
  6
CONTINUOUS
 62
     3
100
AcDbPolyline
 90
        7
 70
   128
 43
0.0
 10
389.4350867634047
 20
382.0035239609071
 10
389.4295882349241
 20
381.8274723293372
 10
389.4132565622557
 20
381.6569192262478
 10
389.3866132860411
 20
381.497193679411
 10
389.3504854207267
 20
381.3532857151815
 10
389.3059980039824
 20
381.2296898963042
 10
389.2545442943801
 20
381.1302674861737
  0
LINE
  5
6AE3
330
1A
100
AcDbEntity
  8
SEIHIN
  6
CONTINUOUS
 62
     3
100
AcDbLine
 10
389.2545428161847
 20
381.1302675256857
 30
0.0
 11
389.2545428161847
 21
381.0035247208663
 31
0.0
  0
LWPOLYLINE
  5
6AE4
330
1A
100
AcDbEntity
  8
SEIHIN
  6
CONTINUOUS
 62
     3
100
AcDbPolyline
 90
        7
 70
   128
 43
0.0
 10
389.2545442943801
 20
382.8767822982856
 10
389.3059980039824
 20
382.7773589568325
 10
389.3504854207267
 20
382.6537631379553
 10
389.3866132860411
 20
382.5098551737256
 10
389.4132565622557
 20
382.3501286955663
 10
389.4295882349241
 20
382.1795774551221
 10
389.4350867634047
 20
382.0035239609071
  0
LINE
  5
6AE5
330
1A
100
AcDbEntity
  8
SEIHIN
  6
CONTINUOUS
 62
     3
100
AcDbLine
 10
389.2545428161847
 20
383.0035247208663
 30
0.0
 11
389.2545428161847
 21
382.8767819160466
 31
0.0
  0
LINE
  5
6AE6
330
1A
100
AcDbEntity
  8
SEIHIN
  6
CONTINUOUS
 62
     3
100
AcDbLine
 10
394.2545395260085
 20
383.0035250561423
 30
0.0
 11
394.2545395260085
 21
381.0035237969943
 31
0.0
  0
LINE
  5
6AE7
330
1A
100
AcDbEntity
  8
SEIHIN
  6
CONTINUOUS
 62
     3
100
AcDbLine
 10
386.2545428161847
 20
381.0035247208663
 30
0.0
 11
386.2545428161847
 21
382.0035247208663
 31
0.0
  0
LINE
  5
6AE8
330
1A
100
AcDbEntity
  8
SEIHIN
  6
CONTINUOUS
 62
     3
100
AcDbLine
 10
386.2545428161847
 20
382.0035247208663
 30
0.0
 11
386.2545428161847
 21
383.0035247208663
 31
0.0
  0
LINE
  5
6AE9
330
1A
100
AcDbEntity
  8
SEIHIN
  6
CONTINUOUS
 62
     3
100
AcDbLine
 10
379.2545428161847
 20
373.0035247208663
 30
0.0
 11
379.2545428161847
 21
376.0035247208663
 31
0.0
  0
LINE
  5
6AEA
330
1A
100
AcDbEntity
  8
SEIHIN
  6
CONTINUOUS
 62
     3
100
AcDbLine
 10
379.5545428161848
 20
381.0035247208663
 30
0.0
 11
380.0545428161848
 21
381.0035247208663
 31
0.0
  0
LINE
  5
6AEB
330
1A
100
AcDbEntity
  8
SEIHIN
  6
CONTINUOUS
 62
     3
100
AcDbLine
 10
380.0545428161848
 20
383.0035247208663
 30
0.0
 11
379.5545428161848
 21
383.0035247208663
 31
0.0
  0
LINE
  5
6AEC
330
1A
100
AcDbEntity
  8
SEIHIN
  6
CONTINUOUS
 62
     3
100
AcDbLine
 10
379.5545428161848
 20
376.7176675637206
 30
0.0
 11
379.5545428161848
 21
381.0035247208663
 31
0.0
  0
LINE
  5
6AED
330
1A
100
AcDbEntity
  8
SEIHIN
  6
CONTINUOUS
 62
     3
100
AcDbLine
 10
379.2545428161847
 20
376.0035247208663
 30
0.0
 11
384.2545428161847
 21
376.0035247208663
 31
0.0
  0
LINE
  5
6AEE
330
1A
100
AcDbEntity
  8
SEIHIN
  6
CONTINUOUS
 62
     3
100
AcDbLine
 10
384.2545428161847
 20
373.0035247208663
 30
0.0
 11
379.2545428161847
 21
373.0035247208663
 31
0.0
  0
LINE
  5
6AEF
330
1A
100
AcDbEntity
  8
SEIHIN
  6
CONTINUOUS
 62
     3
100
AcDbLine
 10
406.8966907186298
 20
373.0035247208663
 30
0.0
 11
384.2545428161847
 21
373.0035247208663
 31
0.0
  0
LINE
  5
6AF0
330
1A
100
AcDbEntity
  8
SEIHIN
  6
CONTINUOUS
 62
     3
100
AcDbLine
 10
380.0545428161848
 20
383.0035247208663
 30
0.0
 11
406.224374840327
 21
383.0035247208663
 31
0.0
  0
LINE
  5
6AF1
330
1A
100
AcDbEntity
  8
SEIHIN
  6
CONTINUOUS
 62
     3
100
AcDbLine
 10
430.4037303384376
 20
373.003524720866
 30
0.0
 11
429.93427630522
 21
373.003524720866
 31
0.0
  0
ARC
  5
6AF2
330
1A
100
AcDbEntity
  8
SEIHIN
  6
CONTINUOUS
 62
     3
100
AcDbCircle
 10
393.3778835804287
 20
283.5470775316668
 30
0.0
 40
5.0
100
AcDbArc
 50
270.0
 51
294.9999999999998
  0
LINE
  5
6AF4
330
1A
100
AcDbEntity
  8
SEIHIN
  6
CONTINUOUS
 62
     3
100
AcDbLine
 10
392.9863600407686
 20
278.5470803330851
 30
0.0
 11
393.2863576685038
 21
280.0470759223415
 31
0.0
  0
LINE
  5
6AF5
330
1A
100
AcDbEntity
  8
SEIHIN
  6
CONTINUOUS
 62
     3
100
AcDbLine
 10
393.3778835804287
 20
278.5470775316669
 30
0.0
 11
392.9863600407686
 21
278.5470803330851
 31
0.0
  0
ARC
  5
6B0D
330
1A
100
AcDbEntity
  8
SEIHIN
  6
CONTINUOUS
 62
     3
100
AcDbCircle
 10
401.6211814960608
 20
273.0470775316669
 30
0.0
 40
8.000000000000005
100
AcDbArc
 50
90.0
 51
114.9999999999996
  0
LINE
  5
6B0E
330
1A
100
AcDbEntity
  8
SEIHIN
  6
CONTINUOUS
 62
     3
100
AcDbLine
 10
395.4909748891321
 20
279.0155385964836
 30
0.0
 11
398.2402354021353
 21
280.29753982796
 31
0.0
  0
ARC
  5
6B0F
330
1A
100
AcDbEntity
  8
SEIHIN
  6
CONTINUOUS
 62
     3
100
AcDbCircle
 10
388.9863568936433
 20
280.4321754203281
 30
0.0
 40
0.5000000000000455
100
AcDbArc
 50
78.23171106797443
 51
180.0000000000004
  0
LINE
  5
6B15
330
1A
100
AcDbEntity
  8
SEIHIN
  6
CONTINUOUS
 62
     3
100
AcDbLine
 10
405.4561889177858
 20
285.0470775316668
 30
0.0
 11
404.1285047960887
 21
285.0470775316668
 31
0.0
  0
LINE
  5
6B16
330
1A
100
AcDbEntity
  8
SEIHIN
  6
CONTINUOUS
 62
     3
100
AcDbLine
 10
410.9411203701619
 20
285.1912313965152
 30
0.0
 11
410.7298112392916
 21
285.6443852900334
 31
0.0
  0
LWPOLYLINE
  5
6B18
330
1A
100
AcDbEntity
  8
SEIHIN
  6
CONTINUOUS
 62
     3
100
AcDbPolyline
 90
        5
 70
   128
 43
0.0
 10
410.5683891450014
 20
285.9905605267001
 10
410.3680877362337
 20
286.2790768097354
 10
409.7490413461771
 20
286.7315654705478
 10
409.6482200895395
 20
286.7894043277217
 10
409.6427290116396
 20
286.792541022153
  0
ARC
  5
6B19
330
1A
100
AcDbEntity
  8
SEIHIN
  6
CONTINUOUS
 62
     3
100
AcDbCircle
 10
405.4561889177858
 20
287.0470775316668
 30
0.0
 40
2.0
100
AcDbArc
 50
270.0
 51
294.9999999999996
  0
LINE
  5
6B1A
330
1A
100
AcDbEntity
  8
SEIHIN
  6
CONTINUOUS
 62
     3
100
AcDbLine
 10
409.6427299531621
 20
286.7925378397182
 30
0.0
 11
406.3014254412671
 21
285.2344619575936
 31
0.0
  0
LWPOLYLINE
  5
6B1C
330
1A
100
AcDbEntity
  8
SEIHIN
  6
CONTINUOUS
 62
     3
100
AcDbPolyline
 90
        9
 70
   128
 43
0.0
 10
410.7298134242143
 20
285.6443842004253
 10
410.727175918683
 20
285.6500391910983
 10
410.7192932044115
 20
285.6669445584726
 10
410.7062248860445
 20
285.6949661920978
 10
410.688082722291
 20
285.7338731239749
 10
410.6650157247629
 20
285.7833449791384
 10
410.6372176085558
 20
285.8429570744945
 10
410.6049193416681
 20
285.9122251223041
 10
410.5683891450014
 20
285.9905605267001
  0
LINE
  5
6B1E
330
1A
100
AcDbEntity
  8
SEIHIN
  6
CONTINUOUS
 62
     3
100
AcDbLine
 10
406.7863552247133
 20
281.0470779488994
 30
0.0
 11
409.97374131957
 21
282.5333792989604
 31
0.0
  0
ARC
  5
6B20
330
1A
100
AcDbEntity
  8
SEIHIN
  6
CONTINUOUS
 62
     3
100
AcDbCircle
 10
409.1285047960888
 20
284.3459948730338
 30
0.0
 40
1.999999999999986
100
AcDbArc
 50
294.9999999999996
 51
25.00000000000499
  0
LINE
  5
6B25
330
1A
100
AcDbEntity
  8
SEIHIN
  6
CONTINUOUS
 62
     3
100
AcDbLine
 10
401.6211814960608
 20
281.0470775316669
 30
0.0
 11
406.7863552247133
 21
281.0470779488994
 31
0.0
  0
LINE
  5
6B28
330
1A
100
AcDbEntity
  8
SEIHIN
  6
CONTINUOUS
 62
     3
100
AcDbLine
 10
388.4863568936433
 20
280.4321754203281
 30
0.0
 11
388.4863583718386
 21
274.7470756123973
 31
0.0
  0
LINE
  5
6B2E
330
1A
100
AcDbEntity
  8
SEIHIN
  6
CONTINUOUS
 62
     3
100
AcDbLine
 10
388.4863583718386
 20
274.7470756123973
 30
0.0
 11
393.486353603467
 21
260.5470811079455
 31
0.0
  0
LINE
  5
6B31
330
1A
100
AcDbEntity
  8
SEIHIN
  6
CONTINUOUS
 62
     3
100
AcDbLine
 10
404.128504796089
 20
281.0470777342034
 30
0.0
 11
404.1285047960887
 21
288.0470775316668
 31
0.0
  0
ARC
  5
6B33
330
1A
100
AcDbEntity
  8
SEIHIN
  6
CONTINUOUS
 62
     3
100
AcDbCircle
 10
401.1285047960886
 20
288.0470775316668
 30
0.0
 40
3.0
100
AcDbArc
 50
0.0
 51
90.0
  0
LINE
  5
6B39
102
{ACAD_REACTORS
330
6B85
102
}
330
1A
100
AcDbEntity
  8
NOKITOI
  6
PHANTOM
 62
     8
 48
5.0
100
AcDbLine
 10
393.0940132895024
 20
277.1201846439966
 30
0.0
 11
403.6383864414488
 21
275.4596534389656
 31
0.0
  0
ARC
  5
6B3A
102
{ACAD_REACTORS
330
6B85
102
}
330
1A
100
AcDbEntity
  8
NOKITOI
  6
PHANTOM
 62
     8
 48
5.0
100
AcDbCircle
 10
473.9272601577598
 20
1170.193689074191
 30
0.0
 40
999.9999999999996
100
AcDbArc
 50
268.1300946705856
 51
271.8459516885245
  0
ARC
  5
6B3B
102
{ACAD_REACTORS
330
6B85
102
}
330
1A
100
AcDbEntity
  8
NOKITOI
  6
PHANTOM
 62
     8
 48
5.0
100
AcDbCircle
 10
473.9272601577598
 20
1170.193689074191
 30
0.0
 40
998.5999999999997
100
AcDbArc
 50
268.185225968898
 51
271.773983013799
  0
ARC
  5
6B3C
102
{ACAD_REACTORS
330
6B85
102
}
330
1A
100
AcDbEntity
  8
NOKITOI
  6
PHANTOM
 62
     8
 48
5.0
100
AcDbCircle
 10
1368.593700073491
 20
525.6560569342136
 30
0.0
 40
998.6000000000013
100
AcDbArc
 50
195.8219949179074
 51
199.9513743718411
  0
ARC
  5
6B3D
102
{ACAD_REACTORS
330
6B85
102
}
330
1A
100
AcDbEntity
  8
NOKITOI
  6
PHANTOM
 62
     8
 48
5.0
100
AcDbCircle
 10
1368.593700073491
 20
525.6560569342136
 30
0.0
 40
1000.000000000001
100
AcDbArc
 50
195.8108447710364
 51
200.0478728188271
  0
LINE
  5
6B3E
102
{ACAD_REACTORS
330
6B85
102
}
330
1A
100
AcDbEntity
  8
NOKITOI
  6
PHANTOM
 62
     8
 48
5.0
100
AcDbLine
 10
436.1617149854428
 20
181.524213110358
 30
0.0
 11
439.4747139072733
 21
172.0640831215885
 31
0.0
  0
LINE
  5
6B3F
102
{ACAD_REACTORS
330
6B85
102
}
330
1A
100
AcDbEntity
  8
NOKITOI
  6
PHANTOM
 62
     8
 48
5.0
100
AcDbLine
 10
437.1547948309012
 20
182.9242131103582
 30
0.0
 11
440.4788515809696
 21
173.432507955103
 31
0.0
  0
ARC
  5
6B40
102
{ACAD_REACTORS
330
6B85
102
}
330
1A
100
AcDbEntity
  8
NOKITOI
  6
PHANTOM
 62
     8
 48
5.0
100
AcDbCircle
 10
441.3623090561508
 20
172.7251311939201
 30
0.0
 40
2.000000000000188
100
AcDbArc
 50
199.3005854307805
 51
268.1300946705856
  0
ARC
  5
6B41
102
{ACAD_REACTORS
330
6B85
102
}
330
1A
100
AcDbEntity
  8
NOKITOI
  6
PHANTOM
 62
     8
 48
5.0
100
AcDbCircle
 10
442.3664467298471
 20
174.0935560274345
 30
0.0
 40
2.00000000000015
100
AcDbArc
 50
199.3005854307773
 51
268.185225968898
  0
ARC
  5
6B42
102
{ACAD_REACTORS
330
6B85
102
}
330
1A
100
AcDbEntity
  8
NOKITOI
  6
PHANTOM
 62
     8
 48
5.0
100
AcDbCircle
 10
436.2109972564626
 20
182.5936890741922
 30
0.0
 40
1.0
100
AcDbArc
 50
19.30058543078055
 51
90.0
  0
ARC
  5
6B43
102
{ACAD_REACTORS
330
6B85
102
}
330
1A
100
AcDbEntity
  8
NOKITOI
  6
PHANTOM
 62
     8
 48
5.0
100
AcDbCircle
 10
435.2179174110037
 20
181.1936890741923
 30
0.0
 40
1.0
100
AcDbArc
 50
19.30058543077746
 51
90.0
  0
ARC
  5
6B44
102
{ACAD_REACTORS
330
6B85
102
}
330
1A
100
AcDbEntity
  8
NOKITOI
  6
PHANTOM
 62
     8
 48
5.0
100
AcDbCircle
 10
430.126584720103
 20
183.193689074192
 30
0.0
 40
1.0
100
AcDbArc
 50
200.0478728188226
 51
270.0
  0
ARC
  5
6B45
102
{ACAD_REACTORS
330
6B85
102
}
330
1A
100
AcDbEntity
  8
NOKITOI
  6
PHANTOM
 62
     8
 48
5.0
100
AcDbCircle
 10
431.8070936548056
 20
185.5936890741922
 30
0.0
 40
2.000000000000107
100
AcDbArc
 50
199.9513743718489
 51
270.0
  0
LINE
  5
6B46
102
{ACAD_REACTORS
330
6B85
102
}
330
1A
100
AcDbEntity
  8
NOKITOI
  6
PHANTOM
 62
     8
 48
5.0
100
AcDbLine
 10
436.2109972564626
 20
183.5936890741922
 30
0.0
 11
431.8070936548056
 21
183.5936890741922
 31
0.0
  0
LINE
  5
6B47
102
{ACAD_REACTORS
330
6B85
102
}
330
1A
100
AcDbEntity
  8
NOKITOI
  6
PHANTOM
 62
     8
 48
5.0
100
AcDbLine
 10
435.2179174110037
 20
182.1936890741923
 30
0.0
 11
430.1265847201031
 21
182.193689074192
 31
0.0
  0
ARC
  5
6B48
102
{ACAD_REACTORS
330
6B85
102
}
330
1A
100
AcDbEntity
  8
NOKITOI
  6
PHANTOM
 62
     8
 48
5.0
100
AcDbCircle
 10
406.8272601577604
 20
261.5936890741924
 30
0.0
 40
1.0
100
AcDbArc
 50
0.0
 51
90.0
  0
LINE
  5
6B49
102
{ACAD_REACTORS
330
6B85
102
}
330
1A
100
AcDbEntity
  8
NOKITOI
  6
PHANTOM
 62
     8
 48
5.0
100
AcDbLine
 10
388.9272601577598
 20
275.1936890741923
 30
0.0
 11
393.856153343153
 21
261.3927881550925
 31
0.0
  0
LINE
  5
6B4A
102
{ACAD_REACTORS
330
6B85
102
}
330
1A
100
AcDbEntity
  8
NOKITOI
  6
PHANTOM
 62
     8
 48
5.0
100
AcDbLine
 10
405.4272601577598
 20
261.1936890741923
 30
0.0
 11
394.1386759166311
 21
261.1936890741921
 31
0.0
  0
ARC
  5
6B4B
102
{ACAD_REACTORS
330
6B85
102
}
330
1A
100
AcDbEntity
  8
NOKITOI
  6
PHANTOM
 62
     8
 48
5.0
100
AcDbCircle
 10
394.1386759166311
 20
261.4936890741921
 30
0.0
 40
0.3
100
AcDbArc
 50
199.6538240580533
 51
270.0
  0
ARC
  5
6B4C
102
{ACAD_REACTORS
330
6B85
102
}
330
1A
100
AcDbEntity
  8
NOKITOI
  6
PHANTOM
 62
     8
 48
5.0
100
AcDbCircle
 10
405.4272601577598
 20
260.1936890741924
 30
0.0
 40
1.0
100
AcDbArc
 50
0.0
 51
90.0
  0
LINE
  5
6B4D
102
{ACAD_REACTORS
330
6B85
102
}
330
1A
100
AcDbEntity
  8
NOKITOI
  6
PHANTOM
 62
     8
 48
5.0
100
AcDbLine
 10
406.4272601577603
 20
253.1936890741903
 30
0.0
 11
406.42726015776
 21
260.1936890741924
 31
0.0
  0
LINE
  5
6B4E
102
{ACAD_REACTORS
330
6B85
102
}
330
1A
100
AcDbEntity
  8
NOKITOI
  6
PHANTOM
 62
     8
 48
5.0
100
AcDbLine
 10
407.8272601577604
 20
253.3881595763824
 30
0.0
 11
407.8272601577604
 21
261.5936890741924
 31
0.0
  0
LINE
  5
6B4F
102
{ACAD_REACTORS
330
6B85
102
}
330
1A
100
AcDbEntity
  8
NOKITOI
  6
PHANTOM
 62
     8
 48
5.0
100
AcDbLine
 10
406.42726015776
 20
260.1936890741924
 30
0.0
 11
406.42726015776
 21
253.1936890741917
 31
0.0
  0
LINE
  5
6B50
102
{ACAD_REACTORS
330
6B85
102
}
330
1A
100
AcDbEntity
  8
NOKITOI
  6
PHANTOM
 62
     8
 48
5.0
100
AcDbLine
 10
392.8762249384717
 20
275.7372283055119
 30
0.0
 11
399.6739284283585
 21
274.6667238189156
 31
0.0
  0
LINE
  5
6B51
102
{ACAD_REACTORS
330
6B85
102
}
330
1A
100
AcDbEntity
  8
NOKITOI
  6
PHANTOM
 62
     8
 48
5.0
100
AcDbLine
 10
406.8272601577604
 20
262.5936890741924
 30
0.0
 11
395.6185862287288
 21
262.5936890741921
 31
0.0
  0
ARC
  5
6B52
102
{ACAD_REACTORS
330
6B85
102
}
330
1A
100
AcDbEntity
  8
NOKITOI
  6
PHANTOM
 62
     8
 48
5.0
100
AcDbCircle
 10
401.1326156918652
 20
265.9936890741923
 30
0.0
 40
8.299999999999959
100
AcDbArc
 50
100.7153641846337
 51
167.151909786181
  0
ARC
  5
6B53
102
{ACAD_REACTORS
330
6B85
102
}
330
1A
100
AcDbEntity
  8
NOKITOI
  6
PHANTOM
 62
     8
 48
5.0
100
AcDbCircle
 10
401.1326156918652
 20
265.9936890741923
 30
0.0
 40
6.999999999999959
100
AcDbArc
 50
105.8737907964528
 51
199.6538240580533
  0
LINE
  5
6B54
102
{ACAD_REACTORS
330
6B85
102
}
330
1A
100
AcDbEntity
  8
NOKITOI
  6
PHANTOM
 62
     8
 48
5.0
100
AcDbLine
 10
390.3272601577601
 20
275.4361883234415
 30
0.0
 11
393.0404223107016
 21
267.8393342952055
 31
0.0
  0
LINE
  5
6B55
102
{ACAD_REACTORS
330
6B85
102
}
330
1A
100
AcDbEntity
  8
NOKITOI
  6
PHANTOM
 62
     8
 48
5.0
100
AcDbLine
 10
394.5404223107016
 20
263.6393342952051
 30
0.0
 11
394.676844317134
 21
263.2573526771941
 31
0.0
  0
ARC
  5
6B56
102
{ACAD_REACTORS
330
6B85
102
}
330
1A
100
AcDbEntity
  8
NOKITOI
  6
PHANTOM
 62
     8
 48
5.0
100
AcDbCircle
 10
395.6185862287288
 20
263.5936890741922
 30
0.0
 40
0.999999999999979
100
AcDbArc
 50
199.6538240580533
 51
270.0
  0
ARC
  5
6B57
102
{ACAD_REACTORS
330
6B85
102
}
330
1A
100
AcDbEntity
  8
NOKITOI
  6
PHANTOM
 62
     8
 48
5.0
100
AcDbCircle
 10
390.9272601577603
 20
278.6321362613836
 30
0.0
 40
0.6
100
AcDbArc
 50
75.96375653206639
 51
180.0
  0
LINE
  5
6B58
102
{ACAD_REACTORS
330
6B85
102
}
330
1A
100
AcDbEntity
  8
NOKITOI
  6
PHANTOM
 62
     8
 48
5.0
100
AcDbLine
 10
392.6742762008129
 20
277.6638495047214
 30
0.0
 11
392.6742761920682
 21
277.6638494172751
 31
0.0
  0
LINE
  5
6B59
102
{ACAD_REACTORS
330
6B85
102
}
330
1A
100
AcDbEntity
  8
NOKITOI
  6
PHANTOM
 62
     8
 48
5.0
100
AcDbLine
 10
391.0727815327823
 20
279.2142217614705
 30
0.0
 11
391.4138052466832
 21
279.1289658329952
 31
0.0
  0
LINE
  5
6B5A
102
{ACAD_REACTORS
330
6B85
102
}
330
1A
100
AcDbEntity
  8
NOKITOI
  6
PHANTOM
 62
     8
 48
5.0
100
AcDbLine
 10
391.4138052466832
 20
279.1289658329952
 30
0.0
 11
391.2812241018686
 21
277.8031543848475
 31
0.0
  0
LINE
  5
6B5B
102
{ACAD_REACTORS
330
6B85
102
}
330
1A
100
AcDbEntity
  8
NOKITOI
  6
PHANTOM
 62
     8
 48
5.0
100
AcDbLine
 10
392.9014595433136
 20
279.9356829297282
 30
0.0
 11
392.6742762008129
 21
277.6638495047214
 31
0.0
  0
LINE
  5
6B5C
102
{ACAD_REACTORS
330
6B85
102
}
330
1A
100
AcDbEntity
  8
NOKITOI
  6
PHANTOM
 62
     8
 48
5.0
100
AcDbLine
 10
392.6742762008129
 20
277.6638495047214
 30
0.0
 11
392.6742761920682
 21
277.6638494172751
 31
0.0
  0
ARC
  5
6B5D
102
{ACAD_REACTORS
330
6B85
102
}
330
1A
100
AcDbEntity
  8
NOKITOI
  6
PHANTOM
 62
     8
 48
5.0
100
AcDbCircle
 10
392.6029483911006
 20
279.9655340939358
 30
0.0
 40
0.3000000000000382
100
AcDbArc
 50
354.2894068625094
 51
75.96375653206639
  0
LINE
  5
6B5E
102
{ACAD_REACTORS
330
6B85
102
}
330
1A
100
AcDbEntity
  8
NOKITOI
  6
PHANTOM
 62
     8
 48
5.0
100
AcDbLine
 10
391.4123314078326
 20
280.5724212616741
 30
0.0
 11
392.6757090786118
 21
280.2565768439794
 31
0.0
  0
ARC
  5
6B5F
102
{ACAD_REACTORS
330
6B85
102
}
330
1A
100
AcDbEntity
  8
NOKITOI
  6
PHANTOM
 62
     8
 48
5.0
100
AcDbCircle
 10
390.9272601577598
 20
278.6321362613833
 30
0.0
 40
2.0
100
AcDbArc
 50
75.96375653207984
 51
180.0
  0
LINE
  5
6B60
102
{ACAD_REACTORS
330
6B85
102
}
330
1A
100
AcDbEntity
  8
NOKITOI
  6
PHANTOM
 62
     8
 48
5.0
100
AcDbLine
 10
388.9272601577598
 20
275.1936890741923
 30
0.0
 11
388.9272601577598
 21
278.6321362613833
 31
0.0
  0
ARC
  5
6B61
102
{ACAD_REACTORS
330
6B85
102
}
330
1A
100
AcDbEntity
  8
NOKITOI
  6
PHANTOM
 62
     8
 48
5.0
100
AcDbCircle
 10
393.1717947943721
 20
277.6140976297543
 30
0.0
 40
1.899999999999974
100
AcDbArc
 50
174.2894162891099
 51
261.0505453838139
  0
LINE
  5
6B62
102
{ACAD_REACTORS
330
6B85
102
}
330
1A
100
AcDbEntity
  8
NOKITOI
  6
PHANTOM
 62
     8
 48
5.0
100
AcDbLine
 10
390.3272601577601
 20
275.4361883234415
 30
0.0
 11
390.3272601577604
 21
278.6321362613836
 31
0.0
  0
ARC
  5
6B63
102
{ACAD_REACTORS
330
6B85
102
}
330
1A
100
AcDbEntity
  8
NOKITOI
  6
PHANTOM
 62
     8
 48
5.0
100
AcDbCircle
 10
393.1717947943721
 20
277.6140976297543
 30
0.0
 40
0.499999999999911
100
AcDbArc
 50
174.2894068625028
 51
261.0505419158041
  0
ARC
  5
6B64
102
{ACAD_REACTORS
330
6B85
102
}
330
1A
100
AcDbEntity
  8
NOKITOI
  6
PHANTOM
 62
     8
 48
5.0
100
AcDbCircle
 10
403.4272601577603
 20
273.4682535060461
 30
0.0
 40
0.6
100
AcDbArc
 50
0.0
 51
81.05054191579087
  0
ARC
  5
6B65
102
{ACAD_REACTORS
330
6B85
102
}
330
1A
100
AcDbEntity
  8
NOKITOI
  6
PHANTOM
 62
     8
 48
5.0
100
AcDbCircle
 10
403.32726015776
 20
273.4840015375421
 30
0.0
 40
2.000000000000039
100
AcDbArc
 50
0.0
 51
81.05054191579087
  0
LINE
  5
6B66
102
{ACAD_REACTORS
330
6B85
102
}
330
1A
100
AcDbEntity
  8
NOKITOI
  6
PHANTOM
 62
     8
 48
5.0
100
AcDbLine
 10
401.0569067546771
 20
274.4489319565031
 30
0.0
 11
400.9437267791248
 21
273.7557046062428
 31
0.0
  0
ARC
  5
6B67
102
{ACAD_REACTORS
330
6B85
102
}
330
1A
100
AcDbEntity
  8
NOKITOI
  6
PHANTOM
 62
     8
 48
5.0
100
AcDbCircle
 10
399.6282596983455
 20
271.2839549507585
 30
0.0
 40
2.799999999999993
100
AcDbArc
 50
350.7273982228013
 51
61.9780573757826
  0
ARC
  5
6B68
102
{ACAD_REACTORS
330
6B85
102
}
330
1A
100
AcDbEntity
  8
NOKITOI
  6
PHANTOM
 62
     8
 48
5.0
100
AcDbCircle
 10
403.32726015776
 20
270.0936890741922
 30
0.0
 40
0.7
100
AcDbArc
 50
270.0
 51
0.0
  0
ARC
  5
6B69
102
{ACAD_REACTORS
330
6B85
102
}
330
1A
100
AcDbEntity
  8
NOKITOI
  6
PHANTOM
 62
     8
 48
5.0
100
AcDbCircle
 10
403.32726015776
 20
270.0936890741922
 30
0.0
 40
2.0
100
AcDbArc
 50
270.0
 51
0.0
  0
LINE
  5
6B6A
102
{ACAD_REACTORS
330
6B85
102
}
330
1A
100
AcDbEntity
  8
NOKITOI
  6
PHANTOM
 62
     8
 48
5.0
100
AcDbLine
 10
401.1086590460466
 20
271.0422572649483
 30
0.0
 11
400.7220464347305
 21
268.6742550206385
 31
0.0
  0
ARC
  5
6B6B
102
{ACAD_REACTORS
330
6B85
102
}
330
1A
100
AcDbEntity
  8
NOKITOI
  6
PHANTOM
 62
     8
 48
5.0
100
AcDbCircle
 10
401.2155128756093
 20
268.5936890741921
 30
0.0
 40
0.5000000000000746
100
AcDbArc
 50
170.7273982228011
 51
270.0
  0
LINE
  5
6B6C
102
{ACAD_REACTORS
330
6B85
102
}
330
1A
100
AcDbEntity
  8
NOKITOI
  6
PHANTOM
 62
     8
 48
5.0
100
AcDbLine
 10
401.2155127858308
 20
268.0936890741921
 30
0.0
 11
401.2155127443296
 21
268.0936890741921
 31
0.0
  0
LINE
  5
6B6D
102
{ACAD_REACTORS
330
6B85
102
}
330
1A
100
AcDbEntity
  8
NOKITOI
  6
PHANTOM
 62
     8
 48
5.0
100
AcDbLine
 10
403.32726015776
 20
269.393689074192
 30
0.0
 11
402.1567172241678
 21
269.393689074192
 31
0.0
  0
LINE
  5
6B6E
102
{ACAD_REACTORS
330
6B85
102
}
330
1A
100
AcDbEntity
  8
NOKITOI
  6
PHANTOM
 62
     8
 48
5.0
100
AcDbLine
 10
402.3916717910551
 20
270.8327857963753
 30
0.0
 11
402.1567172241678
 21
269.393689074192
 31
0.0
  0
LINE
  5
6B6F
102
{ACAD_REACTORS
330
6B85
102
}
330
1A
100
AcDbEntity
  8
NOKITOI
  6
PHANTOM
 62
     8
 48
5.0
100
AcDbLine
 10
403.32726015776
 20
268.0936890741921
 30
0.0
 11
401.2155127858308
 21
268.0936890741921
 31
0.0
  0
LINE
  5
6B70
102
{ACAD_REACTORS
330
6B85
102
}
330
1A
100
AcDbEntity
  8
NOKITOI
  6
PHANTOM
 62
     8
 48
5.0
100
AcDbLine
 10
404.0272601577603
 20
270.0936890096178
 30
0.0
 11
404.0272601577603
 21
273.4682535060461
 31
0.0
  0
ARC
  5
6B71
102
{ACAD_REACTORS
330
6B85
102
}
330
1A
100
AcDbEntity
  8
NOKITOI
  6
PHANTOM
 62
     8
 48
5.0
100
AcDbCircle
 10
399.6282596983455
 20
271.2839549507585
 30
0.0
 40
1.499999999999993
100
AcDbArc
 50
350.7273982228013
 51
105.8737918367157
  0
LINE
  5
6B72
102
{ACAD_REACTORS
330
6B85
102
}
330
1A
100
AcDbEntity
  8
NOKITOI
  6
PHANTOM
 62
     8
 48
5.0
100
AcDbLine
 10
405.3272601577599
 20
270.0936890096178
 30
0.0
 11
405.3272601577599
 21
273.4840015375421
 31
0.0
  0
LINE
  5
6B73
102
{ACAD_REACTORS
330
6B85
102
}
330
1A
100
AcDbEntity
  8
NOKITOI
  6
PHANTOM
 62
     8
 48
5.0
100
AcDbLine
 10
399.6739284283585
 20
274.6667238189156
 30
0.0
 11
399.589395846604
 21
274.148961755666
 31
0.0
  0
LINE
  5
6B74
102
{ACAD_REACTORS
330
6B85
102
}
330
1A
100
AcDbEntity
  8
NOKITOI
  6
PHANTOM
 62
     8
 48
5.0
100
AcDbLine
 10
401.0569067546771
 20
274.4489319565031
 30
0.0
 11
403.5205980428668
 21
274.0609490764733
 31
0.0
  0
LINE
  5
6B75
102
{ACAD_REACTORS
330
6B85
102
}
330
1A
100
AcDbEntity
  8
NOKITOI
  6
PHANTOM
 62
     8
 48
5.0
100
AcDbLine
 10
513.3983251619678
 20
257.2333243502728
 30
0.0
 11
506.7726108287515
 21
173.9127980357999
 31
0.0
  0
LINE
  5
6B76
102
{ACAD_REACTORS
330
6B85
102
}
330
1A
100
AcDbEntity
  8
NOKITOI
  6
PHANTOM
 62
     8
 48
5.0
100
AcDbLine
 10
513.5272601577598
 20
241.1936890741923
 30
0.0
 11
508.0689031209421
 21
172.5530628340976
 31
0.0
  0
ARC
  5
6B77
102
{ACAD_REACTORS
330
6B85
102
}
330
1A
100
AcDbEntity
  8
NOKITOI
  6
PHANTOM
 62
     8
 48
5.0
100
AcDbCircle
 10
506.0751968441199
 20
172.7116039384195
 30
0.0
 40
1.999999999999998
100
AcDbArc
 50
271.8459516885245
 51
355.4533617064201
  0
ARC
  5
6B78
102
{ACAD_REACTORS
330
6B85
102
}
330
1A
100
AcDbEntity
  8
NOKITOI
  6
PHANTOM
 62
     8
 48
5.0
100
AcDbCircle
 10
504.7789045519293
 20
174.0713391401216
 30
0.0
 40
1.999999999999996
100
AcDbArc
 50
271.773983013799
 51
355.4533617064201
  0
LINE
  5
6B79
102
{ACAD_REACTORS
330
6B85
102
}
330
1A
100
AcDbEntity
  8
NOKITOI
  6
PHANTOM
 62
     8
 48
5.0
100
AcDbLine
 10
519.5272601577597
 20
254.6936890741923
 30
0.0
 11
519.5272601577597
 21
240.5767842636767
 31
0.0
  0
LINE
  5
6B7A
102
{ACAD_REACTORS
330
6B85
102
}
330
1A
100
AcDbEntity
  8
NOKITOI
  6
PHANTOM
 62
     8
 48
5.0
100
AcDbLine
 10
518.1272601577601
 20
254.11379008687
 30
0.0
 11
518.1272601577601
 21
242.5936890741923
 31
0.0
  0
LINE
  5
6B7B
102
{ACAD_REACTORS
330
6B85
102
}
330
1A
100
AcDbEntity
  8
NOKITOI
  6
PHANTOM
 62
     8
 48
5.0
100
AcDbLine
 10
514.6277084538628
 20
256.2936890741921
 30
0.0
 11
513.5382735885277
 21
242.5936890741923
 31
0.0
  0
LINE
  5
6B7C
102
{ACAD_REACTORS
330
6B85
102
}
330
1A
100
AcDbEntity
  8
NOKITOI
  6
PHANTOM
 62
     8
 48
5.0
100
AcDbLine
 10
517.0272601577599
 20
241.1936890741923
 30
0.0
 11
518.7700122800463
 21
240.1480378008207
 31
0.0
  0
LINE
  5
6B7D
102
{ACAD_REACTORS
330
6B85
102
}
330
1A
100
AcDbEntity
  8
NOKITOI
  6
PHANTOM
 62
     8
 48
5.0
100
AcDbLine
 10
513.5382735885273
 20
242.5936890741923
 30
0.0
 11
518.1272601577601
 21
242.5936890741923
 31
0.0
  0
LINE
  5
6B7E
102
{ACAD_REACTORS
330
6B85
102
}
330
1A
100
AcDbEntity
  8
NOKITOI
  6
PHANTOM
 62
     8
 48
5.0
100
AcDbLine
 10
513.5272601577603
 20
241.1936890741923
 30
0.0
 11
517.0272601577599
 21
241.1936890741923
 31
0.0
  0
ARC
  5
6B7F
102
{ACAD_REACTORS
330
6B85
102
}
330
1A
100
AcDbEntity
  8
NOKITOI
  6
PHANTOM
 62
     8
 48
5.0
100
AcDbCircle
 10
519.0272601577597
 20
240.5767842636767
 30
0.0
 40
0.5000000000000169
100
AcDbArc
 50
239.0362434679245
 51
0.0
  0
LINE
  5
6B80
102
{ACAD_REACTORS
330
6B85
102
}
330
1A
100
AcDbEntity
  8
NOKITOI
  6
PHANTOM
 62
     8
 48
5.0
100
AcDbLine
 10
515.9473611704378
 20
256.2936890741921
 30
0.0
 11
518.1272601577601
 21
254.11379008687
 31
0.0
  0
LINE
  5
6B81
102
{ACAD_REACTORS
330
6B85
102
}
330
1A
100
AcDbEntity
  8
NOKITOI
  6
PHANTOM
 62
     8
 48
5.0
100
AcDbLine
 10
516.5272601577603
 20
257.6936890741923
 30
0.0
 11
519.5272601577597
 21
254.6936890741923
 31
0.0
  0
ARC
  5
6B82
102
{ACAD_REACTORS
330
6B85
102
}
330
1A
100
AcDbEntity
  8
NOKITOI
  6
PHANTOM
 62
     8
 48
5.0
100
AcDbCircle
 10
513.8967517311733
 20
257.1936890741923
 30
0.0
 40
0.5
100
AcDbArc
 50
90.0
 51
175.4533617064201
  0
LINE
  5
6B83
102
{ACAD_REACTORS
330
6B85
102
}
330
1A
100
AcDbEntity
  8
NOKITOI
  6
PHANTOM
 62
     8
 48
5.0
100
AcDbLine
 10
514.6277084538622
 20
256.2936890741921
 30
0.0
 11
515.9473611704378
 21
256.2936890741921
 31
0.0
  0
LINE
  5
6B84
102
{ACAD_REACTORS
330
6B85
102
}
330
1A
100
AcDbEntity
  8
NOKITOI
  6
PHANTOM
 62
     8
 48
5.0
100
AcDbLine
 10
513.8967517311733
 20
257.6936890741923
 30
0.0
 11
516.5272601577603
 21
257.6936890741923
 31
0.0
  0
DIMENSION
  5
6BA2
330
1A
100
AcDbEntity
  8
SUNPOU
100
AcDbDimension
  2
*D1
 10
404.1285047960887
 20
311.7349532768568
 30
0.0
 11
457.2067538696211
 21
316.7349532768568
 31
0.0
 70
    32
  3
STANDARD
100
AcDbAlignedDimension
 13
510.2850029431535
 23
286.0470775316668
 33
0.0
 14
404.1285047960887
 24
288.0470775316668
 34
0.0
100
AcDbRotatedDimension
1001
ACAD
1000
DSTYLE
1002
{
1070
   287
1070
     5
1070
   287
1070
     5
1070
   287
1070
     5
1070
   287
1070
     5
1070
   287
1070
     5
1070
   287
1070
     5
1070
   287
1070
     5
1070
    41
1040
7.0
1070
    42
1040
6.0
1070
    43
1040
14.0
1070
    44
1040
3.0
1070
    73
1070
     0
1070
    74
1070
     0
1070
    77
1070
     3
1070
   140
1040
6.0
1070
   141
1040
150.0
1070
   147
1040
2.0
1070
   172
1070
     1
1070
   173
1070
     1
1070
   176
1070
   256
1070
   177
1070
   256
1070
   178
1070
   256
1070
   271
1070
     0
1070
   272
1070
     0
1070
   279
1070
     2
1070
   341
1005
6D
1070
     6
1000
OPEN
1070
     7
1000
OPEN
1070
   371
1070
    -1
1070
   372
1070
    -1
1002
}
  0
DIMENSION
  5
6BD2
330
1A
100
AcDbEntity
  8
SUNPOU
100
AcDbDimension
  2
*D2
 10
515.8304199042022
 20
134.8925570186096
 30
0.0
 11
474.5288265108897
 21
139.8925570186096
 31
0.0
 70
    32
  3
STANDARD
100
AcDbAlignedDimension
 13
433.2272331175771
 23
162.2269762471966
 33
0.0
 14
515.8304199042022
 24
162.6676370324034
 34
0.0
100
AcDbRotatedDimension
1001
ACAD
1000
DSTYLE
1002
{
1070
   287
1070
     5
1070
   287
1070
     5
1070
   287
1070
     5
1070
   287
1070
     5
1070
   287
1070
     5
1070
   287
1070
     5
1070
   287
1070
     5
1070
    41
1040
7.0
1070
    42
1040
6.0
1070
    43
1040
14.0
1070
    44
1040
3.0
1070
    73
1070
     0
1070
    74
1070
     0
1070
    77
1070
     3
1070
   140
1040
6.0
1070
   141
1040
150.0
1070
   147
1040
2.0
1070
   172
1070
     1
1070
   173
1070
     1
1070
   176
1070
   256
1070
   177
1070
   256
1070
   178
1070
   256
1070
   271
1070
     0
1070
   272
1070
     0
1070
   279
1070
     2
1070
   341
1005
6D
1070
     6
1000
OPEN
1070
     7
1000
OPEN
1070
   371
1070
    -1
1070
   372
1070
    -1
1002
}
  0
LINE
  5
6C40
330
1A
100
AcDbEntity
  8
CENTER_L
  6
CENTER
 62
     1
 48
5.0
100
AcDbLine
 10
252.4884920221067
 20
305.1079962830293
 30
0.0
 11
252.4884920221067
 21
149.321886232358
 31
0.0
  0
LINE
  5
6C45
330
1A
100
AcDbEntity
  8
CENTER_L
  6
CENTER
 62
     1
 48
5.0
100
AcDbLine
 10
473.0406645260003
 20
185.2140279906387
 30
0.0
 11
473.0406645260003
 21
147.4312795626241
 31
0.0
  0
DIMENSION
  5
6D5C
330
1A
100
AcDbEntity
  8
SUNPOU
100
AcDbDimension
  2
*D3
 10
337.1103457157746
 20
160.5473528074995
 30
0.0
 11
332.1103457157745
 21
225.7972151695831
 31
0.0
 70
    32
  3
STANDARD
100
AcDbAlignedDimension
 13
383.4863568936433
 23
291.0470775316668
 33
0.0
 14
473.0406645260003
 24
160.5473528074995
 34
0.0
 50
90.0
100
AcDbRotatedDimension
1001
ACAD
1000
DSTYLE
1002
{
1070
   287
1070
     5
1070
   287
1070
     5
1070
   287
1070
     5
1070
   287
1070
     5
1070
   287
1070
     5
1070
   287
1070
     5
1070
    41
1040
7.0
1070
    42
1040
6.0
1070
    43
1040
14.0
1070
    44
1040
3.0
1070
    73
1070
     0
1070
    74
1070
     0
1070
    77
1070
     3
1070
   140
1040
6.0
1070
   141
1040
150.0
1070
   147
1040
2.0
1070
   172
1070
     1
1070
   173
1070
     1
1070
   176
1070
   256
1070
   177
1070
   256
1070
   178
1070
   256
1070
   271
1070
     0
1070
   272
1070
     0
1070
   279
1070
     2
1070
   341
1005
6D
1070
     6
1000
OPEN
1070
     7
1000
OPEN
1070
   371
1070
    -1
1070
   372
1070
    -1
1002
}
  0
DIMENSION
  5
6D69
330
1A
100
AcDbEntity
  8
SUNPOU
100
AcDbDimension
  2
*D4
 10
353.9854156943123
 20
250.5470775316668
 30
0.0
 11
348.9854156943122
 21
270.7970775316669
 31
0.0
 70
    32
  3
STANDARD
100
AcDbAlignedDimension
 13
383.4863568936433
 23
291.0470775316668
 33
0.0
 14
389.9460162551763
 24
250.5470775316668
 34
0.0
 50
90.0
100
AcDbRotatedDimension
1001
ACAD
1000
DSTYLE
1002
{
1070
   287
1070
     5
1070
   287
1070
     5
1070
   287
1070
     5
1070
   287
1070
     5
1070
   287
1070
     5
1070
   287
1070
     5
1070
    41
1040
7.0
1070
    42
1040
6.0
1070
    43
1040
14.0
1070
    44
1040
3.0
1070
    73
1070
     0
1070
    74
1070
     0
1070
    77
1070
     3
1070
   140
1040
6.0
1070
   141
1040
150.0
1070
   147
1040
2.0
1070
   172
1070
     1
1070
   173
1070
     1
1070
   176
1070
   256
1070
   177
1070
   256
1070
   178
1070
   256
1070
   271
1070
     0
1070
   272
1070
     0
1070
   279
1070
     2
1070
   341
1005
6D
1070
     6
1000
OPEN
1070
     7
1000
OPEN
1070
   371
1070
    -1
1070
   372
1070
    -1
1002
}
  0
DIMENSION
  5
6D76
330
1A
100
AcDbEntity
  8
SUNPOU
100
AcDbDimension
  2
*D5
 10
558.8969790001652
 20
228.5470775316669
 30
0.0
 11
553.8969790001651
 21
259.7970775316669
 31
0.0
 70
    32
  3
STANDARD
100
AcDbAlignedDimension
 13
525.1850029431535
 23
291.0470775316668
 33
0.0
 14
525.1850029431535
 24
228.5470775316669
 34
0.0
 50
90.0
100
AcDbRotatedDimension
1001
ACAD
1000
DSTYLE
1002
{
1070
   287
1070
     5
1070
   287
1070
     5
1070
   287
1070
     5
1070
   287
1070
     5
1070
   287
1070
     5
1070
   287
1070
     5
1070
    41
1040
7.0
1070
    42
1040
6.0
1070
    43
1040
14.0
1070
    44
1040
3.0
1070
    73
1070
     0
1070
    74
1070
     0
1070
    77
1070
     3
1070
   140
1040
6.0
1070
   141
1040
150.0
1070
   147
1040
2.0
1070
   172
1070
     1
1070
   173
1070
     1
1070
   176
1070
   256
1070
   177
1070
   256
1070
   178
1070
   256
1070
   271
1070
     0
1070
   272
1070
     0
1070
   279
1070
     2
1070
   341
1005
6D
1070
     6
1000
OPEN
1070
     7
1000
OPEN
1070
   371
1070
    -1
1070
   372
1070
    -1
1002
}
  0
DIMENSION
  5
6D83
330
1A
100
AcDbEntity
  8
SUNPOU
100
AcDbDimension
  2
*D6
 10
530.1850029431537
 20
329.6161603572731
 30
0.0
 11
454.3356799183984
 21
334.6161603572731
 31
0.0
 70
    32
  3
STANDARD
100
AcDbAlignedDimension
 13
378.4863568936433
 23
286.0470775316668
 33
0.0
 14
530.1850029431537
 24
286.0470775316668
 34
0.0
100
AcDbRotatedDimension
1001
ACAD
1000
DSTYLE
1002
{
1070
   287
1070
     5
1070
   287
1070
     5
1070
   287
1070
     5
1070
   287
1070
     5
1070
   287
1070
     5
1070
   287
1070
     5
1070
    41
1040
7.0
1070
    42
1040
6.0
1070
    43
1040
14.0
1070
    44
1040
3.0
1070
    73
1070
     0
1070
    74
1070
     0
1070
    77
1070
     3
1070
   140
1040
6.0
1070
   141
1040
150.0
1070
   147
1040
2.0
1070
   172
1070
     1
1070
   173
1070
     1
1070
   176
1070
   256
1070
   177
1070
   256
1070
   178
1070
   256
1070
   271
1070
     0
1070
   272
1070
     0
1070
   279
1070
     2
1070
   341
1005
6D
1070
     6
1000
OPEN
1070
     7
1000
OPEN
1070
   371
1070
    -1
1070
   372
1070
    -1
1002
}
  0
DIMENSION
  5
6D90
330
1A
100
AcDbEntity
  8
SUNPOU
100
AcDbDimension
  2
*D7
 10
353.9854156943123
 20
373.0035247208663
 30
0.0
 11
348.9854156943122
 21
398.0035247208663
 31
0.0
 70
    32
  3
STANDARD
100
AcDbAlignedDimension
 13
379.2545428161847
 23
423.0035247208664
 33
0.0
 14
379.2545428161847
 24
373.0035247208663
 34
0.0
 50
90.0
100
AcDbRotatedDimension
1001
ACAD
1000
DSTYLE
1002
{
1070
   287
1070
     5
1070
   287
1070
     5
1070
   287
1070
     5
1070
   287
1070
     5
1070
   287
1070
     5
1070
   287
1070
     5
1070
    41
1040
7.0
1070
    42
1040
6.0
1070
    43
1040
14.0
1070
    44
1040
3.0
1070
    73
1070
     0
1070
    74
1070
     0
1070
    77
1070
     3
1070
   140
1040
6.0
1070
   141
1040
150.0
1070
   147
1040
2.0
1070
   172
1070
     1
1070
   173
1070
     1
1070
   176
1070
   256
1070
   177
1070
   256
1070
   178
1070
   256
1070
   271
1070
     0
1070
   272
1070
     0
1070
   279
1070
     2
1070
   341
1005
6D
1070
     6
1000
OPEN
1070
     7
1000
OPEN
1070
   371
1070
    -1
1070
   372
1070
    -1
1002
}
  0
LINE
  5
6EAC
330
1A
100
AcDbEntity
  8
CENTER_L
 48
5.0
100
AcDbLine
 10
365.2435875344711
 20
399.0851774511546
 30
0.0
 11
541.3690250984843
 21
399.0851774511546
 31
0.0
  0
DIMENSION
  5
7000
330
1A
100
AcDbEntity
  8
SUNPOU
100
AcDbDimension
  2
*D8
 10
458.2257184624163
 20
170.8234248734321
 30
0.0
 11
449.5867902943476
 21
178.2451675988746
 31
0.0
 70
   160
  3
STANDARD
100
AcDbAlignedDimension
 13
458.2257184624163
 23
160.8234221206729
 33
0.0
 14
458.2257184624163
 24
170.8234248734321
 34
0.0
 50
90.0
100
AcDbRotatedDimension
1001
ACAD
1000
DSTYLE
1002
{
1070
   287
1070
     5
1070
   287
1070
     5
1070
   287
1070
     5
1070
   287
1070
     5
1070
    41
1040
7.0
1070
    42
1040
6.0
1070
    43
1040
14.0
1070
    44
1040
3.0
1070
    73
1070
     0
1070
    74
1070
     0
1070
    77
1070
     3
1070
   140
1040
6.0
1070
   141
1040
150.0
1070
   147
1040
2.0
1070
   172
1070
     1
1070
   173
1070
     1
1070
   176
1070
   256
1070
   177
1070
   256
1070
   178
1070
   256
1070
   271
1070
     0
1070
   272
1070
     0
1070
   279
1070
     2
1070
   341
1005
6D
1070
     6
1000
OPEN
1070
     7
1000
OPEN
1070
   371
1070
    -1
1070
   372
1070
    -1
1002
}
  0
LINE
  5
73A2
330
1A
100
AcDbEntity
  8
ZUWAKU
100
AcDbLine
 10
208.646601303624
 20
15.19999986828872
 30
0.0
 11
447.4243639845474
 21
15.19999986828871
 31
0.0
  0
LINE
  5
73A3
330
1A
100
AcDbEntity
  8
ZUWAKU
100
AcDbLine
 10
208.646601303624
 20
15.59999986828871
 30
0.0
 11
447.4243639845474
 21
15.59999986828872
 31
0.0
  0
LINE
  5
73A4
330
1A
100
AcDbEntity
  8
ZUWAKU
100
AcDbLine
 10
208.646601303624
 20
15.39999986828871
 30
0.0
 11
447.4243639845474
 21
15.39999986828871
 31
0.0
  0
LINE
  5
73A5
330
1A
100
AcDbEntity
  8
ZUWAKU
100
AcDbLine
 10
0.0000000135560185
 20
30.79999986828869
 30
0.0
 11
797.4000000135559
 21
30.79999986828869
 31
0.0
  0
LINE
  5
73A6
330
1A
100
AcDbEntity
  8
ZUWAKU
100
AcDbLine
 10
0.0000000135560185
 20
30.59999986828869
 30
0.0
 11
797.4000000135559
 21
30.59999986828869
 31
0.0
  0
LINE
  5
73A7
330
1A
100
AcDbEntity
  8
ZUWAKU
100
AcDbLine
 10
0.0000000135560185
 20
30.39999986828869
 30
0.0
 11
797.4000000135559
 21
30.39999986828869
 31
0.0
  0
LINE
  5
73A8
330
1A
100
AcDbEntity
  8
ZUWAKU
100
AcDbLine
 10
0.0000000135560185
 20
30.19999986828868
 30
0.0
 11
797.4000000135559
 21
30.19999986828868
 31
0.0
  0
LINE
  5
73A9
330
1A
100
AcDbEntity
  8
ZUWAKU
100
AcDbLine
 10
0.0000000135560185
 20
29.99999986828868
 30
0.0
 11
797.4000000135559
 21
29.99999986828868
 31
0.0
  0
LWPOLYLINE
  5
73AA
330
1A
100
AcDbEntity
  8
ZUWAKU
100
AcDbPolyline
 90
        4
 70
     1
 43
0.0
 10
0.2000000135559503
 20
551.3999998682887
 10
0.2000000135559503
 20
0.1999998682887281
 10
797.4000000135559
 20
0.1999998682887511
 10
797.4000000135561
 20
551.3999998682887
  0
LWPOLYLINE
  5
73AB
330
1A
100
AcDbEntity
  8
ZUWAKU
100
AcDbPolyline
 90
        4
 70
     1
 43
0.0
 10
0.6000000135559276
 20
550.9999998682888
 10
0.6000000135559276
 20
0.5999998682887054
 10
797.0000000135562
 20
0.5999998682887516
 10
797.000000013556
 20
550.9999998682888
  0
LWPOLYLINE
  5
73AC
330
1A
100
AcDbEntity
  8
ZUWAKU
100
AcDbPolyline
 90
        4
 70
     1
 43
0.0
 10
0.0000000135560185
 20
551.5999998682887
 10
0.0000000135560185
 20
-0.0000001317113174
 10
797.6000000135561
 20
-0.0000001317112499
 10
797.6000000135561
 20
551.5999998682888
  0
LWPOLYLINE
  5
73AD
330
1A
100
AcDbEntity
  8
ZUWAKU
100
AcDbPolyline
 90
        4
 70
     1
 43
0.0
 10
0.4000000135559958
 20
551.1999998682887
 10
0.4000000135559958
 20
0.3999998682887735
 10
797.200000013556
 20
0.3999998682887504
 10
797.200000013556
 20
551.1999998682887
  0
LWPOLYLINE
  5
73AE
330
1A
100
AcDbEntity
  8
ZUWAKU
100
AcDbPolyline
 90
        4
 70
     1
 43
0.0
 10
0.800000013555973
 20
550.7999998682887
 10
0.800000013555973
 20
0.7999998682887508
 10
796.8000000135559
 20
0.7999998682887508
 10
796.8000000135559
 20
550.7999998682887
  0
TEXT
  5
73AF
330
1A
100
AcDbEntity
  8
MOJI
100
AcDbText
 10
92.95778960172516
 20
12.74117799856344
 30
0.0
 40
6.0
  1
アートフェイスＶＭ１２０
 41
0.9
  7
ｽﾀｲﾙ1
100
AcDbText
  0
HATCH
  5
73B0
330
1A
100
AcDbEntity
  8
ZUWAKU
100
AcDbHatch
 10
0.0
 20
0.0
 30
0.0
210
0.0
220
0.0
230
1.0
  2
ANSI37
 70
     0
 71
     0
 91
        8
 92
        7
 72
     1
 73
     1
 93
       24
 10
14.50226267467587
 20
17.64484834927226
 42
-0.1989123673796348
 10
14.09221216833714
 20
18.63479784293331
 42
0.0
 10
14.09221216833714
 20
19.92499986828869
 42
-0.4142135623730912
 10
14.61721216833711
 20
20.44999986828868
 42
0.0
 10
17.59221216833702
 20
20.44999986828868
 42
0.4142135623731546
 10
18.11721216833712
 20
20.97499986828867
 42
0.0
 10
18.11721216833712
 20
22.72499986828869
 42
0.4142135623731586
 10
17.59221216833702
 20
23.24999986828868
 42
0.0
 10
14.09221216833714
 20
23.24999986828868
 42
0.4142135623730928
 10
11.29221216833718
 20
20.44999986828871
 42
0.0
 10
11.29221216833718
 20
18.63479784293344
 42
0.1989123673796619
 10
12.52236368735361
 20
15.66494936194983
 42
0.0
 10
15.43216166199829
 20
12.75515138730518
 42
-0.1989123673796613
 10
15.84221216833714
 20
11.76520189364399
 42
0.0
 10
15.84221216833714
 20
10.47499986828867
 42
-0.4142135623730911
 10
15.31721216833716
 20
9.949999868288685
 42
0.0
 10
12.34221216833725
 20
9.949999868288685
 42
0.4142135623731526
 10
11.81721216833716
 20
9.424999868288697
 42
0.0
 10
11.81721216833716
 20
7.674999868288676
 42
0.4142135623731526
 10
12.34221216833725
 20
7.149999868288688
 42
0.0
 10
15.84221216833714
 20
7.149999868288688
 42
0.4142135623731044
 10
18.64221216833721
 20
9.949999868288664
 42
0.0
 10
18.64221216833721
 20
11.76520189364393
 42
0.1989123673796604
 10
17.41206064932066
 20
14.73505037462747
 42
0.0
 97
        0
 92
        7
 72
     1
 73
     1
 93
       16
 10
23.54221216833718
 20
19.04999986828869
 42
-0.4142135623730935
 10
24.94221216833716
 20
20.44999986828868
 42
0.0
 10
26.86721216833712
 20
20.44999986828868
 42
0.4142135623731546
 10
27.39221216833721
 20
20.97499986828867
 42
0.0
 10
27.39221216833721
 20
22.72499986828869
 42
0.4142135623730951
 10
26.86721216833723
 20
23.24999986828868
 42
0.0
 10
24.94221216833705
 20
23.24999986828864
 42
0.4142135623730892
 10
20.74221216833711
 20
19.04999986828862
 42
0.0
 10
20.74221216833711
 20
11.34999986828871
 42
0.4142135623730969
 10
24.94221216833716
 20
7.149999868288688
 42
0.0
 10
26.86721216833712
 20
7.149999868288688
 42
0.4142135623731526
 10
27.39221216833721
 20
7.674999868288676
 42
0.0
 10
27.39221216833721
 20
9.424999868288697
 42
0.4142135623730891
 10
26.86721216833723
 20
9.949999868288685
 42
0.0
 10
24.94221216833716
 20
9.949999868288685
 42
-0.4142135623730928
 10
23.54221216833718
 20
11.34999986828867
 42
0.0
 97
        0
 92
        7
 72
     1
 73
     1
 93
        2
 10
24.24221216833712
 20
15.19999986828868
 42
1.0
 10
27.74221216833712
 20
15.19999986828868
 42
1.0
 97
        0
 92
        7
 72
     1
 73
     1
 93
       26
 10
37.31485865051513
 20
19.20504706185211
 42
0.0
 10
38.37649828365295
 20
22.5669059001217
 42
0.5069206636600134
 10
37.87586738445759
 20
23.24999986828868
 42
0.0
 10
36.17697800484836
 20
23.24999986828868
 42
0.3272098845218764
 10
35.676347105653
 20
22.88309383645565
 42
0.0
 10
33.80807723102122
 20
16.96690590012176
 42
-0.3272098845219541
 10
33.30744633182575
 20
16.59999986828868
 42
0.0
 10
33.1672121683373
 20
16.59999986828868
 42
-0.4142135623731526
 10
32.64221216833721
 20
17.12499986828867
 42
0.0
 10
32.64221216833721
 20
22.72499986828869
 42
0.4142135623730951
 10
32.11721216833723
 20
23.24999986828868
 42
0.0
 10
30.36721216833711
 20
23.24999986828868
 42
0.4142135623730871
 10
29.84221216833714
 20
22.7249998682887
 42
0.0
 10
29.84221216833714
 20
7.674999868288676
 42
0.4142135623730891
 10
30.36721216833711
 20
7.149999868288688
 42
0.0
 10
32.11721216833712
 20
7.149999868288688
 42
0.4142135623731526
 10
32.64221216833721
 20
7.674999868288676
 42
0.0
 10
32.64221216833721
 20
13.27499986828869
 42
-0.4142135623731526
 10
33.1672121683373
 20
13.79999986828868
 42
0.0
 10
33.30744633182587
 20
13.79999986828868
 42
-0.3272098845218915
 10
33.80807723102122
 20
13.43309383645561
 42
0.0
 10
35.676347105653
 20
7.516905900121759
 42
0.3272098845218902
 10
36.17697800484836
 20
7.149999868288688
 42
0.0
 10
37.87586738445759
 20
7.149999868288688
 42
0.5069206636600335
 10
38.37649828365295
 20
7.833093836455695
 42
0.0
 10
36.05010690517929
 20
15.19999986828882
 42
0.0
 97
        0
 92
        7
 72
     1
 73
     1
 93
        8
 10
43.49221216833711
 20
22.7249998682887
 42
0.4142135623731546
 10
42.96721216833702
 20
23.24999986828868
 42
0.0
 10
41.21721216833726
 20
23.24999986828868
 42
0.4142135623731507
 10
40.69221216833716
 20
22.7249998682887
 42
0.0
 10
40.69221216833716
 20
7.674999868288676
 42
0.4142135623731526
 10
41.21721216833726
 20
7.149999868288688
 42
0.0
 10
42.96721216833702
 20
7.149999868288688
 42
0.4142135623731526
 10
43.49221216833711
 20
7.674999868288676
 42
0.0
 97
        0
 92
        7
 72
     1
 73
     1
 93
       24
 10
48.3922121683372
 20
19.92499986828869
 42
-0.4142135623731546
 10
48.9172121683373
 20
20.44999986828868
 42
0.0
 10
51.89221216833721
 20
20.44999986828868
 42
0.4142135623730911
 10
52.41721216833719
 20
20.97499986828867
 42
0.0
 10
52.41721216833719
 20
22.72499986828869
 42
0.4142135623730952
 10
51.89221216833721
 20
23.24999986828868
 42
0.0
 10
48.3922121683372
 20
23.24999986828868
 42
0.4142135623731048
 10
45.59221216833714
 20
20.44999986828871
 42
0.0
 10
45.59221216833714
 20
18.63479784293344
 42
0.1989123673796613
 10
46.82236368735368
 20
15.66494936194989
 42
0.0
 10
49.73216166199836
 20
12.75515138730522
 42
-0.1989123673796402
 10
50.14221216833721
 20
11.76520189364415
 42
0.0
 10
50.14221216833721
 20
10.47499986828867
 42
-0.4142135623730911
 10
49.61721216833723
 20
9.949999868288685
 42
0.0
 10
46.64221216833721
 20
9.949999868288685
 42
0.4142135623731526
 10
46.11721216833712
 20
9.424999868288697
 42
0.0
 10
46.11721216833712
 20
7.674999868288676
 42
0.4142135623730891
 10
46.64221216833709
 20
7.149999868288688
 42
0.0
 10
50.14221216833721
 20
7.149999868288688
 42
0.4142135623730925
 10
52.94221216833716
 20
9.949999868288664
 42
0.0
 10
52.94221216833716
 20
11.76520189364393
 42
0.1989123673796675
 10
51.71206064932062
 20
14.73505037462759
 42
0.0
 10
48.80226267467605
 20
17.6448483492721
 42
-0.1989123673796652
 10
48.3922121683372
 20
18.63479784293327
 42
0.0
 97
        0
 92
        7
 72
     1
 73
     1
 93
       16
 10
57.84221216833714
 20
22.72499986828867
 42
0.414213562373103
 10
57.31721216833716
 20
23.24999986828868
 42
0.0
 10
55.56721216833716
 20
23.24999986828868
 42
0.4142135623730871
 10
55.04221216833719
 20
22.7249998682887
 42
0.0
 10
55.04221216833719
 20
9.949999868288664
 42
0.4142135623730926
 10
57.84221216833714
 20
7.149999868288688
 42
0.0
 10
61.34221216833714
 20
7.149999868288688
 42
0.4142135623731044
 10
64.14221216833721
 20
9.949999868288664
 42
0.0
 10
64.14221216833721
 20
22.72499986828869
 42
0.4142135623730951
 10
63.61721216833723
 20
23.24999986828868
 42
0.0
 10
61.86721216833712
 20
23.24999986828868
 42
0.4142135623730871
 10
61.34221216833714
 20
22.7249998682887
 42
0.0
 10
61.34221216833714
 20
10.99999986828866
 42
-0.414213562373088
 10
60.29221216833718
 20
9.949999868288685
 42
0.0
 10
58.89221216833721
 20
9.949999868288685
 42
-0.4142135623731197
 10
57.84221216833714
 20
10.99999986828866
 42
0.0
 97
        0
 92
        7
 72
     1
 73
     1
 93
        8
 10
69.04221216833718
 20
22.7249998682887
 42
0.4142135623730871
 10
68.51721216833721
 20
23.24999986828868
 42
0.0
 10
66.76721216833721
 20
23.24999986828868
 42
0.4142135623731507
 10
66.24221216833712
 20
22.7249998682887
 42
0.0
 10
66.24221216833712
 20
7.674999868288676
 42
0.4142135623730891
 10
66.76721216833709
 20
7.149999868288688
 42
0.0
 10
68.51721216833721
 20
7.149999868288688
 42
0.4142135623730891
 10
69.04221216833718
 20
7.674999868288676
 42
0.0
 97
        0
 75
     0
 76
     1
 52
0.0
 41
0.2
 77
     0
 78
     2
 53
45.0
 43
-900.942304321123
 44
-13.20000013171124
 45
-0.4490128060534576
 46
0.4490128060534577
 79
     0
 53
135.0
 43
-900.942304321123
 44
-13.20000013171124
 45
-0.4490128060534577
 46
-0.4490128060534576
 79
     0
 47
0.057451373970553
 98
        8
 10
16.07985497657932
 20
15.16717351417423
 10
22.40451501999519
 20
18.84406205073969
 10
25.16436789921567
 20
15.5118815143594
 10
30.91405999519315
 20
16.20129751473018
 10
41.83847203251275
 20
16.6609097822718
 10
46.89820090868557
 20
19.41857618469589
 10
56.55768598595637
 20
18.72915778338369
 10
67.82707963317875
 20
19.18877005092531
  0
LINE
  5
73B1
330
1A
100
AcDbEntity
  8
ZUWAKU
100
AcDbLine
 10
24.94221216833716
 20
23.24999986828864
 30
0.0
 11
26.86721216833712
 21
23.24999986828868
 31
0.0
  0
LINE
  5
73B2
330
1A
100
AcDbEntity
  8
ZUWAKU
100
AcDbLine
 10
26.86721216833712
 20
20.44999986828868
 30
0.0
 11
24.94221216833716
 21
20.44999986828868
 31
0.0
  0
LINE
  5
73B3
330
1A
100
AcDbEntity
  8
ZUWAKU
100
AcDbLine
 10
24.94221216833716
 20
9.949999868288685
 30
0.0
 11
26.86721216833712
 21
9.949999868288685
 31
0.0
  0
LINE
  5
73B4
330
1A
100
AcDbEntity
  8
ZUWAKU
100
AcDbLine
 10
26.86721216833712
 20
7.149999868288688
 30
0.0
 11
24.94221216833716
 21
7.149999868288688
 31
0.0
  0
CIRCLE
  5
73B5
330
1A
100
AcDbEntity
  8
ZUWAKU
100
AcDbCircle
 10
25.99221216833711
 20
15.19999986828868
 30
0.0
 40
1.75
  0
ARC
  5
73B6
330
1A
100
AcDbEntity
  8
ZUWAKU
100
AcDbCircle
 10
15.49221216833712
 20
18.63479784293338
 30
0.0
 40
1.399999999999999
100
AcDbArc
 50
180.0000000000016
 51
224.9999999999988
  0
LINE
  5
73B7
330
1A
100
AcDbEntity
  8
ZUWAKU
100
AcDbLine
 10
23.54221216833718
 20
19.04999986828868
 30
0.0
 11
23.54221216833718
 21
11.34999986828869
 31
0.0
  0
LINE
  5
73B8
330
1A
100
AcDbEntity
  8
ZUWAKU
100
AcDbLine
 10
20.74221216833711
 20
11.34999986828869
 30
0.0
 11
20.74221216833711
 21
19.04999986828864
 31
0.0
  0
ARC
  5
73B9
330
1A
100
AcDbEntity
  8
ZUWAKU
100
AcDbCircle
 10
15.49221216833712
 20
18.63479784293338
 30
0.0
 40
4.199999999999999
100
AcDbArc
 50
180.0
 51
225.0
  0
ARC
  5
73BA
330
1A
100
AcDbEntity
  8
ZUWAKU
100
AcDbCircle
 10
15.84221216833714
 20
9.949999868288685
 30
0.0
 40
2.799999999999999
100
AcDbArc
 50
270.0
 51
0.0
  0
ARC
  5
73BB
330
1A
100
AcDbEntity
  8
ZUWAKU
100
AcDbCircle
 10
24.94221216833716
 20
11.34999986828869
 30
0.0
 40
4.199999999999999
100
AcDbArc
 50
180.0
 51
270.0
  0
ARC
  5
73BC
330
1A
100
AcDbEntity
  8
ZUWAKU
100
AcDbCircle
 10
14.44221216833716
 20
11.76520189364399
 30
0.0
 40
4.199999999999999
100
AcDbArc
 50
0.0
 51
45.0
  0
LINE
  5
73BD
330
1A
100
AcDbEntity
  8
ZUWAKU
100
AcDbLine
 10
17.41206064932066
 20
14.73505037462751
 30
0.0
 11
14.50226267467598
 21
17.64484834927218
 31
0.0
  0
LINE
  5
73BE
330
1A
100
AcDbEntity
  8
ZUWAKU
100
AcDbLine
 10
15.84221216833714
 20
10.47499986828869
 30
0.0
 11
15.84221216833714
 21
11.76520189364403
 31
0.0
  0
ARC
  5
73BF
330
1A
100
AcDbEntity
  8
ZUWAKU
100
AcDbCircle
 10
15.31721216833716
 20
10.47499986828869
 30
0.0
 40
0.525
100
AcDbArc
 50
270.0
 51
0.0
  0
ARC
  5
73C0
330
1A
100
AcDbEntity
  8
ZUWAKU
100
AcDbCircle
 10
14.44221216833716
 20
11.76520189364403
 30
0.0
 40
1.399999999999999
100
AcDbArc
 50
0.0
 51
45.0
  0
LINE
  5
73C1
330
1A
100
AcDbEntity
  8
ZUWAKU
100
AcDbLine
 10
11.81721216833716
 20
7.674999868288686
 30
0.0
 11
11.81721216833716
 21
9.424999868288686
 31
0.0
  0
ARC
  5
73C2
330
1A
100
AcDbEntity
  8
ZUWAKU
100
AcDbCircle
 10
12.34221216833714
 20
7.674999868288686
 30
0.0
 40
0.525
100
AcDbArc
 50
180.0
 51
270.0
  0
ARC
  5
73C3
330
1A
100
AcDbEntity
  8
ZUWAKU
100
AcDbCircle
 10
12.34221216833714
 20
9.424999868288686
 30
0.0
 40
0.525
100
AcDbArc
 50
90.0
 51
180.0
  0
LINE
  5
73C4
330
1A
100
AcDbEntity
  8
ZUWAKU
100
AcDbLine
 10
12.34221216833714
 20
7.149999868288688
 30
0.0
 11
15.84221216833714
 21
7.149999868288688
 31
0.0
  0
LINE
  5
73C5
330
1A
100
AcDbEntity
  8
ZUWAKU
100
AcDbLine
 10
12.34221216833714
 20
9.949999868288685
 30
0.0
 11
15.31721216833716
 21
9.949999868288685
 31
0.0
  0
LINE
  5
73C6
330
1A
100
AcDbEntity
  8
ZUWAKU
100
AcDbLine
 10
12.52236368735361
 20
15.66494936194986
 30
0.0
 11
15.43216166199829
 21
12.7551513873052
 31
0.0
  0
LINE
  5
73C7
330
1A
100
AcDbEntity
  8
ZUWAKU
100
AcDbLine
 10
18.64221216833721
 20
9.949999868288685
 30
0.0
 11
18.64221216833721
 21
11.76520189364403
 31
0.0
  0
ARC
  5
73C8
330
1A
100
AcDbEntity
  8
ZUWAKU
100
AcDbCircle
 10
24.94221216833716
 20
11.34999986828869
 30
0.0
 40
1.399999999999999
100
AcDbArc
 50
180.0
 51
270.0
  0
ARC
  5
73C9
330
1A
100
AcDbEntity
  8
ZUWAKU
100
AcDbCircle
 10
17.59221216833714
 20
22.72499986828868
 30
0.0
 40
0.525
100
AcDbArc
 50
0.0
 51
90.0
  0
ARC
  5
73CA
330
1A
100
AcDbEntity
  8
ZUWAKU
100
AcDbCircle
 10
17.59221216833714
 20
20.97499986828868
 30
0.0
 40
0.525
100
AcDbArc
 50
270.0
 51
0.0
  0
LINE
  5
73CB
330
1A
100
AcDbEntity
  8
ZUWAKU
100
AcDbLine
 10
14.09221216833714
 20
23.24999986828868
 30
0.0
 11
17.59221216833714
 21
23.24999986828868
 31
0.0
  0
ARC
  5
73CC
330
1A
100
AcDbEntity
  8
ZUWAKU
100
AcDbCircle
 10
14.61721216833711
 20
19.92499986828868
 30
0.0
 40
0.525
100
AcDbArc
 50
90.0
 51
180.0
  0
LINE
  5
73CD
330
1A
100
AcDbEntity
  8
ZUWAKU
100
AcDbLine
 10
14.09221216833714
 20
19.92499986828868
 30
0.0
 11
14.09221216833714
 21
18.63479784293334
 31
0.0
  0
LINE
  5
73CE
330
1A
100
AcDbEntity
  8
ZUWAKU
100
AcDbLine
 10
17.59221216833714
 20
20.44999986828868
 30
0.0
 11
14.61721216833711
 21
20.44999986828868
 31
0.0
  0
LINE
  5
73CF
330
1A
100
AcDbEntity
  8
ZUWAKU
100
AcDbLine
 10
11.29221216833718
 20
20.44999986828868
 30
0.0
 11
11.29221216833718
 21
18.63479784293334
 31
0.0
  0
ARC
  5
73D0
330
1A
100
AcDbEntity
  8
ZUWAKU
100
AcDbCircle
 10
14.09221216833714
 20
20.44999986828868
 30
0.0
 40
2.799999999999999
100
AcDbArc
 50
90.0
 51
180.0
  0
LINE
  5
73D1
330
1A
100
AcDbEntity
  8
ZUWAKU
100
AcDbLine
 10
18.11721216833712
 20
22.72499986828868
 30
0.0
 11
18.11721216833712
 21
20.97499986828868
 31
0.0
  0
ARC
  5
73D2
330
1A
100
AcDbEntity
  8
ZUWAKU
100
AcDbCircle
 10
24.94221216833716
 20
19.04999986828868
 30
0.0
 40
1.399999999999999
100
AcDbArc
 50
90.0
 51
180.0
  0
ARC
  5
73D3
330
1A
100
AcDbEntity
  8
ZUWAKU
100
AcDbCircle
 10
24.94221216833716
 20
19.04999986828864
 30
0.0
 40
4.199999999999999
100
AcDbArc
 50
90.0
 51
180.0
  0
LINE
  5
73D4
330
1A
100
AcDbEntity
  8
ZUWAKU
100
AcDbLine
 10
79.32662956154422
 20
29.99999986828868
 30
0.0
 11
79.32662956154445
 21
0.7999998682887508
 31
0.0
  0
LINE
  5
73D5
330
1A
100
AcDbEntity
  8
ZUWAKU
100
AcDbLine
 10
79.52662956154426
 20
29.99999986828868
 30
0.0
 11
79.52662956154449
 21
0.7999998682887508
 31
0.0
  0
LINE
  5
73D6
330
1A
100
AcDbEntity
  8
ZUWAKU
100
AcDbLine
 10
79.12662956154441
 20
29.99999986828868
 30
0.0
 11
79.12662956154441
 21
0.7999998682887508
 31
0.0
  0
LINE
  5
73D7
330
1A
100
AcDbEntity
  8
ZUWAKU
100
AcDbLine
 10
64.14221216833721
 20
9.949999868288685
 30
0.0
 11
64.14221216833721
 21
22.72499986828868
 31
0.0
  0
LINE
  5
73D8
330
1A
100
AcDbEntity
  8
ZUWAKU
100
AcDbLine
 10
61.34221216833714
 20
22.72499986828868
 30
0.0
 11
61.34221216833714
 21
10.99999986828868
 31
0.0
  0
LINE
  5
73D9
330
1A
100
AcDbEntity
  8
ZUWAKU
100
AcDbLine
 10
69.04221216833718
 20
7.674999868288686
 30
0.0
 11
69.04221216833718
 21
22.72499986828868
 31
0.0
  0
LINE
  5
73DA
330
1A
100
AcDbEntity
  8
ZUWAKU
100
AcDbLine
 10
66.24221216833712
 20
22.72499986828868
 30
0.0
 11
66.24221216833712
 21
7.674999868288686
 31
0.0
  0
ARC
  5
73DB
330
1A
100
AcDbEntity
  8
ZUWAKU
100
AcDbCircle
 10
49.79221216833718
 20
18.63479784293338
 30
0.0
 40
1.399999999999999
100
AcDbArc
 50
180.0000000000016
 51
224.9999999999988
  0
ARC
  5
73DC
330
1A
100
AcDbEntity
  8
ZUWAKU
100
AcDbCircle
 10
49.79221216833718
 20
18.63479784293338
 30
0.0
 40
4.199999999999999
100
AcDbArc
 50
180.0
 51
225.0
  0
LINE
  5
73DD
330
1A
100
AcDbEntity
  8
ZUWAKU
100
AcDbLine
 10
37.31485865051513
 20
19.20504706185211
 30
0.0
 11
36.05010690517929
 21
15.1999998682887
 31
0.0
  0
LINE
  5
73DE
330
1A
100
AcDbEntity
  8
ZUWAKU
100
AcDbLine
 10
40.69221216833716
 20
22.72499986828868
 30
0.0
 11
40.69221216833716
 21
7.674999868288686
 31
0.0
  0
LINE
  5
73DF
330
1A
100
AcDbEntity
  8
ZUWAKU
100
AcDbLine
 10
43.49221216833711
 20
7.674999868288686
 30
0.0
 11
43.49221216833711
 21
22.72499986828868
 31
0.0
  0
LINE
  5
73E0
330
1A
100
AcDbEntity
  8
ZUWAKU
100
AcDbLine
 10
55.04221216833719
 20
22.72499986828868
 30
0.0
 11
55.04221216833719
 21
9.949999868288685
 31
0.0
  0
LINE
  5
73E1
330
1A
100
AcDbEntity
  8
ZUWAKU
100
AcDbLine
 10
57.84221216833714
 20
10.99999986828868
 30
0.0
 11
57.84221216833714
 21
22.72499986828868
 31
0.0
  0
LINE
  5
73E2
330
1A
100
AcDbEntity
  8
ZUWAKU
100
AcDbLine
 10
32.64221216833721
 20
17.12499986828869
 30
0.0
 11
32.64221216833721
 21
22.72499986828868
 31
0.0
  0
LINE
  5
73E3
330
1A
100
AcDbEntity
  8
ZUWAKU
100
AcDbLine
 10
29.84221216833714
 20
22.72499986828868
 30
0.0
 11
29.84221216833714
 21
7.674999868288686
 31
0.0
  0
LINE
  5
73E4
330
1A
100
AcDbEntity
  8
ZUWAKU
100
AcDbLine
 10
35.676347105653
 20
22.88309383645565
 30
0.0
 11
33.80807723102122
 21
16.96690590012171
 31
0.0
  0
LINE
  5
73E5
330
1A
100
AcDbEntity
  8
ZUWAKU
100
AcDbLine
 10
60.29221216833718
 20
9.949999868288685
 30
0.0
 11
58.89221216833721
 21
9.949999868288685
 31
0.0
  0
LINE
  5
73E6
330
1A
100
AcDbEntity
  8
ZUWAKU
100
AcDbLine
 10
57.84221216833714
 20
7.149999868288688
 30
0.0
 11
61.34221216833714
 21
7.149999868288688
 31
0.0
  0
LINE
  5
73E7
330
1A
100
AcDbEntity
  8
ZUWAKU
100
AcDbLine
 10
41.21721216833714
 20
7.149999868288688
 30
0.0
 11
42.96721216833714
 21
7.149999868288688
 31
0.0
  0
LINE
  5
73E8
330
1A
100
AcDbEntity
  8
ZUWAKU
100
AcDbLine
 10
35.676347105653
 20
7.516905900121713
 30
0.0
 11
33.80807723102122
 21
13.43309383645565
 31
0.0
  0
ARC
  5
73E9
330
1A
100
AcDbEntity
  8
ZUWAKU
100
AcDbCircle
 10
33.30744633182587
 20
17.12499986828869
 30
0.0
 40
0.525
100
AcDbArc
 50
270.0
 51
342.4744316262769
  0
LINE
  5
73EA
330
1A
100
AcDbEntity
  8
ZUWAKU
100
AcDbLine
 10
33.30744633182587
 20
16.59999986828868
 30
0.0
 11
33.16721216833718
 21
16.59999986828868
 31
0.0
  0
LINE
  5
73EB
330
1A
100
AcDbEntity
  8
ZUWAKU
100
AcDbLine
 10
33.16721216833718
 20
13.79999986828868
 30
0.0
 11
33.30744633182587
 21
13.79999986828868
 31
0.0
  0
ARC
  5
73EC
330
1A
100
AcDbEntity
  8
ZUWAKU
100
AcDbCircle
 10
33.16721216833718
 20
17.12499986828869
 30
0.0
 40
0.525
100
AcDbArc
 50
180.0
 51
270.0
  0
LINE
  5
73ED
330
1A
100
AcDbEntity
  8
ZUWAKU
100
AcDbLine
 10
30.36721216833711
 20
7.149999868288688
 30
0.0
 11
32.11721216833712
 21
7.149999868288688
 31
0.0
  0
ARC
  5
73EE
330
1A
100
AcDbEntity
  8
ZUWAKU
100
AcDbCircle
 10
32.11721216833712
 20
7.674999868288686
 30
0.0
 40
0.525
100
AcDbArc
 50
270.0
 51
0.0
  0
LINE
  5
73EF
330
1A
100
AcDbEntity
  8
ZUWAKU
100
AcDbLine
 10
32.64221216833721
 20
7.674999868288686
 30
0.0
 11
32.64221216833721
 21
13.27499986828868
 31
0.0
  0
LINE
  5
73F0
330
1A
100
AcDbEntity
  8
ZUWAKU
100
AcDbLine
 10
27.39221216833721
 20
9.424999868288686
 30
0.0
 11
27.39221216833721
 21
7.674999868288686
 31
0.0
  0
ARC
  5
73F1
330
1A
100
AcDbEntity
  8
ZUWAKU
100
AcDbCircle
 10
26.86721216833712
 20
7.674999868288686
 30
0.0
 40
0.525
100
AcDbArc
 50
270.0
 51
0.0
  0
ARC
  5
73F2
330
1A
100
AcDbEntity
  8
ZUWAKU
100
AcDbCircle
 10
26.86721216833712
 20
9.424999868288686
 30
0.0
 40
0.525
100
AcDbArc
 50
0.0
 51
90.0
  0
ARC
  5
73F3
330
1A
100
AcDbEntity
  8
ZUWAKU
100
AcDbCircle
 10
30.36721216833711
 20
7.674999868288686
 30
0.0
 40
0.525
100
AcDbArc
 50
180.0
 51
270.0
  0
ARC
  5
73F4
330
1A
100
AcDbEntity
  8
ZUWAKU
100
AcDbCircle
 10
33.30744633182587
 20
13.27499986828868
 30
0.0
 40
0.525
100
AcDbArc
 50
17.52556837372303
 51
90.0
  0
ARC
  5
73F5
330
1A
100
AcDbEntity
  8
ZUWAKU
100
AcDbCircle
 10
33.16721216833718
 20
13.27499986828868
 30
0.0
 40
0.525
100
AcDbArc
 50
90.0
 51
180.0
  0
ARC
  5
73F6
330
1A
100
AcDbEntity
  8
ZUWAKU
100
AcDbCircle
 10
41.21721216833714
 20
7.674999868288686
 30
0.0
 40
0.525
100
AcDbArc
 50
180.0
 51
270.0
  0
LINE
  5
73F7
330
1A
100
AcDbEntity
  8
ZUWAKU
100
AcDbLine
 10
36.17697800484847
 20
7.149999868288688
 30
0.0
 11
37.87586738445748
 21
7.149999868288688
 31
0.0
  0
ARC
  5
73F8
330
1A
100
AcDbEntity
  8
ZUWAKU
100
AcDbCircle
 10
37.87586738445748
 20
7.674999868288686
 30
0.0
 40
0.525
100
AcDbArc
 50
270.0
 51
17.52556837372303
  0
LINE
  5
73F9
330
1A
100
AcDbEntity
  8
ZUWAKU
100
AcDbLine
 10
38.37649828365295
 20
7.83309383645566
 30
0.0
 11
36.05010690517929
 21
15.1999998682887
 31
0.0
  0
ARC
  5
73FA
330
1A
100
AcDbEntity
  8
ZUWAKU
100
AcDbCircle
 10
36.17697800484847
 20
7.674999868288686
 30
0.0
 40
0.525
100
AcDbArc
 50
197.525568373723
 51
270.0
  0
ARC
  5
73FB
330
1A
100
AcDbEntity
  8
ZUWAKU
100
AcDbCircle
 10
57.84221216833714
 20
9.949999868288685
 30
0.0
 40
2.799999999999999
100
AcDbArc
 50
180.0
 51
270.0
  0
ARC
  5
73FC
330
1A
100
AcDbEntity
  8
ZUWAKU
100
AcDbCircle
 10
50.14221216833721
 20
9.949999868288685
 30
0.0
 40
2.799999999999999
100
AcDbArc
 50
270.0
 51
0.0
  0
LINE
  5
73FD
330
1A
100
AcDbEntity
  8
ZUWAKU
100
AcDbLine
 10
51.71206064932073
 20
14.73505037462751
 30
0.0
 11
48.80226267467595
 21
17.64484834927218
 31
0.0
  0
LINE
  5
73FE
330
1A
100
AcDbEntity
  8
ZUWAKU
100
AcDbLine
 10
50.14221216833721
 20
10.47499986828869
 30
0.0
 11
50.14221216833721
 21
11.76520189364403
 31
0.0
  0
ARC
  5
73FF
330
1A
100
AcDbEntity
  8
ZUWAKU
100
AcDbCircle
 10
48.74221216833712
 20
11.76520189364403
 30
0.0
 40
1.399999999999999
100
AcDbArc
 50
0.0
 51
45.0
  0
ARC
  5
7400
330
1A
100
AcDbEntity
  8
ZUWAKU
100
AcDbCircle
 10
49.61721216833712
 20
10.47499986828869
 30
0.0
 40
0.525
100
AcDbArc
 50
270.0
 51
0.0
  0
LINE
  5
7401
330
1A
100
AcDbEntity
  8
ZUWAKU
100
AcDbLine
 10
46.11721216833712
 20
7.674999868288686
 30
0.0
 11
46.11721216833712
 21
9.424999868288686
 31
0.0
  0
ARC
  5
7402
330
1A
100
AcDbEntity
  8
ZUWAKU
100
AcDbCircle
 10
46.64221216833721
 20
7.674999868288686
 30
0.0
 40
0.525
100
AcDbArc
 50
180.0
 51
270.0
  0
ARC
  5
7403
330
1A
100
AcDbEntity
  8
ZUWAKU
100
AcDbCircle
 10
42.96721216833714
 20
7.674999868288686
 30
0.0
 40
0.525
100
AcDbArc
 50
270.0
 51
0.0
  0
ARC
  5
7404
330
1A
100
AcDbEntity
  8
ZUWAKU
100
AcDbCircle
 10
46.64221216833721
 20
9.424999868288686
 30
0.0
 40
0.525
100
AcDbArc
 50
90.0
 51
180.0
  0
LINE
  5
7405
330
1A
100
AcDbEntity
  8
ZUWAKU
100
AcDbLine
 10
46.64221216833721
 20
9.949999868288685
 30
0.0
 11
49.61721216833712
 21
9.949999868288685
 31
0.0
  0
LINE
  5
7406
330
1A
100
AcDbEntity
  8
ZUWAKU
100
AcDbLine
 10
46.64221216833721
 20
7.149999868288688
 30
0.0
 11
50.14221216833721
 21
7.149999868288688
 31
0.0
  0
LINE
  5
7407
330
1A
100
AcDbEntity
  8
ZUWAKU
100
AcDbLine
 10
46.82236368735368
 20
15.66494936194986
 30
0.0
 11
49.73216166199836
 21
12.7551513873052
 31
0.0
  0
LINE
  5
7408
330
1A
100
AcDbEntity
  8
ZUWAKU
100
AcDbLine
 10
52.94221216833716
 20
9.949999868288685
 30
0.0
 11
52.94221216833716
 21
11.76520189364403
 31
0.0
  0
ARC
  5
7409
330
1A
100
AcDbEntity
  8
ZUWAKU
100
AcDbCircle
 10
48.74221216833712
 20
11.76520189364399
 30
0.0
 40
4.199999999999999
100
AcDbArc
 50
0.0
 51
45.0
  0
ARC
  5
740A
330
1A
100
AcDbEntity
  8
ZUWAKU
100
AcDbCircle
 10
58.89221216833721
 20
10.99999986828868
 30
0.0
 40
1.049999999999999
100
AcDbArc
 50
180.0
 51
270.0
  0
ARC
  5
740B
330
1A
100
AcDbEntity
  8
ZUWAKU
100
AcDbCircle
 10
61.34221216833714
 20
9.949999868288685
 30
0.0
 40
2.799999999999999
100
AcDbArc
 50
270.0
 51
0.0
  0
LINE
  5
740C
330
1A
100
AcDbEntity
  8
ZUWAKU
100
AcDbLine
 10
66.76721216833721
 20
7.149999868288688
 30
0.0
 11
68.51721216833721
 21
7.149999868288688
 31
0.0
  0
ARC
  5
740D
330
1A
100
AcDbEntity
  8
ZUWAKU
100
AcDbCircle
 10
66.76721216833721
 20
7.674999868288686
 30
0.0
 40
0.525
100
AcDbArc
 50
180.0
 51
270.0
  0
ARC
  5
740E
330
1A
100
AcDbEntity
  8
ZUWAKU
100
AcDbCircle
 10
60.29221216833718
 20
10.99999986828868
 30
0.0
 40
1.049999999999999
100
AcDbArc
 50
270.0
 51
0.0
  0
ARC
  5
740F
330
1A
100
AcDbEntity
  8
ZUWAKU
100
AcDbCircle
 10
68.51721216833721
 20
7.674999868288686
 30
0.0
 40
0.525
100
AcDbArc
 50
270.0
 51
0.0
  0
LINE
  5
7410
330
1A
100
AcDbEntity
  8
ZUWAKU
100
AcDbLine
 10
42.96721216833714
 20
23.24999986828868
 30
0.0
 11
41.21721216833714
 21
23.24999986828868
 31
0.0
  0
ARC
  5
7411
330
1A
100
AcDbEntity
  8
ZUWAKU
100
AcDbCircle
 10
32.11721216833712
 20
22.72499986828868
 30
0.0
 40
0.525
100
AcDbArc
 50
0.0
 51
90.0
  0
LINE
  5
7412
330
1A
100
AcDbEntity
  8
ZUWAKU
100
AcDbLine
 10
32.11721216833712
 20
23.24999986828868
 30
0.0
 11
30.36721216833711
 21
23.24999986828868
 31
0.0
  0
ARC
  5
7413
330
1A
100
AcDbEntity
  8
ZUWAKU
100
AcDbCircle
 10
26.86721216833712
 20
22.72499986828868
 30
0.0
 40
0.525
100
AcDbArc
 50
0.0
 51
90.0
  0
ARC
  5
7414
330
1A
100
AcDbEntity
  8
ZUWAKU
100
AcDbCircle
 10
30.36721216833711
 20
22.72499986828868
 30
0.0
 40
0.525
100
AcDbArc
 50
90.0
 51
180.0
  0
ARC
  5
7415
330
1A
100
AcDbEntity
  8
ZUWAKU
100
AcDbCircle
 10
26.86721216833712
 20
20.97499986828868
 30
0.0
 40
0.525
100
AcDbArc
 50
270.0
 51
0.0
  0
LINE
  5
7416
330
1A
100
AcDbEntity
  8
ZUWAKU
100
AcDbLine
 10
27.39221216833721
 20
22.72499986828868
 30
0.0
 11
27.39221216833721
 21
20.97499986828868
 31
0.0
  0
ARC
  5
7417
330
1A
100
AcDbEntity
  8
ZUWAKU
100
AcDbCircle
 10
41.21721216833714
 20
22.72499986828868
 30
0.0
 40
0.525
100
AcDbArc
 50
90.0
 51
180.0
  0
LINE
  5
7418
330
1A
100
AcDbEntity
  8
ZUWAKU
100
AcDbLine
 10
36.17697800484847
 20
23.24999986828868
 30
0.0
 11
37.87586738445748
 21
23.24999986828868
 31
0.0
  0
ARC
  5
7419
330
1A
100
AcDbEntity
  8
ZUWAKU
100
AcDbCircle
 10
37.87586738445748
 20
22.72499986828868
 30
0.0
 40
0.525
100
AcDbArc
 50
342.4744316262769
 51
90.0
  0
LINE
  5
741A
330
1A
100
AcDbEntity
  8
ZUWAKU
100
AcDbLine
 10
38.37649828365295
 20
22.56690590012171
 30
0.0
 11
37.31485865051513
 21
19.20504706185211
 31
0.0
  0
ARC
  5
741B
330
1A
100
AcDbEntity
  8
ZUWAKU
100
AcDbCircle
 10
36.17697800484847
 20
22.72499986828868
 30
0.0
 40
0.525
100
AcDbArc
 50
90.0
 51
162.4744316262769
  0
LINE
  5
741C
330
1A
100
AcDbEntity
  8
ZUWAKU
100
AcDbLine
 10
48.3922121683372
 20
23.24999986828868
 30
0.0
 11
51.89221216833721
 21
23.24999986828868
 31
0.0
  0
LINE
  5
741D
330
1A
100
AcDbEntity
  8
ZUWAKU
100
AcDbLine
 10
51.89221216833721
 20
20.44999986828868
 30
0.0
 11
48.91721216833719
 21
20.44999986828868
 31
0.0
  0
ARC
  5
741E
330
1A
100
AcDbEntity
  8
ZUWAKU
100
AcDbCircle
 10
48.91721216833719
 20
19.92499986828868
 30
0.0
 40
0.525
100
AcDbArc
 50
90.0
 51
180.0
  0
LINE
  5
741F
330
1A
100
AcDbEntity
  8
ZUWAKU
100
AcDbLine
 10
48.3922121683372
 20
19.92499986828868
 30
0.0
 11
48.3922121683372
 21
18.63479784293334
 31
0.0
  0
ARC
  5
7420
330
1A
100
AcDbEntity
  8
ZUWAKU
100
AcDbCircle
 10
42.96721216833714
 20
22.72499986828868
 30
0.0
 40
0.525
100
AcDbArc
 50
0.0
 51
90.0
  0
LINE
  5
7421
330
1A
100
AcDbEntity
  8
ZUWAKU
100
AcDbLine
 10
45.59221216833714
 20
20.44999986828868
 30
0.0
 11
45.59221216833714
 21
18.63479784293334
 31
0.0
  0
ARC
  5
7422
330
1A
100
AcDbEntity
  8
ZUWAKU
100
AcDbCircle
 10
48.3922121683372
 20
20.44999986828868
 30
0.0
 40
2.799999999999999
100
AcDbArc
 50
90.0
 51
180.0
  0
ARC
  5
7423
330
1A
100
AcDbEntity
  8
ZUWAKU
100
AcDbCircle
 10
57.31721216833716
 20
22.72499986828868
 30
0.0
 40
0.525
100
AcDbArc
 50
0.0
 51
90.0
  0
ARC
  5
7424
330
1A
100
AcDbEntity
  8
ZUWAKU
100
AcDbCircle
 10
55.56721216833716
 20
22.72499986828868
 30
0.0
 40
0.525
100
AcDbArc
 50
90.0
 51
180.0
  0
LINE
  5
7425
330
1A
100
AcDbEntity
  8
ZUWAKU
100
AcDbLine
 10
57.31721216833716
 20
23.24999986828868
 30
0.0
 11
55.56721216833716
 21
23.24999986828868
 31
0.0
  0
ARC
  5
7426
330
1A
100
AcDbEntity
  8
ZUWAKU
100
AcDbCircle
 10
51.89221216833721
 20
22.72499986828868
 30
0.0
 40
0.525
100
AcDbArc
 50
0.0
 51
90.0
  0
ARC
  5
7427
330
1A
100
AcDbEntity
  8
ZUWAKU
100
AcDbCircle
 10
51.89221216833721
 20
20.97499986828868
 30
0.0
 40
0.525
100
AcDbArc
 50
270.0
 51
0.0
  0
LINE
  5
7428
330
1A
100
AcDbEntity
  8
ZUWAKU
100
AcDbLine
 10
52.41721216833719
 20
22.72499986828868
 30
0.0
 11
52.41721216833719
 21
20.97499986828868
 31
0.0
  0
LINE
  5
7429
330
1A
100
AcDbEntity
  8
ZUWAKU
100
AcDbLine
 10
68.51721216833721
 20
23.24999986828868
 30
0.0
 11
66.76721216833721
 21
23.24999986828868
 31
0.0
  0
ARC
  5
742A
330
1A
100
AcDbEntity
  8
ZUWAKU
100
AcDbCircle
 10
66.76721216833721
 20
22.72499986828868
 30
0.0
 40
0.525
100
AcDbArc
 50
90.0
 51
180.0
  0
ARC
  5
742B
330
1A
100
AcDbEntity
  8
ZUWAKU
100
AcDbCircle
 10
63.61721216833712
 20
22.72499986828868
 30
0.0
 40
0.525
100
AcDbArc
 50
0.0
 51
90.0
  0
LINE
  5
742C
330
1A
100
AcDbEntity
  8
ZUWAKU
100
AcDbLine
 10
63.61721216833712
 20
23.24999986828868
 30
0.0
 11
61.86721216833712
 21
23.24999986828868
 31
0.0
  0
ARC
  5
742D
330
1A
100
AcDbEntity
  8
ZUWAKU
100
AcDbCircle
 10
61.86721216833712
 20
22.72499986828868
 30
0.0
 40
0.525
100
AcDbArc
 50
90.0
 51
180.0
  0
ARC
  5
742E
330
1A
100
AcDbEntity
  8
ZUWAKU
100
AcDbCircle
 10
68.51721216833721
 20
22.72499986828868
 30
0.0
 40
0.525
100
AcDbArc
 50
0.0
 51
90.0
  0
TEXT
  5
742F
330
1A
100
AcDbEntity
  8
MOJI
100
AcDbText
 10
239.827202694407
 20
18.00492092569607
 30
0.0
 40
5.599999999999999
  1
のきとい切断治具
 41
0.9
  7
ｽﾀｲﾙ1
100
AcDbText
  0
TEXT
  5
7430
330
1A
100
AcDbEntity
  8
MOJI
100
AcDbText
 10
239.827202694407
 20
3.204920925696104
 30
0.0
 40
5.599999999999999
  1
ＶＭ１２０
 41
0.9
  7
ｽﾀｲﾙ1
100
AcDbText
  0
LINE
  5
7431
330
1A
100
AcDbEntity
  8
ZUWAKU
100
AcDbLine
 10
208.2466013036239
 20
29.99999986828868
 30
0.0
 11
208.2466013036239
 21
0.7999998682887508
 31
0.0
  0
LINE
  5
7432
330
1A
100
AcDbEntity
  8
ZUWAKU
100
AcDbLine
 10
208.6466013036238
 20
29.99999986828868
 30
0.0
 11
208.646601303624
 21
0.7999998682887508
 31
0.0
  0
LINE
  5
7433
330
1A
100
AcDbEntity
  8
ZUWAKU
100
AcDbLine
 10
208.4466013036237
 20
29.99999986828868
 30
0.0
 11
208.446601303624
 21
0.7999998682887508
 31
0.0
  0
TEXT
  5
7434
330
1A
100
AcDbEntity
  8
ZUWAKU
100
AcDbText
 10
209.7240463258335
 20
9.6553564066743
 30
0.0
 40
4.0
  1
サイズ
 41
0.9
  7
ｽﾀｲﾙ1
100
AcDbText
  0
TEXT
  5
7435
330
1A
100
AcDbEntity
  8
ZUWAKU
100
AcDbText
 10
209.7240463258333
 20
24.05535640667426
 30
0.0
 40
4.0
  1
品名
 41
0.9
  7
ｽﾀｲﾙ1
100
AcDbText
  0
LINE
  5
7436
330
1A
100
AcDbEntity
  8
ZUWAKU
100
AcDbLine
 10
648.8172025237602
 20
15.19999986828871
 30
0.0
 11
697.2490105620972
 21
15.19999986828871
 31
0.0
  0
LINE
  5
7437
330
1A
100
AcDbEntity
  8
ZUWAKU
100
AcDbLine
 10
648.8172025237604
 20
15.39999986828872
 30
0.0
 11
697.2490105620972
 21
15.39999986828871
 31
0.0
  0
LINE
  5
7438
330
1A
100
AcDbEntity
  8
ZUWAKU
100
AcDbLine
 10
648.8172025237602
 20
15.59999986828871
 30
0.0
 11
697.2490105620972
 21
15.59999986828871
 31
0.0
  0
TEXT
  5
7439
330
1A
100
AcDbEntity
  8
ZUWAKU
100
AcDbText
 10
658.2039377008584
 20
18.00492092569607
 30
0.0
 40
5.599999999999999
  1
　　．　　．　　
 41
0.9
  7
ｽﾀｲﾙ1
100
AcDbText
  0
LINE
  5
743A
330
1A
100
AcDbEntity
  8
ZUWAKU
100
AcDbLine
 10
505.1991795116968
 20
15.19999986828872
 30
0.0
 11
552.5269557796685
 21
15.19999986828872
 31
0.0
  0
LINE
  5
743B
330
1A
100
AcDbEntity
  8
ZUWAKU
100
AcDbLine
 10
505.1991795116968
 20
15.39999986828871
 30
0.0
 11
552.5269557796685
 21
15.39999986828871
 31
0.0
  0
LINE
  5
743C
330
1A
100
AcDbEntity
  8
ZUWAKU
100
AcDbLine
 10
505.1991795116968
 20
15.59999986828871
 30
0.0
 11
552.5269557796685
 21
15.59999986828871
 31
0.0
  0
TEXT
  5
743D
330
1A
100
AcDbEntity
  8
MOJI
100
AcDbText
 10
463.246432004558
 20
11.94261758994866
 30
0.0
 40
5.599999999999999
  1
ＰＧ８１Ｋ
 41
0.9
  7
ｽﾀｲﾙ1
100
AcDbText
  0
LINE
  5
743E
330
1A
100
AcDbEntity
  8
ZUWAKU
100
AcDbLine
 10
447.6243639845472
 20
29.99999986828868
 30
0.0
 11
447.6243639845474
 21
0.7999998682887508
 31
0.0
  0
LINE
  5
743F
330
1A
100
AcDbEntity
  8
ZUWAKU
100
AcDbLine
 10
447.8243639845472
 20
29.99999986828868
 30
0.0
 11
447.8243639845475
 21
0.7999998682887508
 31
0.0
  0
LINE
  5
7440
330
1A
100
AcDbEntity
  8
ZUWAKU
100
AcDbLine
 10
447.4243639845474
 20
29.99999986828868
 30
0.0
 11
447.4243639845474
 21
0.7999998682887508
 31
0.0
  0
TEXT
  5
7441
330
1A
100
AcDbEntity
  8
MOJI
100
AcDbText
 10
528.0409079858689
 20
18.00492092569607
 30
0.0
 40
5.599999999999999
  1
Ａ３
 41
0.9
  7
ｽﾀｲﾙ1
100
AcDbText
  0
LINE
  5
7442
330
1A
100
AcDbEntity
  8
ZUWAKU
100
AcDbLine
 10
504.9991795116969
 20
29.99999986828868
 30
0.0
 11
504.999179511697
 21
0.7999998682887508
 31
0.0
  0
LINE
  5
7443
330
1A
100
AcDbEntity
  8
ZUWAKU
100
AcDbLine
 10
505.1991795116968
 20
29.99999986828868
 30
0.0
 11
505.1991795116971
 21
0.7999998682887508
 31
0.0
  0
LINE
  5
7444
330
1A
100
AcDbEntity
  8
ZUWAKU
100
AcDbLine
 10
504.799179511697
 20
29.99999986828868
 30
0.0
 11
504.799179511697
 21
0.7999998682887508
 31
0.0
  0
TEXT
  5
7446
330
1A
100
AcDbEntity
  8
ZUWAKU
100
AcDbText
 10
506.6766245339067
 20
9.6553564066743
 30
0.0
 40
4.0
  1
縮尺
 41
0.9
  7
ｽﾀｲﾙ1
100
AcDbText
  0
TEXT
  5
7447
330
1A
100
AcDbEntity
  8
MOJI
100
AcDbText
 10
528.0409079858689
 20
3.204920925696104
 30
0.0
 40
5.599999999999999
  1
１/２
 41
0.9
  7
ｽﾀｲﾙ1
100
AcDbText
  0
TEXT
  5
7448
330
1A
100
AcDbEntity
  8
ZUWAKU
100
AcDbText
 10
449.3018090067569
 20
24.05535640667426
 30
0.0
 40
4.0
  1
品番
 41
0.9
  7
ｽﾀｲﾙ1
100
AcDbText
  0
TEXT
  5
7449
330
1A
100
AcDbEntity
  8
ZUWAKU
100
AcDbText
 10
506.6766245339065
 20
24.05535640667426
 30
0.0
 40
4.0
  1
用紙
 41
0.9
  7
ｽﾀｲﾙ1
100
AcDbText
  0
LINE
  5
744A
330
1A
100
AcDbEntity
  8
ZUWAKU
100
AcDbLine
 10
648.6172025237603
 20
29.99999986828868
 30
0.0
 11
648.6172025237606
 21
0.7999998682887508
 31
0.0
  0
LINE
  5
744B
330
1A
100
AcDbEntity
  8
ZUWAKU
100
AcDbLine
 10
648.8172025237604
 20
29.99999986828868
 30
0.0
 11
648.8172025237607
 21
0.7999998682887508
 31
0.0
  0
LINE
  5
744C
330
1A
100
AcDbEntity
  8
ZUWAKU
100
AcDbLine
 10
648.4172025237605
 20
29.99999986828868
 30
0.0
 11
648.4172025237605
 21
0.7999998682887508
 31
0.0
  0
LINE
  5
744D
330
1A
100
AcDbEntity
  8
ZUWAKU
100
AcDbLine
 10
552.7269557796683
 20
29.99999986828868
 30
0.0
 11
552.7269557796684
 21
0.7999998682887508
 31
0.0
  0
LINE
  5
744E
330
1A
100
AcDbEntity
  8
ZUWAKU
100
AcDbLine
 10
552.9269557796683
 20
29.99999986828868
 30
0.0
 11
552.9269557796685
 21
0.7999998682887508
 31
0.0
  0
LINE
  5
744F
330
1A
100
AcDbEntity
  8
ZUWAKU
100
AcDbLine
 10
552.5269557796685
 20
29.99999986828868
 30
0.0
 11
552.5269557796685
 21
0.7999998682887508
 31
0.0
  0
TEXT
  5
7450
330
1A
100
AcDbEntity
  8
ZUWAKU
100
AcDbText
 10
650.29464754597
 20
24.05535640667426
 30
0.0
 40
4.0
  1
DATE
 41
0.9
  7
ｽﾀｲﾙ1
100
AcDbText
  0
LINE
  5
7451
330
1A
100
AcDbEntity
  8
ZUWAKU
100
AcDbLine
 10
697.2490105620972
 20
29.99999986828868
 30
0.0
 11
697.2490105620972
 21
0.7999998682887508
 31
0.0
  0
LINE
  5
7452
330
1A
100
AcDbEntity
  8
ZUWAKU
100
AcDbLine
 10
697.4490105620973
 20
29.99999986828868
 30
0.0
 11
697.4490105620973
 21
0.7999998682887508
 31
0.0
  0
LINE
  5
7453
330
1A
100
AcDbEntity
  8
ZUWAKU
100
AcDbLine
 10
697.6490105620971
 20
29.99999986828868
 30
0.0
 11
697.6490105620974
 21
0.7999998682887508
 31
0.0
  0
LINE
  5
7454
330
1A
100
AcDbEntity
  8
ZUWAKU
100
AcDbLine
 10
697.8490105620972
 20
29.99999986828868
 30
0.0
 11
697.8490105620974
 21
0.7999998682887508
 31
0.0
  0
TEXT
  5
7455
330
1A
100
AcDbEntity
  8
ZUWAKU
100
AcDbText
 10
708.5280842057998
 20
17.55383920397548
 30
0.0
 40
6.0
  1
積水化学工業株式会社
 41
0.9
  7
ｽﾀｲﾙ1
100
AcDbText
  0
TEXT
  5
7456
330
1A
100
AcDbEntity
  8
ZUWAKU
100
AcDbText
 10
708.5280842057998
 20
6.648840182142748
 30
0.0
 40
6.0
  1
建材事業部
 41
0.9
  7
ｽﾀｲﾙ1
100
AcDbText
  0
VIEWPORT
  5
22
330
17
100
AcDbEntity
 67
     1
  8
0
100
AcDbViewport
 10
313.6808219178082
 20
148.5
 30
0.0
 40
627.3616438356165
 41
297.0
 68
     2
 69
     1
1001
ACAD
1000
MVIEW
1002
{
1070
    16
1010
0.0
1020
0.0
1030
0.0
1010
0.0
1020
0.0
1030
1.0
1040
0.0
1040
297.0
1040
313.6808219178082
1040
148.5
1040
50.0
1040
0.0
1040
0.0
1070
     0
1070
   100
1070
     1
1070
     0
1070
     0
1070
     0
1070
     0
1070
     0
1040
0.0
1040
0.0
1040
0.0
1040
1.0
1040
1.0
1040
10.0
1040
10.0
1070
     0
1002
{
1002
}
1002
}
  0
VIEWPORT
  5
64
330
17
100
AcDbEntity
 67
     1
  8
VIEWPORT
100
AcDbViewport
 10
210.0
 20
148.5
 30
0.0
 40
420.0
 41
297.0
 68
     1
 69
     2
1001
ACAD
1000
MVIEW
1002
{
1070
    16
1010
0.0
1020
0.0
1030
0.0
1010
0.0
1020
0.0
1030
1.0
1040
0.0
1040
605.8799999999997
1040
420.0
1040
297.0
1040
50.0
1040
0.0
1040
0.0
1070
     0
1070
   100
1070
     1
1070
     0
1070
     0
1070
     0
1070
     0
1070
     0
1040
0.0
1040
0.0
1040
0.0
1040
10.0
1040
10.0
1040
0.0
1040
0.0
1070
     0
1002
{
1002
}
1002
}
  0
ENDSEC
  0
SECTION
  2
OBJECTS
  0
DICTIONARY
  5
C
330
0
100
AcDbDictionary
  3
ACAD_GROUP
350
D
  3
ACAD_LAYOUT
350
8CD
  3
ACAD_MLINESTYLE
350
E
  3
ACAD_PLOTSETTINGS
350
8CE
  3
ACAD_PLOTSTYLENAME
350
8CB
  3
ACDBHEADERROUNDTRIPXREC
350
746B
  0
DICTIONARY
  5
9DE
330
1A
100
AcDbDictionary
280
     1
  3
ACAD_LAYOUTSELFREF
360
748D
  0
DICTIONARY
  5
9DC
330
17
100
AcDbDictionary
280
     1
  3
ACAD_LAYOUTSELFREF
360
748C
  0
DICTIONARY
  5
D
102
{ACAD_REACTORS
330
C
102
}
330
C
100
AcDbDictionary
  3
*A1
350
2642
  3
*A2
350
4DE4
  3
*A3
350
4F66
  3
*A4
350
4FB3
  3
*A5
350
6B85
  0
DICTIONARY
  5
8CD
102
{ACAD_REACTORS
330
C
102
}
330
C
100
AcDbDictionary
  0
DICTIONARY
  5
E
102
{ACAD_REACTORS
330
C
102
}
330
C
100
AcDbDictionary
  3
STANDARD
350
13
  0
DICTIONARY
  5
8CE
102
{ACAD_REACTORS
330
C
102
}
330
C
100
AcDbDictionary
  0
ACDBDICTIONARYWDFLT
  5
8CB
102
{ACAD_REACTORS
330
C
102
}
330
C
100
AcDbDictionary
281
     1
  3
Normal
350
8CC
100
AcDbDictionaryWithDefault
340
8CC
1001
ACAD
1000
TREAT_AS_HARD
1070
     0
1000
TREAT_AS_HARD
1070
     0
1000
TREAT_AS_HARD
1070
     0
1000
TREAT_AS_HARD
1070
     0
1000
TREAT_AS_HARD
1070
     0
1000
TREAT_AS_HARD
1070
     0
1000
TREAT_AS_HARD
1070
     0
  0
DICTIONARY
  5
746B
102
{ACAD_REACTORS
330
C
102
}
330
C
100
AcDbDictionary
  3
TSTACKALIGN
350
746C
  3
TSTACKSIZE
350
746D
  3
HYPERLINKBASE
350
746E
  3
STYLESHEET
350
746F
  3
LAYOUTDICT
350
7470
  3
PLOTSETDICT
350
7471
  3
PLOTSTYLNAMDICT
350
7472
  3
LWETCUNION
350
7473
  3
INSUNITS
350
7474
  3
CEPSNTYPE
350
7475
  3
FINGERPRINTGUID
350
7476
  3
VERSIONGUID
350
7477
  3
PSVPSCALE
350
7478
  3
DIMSTYLEDATA
350
7479
  3
PUCSORTHOREF
350
747A
  3
PUCSORTHOVIEW
350
747B
  3
PUCSBASE
350
747C
  3
PUCSORGTOP
350
747D
  3
PUCSORGBOTTOM
350
747E
  3
PUCSORGLEFT
350
747F
  3
PUCSORGRIGHT
350
7480
  3
PUCSORGFRONT
350
7481
  3
PUCSORGBACK
350
7482
  3
UCSORTHOREF
350
7483
  3
UCSORTHOVIEW
350
7484
  3
UCSBASE
350
7485
  3
UCSORGTOP
350
7486
  3
UCSORGBOTTOM
350
7487
  3
UCSORGLEFT
350
7488
  3
UCSORGRIGHT
350
7489
  3
UCSORGFRONT
350
748A
  3
UCSORGBACK
350
748B
  0
XRECORD
  5
748D
102
{ACAD_REACTORS
330
9DE
102
}
330
9DE
100
AcDbXrecord
340
1A
  0
XRECORD
  5
748C
102
{ACAD_REACTORS
330
9DC
102
}
330
9DC
100
AcDbXrecord
340
17
  0
GROUP
  5
2642
102
{ACAD_REACTORS
330
D
102
}
330
D
100
AcDbGroup
300

 70
     1
 71
     1
  0
GROUP
  5
4DE4
102
{ACAD_REACTORS
330
D
102
}
330
D
100
AcDbGroup
300

 70
     1
 71
     1
  0
GROUP
  5
4F66
102
{ACAD_REACTORS
330
D
102
}
330
D
100
AcDbGroup
300

 70
     1
 71
     1
  0
GROUP
  5
4FB3
102
{ACAD_REACTORS
330
D
102
}
330
D
100
AcDbGroup
300

 70
     1
 71
     1
  0
GROUP
  5
6B85
102
{ACAD_REACTORS
330
D
102
}
330
D
100
AcDbGroup
300

 70
     1
 71
     1
340
6B3A
340
6B3B
340
6B3C
340
6B3D
340
6B3E
340
6B3F
340
6B40
340
6B41
340
6B42
340
6B43
340
6B44
340
6B45
340
6B46
340
6B47
340
6B48
340
6B49
340
6B4A
340
6B4B
340
6B4C
340
6B4D
340
6B4E
340
6B4F
340
6B50
340
6B39
340
6B51
340
6B52
340
6B53
340
6B54
340
6B55
340
6B56
340
6B57
340
6B58
340
6B59
340
6B5A
340
6B5B
340
6B5C
340
6B5D
340
6B5E
340
6B5F
340
6B60
340
6B61
340
6B62
340
6B63
340
6B64
340
6B65
340
6B66
340
6B67
340
6B68
340
6B69
340
6B6A
340
6B6B
340
6B6C
340
6B6D
340
6B6E
340
6B6F
340
6B70
340
6B71
340
6B72
340
6B73
340
6B74
340
6B75
340
6B76
340
6B77
340
6B78
340
6B79
340
6B7A
340
6B7B
340
6B7C
340
6B7D
340
6B7E
340
6B7F
340
6B80
340
6B81
340
6B82
340
6B83
340
6B84
  0
MLINESTYLE
  5
13
102
{ACAD_REACTORS
330
E
102
}
330
E
100
AcDbMlineStyle
  2
STANDARD
 70
     0
  3

 62
     0
 51
90.0
 52
90.0
 71
     2
 49
0.5
 62
   256
  6
BYLAYER
 49
-0.5
 62
   256
  6
BYLAYER
  0
ACDBPLACEHOLDER
  5
8CC
102
{ACAD_REACTORS
330
8CB
102
}
330
8CB
100
AcDbPlaceHolder
280
     0
  0
XRECORD
  5
746C
102
{ACAD_REACTORS
330
746B
102
}
330
746B
100
AcDbXrecord
 90
        1
  0
XRECORD
  5
746D
102
{ACAD_REACTORS
330
746B
102
}
330
746B
100
AcDbXrecord
 90
       70
  0
XRECORD
  5
746E
102
{ACAD_REACTORS
330
746B
102
}
330
746B
100
AcDbXrecord
  1

  0
XRECORD
  5
746F
102
{ACAD_REACTORS
330
746B
102
}
330
746B
100
AcDbXrecord
  1
systemprinter.ctb
  0
XRECORD
  5
7470
102
{ACAD_REACTORS
330
746B
102
}
330
746B
100
AcDbXrecord
340
8CD
  0
XRECORD
  5
7471
102
{ACAD_REACTORS
330
746B
102
}
330
746B
100
AcDbXrecord
340
8CE
  0
XRECORD
  5
7472
102
{ACAD_REACTORS
330
746B
102
}
330
746B
100
AcDbXrecord
340
8CB
  0
XRECORD
  5
7473
102
{ACAD_REACTORS
330
746B
102
}
330
746B
100
AcDbXrecord
 90
    10781
  0
XRECORD
  5
7474
102
{ACAD_REACTORS
330
746B
102
}
330
746B
100
AcDbXrecord
 90
        0
  0
XRECORD
  5
7475
102
{ACAD_REACTORS
330
746B
102
}
330
746B
100
AcDbXrecord
 90
        0
  0
XRECORD
  5
7476
102
{ACAD_REACTORS
330
746B
102
}
330
746B
100
AcDbXrecord
  1
{B4B71FC0-A839-11D5-932D-0050DA99388B}
  0
XRECORD
  5
7477
102
{ACAD_REACTORS
330
746B
102
}
330
746B
100
AcDbXrecord
  1
{F1569E4A-0141-48F1-8457-5E9DA420CA73}
  0
XRECORD
  5
7478
102
{ACAD_REACTORS
330
746B
102
}
330
746B
100
AcDbXrecord
 40
0.0
  0
XRECORD
  5
7479
102
{ACAD_REACTORS
330
746B
102
}
330
746B
100
AcDbXrecord
1000
DSTYLE
1002
{
1070
   341
340
6D
1070
   343
340
6D
1070
   344
340
6D
1070
   371
 70
    -1
1070
   372
 70
    -1
1002
}
  0
XRECORD
  5
747A
102
{ACAD_REACTORS
330
746B
102
}
330
746B
100
AcDbXrecord
340
0
  0
XRECORD
  5
747B
102
{ACAD_REACTORS
330
746B
102
}
330
746B
100
AcDbXrecord
 70
     0
  0
XRECORD
  5
747C
102
{ACAD_REACTORS
330
746B
102
}
330
746B
100
AcDbXrecord
340
0
  0
XRECORD
  5
747D
102
{ACAD_REACTORS
330
746B
102
}
330
746B
100
AcDbXrecord
 10
0.0
 20
0.0
 30
0.0
  0
XRECORD
  5
747E
102
{ACAD_REACTORS
330
746B
102
}
330
746B
100
AcDbXrecord
 10
0.0
 20
0.0
 30
0.0
  0
XRECORD
  5
747F
102
{ACAD_REACTORS
330
746B
102
}
330
746B
100
AcDbXrecord
 10
0.0
 20
0.0
 30
0.0
  0
XRECORD
  5
7480
102
{ACAD_REACTORS
330
746B
102
}
330
746B
100
AcDbXrecord
 10
0.0
 20
0.0
 30
0.0
  0
XRECORD
  5
7481
102
{ACAD_REACTORS
330
746B
102
}
330
746B
100
AcDbXrecord
 10
0.0
 20
0.0
 30
0.0
  0
XRECORD
  5
7482
102
{ACAD_REACTORS
330
746B
102
}
330
746B
100
AcDbXrecord
 10
0.0
 20
0.0
 30
0.0
  0
XRECORD
  5
7483
102
{ACAD_REACTORS
330
746B
102
}
330
746B
100
AcDbXrecord
340
0
  0
XRECORD
  5
7484
102
{ACAD_REACTORS
330
746B
102
}
330
746B
100
AcDbXrecord
 70
     0
  0
XRECORD
  5
7485
102
{ACAD_REACTORS
330
746B
102
}
330
746B
100
AcDbXrecord
340
0
  0
XRECORD
  5
7486
102
{ACAD_REACTORS
330
746B
102
}
330
746B
100
AcDbXrecord
 10
0.0
 20
0.0
 30
0.0
  0
XRECORD
  5
7487
102
{ACAD_REACTORS
330
746B
102
}
330
746B
100
AcDbXrecord
 10
0.0
 20
0.0
 30
0.0
  0
XRECORD
  5
7488
102
{ACAD_REACTORS
330
746B
102
}
330
746B
100
AcDbXrecord
 10
0.0
 20
0.0
 30
0.0
  0
XRECORD
  5
7489
102
{ACAD_REACTORS
330
746B
102
}
330
746B
100
AcDbXrecord
 10
0.0
 20
0.0
 30
0.0
  0
XRECORD
  5
748A
102
{ACAD_REACTORS
330
746B
102
}
330
746B
100
AcDbXrecord
 10
0.0
 20
0.0
 30
0.0
  0
XRECORD
  5
748B
102
{ACAD_REACTORS
330
746B
102
}
330
746B
100
AcDbXrecord
 10
0.0
 20
0.0
 30
0.0
  0
ENDSEC
  0
EOF
