  0
SECTION
  2
HEADER
  9
$ACADVER
  1
AC1012
  9
$DWGCODEPAGE
  3
dos932
  9
$INSBASE
 10
0.0
 20
0.0
 30
0.0
  9
$EXTMIN
 10
-0.0068920051558052
 20
-0.0045294683425254
 30
-0.0000000100018307
  9
$EXTMAX
 10
398.8307767834479
 20
275.821324741219
 30
0.0000000100018311
  9
$LIMMIN
 10
0.0
 20
0.0
  9
$LIMMAX
 10
420.0
 20
297.0
  9
$ORTHOMODE
 70
     1
  9
$REGENMODE
 70
     1
  9
$FILLMODE
 70
     1
  9
$QTEXTMODE
 70
     0
  9
$MIRRTEXT
 70
     1
  9
$DRAGMODE
 70
     2
  9
$LTSCALE
 40
1.0
  9
$OSMODE
 70
    63
  9
$ATTMODE
 70
     1
  9
$TEXTSIZE
 40
2.5
  9
$TRACEWID
 40
1.0
  9
$TEXTSTYLE
  7
MSPｺ_ｼｯｸ
  9
$CLAYER
  8
0
  9
$CELTYPE
  6
BYLAYER
  9
$CECOLOR
 62
   256
  9
$CELTSCALE
 40
1.0
  9
$DELOBJ
 70
     1
  9
$DISPSILH
 70
     0
  9
$DIMSCALE
 40
1.0
  9
$DIMASZ
 40
3.0
  9
$DIMEXO
 40
1.5
  9
$DIMDLI
 40
77.0
  9
$DIMRND
 40
0.0
  9
$DIMDLE
 40
0.0
  9
$DIMEXE
 40
1.5
  9
$DIMTP
 40
0.0
  9
$DIMTM
 40
0.0
  9
$DIMTXT
 40
3.0
  9
$DIMCEN
 40
0.0
  9
$DIMTSZ
 40
0.0
  9
$DIMTOL
 70
     0
  9
$DIMLIM
 70
     0
  9
$DIMTIH
 70
     0
  9
$DIMTOH
 70
     0
  9
$DIMSE1
 70
     0
  9
$DIMSE2
 70
     0
  9
$DIMTAD
 70
     3
  9
$DIMZIN
 70
     0
  9
$DIMBLK
  1
OPEN
  9
$DIMASO
 70
     1
  9
$DIMSHO
 70
     1
  9
$DIMPOST
  1

  9
$DIMAPOST
  1

  9
$DIMALT
 70
     0
  9
$DIMALTD
 70
     2
  9
$DIMALTF
 40
25.4
  9
$DIMLFAC
 40
1.0
  9
$DIMTOFL
 70
     0
  9
$DIMTVP
 40
0.0
  9
$DIMTIX
 70
     0
  9
$DIMSOXD
 70
     0
  9
$DIMSAH
 70
     0
  9
$DIMBLK1
  1

  9
$DIMBLK2
  1

  9
$DIMSTYLE
  2
STANDARD
  9
$DIMCLRD
 70
   256
  9
$DIMCLRE
 70
   256
  9
$DIMCLRT
 70
   256
  9
$DIMTFAC
 40
1.0
  9
$DIMGAP
 40
1.5
  9
$DIMJUST
 70
     0
  9
$DIMSD1
 70
     0
  9
$DIMSD2
 70
     0
  9
$DIMTOLJ
 70
     1
  9
$DIMTZIN
 70
     0
  9
$DIMALTZ
 70
     0
  9
$DIMALTTZ
 70
     0
  9
$DIMFIT
 70
     3
  9
$DIMUPT
 70
     0
  9
$DIMUNIT
 70
     2
  9
$DIMDEC
 70
     0
  9
$DIMTDEC
 70
     0
  9
$DIMALTU
 70
     2
  9
$DIMALTTD
 70
     2
  9
$DIMTXSTY
  7
STANDARD
  9
$DIMAUNIT
 70
     0
  9
$LUNITS
 70
     2
  9
$LUPREC
 70
     4
  9
$SKETCHINC
 40
1.0
  9
$FILLETRAD
 40
1.0
  9
$AUNITS
 70
     0
  9
$AUPREC
 70
     0
  9
$MENU
  1
.
  9
$ELEVATION
 40
0.0
  9
$PELEVATION
 40
0.0
  9
$THICKNESS
 40
0.0
  9
$LIMCHECK
 70
     0
  9
$BLIPMODE
 70
     0
  9
$CHAMFERA
 40
0.0
  9
$CHAMFERB
 40
0.0
  9
$CHAMFERC
 40
40.0
  9
$CHAMFERD
 40
0.0
  9
$SKPOLY
 70
     0
  9
$TDCREATE
 40
2451212.627488426
  9
$TDUPDATE
 40
2455938.612529178
  9
$TDINDWG
 40
0.1483251505
  9
$TDUSRTIMER
 40
0.1483249769
  9
$USRTIMER
 70
     1
  9
$ANGBASE
 50
0.0
  9
$ANGDIR
 70
     0
  9
$PDMODE
 70
     0
  9
$PDSIZE
 40
0.0
  9
$PLINEWID
 40
0.0
  9
$COORDS
 70
     0
  9
$SPLFRAME
 70
     0
  9
$SPLINETYPE
 70
     6
  9
$SPLINESEGS
 70
     8
  9
$ATTDIA
 70
     0
  9
$ATTREQ
 70
     1
  9
$HANDLING
 70
 10241
  9
$HANDSEED
  5
39F4
  9
$SURFTAB1
 70
     6
  9
$SURFTAB2
 70
     6
  9
$SURFTYPE
 70
     6
  9
$SURFU
 70
     6
  9
$SURFV
 70
     6
  9
$UCSNAME
  2

  9
$UCSORG
 10
0.0
 20
0.0
 30
0.0
  9
$UCSXDIR
 10
1.0
 20
0.0
 30
0.0
  9
$UCSYDIR
 10
0.0
 20
1.0
 30
0.0
  9
$PUCSNAME
  2

  9
$PUCSORG
 10
0.0
 20
0.0
 30
0.0
  9
$PUCSXDIR
 10
1.0
 20
0.0
 30
0.0
  9
$PUCSYDIR
 10
0.0
 20
1.0
 30
0.0
  9
$USERI1
 70
     0
  9
$USERI2
 70
     0
  9
$USERI3
 70
     0
  9
$USERI4
 70
     0
  9
$USERI5
 70
     0
  9
$USERR1
 40
0.0
  9
$USERR2
 40
0.0
  9
$USERR3
 40
0.0
  9
$USERR4
 40
0.0
  9
$USERR5
 40
0.0
  9
$WORLDVIEW
 70
     1
  9
$SHADEDGE
 70
     3
  9
$SHADEDIF
 70
    70
  9
$TILEMODE
 70
     1
  9
$MAXACTVP
 70
    16
  9
$PINSBASE
 10
0.0
 20
0.0
 30
0.0
  9
$PLIMCHECK
 70
     0
  9
$PEXTMIN
 10
0.0
 20
0.0
 30
0.0
  9
$PEXTMAX
 10
420.0
 20
297.0
 30
0.0
  9
$PLIMMIN
 10
0.0
 20
0.0
  9
$PLIMMAX
 10
420.0
 20
297.0
  9
$UNITMODE
 70
     0
  9
$VISRETAIN
 70
     0
  9
$PLINEGEN
 70
     0
  9
$PSLTSCALE
 70
     0
  9
$TREEDEPTH
 70
  3020
  9
$PICKSTYLE
 70
     1
  9
$CMLSTYLE
  2
STANDARD
  9
$CMLJUST
 70
     0
  9
$CMLSCALE
 40
1.0
  9
$SAVEIMAGES
 70
     1
  0
ENDSEC
  0
SECTION
  2
CLASSES
  0
CLASS
  1
ACDBDICTIONARYWDFLT
  2
AcDbDictionaryWithDefault
  3
AutoCAD 2000
 90
    32768
280
     0
281
     0
  0
CLASS
  1
ACDBPLACEHOLDER
  2
AcDbPlaceHolder
  3
AutoCAD 2000
 90
    32768
280
     0
281
     0
  0
CLASS
  1
LAYOUT
  2
AcDbLayout
  3
AutoCAD 2000
 90
    32768
280
     0
281
     0
  0
CLASS
  1
LONG_TRANSACTION
  2
AcDbLongTransaction
  3
AutoCAD 2000
 90
    32768
280
     0
281
     0
  0
CLASS
  1
LWPOLYLINE
  2
AcDbPolyline
  3
AutoCAD 2000
 90
    32768
280
     0
281
     1
  0
CLASS
  1
HATCH
  2
AcDbHatch
  3
AutoCAD 2000
 90
    32768
280
     0
281
     1
  0
CLASS
  1
XRECORD
  2
AcDbXrecord
  3
AutoCAD 2000
 90
    32768
280
     0
281
     0
  0
CLASS
  1
LONG_TRANSACTION
  2
AcDbLongTransaction
  3
AutoCAD 2000
 90
    32768
280
     0
281
     0
  0
CLASS
  1
LWPOLYLINE
  2
AcDbPolyline
  3
AutoCAD 2000
 90
    32768
280
     0
281
     1
  0
CLASS
  1
HATCH
  2
AcDbHatch
  3
AutoCAD 2000
 90
    32768
280
     0
281
     1
  0
CLASS
  1
XRECORD
  2
AcDbXrecord
  3
AutoCAD 2000
 90
    32768
280
     0
281
     0
  0
CLASS
  1
LONG_TRANSACTION
  2
AcDbLongTransaction
  3
AutoCAD 2000
 90
    32768
280
     0
281
     0
  0
CLASS
  1
LWPOLYLINE
  2
AcDbPolyline
  3
AutoCAD 2000
 90
    32768
280
     0
281
     1
  0
CLASS
  1
HATCH
  2
AcDbHatch
  3
AutoCAD 2000
 90
    32768
280
     0
281
     1
  0
CLASS
  1
XRECORD
  2
AcDbXrecord
  3
AutoCAD 2000
 90
    32768
280
     0
281
     0
  0
CLASS
  1
LONG_TRANSACTION
  2
AcDbLongTransaction
  3
AutoCAD 2000
 90
    32768
280
     0
281
     0
  0
CLASS
  1
LWPOLYLINE
  2
AcDbPolyline
  3
AutoCAD 2000
 90
    32768
280
     0
281
     1
  0
CLASS
  1
HATCH
  2
AcDbHatch
  3
AutoCAD 2000
 90
    32768
280
     0
281
     1
  0
CLASS
  1
XRECORD
  2
AcDbXrecord
  3
AutoCAD 2000
 90
    32768
280
     0
281
     0
  0
CLASS
  1
LONG_TRANSACTION
  2
AcDbLongTransaction
  3
AutoCAD 2000
 90
    32768
280
     0
281
     0
  0
CLASS
  1
LWPOLYLINE
  2
AcDbPolyline
  3
AutoCAD 2000
 90
    32768
280
     0
281
     1
  0
CLASS
  1
HATCH
  2
AcDbHatch
  3
AutoCAD 2000
 90
    32768
280
     0
281
     1
  0
CLASS
  1
XRECORD
  2
AcDbXrecord
  3
AutoCAD 2000
 90
    32768
280
     0
281
     0
  0
CLASS
  1
LONG_TRANSACTION
  2
AcDbLongTransaction
  3
AutoCAD 2000
 90
    32768
280
     0
281
     0
  0
CLASS
  1
LWPOLYLINE
  2
AcDbPolyline
  3
AutoCAD 2000
 90
    32768
280
     0
281
     1
  0
CLASS
  1
HATCH
  2
AcDbHatch
  3
AutoCAD 2000
 90
    32768
280
     0
281
     1
  0
CLASS
  1
XRECORD
  2
AcDbXrecord
  3
AutoCAD 2000
 90
    32768
280
     0
281
     0
  0
CLASS
  1
LONG_TRANSACTION
  2
AcDbLongTransaction
  3
AutoCAD 2000
 90
    32768
280
     0
281
     0
  0
CLASS
  1
LWPOLYLINE
  2
AcDbPolyline
  3
AutoCAD 2000
 90
    32768
280
     0
281
     1
  0
CLASS
  1
HATCH
  2
AcDbHatch
  3
AutoCAD 2000
 90
    32768
280
     0
281
     1
  0
CLASS
  1
XRECORD
  2
AcDbXrecord
  3
AutoCAD 2000
 90
    32768
280
     0
281
     0
  0
CLASS
  1
LONG_TRANSACTION
  2
AcDbLongTransaction
  3
AutoCAD 2000
 90
    32768
280
     0
281
     0
  0
CLASS
  1
LWPOLYLINE
  2
AcDbPolyline
  3
AutoCAD 2000
 90
    32768
280
     0
281
     1
  0
CLASS
  1
HATCH
  2
AcDbHatch
  3
AutoCAD 2000
 90
    32768
280
     0
281
     1
  0
CLASS
  1
XRECORD
  2
AcDbXrecord
  3
AutoCAD 2000
 90
    32768
280
     0
281
     0
  0
CLASS
  1
LONG_TRANSACTION
  2
AcDbLongTransaction
  3
AutoCAD 2000
 90
    32768
280
     0
281
     0
  0
CLASS
  1
LWPOLYLINE
  2
AcDbPolyline
  3
AutoCAD 2000
 90
    32768
280
     0
281
     1
  0
CLASS
  1
HATCH
  2
AcDbHatch
  3
AutoCAD 2000
 90
    32768
280
     0
281
     1
  0
CLASS
  1
XRECORD
  2
AcDbXrecord
  3
AutoCAD 2000
 90
    32768
280
     0
281
     0
  0
CLASS
  1
DICTIONARYVAR
  2
AcDbDictionaryVar
  3
AutoCAD 2000
 90
    32768
280
     0
281
     0
  0
CLASS
  1
LONG_TRANSACTION
  2
AcDbLongTransaction
  3
AutoCAD 2000
 90
    32768
280
     0
281
     0
  0
CLASS
  1
LWPOLYLINE
  2
AcDbPolyline
  3
AutoCAD 2000
 90
    32768
280
     0
281
     1
  0
CLASS
  1
HATCH
  2
AcDbHatch
  3
AutoCAD 2000
 90
    32768
280
     0
281
     1
  0
CLASS
  1
XRECORD
  2
AcDbXrecord
  3
AutoCAD 2000
 90
    32768
280
     0
281
     0
  0
CLASS
  1
LONG_TRANSACTION
  2
AcDbLongTransaction
  3
AutoCAD 2000
 90
    32768
280
     0
281
     0
  0
CLASS
  1
LWPOLYLINE
  2
AcDbPolyline
  3
AutoCAD 2000
 90
    32768
280
     0
281
     1
  0
CLASS
  1
HATCH
  2
AcDbHatch
  3
AutoCAD 2000
 90
    32768
280
     0
281
     1
  0
CLASS
  1
XRECORD
  2
AcDbXrecord
  3
AutoCAD 2000
 90
    32768
280
     0
281
     0
  0
CLASS
  1
LONG_TRANSACTION
  2
AcDbLongTransaction
  3
AutoCAD 2000
 90
    32768
280
     0
281
     0
  0
CLASS
  1
LWPOLYLINE
  2
AcDbPolyline
  3
AutoCAD 2000
 90
    32768
280
     0
281
     1
  0
CLASS
  1
HATCH
  2
AcDbHatch
  3
AutoCAD 2000
 90
    32768
280
     0
281
     1
  0
CLASS
  1
XRECORD
  2
AcDbXrecord
  3
AutoCAD 2000
 90
    32768
280
     0
281
     0
  0
CLASS
  1
LONG_TRANSACTION
  2
AcDbLongTransaction
  3
AutoCAD 2000
 90
    32768
280
     0
281
     0
  0
CLASS
  1
LWPOLYLINE
  2
AcDbPolyline
  3
AutoCAD 2000
 90
    32768
280
     0
281
     1
  0
CLASS
  1
HATCH
  2
AcDbHatch
  3
AutoCAD 2000
 90
    32768
280
     0
281
     1
  0
CLASS
  1
XRECORD
  2
AcDbXrecord
  3
AutoCAD 2000
 90
    32768
280
     0
281
     0
  0
CLASS
  1
LONG_TRANSACTION
  2
AcDbLongTransaction
  3
AutoCAD 2000
 90
    32768
280
     0
281
     0
  0
CLASS
  1
LWPOLYLINE
  2
AcDbPolyline
  3
AutoCAD 2000
 90
    32768
280
     0
281
     1
  0
CLASS
  1
HATCH
  2
AcDbHatch
  3
AutoCAD 2000
 90
    32768
280
     0
281
     1
  0
CLASS
  1
XRECORD
  2
AcDbXrecord
  3
AutoCAD 2000
 90
    32768
280
     0
281
     0
  0
CLASS
  1
LONG_TRANSACTION
  2
AcDbLongTransaction
  3
AutoCAD 2000
 90
    32768
280
     0
281
     0
  0
CLASS
  1
LWPOLYLINE
  2
AcDbPolyline
  3
AutoCAD 2000
 90
    32768
280
     0
281
     1
  0
CLASS
  1
HATCH
  2
AcDbHatch
  3
AutoCAD 2000
 90
    32768
280
     0
281
     1
  0
CLASS
  1
XRECORD
  2
AcDbXrecord
  3
AutoCAD 2000
 90
    32768
280
     0
281
     0
  0
CLASS
  1
LONG_TRANSACTION
  2
AcDbLongTransaction
  3
AutoCAD 2000
 90
    32768
280
     0
281
     0
  0
CLASS
  1
LWPOLYLINE
  2
AcDbPolyline
  3
AutoCAD 2000
 90
    32768
280
     0
281
     1
  0
CLASS
  1
HATCH
  2
AcDbHatch
  3
AutoCAD 2000
 90
    32768
280
     0
281
     1
  0
CLASS
  1
XRECORD
  2
AcDbXrecord
  3
AutoCAD 2000
 90
    32768
280
     0
281
     0
  0
CLASS
  1
LONG_TRANSACTION
  2
AcDbLongTransaction
  3
AutoCAD 2000
 90
    32768
280
     0
281
     0
  0
CLASS
  1
LWPOLYLINE
  2
AcDbPolyline
  3
AutoCAD 2000
 90
    32768
280
     0
281
     1
  0
CLASS
  1
HATCH
  2
AcDbHatch
  3
AutoCAD 2000
 90
    32768
280
     0
281
     1
  0
CLASS
  1
XRECORD
  2
AcDbXrecord
  3
AutoCAD 2000
 90
    32768
280
     0
281
     0
  0
CLASS
  1
LONG_TRANSACTION
  2
AcDbLongTransaction
  3
AutoCAD 2000
 90
    32768
280
     0
281
     0
  0
CLASS
  1
LWPOLYLINE
  2
AcDbPolyline
  3
AutoCAD 2000
 90
    32768
280
     0
281
     1
  0
CLASS
  1
HATCH
  2
AcDbHatch
  3
AutoCAD 2000
 90
    32768
280
     0
281
     1
  0
CLASS
  1
XRECORD
  2
AcDbXrecord
  3
AutoCAD 2000
 90
    32768
280
     0
281
     0
  0
CLASS
  1
LONG_TRANSACTION
  2
AcDbLongTransaction
  3
AutoCAD 2000
 90
    32768
280
     0
281
     0
  0
CLASS
  1
LWPOLYLINE
  2
AcDbPolyline
  3
AutoCAD 2000
 90
    32768
280
     0
281
     1
  0
CLASS
  1
HATCH
  2
AcDbHatch
  3
AutoCAD 2000
 90
    32768
280
     0
281
     1
  0
CLASS
  1
XRECORD
  2
AcDbXrecord
  3
AutoCAD 2000
 90
    32768
280
     0
281
     0
  0
CLASS
  1
LONG_TRANSACTION
  2
AcDbLongTransaction
  3
AutoCAD 2000
 90
    32768
280
     0
281
     0
  0
CLASS
  1
LWPOLYLINE
  2
AcDbPolyline
  3
AutoCAD 2000
 90
    32768
280
     0
281
     1
  0
CLASS
  1
HATCH
  2
AcDbHatch
  3
AutoCAD 2000
 90
    32768
280
     0
281
     1
  0
CLASS
  1
XRECORD
  2
AcDbXrecord
  3
AutoCAD 2000
 90
    32768
280
     0
281
     0
  0
ENDSEC
  0
SECTION
  2
TABLES
  0
TABLE
  2
VPORT
  5
8
330
0
100
AcDbSymbolTable
 70
     3
  0
VPORT
  5
39D2
330
8
100
AcDbSymbolTableRecord
100
AcDbViewportTableRecord
  2
*ACTIVE
 70
     0
 10
0.0
 20
0.0
 11
1.0
 21
1.0
 12
209.9965539974221
 22
148.4977352658287
 13
0.0
 23
0.0
 14
5.0
 24
5.0
 15
0.0
 25
0.0
 16
0.0
 26
0.0
 36
1.0
 17
0.0
 27
0.0
 37
0.0
 40
299.4591123565106
 41
1.580689655172413
 42
50.0
 43
0.0
 44
0.0
 50
0.0
 51
0.0
 71
     0
 72
   100
 73
     1
 74
     0
 75
     0
 76
     0
 77
     0
 78
     0
  0
ENDTAB
  0
TABLE
  2
LTYPE
  5
5
330
0
100
AcDbSymbolTable
 70
     2
  0
LTYPE
  5
14
330
5
100
AcDbSymbolTableRecord
100
AcDbLinetypeTableRecord
  2
BYBLOCK
 70
     0
  3

 72
    65
 73
     0
 40
0.0
  0
LTYPE
  5
15
330
5
100
AcDbSymbolTableRecord
100
AcDbLinetypeTableRecord
  2
BYLAYER
 70
     0
  3

 72
    65
 73
     0
 40
0.0
  0
LTYPE
  5
16
330
5
100
AcDbSymbolTableRecord
100
AcDbLinetypeTableRecord
  2
CONTINUOUS
 70
     0
  3
Solid line
 72
    65
 73
     0
 40
0.0
  0
LTYPE
  5
135
330
5
100
AcDbSymbolTableRecord
100
AcDbLinetypeTableRecord
  2
CENTER
 70
     0
  3
Center ____ _ ____ _ ____ _ ____ _ ____ _ ____
 72
    65
 73
     4
 40
50.8
 49
31.75
 74
     0
 49
-6.349999999999999
 74
     0
 49
6.349999999999999
 74
     0
 49
-6.349999999999999
 74
     0
  0
ENDTAB
  0
TABLE
  2
LAYER
  5
2
330
0
100
AcDbSymbolTable
 70
     8
  0
LAYER
  5
F
330
2
100
AcDbSymbolTableRecord
100
AcDbLayerTableRecord
  2
0
 70
     0
 62
     7
  6
CONTINUOUS
  0
LAYER
  5
62
330
2
100
AcDbSymbolTableRecord
100
AcDbLayerTableRecord
  2
VIEWPORT
 70
     0
 62
     7
  6
CONTINUOUS
  0
LAYER
  5
65
330
2
100
AcDbSymbolTableRecord
100
AcDbLayerTableRecord
  2
ZUWAKU
 70
     0
 62
     7
  6
CONTINUOUS
  0
LAYER
  5
144
330
2
100
AcDbSymbolTableRecord
100
AcDbLayerTableRecord
  2
SEIHIN
 70
     0
 62
     3
  6
CONTINUOUS
  0
LAYER
  5
145
330
2
100
AcDbSymbolTableRecord
100
AcDbLayerTableRecord
  2
CENTER_L
 70
     0
 62
     1
  6
CENTER
  0
LAYER
  5
3C0
330
2
100
AcDbSymbolTableRecord
100
AcDbLayerTableRecord
  2
SUNPOU
 70
     0
 62
     4
  6
CONTINUOUS
  0
LAYER
  5
3C1
330
2
100
AcDbSymbolTableRecord
100
AcDbLayerTableRecord
  2
DEFPOINTS
 70
     0
 62
     7
  6
CONTINUOUS
  0
LAYER
  5
32E4
330
2
100
AcDbSymbolTableRecord
100
AcDbLayerTableRecord
  2
MOJI
 70
     0
 62
     2
  6
CONTINUOUS
  0
ENDTAB
  0
TABLE
  2
STYLE
  5
3
330
0
100
AcDbSymbolTable
 70
     2
  0
STYLE
  5
10
330
3
100
AcDbSymbolTableRecord
100
AcDbTextStyleTableRecord
  2
STANDARD
 70
     0
 40
0.0
 41
1.0
 50
0.0
 71
     0
 42
5.0
  3
TXT
  4
bigfont.shx
  0
STYLE
  5
32E5
330
3
100
AcDbSymbolTableRecord
100
AcDbTextStyleTableRecord
  2
MSPｺ_ｼｯｸ
 70
     0
 40
0.0
 41
1.0
 50
0.0
 71
     0
 42
2.5
  3
MS PGothic.ttf
  4

1001
ACAD
1000
MS PGothic
1071
    32818
  0
ENDTAB
  0
TABLE
  2
VIEW
  5
6
330
0
100
AcDbSymbolTable
 70
     0
  0
ENDTAB
  0
TABLE
  2
UCS
  5
7
330
0
100
AcDbSymbolTable
 70
     0
  0
ENDTAB
  0
TABLE
  2
APPID
  5
9
330
0
100
AcDbSymbolTable
 70
     1
  0
APPID
  5
11
330
9
100
AcDbSymbolTableRecord
100
AcDbRegAppTableRecord
  2
ACAD
 70
     0
  0
ENDTAB
  0
TABLE
  2
DIMSTYLE
  5
A
330
0
100
AcDbSymbolTable
 70
     1
  0
DIMSTYLE
105
1D
102
{ACAD_REACTORS
330
3746
330
373D
330
377A
330
38F4
102
}
330
A
100
AcDbSymbolTableRecord
100
AcDbDimStyleTableRecord
  2
STANDARD
 70
     0
  3

  4

  5
OPEN
  6

  7

 40
1.0
 41
3.0
 42
1.5
 43
77.0
 44
1.5
 45
0.0
 46
0.0
 47
0.0
 48
0.0
140
3.0
141
0.0
142
0.0
143
25.4
144
1.0
145
0.0
146
1.0
147
1.5
 71
     0
 72
     0
 73
     0
 74
     0
 75
     0
 76
     0
 77
     3
 78
     0
170
     0
171
     2
172
     0
173
     0
174
     0
175
     0
176
   256
177
   256
178
   256
270
     2
271
     0
272
     0
273
     2
274
     2
340
10
275
     0
280
     0
281
     0
282
     0
283
     1
284
     0
285
     0
286
     0
287
     3
288
     0
  0
ENDTAB
  0
TABLE
  2
BLOCK_RECORD
  5
1
330
0
100
AcDbSymbolTable
 70
     6
  0
BLOCK_RECORD
  5
1A
102
{ACAD_XDICTIONARY
360
AD2
102
}
330
1
100
AcDbSymbolTableRecord
100
AcDbBlockTableRecord
  2
*MODEL_SPACE
  0
BLOCK_RECORD
  5
17
102
{ACAD_XDICTIONARY
360
AD0
102
}
330
1
100
AcDbSymbolTableRecord
100
AcDbBlockTableRecord
  2
*PAPER_SPACE
  0
BLOCK_RECORD
  5
6D
330
1
100
AcDbSymbolTableRecord
100
AcDbBlockTableRecord
  2
_OPEN
  0
BLOCK_RECORD
  5
34C3
330
1
100
AcDbSymbolTableRecord
100
AcDbBlockTableRecord
  2
*X1
  0
BLOCK_RECORD
  5
3794
330
1
100
AcDbSymbolTableRecord
100
AcDbBlockTableRecord
  2
*D2
  0
BLOCK_RECORD
  5
37A0
330
1
100
AcDbSymbolTableRecord
100
AcDbBlockTableRecord
  2
*D3
  0
BLOCK_RECORD
  5
37A8
330
1
100
AcDbSymbolTableRecord
100
AcDbBlockTableRecord
  2
*D4
  0
BLOCK_RECORD
  5
38F5
330
1
100
AcDbSymbolTableRecord
100
AcDbBlockTableRecord
  2
*D5
  0
ENDTAB
  0
ENDSEC
  0
SECTION
  2
BLOCKS
  0
BLOCK
  5
1B
330
1A
100
AcDbEntity
  8
0
100
AcDbBlockBegin
  2
*MODEL_SPACE
 70
     0
 10
0.0
 20
0.0
 30
0.0
  3
*MODEL_SPACE
  1

  0
ENDBLK
  5
1C
330
1A
100
AcDbEntity
  8
0
100
AcDbBlockEnd
  0
BLOCK
  5
18
330
17
100
AcDbEntity
 67
     1
  8
0
100
AcDbBlockBegin
  2
*PAPER_SPACE
 70
     0
 10
0.0
 20
0.0
 30
0.0
  3
*PAPER_SPACE
  1

  0
ENDBLK
  5
19
330
17
100
AcDbEntity
 67
     1
  8
0
100
AcDbBlockEnd
  0
BLOCK
  5
6E
330
6D
100
AcDbEntity
  8
0
100
AcDbBlockBegin
  2
_OPEN
 70
     0
 10
0.0
 20
0.0
 30
0.0
  3
_OPEN
  1

  0
LINE
  5
6F
330
6D
100
AcDbEntity
  8
0
  6
BYBLOCK
 62
     0
100
AcDbLine
 10
-1.0
 20
0.1666666666666666
 30
0.0
 11
0.0
 21
0.0
 31
0.0
  0
LINE
  5
70
330
6D
100
AcDbEntity
  8
0
  6
BYBLOCK
 62
     0
100
AcDbLine
 10
0.0
 20
0.0
 30
0.0
 11
-1.0
 21
-0.1666666666666666
 31
0.0
  0
LINE
  5
71
330
6D
100
AcDbEntity
  8
0
  6
BYBLOCK
 62
     0
100
AcDbLine
 10
0.0
 20
0.0
 30
0.0
 11
-1.0
 21
0.0
 31
0.0
  0
ENDBLK
  5
72
330
6D
100
AcDbEntity
  8
0
100
AcDbBlockEnd
  0
BLOCK
  5
3657
330
34C3
100
AcDbEntity
  8
0
100
AcDbBlockBegin
  2
*X1
 70
     1
 10
0.0
 20
0.0
 30
0.0
  3
*X1
  1

  0
LINE
  5
34C4
330
34C3
100
AcDbEntity
  8
0
 62
     0
100
AcDbLine
 10
34.52110654650431
 20
11.30208429940015
 30
0.0
 11
34.19819108164685
 21
11.62499976425763
 31
0.0
  0
LINE
  5
34C5
330
34C3
100
AcDbEntity
  8
0
 62
     0
100
AcDbLine
 10
34.52110654650431
 20
10.8530714933467
 30
0.0
 11
33.74917827559338
 21
11.62499976425763
 31
0.0
  0
LINE
  5
34C6
330
34C3
100
AcDbEntity
  8
0
 62
     0
100
AcDbLine
 10
34.52110654650428
 20
10.40405868729322
 30
0.0
 11
33.31053957349681
 21
11.6146256603007
 31
0.0
  0
LINE
  5
34C7
330
34C3
100
AcDbEntity
  8
0
 62
     0
100
AcDbLine
 10
34.52110654650431
 20
9.955045881239811
 30
0.0
 11
33.12110654650428
 21
11.35504588123981
 31
0.0
  0
LINE
  5
34C8
330
34C3
100
AcDbEntity
  8
0
 62
     0
100
AcDbLine
 10
34.52110654650431
 20
9.506033075186337
 30
0.0
 11
33.12110654650428
 21
10.90603307518637
 31
0.0
  0
LINE
  5
34C9
330
34C3
100
AcDbEntity
  8
0
 62
     0
100
AcDbLine
 10
34.52110654650428
 20
9.057020269132863
 30
0.0
 11
33.12110654650425
 21
10.45702026913289
 31
0.0
  0
LINE
  5
34CA
330
34C3
100
AcDbEntity
  8
0
 62
     0
100
AcDbLine
 10
32.07110654650426
 20
11.05800746307946
 30
0.0
 11
31.50411424532609
 21
11.62499976425766
 31
0.0
  0
LINE
  5
34CB
330
34C3
100
AcDbEntity
  8
0
 62
     0
100
AcDbLine
 10
34.52110654650431
 20
8.608007463079445
 30
0.0
 11
33.12110654650428
 21
10.00800746307948
 31
0.0
  0
LINE
  5
34CC
330
34C3
100
AcDbEntity
  8
0
 62
     0
100
AcDbLine
 10
32.07110654650426
 20
10.60899465702601
 30
0.0
 11
31.05510143927264
 21
11.6249997642576
 31
0.0
  0
LINE
  5
34CD
330
34C3
100
AcDbEntity
  8
0
 62
     0
100
AcDbLine
 10
34.52110654650428
 20
8.158994657025971
 30
0.0
 11
33.12110654650428
 21
9.558994657026005
 31
0.0
  0
LINE
  5
34CE
330
34C3
100
AcDbEntity
  8
0
 62
     0
100
AcDbLine
 10
32.07110654650426
 20
10.15998185097254
 30
0.0
 11
30.71835106393573
 21
11.51273733354108
 31
0.0
  0
LINE
  5
34CF
330
34C3
100
AcDbEntity
  8
0
 62
     0
100
AcDbLine
 10
34.52110654650428
 20
7.709981850972525
 30
0.0
 11
33.12110654650425
 21
9.10998185097253
 31
0.0
  0
LINE
  5
34D0
330
34C3
100
AcDbEntity
  8
0
 62
     0
100
AcDbLine
 10
32.07110654650432
 20
9.710969044919039
 30
0.0
 11
30.67110654650429
 21
11.11096904491907
 31
0.0
  0
LINE
  5
34D1
330
34C3
100
AcDbEntity
  8
0
 62
     0
100
AcDbLine
 10
34.52110654650431
 20
7.26096904491905
 30
0.0
 11
33.12110654650428
 21
8.660969044919085
 31
0.0
  0
LINE
  5
34D2
330
34C3
100
AcDbEntity
  8
0
 62
     0
100
AcDbLine
 10
32.07110654650429
 20
9.261956238865593
 30
0.0
 11
30.67110654650426
 21
10.66195623886562
 31
0.0
  0
LINE
  5
34D3
330
34C3
100
AcDbEntity
  8
0
 62
     0
100
AcDbLine
 10
34.52110654650428
 20
6.811956238865604
 30
0.0
 11
33.1211065465043
 21
8.21195623886561
 31
0.0
  0
LINE
  5
34D4
330
34C3
100
AcDbEntity
  8
0
 62
     0
100
AcDbLine
 10
32.07110654650429
 20
8.812943432812147
 30
0.0
 11
30.67110654650429
 21
10.21294343281212
 31
0.0
  0
LINE
  5
34D5
330
34C3
100
AcDbEntity
  8
0
 62
     0
100
AcDbLine
 10
34.52110654650428
 20
6.362943432812159
 30
0.0
 11
33.12110654650428
 21
7.762943432812136
 31
0.0
  0
LINE
  5
34D6
330
34C3
100
AcDbEntity
  8
0
 62
     0
100
AcDbLine
 10
32.07110654650426
 20
8.363930626758673
 30
0.0
 11
30.67110654650429
 21
9.763930626758678
 31
0.0
  0
LINE
  5
34D7
330
34C3
100
AcDbEntity
  8
0
 62
     0
100
AcDbLine
 10
34.52110654650425
 20
5.913930626758684
 30
0.0
 11
33.12110654650428
 21
7.31393062675869
 31
0.0
  0
LINE
  5
34D8
330
34C3
100
AcDbEntity
  8
0
 62
     0
100
AcDbLine
 10
32.07110654650429
 20
7.914917820705255
 30
0.0
 11
30.67110654650432
 21
9.314917820705232
 31
0.0
  0
LINE
  5
34D9
330
34C3
100
AcDbEntity
  8
0
 62
     0
100
AcDbLine
 10
28.92110654650426
 20
11.06491782070529
 30
0.0
 11
28.36102460295188
 21
11.62499976425763
 31
0.0
  0
LINE
  5
34DA
330
34C3
100
AcDbEntity
  8
0
 62
     0
100
AcDbLine
 10
34.52110654650428
 20
5.464917820705267
 30
0.0
 11
33.1211065465043
 21
6.864917820705244
 31
0.0
  0
LINE
  5
34DB
330
34C3
100
AcDbEntity
  8
0
 62
     0
100
AcDbLine
 10
32.07110654650429
 20
7.465905014651781
 30
0.0
 11
30.67110654650429
 21
8.865905014651758
 31
0.0
  0
LINE
  5
34DC
330
34C3
100
AcDbEntity
  8
0
 62
     0
100
AcDbLine
 10
28.92110654650429
 20
10.61590501465178
 30
0.0
 11
27.91201179689844
 21
11.62499976425763
 31
0.0
  0
LINE
  5
34DD
330
34C3
100
AcDbEntity
  8
0
 62
     0
100
AcDbLine
 10
34.52110654650428
 20
5.015905014651792
 30
0.0
 11
33.12110654650428
 21
6.415905014651769
 31
0.0
  0
LINE
  5
34DE
330
34C3
100
AcDbEntity
  8
0
 62
     0
100
AcDbLine
 10
32.07110654650426
 20
7.016892208598335
 30
0.0
 11
30.67110654650429
 21
8.416892208598312
 31
0.0
  0
LINE
  5
34DF
330
34C3
100
AcDbEntity
  8
0
 62
     0
100
AcDbLine
 10
28.92110654650426
 20
10.16689220859831
 30
0.0
 11
27.57122518484223
 21
11.51677357026037
 31
0.0
  0
LINE
  5
34E0
330
34C3
100
AcDbEntity
  8
0
 62
     0
100
AcDbLine
 10
34.52110654650425
 20
4.566892208598346
 30
0.0
 11
33.12110654650428
 21
5.966892208598324
 31
0.0
  0
LINE
  5
34E1
330
34C3
100
AcDbEntity
  8
0
 62
     0
100
AcDbLine
 10
32.07110654650429
 20
6.567879402544861
 30
0.0
 11
30.67110654650429
 21
7.967879402544838
 31
0.0
  0
LINE
  5
34E2
330
34C3
100
AcDbEntity
  8
0
 62
     0
100
AcDbLine
 10
28.92110654650429
 20
9.717879402544866
 30
0.0
 11
27.52110654650425
 21
11.1178794025449
 31
0.0
  0
LINE
  5
34E3
330
34C3
100
AcDbEntity
  8
0
 62
     0
100
AcDbLine
 10
34.52110654650428
 20
4.117879402544872
 30
0.0
 11
33.12110654650428
 21
5.517879402544849
 31
0.0
  0
LINE
  5
34E4
330
34C3
100
AcDbEntity
  8
0
 62
     0
100
AcDbLine
 10
32.07110654650426
 20
6.118866596491415
 30
0.0
 11
30.67110654650429
 21
7.51886659649142
 31
0.0
  0
LINE
  5
34E5
330
34C3
100
AcDbEntity
  8
0
 62
     0
100
AcDbLine
 10
28.92110654650429
 20
9.26886659649142
 30
0.0
 11
27.52110654650428
 21
10.66886659649142
 31
0.0
  0
LINE
  5
34E6
330
34C3
100
AcDbEntity
  8
0
 62
     0
100
AcDbLine
 10
34.48512386905937
 20
3.704849273936332
 30
0.0
 11
33.12110654650428
 21
5.068866596491432
 31
0.0
  0
LINE
  5
34E7
330
34C3
100
AcDbEntity
  8
0
 62
     0
100
AcDbLine
 10
32.07110654650429
 20
5.669853790437912
 30
0.0
 11
30.67110654650429
 21
7.069853790437946
 31
0.0
  0
LINE
  5
34E8
330
34C3
100
AcDbEntity
  8
0
 62
     0
100
AcDbLine
 10
28.92110654650426
 20
8.819853790437974
 30
0.0
 11
27.52110654650428
 21
10.21985379043795
 31
0.0
  0
LINE
  5
34E9
330
34C3
100
AcDbEntity
  8
0
 62
     0
100
AcDbLine
 10
34.16596057268463
 20
3.574999764257597
 30
0.0
 11
33.1211065465043
 21
4.619853790437929
 31
0.0
  0
LINE
  5
34EA
330
34C3
100
AcDbEntity
  8
0
 62
     0
100
AcDbLine
 10
28.92110654650426
 20
8.3708409843845
 30
0.0
 11
27.52110654650425
 21
9.770840984384477
 31
0.0
  0
LINE
  5
34EB
330
34C3
100
AcDbEntity
  8
0
 62
     0
100
AcDbLine
 10
32.07110654650429
 20
5.220840984384466
 30
0.0
 11
30.67110654650426
 21
6.620840984384471
 31
0.0
  0
LINE
  5
34EC
330
34C3
100
AcDbEntity
  8
0
 62
     0
100
AcDbLine
 10
26.20860654650428
 20
11.08334098438447
 30
0.0
 11
25.66694776663109
 21
11.62499976425763
 31
0.0
  0
LINE
  5
34ED
330
34C3
100
AcDbEntity
  8
0
 62
     0
100
AcDbLine
 10
33.71694776663116
 20
3.574999764257597
 30
0.0
 11
33.1211065465043
 21
4.170840984384454
 31
0.0
  0
LINE
  5
34EE
330
34C3
100
AcDbEntity
  8
0
 62
     0
100
AcDbLine
 10
28.92110654650426
 20
7.921828178331054
 30
0.0
 11
27.52110654650428
 21
9.32182817833106
 31
0.0
  0
LINE
  5
34EF
330
34C3
100
AcDbEntity
  8
0
 62
     0
100
AcDbLine
 10
26.20860654650431
 20
10.63432817833103
 30
0.0
 11
25.21793496057767
 21
11.62499976425766
 31
0.0
  0
LINE
  5
34F0
330
34C3
100
AcDbEntity
  8
0
 62
     0
100
AcDbLine
 10
32.0581273961815
 20
4.78480732865384
 30
0.0
 11
30.67110654650429
 21
6.171828178331054
 31
0.0
  0
LINE
  5
34F1
330
34C3
100
AcDbEntity
  8
0
 62
     0
100
AcDbLine
 10
28.92110654650429
 20
7.472815372277551
 30
0.0
 11
27.52110654650428
 21
8.872815372277585
 31
0.0
  0
LINE
  5
34F2
330
34C3
100
AcDbEntity
  8
0
 62
     0
100
AcDbLine
 10
26.11081627344734
 20
10.28310564533452
 30
0.0
 11
24.76892215452426
 21
11.6249997642576
 31
0.0
  0
LINE
  5
34F3
330
34C3
100
AcDbEntity
  8
0
 62
     0
100
AcDbLine
 10
31.96163474855288
 20
4.43228717022896
 30
0.0
 11
30.67110654650426
 21
5.72281537227758
 31
0.0
  0
LINE
  5
34F4
330
34C3
100
AcDbEntity
  8
0
 62
     0
100
AcDbLine
 10
28.92110654650429
 20
7.023802566224105
 30
0.0
 11
27.52110654650425
 21
8.423802566224139
 31
0.0
  0
LINE
  5
34F5
330
34C3
100
AcDbEntity
  8
0
 62
     0
100
AcDbLine
 10
25.71990934847076
 20
10.2249997642576
 30
0.0
 11
24.31990934847076
 21
11.62499976425763
 31
0.0
  0
LINE
  5
34F6
330
34C3
100
AcDbEntity
  8
0
 62
     0
100
AcDbLine
 10
31.79911881059109
 20
4.145790302137271
 30
0.0
 11
30.63534867692448
 21
5.309560435803916
 31
0.0
  0
LINE
  5
34F7
330
34C3
100
AcDbEntity
  8
0
 62
     0
100
AcDbLine
 10
28.92110654650432
 20
6.574789760170659
 30
0.0
 11
27.52110654650428
 21
7.974789760170693
 31
0.0
  0
LINE
  5
34F8
330
34C3
100
AcDbEntity
  8
0
 62
     0
100
AcDbLine
 10
25.27089654241734
 20
10.22499976425763
 30
0.0
 11
23.90211317782865
 21
11.59378312884632
 31
0.0
  0
LINE
  5
34F9
330
34C3
100
AcDbEntity
  8
0
 62
     0
100
AcDbLine
 10
31.58309791192857
 20
3.912798394746374
 30
0.0
 11
30.43455585769072
 21
5.061340448984225
 31
0.0
  0
LINE
  5
34FA
330
34C3
100
AcDbEntity
  8
0
 62
     0
100
AcDbLine
 10
28.92110654650429
 20
6.125776954117213
 30
0.0
 11
27.52110654650425
 21
7.525776954117219
 31
0.0
  0
LINE
  5
34FB
330
34C3
100
AcDbEntity
  8
0
 62
     0
100
AcDbLine
 10
24.82188373636387
 20
10.22499976425763
 30
0.0
 11
23.56979296556195
 21
11.47709053505951
 31
0.0
  0
LINE
  5
34FC
330
34C3
100
AcDbEntity
  8
0
 62
     0
100
AcDbLine
 10
31.31501673946556
 20
3.731866761155941
 30
0.0
 11
30.07188373636387
 21
4.974999764257603
 31
0.0
  0
LINE
  5
34FD
330
34C3
100
AcDbEntity
  8
0
 62
     0
100
AcDbLine
 10
28.92110654650429
 20
5.676764148063739
 30
0.0
 11
27.52110654650428
 21
7.076764148063716
 31
0.0
  0
LINE
  5
34FE
330
34C3
100
AcDbEntity
  8
0
 62
     0
100
AcDbLine
 10
24.38376584431947
 20
10.21410485024853
 30
0.0
 11
23.29849249695687
 21
11.29937819761113
 31
0.0
  0
LINE
  5
34FF
330
34C3
100
AcDbEntity
  8
0
 62
     0
100
AcDbLine
 10
30.98681045950991
 20
3.611060235058118
 30
0.0
 11
29.62287093031042
 21
4.974999764257603
 31
0.0
  0
LINE
  5
3500
330
34C3
100
AcDbEntity
  8
0
 62
     0
100
AcDbLine
 10
24.19610654650429
 20
9.95275134201023
 30
0.0
 11
23.07943646743459
 21
11.06942142107993
 31
0.0
  0
LINE
  5
3501
330
34C3
100
AcDbEntity
  8
0
 62
     0
100
AcDbLine
 10
30.57385812425692
 20
3.574999764257597
 30
0.0
 11
27.52110654650428
 21
6.62775134201027
 31
0.0
  0
LINE
  5
3502
330
34C3
100
AcDbEntity
  8
0
 62
     0
100
AcDbLine
 10
24.19610654650432
 20
9.503738535956813
 30
0.0
 11
22.91355101125807
 21
10.78629407120305
 31
0.0
  0
LINE
  5
3503
330
34C3
100
AcDbEntity
  8
0
 62
     0
100
AcDbLine
 10
30.12484531820351
 20
3.574999764257626
 30
0.0
 11
27.52110654650431
 21
6.178738535956824
 31
0.0
  0
LINE
  5
3504
330
34C3
100
AcDbEntity
  8
0
 62
     0
100
AcDbLine
 10
24.29937868705619
 20
8.951453589351473
 30
0.0
 11
22.81246175157602
 21
10.43837052483161
 31
0.0
  0
LINE
  5
3505
330
34C3
100
AcDbEntity
  8
0
 62
     0
100
AcDbLine
 10
29.67583251215003
 20
3.574999764257597
 30
0.0
 11
27.52110654650428
 21
5.729725729903378
 31
0.0
  0
LINE
  5
3506
330
34C3
100
AcDbEntity
  8
0
 62
     0
100
AcDbLine
 10
26.40790839784995
 20
6.393911072504238
 30
0.0
 11
22.79610654650426
 21
10.00571292384989
 31
0.0
  0
LINE
  5
3507
330
34C3
100
AcDbEntity
  8
0
 62
     0
100
AcDbLine
 10
21.74610654650422
 20
11.05571292384993
 30
0.0
 11
21.17681970609658
 21
11.6249997642576
 31
0.0
  0
LINE
  5
3508
330
34C3
100
AcDbEntity
  8
0
 62
     0
100
AcDbLine
 10
29.22681970609659
 20
3.574999764257597
 30
0.0
 11
27.52110654650428
 21
5.280712923849904
 31
0.0
  0
LINE
  5
3509
330
34C3
100
AcDbEntity
  8
0
 62
     0
100
AcDbLine
 10
26.4711065465043
 20
5.881700117796469
 30
0.0
 11
22.79610654650429
 21
9.556700117796481
 31
0.0
  0
LINE
  5
350A
330
34C3
100
AcDbEntity
  8
0
 62
     0
100
AcDbLine
 10
21.74610654650428
 20
10.60670011779646
 30
0.0
 11
20.7278069000431
 21
11.62499976425766
 31
0.0
  0
LINE
  5
350B
330
34C3
100
AcDbEntity
  8
0
 62
     0
100
AcDbLine
 10
28.76958296067073
 20
3.583223703630039
 30
0.0
 11
27.52933048587673
 21
4.823476178424044
 31
0.0
  0
LINE
  5
350C
330
34C3
100
AcDbEntity
  8
0
 62
     0
100
AcDbLine
 10
21.74610654650428
 20
10.15768731174301
 30
0.0
 11
20.39241160261661
 21
11.51138225563065
 31
0.0
  0
LINE
  5
350D
330
34C3
100
AcDbEntity
  8
0
 62
     0
100
AcDbLine
 10
26.47110654650427
 20
5.432687311742995
 30
0.0
 11
22.80781188044545
 21
9.095981977801841
 31
0.0
  0
LINE
  5
350E
330
34C3
100
AcDbEntity
  8
0
 62
     0
100
AcDbLine
 10
21.74610654650428
 20
9.708674505689543
 30
0.0
 11
20.34610654650427
 21
11.10867450568952
 31
0.0
  0
LINE
  5
350F
330
34C3
100
AcDbEntity
  8
0
 62
     0
100
AcDbLine
 10
26.4711065465043
 20
4.983674505689492
 30
0.0
 11
22.96687158936546
 21
8.487909462828355
 31
0.0
  0
LINE
  5
3510
330
34C3
100
AcDbEntity
  8
0
 62
     0
100
AcDbLine
 10
21.74610654650428
 20
9.259661699636097
 30
0.0
 11
20.3461065465043
 21
10.65966169963607
 31
0.0
  0
LINE
  5
3511
330
34C3
100
AcDbEntity
  8
0
 62
     0
100
AcDbLine
 10
26.41682563770973
 20
4.588942608430642
 30
0.0
 11
25.06900824319058
 21
5.936760002949796
 31
0.0
  0
LINE
  5
3512
330
34C3
100
AcDbEntity
  8
0
 62
     0
100
AcDbLine
 10
21.74610654650428
 20
8.810648893582651
 30
0.0
 11
20.34610654650427
 21
10.21064889358263
 31
0.0
  0
LINE
  5
3513
330
34C3
100
AcDbEntity
  8
0
 62
     0
100
AcDbLine
 10
19.20036309621576
 20
11.35639234387113
 30
0.0
 11
18.93175567582926
 21
11.62499976425766
 31
0.0
  0
LINE
  5
3514
330
34C3
100
AcDbEntity
  8
0
 62
     0
100
AcDbLine
 10
26.28288778382895
 20
4.273867656257976
 30
0.0
 11
25.07110654650432
 21
5.485648893582606
 31
0.0
  0
LINE
  5
3515
330
34C3
100
AcDbEntity
  8
0
 62
     0
100
AcDbLine
 10
21.74610654650425
 20
8.361636087529177
 30
0.0
 11
20.34610654650427
 21
9.761636087529183
 31
0.0
  0
LINE
  5
3516
330
34C3
100
AcDbEntity
  8
0
 62
     0
100
AcDbLine
 10
19.10089926408946
 20
11.00684336994396
 30
0.0
 11
18.48274286977582
 21
11.62499976425763
 31
0.0
  0
LINE
  5
3517
330
34C3
100
AcDbEntity
  8
0
 62
     0
100
AcDbLine
 10
26.0913943847413
 20
4.01634824929215
 30
0.0
 11
25.02246395506105
 21
5.0852786789724
 31
0.0
  0
LINE
  5
3518
330
34C3
100
AcDbEntity
  8
0
 62
     0
100
AcDbLine
 10
21.74610654650425
 20
7.912623281475731
 30
0.0
 11
20.34610654650427
 21
9.312623281475708
 31
0.0
  0
LINE
  5
3519
330
34C3
100
AcDbEntity
  8
0
 62
     0
100
AcDbLine
 10
18.99313619063661
 20
10.66559363734333
 30
0.0
 11
18.03852840890132
 21
11.62020141907865
 31
0.0
  0
LINE
  5
351A
330
34C3
100
AcDbEntity
  8
0
 62
     0
100
AcDbLine
 10
25.84823490218349
 20
3.810494925796461
 30
0.0
 11
24.68373006372237
 21
4.974999764257603
 31
0.0
  0
LINE
  5
351B
330
34C3
100
AcDbEntity
  8
0
 62
     0
100
AcDbLine
 10
21.7461065465043
 20
7.463610475422257
 30
0.0
 11
20.34610654650427
 21
8.863610475422262
 31
0.0
  0
LINE
  5
351C
330
34C3
100
AcDbEntity
  8
0
 62
     0
100
AcDbLine
 10
18.88537311718386
 20
10.3243439047427
 30
0.0
 11
17.82137311718384
 21
11.38834390474272
 31
0.0
  0
LINE
  5
351D
330
34C3
100
AcDbEntity
  8
0
 62
     0
100
AcDbLine
 10
25.5501929279533
 20
3.659524093973232
 30
0.0
 11
24.23471725766893
 21
4.974999764257631
 31
0.0
  0
LINE
  5
351E
330
34C3
100
AcDbEntity
  8
0
 62
     0
100
AcDbLine
 10
21.7461065465043
 20
7.014597669368782
 30
0.0
 11
20.34610654650427
 21
8.414597669368816
 31
0.0
  0
LINE
  5
351F
330
34C3
100
AcDbEntity
  8
0
 62
     0
100
AcDbLine
 10
18.77761004373093
 20
9.983094172142159
 30
0.0
 11
17.71361004373099
 21
11.04709417214209
 31
0.0
  0
LINE
  5
3520
330
34C3
100
AcDbEntity
  8
0
 62
     0
100
AcDbLine
 10
25.18135660212957
 20
3.579347613743522
 30
0.0
 11
23.78570445161548
 21
4.974999764257603
 31
0.0
  0
LINE
  5
3521
330
34C3
100
AcDbEntity
  8
0
 62
     0
100
AcDbLine
 10
21.74610654650428
 20
6.565584863315336
 30
0.0
 11
20.34610654650424
 21
7.965584863315342
 31
0.0
  0
LINE
  5
3522
330
34C3
100
AcDbEntity
  8
0
 62
     0
100
AcDbLine
 10
18.66984697027814
 20
9.641844439541472
 30
0.0
 11
17.60584697027815
 21
10.70584443954146
 31
0.0
  0
LINE
  5
3523
330
34C3
100
AcDbEntity
  8
0
 62
     0
100
AcDbLine
 10
24.73669164556199
 20
3.574999764257597
 30
0.0
 11
23.33669164556201
 21
4.974999764257603
 31
0.0
  0
LINE
  5
3524
330
34C3
100
AcDbEntity
  8
0
 62
     0
100
AcDbLine
 10
21.7461065465043
 20
6.11657205726189
 30
0.0
 11
20.34610654650427
 21
7.516572057261925
 31
0.0
  0
LINE
  5
3525
330
34C3
100
AcDbEntity
  8
0
 62
     0
100
AcDbLine
 10
18.56208389682535
 20
9.300594706940842
 30
0.0
 11
17.49808389682527
 21
10.36459470694089
 31
0.0
  0
LINE
  5
3526
330
34C3
100
AcDbEntity
  8
0
 62
     0
100
AcDbLine
 10
24.28767883950857
 20
3.574999764257626
 30
0.0
 11
23.0708729908604
 21
4.79180561290579
 31
0.0
  0
LINE
  5
3527
330
34C3
100
AcDbEntity
  8
0
 62
     0
100
AcDbLine
 10
18.45432082337248
 20
8.95934497434024
 30
0.0
 11
17.39032082337249
 21
10.02334497434023
 31
0.0
  0
LINE
  5
3528
330
34C3
100
AcDbEntity
  8
0
 62
     0
100
AcDbLine
 10
21.74610654650428
 20
5.667559251208416
 30
0.0
 11
20.34610654650427
 21
7.06755925120845
 31
0.0
  0
LINE
  5
3529
330
34C3
100
AcDbEntity
  8
0
 62
     0
100
AcDbLine
 10
16.32110654650432
 20
11.0925592512084
 30
0.0
 11
15.78866603345508
 21
11.62499976425763
 31
0.0
  0
LINE
  5
352A
330
34C3
100
AcDbEntity
  8
0
 62
     0
100
AcDbLine
 10
23.83866603345515
 20
3.574999764257569
 30
0.0
 11
23.05860654650428
 21
4.355059251208444
 31
0.0
  0
LINE
  5
352B
330
34C3
100
AcDbEntity
  8
0
 62
     0
100
AcDbLine
 10
18.34655774991963
 20
8.618095241739609
 30
0.0
 11
17.28255774991964
 21
9.682095241739602
 31
0.0
  0
LINE
  5
352C
330
34C3
100
AcDbEntity
  8
0
 62
     0
100
AcDbLine
 10
21.74610654650428
 20
5.21854644515497
 30
0.0
 11
20.34610654650424
 21
6.618546445155004
 31
0.0
  0
LINE
  5
352D
330
34C3
100
AcDbEntity
  8
0
 62
     0
100
AcDbLine
 10
16.32110654650429
 20
10.64354644515495
 30
0.0
 11
15.33965322740161
 21
11.6249997642576
 31
0.0
  0
LINE
  5
352E
330
34C3
100
AcDbEntity
  8
0
 62
     0
100
AcDbLine
 10
23.38965322740165
 20
3.574999764257597
 30
0.0
 11
23.05860654650425
 21
3.90604644515497
 31
0.0
  0
LINE
  5
352F
330
34C3
100
AcDbEntity
  8
0
 62
     0
100
AcDbLine
 10
18.23879467646679
 20
8.276845509138979
 30
0.0
 11
17.17479467646677
 21
9.340845509139001
 31
0.0
  0
LINE
  5
3530
330
34C3
100
AcDbEntity
  8
0
 62
     0
100
AcDbLine
 10
16.32110654650429
 20
10.19453363910147
 30
0.0
 11
14.98338408205543
 21
11.53225610355033
 31
0.0
  0
LINE
  5
3531
330
34C3
100
AcDbEntity
  8
0
 62
     0
100
AcDbLine
 10
21.74610654650428
 20
4.769533639101496
 30
0.0
 11
20.34610654650424
 21
6.16953363910153
 31
0.0
  0
LINE
  5
3532
330
34C3
100
AcDbEntity
  8
0
 62
     0
100
AcDbLine
 10
18.13103160301398
 20
7.935595776538377
 30
0.0
 11
17.06703160301396
 21
8.999595776538399
 31
0.0
  0
LINE
  5
3533
330
34C3
100
AcDbEntity
  8
0
 62
     0
100
AcDbLine
 10
16.32110654650429
 20
9.745520833048033
 30
0.0
 11
14.92110654650429
 21
11.14552083304806
 31
0.0
  0
LINE
  5
3534
330
34C3
100
AcDbEntity
  8
0
 62
     0
100
AcDbLine
 10
21.74610654650428
 20
4.320520833048078
 30
0.0
 11
20.34610654650424
 21
5.720520833048084
 31
0.0
  0
LINE
  5
3535
330
34C3
100
AcDbEntity
  8
0
 62
     0
100
AcDbLine
 10
18.02848734831803
 20
7.589127225180845
 30
0.0
 11
16.95926852956111
 21
8.658346043937768
 31
0.0
  0
LINE
  5
3536
330
34C3
100
AcDbEntity
  8
0
 62
     0
100
AcDbLine
 10
16.32110654650429
 20
9.296508026994587
 30
0.0
 11
14.92110654650426
 21
10.69650802699459
 31
0.0
  0
LINE
  5
3537
330
34C3
100
AcDbEntity
  8
0
 62
     0
100
AcDbLine
 10
21.7461065465043
 20
3.871508026994575
 30
0.0
 11
20.34610654650424
 21
5.271508026994638
 31
0.0
  0
LINE
  5
3538
330
34C3
100
AcDbEntity
  8
0
 62
     0
100
AcDbLine
 10
18.23572402803503
 20
6.932877739410372
 30
0.0
 11
16.8139947817188
 21
8.354606985726604
 31
0.0
  0
LINE
  5
3539
330
34C3
100
AcDbEntity
  8
0
 62
     0
100
AcDbLine
 10
16.32110654650429
 20
8.847495220941112
 30
0.0
 11
14.92110654650426
 21
10.24749522094114
 31
0.0
  0
LINE
  5
353A
330
34C3
100
AcDbEntity
  8
0
 62
     0
100
AcDbLine
 10
21.57658404783805
 20
3.592017719607326
 30
0.0
 11
20.34610654650427
 21
4.822495220941135
 31
0.0
  0
LINE
  5
353B
330
34C3
100
AcDbEntity
  8
0
 62
     0
100
AcDbLine
 10
18.44296070775206
 20
6.276628253639927
 30
0.0
 11
14.92110654650426
 21
9.7984824148877
 31
0.0
  0
LINE
  5
353C
330
34C3
100
AcDbEntity
  8
0
 62
     0
100
AcDbLine
 10
13.69610654650435
 20
11.02348241488763
 30
0.0
 11
13.09458919713435
 21
11.6249997642576
 31
0.0
  0
LINE
  5
353D
330
34C3
100
AcDbEntity
  8
0
 62
     0
100
AcDbLine
 10
21.14458919713439
 20
3.574999764257597
 30
0.0
 11
20.3461065465043
 21
4.373482414887689
 31
0.0
  0
LINE
  5
353E
330
34C3
100
AcDbEntity
  8
0
 62
     0
100
AcDbLine
 10
18.650197387469
 20
5.620378767869482
 30
0.0
 11
14.92110654650426
 21
9.349469608834255
 31
0.0
  0
LINE
  5
353F
330
34C3
100
AcDbEntity
  8
0
 62
     0
100
AcDbLine
 10
13.69610654650432
 20
10.57446960883419
 30
0.0
 11
12.6455763910809
 21
11.6249997642576
 31
0.0
  0
LINE
  5
3540
330
34C3
100
AcDbEntity
  8
0
 62
     0
100
AcDbLine
 10
20.69557639108089
 20
3.574999764257626
 30
0.0
 11
20.34610654650427
 21
3.924469608834243
 31
0.0
  0
LINE
  5
3541
330
34C3
100
AcDbEntity
  8
0
 62
     0
100
AcDbLine
 10
13.56265319880924
 20
10.25891015047579
 30
0.0
 11
12.21254233970353
 21
11.60902100958148
 31
0.0
  0
LINE
  5
3542
330
34C3
100
AcDbEntity
  8
0
 62
     0
100
AcDbLine
 10
18.85743406718597
 20
4.964129282099065
 30
0.0
 11
14.92110654650426
 21
8.90045680278078
 31
0.0
  0
LINE
  5
3543
330
34C3
100
AcDbEntity
  8
0
 62
     0
100
AcDbLine
 10
16.48986100767507
 20
6.882689535556522
 30
0.0
 11
14.92110654650431
 21
8.451443996727277
 31
0.0
  0
LINE
  5
3544
330
34C3
100
AcDbEntity
  8
0
 62
     0
100
AcDbLine
 10
13.14755077897396
 20
10.22499976425763
 30
0.0
 11
11.8435208049099
 21
11.52902973832169
 31
0.0
  0
LINE
  5
3545
330
34C3
100
AcDbEntity
  8
0
 62
     0
100
AcDbLine
 10
19.06467074690297
 20
4.30787979632862
 30
0.0
 11
17.01851690074903
 21
6.354033642482534
 31
0.0
  0
LINE
  5
3546
330
34C3
100
AcDbEntity
  8
0
 62
     0
100
AcDbLine
 10
16.32110654650429
 20
6.602431190673854
 30
0.0
 11
14.92110654650429
 21
8.00243119067386
 31
0.0
  0
LINE
  5
3547
330
34C3
100
AcDbEntity
  8
0
 62
     0
100
AcDbLine
 10
12.69853797292052
 20
10.2249997642576
 30
0.0
 11
11.52416009699453
 21
11.39937764018358
 31
0.0
  0
LINE
  5
3548
330
34C3
100
AcDbEntity
  8
0
 62
     0
100
AcDbLine
 10
19.18219017575827
 20
3.741347561419843
 30
0.0
 11
17.225753580466
 21
5.697784156712145
 31
0.0
  0
LINE
  5
3549
330
34C3
100
AcDbEntity
  8
0
 62
     0
100
AcDbLine
 10
16.32110654650426
 20
6.153418384620408
 30
0.0
 11
14.92110654650429
 21
7.553418384620385
 31
0.0
  0
LINE
  5
354A
330
34C3
100
AcDbEntity
  8
0
 62
     0
100
AcDbLine
 10
12.27698122164875
 20
10.19754370947592
 30
0.0
 11
11.24478560932726
 21
11.22973932179741
 31
0.0
  0
LINE
  5
354B
330
34C3
100
AcDbEntity
  8
0
 62
     0
100
AcDbLine
 10
18.89952516686705
 20
3.574999764257626
 30
0.0
 11
17.43299026018297
 21
5.0415346709417
 31
0.0
  0
LINE
  5
354C
330
34C3
100
AcDbEntity
  8
0
 62
     0
100
AcDbLine
 10
16.32110654650426
 20
5.704405578566934
 30
0.0
 11
14.92110654650426
 21
7.104405578566911
 31
0.0
  0
LINE
  5
354D
330
34C3
100
AcDbEntity
  8
0
 62
     0
100
AcDbLine
 10
11.99105312522925
 20
10.03445899984194
 30
0.0
 11
11.00095800502137
 21
11.02455412004982
 31
0.0
  0
LINE
  5
354E
330
34C3
100
AcDbEntity
  8
0
 62
     0
100
AcDbLine
 10
18.4505123608136
 20
3.574999764257597
 30
0.0
 11
17.6402269399
 21
4.385285185171198
 31
0.0
  0
LINE
  5
354F
330
34C3
100
AcDbEntity
  8
0
 62
     0
100
AcDbLine
 10
13.86382111290314
 20
7.712678206114645
 30
0.0
 11
13.10878498836126
 21
8.467714330656519
 31
0.0
  0
LINE
  5
3550
330
34C3
100
AcDbEntity
  8
0
 62
     0
100
AcDbLine
 10
16.32110654650432
 20
5.255392772513459
 30
0.0
 11
14.92110654650429
 21
6.655392772513494
 31
0.0
  0
LINE
  5
3551
330
34C3
100
AcDbEntity
  8
0
 62
     0
100
AcDbLine
 10
11.81299234016478
 20
9.763506978853001
 30
0.0
 11
10.79127499201575
 21
10.78522432700202
 31
0.0
  0
LINE
  5
3552
330
34C3
100
AcDbEntity
  8
0
 62
     0
100
AcDbLine
 10
17.97633305265788
 20
3.600166266359906
 30
0.0
 11
17.85115596686222
 21
3.725343352155562
 31
0.0
  0
LINE
  5
3553
330
34C3
100
AcDbEntity
  8
0
 62
     0
100
AcDbLine
 10
13.82056428283218
 20
7.30692223013213
 30
0.0
 11
12.70302901237875
 21
8.42445750058556
 31
0.0
  0
LINE
  5
3554
330
34C3
100
AcDbEntity
  8
0
 62
     0
100
AcDbLine
 10
11.77110654650431
 20
9.356379966459996
 30
0.0
 11
10.61680548153492
 21
10.51068103142938
 31
0.0
  0
LINE
  5
3555
330
34C3
100
AcDbEntity
  8
0
 62
     0
100
AcDbLine
 10
16.32110654650429
 20
4.806379966459985
 30
0.0
 11
14.92110654650429
 21
6.206379966460019
 31
0.0
  0
LINE
  5
3556
330
34C3
100
AcDbEntity
  8
0
 62
     0
100
AcDbLine
 10
13.65463650318315
 20
7.023837203727651
 30
0.0
 11
12.41994398597427
 21
8.258529720936536
 31
0.0
  0
LINE
  5
3557
330
34C3
100
AcDbEntity
  8
0
 62
     0
100
AcDbLine
 10
11.77110654650431
 20
8.907367160406522
 30
0.0
 11
10.48151562792983
 21
10.19695807898099
 31
0.0
  0
LINE
  5
3558
330
34C3
100
AcDbEntity
  8
0
 62
     0
100
AcDbLine
 10
16.32110654650429
 20
4.357367160406539
 30
0.0
 11
14.92110654650426
 21
5.757367160406573
 31
0.0
  0
LINE
  5
3559
330
34C3
100
AcDbEntity
  8
0
 62
     0
100
AcDbLine
 10
11.77110654650431
 20
8.458354354353076
 30
0.0
 11
10.39415869146691
 21
9.835302209390505
 31
0.0
  0
LINE
  5
355A
330
34C3
100
AcDbEntity
  8
0
 62
     0
100
AcDbLine
 10
13.40371978211493
 20
6.825741118742485
 30
0.0
 11
12.2218479009891
 21
8.007612999868314
 31
0.0
  0
LINE
  5
355B
330
34C3
100
AcDbEntity
  8
0
 62
     0
100
AcDbLine
 10
9.058606546504279
 20
11.17085435435313
 30
0.0
 11
8.60446113659978
 21
11.62499976425763
 31
0.0
  0
LINE
  5
355C
330
34C3
100
AcDbEntity
  8
0
 62
     0
100
AcDbLine
 10
16.32110654650432
 20
3.908354354353093
 30
0.0
 11
14.92110654650429
 21
5.308354354353127
 31
0.0
  0
LINE
  5
355D
330
34C3
100
AcDbEntity
  8
0
 62
     0
100
AcDbLine
 10
11.77110654650431
 20
8.00934154829963
 30
0.0
 11
10.37110654650428
 21
9.409341548299664
 31
0.0
  0
LINE
  5
355E
330
34C3
100
AcDbEntity
  8
0
 62
     0
100
AcDbLine
 10
13.05356006090121
 20
6.726888033902724
 30
0.0
 11
12.12299481614934
 21
7.6574532786546
 31
0.0
  0
LINE
  5
355F
330
34C3
100
AcDbEntity
  8
0
 62
     0
100
AcDbLine
 10
9.05860654650425
 20
10.72184154829966
 30
0.0
 11
8.155448330546306
 21
11.6249997642576
 31
0.0
  0
LINE
  5
3560
330
34C3
100
AcDbEntity
  8
0
 62
     0
100
AcDbLine
 10
16.17715464586896
 20
3.603293448934977
 30
0.0
 11
14.92110654650426
 21
4.859341548299653
 31
0.0
  0
LINE
  5
3561
330
34C3
100
AcDbEntity
  8
0
 62
     0
100
AcDbLine
 10
11.77110654650431
 20
7.560328742246156
 30
0.0
 11
10.37110654650428
 21
8.96032874224619
 31
0.0
  0
LINE
  5
3562
330
34C3
100
AcDbEntity
  8
0
 62
     0
100
AcDbLine
 10
9.004089561369085
 20
10.32734572738138
 30
0.0
 11
7.706435524492803
 21
11.62499976425763
 31
0.0
  0
LINE
  5
3563
330
34C3
100
AcDbEntity
  8
0
 62
     0
100
AcDbLine
 10
15.75643552449287
 20
3.574999764257597
 30
0.0
 11
14.92110654650426
 21
4.410328742246207
 31
0.0
  0
LINE
  5
3564
330
34C3
100
AcDbEntity
  8
0
 62
     0
100
AcDbLine
 10
11.77110654650428
 20
7.11131593619271
 30
0.0
 11
10.37110654650425
 21
8.511315936192715
 31
0.0
  0
LINE
  5
3565
330
34C3
100
AcDbEntity
  8
0
 62
     0
100
AcDbLine
 10
8.657422718439391
 20
10.2249997642576
 30
0.0
 11
7.257422718439357
 21
11.62499976425763
 31
0.0
  0
LINE
  5
3566
330
34C3
100
AcDbEntity
  8
0
 62
     0
100
AcDbLine
 10
15.30742271843939
 20
3.574999764257569
 30
0.0
 11
14.92110654650426
 21
3.961315936192733
 31
0.0
  0
LINE
  5
3567
330
34C3
100
AcDbEntity
  8
0
 62
     0
100
AcDbLine
 10
11.77110654650434
 20
6.662303130139235
 30
0.0
 11
10.37110654650428
 21
8.062303130139298
 31
0.0
  0
LINE
  5
3568
330
34C3
100
AcDbEntity
  8
0
 62
     0
100
AcDbLine
 10
8.208409912385945
 20
10.22499976425763
 30
0.0
 11
6.825845276333524
 21
11.60756440031005
 31
0.0
  0
LINE
  5
3569
330
34C3
100
AcDbEntity
  8
0
 62
     0
100
AcDbLine
 10
13.69480532208581
 20
4.738604354557736
 30
0.0
 11
13.45971113680445
 21
4.973698539839119
 31
0.0
  0
LINE
  5
356A
330
34C3
100
AcDbEntity
  8
0
 62
     0
100
AcDbLine
 10
11.77110654650434
 20
6.213290324085761
 30
0.0
 11
10.37110654650428
 21
7.613290324085824
 31
0.0
  0
LINE
  5
356B
330
34C3
100
AcDbEntity
  8
0
 62
     0
100
AcDbLine
 10
7.759397106332471
 20
10.2249997642576
 30
0.0
 11
6.479277872094286
 21
11.50511899849581
 31
0.0
  0
LINE
  5
356C
330
34C3
100
AcDbEntity
  8
0
 62
     0
100
AcDbLine
 10
13.69610654650432
 20
4.288290324085778
 30
0.0
 11
13.0093971063325
 21
4.974999764257603
 31
0.0
  0
LINE
  5
356D
330
34C3
100
AcDbEntity
  8
0
 62
     0
100
AcDbLine
 10
11.77110654650431
 20
5.764277518032287
 30
0.0
 11
10.3711065465043
 21
7.164277518032321
 31
0.0
  0
LINE
  5
356E
330
34C3
100
AcDbEntity
  8
0
 62
     0
100
AcDbLine
 10
7.310384300278968
 20
10.22499976425763
 30
0.0
 11
6.197154542170665
 21
11.33822952236593
 31
0.0
  0
LINE
  5
356F
330
34C3
100
AcDbEntity
  8
0
 62
     0
100
AcDbLine
 10
13.69610654650429
 20
3.839277518032304
 30
0.0
 11
12.56038430027899
 21
4.974999764257631
 31
0.0
  0
LINE
  5
3570
330
34C3
100
AcDbEntity
  8
0
 62
     0
100
AcDbLine
 10
7.055237886471758
 20
10.03113337201145
 30
0.0
 11
5.96810813605029
 21
11.11826312243292
 31
0.0
  0
LINE
  5
3571
330
34C3
100
AcDbEntity
  8
0
 62
     0
100
AcDbLine
 10
13.50224015425811
 20
3.584131104225093
 30
0.0
 11
10.3711065465043
 21
6.715264711978903
 31
0.0
  0
LINE
  5
3572
330
34C3
100
AcDbEntity
  8
0
 62
     0
100
AcDbLine
 10
7.04610654650429
 20
9.591251905925446
 30
0.0
 11
5.791367534815748
 21
10.84599091761399
 31
0.0
  0
LINE
  5
3573
330
34C3
100
AcDbEntity
  8
0
 62
     0
100
AcDbLine
 10
13.06235868817216
 20
3.574999764257569
 30
0.0
 11
10.3711065465043
 21
6.266251905925429
 31
0.0
  0
LINE
  5
3574
330
34C3
100
AcDbEntity
  8
0
 62
     0
100
AcDbLine
 10
7.077174400572005
 20
9.111171245804229
 30
0.0
 11
5.675927483668885
 21
10.51241816270737
 31
0.0
  0
LINE
  5
3575
330
34C3
100
AcDbEntity
  8
0
 62
     0
100
AcDbLine
 10
12.61334588211866
 20
3.574999764257597
 30
0.0
 11
10.37110654650428
 21
5.817239099871954
 31
0.0
  0
LINE
  5
3576
330
34C3
100
AcDbEntity
  8
0
 62
     0
100
AcDbLine
 10
9.223294592115621
 20
6.516038248207195
 30
0.0
 11
5.646106546504313
 21
10.0932262938185
 31
0.0
  0
LINE
  5
3577
330
34C3
100
AcDbEntity
  8
0
 62
     0
100
AcDbLine
 10
12.13769703253689
 20
3.601635807785925
 30
0.0
 11
10.3977425900326
 21
5.341590250290209
 31
0.0
  0
LINE
  5
3578
330
34C3
100
AcDbEntity
  8
0
 62
     0
100
AcDbLine
 10
9.319241849158231
 20
5.971078185111139
 30
0.0
 11
5.646106546504285
 21
9.644213487765057
 31
0.0
  0
LINE
  5
3579
330
34C3
100
AcDbEntity
  8
0
 62
     0
100
AcDbLine
 10
11.45079307623609
 20
3.839526958033246
 30
0.0
 11
10.63563374027989
 21
4.65468629398947
 31
0.0
  0
LINE
  5
357A
330
34C3
100
AcDbEntity
  8
0
 62
     0
100
AcDbLine
 10
9.321106546504324
 20
5.520200681711571
 30
0.0
 11
5.649888770215454
 21
9.191418458000413
 31
0.0
  0
LINE
  5
357B
330
34C3
100
AcDbEntity
  8
0
 62
     0
100
AcDbLine
 10
9.321106546504267
 20
5.071187875658154
 30
0.0
 11
5.761534149377382
 21
8.630760272785011
 31
0.0
  0
LINE
  5
357C
330
34C3
100
AcDbEntity
  8
0
 62
     0
100
AcDbLine
 10
9.284846548438309
 20
4.658435067670694
 30
0.0
 11
7.90315072662878
 21
6.040130889480224
 31
0.0
  0
LINE
  5
357D
330
34C3
100
AcDbEntity
  8
0
 62
     0
100
AcDbLine
 10
9.163877578923887
 20
4.330391231131642
 30
0.0
 11
7.92110654650429
 21
5.573162263551239
 31
0.0
  0
LINE
  5
357E
330
34C3
100
AcDbEntity
  8
0
 62
     0
100
AcDbLine
 10
8.982817955233002
 20
4.062438048769053
 30
0.0
 11
7.903157030353924
 21
5.142098973648131
 31
0.0
  0
LINE
  5
357F
330
34C3
100
AcDbEntity
  8
0
 62
     0
100
AcDbLine
 10
8.749704769099565
 20
3.846538428849044
 30
0.0
 11
7.621243433691006
 21
4.974999764257631
 31
0.0
  0
LINE
  5
3580
330
34C3
100
AcDbEntity
  8
0
 62
     0
100
AcDbLine
 10
8.46307254523316
 20
3.684157846662003
 30
0.0
 11
7.172230627637532
 21
4.974999764257603
 31
0.0
  0
LINE
  5
3581
330
34C3
100
AcDbEntity
  8
0
 62
     0
100
AcDbLine
 10
8.110366250690191
 20
3.587851335151498
 30
0.0
 11
6.723217821584086
 21
4.974999764257603
 31
0.0
  0
LINE
  5
3582
330
34C3
100
AcDbEntity
  8
0
 62
     0
100
AcDbLine
 10
7.674205015530617
 20
3.574999764257597
 30
0.0
 11
6.274205015530611
 21
4.974999764257603
 31
0.0
  0
LINE
  5
3583
330
34C3
100
AcDbEntity
  8
0
 62
     0
100
AcDbLine
 10
7.225192209477199
 20
3.574999764257569
 30
0.0
 11
5.94853026206826
 21
4.851661711666537
 31
0.0
  0
LINE
  5
3584
330
34C3
100
AcDbEntity
  8
0
 62
     0
100
AcDbLine
 10
6.776179403423697
 20
3.574999764257597
 30
0.0
 11
5.908606546504302
 21
4.442572621176992
 31
0.0
  0
LINE
  5
3585
330
34C3
100
AcDbEntity
  8
0
 62
     0
100
AcDbLine
 10
6.327166597370279
 20
3.574999764257569
 30
0.0
 11
5.908606546504302
 21
3.993559815123546
 31
0.0
  0
LINE
  5
3586
330
34C3
100
AcDbEntity
  8
0
 62
     0
100
AcDbLine
 10
34.31695018883775
 20
3.581565652816351
 30
0.0
 11
34.51454065794564
 21
3.779156121924245
 31
0.0
  0
LINE
  5
3587
330
34C3
100
AcDbEntity
  8
0
 62
     0
100
AcDbLine
 10
33.86137149422558
 20
3.574999764257569
 30
0.0
 11
34.52110654650437
 21
4.234734816536388
 31
0.0
  0
LINE
  5
3588
330
34C3
100
AcDbEntity
  8
0
 62
     0
100
AcDbLine
 10
33.4123586881721
 20
3.574999764257597
 30
0.0
 11
34.52110654650437
 21
4.683747622589834
 31
0.0
  0
LINE
  5
3589
330
34C3
100
AcDbEntity
  8
0
 62
     0
100
AcDbLine
 10
33.1367053281302
 20
3.748359210269143
 30
0.0
 11
34.52110654650434
 21
5.132760428643308
 31
0.0
  0
LINE
  5
358A
330
34C3
100
AcDbEntity
  8
0
 62
     0
100
AcDbLine
 10
33.1211065465043
 20
4.18177323469672
 30
0.0
 11
34.52110654650434
 21
5.581773234696726
 31
0.0
  0
LINE
  5
358B
330
34C3
100
AcDbEntity
  8
0
 62
     0
100
AcDbLine
 10
33.12110654650433
 20
4.630786040750166
 30
0.0
 11
34.52110654650434
 21
6.0307860407502
 31
0.0
  0
LINE
  5
358C
330
34C3
100
AcDbEntity
  8
0
 62
     0
100
AcDbLine
 10
33.1211065465043
 20
5.07979884680364
 30
0.0
 11
34.52110654650434
 21
6.479798846803674
 31
0.0
  0
LINE
  5
358D
330
34C3
100
AcDbEntity
  8
0
 62
     0
100
AcDbLine
 10
33.1211065465043
 20
5.528811652857086
 30
0.0
 11
34.52110654650434
 21
6.92881165285712
 31
0.0
  0
LINE
  5
358E
330
34C3
100
AcDbEntity
  8
0
 62
     0
100
AcDbLine
 10
31.33438897753694
 20
3.742094083889725
 30
0.0
 11
31.90401222687222
 21
4.311717333225033
 31
0.0
  0
LINE
  5
358F
330
34C3
100
AcDbEntity
  8
0
 62
     0
100
AcDbLine
 10
33.1211065465043
 20
5.977824458910532
 30
0.0
 11
34.52110654650434
 21
7.377824458910566
 31
0.0
  0
LINE
  5
3590
330
34C3
100
AcDbEntity
  8
0
 62
     0
100
AcDbLine
 10
30.71910489427554
 20
3.57582280668177
 30
0.0
 11
32.07028350408021
 21
4.927001416486405
 31
0.0
  0
LINE
  5
3591
330
34C3
100
AcDbEntity
  8
0
 62
     0
100
AcDbLine
 10
33.1211065465043
 20
6.426837264964007
 30
0.0
 11
34.52110654650434
 21
7.826837264964012
 31
0.0
  0
LINE
  5
3592
330
34C3
100
AcDbEntity
  8
0
 62
     0
100
AcDbLine
 10
30.2692690457979
 20
3.574999764257569
 30
0.0
 11
32.07110654650435
 21
5.376837264964024
 31
0.0
  0
LINE
  5
3593
330
34C3
100
AcDbEntity
  8
0
 62
     0
100
AcDbLine
 10
33.1211065465043
 20
6.875850071017453
 30
0.0
 11
34.52110654650431
 21
8.275850071017487
 31
0.0
  0
LINE
  5
3594
330
34C3
100
AcDbEntity
  8
0
 62
     0
100
AcDbLine
 10
29.82025623974442
 20
3.574999764257597
 30
0.0
 11
32.07110654650432
 21
5.825850071017498
 31
0.0
  0
LINE
  5
3595
330
34C3
100
AcDbEntity
  8
0
 62
     0
100
AcDbLine
 10
33.1211065465043
 20
7.324862877070899
 30
0.0
 11
34.52110654650434
 21
8.724862877070933
 31
0.0
  0
LINE
  5
3596
330
34C3
100
AcDbEntity
  8
0
 62
     0
100
AcDbLine
 10
29.37124343369097
 20
3.574999764257569
 30
0.0
 11
32.07110654650435
 21
6.274862877070944
 31
0.0
  0
LINE
  5
3597
330
34C3
100
AcDbEntity
  8
0
 62
     0
100
AcDbLine
 10
30.61881094546379
 20
5.271580082083858
 30
0.0
 11
32.07110654650435
 21
6.72387568312439
 31
0.0
  0
LINE
  5
3598
330
34C3
100
AcDbEntity
  8
0
 62
     0
100
AcDbLine
 10
33.1211065465043
 20
7.773875683124344
 30
0.0
 11
34.52110654650434
 21
9.173875683124379
 31
0.0
  0
LINE
  5
3599
330
34C3
100
AcDbEntity
  8
0
 62
     0
100
AcDbLine
 10
28.92223062763747
 20
3.57499976425754
 30
0.0
 11
30.37452622867803
 21
5.027295365298073
 31
0.0
  0
LINE
  5
359A
330
34C3
100
AcDbEntity
  8
0
 62
     0
100
AcDbLine
 10
30.67110654650426
 20
5.772888489177802
 30
0.0
 11
32.07110654650432
 21
7.172888489177864
 31
0.0
  0
LINE
  5
359B
330
34C3
100
AcDbEntity
  8
0
 62
     0
100
AcDbLine
 10
33.12110654650428
 20
8.222888489177819
 30
0.0
 11
34.52110654650431
 21
9.622888489177853
 31
0.0
  0
LINE
  5
359C
330
34C3
100
AcDbEntity
  8
0
 62
     0
100
AcDbLine
 10
28.52919269727263
 20
3.630974639946145
 30
0.0
 11
29.87321782158406
 21
4.974999764257574
 31
0.0
  0
LINE
  5
359D
330
34C3
100
AcDbEntity
  8
0
 62
     0
100
AcDbLine
 10
30.67110654650426
 20
6.221901295231248
 30
0.0
 11
32.07110654650432
 21
7.62190129523131
 31
0.0
  0
LINE
  5
359E
330
34C3
100
AcDbEntity
  8
0
 62
     0
100
AcDbLine
 10
33.12110654650428
 20
8.671901295231293
 30
0.0
 11
34.52110654650431
 21
10.0719012952313
 31
0.0
  0
LINE
  5
359F
330
34C3
100
AcDbEntity
  8
0
 62
     0
100
AcDbLine
 10
28.21519926366756
 20
3.765994012394571
 30
0.0
 11
29.42464390835278
 21
4.975438657079791
 31
0.0
  0
LINE
  5
35A0
330
34C3
100
AcDbEntity
  8
0
 62
     0
100
AcDbLine
 10
30.67110654650432
 20
6.670914101284722
 30
0.0
 11
32.07110654650432
 21
8.070914101284756
 31
0.0
  0
LINE
  5
35A1
330
34C3
100
AcDbEntity
  8
0
 62
     0
100
AcDbLine
 10
33.1211065465043
 20
9.120914101284711
 30
0.0
 11
34.52110654650431
 21
10.52091410128474
 31
0.0
  0
LINE
  5
35A2
330
34C3
100
AcDbEntity
  8
0
 62
     0
100
AcDbLine
 10
27.95856932298502
 20
3.958376877765431
 30
0.0
 11
29.10290461399643
 21
5.102712168776861
 31
0.0
  0
LINE
  5
35A3
330
34C3
100
AcDbEntity
  8
0
 62
     0
100
AcDbLine
 10
30.67110654650429
 20
7.119926907338196
 30
0.0
 11
32.07110654650432
 21
8.519926907338231
 31
0.0
  0
LINE
  5
35A4
330
34C3
100
AcDbEntity
  8
0
 62
     0
100
AcDbLine
 10
33.12110654650428
 20
9.569926907338185
 30
0.0
 11
34.52110654650431
 21
10.96992690733822
 31
0.0
  0
LINE
  5
35A5
330
34C3
100
AcDbEntity
  8
0
 62
     0
100
AcDbLine
 10
27.75358723537246
 20
4.202407596206342
 30
0.0
 11
28.93428547479172
 21
5.383105835625627
 31
0.0
  0
LINE
  5
35A6
330
34C3
100
AcDbEntity
  8
0
 62
     0
100
AcDbLine
 10
30.67110654650429
 20
7.568939713391642
 30
0.0
 11
32.07110654650435
 21
8.968939713391733
 31
0.0
  0
LINE
  5
35A7
330
34C3
100
AcDbEntity
  8
0
 62
     0
100
AcDbLine
 10
33.12110654650428
 20
10.01893971339163
 30
0.0
 11
34.51603196972908
 21
11.41386513661646
 31
0.0
  0
LINE
  5
35A8
330
34C3
100
AcDbEntity
  8
0
 62
     0
100
AcDbLine
 10
27.60362479615546
 20
4.501457963042838
 30
0.0
 11
28.92110654650426
 21
5.818939713391642
 31
0.0
  0
LINE
  5
35A9
330
34C3
100
AcDbEntity
  8
0
 62
     0
100
AcDbLine
 10
30.67110654650429
 20
8.017952519445088
 30
0.0
 11
32.07110654650438
 21
9.417952519445151
 31
0.0
  0
LINE
  5
35AA
330
34C3
100
AcDbEntity
  8
0
 62
     0
100
AcDbLine
 10
33.12110654650428
 20
10.46795251944507
 30
0.0
 11
34.27747479718934
 21
11.62432077013014
 31
0.0
  0
LINE
  5
35AB
330
34C3
100
AcDbEntity
  8
0
 62
     0
100
AcDbLine
 10
27.52491802867723
 20
4.871764001618032
 30
0.0
 11
28.92110654650429
 21
6.267952519445088
 31
0.0
  0
LINE
  5
35AC
330
34C3
100
AcDbEntity
  8
0
 62
     0
100
AcDbLine
 10
30.67110654650429
 20
8.466965325498563
 30
0.0
 11
32.07110654650435
 21
9.866965325498625
 31
0.0
  0
LINE
  5
35AD
330
34C3
100
AcDbEntity
  8
0
 62
     0
100
AcDbLine
 10
33.1211065465043
 20
10.91696532549857
 30
0.0
 11
33.82914098526331
 21
11.62499976425758
 31
0.0
  0
LINE
  5
35AE
330
34C3
100
AcDbEntity
  8
0
 62
     0
100
AcDbLine
 10
27.52110654650434
 20
5.316965325498586
 30
0.0
 11
28.92110654650432
 21
6.716965325498591
 31
0.0
  0
LINE
  5
35AF
330
34C3
100
AcDbEntity
  8
0
 62
     0
100
AcDbLine
 10
30.67110654650429
 20
8.915978131552009
 30
0.0
 11
32.07110654650435
 21
10.31597813155207
 31
0.0
  0
LINE
  5
35B0
330
34C3
100
AcDbEntity
  8
0
 62
     0
100
AcDbLine
 10
27.52110654650431
 20
5.76597813155206
 30
0.0
 11
28.92110654650429
 21
7.165978131552037
 31
0.0
  0
LINE
  5
35B1
330
34C3
100
AcDbEntity
  8
0
 62
     0
100
AcDbLine
 10
33.12112990387802
 20
11.36600148892577
 30
0.0
 11
33.38010482183617
 21
11.62497640688388
 31
0.0
  0
LINE
  5
35B2
330
34C3
100
AcDbEntity
  8
0
 62
     0
100
AcDbLine
 10
25.36032873114831
 20
3.605200316196032
 30
0.0
 11
26.44090599456589
 21
4.685777579613642
 31
0.0
  0
LINE
  5
35B3
330
34C3
100
AcDbEntity
  8
0
 62
     0
100
AcDbLine
 10
27.52110654650431
 20
6.214990937605506
 30
0.0
 11
28.92110654650429
 21
7.614990937605512
 31
0.0
  0
LINE
  5
35B4
330
34C3
100
AcDbEntity
  8
0
 62
     0
100
AcDbLine
 10
30.67110654650432
 20
9.364990937605512
 30
0.0
 11
32.07110654650432
 21
10.76499093760554
 31
0.0
  0
LINE
  5
35B5
330
34C3
100
AcDbEntity
  8
0
 62
     0
100
AcDbLine
 10
24.8811153731564
 20
3.574999764257626
 30
0.0
 11
26.47110654650427
 21
5.164990937605466
 31
0.0
  0
LINE
  5
35B6
330
34C3
100
AcDbEntity
  8
0
 62
     0
100
AcDbLine
 10
27.52110654650431
 20
6.664003743658952
 30
0.0
 11
28.92110654650432
 21
8.064003743658929
 31
0.0
  0
LINE
  5
35B7
330
34C3
100
AcDbEntity
  8
0
 62
     0
100
AcDbLine
 10
30.67110654650432
 20
9.814003743658958
 30
0.0
 11
32.07110654650435
 21
11.21400374365899
 31
0.0
  0
LINE
  5
35B8
330
34C3
100
AcDbEntity
  8
0
 62
     0
100
AcDbLine
 10
24.43210256710293
 20
3.574999764257569
 30
0.0
 11
26.47110654650433
 21
5.61400374365894
 31
0.0
  0
LINE
  5
35B9
330
34C3
100
AcDbEntity
  8
0
 62
     0
100
AcDbLine
 10
27.52110654650431
 20
7.113016549712426
 30
0.0
 11
28.92110654650429
 21
8.513016549712403
 31
0.0
  0
LINE
  5
35BA
330
34C3
100
AcDbEntity
  8
0
 62
     0
100
AcDbLine
 10
30.67110654650432
 20
10.2630165497124
 30
0.0
 11
31.97423781908728
 21
11.56614782229539
 31
0.0
  0
LINE
  5
35BB
330
34C3
100
AcDbEntity
  8
0
 62
     0
100
AcDbLine
 10
23.98308976104948
 20
3.574999764257597
 30
0.0
 11
26.46394724629783
 21
6.055857249505947
 31
0.0
  0
LINE
  5
35BC
330
34C3
100
AcDbEntity
  8
0
 62
     0
100
AcDbLine
 10
27.52110654650431
 20
7.562029355765872
 30
0.0
 11
28.92110654650429
 21
8.962029355765878
 31
0.0
  0
LINE
  5
35BD
330
34C3
100
AcDbEntity
  8
0
 62
     0
100
AcDbLine
 10
30.67110654650429
 20
10.71202935576587
 30
0.0
 11
31.58407695499602
 21
11.6249997642576
 31
0.0
  0
LINE
  5
35BE
330
34C3
100
AcDbEntity
  8
0
 62
     0
100
AcDbLine
 10
23.53407695499601
 20
3.574999764257597
 30
0.0
 11
26.39649106098346
 21
6.437413870245023
 31
0.0
  0
LINE
  5
35BF
330
34C3
100
AcDbEntity
  8
0
 62
     0
100
AcDbLine
 10
27.52110654650431
 20
8.011042161819318
 30
0.0
 11
28.92110654650429
 21
9.411042161819295
 31
0.0
  0
LINE
  5
35C0
330
34C3
100
AcDbEntity
  8
0
 62
     0
100
AcDbLine
 10
25.07110654650432
 20
5.561042161819329
 30
0.0
 11
26.27619733252419
 21
6.766132947839167
 31
0.0
  0
LINE
  5
35C1
330
34C3
100
AcDbEntity
  8
0
 62
     0
100
AcDbLine
 10
30.67110654650432
 20
11.16104216181932
 30
0.0
 11
31.1350641489426
 21
11.6249997642576
 31
0.0
  0
LINE
  5
35C2
330
34C3
100
AcDbEntity
  8
0
 62
     0
100
AcDbLine
 10
23.14919182550812
 20
3.639127440823131
 30
0.0
 11
24.48506414894257
 21
4.974999764257574
 31
0.0
  0
LINE
  5
35C3
330
34C3
100
AcDbEntity
  8
0
 62
     0
100
AcDbLine
 10
25.06117125894067
 20
6.000119680309126
 30
0.0
 11
26.11444768009391
 21
7.053396101462368
 31
0.0
  0
LINE
  5
35C4
330
34C3
100
AcDbEntity
  8
0
 62
     0
100
AcDbLine
 10
27.52110654650431
 20
8.460054967872764
 30
0.0
 11
28.92110654650432
 21
9.860054967872798
 31
0.0
  0
LINE
  5
35C5
330
34C3
100
AcDbEntity
  8
0
 62
     0
100
AcDbLine
 10
23.05860654650428
 20
3.997554967872758
 30
0.0
 11
24.03605134288909
 21
4.974999764257574
 31
0.0
  0
LINE
  5
35C6
330
34C3
100
AcDbEntity
  8
0
 62
     0
100
AcDbLine
 10
24.92397884037123
 20
6.311940067793187
 30
0.0
 11
25.91651212113001
 21
7.304473348551965
 31
0.0
  0
LINE
  5
35C7
330
34C3
100
AcDbEntity
  8
0
 62
     0
100
AcDbLine
 10
27.52110654650428
 20
8.909067773926238
 30
0.0
 11
28.92110654650432
 21
10.30906777392627
 31
0.0
  0
LINE
  5
35C8
330
34C3
100
AcDbEntity
  8
0
 62
     0
100
AcDbLine
 10
23.05860654650428
 20
4.446567773926204
 30
0.0
 11
23.58703853683564
 21
4.974999764257603
 31
0.0
  0
LINE
  5
35C9
330
34C3
100
AcDbEntity
  8
0
 62
     0
100
AcDbLine
 10
27.52110654650431
 20
9.358080579979684
 30
0.0
 11
28.92110654650434
 21
10.75808057997969
 31
0.0
  0
LINE
  5
35CA
330
34C3
100
AcDbEntity
  8
0
 62
     0
100
AcDbLine
 10
24.7033413918127
 20
6.540315425288042
 30
0.0
 11
25.69329088547388
 21
7.530264918949256
 31
0.0
  0
LINE
  5
35CB
330
34C3
100
AcDbEntity
  8
0
 62
     0
100
AcDbLine
 10
24.47883498878596
 20
6.764821828314779
 30
0.0
 11
25.46878448244711
 21
7.754771321975937
 31
0.0
  0
LINE
  5
35CC
330
34C3
100
AcDbEntity
  8
0
 62
     0
100
AcDbLine
 10
27.52110654650428
 20
9.80709338603313
 30
0.0
 11
28.92110654650432
 21
11.20709338603316
 31
0.0
  0
LINE
  5
35CD
330
34C3
100
AcDbEntity
  8
0
 62
     0
100
AcDbLine
 10
21.28901292472872
 20
3.574999764257569
 30
0.0
 11
21.7461065465043
 21
4.032093386033125
 31
0.0
  0
LINE
  5
35CE
330
34C3
100
AcDbEntity
  8
0
 62
     0
100
AcDbLine
 10
24.25432858575925
 20
6.989328231341573
 30
0.0
 11
25.24427807942038
 21
7.979277725002674
 31
0.0
  0
LINE
  5
35CF
330
34C3
100
AcDbEntity
  8
0
 62
     0
100
AcDbLine
 10
27.52110654650428
 20
10.2561061920866
 30
0.0
 11
28.82801609245499
 21
11.56301573803727
 31
0.0
  0
LINE
  5
35D0
330
34C3
100
AcDbEntity
  8
0
 62
     0
100
AcDbLine
 10
20.84000011867524
 20
3.574999764257569
 30
0.0
 11
21.74610654650433
 21
4.481106192086627
 31
0.0
  0
LINE
  5
35D1
330
34C3
100
AcDbEntity
  8
0
 62
     0
100
AcDbLine
 10
24.02982218273248
 20
7.213834634368254
 30
0.0
 11
25.01977167639364
 21
8.203784128029411
 31
0.0
  0
LINE
  5
35D2
330
34C3
100
AcDbEntity
  8
0
 62
     0
100
AcDbLine
 10
27.52110654650428
 20
10.70511899814005
 30
0.0
 11
28.44098731262184
 21
11.62499976425763
 31
0.0
  0
LINE
  5
35D3
330
34C3
100
AcDbEntity
  8
0
 62
     0
100
AcDbLine
 10
20.44679288155279
 20
3.630805333188561
 30
0.0
 11
21.7461065465043
 21
4.930118998140102
 31
0.0
  0
LINE
  5
35D4
330
34C3
100
AcDbEntity
  8
0
 62
     0
100
AcDbLine
 10
23.80531577970578
 20
7.438341037394962
 30
0.0
 11
24.79526527336693
 21
8.42829053105612
 31
0.0
  0
LINE
  5
35D5
330
34C3
100
AcDbEntity
  8
0
 62
     0
100
AcDbLine
 10
27.52110654650428
 20
11.15413180419349
 30
0.0
 11
27.99197450656842
 21
11.6249997642576
 31
0.0
  0
LINE
  5
35D6
330
34C3
100
AcDbEntity
  8
0
 62
     0
100
AcDbLine
 10
20.34610654650433
 20
3.979131804193542
 30
0.0
 11
21.74610654650433
 21
5.379131804193519
 31
0.0
  0
LINE
  5
35D7
330
34C3
100
AcDbEntity
  8
0
 62
     0
100
AcDbLine
 10
23.58080937667904
 20
7.6628474404217
 30
0.0
 11
24.5707588703402
 21
8.652796934082857
 31
0.0
  0
LINE
  5
35D8
330
34C3
100
AcDbEntity
  8
0
 62
     0
100
AcDbLine
 10
20.34610654650433
 20
4.428144610247016
 30
0.0
 11
21.7461065465043
 21
5.828144610246994
 31
0.0
  0
LINE
  5
35D9
330
34C3
100
AcDbEntity
  8
0
 62
     0
100
AcDbLine
 10
23.35731742615837
 20
7.888368295954535
 30
0.0
 11
24.34930419284938
 21
8.88035506264552
 31
0.0
  0
LINE
  5
35DA
330
34C3
100
AcDbEntity
  8
0
 62
     0
100
AcDbLine
 10
20.34610654650433
 20
4.877157416300462
 30
0.0
 11
21.7461065465043
 21
6.277157416300468
 31
0.0
  0
LINE
  5
35DB
330
34C3
100
AcDbEntity
  8
0
 62
     0
100
AcDbLine
 10
25.69394889446147
 20
10.2249997642576
 30
0.0
 11
26.20860654650434
 21
10.73965741630047
 31
0.0
  0
LINE
  5
35DC
330
34C3
100
AcDbEntity
  8
0
 62
     0
100
AcDbLine
 10
19.09977843414921
 20
3.630829303945347
 30
0.0
 11
19.14460461487672
 21
3.675655484672887
 31
0.0
  0
LINE
  5
35DD
330
34C3
100
AcDbEntity
  8
0
 62
     0
100
AcDbLine
 10
23.15831633674739
 20
8.138380012596968
 30
0.0
 11
24.20813347545669
 21
9.188197151306269
 31
0.0
  0
LINE
  5
35DE
330
34C3
100
AcDbEntity
  8
0
 62
     0
100
AcDbLine
 10
20.34610654650433
 20
5.326170222353908
 30
0.0
 11
21.74610654650433
 21
6.726170222353886
 31
0.0
  0
LINE
  5
35DF
330
34C3
100
AcDbEntity
  8
0
 62
     0
100
AcDbLine
 10
25.24493608840802
 20
10.2249997642576
 30
0.0
 11
26.20860654650434
 21
11.18867022235392
 31
0.0
  0
LINE
  5
35E0
330
34C3
100
AcDbEntity
  8
0
 62
     0
100
AcDbLine
 10
18.59493608840799
 20
3.574999764257569
 30
0.0
 11
19.12782563656122
 21
4.107889312410776
 31
0.0
  0
LINE
  5
35E1
330
34C3
100
AcDbEntity
  8
0
 62
     0
100
AcDbLine
 10
22.99539920454904
 20
8.424475686452097
 30
0.0
 11
24.19610654650435
 21
9.625183028407377
 31
0.0
  0
LINE
  5
35E2
330
34C3
100
AcDbEntity
  8
0
 62
     0
100
AcDbLine
 10
20.34610654650433
 20
5.775183028407354
 30
0.0
 11
21.7461065465043
 21
7.17518302840736
 31
0.0
  0
LINE
  5
35E3
330
34C3
100
AcDbEntity
  8
0
 62
     0
100
AcDbLine
 10
24.79592328235458
 20
10.2249997642576
 30
0.0
 11
26.12527208060538
 21
11.55434856250843
 31
0.0
  0
LINE
  5
35E4
330
34C3
100
AcDbEntity
  8
0
 62
     0
100
AcDbLine
 10
18.14592328235454
 20
3.574999764257569
 30
0.0
 11
19.02006256310841
 21
4.449139045011463
 31
0.0
  0
LINE
  5
35E5
330
34C3
100
AcDbEntity
  8
0
 62
     0
100
AcDbLine
 10
20.3461065465043
 20
6.224195834460829
 30
0.0
 11
21.7461065465043
 21
7.624195834460806
 31
0.0
  0
LINE
  5
35E6
330
34C3
100
AcDbEntity
  8
0
 62
     0
100
AcDbLine
 10
22.873708173214
 20
8.751797461170525
 30
0.0
 11
25.74691047630108
 21
11.6249997642576
 31
0.0
  0
LINE
  5
35E7
330
34C3
100
AcDbEntity
  8
0
 62
     0
100
AcDbLine
 10
17.849916127027
 20
3.728005414983527
 30
0.0
 11
18.91229948965556
 21
4.790388777612093
 31
0.0
  0
LINE
  5
35E8
330
34C3
100
AcDbEntity
  8
0
 62
     0
100
AcDbLine
 10
20.3461065465043
 20
6.673208640514303
 30
0.0
 11
21.74610654650428
 21
8.07320864051428
 31
0.0
  0
LINE
  5
35E9
330
34C3
100
AcDbEntity
  8
0
 62
     0
100
AcDbLine
 10
22.80435474367115
 20
9.131456837681156
 30
0.0
 11
25.29789767024763
 21
11.6249997642576
 31
0.0
  0
LINE
  5
35EA
330
34C3
100
AcDbEntity
  8
0
 62
     0
100
AcDbLine
 10
17.7405364162027
 20
4.067638510212702
 30
0.0
 11
18.80453641620269
 21
5.131638510212695
 31
0.0
  0
LINE
  5
35EB
330
34C3
100
AcDbEntity
  8
0
 62
     0
100
AcDbLine
 10
20.34610654650433
 20
7.122221446567721
 30
0.0
 11
21.7461065465043
 21
8.522221446567726
 31
0.0
  0
LINE
  5
35EC
330
34C3
100
AcDbEntity
  8
0
 62
     0
100
AcDbLine
 10
22.79610654650432
 20
9.572221446567709
 30
0.0
 11
24.84888486419419
 21
11.6249997642576
 31
0.0
  0
LINE
  5
35ED
330
34C3
100
AcDbEntity
  8
0
 62
     0
100
AcDbLine
 10
17.63277334274988
 20
4.408888242813304
 30
0.0
 11
18.69677334274993
 21
5.472888242813326
 31
0.0
  0
LINE
  5
35EE
330
34C3
100
AcDbEntity
  8
0
 62
     0
100
AcDbLine
 10
20.3461065465043
 20
7.571234252621195
 30
0.0
 11
21.7461065465043
 21
8.971234252621172
 31
0.0
  0
LINE
  5
35EF
330
34C3
100
AcDbEntity
  8
0
 62
     0
100
AcDbLine
 10
22.79610654650434
 20
10.02123425262121
 30
0.0
 11
24.39987205814074
 21
11.6249997642576
 31
0.0
  0
LINE
  5
35F0
330
34C3
100
AcDbEntity
  8
0
 62
     0
100
AcDbLine
 10
17.52501026929701
 20
4.750137975413906
 30
0.0
 11
18.58901026929709
 21
5.814137975413956
 31
0.0
  0
LINE
  5
35F1
330
34C3
100
AcDbEntity
  8
0
 62
     0
100
AcDbLine
 10
20.3461065465043
 20
8.020247058674641
 30
0.0
 11
21.74610654650433
 21
9.420247058674675
 31
0.0
  0
LINE
  5
35F2
330
34C3
100
AcDbEntity
  8
0
 62
     0
100
AcDbLine
 10
17.41724719584419
 20
5.091387708014565
 30
0.0
 11
18.48124719584424
 21
6.155387708014586
 31
0.0
  0
LINE
  5
35F3
330
34C3
100
AcDbEntity
  8
0
 62
     0
100
AcDbLine
 10
22.82276488156492
 20
10.49690539373528
 30
0.0
 11
23.92420091702658
 21
11.59834142919694
 31
0.0
  0
LINE
  5
35F4
330
34C3
100
AcDbEntity
  8
0
 62
     0
100
AcDbLine
 10
15.9008592520872
 20
3.574999764257569
 30
0.0
 11
16.32110654650429
 21
3.995247058674664
 31
0.0
  0
LINE
  5
35F5
330
34C3
100
AcDbEntity
  8
0
 62
     0
100
AcDbLine
 10
17.30948412239141
 20
5.432637440615167
 30
0.0
 11
18.37348412239137
 21
6.49663744061516
 31
0.0
  0
LINE
  5
35F6
330
34C3
100
AcDbEntity
  8
0
 62
     0
100
AcDbLine
 10
20.3461065465043
 20
8.469259864728087
 30
0.0
 11
21.74610654650433
 21
9.869259864728121
 31
0.0
  0
LINE
  5
35F7
330
34C3
100
AcDbEntity
  8
0
 62
     0
100
AcDbLine
 10
15.45184644603378
 20
3.57499976425754
 30
0.0
 11
16.32110654650432
 21
4.44425986472811
 31
0.0
  0
LINE
  5
35F8
330
34C3
100
AcDbEntity
  8
0
 62
     0
100
AcDbLine
 10
17.20172104893856
 20
5.773887173215797
 30
0.0
 11
18.26572104893858
 21
6.837887173215847
 31
0.0
  0
LINE
  5
35F9
330
34C3
100
AcDbEntity
  8
0
 62
     0
100
AcDbLine
 10
20.3461065465043
 20
8.918272670781561
 30
0.0
 11
21.74610654650433
 21
10.31827267078156
 31
0.0
  0
LINE
  5
35FA
330
34C3
100
AcDbEntity
  8
0
 62
     0
100
AcDbLine
 10
15.04340851380595
 20
3.615574638083216
 30
0.0
 11
16.32110654650432
 21
4.893272670781556
 31
0.0
  0
LINE
  5
35FB
330
34C3
100
AcDbEntity
  8
0
 62
     0
100
AcDbLine
 10
17.09395797548572
 20
6.115136905816427
 30
0.0
 11
18.15795797548574
 21
7.179136905816477
 31
0.0
  0
LINE
  5
35FC
330
34C3
100
AcDbEntity
  8
0
 62
     0
100
AcDbLine
 10
20.3461065465043
 20
9.367285476835007
 30
0.0
 11
21.7461065465043
 21
10.76728547683504
 31
0.0
  0
LINE
  5
35FD
330
34C3
100
AcDbEntity
  8
0
 62
     0
100
AcDbLine
 10
14.92110654650431
 20
3.942285476835024
 30
0.0
 11
16.32110654650435
 21
5.342285476835058
 31
0.0
  0
LINE
  5
35FE
330
34C3
100
AcDbEntity
  8
0
 62
     0
100
AcDbLine
 10
16.9861949020329
 20
6.456386638417029
 30
0.0
 11
18.05019490203292
 21
7.520386638417079
 31
0.0
  0
LINE
  5
35FF
330
34C3
100
AcDbEntity
  8
0
 62
     0
100
AcDbLine
 10
20.3461065465043
 20
9.816298282888453
 30
0.0
 11
21.74610654650433
 21
11.21629828288848
 31
0.0
  0
LINE
  5
3600
330
34C3
100
AcDbEntity
  8
0
 62
     0
100
AcDbLine
 10
14.92110654650431
 20
4.39129828288847
 30
0.0
 11
16.32110654650435
 21
5.791298282888504
 31
0.0
  0
LINE
  5
3601
330
34C3
100
AcDbEntity
  8
0
 62
     0
100
AcDbLine
 10
16.86879550854703
 20
6.788000050984663
 30
0.0
 11
18.18394254251248
 21
8.103147084950109
 31
0.0
  0
LINE
  5
3602
330
34C3
100
AcDbEntity
  8
0
 62
     0
100
AcDbLine
 10
20.34610654650433
 20
10.26531108894195
 30
0.0
 11
21.64796883525511
 21
11.56717337769271
 31
0.0
  0
LINE
  5
3603
330
34C3
100
AcDbEntity
  8
0
 62
     0
100
AcDbLine
 10
14.92110654650431
 20
4.840311088941945
 30
0.0
 11
16.32110654650435
 21
6.24031108894195
 31
0.0
  0
LINE
  5
3604
330
34C3
100
AcDbEntity
  8
0
 62
     0
100
AcDbLine
 10
16.52520282361334
 20
6.893420172104441
 30
0.0
 11
18.39117922222945
 21
8.759396570720554
 31
0.0
  0
LINE
  5
3605
330
34C3
100
AcDbEntity
  8
0
 62
     0
100
AcDbLine
 10
14.92110654650431
 20
5.289323894995391
 30
0.0
 11
16.32768613865747
 21
6.695903487148541
 31
0.0
  0
LINE
  5
3606
330
34C3
100
AcDbEntity
  8
0
 62
     0
100
AcDbLine
 10
20.34610654650433
 20
10.7143238949954
 30
0.0
 11
21.2567824157665
 21
11.6249997642576
 31
0.0
  0
LINE
  5
3607
330
34C3
100
AcDbEntity
  8
0
 62
     0
100
AcDbLine
 10
13.20678241576649
 20
3.574999764257569
 30
0.0
 11
13.69610654650432
 21
4.064323894995425
 31
0.0
  0
LINE
  5
3608
330
34C3
100
AcDbEntity
  8
0
 62
     0
100
AcDbLine
 10
14.92110654650429
 20
5.738336701048865
 30
0.0
 11
18.59841590194642
 21
9.41564605649097
 31
0.0
  0
LINE
  5
3609
330
34C3
100
AcDbEntity
  8
0
 62
     0
100
AcDbLine
 10
20.3461065465043
 20
11.16333670104887
 30
0.0
 11
20.80776960971303
 21
11.6249997642576
 31
0.0
  0
LINE
  5
360A
330
34C3
100
AcDbEntity
  8
0
 62
     0
100
AcDbLine
 10
12.75776960971302
 20
3.574999764257597
 30
0.0
 11
13.69610654650432
 21
4.513336701048899
 31
0.0
  0
LINE
  5
360B
330
34C3
100
AcDbEntity
  8
0
 62
     0
100
AcDbLine
 10
14.92110654650431
 20
6.187349507102283
 30
0.0
 11
18.80565258166345
 21
10.07189554226141
 31
0.0
  0
LINE
  5
360C
330
34C3
100
AcDbEntity
  8
0
 62
     0
100
AcDbLine
 10
12.31459711583463
 20
3.580840076432622
 30
0.0
 11
13.62543940470124
 21
4.891682365299203
 31
0.0
  0
LINE
  5
360D
330
34C3
100
AcDbEntity
  8
0
 62
     0
100
AcDbLine
 10
14.92110654650429
 20
6.636362313155757
 30
0.0
 11
16.58474399760612
 21
8.299999764257592
 31
0.0
  0
LINE
  5
360E
330
34C3
100
AcDbEntity
  8
0
 62
     0
100
AcDbLine
 10
16.96673541522648
 20
8.681991181877947
 30
0.0
 11
19.01288926138045
 21
10.72814502803189
 31
0.0
  0
LINE
  5
360F
330
34C3
100
AcDbEntity
  8
0
 62
     0
100
AcDbLine
 10
11.93051685711114
 20
3.645772623762582
 30
0.0
 11
13.2597439976061
 21
4.974999764257574
 31
0.0
  0
LINE
  5
3610
330
34C3
100
AcDbEntity
  8
0
 62
     0
100
AcDbLine
 10
14.92110654650429
 20
7.085375119209231
 30
0.0
 11
16.33010183185845
 21
8.494370404563369
 31
0.0
  0
LINE
  5
3611
330
34C3
100
AcDbEntity
  8
0
 62
     0
100
AcDbLine
 10
17.17397209494345
 20
9.338240667648364
 30
0.0
 11
19.20042498728113
 21
11.36469355998608
 31
0.0
  0
LINE
  5
3612
330
34C3
100
AcDbEntity
  8
0
 62
     0
100
AcDbLine
 10
11.59994972869793
 20
3.764218301402877
 30
0.0
 11
12.81073119155266
 21
4.974999764257574
 31
0.0
  0
LINE
  5
3613
330
34C3
100
AcDbEntity
  8
0
 62
     0
100
AcDbLine
 10
14.92110654650431
 20
7.534387925262649
 30
0.0
 11
16.32110654650432
 21
8.934387925262683
 31
0.0
  0
LINE
  5
3614
330
34C3
100
AcDbEntity
  8
0
 62
     0
100
AcDbLine
 10
17.3812087746605
 20
9.994490153418865
 30
0.0
 11
19.00341905099654
 21
11.6167004297549
 31
0.0
  0
LINE
  5
3615
330
34C3
100
AcDbEntity
  8
0
 62
     0
100
AcDbLine
 10
11.31114808661578
 20
3.924429465374117
 30
0.0
 11
12.36917901586221
 21
4.982460394620574
 31
0.0
  0
LINE
  5
3616
330
34C3
100
AcDbEntity
  8
0
 62
     0
100
AcDbLine
 10
14.92110654650429
 20
7.983400731316123
 30
0.0
 11
16.32110654650432
 21
9.383400731316157
 31
0.0
  0
LINE
  5
3617
330
34C3
100
AcDbEntity
  8
0
 62
     0
100
AcDbLine
 10
17.58844545437747
 20
10.65073963918928
 30
0.0
 11
18.56270557944574
 21
11.62499976425758
 31
0.0
  0
LINE
  5
3618
330
34C3
100
AcDbEntity
  8
0
 62
     0
100
AcDbLine
 10
11.05867060342475
 20
4.120964788236562
 30
0.0
 11
12.05202094535306
 21
5.114315130164868
 31
0.0
  0
LINE
  5
3619
330
34C3
100
AcDbEntity
  8
0
 62
     0
100
AcDbLine
 10
14.92110654650429
 20
8.432413537369569
 30
0.0
 11
16.32110654650432
 21
9.832413537369603
 31
0.0
  0
LINE
  5
361A
330
34C3
100
AcDbEntity
  8
0
 62
     0
100
AcDbLine
 10
13.25192361239254
 20
6.763230603257852
 30
0.0
 11
13.83287570750408
 21
7.344182698369394
 31
0.0
  0
LINE
  5
361B
330
34C3
100
AcDbEntity
  8
0
 62
     0
100
AcDbLine
 10
17.79568213409442
 20
11.30698912495972
 30
0.0
 11
18.11369277339233
 21
11.62499976425763
 31
0.0
  0
LINE
  5
361C
330
34C3
100
AcDbEntity
  8
0
 62
     0
100
AcDbLine
 10
10.84045206675983
 20
4.351759057625145
 30
0.0
 11
11.84689546971696
 21
5.358202460582276
 31
0.0
  0
LINE
  5
361D
330
34C3
100
AcDbEntity
  8
0
 62
     0
100
AcDbLine
 10
12.78943719157763
 20
6.749756988496415
 30
0.0
 11
13.84634932226552
 21
7.806669119184277
 31
0.0
  0
LINE
  5
361E
330
34C3
100
AcDbEntity
  8
0
 62
     0
100
AcDbLine
 10
14.92110654650426
 20
8.881426343423044
 30
0.0
 11
16.32110654650429
 21
10.28142634342307
 31
0.0
  0
LINE
  5
361F
330
34C3
100
AcDbEntity
  8
0
 62
     0
100
AcDbLine
 10
10.65694245428835
 20
4.617262251207108
 30
0.0
 11
11.77110654650431
 21
5.731426343423095
 31
0.0
  0
LINE
  5
3620
330
34C3
100
AcDbEntity
  8
0
 62
     0
100
AcDbLine
 10
12.48236390686753
 20
6.891696509839704
 30
0.0
 11
13.7044098009222
 21
8.113742403894406
 31
0.0
  0
LINE
  5
3621
330
34C3
100
AcDbEntity
  8
0
 62
     0
100
AcDbLine
 10
14.92110654650429
 20
9.33043914947649
 30
0.0
 11
16.32110654650432
 21
10.73043914947649
 31
0.0
  0
LINE
  5
3622
330
34C3
100
AcDbEntity
  8
0
 62
     0
100
AcDbLine
 10
10.51128369932598
 20
4.920616302298185
 30
0.0
 11
11.77110654650431
 21
6.180439149476512
 31
0.0
  0
LINE
  5
3623
330
34C3
100
AcDbEntity
  8
0
 62
     0
100
AcDbLine
 10
12.26338394337267
 20
7.121729352398347
 30
0.0
 11
13.47437695836359
 21
8.332722367389237
 31
0.0
  0
LINE
  5
3624
330
34C3
100
AcDbEntity
  8
0
 62
     0
100
AcDbLine
 10
14.92110654650429
 20
9.779451955529935
 30
0.0
 11
16.32110654650429
 21
11.17945195552997
 31
0.0
  0
LINE
  5
3625
330
34C3
100
AcDbEntity
  8
0
 62
     0
100
AcDbLine
 10
10.41071501723865
 20
5.269060426264331
 30
0.0
 11
11.77110654650431
 21
6.629451955529987
 31
0.0
  0
LINE
  5
3626
330
34C3
100
AcDbEntity
  8
0
 62
     0
100
AcDbLine
 10
12.13535857716848
 20
7.442716792247608
 30
0.0
 11
13.1533895185143
 21
8.46074773359345
 31
0.0
  0
LINE
  5
3627
330
34C3
100
AcDbEntity
  8
0
 62
     0
100
AcDbLine
 10
10.37110654650428
 20
5.678464761583427
 30
0.0
 11
11.77110654650431
 21
7.078464761583433
 31
0.0
  0
LINE
  5
3628
330
34C3
100
AcDbEntity
  8
0
 62
     0
100
AcDbLine
 10
14.92110654650426
 20
10.22846476158341
 30
0.0
 11
16.24248149232676
 21
11.5498397074059
 31
0.0
  0
LINE
  5
3629
330
34C3
100
AcDbEntity
  8
0
 62
     0
100
AcDbLine
 10
8.328108167566483
 20
3.635466382645631
 30
0.0
 11
9.260639928116347
 21
4.567998143195495
 31
0.0
  0
LINE
  5
362A
330
34C3
100
AcDbEntity
  8
0
 62
     0
100
AcDbLine
 10
12.19456511890888
 20
7.950936140041449
 30
0.0
 11
12.64517017072049
 21
8.401541191853056
 31
0.0
  0
LINE
  5
362B
330
34C3
100
AcDbEntity
  8
0
 62
     0
100
AcDbLine
 10
10.37110654650428
 20
6.127477567636844
 30
0.0
 11
11.77110654650431
 21
7.527477567636879
 31
0.0
  0
LINE
  5
362C
330
34C3
100
AcDbEntity
  8
0
 62
     0
100
AcDbLine
 10
14.92110654650429
 20
10.67747756763682
 30
0.0
 11
15.86862874312507
 21
11.62499976425763
 31
0.0
  0
LINE
  5
362D
330
34C3
100
AcDbEntity
  8
0
 62
     0
100
AcDbLine
 10
7.818628743125003
 20
3.574999764257569
 30
0.0
 11
9.321106546504324
 21
5.07747756763689
 31
0.0
  0
LINE
  5
362E
330
34C3
100
AcDbEntity
  8
0
 62
     0
100
AcDbLine
 10
10.37110654650428
 20
6.576490373690319
 30
0.0
 11
11.77110654650431
 21
7.976490373690353
 31
0.0
  0
LINE
  5
362F
330
34C3
100
AcDbEntity
  8
0
 62
     0
100
AcDbLine
 10
14.92110654650426
 20
11.1264903736903
 30
0.0
 11
15.41961593707156
 21
11.6249997642576
 31
0.0
  0
LINE
  5
3630
330
34C3
100
AcDbEntity
  8
0
 62
     0
100
AcDbLine
 10
7.369615937071557
 20
3.574999764257569
 30
0.0
 11
9.321106546504324
 21
5.526490373690364
 31
0.0
  0
LINE
  5
3631
330
34C3
100
AcDbEntity
  8
0
 62
     0
100
AcDbLine
 10
10.37110654650428
 20
7.025503179743765
 30
0.0
 11
11.77110654650428
 21
8.425503179743799
 31
0.0
  0
LINE
  5
3632
330
34C3
100
AcDbEntity
  8
0
 62
     0
100
AcDbLine
 10
6.920603131018083
 20
3.574999764257597
 30
0.0
 11
9.319136870223729
 21
5.973533503463244
 31
0.0
  0
LINE
  5
3633
330
34C3
100
AcDbEntity
  8
0
 62
     0
100
AcDbLine
 10
10.37110654650428
 20
7.474515985797239
 30
0.0
 11
11.77110654650431
 21
8.874515985797273
 31
0.0
  0
LINE
  5
3634
330
34C3
100
AcDbEntity
  8
0
 62
     0
100
AcDbLine
 10
13.12159032496467
 20
10.22499976425763
 30
0.0
 11
13.69610654650435
 21
10.79951598579728
 31
0.0
  0
LINE
  5
3635
330
34C3
100
AcDbEntity
  8
0
 62
     0
100
AcDbLine
 10
6.471590324964637
 20
3.574999764257597
 30
0.0
 11
9.264305952063068
 21
6.367715391356028
 31
0.0
  0
LINE
  5
3636
330
34C3
100
AcDbEntity
  8
0
 62
     0
100
AcDbLine
 10
10.37110654650428
 20
7.923528791850685
 30
0.0
 11
11.77110654650431
 21
9.323528791850691
 31
0.0
  0
LINE
  5
3637
330
34C3
100
AcDbEntity
  8
0
 62
     0
100
AcDbLine
 10
7.921106546504319
 20
5.473528791850725
 30
0.0
 11
9.153136580041007
 21
6.705558825387413
 31
0.0
  0
LINE
  5
3638
330
34C3
100
AcDbEntity
  8
0
 62
     0
100
AcDbLine
 10
12.67257751891117
 20
10.22499976425757
 30
0.0
 11
13.69610654650432
 21
11.24852879185073
 31
0.0
  0
LINE
  5
3639
330
34C3
100
AcDbEntity
  8
0
 62
     0
100
AcDbLine
 10
6.051440456541143
 20
3.60386270188755
 30
0.0
 11
7.422577518911168
 21
4.974999764257574
 31
0.0
  0
LINE
  5
363A
330
34C3
100
AcDbEntity
  8
0
 62
     0
100
AcDbLine
 10
10.37110654650425
 20
8.372541597904131
 30
0.0
 11
11.85401389939414
 21
9.855448950794027
 31
0.0
  0
LINE
  5
363B
330
34C3
100
AcDbEntity
  8
0
 62
     0
100
AcDbLine
 10
7.92002700069969
 20
5.921462052099542
 30
0.0
 11
8.998920812704994
 21
7.000355864104875
 31
0.0
  0
LINE
  5
363C
330
34C3
100
AcDbEntity
  8
0
 62
     0
100
AcDbLine
 10
12.14065735996791
 20
10.14209241136779
 30
0.0
 11
13.57937283904442
 21
11.58080789044427
 31
0.0
  0
LINE
  5
363D
330
34C3
100
AcDbEntity
  8
0
 62
     0
100
AcDbLine
 10
5.908606546504273
 20
3.910041597904154
 30
0.0
 11
6.973564712857751
 21
4.974999764257631
 31
0.0
  0
LINE
  5
363E
330
34C3
100
AcDbEntity
  8
0
 62
     0
100
AcDbLine
 10
7.810225490949335
 20
6.26067334840269
 30
0.0
 11
8.807799830285546
 21
7.258247687738901
 31
0.0
  0
LINE
  5
363F
330
34C3
100
AcDbEntity
  8
0
 62
     0
100
AcDbLine
 10
10.37110654650425
 20
8.821554403957605
 30
0.0
 11
13.17455190680428
 21
11.62499976425763
 31
0.0
  0
LINE
  5
3640
330
34C3
100
AcDbEntity
  8
0
 62
     0
100
AcDbLine
 10
5.908606546504273
 20
4.359054403957628
 30
0.0
 11
6.524551906804248
 21
4.974999764257603
 31
0.0
  0
LINE
  5
3641
330
34C3
100
AcDbEntity
  8
0
 62
     0
100
AcDbLine
 10
7.597098076796982
 20
6.496558740303754
 30
0.0
 11
8.587047570458167
 21
7.48650823396494
 31
0.0
  0
LINE
  5
3642
330
34C3
100
AcDbEntity
  8
0
 62
     0
100
AcDbLine
 10
10.37110654650428
 20
9.270567210011023
 30
0.0
 11
12.72553910075075
 21
11.62499976425752
 31
0.0
  0
LINE
  5
3643
330
34C3
100
AcDbEntity
  8
0
 62
     0
100
AcDbLine
 10
5.943082507514191
 20
4.842543171020963
 30
0.0
 11
6.041063139740998
 21
4.940523803247771
 31
0.0
  0
LINE
  5
3644
330
34C3
100
AcDbEntity
  8
0
 62
     0
100
AcDbLine
 10
10.38109410358256
 20
9.729567573142787
 30
0.0
 11
12.26653873761907
 21
11.61501220717932
 31
0.0
  0
LINE
  5
3645
330
34C3
100
AcDbEntity
  8
0
 62
     0
100
AcDbLine
 10
7.372591673770187
 20
6.721065143330434
 30
0.0
 11
8.36254116743143
 21
7.711014636991677
 31
0.0
  0
LINE
  5
3646
330
34C3
100
AcDbEntity
  8
0
 62
     0
100
AcDbLine
 10
10.53082581971546
 20
10.32831209532918
 30
0.0
 11
11.6677942154327
 21
11.46528049104642
 31
0.0
  0
LINE
  5
3647
330
34C3
100
AcDbEntity
  8
0
 62
     0
100
AcDbLine
 10
7.14808527074345
 20
6.945571546357172
 30
0.0
 11
8.138034764404693
 21
7.935521040018414
 31
0.0
  0
LINE
  5
3648
330
34C3
100
AcDbEntity
  8
0
 62
     0
100
AcDbLine
 10
6.923578867716827
 20
7.170077949383966
 30
0.0
 11
7.913528361377956
 21
8.160027443045066
 31
0.0
  0
LINE
  5
3649
330
34C3
100
AcDbEntity
  8
0
 62
     0
100
AcDbLine
 10
6.69907246469009
 20
7.394584352410703
 30
0.0
 11
7.689021958351219
 21
8.384533846071803
 31
0.0
  0
LINE
  5
364A
330
34C3
100
AcDbEntity
  8
0
 62
     0
100
AcDbLine
 10
6.474566061663267
 20
7.619090755437355
 30
0.0
 11
7.464515555324481
 21
8.609040249098541
 31
0.0
  0
LINE
  5
364B
330
34C3
100
AcDbEntity
  8
0
 62
     0
100
AcDbLine
 10
8.631462264430069
 20
10.22499976425763
 30
0.0
 11
9.05860654650425
 21
10.65214404633181
 31
0.0
  0
LINE
  5
364C
330
34C3
100
AcDbEntity
  8
0
 62
     0
100
AcDbLine
 10
6.250101315650653
 20
7.843638815478215
 30
0.0
 11
7.240134137366879
 21
8.833671637194441
 31
0.0
  0
LINE
  5
364D
330
34C3
100
AcDbEntity
  8
0
 62
     0
100
AcDbLine
 10
8.182449458376595
 20
10.22499976425757
 30
0.0
 11
9.058606546504307
 21
11.10115685238528
 31
0.0
  0
LINE
  5
364E
330
34C3
100
AcDbEntity
  8
0
 62
     0
100
AcDbLine
 10
6.044367353374866
 20
8.086917659255817
 30
0.0
 11
7.075185696722911
 21
9.117736002603891
 31
0.0
  0
LINE
  5
364F
330
34C3
100
AcDbEntity
  8
0
 62
     0
100
AcDbLine
 10
7.733436652323121
 20
10.22499976425757
 30
0.0
 11
9.015327096623735
 21
11.50689020855818
 31
0.0
  0
LINE
  5
3650
330
34C3
100
AcDbEntity
  8
0
 62
     0
100
AcDbLine
 10
5.874137050243632
 20
8.365700162178058
 30
0.0
 11
7.04610654650429
 21
9.537669658438744
 31
0.0
  0
LINE
  5
3651
330
34C3
100
AcDbEntity
  8
0
 62
     0
100
AcDbLine
 10
7.283190521684616
 20
10.22376643967251
 30
0.0
 11
8.684423846269709
 21
11.6249997642576
 31
0.0
  0
LINE
  5
3652
330
34C3
100
AcDbEntity
  8
0
 62
     0
100
AcDbLine
 10
5.743790402377584
 20
8.684366320365484
 30
0.0
 11
7.047339871089377
 21
9.987915789077305
 31
0.0
  0
LINE
  5
3653
330
34C3
100
AcDbEntity
  8
0
 62
     0
100
AcDbLine
 10
5.662884421253551
 20
9.052473145294896
 30
0.0
 11
8.235411040216263
 21
11.6249997642576
 31
0.0
  0
LINE
  5
3654
330
34C3
100
AcDbEntity
  8
0
 62
     0
100
AcDbLine
 10
5.646106546504313
 20
9.484708076599105
 30
0.0
 11
7.786398234162788
 21
11.6249997642576
 31
0.0
  0
LINE
  5
3655
330
34C3
100
AcDbEntity
  8
0
 62
     0
100
AcDbLine
 10
5.646106546504285
 20
9.933720882652579
 30
0.0
 11
7.337385428109342
 21
11.6249997642576
 31
0.0
  0
LINE
  5
3656
330
34C3
100
AcDbEntity
  8
0
 62
     0
100
AcDbLine
 10
5.656202551723453
 20
10.39282969392519
 30
0.0
 11
6.878276616836757
 21
11.61490375903849
 31
0.0
  0
ENDBLK
  5
3658
330
34C3
100
AcDbEntity
  8
0
100
AcDbBlockEnd
  0
BLOCK
  5
379E
330
3794
100
AcDbEntity
  8
0
100
AcDbBlockBegin
  2
*D2
 70
     1
 10
0.0
 20
0.0
 30
0.0
  3
*D2
  1

  0
LINE
  5
391C
330
3794
100
AcDbEntity
  8
SUNPOU
100
AcDbLine
 10
134.0163218319844
 20
115.1654254747097
 30
0.0
 11
134.0163218319844
 21
135.7527214673553
 31
0.0
  0
LINE
  5
391D
330
3794
100
AcDbEntity
  8
SUNPOU
100
AcDbLine
 10
214.5221097453844
 20
115.1654254747097
 30
0.0
 11
214.5221097453844
 21
135.7527214673553
 31
0.0
  0
LINE
  5
391E
330
3794
100
AcDbEntity
  8
SUNPOU
100
AcDbLine
 10
137.0163218319844
 20
134.2527214673553
 30
0.0
 11
211.5221097453844
 21
134.2527214673553
 31
0.0
  0
INSERT
  5
391F
330
3794
100
AcDbEntity
  8
SUNPOU
100
AcDbBlockReference
  2
_OPEN
 10
134.0163218319844
 20
134.2527214673553
 30
0.0
 41
3.0
 42
3.0
 43
3.0
 50
180.0
  0
INSERT
  5
3920
330
3794
100
AcDbEntity
  8
SUNPOU
100
AcDbBlockReference
  2
_OPEN
 10
214.5221097453844
 20
134.2527214673553
 30
0.0
 41
3.0
 42
3.0
 43
3.0
  0
MTEXT
  5
3921
330
3794
100
AcDbEntity
  8
SUNPOU
100
AcDbMText
 10
174.2692157886844
 20
137.2527214673553
 30
0.0
 40
3.0
 41
0.0
 71
     5
 72
     1
  1
\A1;φ81
1001
ACAD
1000
MTEXTBEGIN
1070
    73
1070
     1
1070
    44
1040
1.0
1070
    74
1070
     0
1000
MTEXTEND
1000
MTEXTBEGIN
1070
    73
1070
     1
1070
    44
1040
1.0
1070
    74
1070
     0
1000
MTEXTEND
  0
POINT
  5
3922
330
3794
100
AcDbEntity
  8
DEFPOINTS
 62
     0
100
AcDbPoint
 10
134.0163218319844
 20
113.6654254747097
 30
0.0
  0
POINT
  5
3923
330
3794
100
AcDbEntity
  8
DEFPOINTS
 62
     0
100
AcDbPoint
 10
214.5221097453844
 20
113.6654254747097
 30
0.0
  0
POINT
  5
3924
330
3794
100
AcDbEntity
  8
DEFPOINTS
 62
     0
100
AcDbPoint
 10
214.5221097453844
 20
134.2527214673553
 30
0.0
  0
ENDBLK
  5
379F
330
3794
100
AcDbEntity
  8
0
100
AcDbBlockEnd
  0
BLOCK
  5
37A6
330
37A0
100
AcDbEntity
  8
0
100
AcDbBlockBegin
  2
*D3
 70
     1
 10
0.0
 20
0.0
 30
0.0
  3
*D3
  1

  0
LINE
  5
39EE
330
37A0
100
AcDbEntity
  8
SUNPOU
100
AcDbLine
 10
192.9100564695941
 20
220.8318300918648
 30
0.0
 11
155.6283751077749
 21
176.401252390964
 31
0.0
  0
MTEXT
  5
39EF
330
37A0
100
AcDbEntity
  8
SUNPOU
100
AcDbMText
 10
164.7657728597659
 20
193.6052090203296
 30
0.0
 40
3.0
 41
0.0
 71
     5
 72
     1
  1
\A1;\U+220564
 11
0.6427876096865387
 21
0.7660444431189789
 31
0.0
  0
INSERT
  5
39F0
330
37A0
100
AcDbEntity
  8
SUNPOU
100
AcDbBlockReference
  2
_OPEN
 10
194.8384192986537
 20
223.1299634212217
 30
0.0
 41
3.0
 42
3.0
 43
3.0
 50
50.00000000000007
  0
INSERT
  5
39F1
330
37A0
100
AcDbEntity
  8
SUNPOU
100
AcDbBlockReference
  2
_OPEN
 10
153.7000122787153
 20
174.1031190616071
 30
0.0
 41
3.0
 42
3.0
 43
3.0
 50
230.0
  0
POINT
  5
39F2
330
37A0
100
AcDbEntity
  8
DEFPOINTS
 62
     0
100
AcDbPoint
 10
153.7000122787153
 20
174.1031190616071
 30
0.0
  0
POINT
  5
39F3
330
37A0
100
AcDbEntity
  8
DEFPOINTS
 62
     0
100
AcDbPoint
 10
194.8384192986537
 20
223.1299634212217
 30
0.0
  0
ENDBLK
  5
37A7
330
37A0
100
AcDbEntity
  8
0
100
AcDbBlockEnd
  0
BLOCK
  5
37B2
330
37A8
100
AcDbEntity
  8
0
100
AcDbBlockBegin
  2
*D4
 70
     1
 10
0.0
 20
0.0
 30
0.0
  3
*D4
  1

  0
LINE
  5
390A
330
37A8
100
AcDbEntity
  8
SUNPOU
100
AcDbLine
 10
212.9035206710844
 20
75.76542547470971
 30
0.0
 11
249.3177830571351
 21
75.7654254747097
 31
0.0
  0
LINE
  5
390B
330
37A8
100
AcDbEntity
  8
SUNPOU
100
AcDbLine
 10
213.9192157886844
 20
114.1654254747097
 30
0.0
 11
249.3177830571351
 21
114.1654254747097
 31
0.0
  0
LINE
  5
390C
330
37A8
100
AcDbEntity
  8
SUNPOU
100
AcDbLine
 10
247.817783057135
 20
78.7654254747097
 30
0.0
 11
247.817783057135
 21
111.1654254747097
 31
0.0
  0
INSERT
  5
390D
330
37A8
100
AcDbEntity
  8
SUNPOU
100
AcDbBlockReference
  2
_OPEN
 10
247.817783057135
 20
75.7654254747097
 30
0.0
 41
3.0
 42
3.0
 43
3.0
 50
270.0
  0
INSERT
  5
390E
330
37A8
100
AcDbEntity
  8
SUNPOU
100
AcDbBlockReference
  2
_OPEN
 10
247.817783057135
 20
114.1654254747097
 30
0.0
 41
3.0
 42
3.0
 43
3.0
 50
90.0
  0
MTEXT
  5
390F
330
37A8
100
AcDbEntity
  8
SUNPOU
100
AcDbMText
 10
244.817783057135
 20
94.96542547470975
 30
0.0
 40
3.0
 41
0.0
 71
     5
 72
     1
  1
\A1;38
 11
0.0000000000000001
 21
1.0
 31
0.0
1001
ACAD
1000
MTEXTBEGIN
1070
    73
1070
     1
1070
    44
1040
1.0
1070
    74
1070
     0
1000
MTEXTEND
1000
MTEXTBEGIN
1070
    73
1070
     1
1070
    44
1040
1.0
1070
    74
1070
     0
1000
MTEXTEND
  0
POINT
  5
3910
330
37A8
100
AcDbEntity
  8
DEFPOINTS
 62
     0
100
AcDbPoint
 10
211.4035206710844
 20
75.76542547470971
 30
0.0
  0
POINT
  5
3911
330
37A8
100
AcDbEntity
  8
DEFPOINTS
 62
     0
100
AcDbPoint
 10
212.4192157886844
 20
114.1654254747097
 30
0.0
  0
POINT
  5
3912
330
37A8
100
AcDbEntity
  8
DEFPOINTS
 62
     0
100
AcDbPoint
 10
247.817783057135
 20
114.1654254747097
 30
0.0
  0
ENDBLK
  5
37B3
330
37A8
100
AcDbEntity
  8
0
100
AcDbBlockEnd
  0
BLOCK
  5
38FF
330
38F5
100
AcDbEntity
  8
0
100
AcDbBlockBegin
  2
*D5
 70
     1
 10
0.0
 20
0.0
 30
0.0
  3
*D5
  1

  0
LINE
  5
3913
330
38F5
100
AcDbEntity
  8
SUNPOU
100
AcDbLine
 10
211.4035206710844
 20
74.26542547470972
 30
0.0
 11
211.4035206710844
 21
48.51664777025906
 31
0.0
  0
LINE
  5
3914
330
38F5
100
AcDbEntity
  8
SUNPOU
100
AcDbLine
 10
137.1349109063432
 20
74.26542547470972
 30
0.0
 11
137.1349109063432
 21
48.51664777025906
 31
0.0
  0
LINE
  5
3915
330
38F5
100
AcDbEntity
  8
SUNPOU
100
AcDbLine
 10
208.4035206710844
 20
50.01664777025905
 30
0.0
 11
140.1349109063432
 21
50.01664777025905
 31
0.0
  0
INSERT
  5
3916
330
38F5
100
AcDbEntity
  8
SUNPOU
100
AcDbBlockReference
  2
_OPEN
 10
211.4035206710844
 20
50.01664777025905
 30
0.0
 41
3.0
 42
3.0
 43
3.0
  0
INSERT
  5
3917
330
38F5
100
AcDbEntity
  8
SUNPOU
100
AcDbBlockReference
  2
_OPEN
 10
137.1349109063432
 20
50.01664777025905
 30
0.0
 41
3.0
 42
3.0
 43
3.0
 50
180.0
  0
MTEXT
  5
3918
330
38F5
100
AcDbEntity
  8
SUNPOU
100
AcDbMText
 10
174.2692157887139
 20
53.01664777025905
 30
0.0
 40
3.0
 41
0.0
 71
     5
 72
     1
  1
\A1;φ74
1001
ACAD
1000
MTEXTBEGIN
1070
    73
1070
     1
1070
    44
1040
1.0
1070
    74
1070
     0
1000
MTEXTEND
1000
MTEXTBEGIN
1070
    73
1070
     1
1070
    44
1040
1.0
1070
    74
1070
     0
1000
MTEXTEND
  0
POINT
  5
3919
330
38F5
100
AcDbEntity
  8
DEFPOINTS
 62
     0
100
AcDbPoint
 10
211.4035206710844
 20
75.76542547470971
 30
0.0
  0
POINT
  5
391A
330
38F5
100
AcDbEntity
  8
DEFPOINTS
 62
     0
100
AcDbPoint
 10
137.1349109063432
 20
75.76542547470971
 30
0.0
  0
POINT
  5
391B
330
38F5
100
AcDbEntity
  8
DEFPOINTS
 62
     0
100
AcDbPoint
 10
137.1349109063432
 20
50.01664777025905
 30
0.0
  0
ENDBLK
  5
3900
330
38F5
100
AcDbEntity
  8
0
100
AcDbBlockEnd
  0
ENDSEC
  0
SECTION
  2
ENTITIES
  0
TEXT
  5
2C80
330
1A
100
AcDbEntity
  8
SUNPOU
100
AcDbText
 10
322.4467870133165
 20
24.44819022565849
 30
0.0
 40
3.0
  1
※　エルボの差込み寸法を示す
100
AcDbText
  0
POLYLINE
  5
33A9
330
1A
100
AcDbEntity
  8
ZUWAKU
100
AcDb2dPolyline
 66
     1
 10
0.0
 20
0.0
 30
0.0
 70
     1
  0
VERTEX
  5
39D5
330
33A9
100
AcDbEntity
  8
ZUWAKU
100
AcDbVertex
100
AcDb2dVertex
 10
0.4000004691137065
 20
275.3999997642576
 30
0.0
  0
VERTEX
  5
39D6
330
33A9
100
AcDbEntity
  8
ZUWAKU
100
AcDbVertex
100
AcDb2dVertex
 10
0.4000004691137065
 20
0.3999997642576431
 30
0.0
  0
VERTEX
  5
39D7
330
33A9
100
AcDbEntity
  8
ZUWAKU
100
AcDbVertex
100
AcDb2dVertex
 10
398.4000004691137
 20
0.3999997642576431
 30
0.0
  0
VERTEX
  5
39D8
330
33A9
100
AcDbEntity
  8
ZUWAKU
100
AcDbVertex
100
AcDb2dVertex
 10
398.4000004691137
 20
275.3999997642576
 30
0.0
  0
SEQEND
  5
39D9
330
33A9
100
AcDbEntity
  8
ZUWAKU
  0
POLYLINE
  5
33AA
330
1A
100
AcDbEntity
  8
ZUWAKU
100
AcDb2dPolyline
 66
     1
 10
0.0
 20
0.0
 30
0.0
 70
     1
  0
VERTEX
  5
39DA
330
33AA
100
AcDbEntity
  8
ZUWAKU
100
AcDbVertex
100
AcDb2dVertex
 10
0.2000004691137178
 20
275.5999997642576
 30
0.0
  0
VERTEX
  5
39DB
330
33AA
100
AcDbEntity
  8
ZUWAKU
100
AcDbVertex
100
AcDb2dVertex
 10
0.2000004691137178
 20
0.1999997642576545
 30
0.0
  0
VERTEX
  5
39DC
330
33AA
100
AcDbEntity
  8
ZUWAKU
100
AcDbVertex
100
AcDb2dVertex
 10
398.6000004691137
 20
0.199999764257643
 30
0.0
  0
VERTEX
  5
39DD
330
33AA
100
AcDbEntity
  8
ZUWAKU
100
AcDbVertex
100
AcDb2dVertex
 10
398.6000004691137
 20
275.5999997642576
 30
0.0
  0
SEQEND
  5
39DE
330
33AA
100
AcDbEntity
  8
ZUWAKU
  0
POLYLINE
  5
33AB
330
1A
100
AcDbEntity
  8
ZUWAKU
100
AcDb2dPolyline
 66
     1
 10
0.0
 20
0.0
 30
0.0
 70
     1
  0
VERTEX
  5
39DF
330
33AB
100
AcDbEntity
  8
ZUWAKU
100
AcDbVertex
100
AcDb2dVertex
 10
0.0000004691137292
 20
275.7999997642576
 30
0.0
  0
VERTEX
  5
39E0
330
33AB
100
AcDbEntity
  8
ZUWAKU
100
AcDbVertex
100
AcDb2dVertex
 10
0.0000004691137292
 20
-0.0000002357423909
 30
0.0
  0
VERTEX
  5
39E1
330
33AB
100
AcDbEntity
  8
ZUWAKU
100
AcDbVertex
100
AcDb2dVertex
 10
398.8000004691138
 20
-0.0000002357423572
 30
0.0
  0
VERTEX
  5
39E2
330
33AB
100
AcDbEntity
  8
ZUWAKU
100
AcDbVertex
100
AcDb2dVertex
 10
398.8000004691138
 20
275.7999997642576
 30
0.0
  0
SEQEND
  5
39E3
330
33AB
100
AcDbEntity
  8
ZUWAKU
  0
POLYLINE
  5
33AC
330
1A
100
AcDbEntity
  8
ZUWAKU
100
AcDb2dPolyline
 66
     1
 10
0.0
 20
0.0
 30
0.0
 70
     1
  0
VERTEX
  5
39E4
330
33AC
100
AcDbEntity
  8
ZUWAKU
100
AcDbVertex
100
AcDb2dVertex
 10
0.3000004691136837
 20
275.4999997642576
 30
0.0
  0
VERTEX
  5
39E5
330
33AC
100
AcDbEntity
  8
ZUWAKU
100
AcDbVertex
100
AcDb2dVertex
 10
0.3000004691136837
 20
0.2999997642576204
 30
0.0
  0
VERTEX
  5
39E6
330
33AC
100
AcDbEntity
  8
ZUWAKU
100
AcDbVertex
100
AcDb2dVertex
 10
398.5000004691138
 20
0.2999997642576435
 30
0.0
  0
VERTEX
  5
39E7
330
33AC
100
AcDbEntity
  8
ZUWAKU
100
AcDbVertex
100
AcDb2dVertex
 10
398.5000004691137
 20
275.4999997642576
 30
0.0
  0
SEQEND
  5
39E8
330
33AC
100
AcDbEntity
  8
ZUWAKU
  0
POLYLINE
  5
33AD
330
1A
100
AcDbEntity
  8
ZUWAKU
100
AcDb2dPolyline
 66
     1
 10
0.0
 20
0.0
 30
0.0
 70
     1
  0
VERTEX
  5
39E9
330
33AD
100
AcDbEntity
  8
ZUWAKU
100
AcDbVertex
100
AcDb2dVertex
 10
0.1000004691136951
 20
275.6999997642576
 30
0.0
  0
VERTEX
  5
39EA
330
33AD
100
AcDbEntity
  8
ZUWAKU
100
AcDbVertex
100
AcDb2dVertex
 10
0.1000004691136951
 20
0.0999997642576318
 30
0.0
  0
VERTEX
  5
39EB
330
33AD
100
AcDbEntity
  8
ZUWAKU
100
AcDbVertex
100
AcDb2dVertex
 10
398.7000004691136
 20
0.0999997642576434
 30
0.0
  0
VERTEX
  5
39EC
330
33AD
100
AcDbEntity
  8
ZUWAKU
100
AcDbVertex
100
AcDb2dVertex
 10
398.7000004691137
 20
275.6999997642576
 30
0.0
  0
SEQEND
  5
39ED
330
33AD
100
AcDbEntity
  8
ZUWAKU
  0
LINE
  5
33AE
330
1A
100
AcDbEntity
  8
ZUWAKU
100
AcDbLine
 10
104.3233011141477
 20
7.599999764257628
 30
0.0
 11
223.7121824546094
 21
7.599999764257624
 31
0.0
  0
LINE
  5
33AF
330
1A
100
AcDbEntity
  8
ZUWAKU
100
AcDbLine
 10
104.3233011141477
 20
7.799999764257625
 30
0.0
 11
223.7121824546094
 21
7.799999764257629
 31
0.0
  0
LINE
  5
33B0
330
1A
100
AcDbEntity
  8
ZUWAKU
100
AcDbLine
 10
104.3233011141477
 20
7.699999764257626
 30
0.0
 11
223.7121824546094
 21
7.699999764257626
 31
0.0
  0
TEXT
  5
33B1
330
1A
100
AcDbEntity
  8
MOJI
100
AcDbText
 10
119.9136018095392
 20
2.304271005144125
 30
0.0
 40
2.799999999999999
  1
ＵＲＴ６０
 41
0.9
  7
MSPｺ_ｼｯｸ
100
AcDbText
  0
LINE
  5
33B2
330
1A
100
AcDbEntity
  8
ZUWAKU
100
AcDbLine
 10
0.0000004691137292
 20
14.9999997642576
 30
0.0
 11
398.7000004691136
 21
14.9999997642576
 31
0.0
  0
LINE
  5
33B3
330
1A
100
AcDbEntity
  8
ZUWAKU
100
AcDbLine
 10
0.0000004691137292
 20
15.09999976425761
 30
0.0
 11
398.7000004691136
 21
15.09999976425761
 31
0.0
  0
LINE
  5
33B4
330
1A
100
AcDbEntity
  8
ZUWAKU
100
AcDbLine
 10
0.0000004691137292
 20
15.19999976425761
 30
0.0
 11
398.7000004691136
 21
15.19999976425761
 31
0.0
  0
LINE
  5
33B5
330
1A
100
AcDbEntity
  8
ZUWAKU
100
AcDbLine
 10
0.0000004691137292
 20
15.29999976425761
 30
0.0
 11
398.7000004691136
 21
15.29999976425761
 31
0.0
  0
LINE
  5
33B6
330
1A
100
AcDbEntity
  8
ZUWAKU
100
AcDbLine
 10
0.0000004691137292
 20
15.39999976425761
 30
0.0
 11
398.7000004691136
 21
15.39999976425761
 31
0.0
  0
ARC
  5
33B7
330
1A
100
AcDbEntity
  8
ZUWAKU
100
AcDbCircle
 10
24.37110654650428
 20
5.882600776935262
 30
0.0
 40
2.099999999999999
100
AcDbArc
 50
0.0
 51
45.0
  0
ARC
  5
33B8
330
1A
100
AcDbEntity
  8
ZUWAKU
100
AcDbCircle
 10
25.07110654650432
 20
4.97499976425761
 30
0.0
 40
1.399999999999999
100
AcDbArc
 50
270.0
 51
0.0
  0
INSERT
  5
33B9
330
1A
100
AcDbEntity
  8
ZUWAKU
  6
CONTINUOUS
100
AcDbBlockReference
  2
*X1
 10
0.0
 20
0.0
 30
0.0
1001
ACAD
1000
HATCH
1002
{
1070
    19
1000
ANSI37
1040
0.1
1040
0.0
1000
R14_HATCH_DATA
1000
33B9
1011
1.0
1021
0.0
1031
0.0
1011
0.0
1021
1.0
1031
0.0
1011
0.0
1021
0.0
1031
1.0
1040
0.0
1010
0.0
1020
0.0
1030
1.0
1000
ANSI37
1070
     0
1070
     0
1071
        8
1071
        7
1070
     1
1070
     1
1071
       24
1040
7.251131799673657
1040
8.8224240047494
1040
-0.1989123673796348
1040
7.04610654650429
1040
9.317398751579926
1040
0.0
1040
7.04610654650429
1040
9.962499764257614
1040
-0.4142135623730912
1040
7.308606546504279
1040
10.22499976425761
1040
0.0
1040
8.796106546504233
1040
10.22499976425761
1040
0.4142135623731546
1040
9.058606546504279
1040
10.4874997642576
1040
0.0
1040
9.058606546504279
1040
11.36249976425761
1040
0.4142135623731586
1040
8.796106546504233
1040
11.62499976425761
1040
0.0
1040
7.04610654650429
1040
11.62499976425761
1040
0.4142135623730928
1040
5.646106546504313
1040
10.22499976425762
1040
0.0
1040
5.646106546504313
1040
9.31739875157999
1040
0.1989123673796619
1040
6.261182306012528
1040
7.832474511088186
1040
0.0
1040
7.716081293334866
1040
6.377575523765857
1040
-0.1989123673796613
1040
7.92110654650429
1040
5.882600776935264
1040
0.0
1040
7.92110654650429
1040
5.237499764257606
1040
-0.4142135623730911
1040
7.658606546504302
1040
4.97499976425761
1040
0.0
1040
6.171106546504347
1040
4.97499976425761
1040
0.4142135623731526
1040
5.908606546504302
1040
4.712499764257616
1040
0.0
1040
5.908606546504302
1040
3.837499764257605
1040
0.4142135623731526
1040
6.171106546504347
1040
3.574999764257611
1040
0.0
1040
7.92110654650429
1040
3.574999764257611
1040
0.4142135623731044
1040
9.321106546504324
1040
4.974999764257599
1040
0.0
1040
9.321106546504324
1040
5.882600776935236
1040
0.1989123673796604
1040
8.706030786996052
1040
7.367525017427006
1040
0.0
1071
        0
1071
        7
1070
     1
1070
     1
1071
       16
1040
11.77110654650431
1040
9.524999764257614
1040
-0.4142135623730935
1040
12.4711065465043
1040
10.22499976425761
1040
0.0
1040
13.43360654650427
1040
10.22499976425761
1040
0.4142135623731546
1040
13.69610654650432
1040
10.4874997642576
1040
0.0
1040
13.69610654650432
1040
11.36249976425761
1040
0.4142135623730951
1040
13.43360654650433
1040
11.62499976425761
1040
0.0
1040
12.47110654650424
1040
11.62499976425759
1040
0.4142135623730892
1040
10.37110654650428
1040
9.524999764257579
1040
0.0
1040
10.37110654650428
1040
5.674999764257623
1040
0.4142135623730969
1040
12.4711065465043
1040
3.574999764257611
1040
0.0
1040
13.43360654650427
1040
3.574999764257611
1040
0.4142135623731526
1040
13.69610654650432
1040
3.837499764257605
1040
0.0
1040
13.69610654650432
1040
4.712499764257616
1040
0.4142135623730891
1040
13.43360654650433
1040
4.97499976425761
1040
0.0
1040
12.4711065465043
1040
4.97499976425761
1040
-0.4142135623730928
1040
11.77110654650431
1040
5.674999764257604
1040
0.0
1071
        0
1071
        7
1070
     1
1070
     1
1071
        2
1040
12.12110654650428
1040
7.59999976425761
1040
1.0
1040
13.87110654650427
1040
7.59999976425761
1040
1.0
1071
        0
1071
        7
1070
     1
1070
     1
1071
       26
1040
18.65742978759328
1040
9.602523361039324
1040
0.0
1040
19.18824960416219
1040
11.28345278017411
1040
0.5069206636600134
1040
18.93793415456451
1040
11.62499976425761
1040
0.0
1040
18.0884894647599
1040
11.62499976425761
1040
0.3272098845218764
1040
17.83817401516222
1040
11.44154674834109
1040
0.0
1040
16.90403907784633
1040
8.48345278017415
1040
-0.3272098845219541
1040
16.6537236282486
1040
8.299999764257609
1040
0.0
1040
16.58360654650437
1040
8.299999764257609
1040
-0.4142135623731526
1040
16.32110654650432
1040
8.562499764257603
1040
0.0
1040
16.32110654650432
1040
11.36249976425761
1040
0.4142135623730951
1040
16.05860654650433
1040
11.62499976425761
1040
0.0
1040
15.18360654650428
1040
11.62499976425761
1040
0.4142135623730871
1040
14.92110654650429
1040
11.36249976425762
1040
0.0
1040
14.92110654650429
1040
3.837499764257605
1040
0.4142135623730891
1040
15.18360654650428
1040
3.574999764257611
1040
0.0
1040
16.05860654650427
1040
3.574999764257611
1040
0.4142135623731526
1040
16.32110654650432
1040
3.837499764257605
1040
0.0
1040
16.32110654650432
1040
6.637499764257617
1040
-0.4142135623731526
1040
16.58360654650437
1040
6.899999764257611
1040
0.0
1040
16.65372362824865
1040
6.899999764257611
1040
-0.3272098845218915
1040
16.90403907784633
1040
6.716546748341073
1040
0.0
1040
17.83817401516222
1040
3.758452780174147
1040
0.3272098845218902
1040
18.0884894647599
1040
3.574999764257611
1040
0.0
1040
18.93793415456451
1040
3.574999764257611
1040
0.5069206636600335
1040
19.18824960416219
1040
3.916546748341115
1040
0.0
1040
18.02505391492536
1040
7.599999764257679
1040
0.0
1071
        0
1071
        7
1070
     1
1070
     1
1071
        8
1040
21.74610654650428
1040
11.36249976425761
1040
0.4142135623731546
1040
21.48360654650423
1040
11.62499976425761
1040
0.0
1040
20.60860654650434
1040
11.62499976425761
1040
0.4142135623731507
1040
20.3461065465043
1040
11.36249976425762
1040
0.0
1040
20.3461065465043
1040
3.837499764257605
1040
0.4142135623731526
1040
20.60860654650434
1040
3.574999764257611
1040
0.0
1040
21.48360654650423
1040
3.574999764257611
1040
0.4142135623731526
1040
21.74610654650428
1040
3.837499764257605
1040
0.0
1071
        0
1071
        7
1070
     1
1070
     1
1071
       24
1040
24.19610654650432
1040
9.962499764257614
1040
-0.4142135623731546
1040
24.45860654650437
1040
10.22499976425761
1040
0.0
1040
25.94610654650432
1040
10.22499976425761
1040
0.4142135623730911
1040
26.20860654650431
1040
10.4874997642576
1040
0.0
1040
26.20860654650431
1040
11.36249976425761
1040
0.4142135623730952
1040
25.94610654650432
1040
11.62499976425761
1040
0.0
1040
24.19610654650432
1040
11.62499976425761
1040
0.4142135623731048
1040
22.79610654650429
1040
10.22499976425762
1040
0.0
1040
22.79610654650429
1040
9.31739875157999
1040
0.1989123673796613
1040
23.41118230601256
1040
7.832474511088214
1040
0.0
1040
24.8660812933349
1040
6.37757552376588
1040
-0.1989123673796402
1040
25.07110654650432
1040
5.882600776935344
1040
0.0
1040
25.07110654650432
1040
5.237499764257606
1040
-0.4142135623730911
1040
24.80860654650433
1040
4.97499976425761
1040
0.0
1040
23.32110654650432
1040
4.97499976425761
1040
0.4142135623731526
1040
23.05860654650428
1040
4.712499764257616
1040
0.0
1040
23.05860654650428
1040
3.837499764257605
1040
0.4142135623730891
1040
23.32110654650426
1040
3.574999764257611
1040
0.0
1040
25.07110654650432
1040
3.574999764257611
1040
0.4142135623730925
1040
26.4711065465043
1040
4.974999764257599
1040
0.0
1040
26.4711065465043
1040
5.882600776935236
1040
0.1989123673796675
1040
25.85603078699603
1040
7.367525017427063
1040
0.0
1040
24.40113179967374
1040
8.82242400474932
1040
-0.1989123673796652
1040
24.19610654650432
1040
9.317398751579904
1040
0.0
1071
        0
1071
        7
1070
     1
1070
     1
1071
       16
1040
28.92110654650429
1040
11.3624997642576
1040
0.414213562373103
1040
28.6586065465043
1040
11.62499976425761
1040
0.0
1040
27.7836065465043
1040
11.62499976425761
1040
0.4142135623730871
1040
27.52110654650431
1040
11.36249976425762
1040
0.0
1040
27.52110654650431
1040
4.974999764257599
1040
0.4142135623730926
1040
28.92110654650429
1040
3.574999764257611
1040
0.0
1040
30.67110654650429
1040
3.574999764257611
1040
0.4142135623731044
1040
32.07110654650432
1040
4.974999764257599
1040
0.0
1040
32.07110654650432
1040
11.36249976425761
1040
0.4142135623730951
1040
31.80860654650433
1040
11.62499976425761
1040
0.0
1040
30.93360654650428
1040
11.62499976425761
1040
0.4142135623730871
1040
30.67110654650429
1040
11.36249976425762
1040
0.0
1040
30.67110654650429
1040
5.499999764257598
1040
-0.414213562373088
1040
30.14610654650431
1040
4.97499976425761
1040
0.0
1040
29.44610654650432
1040
4.97499976425761
1040
-0.4142135623731197
1040
28.92110654650429
1040
5.499999764257598
1040
0.0
1071
        0
1071
        7
1070
     1
1070
     1
1071
        8
1040
34.52110654650431
1040
11.36249976425762
1040
0.4142135623730871
1040
34.25860654650432
1040
11.62499976425761
1040
0.0
1040
33.38360654650432
1040
11.62499976425761
1040
0.4142135623731507
1040
33.12110654650428
1040
11.36249976425762
1040
0.0
1040
33.12110654650428
1040
3.837499764257605
1040
0.4142135623730891
1040
33.38360654650426
1040
3.574999764257611
1040
0.0
1040
34.25860654650432
1040
3.574999764257611
1040
0.4142135623730891
1040
34.52110654650431
1040
3.837499764257605
1040
0.0
1071
        0
1070
     0
1070
     1
1040
0.0
1040
0.1
1070
     0
1070
     2
1040
0.7853981633974483
1040
-450.4711516982257
1040
-6.600000235742356
1040
-0.2245064030267288
1040
0.2245064030267288
1070
     0
1040
2.356194490192344
1040
-450.4711516982257
1040
-6.600000235742356
1040
-0.2245064030267288
1040
-0.2245064030267288
1070
     0
1040
0.057451373970553
1071
        8
1040
8.039927950625383
1040
7.583586587200386
1040
0.0
1040
11.20225797233331
1040
9.422030855483114
1040
0.0
1040
12.58218441194355
1040
7.755940587292968
1040
0.0
1040
15.45703045993229
1040
8.10064858747836
1040
0.0
1040
20.91923647859209
1040
8.330454721249168
1040
0.0
1040
23.4491009166785
1040
9.709287922461214
1040
0.0
1040
28.2788434553139
1040
9.364578721805116
1040
0.0
1040
33.91354027892509
1040
9.594384855575924
1040
0.0
1002
}
  0
LINE
  5
33BA
330
1A
100
AcDbEntity
  8
ZUWAKU
100
AcDbLine
 10
17.83817401516222
 20
11.44154674834109
 30
0.0
 11
16.90403907784633
 21
8.483452780174125
 31
0.0
  0
LINE
  5
33BB
330
1A
100
AcDbEntity
  8
ZUWAKU
100
AcDbLine
 10
16.32110654650432
 20
8.562499764257612
 30
0.0
 11
16.32110654650432
 21
11.3624997642576
 31
0.0
  0
LINE
  5
33BC
330
1A
100
AcDbEntity
  8
ZUWAKU
100
AcDbLine
 10
14.92110654650429
 20
11.3624997642576
 30
0.0
 11
14.92110654650429
 21
3.837499764257611
 31
0.0
  0
LINE
  5
33BD
330
1A
100
AcDbEntity
  8
ZUWAKU
100
AcDbLine
 10
10.37110654650428
 20
5.674999764257613
 30
0.0
 11
10.37110654650428
 21
9.524999764257589
 31
0.0
  0
LINE
  5
33BE
330
1A
100
AcDbEntity
  8
ZUWAKU
100
AcDbLine
 10
11.77110654650431
 20
9.524999764257611
 30
0.0
 11
11.77110654650431
 21
5.674999764257613
 31
0.0
  0
LINE
  5
33BF
330
1A
100
AcDbEntity
  8
ZUWAKU
100
AcDbLine
 10
21.74610654650428
 20
3.837499764257611
 30
0.0
 11
21.74610654650428
 21
11.3624997642576
 31
0.0
  0
LINE
  5
33C0
330
1A
100
AcDbEntity
  8
ZUWAKU
100
AcDbLine
 10
20.3461065465043
 20
11.3624997642576
 30
0.0
 11
20.3461065465043
 21
3.837499764257611
 31
0.0
  0
LINE
  5
33C1
330
1A
100
AcDbEntity
  8
ZUWAKU
100
AcDbLine
 10
18.65742978759328
 20
9.602523361039324
 30
0.0
 11
18.02505391492536
 21
7.599999764257621
 31
0.0
  0
ARC
  5
33C2
330
1A
100
AcDbEntity
  8
ZUWAKU
100
AcDbCircle
 10
24.89610654650431
 20
9.317398751579961
 30
0.0
 40
2.099999999999999
100
AcDbArc
 50
180.0
 51
225.0
  0
ARC
  5
33C3
330
1A
100
AcDbEntity
  8
ZUWAKU
100
AcDbCircle
 10
24.89610654650431
 20
9.317398751579961
 30
0.0
 40
0.7
100
AcDbArc
 50
180.0000000000016
 51
224.9999999999988
  0
ARC
  5
33C4
330
1A
100
AcDbEntity
  8
ZUWAKU
100
AcDbCircle
 10
7.746106546504279
 20
9.317398751579961
 30
0.0
 40
0.7
100
AcDbArc
 50
180.0000000000016
 51
224.9999999999988
  0
ARC
  5
33C5
330
1A
100
AcDbEntity
  8
ZUWAKU
100
AcDbCircle
 10
7.746106546504279
 20
9.317398751579961
 30
0.0
 40
2.099999999999999
100
AcDbArc
 50
180.0
 51
225.0
  0
ARC
  5
33C6
330
1A
100
AcDbEntity
  8
ZUWAKU
100
AcDbCircle
 10
12.4711065465043
 20
5.674999764257613
 30
0.0
 40
2.099999999999999
100
AcDbArc
 50
180.0
 51
270.0
  0
ARC
  5
33C7
330
1A
100
AcDbEntity
  8
ZUWAKU
100
AcDbCircle
 10
7.92110654650429
 20
4.97499976425761
 30
0.0
 40
1.399999999999999
100
AcDbArc
 50
270.0
 51
0.0
  0
ARC
  5
33C8
330
1A
100
AcDbEntity
  8
ZUWAKU
100
AcDbCircle
 10
7.221106546504302
 20
5.882600776935262
 30
0.0
 40
2.099999999999999
100
AcDbArc
 50
0.0
 51
45.0
  0
ARC
  5
33C9
330
1A
100
AcDbEntity
  8
ZUWAKU
100
AcDbCircle
 10
7.221106546504302
 20
5.882600776935284
 30
0.0
 40
0.7
100
AcDbArc
 50
0.0
 51
45.0
  0
LINE
  5
33CA
330
1A
100
AcDbEntity
  8
ZUWAKU
100
AcDbLine
 10
7.92110654650429
 20
5.237499764257613
 30
0.0
 11
7.92110654650429
 21
5.882600776935284
 31
0.0
  0
LINE
  5
33CB
330
1A
100
AcDbEntity
  8
ZUWAKU
100
AcDbLine
 10
9.321106546504324
 20
4.97499976425761
 30
0.0
 11
9.321106546504324
 21
5.882600776935284
 31
0.0
  0
LINE
  5
33CC
330
1A
100
AcDbEntity
  8
ZUWAKU
100
AcDbLine
 10
6.17110654650429
 20
4.97499976425761
 30
0.0
 11
7.658606546504302
 21
4.97499976425761
 31
0.0
  0
ARC
  5
33CD
330
1A
100
AcDbEntity
  8
ZUWAKU
100
AcDbCircle
 10
6.17110654650429
 20
4.712499764257611
 30
0.0
 40
0.2625
100
AcDbArc
 50
90.0
 51
180.0
  0
ARC
  5
33CE
330
1A
100
AcDbEntity
  8
ZUWAKU
100
AcDbCircle
 10
6.17110654650429
 20
3.837499764257611
 30
0.0
 40
0.2625
100
AcDbArc
 50
180.0
 51
270.0
  0
LINE
  5
33CF
330
1A
100
AcDbEntity
  8
ZUWAKU
100
AcDbLine
 10
5.908606546504302
 20
3.837499764257611
 30
0.0
 11
5.908606546504302
 21
4.712499764257611
 31
0.0
  0
LINE
  5
33D0
330
1A
100
AcDbEntity
  8
ZUWAKU
100
AcDbLine
 10
6.261182306012528
 20
7.8324745110882
 30
0.0
 11
7.716081293334866
 21
6.37757552376587
 31
0.0
  0
LINE
  5
33D1
330
1A
100
AcDbEntity
  8
ZUWAKU
100
AcDbLine
 10
6.17110654650429
 20
3.574999764257611
 30
0.0
 11
7.92110654650429
 21
3.574999764257611
 31
0.0
  0
ARC
  5
33D2
330
1A
100
AcDbEntity
  8
ZUWAKU
100
AcDbCircle
 10
7.658606546504302
 20
5.237499764257613
 30
0.0
 40
0.2625
100
AcDbArc
 50
270.0
 51
0.0
  0
LINE
  5
33D3
330
1A
100
AcDbEntity
  8
ZUWAKU
100
AcDbLine
 10
8.706030786996052
 20
7.367525017427023
 30
0.0
 11
7.251131799673714
 21
8.822424004749361
 31
0.0
  0
LINE
  5
33D4
330
1A
100
AcDbEntity
  8
ZUWAKU
100
AcDbLine
 10
19.18824960416219
 20
3.916546748341097
 30
0.0
 11
18.02505391492536
 21
7.599999764257621
 31
0.0
  0
LINE
  5
33D5
330
1A
100
AcDbEntity
  8
ZUWAKU
100
AcDbLine
 10
18.08848946475995
 20
3.574999764257611
 30
0.0
 11
18.93793415456445
 21
3.574999764257611
 31
0.0
  0
LINE
  5
33D6
330
1A
100
AcDbEntity
  8
ZUWAKU
100
AcDbLine
 10
17.83817401516222
 20
3.758452780174124
 30
0.0
 11
16.90403907784633
 21
6.716546748341094
 31
0.0
  0
ARC
  5
33D7
330
1A
100
AcDbEntity
  8
ZUWAKU
100
AcDbCircle
 10
18.08848946475995
 20
3.837499764257611
 30
0.0
 40
0.2625
100
AcDbArc
 50
197.525568373723
 51
270.0
  0
ARC
  5
33D8
330
1A
100
AcDbEntity
  8
ZUWAKU
100
AcDbCircle
 10
16.58360654650431
 20
6.637499764257611
 30
0.0
 40
0.2625
100
AcDbArc
 50
90.0
 51
180.0
  0
ARC
  5
33D9
330
1A
100
AcDbEntity
  8
ZUWAKU
100
AcDbCircle
 10
16.65372362824865
 20
6.637499764257611
 30
0.0
 40
0.2625
100
AcDbArc
 50
17.52556837372303
 51
90.0
  0
LINE
  5
33DA
330
1A
100
AcDbEntity
  8
ZUWAKU
100
AcDbLine
 10
16.32110654650432
 20
3.837499764257611
 30
0.0
 11
16.32110654650432
 21
6.637499764257611
 31
0.0
  0
ARC
  5
33DB
330
1A
100
AcDbEntity
  8
ZUWAKU
100
AcDbCircle
 10
16.05860654650427
 20
3.837499764257611
 30
0.0
 40
0.2625
100
AcDbArc
 50
270.0
 51
0.0
  0
LINE
  5
33DC
330
1A
100
AcDbEntity
  8
ZUWAKU
100
AcDbLine
 10
16.58360654650431
 20
6.899999764257611
 30
0.0
 11
16.65372362824865
 21
6.899999764257611
 31
0.0
  0
LINE
  5
33DD
330
1A
100
AcDbEntity
  8
ZUWAKU
100
AcDbLine
 10
16.65372362824865
 20
8.299999764257609
 30
0.0
 11
16.58360654650431
 21
8.299999764257609
 31
0.0
  0
CIRCLE
  5
33DE
330
1A
100
AcDbEntity
  8
ZUWAKU
100
AcDbCircle
 10
12.99610654650428
 20
7.59999976425761
 30
0.0
 40
0.875
  0
ARC
  5
33DF
330
1A
100
AcDbEntity
  8
ZUWAKU
100
AcDbCircle
 10
12.4711065465043
 20
5.674999764257613
 30
0.0
 40
0.7
100
AcDbArc
 50
180.0
 51
270.0
  0
ARC
  5
33E0
330
1A
100
AcDbEntity
  8
ZUWAKU
100
AcDbCircle
 10
15.18360654650428
 20
3.837499764257611
 30
0.0
 40
0.2625
100
AcDbArc
 50
180.0
 51
270.0
  0
ARC
  5
33E1
330
1A
100
AcDbEntity
  8
ZUWAKU
100
AcDbCircle
 10
13.43360654650427
 20
4.712499764257611
 30
0.0
 40
0.2625
100
AcDbArc
 50
0.0
 51
90.0
  0
ARC
  5
33E2
330
1A
100
AcDbEntity
  8
ZUWAKU
100
AcDbCircle
 10
13.43360654650427
 20
3.837499764257611
 30
0.0
 40
0.2625
100
AcDbArc
 50
270.0
 51
0.0
  0
LINE
  5
33E3
330
1A
100
AcDbEntity
  8
ZUWAKU
100
AcDbLine
 10
13.43360654650427
 20
3.574999764257611
 30
0.0
 11
12.4711065465043
 21
3.574999764257611
 31
0.0
  0
LINE
  5
33E4
330
1A
100
AcDbEntity
  8
ZUWAKU
100
AcDbLine
 10
13.69610654650432
 20
4.712499764257611
 30
0.0
 11
13.69610654650432
 21
3.837499764257611
 31
0.0
  0
LINE
  5
33E5
330
1A
100
AcDbEntity
  8
ZUWAKU
100
AcDbLine
 10
12.4711065465043
 20
4.97499976425761
 30
0.0
 11
13.43360654650427
 21
4.97499976425761
 31
0.0
  0
LINE
  5
33E6
330
1A
100
AcDbEntity
  8
ZUWAKU
100
AcDbLine
 10
15.18360654650428
 20
3.574999764257611
 30
0.0
 11
16.05860654650427
 21
3.574999764257611
 31
0.0
  0
ARC
  5
33E7
330
1A
100
AcDbEntity
  8
ZUWAKU
100
AcDbCircle
 10
16.58360654650431
 20
8.562499764257612
 30
0.0
 40
0.2625
100
AcDbArc
 50
180.0
 51
270.0
  0
ARC
  5
33E8
330
1A
100
AcDbEntity
  8
ZUWAKU
100
AcDbCircle
 10
16.65372362824865
 20
8.562499764257612
 30
0.0
 40
0.2625
100
AcDbArc
 50
270.0
 51
342.4744316262769
  0
ARC
  5
33E9
330
1A
100
AcDbEntity
  8
ZUWAKU
100
AcDbCircle
 10
24.80860654650427
 20
5.237499764257613
 30
0.0
 40
0.2625
100
AcDbArc
 50
270.0
 51
0.0
  0
ARC
  5
33EA
330
1A
100
AcDbEntity
  8
ZUWAKU
100
AcDbCircle
 10
24.37110654650428
 20
5.882600776935284
 30
0.0
 40
0.7
100
AcDbArc
 50
0.0
 51
45.0
  0
LINE
  5
33EB
330
1A
100
AcDbEntity
  8
ZUWAKU
100
AcDbLine
 10
25.07110654650432
 20
5.237499764257613
 30
0.0
 11
25.07110654650432
 21
5.882600776935284
 31
0.0
  0
LINE
  5
33EC
330
1A
100
AcDbEntity
  8
ZUWAKU
100
AcDbLine
 10
26.4711065465043
 20
4.97499976425761
 30
0.0
 11
26.4711065465043
 21
5.882600776935284
 31
0.0
  0
LINE
  5
33ED
330
1A
100
AcDbEntity
  8
ZUWAKU
100
AcDbLine
 10
25.85603078699608
 20
7.367525017427023
 30
0.0
 11
24.40113179967369
 21
8.822424004749361
 31
0.0
  0
LINE
  5
33EE
330
1A
100
AcDbEntity
  8
ZUWAKU
100
AcDbLine
 10
20.60860654650429
 20
3.574999764257611
 30
0.0
 11
21.48360654650429
 21
3.574999764257611
 31
0.0
  0
ARC
  5
33EF
330
1A
100
AcDbEntity
  8
ZUWAKU
100
AcDbCircle
 10
18.93793415456445
 20
3.837499764257611
 30
0.0
 40
0.2625
100
AcDbArc
 50
270.0
 51
17.52556837372303
  0
ARC
  5
33F0
330
1A
100
AcDbEntity
  8
ZUWAKU
100
AcDbCircle
 10
20.60860654650429
 20
3.837499764257611
 30
0.0
 40
0.2625
100
AcDbArc
 50
180.0
 51
270.0
  0
ARC
  5
33F1
330
1A
100
AcDbEntity
  8
ZUWAKU
100
AcDbCircle
 10
23.32110654650432
 20
4.712499764257611
 30
0.0
 40
0.2625
100
AcDbArc
 50
90.0
 51
180.0
  0
ARC
  5
33F2
330
1A
100
AcDbEntity
  8
ZUWAKU
100
AcDbCircle
 10
21.48360654650429
 20
3.837499764257611
 30
0.0
 40
0.2625
100
AcDbArc
 50
270.0
 51
0.0
  0
ARC
  5
33F3
330
1A
100
AcDbEntity
  8
ZUWAKU
100
AcDbCircle
 10
23.32110654650432
 20
3.837499764257611
 30
0.0
 40
0.2625
100
AcDbArc
 50
180.0
 51
270.0
  0
LINE
  5
33F4
330
1A
100
AcDbEntity
  8
ZUWAKU
100
AcDbLine
 10
23.05860654650428
 20
3.837499764257611
 30
0.0
 11
23.05860654650428
 21
4.712499764257611
 31
0.0
  0
LINE
  5
33F5
330
1A
100
AcDbEntity
  8
ZUWAKU
100
AcDbLine
 10
23.41118230601256
 20
7.8324745110882
 30
0.0
 11
24.8660812933349
 21
6.37757552376587
 31
0.0
  0
LINE
  5
33F6
330
1A
100
AcDbEntity
  8
ZUWAKU
100
AcDbLine
 10
23.32110654650432
 20
3.574999764257611
 30
0.0
 11
25.07110654650432
 21
3.574999764257611
 31
0.0
  0
LINE
  5
33F7
330
1A
100
AcDbEntity
  8
ZUWAKU
100
AcDbLine
 10
23.32110654650432
 20
4.97499976425761
 30
0.0
 11
24.80860654650427
 21
4.97499976425761
 31
0.0
  0
ARC
  5
33F8
330
1A
100
AcDbEntity
  8
ZUWAKU
100
AcDbCircle
 10
12.4711065465043
 20
9.524999764257589
 30
0.0
 40
2.099999999999999
100
AcDbArc
 50
90.0
 51
180.0
  0
LINE
  5
33F9
330
1A
100
AcDbEntity
  8
ZUWAKU
100
AcDbLine
 10
9.058606546504279
 20
11.3624997642576
 30
0.0
 11
9.058606546504279
 21
10.48749976425761
 31
0.0
  0
ARC
  5
33FA
330
1A
100
AcDbEntity
  8
ZUWAKU
100
AcDbCircle
 10
8.79610654650429
 20
10.48749976425761
 30
0.0
 40
0.2625
100
AcDbArc
 50
270.0
 51
0.0
  0
ARC
  5
33FB
330
1A
100
AcDbEntity
  8
ZUWAKU
100
AcDbCircle
 10
8.79610654650429
 20
11.3624997642576
 30
0.0
 40
0.2625
100
AcDbArc
 50
0.0
 51
90.0
  0
ARC
  5
33FC
330
1A
100
AcDbEntity
  8
ZUWAKU
100
AcDbCircle
 10
7.04610654650429
 20
10.22499976425761
 30
0.0
 40
1.399999999999999
100
AcDbArc
 50
90.0
 51
180.0
  0
LINE
  5
33FD
330
1A
100
AcDbEntity
  8
ZUWAKU
100
AcDbLine
 10
5.646106546504313
 20
10.22499976425761
 30
0.0
 11
5.646106546504313
 21
9.31739875157994
 31
0.0
  0
LINE
  5
33FE
330
1A
100
AcDbEntity
  8
ZUWAKU
100
AcDbLine
 10
7.04610654650429
 20
9.962499764257611
 30
0.0
 11
7.04610654650429
 21
9.31739875157994
 31
0.0
  0
ARC
  5
33FF
330
1A
100
AcDbEntity
  8
ZUWAKU
100
AcDbCircle
 10
7.308606546504279
 20
9.962499764257611
 30
0.0
 40
0.2625
100
AcDbArc
 50
90.0
 51
180.0
  0
LINE
  5
3400
330
1A
100
AcDbEntity
  8
ZUWAKU
100
AcDbLine
 10
8.79610654650429
 20
10.22499976425761
 30
0.0
 11
7.308606546504279
 21
10.22499976425761
 31
0.0
  0
LINE
  5
3401
330
1A
100
AcDbEntity
  8
ZUWAKU
100
AcDbLine
 10
7.04610654650429
 20
11.62499976425761
 30
0.0
 11
8.79610654650429
 21
11.62499976425761
 31
0.0
  0
LINE
  5
3402
330
1A
100
AcDbEntity
  8
ZUWAKU
100
AcDbLine
 10
18.08848946475995
 20
11.62499976425761
 30
0.0
 11
18.93793415456445
 21
11.62499976425761
 31
0.0
  0
ARC
  5
3403
330
1A
100
AcDbEntity
  8
ZUWAKU
100
AcDbCircle
 10
18.08848946475995
 20
11.3624997642576
 30
0.0
 40
0.2625
100
AcDbArc
 50
90.0
 51
162.4744316262769
  0
ARC
  5
3404
330
1A
100
AcDbEntity
  8
ZUWAKU
100
AcDbCircle
 10
16.05860654650427
 20
11.3624997642576
 30
0.0
 40
0.2625
100
AcDbArc
 50
0.0
 51
90.0
  0
ARC
  5
3405
330
1A
100
AcDbEntity
  8
ZUWAKU
100
AcDbCircle
 10
12.4711065465043
 20
9.524999764257611
 30
0.0
 40
0.7
100
AcDbArc
 50
90.0
 51
180.0
  0
LINE
  5
3406
330
1A
100
AcDbEntity
  8
ZUWAKU
100
AcDbLine
 10
13.69610654650432
 20
11.3624997642576
 30
0.0
 11
13.69610654650432
 21
10.48749976425761
 31
0.0
  0
ARC
  5
3407
330
1A
100
AcDbEntity
  8
ZUWAKU
100
AcDbCircle
 10
13.43360654650427
 20
10.48749976425761
 30
0.0
 40
0.2625
100
AcDbArc
 50
270.0
 51
0.0
  0
LINE
  5
3408
330
1A
100
AcDbEntity
  8
ZUWAKU
100
AcDbLine
 10
13.43360654650427
 20
10.22499976425761
 30
0.0
 11
12.4711065465043
 21
10.22499976425761
 31
0.0
  0
ARC
  5
3409
330
1A
100
AcDbEntity
  8
ZUWAKU
100
AcDbCircle
 10
15.18360654650428
 20
11.3624997642576
 30
0.0
 40
0.2625
100
AcDbArc
 50
90.0
 51
180.0
  0
ARC
  5
340A
330
1A
100
AcDbEntity
  8
ZUWAKU
100
AcDbCircle
 10
13.43360654650427
 20
11.3624997642576
 30
0.0
 40
0.2625
100
AcDbArc
 50
0.0
 51
90.0
  0
LINE
  5
340B
330
1A
100
AcDbEntity
  8
ZUWAKU
100
AcDbLine
 10
12.4711065465043
 20
11.62499976425759
 30
0.0
 11
13.43360654650427
 21
11.62499976425761
 31
0.0
  0
LINE
  5
340C
330
1A
100
AcDbEntity
  8
ZUWAKU
100
AcDbLine
 10
16.05860654650427
 20
11.62499976425761
 30
0.0
 11
15.18360654650428
 21
11.62499976425761
 31
0.0
  0
LINE
  5
340D
330
1A
100
AcDbEntity
  8
ZUWAKU
100
AcDbLine
 10
26.20860654650431
 20
11.3624997642576
 30
0.0
 11
26.20860654650431
 21
10.48749976425761
 31
0.0
  0
LINE
  5
340E
330
1A
100
AcDbEntity
  8
ZUWAKU
100
AcDbLine
 10
25.94610654650432
 20
10.22499976425761
 30
0.0
 11
24.45860654650431
 21
10.22499976425761
 31
0.0
  0
ARC
  5
340F
330
1A
100
AcDbEntity
  8
ZUWAKU
100
AcDbCircle
 10
25.94610654650432
 20
10.48749976425761
 30
0.0
 40
0.2625
100
AcDbArc
 50
270.0
 51
0.0
  0
ARC
  5
3410
330
1A
100
AcDbEntity
  8
ZUWAKU
100
AcDbCircle
 10
25.94610654650432
 20
11.3624997642576
 30
0.0
 40
0.2625
100
AcDbArc
 50
0.0
 51
90.0
  0
ARC
  5
3411
330
1A
100
AcDbEntity
  8
ZUWAKU
100
AcDbCircle
 10
24.19610654650432
 20
10.22499976425761
 30
0.0
 40
1.399999999999999
100
AcDbArc
 50
90.0
 51
180.0
  0
LINE
  5
3412
330
1A
100
AcDbEntity
  8
ZUWAKU
100
AcDbLine
 10
19.18824960416219
 20
11.28345278017412
 30
0.0
 11
18.65742978759328
 21
9.602523361039324
 31
0.0
  0
LINE
  5
3413
330
1A
100
AcDbEntity
  8
ZUWAKU
100
AcDbLine
 10
22.79610654650429
 20
10.22499976425761
 30
0.0
 11
22.79610654650429
 21
9.31739875157994
 31
0.0
  0
LINE
  5
3414
330
1A
100
AcDbEntity
  8
ZUWAKU
100
AcDbLine
 10
21.48360654650429
 20
11.62499976425761
 30
0.0
 11
20.60860654650429
 21
11.62499976425761
 31
0.0
  0
ARC
  5
3415
330
1A
100
AcDbEntity
  8
ZUWAKU
100
AcDbCircle
 10
18.93793415456445
 20
11.3624997642576
 30
0.0
 40
0.2625
100
AcDbArc
 50
342.4744316262769
 51
90.0
  0
ARC
  5
3416
330
1A
100
AcDbEntity
  8
ZUWAKU
100
AcDbCircle
 10
20.60860654650429
 20
11.3624997642576
 30
0.0
 40
0.2625
100
AcDbArc
 50
90.0
 51
180.0
  0
ARC
  5
3417
330
1A
100
AcDbEntity
  8
ZUWAKU
100
AcDbCircle
 10
21.48360654650429
 20
11.3624997642576
 30
0.0
 40
0.2625
100
AcDbArc
 50
0.0
 51
90.0
  0
LINE
  5
3418
330
1A
100
AcDbEntity
  8
ZUWAKU
100
AcDbLine
 10
24.19610654650432
 20
9.962499764257611
 30
0.0
 11
24.19610654650432
 21
9.31739875157994
 31
0.0
  0
ARC
  5
3419
330
1A
100
AcDbEntity
  8
ZUWAKU
100
AcDbCircle
 10
24.45860654650431
 20
9.962499764257611
 30
0.0
 40
0.2625
100
AcDbArc
 50
90.0
 51
180.0
  0
LINE
  5
341A
330
1A
100
AcDbEntity
  8
ZUWAKU
100
AcDbLine
 10
24.19610654650432
 20
11.62499976425761
 30
0.0
 11
25.94610654650432
 21
11.62499976425761
 31
0.0
  0
TEXT
  5
341B
330
1A
100
AcDbEntity
  8
MOJI
100
AcDbText
 10
119.9136018095392
 20
9.704271005144107
 30
0.0
 40
2.799999999999999
  1
回転リング
 41
0.9
  7
MSPｺ_ｼｯｸ
100
AcDbText
  0
TEXT
  5
341C
330
1A
100
AcDbEntity
  8
MOJI
100
AcDbText
 10
46.47889526319829
 20
6.370588829394989
 30
0.0
 40
3.0
  1
ユニシェイプＵＳＴ１４０
 41
0.9
  7
MSPｺ_ｼｯｸ
100
AcDbText
  0
LINE
  5
341D
330
1A
100
AcDbEntity
  8
ZUWAKU
100
AcDbLine
 10
28.92110654650429
 20
5.499999764257609
 30
0.0
 11
28.92110654650429
 21
11.3624997642576
 31
0.0
  0
LINE
  5
341E
330
1A
100
AcDbEntity
  8
ZUWAKU
100
AcDbLine
 10
27.52110654650431
 20
11.3624997642576
 30
0.0
 11
27.52110654650431
 21
4.97499976425761
 31
0.0
  0
LINE
  5
341F
330
1A
100
AcDbEntity
  8
ZUWAKU
100
AcDbLine
 10
33.12110654650428
 20
11.3624997642576
 30
0.0
 11
33.12110654650428
 21
3.837499764257611
 31
0.0
  0
LINE
  5
3420
330
1A
100
AcDbEntity
  8
ZUWAKU
100
AcDbLine
 10
34.52110654650431
 20
3.837499764257611
 30
0.0
 11
34.52110654650431
 21
11.3624997642576
 31
0.0
  0
LINE
  5
3421
330
1A
100
AcDbEntity
  8
ZUWAKU
100
AcDbLine
 10
30.67110654650429
 20
11.3624997642576
 30
0.0
 11
30.67110654650429
 21
5.499999764257609
 31
0.0
  0
LINE
  5
3422
330
1A
100
AcDbEntity
  8
ZUWAKU
100
AcDbLine
 10
32.07110654650432
 20
4.97499976425761
 30
0.0
 11
32.07110654650432
 21
11.3624997642576
 31
0.0
  0
LINE
  5
3423
330
1A
100
AcDbEntity
  8
ZUWAKU
100
AcDbLine
 10
39.56331524310792
 20
14.9999997642576
 30
0.0
 11
39.56331524310792
 21
0.3999997642576431
 31
0.0
  0
LINE
  5
3424
330
1A
100
AcDbEntity
  8
ZUWAKU
100
AcDbLine
 10
39.76331524310785
 20
14.9999997642576
 30
0.0
 11
39.76331524310797
 21
0.3999997642576431
 31
0.0
  0
LINE
  5
3425
330
1A
100
AcDbEntity
  8
ZUWAKU
100
AcDbLine
 10
39.66331524310783
 20
14.9999997642576
 30
0.0
 11
39.66331524310794
 21
0.3999997642576431
 31
0.0
  0
LINE
  5
3426
330
1A
100
AcDbEntity
  8
ZUWAKU
100
AcDbLine
 10
104.2233011141476
 20
14.9999997642576
 30
0.0
 11
104.2233011141477
 21
0.3999997642576431
 31
0.0
  0
LINE
  5
3427
330
1A
100
AcDbEntity
  8
ZUWAKU
100
AcDbLine
 10
104.3233011141476
 20
14.9999997642576
 30
0.0
 11
104.3233011141477
 21
0.3999997642576431
 31
0.0
  0
LINE
  5
3428
330
1A
100
AcDbEntity
  8
ZUWAKU
100
AcDbLine
 10
104.1233011141476
 20
14.9999997642576
 30
0.0
 11
104.1233011141476
 21
0.3999997642576431
 31
0.0
  0
ARC
  5
3429
330
1A
100
AcDbEntity
  8
ZUWAKU
100
AcDbCircle
 10
28.92110654650429
 20
4.97499976425761
 30
0.0
 40
1.399999999999999
100
AcDbArc
 50
180.0
 51
270.0
  0
ARC
  5
342A
330
1A
100
AcDbEntity
  8
ZUWAKU
100
AcDbCircle
 10
30.67110654650429
 20
4.97499976425761
 30
0.0
 40
1.399999999999999
100
AcDbArc
 50
270.0
 51
0.0
  0
LINE
  5
342B
330
1A
100
AcDbEntity
  8
ZUWAKU
100
AcDbLine
 10
33.38360654650432
 20
3.574999764257611
 30
0.0
 11
34.25860654650432
 21
3.574999764257611
 31
0.0
  0
ARC
  5
342C
330
1A
100
AcDbEntity
  8
ZUWAKU
100
AcDbCircle
 10
33.38360654650432
 20
3.837499764257611
 30
0.0
 40
0.2625
100
AcDbArc
 50
180.0
 51
270.0
  0
ARC
  5
342D
330
1A
100
AcDbEntity
  8
ZUWAKU
100
AcDbCircle
 10
34.25860654650432
 20
3.837499764257611
 30
0.0
 40
0.2625
100
AcDbArc
 50
270.0
 51
0.0
  0
ARC
  5
342E
330
1A
100
AcDbEntity
  8
ZUWAKU
100
AcDbCircle
 10
29.44610654650432
 20
5.499999764257609
 30
0.0
 40
0.525
100
AcDbArc
 50
180.0
 51
270.0
  0
LINE
  5
342F
330
1A
100
AcDbEntity
  8
ZUWAKU
100
AcDbLine
 10
28.92110654650429
 20
3.574999764257611
 30
0.0
 11
30.67110654650429
 21
3.574999764257611
 31
0.0
  0
ARC
  5
3430
330
1A
100
AcDbEntity
  8
ZUWAKU
100
AcDbCircle
 10
30.14610654650431
 20
5.499999764257609
 30
0.0
 40
0.525
100
AcDbArc
 50
270.0
 51
0.0
  0
LINE
  5
3431
330
1A
100
AcDbEntity
  8
ZUWAKU
100
AcDbLine
 10
30.14610654650431
 20
4.97499976425761
 30
0.0
 11
29.44610654650432
 21
4.97499976425761
 31
0.0
  0
TEXT
  5
3432
330
1A
100
AcDbEntity
  8
ZUWAKU
100
AcDbText
 10
104.8620236252524
 20
4.827678033450418
 30
0.0
 40
2.0
  1
サイズ
 41
0.9
  7
MSPｺ_ｼｯｸ
100
AcDbText
  0
LINE
  5
3433
330
1A
100
AcDbEntity
  8
ZUWAKU
100
AcDbLine
 10
34.25860654650432
 20
11.62499976425761
 30
0.0
 11
33.38360654650432
 21
11.62499976425761
 31
0.0
  0
ARC
  5
3434
330
1A
100
AcDbEntity
  8
ZUWAKU
100
AcDbCircle
 10
33.38360654650432
 20
11.3624997642576
 30
0.0
 40
0.2625
100
AcDbArc
 50
90.0
 51
180.0
  0
ARC
  5
3435
330
1A
100
AcDbEntity
  8
ZUWAKU
100
AcDbCircle
 10
34.25860654650432
 20
11.3624997642576
 30
0.0
 40
0.2625
100
AcDbArc
 50
0.0
 51
90.0
  0
LINE
  5
3436
330
1A
100
AcDbEntity
  8
ZUWAKU
100
AcDbLine
 10
28.6586065465043
 20
11.62499976425761
 30
0.0
 11
27.7836065465043
 21
11.62499976425761
 31
0.0
  0
ARC
  5
3437
330
1A
100
AcDbEntity
  8
ZUWAKU
100
AcDbCircle
 10
27.7836065465043
 20
11.3624997642576
 30
0.0
 40
0.2625
100
AcDbArc
 50
90.0
 51
180.0
  0
ARC
  5
3438
330
1A
100
AcDbEntity
  8
ZUWAKU
100
AcDbCircle
 10
28.6586065465043
 20
11.3624997642576
 30
0.0
 40
0.2625
100
AcDbArc
 50
0.0
 51
90.0
  0
ARC
  5
3439
330
1A
100
AcDbEntity
  8
ZUWAKU
100
AcDbCircle
 10
30.93360654650428
 20
11.3624997642576
 30
0.0
 40
0.2625
100
AcDbArc
 50
90.0
 51
180.0
  0
LINE
  5
343A
330
1A
100
AcDbEntity
  8
ZUWAKU
100
AcDbLine
 10
31.80860654650428
 20
11.62499976425761
 30
0.0
 11
30.93360654650428
 21
11.62499976425761
 31
0.0
  0
ARC
  5
343B
330
1A
100
AcDbEntity
  8
ZUWAKU
100
AcDbCircle
 10
31.80860654650428
 20
11.3624997642576
 30
0.0
 40
0.2625
100
AcDbArc
 50
0.0
 51
90.0
  0
TEXT
  5
343C
330
1A
100
AcDbEntity
  8
ZUWAKU
100
AcDbText
 10
104.8620236252523
 20
12.02767803345039
 30
0.0
 40
2.0
  1
品名
 41
0.9
  7
MSPｺ_ｼｯｸ
100
AcDbText
  0
TEXT
  5
343D
330
1A
100
AcDbEntity
  8
MOJI
100
AcDbText
 10
264.0204544552701
 20
9.002460292961302
 30
0.0
 40
2.799999999999999
  1
Ａ３
 41
0.9
  7
MSPｺ_ｼｯｸ
100
AcDbText
  0
LINE
  5
343E
330
1A
100
AcDbEntity
  8
ZUWAKU
100
AcDbLine
 10
252.4995902181841
 20
14.9999997642576
 30
0.0
 11
252.4995902181842
 21
0.3999997642576431
 31
0.0
  0
LINE
  5
343F
330
1A
100
AcDbEntity
  8
ZUWAKU
100
AcDbLine
 10
252.5995902181841
 20
14.9999997642576
 30
0.0
 11
252.5995902181843
 21
0.3999997642576431
 31
0.0
  0
LINE
  5
3440
330
1A
100
AcDbEntity
  8
ZUWAKU
100
AcDbLine
 10
252.3995902181842
 20
14.9999997642576
 30
0.0
 11
252.3995902181842
 21
0.3999997642576431
 31
0.0
  0
LINE
  5
3441
330
1A
100
AcDbEntity
  8
ZUWAKU
100
AcDbLine
 10
276.2634783521699
 20
14.9999997642576
 30
0.0
 11
276.2634783521699
 21
0.3999997642576431
 31
0.0
  0
LINE
  5
3442
330
1A
100
AcDbEntity
  8
ZUWAKU
100
AcDbLine
 10
276.4634783521699
 20
14.9999997642576
 30
0.0
 11
276.46347835217
 21
0.3999997642576431
 31
0.0
  0
LINE
  5
3443
330
1A
100
AcDbEntity
  8
ZUWAKU
100
AcDbLine
 10
276.3634783521698
 20
14.9999997642576
 30
0.0
 11
276.3634783521699
 21
0.3999997642576431
 31
0.0
  0
LINE
  5
3444
330
1A
100
AcDbEntity
  8
ZUWAKU
100
AcDbLine
 10
223.8121824546093
 20
14.9999997642576
 30
0.0
 11
223.8121824546094
 21
0.3999997642576431
 31
0.0
  0
LINE
  5
3445
330
1A
100
AcDbEntity
  8
ZUWAKU
100
AcDbLine
 10
223.9121824546093
 20
14.9999997642576
 30
0.0
 11
223.9121824546094
 21
0.3999997642576431
 31
0.0
  0
LINE
  5
3446
330
1A
100
AcDbEntity
  8
ZUWAKU
100
AcDbLine
 10
223.7121824546094
 20
14.9999997642576
 30
0.0
 11
223.7121824546094
 21
0.3999997642576431
 31
0.0
  0
TEXT
  5
3447
330
1A
100
AcDbEntity
  8
MOJI
100
AcDbText
 10
230.2972072658193
 20
5.913683363975053
 30
0.0
 40
2.799999999999999
  1
ＰＨ０１□
 41
0.9
  7
MSPｺ_ｼｯｸ
100
AcDbText
  0
LINE
  5
3448
330
1A
100
AcDbEntity
  8
ZUWAKU
100
AcDbLine
 10
252.5995902181841
 20
7.599999764257628
 30
0.0
 11
276.2634783521699
 21
7.599999764257628
 31
0.0
  0
LINE
  5
3449
330
1A
100
AcDbEntity
  8
ZUWAKU
100
AcDbLine
 10
252.5995902181841
 20
7.699999764257626
 30
0.0
 11
276.2634783521699
 21
7.699999764257626
 31
0.0
  0
LINE
  5
344A
330
1A
100
AcDbEntity
  8
ZUWAKU
100
AcDbLine
 10
252.5995902181841
 20
7.799999764257625
 30
0.0
 11
276.2634783521699
 21
7.799999764257625
 31
0.0
  0
TEXT
  5
344B
330
1A
100
AcDbEntity
  8
ZUWAKU
100
AcDbText
 10
253.3383127292891
 20
4.827678033450418
 30
0.0
 40
2.0
  1
縮尺
 41
0.9
  7
MSPｺ_ｼｯｸ
100
AcDbText
  0
TEXT
  5
344D
330
1A
100
AcDbEntity
  8
MOJI
100
AcDbText
 10
264.0204544552701
 20
1.602460292961319
 30
0.0
 40
2.799999999999999
  1
１/１
 41
0.9
  7
MSPｺ_ｼｯｸ
100
AcDbText
  0
TEXT
  5
344E
330
1A
100
AcDbEntity
  8
ZUWAKU
100
AcDbText
 10
224.6509049657141
 20
12.02767803345039
 30
0.0
 40
2.0
  1
品番
 41
0.9
  7
MSPｺ_ｼｯｸ
100
AcDbText
  0
TEXT
  5
344F
330
1A
100
AcDbEntity
  8
ZUWAKU
100
AcDbText
 10
253.3383127292889
 20
12.02767803345039
 30
0.0
 40
2.0
  1
用紙
 41
0.9
  7
MSPｺ_ｼｯｸ
100
AcDbText
  0
TEXT
  5
3450
330
1A
100
AcDbEntity
  8
ZUWAKU
100
AcDbText
 10
354.2640425652356
 20
8.77691943210101
 30
0.0
 40
3.0
  1
積水化学工業株式会社
 41
0.9
  7
MSPｺ_ｼｯｸ
100
AcDbText
  0
TEXT
  5
3451
330
1A
100
AcDbEntity
  8
ZUWAKU
100
AcDbText
 10
329.1019693127649
 20
9.002460292961302
 30
0.0
 40
2.799999999999999
  1
　　．　　．　　
 41
0.9
  7
MSPｺ_ｼｯｸ
100
AcDbText
  0
LINE
  5
3452
330
1A
100
AcDbEntity
  8
ZUWAKU
100
AcDbLine
 10
348.9245057433843
 20
14.9999997642576
 30
0.0
 11
348.9245057433844
 21
0.3999997642576431
 31
0.0
  0
LINE
  5
3453
330
1A
100
AcDbEntity
  8
ZUWAKU
100
AcDbLine
 10
348.8245057433843
 20
14.9999997642576
 30
0.0
 11
348.8245057433843
 21
0.3999997642576431
 31
0.0
  0
LINE
  5
3454
330
1A
100
AcDbEntity
  8
ZUWAKU
100
AcDbLine
 10
348.7245057433844
 20
14.9999997642576
 30
0.0
 11
348.7245057433844
 21
0.3999997642576431
 31
0.0
  0
LINE
  5
3455
330
1A
100
AcDbEntity
  8
ZUWAKU
100
AcDbLine
 10
348.6245057433843
 20
14.9999997642576
 30
0.0
 11
348.6245057433843
 21
0.3999997642576431
 31
0.0
  0
LINE
  5
3456
330
1A
100
AcDbEntity
  8
ZUWAKU
100
AcDbLine
 10
324.208601724216
 20
14.9999997642576
 30
0.0
 11
324.208601724216
 21
0.3999997642576431
 31
0.0
  0
LINE
  5
3457
330
1A
100
AcDbEntity
  8
ZUWAKU
100
AcDbLine
 10
324.4086017242159
 20
14.9999997642576
 30
0.0
 11
324.408601724216
 21
0.3999997642576431
 31
0.0
  0
LINE
  5
3458
330
1A
100
AcDbEntity
  8
ZUWAKU
100
AcDbLine
 10
324.3086017242159
 20
14.9999997642576
 30
0.0
 11
324.308601724216
 21
0.3999997642576431
 31
0.0
  0
TEXT
  5
3459
330
1A
100
AcDbEntity
  8
ZUWAKU
100
AcDbText
 10
354.2640425652356
 20
3.324419921184642
 30
0.0
 40
3.0
  1
建材事業部
 41
0.9
  7
MSPｺ_ｼｯｸ
100
AcDbText
  0
LINE
  5
345A
330
1A
100
AcDbEntity
  8
ZUWAKU
100
AcDbLine
 10
324.4086017242158
 20
7.599999764257624
 30
0.0
 11
348.6245057433843
 21
7.599999764257626
 31
0.0
  0
LINE
  5
345B
330
1A
100
AcDbEntity
  8
ZUWAKU
100
AcDbLine
 10
324.4086017242159
 20
7.699999764257627
 30
0.0
 11
348.6245057433843
 21
7.699999764257626
 31
0.0
  0
LINE
  5
345C
330
1A
100
AcDbEntity
  8
ZUWAKU
100
AcDbLine
 10
324.4086017242158
 20
7.799999764257625
 30
0.0
 11
348.6245057433843
 21
7.799999764257625
 31
0.0
  0
TEXT
  5
345D
330
1A
100
AcDbEntity
  8
ZUWAKU
100
AcDbText
 10
325.1473242353207
 20
12.02767803345039
 30
0.0
 40
2.0
  1
DATE
 41
0.9
  7
MSPｺ_ｼｯｸ
100
AcDbText
  0
LINE
  5
370F
330
1A
100
AcDbEntity
  8
CENTER_L
 48
0.3
100
AcDbLine
 10
174.2692157886844
 20
242.4479943829188
 30
0.0
 11
174.2692157886844
 21
156.0534365597895
 31
0.0
  0
CIRCLE
  5
3710
330
1A
100
AcDbEntity
  8
SEIHIN
100
AcDbCircle
 10
174.2692157886844
 20
198.6165412414143
 30
0.0
 40
38.44999999999998
  0
CIRCLE
  5
3711
330
1A
100
AcDbEntity
  8
SEIHIN
100
AcDbCircle
 10
174.2692157886844
 20
198.6165412414143
 30
0.0
 40
40.25289395670978
  0
CIRCLE
  5
3712
330
1A
100
AcDbEntity
  8
SEIHIN
100
AcDbCircle
 10
174.2692157886844
 20
198.6165412414143
 30
0.0
 40
38.15
  0
SPLINE
  5
3713
330
1A
100
AcDbEntity
  8
SEIHIN
100
AcDbSpline
210
0.0
220
0.0
230
1.0
 70
    24
 71
     3
 72
    12
 73
     8
 74
     0
 42
0.0000000001
 43
0.0000000001
 40
0.0
 40
0.0
 40
0.0
 40
0.0
 40
0.2216772291966304
 40
0.4434363479419988
 40
0.6626654647218207
 40
0.8765093561650123
 40
1.0
 40
1.0
 40
1.0
 40
1.0
 10
181.7692157887035
 20
231.8302808682842
 30
0.0
 10
181.7692157887035
 20
231.7127119815632
 30
0.0
 10
181.7692157887035
 20
231.477530777124
 30
0.0
 10
181.7692157887035
 20
231.1649907544115
 30
0.0
 10
181.7692157887035
 20
230.9332060046755
 30
0.0
 10
181.7692157887035
 20
230.8189832351011
 30
0.0
 10
181.7692157887035
 20
230.8082425740554
 30
0.0
 10
181.7692157887035
 20
230.8043106577852
 30
0.0
  0
SPLINE
  5
3714
330
1A
100
AcDbEntity
  8
SEIHIN
100
AcDbSpline
210
0.0
220
0.0
230
1.0
 70
    24
 71
     3
 72
    12
 73
     8
 74
     0
 42
0.0000000001
 43
0.0000000001
 40
0.0
 40
0.0
 40
0.0
 40
0.0
 40
0.2167443517229215
 40
0.4334001279264196
 40
0.652509368995842
 40
0.876528612490733
 40
1.0
 40
1.0
 40
1.0
 40
1.0
 10
181.7692157887035
 20
233.1559677948208
 30
0.0
 10
181.7692157887035
 20
233.13849204024
 30
0.0
 10
181.7692157887035
 20
233.1035476727825
 30
0.0
 10
181.7692157887035
 20
232.9157567255654
 30
0.0
 10
181.7692157887035
 20
232.6504924302975
 30
0.0
 10
181.7692157887035
 20
232.3733327700903
 30
0.0
 10
181.7692157887035
 20
232.1964868038449
 30
0.0
 10
181.7692157887035
 20
232.1336493777978
 30
0.0
  0
ELLIPSE
  5
3715
330
1A
100
AcDbEntity
  8
SEIHIN
100
AcDbEllipse
 10
174.2692157886844
 20
201.7195694650143
 30
0.0
 11
0.0
 21
32.35957888040829
 31
0.0
210
0.0
220
0.0
230
1.0
 40
0.9953917337999998
 41
6.264556738895565
 42
6.301813875463635
  0
SPLINE
  5
3716
330
1A
100
AcDbEntity
  8
SEIHIN
100
AcDbSpline
210
0.0
220
0.0
230
1.0
 70
     8
 71
     3
 72
     9
 73
     5
 74
     0
 42
0.0000000001
 43
0.0000000001
 40
0.0
 40
0.0
 40
0.0
 40
0.0
 40
0.4998333424632263
 40
1.0
 40
1.0
 40
1.0
 40
1.0
 10
174.8692157887034
 20
232.2188246485142
 30
0.0
 10
174.6692824571949
 20
232.2176831987179
 30
0.0
 10
174.2692824681519
 20
232.2153995379467
 30
0.0
 10
173.8692824571973
 20
232.2176826913219
 30
0.0
 10
173.6692157887034
 20
232.2188246485142
 30
0.0
  0
SPLINE
  5
3717
330
1A
100
AcDbEntity
  8
SEIHIN
100
AcDbSpline
210
0.0
220
0.0
230
1.0
 70
    24
 71
     3
 72
    12
 73
     8
 74
     0
 42
0.0000000001
 43
0.0000000001
 40
0.0
 40
0.0
 40
0.0
 40
0.0
 40
0.2216772291966304
 40
0.4434363479419988
 40
0.6626654647218207
 40
0.8765093561650123
 40
1.0
 40
1.0
 40
1.0
 40
1.0
 10
166.7692157887034
 20
231.8302808682842
 30
0.0
 10
166.7692157887034
 20
231.7127119815632
 30
0.0
 10
166.7692157887034
 20
231.477530777124
 30
0.0
 10
166.7692157887034
 20
231.1649907544115
 30
0.0
 10
166.7692157887034
 20
230.9332060046755
 30
0.0
 10
166.7692157887034
 20
230.8189832351011
 30
0.0
 10
166.7692157887034
 20
230.8082425740554
 30
0.0
 10
166.7692157887034
 20
230.8043106577852
 30
0.0
  0
SPLINE
  5
3718
330
1A
100
AcDbEntity
  8
SEIHIN
100
AcDbSpline
210
0.0
220
0.0
230
1.0
 70
    24
 71
     3
 72
    12
 73
     8
 74
     0
 42
0.0000000001
 43
0.0000000001
 40
0.0
 40
0.0
 40
0.0
 40
0.0
 40
0.2167443517229215
 40
0.4334001279264196
 40
0.652509368995842
 40
0.876528612490733
 40
1.0
 40
1.0
 40
1.0
 40
1.0
 10
166.7692157887034
 20
233.1559677948208
 30
0.0
 10
166.7692157887034
 20
233.13849204024
 30
0.0
 10
166.7692157887034
 20
233.1035476727825
 30
0.0
 10
166.7692157887034
 20
232.9157567255654
 30
0.0
 10
166.7692157887034
 20
232.6504924302975
 30
0.0
 10
166.7692157887034
 20
232.3733327700903
 30
0.0
 10
166.7692157887034
 20
232.1964868038449
 30
0.0
 10
166.7692157887034
 20
232.1336493777978
 30
0.0
  0
SPLINE
  5
3719
330
1A
100
AcDbEntity
  8
SEIHIN
100
AcDbSpline
210
0.0
220
0.0
230
1.0
 70
    24
 71
     3
 72
    12
 73
     8
 74
     0
 42
0.0000000001
 43
0.0000000001
 40
0.0
 40
0.0
 40
0.0
 40
0.0
 40
0.2295786563294068
 40
0.4592532360505373
 40
0.6861213345403261
 40
0.9077966041818086
 40
1.0
 40
1.0
 40
1.0
 40
1.0
 10
207.7863239250642
 20
206.116541241437
 30
0.0
 10
207.9035890291015
 20
206.116541241437
 30
0.0
 10
208.1381682333097
 20
206.116541241437
 30
0.0
 10
208.4497548546861
 20
206.116541241437
 30
0.0
 10
208.6811648239764
 20
206.116541241437
 30
0.0
 10
208.787469122109
 20
206.116541241437
 30
0.0
 10
208.8038348340277
 20
206.116541241437
 30
0.0
 10
208.8086423420873
 20
206.116541241437
 30
0.0
  0
SPLINE
  5
371A
330
1A
100
AcDbEntity
  8
SEIHIN
100
AcDbSpline
210
0.0
220
0.0
230
1.0
 70
     8
 71
     3
 72
    12
 73
     8
 74
     0
 42
0.0000000001
 43
0.0000000001
 40
0.0
 40
0.0
 40
0.0
 40
0.0
 40
0.2200614535505873
 40
0.4401574587270944
 40
0.6589410127827796
 40
0.8734633848464975
 40
1.0
 40
1.0
 40
1.0
 40
1.0
 10
205.7016830797069
 20
204.6165412414371
 30
0.0
 10
205.6794806503556
 20
204.7308262647863
 30
0.0
 10
205.6350723056722
 20
204.9594142552606
 30
0.0
 10
205.5717551170156
 20
205.26282785501
 30
0.0
 10
205.5227484909378
 20
205.4888306180526
 30
0.0
 10
205.4975178783768
 20
205.6017713024215
 30
0.0
 10
205.4951020714807
 20
205.6125443302609
 30
0.0
 10
205.4942057806954
 20
205.6165412414371
 30
0.0
  0
SPLINE
  5
371B
330
1A
100
AcDbEntity
  8
SEIHIN
100
AcDbSpline
210
0.0
220
0.0
230
1.0
 70
    24
 71
     3
 72
    12
 73
     8
 74
     0
 42
0.0000000001
 43
0.0000000001
 40
0.0
 40
0.0
 40
0.0
 40
0.0
 40
0.2078587526259939
 40
0.4156318750109361
 40
0.6258388205065964
 40
0.8412355032616167
 40
1.0
 40
1.0
 40
1.0
 40
1.0
 10
206.4569852050516
 20
206.116541241437
 30
0.0
 10
206.4679269021804
 20
206.116541241437
 30
0.0
 10
206.4898057888569
 20
206.116541241437
 30
0.0
 10
206.6598533102344
 20
206.116541241437
 30
0.0
 10
206.9112941106257
 20
206.116541241437
 30
0.0
 10
207.2010192037136
 20
206.116541241437
 30
0.0
 10
207.3989634767476
 20
206.116541241437
 30
0.0
 10
207.4829554155507
 20
206.116541241437
 30
0.0
  0
ELLIPSE
  5
371C
330
1A
100
AcDbEntity
  8
SEIHIN
100
AcDbEllipse
 10
177.3722440122844
 20
198.6165412414143
 30
0.0
 11
32.35957888040855
 21
-0.0000000000204921
 31
0.0
210
0.0
220
0.0
230
1.0
 40
0.9953917338
 41
6.264556738896195
 42
6.301813875464267
  0
SPLINE
  5
371D
330
1A
100
AcDbEntity
  8
SEIHIN
100
AcDbSpline
210
0.0
220
0.0
230
1.0
 70
     8
 71
     3
 72
     9
 73
     5
 74
     0
 42
0.0000000001
 43
0.0000000001
 40
0.0
 40
0.0
 40
0.0
 40
0.0
 40
0.5001666575367732
 40
1.0
 40
1.0
 40
1.0
 40
1.0
 10
207.8714991957796
 20
198.016541241437
 30
0.0
 10
207.8703572385878
 20
198.2166079099309
 30
0.0
 10
207.8680740852136
 20
198.6166079208856
 30
0.0
 10
207.8703577459838
 20
199.0166079099285
 30
0.0
 10
207.8714991957796
 20
199.216541241437
 30
0.0
  0
SPLINE
  5
371E
330
1A
100
AcDbEntity
  8
SEIHIN
100
AcDbSpline
210
0.0
220
0.0
230
1.0
 70
    24
 71
     3
 72
    12
 73
     8
 74
     0
 42
0.0000000001
 43
0.0000000001
 40
0.0
 40
0.0
 40
0.0
 40
0.0
 40
0.2295786563294068
 40
0.4592532360505373
 40
0.6861213345403261
 40
0.9077966041818086
 40
1.0
 40
1.0
 40
1.0
 40
1.0
 10
207.7863239250642
 20
191.1165412414371
 30
0.0
 10
207.9035890291015
 20
191.1165412414371
 30
0.0
 10
208.1381682333097
 20
191.1165412414371
 30
0.0
 10
208.4497548546861
 20
191.116541241437
 30
0.0
 10
208.6811648239764
 20
191.116541241437
 30
0.0
 10
208.787469122109
 20
191.1165412414371
 30
0.0
 10
208.8038348340277
 20
191.116541241437
 30
0.0
 10
208.8086423420873
 20
191.116541241437
 30
0.0
  0
SPLINE
  5
371F
330
1A
100
AcDbEntity
  8
SEIHIN
100
AcDbSpline
210
0.0
220
0.0
230
1.0
 70
     8
 71
     3
 72
    12
 73
     8
 74
     0
 42
0.0000000001
 43
0.0000000001
 40
0.0
 40
0.0
 40
0.0
 40
0.0
 40
0.2200614535505873
 40
0.4401574587270942
 40
0.6589410127827797
 40
0.8734633848464975
 40
1.0
 40
1.0
 40
1.0
 40
1.0
 10
205.7016830797069
 20
192.6165412414371
 30
0.0
 10
205.6794806503556
 20
192.5022562180878
 30
0.0
 10
205.6350723056722
 20
192.2736682276136
 30
0.0
 10
205.5717551170156
 20
191.9702546278641
 30
0.0
 10
205.5227484909378
 20
191.7442518648216
 30
0.0
 10
205.4975178783768
 20
191.6313111804527
 30
0.0
 10
205.4951020714807
 20
191.6205381526133
 30
0.0
 10
205.4942057806954
 20
191.6165412414371
 30
0.0
  0
SPLINE
  5
3720
330
1A
100
AcDbEntity
  8
SEIHIN
100
AcDbSpline
210
0.0
220
0.0
230
1.0
 70
    24
 71
     3
 72
    12
 73
     8
 74
     0
 42
0.0000000001
 43
0.0000000001
 40
0.0
 40
0.0
 40
0.0
 40
0.0
 40
0.2078587526259939
 40
0.4156318750109361
 40
0.6258388205065964
 40
0.8412355032616167
 40
1.0
 40
1.0
 40
1.0
 40
1.0
 10
206.4569852050516
 20
191.1165412414371
 30
0.0
 10
206.4679269021804
 20
191.1165412414371
 30
0.0
 10
206.4898057888569
 20
191.116541241437
 30
0.0
 10
206.6598533102344
 20
191.1165412414371
 30
0.0
 10
206.9112941106257
 20
191.116541241437
 30
0.0
 10
207.2010192037136
 20
191.1165412414371
 30
0.0
 10
207.3989634767476
 20
191.1165412414371
 30
0.0
 10
207.4829554155507
 20
191.1165412414371
 30
0.0
  0
SPLINE
  5
3721
330
1A
100
AcDbEntity
  8
SEIHIN
100
AcDbSpline
210
0.0
220
0.0
230
1.0
 70
     8
 71
     3
 72
     9
 73
     5
 74
     0
 42
0.0000000001
 43
0.0000000001
 40
0.0
 40
0.0
 40
0.0
 40
0.0
 40
0.4994331325307016
 40
1.0
 40
1.0
 40
1.0
 40
1.0
 10
204.7662563287654
 20
183.6165412414371
 30
0.0
 10
204.9649659551963
 20
184.1101833976326
 30
0.0
 10
205.3628362875548
 20
185.0985882991939
 30
0.0
 10
205.6819662970884
 20
186.1101746370978
 30
0.0
 10
205.841712206276
 20
186.6165412414371
 30
0.0
  0
SPLINE
  5
3722
330
1A
100
AcDbEntity
  8
SEIHIN
100
AcDbSpline
210
0.0
220
0.0
230
1.0
 70
     8
 71
     3
 72
    12
 73
     8
 74
     0
 42
0.0000000001
 43
0.0000000001
 40
0.0
 40
0.0
 40
0.0
 40
0.0
 40
0.2200614535505872
 40
0.4401574587270943
 40
0.6589410127827794
 40
0.8734633848464975
 40
1.0
 40
1.0
 40
1.0
 40
1.0
 10
142.8367484977
 20
204.6165412414371
 30
0.0
 10
142.8589509270512
 20
204.7308262647863
 30
0.0
 10
142.9033592717346
 20
204.9594142552606
 30
0.0
 10
142.9666764603912
 20
205.26282785501
 30
0.0
 10
143.015683086469
 20
205.4888306180526
 30
0.0
 10
143.0409136990301
 20
205.6017713024215
 30
0.0
 10
143.0433295059261
 20
205.6125443302609
 30
0.0
 10
143.0442257967114
 20
205.6165412414371
 30
0.0
  0
SPLINE
  5
3723
330
1A
100
AcDbEntity
  8
SEIHIN
100
AcDbSpline
210
0.0
220
0.0
230
1.0
 70
    24
 71
     3
 72
    12
 73
     8
 74
     0
 42
0.0000000001
 43
0.0000000001
 40
0.0
 40
0.0
 40
0.0
 40
0.0
 40
0.2078587526259939
 40
0.4156318750109361
 40
0.6258388205065964
 40
0.8412355032616167
 40
1.0
 40
1.0
 40
1.0
 40
1.0
 10
142.0814463723552
 20
206.116541241437
 30
0.0
 10
142.0705046752265
 20
206.116541241437
 30
0.0
 10
142.0486257885499
 20
206.116541241437
 30
0.0
 10
141.8785782671724
 20
206.116541241437
 30
0.0
 10
141.6271374667811
 20
206.116541241437
 30
0.0
 10
141.3374123736932
 20
206.116541241437
 30
0.0
 10
141.1394681006592
 20
206.116541241437
 30
0.0
 10
141.0554761618563
 20
206.116541241437
 30
0.0
  0
SPLINE
  5
3724
330
1A
100
AcDbEntity
  8
SEIHIN
100
AcDbSpline
210
0.0
220
0.0
230
1.0
 70
    24
 71
     3
 72
    12
 73
     8
 74
     0
 42
0.0000000001
 43
0.0000000001
 40
0.0
 40
0.0
 40
0.0
 40
0.0
 40
0.2295786563294068
 40
0.4592532360505373
 40
0.6861213345403261
 40
0.9077966041818086
 40
1.0
 40
1.0
 40
1.0
 40
1.0
 10
140.7521076523426
 20
206.116541241437
 30
0.0
 10
140.6348425483053
 20
206.116541241437
 30
0.0
 10
140.4002633440972
 20
206.116541241437
 30
0.0
 10
140.0886767227208
 20
206.116541241437
 30
0.0
 10
139.8572667534304
 20
206.116541241437
 30
0.0
 10
139.7509624552979
 20
206.116541241437
 30
0.0
 10
139.7345967433791
 20
206.116541241437
 30
0.0
 10
139.7297892353196
 20
206.116541241437
 30
0.0
  0
ELLIPSE
  5
3725
330
1A
100
AcDbEntity
  8
SEIHIN
100
AcDbEllipse
 10
171.1661875651844
 20
198.6165412414143
 30
0.0
 11
32.35957888040855
 21
0.0000000000204921
 31
0.0
210
0.0
220
0.0
230
1.0
 40
0.9953917338
 41
3.122964085305127
 42
3.160221221873211
  0
SPLINE
  5
3726
330
1A
100
AcDbEntity
  8
SEIHIN
100
AcDbSpline
210
0.0
220
0.0
230
1.0
 70
     8
 71
     3
 72
     9
 73
     5
 74
     0
 42
0.0000000001
 43
0.0000000001
 40
0.0
 40
0.0
 40
0.0
 40
0.0
 40
0.5001666575367732
 40
1.0
 40
1.0
 40
1.0
 40
1.0
 10
140.6669323816273
 20
198.016541241437
 30
0.0
 10
140.6680743388191
 20
198.2166079099309
 30
0.0
 10
140.6703574921933
 20
198.6166079208856
 30
0.0
 10
140.6680738314231
 20
199.0166079099285
 30
0.0
 10
140.6669323816273
 20
199.216541241437
 30
0.0
  0
SPLINE
  5
3727
330
1A
100
AcDbEntity
  8
SEIHIN
100
AcDbSpline
210
0.0
220
0.0
230
1.0
 70
     8
 71
     3
 72
    12
 73
     8
 74
     0
 42
0.0000000001
 43
0.0000000001
 40
0.0
 40
0.0
 40
0.0
 40
0.0
 40
0.2200614535505873
 40
0.4401574587270939
 40
0.6589410127827796
 40
0.8734633848464975
 40
1.0
 40
1.0
 40
1.0
 40
1.0
 10
142.8367484977
 20
192.6165412414371
 30
0.0
 10
142.8589509270512
 20
192.5022562180878
 30
0.0
 10
142.9033592717346
 20
192.2736682276136
 30
0.0
 10
142.9666764603912
 20
191.9702546278641
 30
0.0
 10
143.015683086469
 20
191.7442518648216
 30
0.0
 10
143.0409136990301
 20
191.6313111804527
 30
0.0
 10
143.0433295059261
 20
191.6205381526133
 30
0.0
 10
143.0442257967114
 20
191.6165412414371
 30
0.0
  0
SPLINE
  5
3728
330
1A
100
AcDbEntity
  8
SEIHIN
100
AcDbSpline
210
0.0
220
0.0
230
1.0
 70
    24
 71
     3
 72
    12
 73
     8
 74
     0
 42
0.0000000001
 43
0.0000000001
 40
0.0
 40
0.0
 40
0.0
 40
0.0
 40
0.2078587526259939
 40
0.4156318750109361
 40
0.6258388205065964
 40
0.8412355032616167
 40
1.0
 40
1.0
 40
1.0
 40
1.0
 10
142.0814463723552
 20
191.1165412414371
 30
0.0
 10
142.0705046752265
 20
191.1165412414371
 30
0.0
 10
142.0486257885499
 20
191.116541241437
 30
0.0
 10
141.8785782671724
 20
191.1165412414371
 30
0.0
 10
141.6271374667811
 20
191.116541241437
 30
0.0
 10
141.3374123736932
 20
191.1165412414371
 30
0.0
 10
141.1394681006592
 20
191.1165412414371
 30
0.0
 10
141.0554761618563
 20
191.1165412414371
 30
0.0
  0
SPLINE
  5
3729
330
1A
100
AcDbEntity
  8
SEIHIN
100
AcDbSpline
210
0.0
220
0.0
230
1.0
 70
    24
 71
     3
 72
    12
 73
     8
 74
     0
 42
0.0000000001
 43
0.0000000001
 40
0.0
 40
0.0
 40
0.0
 40
0.0
 40
0.2295786563294068
 40
0.4592532360505373
 40
0.6861213345403261
 40
0.9077966041818086
 40
1.0
 40
1.0
 40
1.0
 40
1.0
 10
140.7521076523426
 20
191.1165412414371
 30
0.0
 10
140.6348425483053
 20
191.1165412414371
 30
0.0
 10
140.4002633440972
 20
191.1165412414371
 30
0.0
 10
140.0886767227208
 20
191.116541241437
 30
0.0
 10
139.8572667534304
 20
191.116541241437
 30
0.0
 10
139.7509624552979
 20
191.1165412414371
 30
0.0
 10
139.7345967433791
 20
191.116541241437
 30
0.0
 10
139.7297892353196
 20
191.116541241437
 30
0.0
  0
SPLINE
  5
372A
330
1A
100
AcDbEntity
  8
SEIHIN
100
AcDbSpline
210
0.0
220
0.0
230
1.0
 70
     8
 71
     3
 72
     9
 73
     5
 74
     0
 42
0.0000000001
 43
0.0000000001
 40
0.0
 40
0.0
 40
0.0
 40
0.0
 40
0.4994331325307019
 40
1.0
 40
1.0
 40
1.0
 40
1.0
 10
143.7721752486414
 20
183.6165412414371
 30
0.0
 10
143.5734656222106
 20
184.1101833976326
 30
0.0
 10
143.175595289852
 20
185.0985882991939
 30
0.0
 10
142.8564652803184
 20
186.1101746370978
 30
0.0
 10
142.6967193711308
 20
186.6165412414371
 30
0.0
  0
SPLINE
  5
372B
330
1A
100
AcDbEntity
  8
SEIHIN
100
AcDbSpline
210
0.0
220
0.0
230
1.0
 70
     8
 71
     3
 72
     9
 73
     5
 74
     0
 42
0.0000000001
 43
0.0000000001
 40
0.0
 40
0.0
 40
0.0
 40
0.0
 40
0.4994331325307017
 40
1.0
 40
1.0
 40
1.0
 40
1.0
 10
143.7721752486414
 20
213.6165412414371
 30
0.0
 10
143.5734656222106
 20
213.1228990852416
 30
0.0
 10
143.175595289852
 20
212.1344941836803
 30
0.0
 10
142.8564652803184
 20
211.1229078457764
 30
0.0
 10
142.6967193711308
 20
210.6165412414371
 30
0.0
  0
SPLINE
  5
372C
330
1A
100
AcDbEntity
  8
SEIHIN
100
AcDbSpline
210
0.0
220
0.0
230
1.0
 70
     8
 71
     3
 72
     9
 73
     5
 74
     0
 42
0.0000000001
 43
0.0000000001
 40
0.0
 40
0.0
 40
0.0
 40
0.0
 40
0.4994331325307014
 40
1.0
 40
1.0
 40
1.0
 40
1.0
 10
204.7662563287654
 20
213.6165412414371
 30
0.0
 10
204.9649659551963
 20
213.1228990852416
 30
0.0
 10
205.3628362875548
 20
212.1344941836803
 30
0.0
 10
205.6819662970884
 20
211.1229078457764
 30
0.0
 10
205.841712206276
 20
210.6165412414371
 30
0.0
  0
SPLINE
  5
372D
330
1A
100
AcDbEntity
  8
SEIHIN
100
AcDbSpline
210
0.0
220
0.0
230
1.0
 70
    24
 71
     3
 72
    12
 73
     8
 74
     0
 42
0.0000000001
 43
0.0000000001
 40
0.0
 40
0.0
 40
0.0
 40
0.0
 40
0.2216772291966304
 40
0.4434363479419988
 40
0.6626654647218207
 40
0.8765093561650123
 40
1.0
 40
1.0
 40
1.0
 40
1.0
 10
181.7692157887035
 20
165.4028016145898
 30
0.0
 10
181.7692157887035
 20
165.5203705013109
 30
0.0
 10
181.7692157887035
 20
165.75555170575
 30
0.0
 10
181.7692157887035
 20
166.0680917284625
 30
0.0
 10
181.7692157887035
 20
166.2998764781985
 30
0.0
 10
181.7692157887035
 20
166.414099247773
 30
0.0
 10
181.7692157887035
 20
166.4248399088187
 30
0.0
 10
181.7692157887035
 20
166.4287718250888
 30
0.0
  0
SPLINE
  5
372E
330
1A
100
AcDbEntity
  8
SEIHIN
100
AcDbSpline
210
0.0
220
0.0
230
1.0
 70
    24
 71
     3
 72
    12
 73
     8
 74
     0
 42
0.0000000001
 43
0.0000000001
 40
0.0
 40
0.0
 40
0.0
 40
0.0
 40
0.2167443517229215
 40
0.4334001279264196
 40
0.652509368995842
 40
0.876528612490733
 40
1.0
 40
1.0
 40
1.0
 40
1.0
 10
181.7692157887035
 20
164.0771146880533
 30
0.0
 10
181.7692157887035
 20
164.0945904426341
 30
0.0
 10
181.7692157887035
 20
164.1295348100915
 30
0.0
 10
181.7692157887035
 20
164.3173257573086
 30
0.0
 10
181.7692157887035
 20
164.5825900525766
 30
0.0
 10
181.7692157887035
 20
164.8597497127838
 30
0.0
 10
181.7692157887035
 20
165.0365956790292
 30
0.0
 10
181.7692157887035
 20
165.0994331050762
 30
0.0
  0
ELLIPSE
  5
372F
330
1A
100
AcDbEntity
  8
SEIHIN
100
AcDbEllipse
 10
174.2692157886844
 20
195.5135130179143
 30
0.0
 11
0.0
 21
32.35957888040871
 31
0.0
210
0.0
220
0.0
230
1.0
 40
0.9953917338
 41
3.122964085305758
 42
3.160221221873841
  0
SPLINE
  5
3730
330
1A
100
AcDbEntity
  8
SEIHIN
100
AcDbSpline
210
0.0
220
0.0
230
1.0
 70
     8
 71
     3
 72
     9
 73
     5
 74
     0
 42
0.0000000001
 43
0.0000000001
 40
0.0
 40
0.0
 40
0.0
 40
0.0
 40
0.4998333424632263
 40
1.0
 40
1.0
 40
1.0
 40
1.0
 10
174.8692157887034
 20
165.0142578343599
 30
0.0
 10
174.6692824571949
 20
165.0153992841562
 30
0.0
 10
174.2692824681519
 20
165.0176829449274
 30
0.0
 10
173.8692824571973
 20
165.0153997915522
 30
0.0
 10
173.6692157887034
 20
165.0142578343599
 30
0.0
  0
SPLINE
  5
3731
330
1A
100
AcDbEntity
  8
SEIHIN
100
AcDbSpline
210
0.0
220
0.0
230
1.0
 70
    24
 71
     3
 72
    12
 73
     8
 74
     0
 42
0.0000000001
 43
0.0000000001
 40
0.0
 40
0.0
 40
0.0
 40
0.0
 40
0.2216772291966304
 40
0.4434363479419988
 40
0.6626654647218207
 40
0.8765093561650123
 40
1.0
 40
1.0
 40
1.0
 40
1.0
 10
166.7692157887034
 20
165.4028016145898
 30
0.0
 10
166.7692157887034
 20
165.5203705013109
 30
0.0
 10
166.7692157887034
 20
165.75555170575
 30
0.0
 10
166.7692157887034
 20
166.0680917284625
 30
0.0
 10
166.7692157887034
 20
166.2998764781985
 30
0.0
 10
166.7692157887034
 20
166.414099247773
 30
0.0
 10
166.7692157887034
 20
166.4248399088187
 30
0.0
 10
166.7692157887034
 20
166.4287718250888
 30
0.0
  0
SPLINE
  5
3732
330
1A
100
AcDbEntity
  8
SEIHIN
100
AcDbSpline
210
0.0
220
0.0
230
1.0
 70
    24
 71
     3
 72
    12
 73
     8
 74
     0
 42
0.0000000001
 43
0.0000000001
 40
0.0
 40
0.0
 40
0.0
 40
0.0
 40
0.2167443517229215
 40
0.4334001279264196
 40
0.652509368995842
 40
0.876528612490733
 40
1.0
 40
1.0
 40
1.0
 40
1.0
 10
166.7692157887034
 20
164.0771146880533
 30
0.0
 10
166.7692157887034
 20
164.0945904426341
 30
0.0
 10
166.7692157887034
 20
164.1295348100915
 30
0.0
 10
166.7692157887034
 20
164.3173257573086
 30
0.0
 10
166.7692157887034
 20
164.5825900525766
 30
0.0
 10
166.7692157887034
 20
164.8597497127838
 30
0.0
 10
166.7692157887034
 20
165.0365956790292
 30
0.0
 10
166.7692157887034
 20
165.0994331050762
 30
0.0
  0
SPLINE
  5
3733
330
1A
100
AcDbEntity
  8
SEIHIN
100
AcDbSpline
210
0.0
220
0.0
230
1.0
 70
    24
 71
     1
 72
     4
 73
     2
 74
     0
 42
0.0000000001
 43
0.0000000001
 40
0.0
 40
0.0
 40
1.0
 40
1.0
 10
212.3904724731954
 20
113.6654254746882
 30
0.0
 10
212.4192157887034
 20
114.1654254746881
 30
0.0
  0
SPLINE
  5
3734
330
1A
100
AcDbEntity
  8
SEIHIN
100
AcDbSpline
210
0.0
220
0.0
230
1.0
 70
    24
 71
     1
 72
     4
 73
     2
 74
     0
 42
0.0000000001
 43
0.0000000001
 40
0.0
 40
0.0
 40
1.0
 40
1.0
 10
213.1618281552524
 20
89.68650814115369
 30
0.0
 10
214.5221097454133
 20
113.6654254746882
 30
0.0
  0
SPLINE
  5
3735
330
1A
100
AcDbEntity
  8
SEIHIN
100
AcDbSpline
210
0.0
220
0.0
230
1.0
 70
    24
 71
     1
 72
     4
 73
     2
 74
     0
 42
0.0000000001
 43
0.0000000001
 40
0.0
 40
0.0
 40
1.0
 40
1.0
 10
136.1192157887034
 20
114.1654254746881
 30
0.0
 10
136.1479591042114
 20
113.6654254746882
 30
0.0
  0
SPLINE
  5
3736
330
1A
100
AcDbEntity
  8
SEIHIN
100
AcDbSpline
210
0.0
220
0.0
230
1.0
 70
    24
 71
     1
 72
     4
 73
     2
 74
     0
 42
0.0000000001
 43
0.0000000001
 40
0.0
 40
0.0
 40
1.0
 40
1.0
 10
134.0163218319936
 20
113.6654254746882
 30
0.0
 10
135.3766034221545
 20
89.68650814115369
 30
0.0
  0
ARC
  5
3737
330
1A
100
AcDbEntity
  8
SEIHIN
100
AcDbCircle
 10
174.2692157886844
 20
198.6165412414143
 30
0.0
 40
33.98631315253512
100
AcDbArc
 50
26.19031253020072
 51
77.23585067589775
  0
ARC
  5
3738
330
1A
100
AcDbEntity
  8
SEIHIN
100
AcDbCircle
 10
174.2692157886844
 20
198.6165412414143
 30
0.0
 40
31.99999999999997
100
AcDbArc
 50
27.95318688339909
 51
79.19307712509987
  0
LINE
  5
3739
330
1A
100
AcDbEntity
  8
CENTER_L
 48
0.3
100
AcDbLine
 10
124.7936041718957
 20
198.6165412414143
 30
0.0
 11
223.3773541718957
 21
198.6165412414143
 31
0.0
  0
ARC
  5
373A
330
1A
100
AcDbEntity
  8
SEIHIN
100
AcDbCircle
 10
174.2692157886844
 20
198.6165412414143
 30
0.0
 40
34.80895062311604
100
AcDbArc
 50
12.45261526330041
 51
77.54253261549949
  0
LINE
  5
373B
330
1A
100
AcDbEntity
  8
SEIHIN
100
AcDbLine
 10
214.5221097453844
 20
113.6654254747097
 30
0.0
 11
134.0163218319844
 21
113.6654254747097
 31
0.0
  0
LINE
  5
373C
330
1A
100
AcDbEntity
  8
SEIHIN
100
AcDbLine
 10
136.1192157886844
 20
114.1654254747097
 30
0.0
 11
212.4192157886844
 21
114.1654254747097
 31
0.0
  0
DIMENSION
  5
373D
330
1A
100
AcDbEntity
  8
SUNPOU
100
AcDbDimension
  2
*D2
 10
214.5221097453844
 20
134.2527214673553
 30
0.0
 11
174.2692157886844
 21
137.2527214673553
 31
0.0
 70
    32
  1
φ<>
  3
STANDARD
100
AcDbAlignedDimension
 13
134.0163218319844
 23
113.6654254747097
 33
0.0
 14
214.5221097453844
 24
113.6654254747097
 34
0.0
100
AcDbRotatedDimension
  0
LINE
  5
373E
330
1A
100
AcDbEntity
  8
SEIHIN
100
AcDbLine
 10
211.4035206710844
 20
75.76542547470971
 30
0.0
 11
137.1349109062844
 21
75.76542547470971
 31
0.0
  0
ARC
  5
373F
330
1A
100
AcDbEntity
  8
SEIHIN
100
AcDbCircle
 10
174.2692157886844
 20
198.6165412414143
 30
0.0
 40
33.98631315253514
100
AcDbArc
 50
282.7641493241022
 51
333.8096874697992
  0
CIRCLE
  5
3740
330
1A
100
AcDbEntity
  8
SEIHIN
100
AcDbCircle
 10
174.2692157886844
 20
198.6165412414143
 30
0.0
 40
36.14669801303392
  0
ARC
  5
3741
330
1A
100
AcDbEntity
  8
SEIHIN
100
AcDbCircle
 10
174.2692157886844
 20
198.6165412414143
 30
0.0
 40
34.80895062311606
100
AcDbArc
 50
282.4565221424005
 51
347.5495396497989
  0
ARC
  5
3742
330
1A
100
AcDbEntity
  8
SEIHIN
100
AcDbCircle
 10
174.2692157886844
 20
198.6165412414143
 30
0.0
 40
32.00000000000005
100
AcDbArc
 50
280.8069228749001
 51
332.0468131166009
  0
ARC
  5
3743
330
1A
100
AcDbEntity
  8
SEIHIN
100
AcDbCircle
 10
237.0131968102844
 20
95.45217240990972
 30
0.0
 40
101.8
100
AcDbArc
 50
183.2468084243994
 51
191.1504835147993
  0
ARC
  5
3744
330
1A
100
AcDbEntity
  8
SEIHIN
100
AcDbCircle
 10
174.2692157886844
 20
198.6165412414143
 30
0.0
 40
33.98631315253515
100
AcDbArc
 50
102.7516421351983
 51
153.8096874697992
  0
ARC
  5
3745
330
1A
100
AcDbEntity
  8
SEIHIN
100
AcDbCircle
 10
174.2692157886844
 20
198.6165412414143
 30
0.0
 40
31.99999999999999
100
AcDbArc
 50
100.8069228749001
 51
152.0468131166009
  0
DIMENSION
  5
3746
330
1A
100
AcDbEntity
  8
SUNPOU
100
AcDbDimension
  2
*D3
 10
194.8384192986537
 20
223.1299634212217
 30
0.0
 11
164.7657728597659
 21
193.6052090203296
 31
0.0
 70
   163
  3
STANDARD
100
AcDbDiametricDimension
 15
153.7000122787153
 25
174.1031190616071
 35
0.0
 40
0.0
1001
ACAD
1000
DSTYLE
1002
{
1070
   287
1070
     5
1070
   287
1070
     5
1070
    41
1040
3.0
1070
    42
1040
6.0
1070
    43
1040
14.0
1070
    44
1040
3.0
1070
    73
1070
     0
1070
    74
1070
     0
1070
    77
1070
     3
1070
   140
1040
3.0
1070
   141
1040
150.0
1070
   147
1040
2.0
1070
   172
1070
     1
1070
   173
1070
     1
1070
   176
1070
   256
1070
   177
1070
   256
1070
   178
1070
   256
1070
   271
1070
     0
1070
   272
1070
     0
1070
   279
1070
     2
1070
   341
1005
6D
1070
     6
1000
OPEN
1070
     7
1000
OPEN
1070
   371
1070
    -1
1070
   372
1070
    -1
1002
}
  0
ARC
  5
3747
330
1A
100
AcDbEntity
  8
SEIHIN
100
AcDbCircle
 10
174.2692157886844
 20
198.6165412414143
 30
0.0
 40
33.98631315253517
100
AcDbArc
 50
206.1903125302007
 51
257.2483578648016
  0
ARC
  5
3748
330
1A
100
AcDbEntity
  8
SEIHIN
100
AcDbCircle
 10
174.2692157886844
 20
198.6165412414143
 30
0.0
 40
34.80895062311609
100
AcDbArc
 50
192.4515805228989
 51
257.5429779056987
  0
ARC
  5
3749
330
1A
100
AcDbEntity
  8
SEIHIN
100
AcDbCircle
 10
174.2692157886844
 20
198.6165412414143
 30
0.0
 40
32.00000000000004
100
AcDbArc
 50
207.953186883399
 51
259.1930771250999
  0
ARC
  5
374A
330
1A
100
AcDbEntity
  8
SEIHIN
100
AcDbCircle
 10
174.2692157886844
 20
198.6165412414143
 30
0.0
 40
35.34433457623152
100
AcDbArc
 50
180.9726910828005
 51
192.2511966359007
  0
ARC
  5
374B
330
1A
100
AcDbEntity
  8
SEIHIN
100
AcDbCircle
 10
174.2692157886844
 20
198.6165412414143
 30
0.0
 40
33.05000000000003
100
AcDbArc
 50
166.8836698655004
 51
193.1163301344995
  0
ARC
  5
374C
330
1A
100
AcDbEntity
  8
SEIHIN
100
AcDbCircle
 10
174.2692157886844
 20
198.6165412414143
 30
0.0
 40
34.05000000000004
100
AcDbArc
 50
181.0096695159
 51
192.7245580828994
  0
ARC
  5
374D
330
1A
100
AcDbEntity
  8
SEIHIN
100
AcDbCircle
 10
174.2692157886844
 20
198.6165412414143
 30
0.0
 40
33.77606445454586
100
AcDbArc
 50
192.8332417194004
 51
200.8106781689019
  0
LINE
  5
374E
330
1A
100
AcDbEntity
  8
SEIHIN
100
AcDbLine
 10
141.0554761618844
 20
191.1165412414143
 30
0.0
 11
140.7521076523844
 21
191.1165412414143
 31
0.0
  0
ARC
  5
374F
330
1A
100
AcDbEntity
  8
SEIHIN
100
AcDbCircle
 10
174.2692157886844
 20
198.6165412414143
 30
0.0
 40
32.00000000000001
100
AcDbArc
 50
202.0243128369997
 51
207.953186883399
  0
LINE
  5
3750
330
1A
100
AcDbEntity
  8
SEIHIN
100
AcDbLine
 10
146.0026277384844
 20
183.6165412414143
 30
0.0
 11
143.7721752486844
 21
183.6165412414143
 31
0.0
  0
LINE
  5
3751
330
1A
100
AcDbEntity
  8
SEIHIN
100
AcDbLine
 10
142.6967193710844
 20
186.6165412414143
 30
0.0
 11
144.6044218402844
 21
186.6165412414143
 31
0.0
  0
ARC
  5
3752
330
1A
100
AcDbEntity
  8
SEIHIN
100
AcDbCircle
 10
174.2692157886844
 20
198.6165412414143
 30
0.0
 40
32.00000000000001
100
AcDbArc
 50
192.6356250930007
 51
202.0243128369997
  0
LINE
  5
3753
330
1A
100
AcDbEntity
  8
SEIHIN
100
AcDbLine
 10
143.0442257966844
 20
191.6165412414143
 30
0.0
 11
141.9690222907844
 21
191.6165412414143
 31
0.0
  0
ARC
  5
3754
330
1A
100
AcDbEntity
  8
SEIHIN
100
AcDbCircle
 10
174.2692157886844
 20
198.6165412414143
 30
0.0
 40
34.05000000000004
100
AcDbArc
 50
167.2754419171005
 51
178.9903304840999
  0
ARC
  5
3755
330
1A
100
AcDbEntity
  8
SEIHIN
100
AcDbCircle
 10
174.2692157886844
 20
198.6165412414143
 30
0.0
 40
35.3443345762315
100
AcDbArc
 50
167.7488033640992
 51
179.0273089171994
  0
ARC
  5
3756
330
1A
100
AcDbEntity
  8
SEIHIN
100
AcDbCircle
 10
174.2692157886844
 20
198.6165412414143
 30
0.0
 40
30.50000000000002
100
AcDbArc
 50
168.6547046096006
 51
191.3452953903993
  0
LINE
  5
3757
330
1A
100
AcDbEntity
  8
SEIHIN
100
AcDbLine
 10
138.8122232904844
 20
199.2165412414143
 30
0.0
 11
140.6669323815844
 21
199.2165412414143
 31
0.0
  0
LINE
  5
3758
330
1A
100
AcDbEntity
  8
SEIHIN
100
AcDbLine
 10
138.8122232904844
 20
198.0165412414143
 30
0.0
 11
140.6669323815844
 21
198.0165412414143
 31
0.0
  0
LINE
  5
3759
330
1A
100
AcDbEntity
  8
SEIHIN
100
AcDbLine
 10
144.3652026800844
 20
192.6165412414143
 30
0.0
 11
141.7684081063844
 21
192.6165412414143
 31
0.0
  0
ARC
  5
375A
330
1A
100
AcDbEntity
  8
SEIHIN
100
AcDbCircle
 10
174.2692157886844
 20
198.6165412414143
 30
0.0
 40
33.77606445454587
100
AcDbArc
 50
159.189321831098
 51
167.1667582805995
  0
LINE
  5
375B
330
1A
100
AcDbEntity
  8
SEIHIN
100
AcDbLine
 10
141.0554761618844
 20
206.1165412414143
 30
0.0
 11
140.7521076523844
 21
206.1165412414143
 31
0.0
  0
ARC
  5
375C
330
1A
100
AcDbEntity
  8
SEIHIN
100
AcDbCircle
 10
174.2692157886844
 20
198.6165412414143
 30
0.0
 40
31.99999999999999
100
AcDbArc
 50
157.9756871630002
 51
167.3643749069992
  0
LINE
  5
375D
330
1A
100
AcDbEntity
  8
SEIHIN
100
AcDbLine
 10
144.3652026800844
 20
204.6165412414143
 30
0.0
 11
141.7684081063844
 21
204.6165412414143
 31
0.0
  0
LINE
  5
375E
330
1A
100
AcDbEntity
  8
SEIHIN
100
AcDbLine
 10
143.0442257966844
 20
205.6165412414143
 30
0.0
 11
141.9690222907844
 21
205.6165412414143
 31
0.0
  0
LINE
  5
375F
330
1A
100
AcDbEntity
  8
SEIHIN
100
AcDbLine
 10
142.6967193710844
 20
210.6165412414143
 30
0.0
 11
144.6044218402844
 21
210.6165412414143
 31
0.0
  0
LINE
  5
3760
330
1A
100
AcDbEntity
  8
SEIHIN
100
AcDbLine
 10
146.0026277384844
 20
213.6165412414143
 30
0.0
 11
143.7721752486844
 21
213.6165412414143
 31
0.0
  0
ARC
  5
3761
330
1A
100
AcDbEntity
  8
SEIHIN
100
AcDbCircle
 10
174.2692157886844
 20
198.6165412414143
 30
0.0
 40
31.99999999999999
100
AcDbArc
 50
152.0468131166009
 51
157.9756871630002
  0
ARC
  5
3762
330
1A
100
AcDbEntity
  8
SEIHIN
100
AcDbCircle
 10
174.2692157886844
 20
198.6165412414143
 30
0.0
 40
30.50000000000003
100
AcDbArc
 50
258.6547046096007
 51
281.3452953903992
  0
ARC
  5
3763
330
1A
100
AcDbEntity
  8
SEIHIN
100
AcDbCircle
 10
174.2692157886844
 20
198.6165412414143
 30
0.0
 40
34.05000000000002
100
AcDbArc
 50
271.0096695159001
 51
282.7245580828992
  0
ARC
  5
3764
330
1A
100
AcDbEntity
  8
SEIHIN
100
AcDbCircle
 10
174.2692157886844
 20
198.6165412414143
 30
0.0
 40
35.34433457623161
100
AcDbArc
 50
270.9726910828006
 51
282.2511966359006
  0
ARC
  5
3765
330
1A
100
AcDbEntity
  8
SEIHIN
100
AcDbCircle
 10
174.2692157886844
 20
198.6165412414143
 30
0.0
 40
33.05000000000003
100
AcDbArc
 50
256.8836698655006
 51
283.1163301344993
  0
ARC
  5
3766
330
1A
100
AcDbEntity
  8
SEIHIN
100
AcDbCircle
 10
174.2692157886844
 20
198.6165412414143
 30
0.0
 40
34.05000000000004
100
AcDbArc
 50
257.2754419171007
 51
268.9903304840999
  0
ARC
  5
3767
330
1A
100
AcDbEntity
  8
SEIHIN
100
AcDbCircle
 10
174.2692157886844
 20
198.6165412414143
 30
0.0
 40
35.34433457623161
100
AcDbArc
 50
257.7488033640993
 51
269.0273089171993
  0
LINE
  5
3768
330
1A
100
AcDbEntity
  8
SEIHIN
100
AcDbLine
 10
166.7692157886844
 20
165.0994331051143
 30
0.0
 11
166.7692157886844
 21
165.4028016146143
 31
0.0
  0
LINE
  5
3769
330
1A
100
AcDbEntity
  8
SEIHIN
100
AcDbLine
 10
168.2692157886844
 20
166.1157335592143
 30
0.0
 11
168.2692157886844
 21
168.7125281328143
 31
0.0
  0
LINE
  5
376A
330
1A
100
AcDbEntity
  8
SEIHIN
100
AcDbLine
 10
174.8692157886844
 20
165.0142578343143
 30
0.0
 11
174.8692157886844
 21
163.1595487432143
 31
0.0
  0
LINE
  5
376B
330
1A
100
AcDbEntity
  8
SEIHIN
100
AcDbLine
 10
173.6692157886844
 20
165.0142578343143
 30
0.0
 11
173.6692157886844
 21
163.1595487432143
 31
0.0
  0
LINE
  5
376C
330
1A
100
AcDbEntity
  8
SEIHIN
100
AcDbLine
 10
180.2692157886844
 20
166.1157335592143
 30
0.0
 11
180.2692157886844
 21
168.7125281328143
 31
0.0
  0
LINE
  5
376D
330
1A
100
AcDbEntity
  8
SEIHIN
100
AcDbLine
 10
181.7692157886844
 20
165.0994331051143
 30
0.0
 11
181.7692157886844
 21
165.4028016146143
 31
0.0
  0
ARC
  5
376E
330
1A
100
AcDbEntity
  8
SEIHIN
100
AcDbCircle
 10
174.2692157886844
 20
198.6165412414143
 30
0.0
 40
34.05000000000002
100
AcDbArc
 50
77.2754419171007
 51
88.99033048409993
  0
ARC
  5
376F
330
1A
100
AcDbEntity
  8
SEIHIN
100
AcDbCircle
 10
174.2692157886844
 20
198.6165412414143
 30
0.0
 40
35.34433457623156
100
AcDbArc
 50
77.74880336409942
 51
89.02730891719942
  0
ARC
  5
3770
330
1A
100
AcDbEntity
  8
SEIHIN
100
AcDbCircle
 10
174.2692157886844
 20
198.6165412414143
 30
0.0
 40
33.04999999999997
100
AcDbArc
 50
76.88366986550061
 51
103.1163301344993
  0
ARC
  5
3771
330
1A
100
AcDbEntity
  8
SEIHIN
100
AcDbCircle
 10
174.2692157886844
 20
198.6165412414143
 30
0.0
 40
30.49999999999999
100
AcDbArc
 50
78.65470460960081
 51
101.3452953903991
  0
ARC
  5
3772
330
1A
100
AcDbEntity
  8
SEIHIN
100
AcDbCircle
 10
174.2692157886844
 20
198.6165412414143
 30
0.0
 40
34.05000000000002
100
AcDbArc
 50
91.00966951590008
 51
102.7245580828992
  0
ARC
  5
3773
330
1A
100
AcDbEntity
  8
SEIHIN
100
AcDbCircle
 10
174.2692157886844
 20
198.6165412414143
 30
0.0
 40
35.34433457623155
100
AcDbArc
 50
90.97269108280057
 51
102.2511966359005
  0
LINE
  5
3774
330
1A
100
AcDbEntity
  8
SEIHIN
100
AcDbLine
 10
168.2692157886844
 20
231.1173489237143
 30
0.0
 11
168.2692157886844
 21
228.5205543500143
 31
0.0
  0
LINE
  5
3775
330
1A
100
AcDbEntity
  8
SEIHIN
100
AcDbLine
 10
166.7692157886844
 20
232.1336493778143
 30
0.0
 11
166.7692157886844
 21
231.8302808683143
 31
0.0
  0
LINE
  5
3776
330
1A
100
AcDbEntity
  8
SEIHIN
100
AcDbLine
 10
174.8692157886844
 20
232.2188246485143
 30
0.0
 11
174.8692157886844
 21
234.0735337397143
 31
0.0
  0
LINE
  5
3777
330
1A
100
AcDbEntity
  8
SEIHIN
100
AcDbLine
 10
173.6692157886844
 20
232.2188246485143
 30
0.0
 11
173.6692157886844
 21
234.0735337397143
 31
0.0
  0
LINE
  5
3778
330
1A
100
AcDbEntity
  8
SEIHIN
100
AcDbLine
 10
180.2692157886844
 20
231.1173489237143
 30
0.0
 11
180.2692157886844
 21
228.5205543500143
 31
0.0
  0
LINE
  5
3779
330
1A
100
AcDbEntity
  8
SEIHIN
100
AcDbLine
 10
181.7692157886844
 20
232.1336493778143
 30
0.0
 11
181.7692157886844
 21
231.8302808683143
 31
0.0
  0
DIMENSION
  5
377A
330
1A
100
AcDbEntity
  8
SUNPOU
100
AcDbDimension
  2
*D4
 10
247.817783057135
 20
114.1654254747097
 30
0.0
 11
244.817783057135
 21
94.96542547470975
 31
0.0
 70
    32
  3
STANDARD
100
AcDbAlignedDimension
 13
211.4035206710844
 23
75.76542547470971
 33
0.0
 14
212.4192157886844
 24
114.1654254747097
 34
0.0
 50
90.0
100
AcDbRotatedDimension
  0
ARC
  5
377B
330
1A
100
AcDbEntity
  8
SEIHIN
100
AcDbCircle
 10
111.5252347671844
 20
95.45217240990972
 30
0.0
 40
101.8000000000001
100
AcDbArc
 50
348.8495164852007
 51
356.7531915756005
  0
ARC
  5
377C
330
1A
100
AcDbEntity
  8
SEIHIN
100
AcDbCircle
 10
174.2692157886844
 20
198.6165412414143
 30
0.0
 40
35.34433457623147
100
AcDbArc
 50
347.7488033640992
 51
359.0273089171994
  0
ARC
  5
377D
330
1A
100
AcDbEntity
  8
SEIHIN
100
AcDbCircle
 10
174.2692157886844
 20
198.6165412414143
 30
0.0
 40
34.04999999999998
100
AcDbArc
 50
347.2754419171005
 51
358.9903304840999
  0
ARC
  5
377E
330
1A
100
AcDbEntity
  8
SEIHIN
100
AcDbCircle
 10
174.2692157886844
 20
198.6165412414143
 30
0.0
 40
33.05000000000001
100
AcDbArc
 50
346.8836698655004
 51
13.11633013449958
  0
LINE
  5
377F
330
1A
100
AcDbEntity
  8
SEIHIN
100
AcDbLine
 10
205.4942057806844
 20
191.6165412414143
 30
0.0
 11
206.5694092865844
 21
191.6165412414143
 31
0.0
  0
LINE
  5
3780
330
1A
100
AcDbEntity
  8
SEIHIN
100
AcDbLine
 10
205.8417122062844
 20
186.6165412414143
 30
0.0
 11
203.9340097370844
 21
186.6165412414143
 31
0.0
  0
ARC
  5
3781
330
1A
100
AcDbEntity
  8
SEIHIN
100
AcDbCircle
 10
174.2692157886844
 20
198.6165412414143
 30
0.0
 40
31.99999999999999
100
AcDbArc
 50
332.0468131166009
 51
337.9756871630002
  0
LINE
  5
3782
330
1A
100
AcDbEntity
  8
SEIHIN
100
AcDbLine
 10
202.5358038388844
 20
183.6165412414143
 30
0.0
 11
204.7662563287845
 21
183.6165412414143
 31
0.0
  0
ARC
  5
3783
330
1A
100
AcDbEntity
  8
SEIHIN
100
AcDbCircle
 10
174.2692157886844
 20
198.6165412414143
 30
0.0
 40
31.99999999999999
100
AcDbArc
 50
337.9756871630002
 51
347.3643749069992
  0
LINE
  5
3784
330
1A
100
AcDbEntity
  8
SEIHIN
100
AcDbLine
 10
207.4829554155844
 20
191.1165412414143
 30
0.0
 11
207.7863239250844
 21
191.1165412414143
 31
0.0
  0
ARC
  5
3785
330
1A
100
AcDbEntity
  8
SEIHIN
100
AcDbCircle
 10
174.2692157886844
 20
198.6165412414143
 30
0.0
 40
33.77606445454587
100
AcDbArc
 50
339.189321831098
 51
347.1667582805995
  0
LINE
  5
3786
330
1A
100
AcDbEntity
  8
SEIHIN
100
AcDbLine
 10
205.8417122062844
 20
210.6165412414143
 30
0.0
 11
203.9340097370844
 21
210.6165412414143
 31
0.0
  0
LINE
  5
3787
330
1A
100
AcDbEntity
  8
SEIHIN
100
AcDbLine
 10
205.4942057806844
 20
205.6165412414143
 30
0.0
 11
206.5694092865844
 21
205.6165412414143
 31
0.0
  0
LINE
  5
3788
330
1A
100
AcDbEntity
  8
SEIHIN
100
AcDbLine
 10
204.1732288972844
 20
204.6165412414143
 30
0.0
 11
206.7700234709844
 21
204.6165412414143
 31
0.0
  0
LINE
  5
3789
330
1A
100
AcDbEntity
  8
SEIHIN
100
AcDbLine
 10
204.1732288972844
 20
192.6165412414143
 30
0.0
 11
206.7700234709844
 21
192.6165412414143
 31
0.0
  0
ARC
  5
378A
330
1A
100
AcDbEntity
  8
SEIHIN
100
AcDbCircle
 10
174.2692157886844
 20
198.6165412414143
 30
0.0
 40
30.5
100
AcDbArc
 50
348.6547046096006
 51
11.34529539039934
  0
ARC
  5
378B
330
1A
100
AcDbEntity
  8
SEIHIN
100
AcDbCircle
 10
174.2692157886844
 20
198.6165412414143
 30
0.0
 40
31.99999999999999
100
AcDbArc
 50
12.63562509300077
 51
22.02431283699973
  0
LINE
  5
378C
330
1A
100
AcDbEntity
  8
SEIHIN
100
AcDbLine
 10
202.5358038388844
 20
213.6165412414143
 30
0.0
 11
204.7662563287845
 21
213.6165412414143
 31
0.0
  0
ARC
  5
378D
330
1A
100
AcDbEntity
  8
SEIHIN
100
AcDbCircle
 10
174.2692157886844
 20
198.6165412414143
 30
0.0
 40
31.99999999999997
100
AcDbArc
 50
22.02431283699973
 51
27.95318688339909
  0
ARC
  5
378E
330
1A
100
AcDbEntity
  8
SEIHIN
100
AcDbCircle
 10
174.2692157886844
 20
198.6165412414143
 30
0.0
 40
35.34433457623149
100
AcDbArc
 50
0.9726910828005708
 51
12.25119663590075
  0
ARC
  5
378F
330
1A
100
AcDbEntity
  8
SEIHIN
100
AcDbCircle
 10
174.2692157886844
 20
198.6165412414143
 30
0.0
 40
34.04999999999999
100
AcDbArc
 50
1.009669515900054
 51
12.72455808289948
  0
LINE
  5
3790
330
1A
100
AcDbEntity
  8
SEIHIN
100
AcDbLine
 10
209.7262082869844
 20
199.2165412414143
 30
0.0
 11
207.8714991957844
 21
199.2165412414143
 31
0.0
  0
LINE
  5
3791
330
1A
100
AcDbEntity
  8
SEIHIN
100
AcDbLine
 10
209.7262082869844
 20
198.0165412414143
 30
0.0
 11
207.8714991957844
 21
198.0165412414143
 31
0.0
  0
ARC
  5
3792
330
1A
100
AcDbEntity
  8
SEIHIN
100
AcDbCircle
 10
174.2692157886844
 20
198.6165412414143
 30
0.0
 40
33.77606445454585
100
AcDbArc
 50
12.83324171940043
 51
20.81067816890196
  0
LINE
  5
3793
330
1A
100
AcDbEntity
  8
SEIHIN
100
AcDbLine
 10
207.4829554155844
 20
206.1165412414143
 30
0.0
 11
207.7863239250844
 21
206.1165412414143
 31
0.0
  0
LINE
  5
37CB
330
1A
100
AcDbEntity
  8
CENTER_L
 48
0.3
100
AcDbLine
 10
174.2692157886844
 20
118.0891021738099
 30
0.0
 11
174.2692157886844
 21
70.89164010616411
 31
0.0
  0
LINE
  5
37E5
330
1A
100
AcDbEntity
  8
SUNPOU
100
AcDbLine
 10
213.8758658473179
 20
85.76542547471039
 30
0.0
 11
239.733756698941
 21
85.76542547471039
 31
0.0
  0
LINE
  5
37E6
330
1A
100
AcDbEntity
  8
SUNPOU
100
AcDbLine
 10
238.483756698941
 20
82.76542547471041
 30
0.0
 11
238.483756698941
 21
78.7654254747097
 31
0.0
  0
MTEXT
  5
37E7
330
1A
100
AcDbEntity
  8
SUNPOU
100
AcDbMText
 10
235.0473363569967
 20
80.46441229512225
 30
0.0
 40
3.0
 41
0.0
 71
     5
 72
     1
  1
\U+203B10
 11
0.0000000000000001
 21
1.0
 31
0.0
1001
ACAD
1000
MTEXTBEGIN
1070
    73
1070
     1
1070
    44
1040
1.0
1070
    74
1070
     0
1000
MTEXTEND
1000
MTEXTBEGIN
1070
    73
1070
     1
1070
    44
1040
1.0
1070
    74
1070
     0
1000
MTEXTEND
1000
MTEXTBEGIN
1070
    73
1070
     1
1070
    44
1040
1.0
1070
    74
1070
     0
1000
MTEXTEND
1000
MTEXTBEGIN
1070
    73
1070
     1
1070
    44
1040
1.0
1070
    74
1070
     0
1000
MTEXTEND
1000
MTEXTBEGIN
1070
    73
1070
     1
1070
    44
1040
1.0
1070
    74
1070
     0
1000
MTEXTEND
1000
MTEXTBEGIN
1070
    73
1070
     1
1070
    44
1040
1.0
1070
    74
1070
     0
1000
MTEXTEND
1000
MTEXTBEGIN
1070
    73
1070
     1
1070
    44
1040
1.0
1070
    74
1070
     0
1000
MTEXTEND
1000
MTEXTBEGIN
1070
    73
1070
     1
1070
    44
1040
1.0
1070
    74
1070
     0
1000
MTEXTEND
1000
MTEXTBEGIN
1070
    73
1070
     1
1070
    44
1040
1.0
1070
    74
1070
     0
1000
MTEXTEND
1000
MTEXTBEGIN
1070
    73
1070
     1
1070
    44
1040
1.0
1070
    74
1070
     0
1000
MTEXTEND
1000
MTEXTBEGIN
1070
    73
1070
     1
1070
    44
1040
1.0
1070
    74
1070
     0
1000
MTEXTEND
1000
MTEXTBEGIN
1070
    73
1070
     1
1070
    44
1040
1.0
1070
    74
1070
     0
1000
MTEXTEND
1000
MTEXTBEGIN
1070
    73
1070
     1
1070
    44
1040
1.0
1070
    74
1070
     0
1000
MTEXTEND
1000
MTEXTBEGIN
1070
    73
1070
     1
1070
    44
1040
1.0
1070
    74
1070
     0
1000
MTEXTEND
  0
LINE
  5
37E8
330
1A
100
AcDbEntity
  8
SUNPOU
100
AcDbLine
 10
238.483756698941
 20
75.76542547470971
 30
0.0
 11
237.679909128941
 21
78.7654254747097
 31
0.0
  0
LINE
  5
37E9
330
1A
100
AcDbEntity
  8
SUNPOU
100
AcDbLine
 10
238.483756698941
 20
75.76542547470971
 30
0.0
 11
238.483756698941
 21
78.7654254747097
 31
0.0
  0
LINE
  5
37EA
330
1A
100
AcDbEntity
  8
SUNPOU
100
AcDbLine
 10
239.2876042689411
 20
78.7654254747097
 30
0.0
 11
238.483756698941
 21
75.76542547470971
 31
0.0
  0
LINE
  5
37EB
330
1A
100
AcDbEntity
  8
SUNPOU
100
AcDbLine
 10
238.483756698941
 20
85.76542547471039
 30
0.0
 11
238.483756698941
 21
82.76542547471041
 31
0.0
  0
LINE
  5
37EC
330
1A
100
AcDbEntity
  8
SUNPOU
100
AcDbLine
 10
238.483756698941
 20
85.76542547471039
 30
0.0
 11
239.2876042689411
 21
82.76542547471041
 31
0.0
  0
LINE
  5
37ED
330
1A
100
AcDbEntity
  8
SUNPOU
100
AcDbLine
 10
237.679909128941
 20
82.76542547471041
 30
0.0
 11
238.483756698941
 21
85.76542547471039
 31
0.0
  0
DIMENSION
  5
38F4
330
1A
100
AcDbEntity
  8
SUNPOU
100
AcDbDimension
  2
*D5
 10
137.1349109063432
 20
50.01664777025905
 30
0.0
 11
174.2692157887139
 21
53.01664777025905
 31
0.0
 70
    32
  1
φ<>
  3
STANDARD
100
AcDbAlignedDimension
 13
211.4035206710844
 23
75.76542547470971
 33
0.0
 14
137.1349109063432
 24
75.76542547470971
 34
0.0
100
AcDbRotatedDimension
  0
VIEWPORT
  5
22
330
17
100
AcDbEntity
 67
     1
  8
0
100
AcDbViewport
 10
313.6808219178082
 20
148.5
 30
0.0
 40
627.3616438356165
 41
297.0
 68
     2
 69
     1
1001
ACAD
1000
MVIEW
1002
{
1070
    16
1010
0.0
1020
0.0
1030
0.0
1010
0.0
1020
0.0
1030
1.0
1040
0.0
1040
297.0
1040
313.6808219178082
1040
148.5
1040
50.0
1040
0.0
1040
0.0
1070
     0
1070
   100
1070
     1
1070
     0
1070
     0
1070
     0
1070
     0
1070
     0
1040
0.0
1040
0.0
1040
0.0
1040
1.0
1040
1.0
1040
10.0
1040
10.0
1070
     0
1002
{
1002
}
1002
}
  0
VIEWPORT
  5
64
330
17
100
AcDbEntity
 67
     1
  8
VIEWPORT
100
AcDbViewport
 10
210.0
 20
148.5
 30
0.0
 40
420.0
 41
297.0
 68
     1
 69
     2
1001
ACAD
1000
MVIEW
1002
{
1070
    16
1010
0.0
1020
0.0
1030
0.0
1010
0.0
1020
0.0
1030
1.0
1040
0.0
1040
605.8799999999997
1040
420.0
1040
297.0
1040
50.0
1040
0.0
1040
0.0
1070
     0
1070
   100
1070
     1
1070
     0
1070
     0
1070
     0
1070
     0
1070
     0
1040
0.0
1040
0.0
1040
0.0
1040
10.0
1040
10.0
1040
0.0
1040
0.0
1070
     0
1002
{
1002
}
1002
}
  0
ENDSEC
  0
SECTION
  2
OBJECTS
  0
DICTIONARY
  5
C
330
0
100
AcDbDictionary
  3
ACAD_GROUP
350
D
  3
ACAD_LAYOUT
350
8D1
  3
ACAD_MLINESTYLE
350
E
  3
ACAD_PLOTSETTINGS
350
8D2
1001
ACAD
1000
TREAT_AS_HARD
1070
     0
  0
DICTIONARY
  5
AD2
330
1A
100
AcDbDictionary
  3
ACAD_LAYOUTSELFREF
350
39D4
1001
ACAD
1000
TREAT_AS_HARD
1070
     1
  0
DICTIONARY
  5
AD0
330
17
100
AcDbDictionary
  3
ACAD_LAYOUTSELFREF
350
39D3
1001
ACAD
1000
TREAT_AS_HARD
1070
     1
  0
DICTIONARY
  5
D
102
{ACAD_REACTORS
330
C
102
}
330
C
100
AcDbDictionary
  3
*A1
350
1AA0
  3
*A2
350
1AB7
  3
*A3
350
1B67
  3
*A4
350
1EA4
  3
*A5
350
1EA5
1001
ACAD
1000
TREAT_AS_HARD
1070
     0
  0
DICTIONARY
  5
8D1
102
{ACAD_REACTORS
330
C
102
}
330
C
100
AcDbDictionary
1001
ACAD
1000
TREAT_AS_HARD
1070
     0
  0
DICTIONARY
  5
E
102
{ACAD_REACTORS
330
C
102
}
330
C
100
AcDbDictionary
  3
STANDARD
350
13
1001
ACAD
1000
TREAT_AS_HARD
1070
     0
  0
DICTIONARY
  5
8D2
102
{ACAD_REACTORS
330
C
102
}
330
C
100
AcDbDictionary
1001
ACAD
1000
TREAT_AS_HARD
1070
     0
  0
XRECORD
  5
39D4
102
{ACAD_REACTORS
330
AD2
102
}
330
AD2
100
AcDbXrecord
340
1A
  0
XRECORD
  5
39D3
102
{ACAD_REACTORS
330
AD0
102
}
330
AD0
100
AcDbXrecord
340
17
  0
GROUP
  5
1AA0
102
{ACAD_REACTORS
330
D
102
}
330
D
100
AcDbGroup
300

 70
     1
 71
     1
  0
GROUP
  5
1AB7
102
{ACAD_REACTORS
330
D
102
}
330
D
100
AcDbGroup
300

 70
     1
 71
     1
  0
GROUP
  5
1B67
102
{ACAD_REACTORS
330
D
102
}
330
D
100
AcDbGroup
300

 70
     1
 71
     1
  0
GROUP
  5
1EA4
102
{ACAD_REACTORS
330
D
102
}
330
D
100
AcDbGroup
300

 70
     1
 71
     1
  0
GROUP
  5
1EA5
102
{ACAD_REACTORS
330
D
102
}
330
D
100
AcDbGroup
300

 70
     1
 71
     1
  0
MLINESTYLE
  5
13
102
{ACAD_REACTORS
330
E
102
}
330
E
100
AcDbMlineStyle
  2
STANDARD
 70
     0
  3

 62
     0
 51
90.0
 52
90.0
 71
     2
 49
0.5
 62
   256
  6
BYLAYER
 49
-0.5
 62
   256
  6
BYLAYER
  0
ENDSEC
  0
EOF
