  0
SECTION
  2
HEADER
  9
$ACADVER
  1
AC1015
  9
$ACADMAINTVER
 70
     6
  9
$DWGCODEPAGE
  3
ANSI_932
  9
$INSBASE
 10
0.0
 20
0.0
 30
0.0
  9
$EXTMIN
 10
0.0000002654082891
 20
-0.0000004524473525
 30
0.0
  9
$EXTMAX
 10
398.8000002654083
 20
275.7999995475527
 30
0.0
  9
$LIMMIN
 10
0.0
 20
0.0
  9
$LIMMAX
 10
420.0
 20
297.0
  9
$ORTHOMODE
 70
     1
  9
$REGENMODE
 70
     1
  9
$FILLMODE
 70
     1
  9
$QTEXTMODE
 70
     0
  9
$MIRRTEXT
 70
     1
  9
$LTSCALE
 40
1.0
  9
$ATTMODE
 70
     1
  9
$TEXTSIZE
 40
2.5
  9
$TRACEWID
 40
1.0
  9
$TEXTSTYLE
  7
STANDARD
  9
$CLAYER
  8
0
  9
$CELTYPE
  6
BYLAYER
  9
$CECOLOR
 62
   256
  9
$CELTSCALE
 40
1.0
  9
$DISPSILH
 70
     0
  9
$DIMSCALE
 40
1.0
  9
$DIMASZ
 40
3.0
  9
$DIMEXO
 40
3.0
  9
$DIMDLI
 40
7.0
  9
$DIMRND
 40
0.0
  9
$DIMDLE
 40
0.0
  9
$DIMEXE
 40
1.5
  9
$DIMTP
 40
0.0
  9
$DIMTM
 40
0.0
  9
$DIMTXT
 40
3.0
  9
$DIMCEN
 40
150.0
  9
$DIMTSZ
 40
0.0
  9
$DIMTOL
 70
     0
  9
$DIMLIM
 70
     0
  9
$DIMTIH
 70
     0
  9
$DIMTOH
 70
     0
  9
$DIMSE1
 70
     0
  9
$DIMSE2
 70
     0
  9
$DIMTAD
 70
     3
  9
$DIMZIN
 70
     0
  9
$DIMBLK
  1

  9
$DIMASO
 70
     1
  9
$DIMSHO
 70
     1
  9
$DIMPOST
  1

  9
$DIMAPOST
  1

  9
$DIMALT
 70
     0
  9
$DIMALTD
 70
     2
  9
$DIMALTF
 40
25.4
  9
$DIMLFAC
 40
1.0
  9
$DIMTOFL
 70
     1
  9
$DIMTVP
 40
0.0
  9
$DIMTIX
 70
     0
  9
$DIMSOXD
 70
     0
  9
$DIMSAH
 70
     1
  9
$DIMBLK1
  1
OPEN
  9
$DIMBLK2
  1
OPEN
  9
$DIMSTYLE
  2
STANDARD
  9
$DIMCLRD
 70
   256
  9
$DIMCLRE
 70
   256
  9
$DIMCLRT
 70
   256
  9
$DIMTFAC
 40
1.0
  9
$DIMGAP
 40
1.0
  9
$DIMJUST
 70
     0
  9
$DIMSD1
 70
     0
  9
$DIMSD2
 70
     0
  9
$DIMTOLJ
 70
     1
  9
$DIMTZIN
 70
     0
  9
$DIMALTZ
 70
     0
  9
$DIMALTTZ
 70
     0
  9
$DIMUPT
 70
     0
  9
$DIMDEC
 70
     0
  9
$DIMTDEC
 70
     0
  9
$DIMALTU
 70
     2
  9
$DIMALTTD
 70
     2
  9
$DIMTXSTY
  7
STANDARD
  9
$DIMAUNIT
 70
     0
  9
$DIMADEC
 70
     0
  9
$DIMALTRND
 40
0.0
  9
$DIMAZIN
 70
     0
  9
$DIMDSEP
 70
    46
  9
$DIMATFIT
 70
     3
  9
$DIMFRAC
 70
     0
  9
$DIMLDRBLK
  1
OPEN
  9
$DIMLUNIT
 70
     2
  9
$DIMLWD
 70
    -1
  9
$DIMLWE
 70
    -1
  9
$DIMTMOVE
 70
     0
  9
$LUNITS
 70
     2
  9
$LUPREC
 70
     4
  9
$SKETCHINC
 40
1.0
  9
$FILLETRAD
 40
55.0
  9
$AUNITS
 70
     0
  9
$AUPREC
 70
     0
  9
$MENU
  1
.
  9
$ELEVATION
 40
0.0
  9
$PELEVATION
 40
0.0
  9
$THICKNESS
 40
0.0
  9
$LIMCHECK
 70
     0
  9
$CHAMFERA
 40
10.0
  9
$CHAMFERB
 40
10.0
  9
$CHAMFERC
 40
20.0
  9
$CHAMFERD
 40
0.0
  9
$SKPOLY
 70
     0
  9
$TDCREATE
 40
2451074.584006712
  9
$TDUCREATE
 40
2451074.209006713
  9
$TDUPDATE
 40
2455838.561009513
  9
$TDUUPDATE
 40
2455838.186009513
  9
$TDINDWG
 40
0.0680310880
  9
$TDUSRTIMER
 40
0.0680310880
  9
$USRTIMER
 70
     1
  9
$ANGBASE
 50
0.0
  9
$ANGDIR
 70
     0
  9
$PDMODE
 70
     0
  9
$PDSIZE
 40
0.0
  9
$PLINEWID
 40
0.0
  9
$SPLFRAME
 70
     0
  9
$SPLINETYPE
 70
     6
  9
$SPLINESEGS
 70
     8
  9
$HANDSEED
  5
4DAF
  9
$SURFTAB1
 70
     6
  9
$SURFTAB2
 70
     6
  9
$SURFTYPE
 70
     6
  9
$SURFU
 70
     6
  9
$SURFV
 70
     6
  9
$UCSBASE
  2

  9
$UCSNAME
  2

  9
$UCSORG
 10
0.0
 20
0.0
 30
0.0
  9
$UCSXDIR
 10
1.0
 20
0.0
 30
0.0
  9
$UCSYDIR
 10
0.0
 20
1.0
 30
0.0
  9
$UCSORTHOREF
  2

  9
$UCSORTHOVIEW
 70
     0
  9
$UCSORGTOP
 10
0.0
 20
0.0
 30
0.0
  9
$UCSORGBOTTOM
 10
0.0
 20
0.0
 30
0.0
  9
$UCSORGLEFT
 10
0.0
 20
0.0
 30
0.0
  9
$UCSORGRIGHT
 10
0.0
 20
0.0
 30
0.0
  9
$UCSORGFRONT
 10
0.0
 20
0.0
 30
0.0
  9
$UCSORGBACK
 10
0.0
 20
0.0
 30
0.0
  9
$PUCSBASE
  2

  9
$PUCSNAME
  2

  9
$PUCSORG
 10
0.0
 20
0.0
 30
0.0
  9
$PUCSXDIR
 10
1.0
 20
0.0
 30
0.0
  9
$PUCSYDIR
 10
0.0
 20
1.0
 30
0.0
  9
$PUCSORTHOREF
  2

  9
$PUCSORTHOVIEW
 70
     0
  9
$PUCSORGTOP
 10
0.0
 20
0.0
 30
0.0
  9
$PUCSORGBOTTOM
 10
0.0
 20
0.0
 30
0.0
  9
$PUCSORGLEFT
 10
0.0
 20
0.0
 30
0.0
  9
$PUCSORGRIGHT
 10
0.0
 20
0.0
 30
0.0
  9
$PUCSORGFRONT
 10
0.0
 20
0.0
 30
0.0
  9
$PUCSORGBACK
 10
0.0
 20
0.0
 30
0.0
  9
$USERI1
 70
     0
  9
$USERI2
 70
     0
  9
$USERI3
 70
     0
  9
$USERI4
 70
     0
  9
$USERI5
 70
     0
  9
$USERR1
 40
0.0
  9
$USERR2
 40
0.0
  9
$USERR3
 40
0.0
  9
$USERR4
 40
0.0
  9
$USERR5
 40
0.0
  9
$WORLDVIEW
 70
     1
  9
$SHADEDGE
 70
     3
  9
$SHADEDIF
 70
    70
  9
$TILEMODE
 70
     1
  9
$MAXACTVP
 70
    16
  9
$PINSBASE
 10
0.0
 20
0.0
 30
0.0
  9
$PLIMCHECK
 70
     0
  9
$PEXTMIN
 10
0.0
 20
0.0
 30
0.0
  9
$PEXTMAX
 10
420.0
 20
297.0
 30
0.0
  9
$PLIMMIN
 10
0.0
 20
0.0
  9
$PLIMMAX
 10
420.0
 20
297.0
  9
$UNITMODE
 70
     0
  9
$VISRETAIN
 70
     0
  9
$PLINEGEN
 70
     0
  9
$PSLTSCALE
 70
     1
  9
$TREEDEPTH
 70
  3020
  9
$CMLSTYLE
  2
STANDARD
  9
$CMLJUST
 70
     0
  9
$CMLSCALE
 40
1.0
  9
$PROXYGRAPHICS
 70
     1
  9
$MEASUREMENT
 70
     1
  9
$CELWEIGHT
370
    -1
  9
$ENDCAPS
280
     0
  9
$JOINSTYLE
280
     0
  9
$LWDISPLAY
290
     0
  9
$INSUNITS
 70
     0
  9
$HYPERLINKBASE
  1

  9
$STYLESHEET
  1
print.ctb
  9
$XEDIT
290
     1
  9
$CEPSNTYPE
380
     0
  9
$PSTYLEMODE
290
     1
  9
$FINGERPRINTGUID
  2
{D4F8574C-2E33-4D51-A6AD-99326D707132}
  9
$VERSIONGUID
  2
{BCEFE8F5-BB73-4B0D-AC55-F8C0FE396C41}
  9
$EXTNAMES
290
     1
  9
$PSVPSCALE
 40
0.0
  9
$OLESTARTUP
290
     0
  0
ENDSEC
  0
SECTION
  2
CLASSES
  0
CLASS
  1
ACDBDICTIONARYWDFLT
  2
AcDbDictionaryWithDefault
  3
AutoCAD 2000
 90
        0
280
     0
281
     0
  0
CLASS
  1
ACDBPLACEHOLDER
  2
AcDbPlaceHolder
  3
AutoCAD 2000
 90
        0
280
     0
281
     0
  0
CLASS
  1
LAYOUT
  2
AcDbLayout
  3
AutoCAD 2000
 90
        0
280
     0
281
     0
  0
CLASS
  1
LONG_TRANSACTION
  2
AcDbLongTransaction
  3
AutoCAD 2000
 90
    32768
280
     0
281
     0
  0
CLASS
  1
LWPOLYLINE
  2
AcDbPolyline
  3
AutoCAD 2000
 90
    32768
280
     0
281
     1
  0
CLASS
  1
HATCH
  2
AcDbHatch
  3
AutoCAD 2000
 90
    32768
280
     0
281
     1
  0
CLASS
  1
XRECORD
  2
AcDbXrecord
  3
AutoCAD 2000
 90
    32768
280
     0
281
     0
  0
CLASS
  1
LONG_TRANSACTION
  2
AcDbLongTransaction
  3
AutoCAD 2000
 90
    32768
280
     0
281
     0
  0
CLASS
  1
LWPOLYLINE
  2
AcDbPolyline
  3
AutoCAD 2000
 90
    32768
280
     0
281
     1
  0
CLASS
  1
HATCH
  2
AcDbHatch
  3
AutoCAD 2000
 90
    32768
280
     0
281
     1
  0
CLASS
  1
XRECORD
  2
AcDbXrecord
  3
AutoCAD 2000
 90
    32768
280
     0
281
     0
  0
CLASS
  1
LONG_TRANSACTION
  2
AcDbLongTransaction
  3
AutoCAD 2000
 90
    32768
280
     0
281
     0
  0
CLASS
  1
LWPOLYLINE
  2
AcDbPolyline
  3
AutoCAD 2000
 90
    32768
280
     0
281
     1
  0
CLASS
  1
HATCH
  2
AcDbHatch
  3
AutoCAD 2000
 90
    32768
280
     0
281
     1
  0
CLASS
  1
XRECORD
  2
AcDbXrecord
  3
AutoCAD 2000
 90
    32768
280
     0
281
     0
  0
CLASS
  1
LONG_TRANSACTION
  2
AcDbLongTransaction
  3
AutoCAD 2000
 90
    32768
280
     0
281
     0
  0
CLASS
  1
LWPOLYLINE
  2
AcDbPolyline
  3
AutoCAD 2000
 90
    32768
280
     0
281
     1
  0
CLASS
  1
HATCH
  2
AcDbHatch
  3
AutoCAD 2000
 90
    32768
280
     0
281
     1
  0
CLASS
  1
XRECORD
  2
AcDbXrecord
  3
AutoCAD 2000
 90
    32768
280
     0
281
     0
  0
CLASS
  1
LONG_TRANSACTION
  2
AcDbLongTransaction
  3
AutoCAD 2000
 90
    32768
280
     0
281
     0
  0
CLASS
  1
LWPOLYLINE
  2
AcDbPolyline
  3
AutoCAD 2000
 90
    32768
280
     0
281
     1
  0
CLASS
  1
HATCH
  2
AcDbHatch
  3
AutoCAD 2000
 90
    32768
280
     0
281
     1
  0
CLASS
  1
XRECORD
  2
AcDbXrecord
  3
AutoCAD 2000
 90
    32768
280
     0
281
     0
  0
CLASS
  1
LONG_TRANSACTION
  2
AcDbLongTransaction
  3
AutoCAD 2000
 90
    32768
280
     0
281
     0
  0
CLASS
  1
LWPOLYLINE
  2
AcDbPolyline
  3
AutoCAD 2000
 90
    32768
280
     0
281
     1
  0
CLASS
  1
HATCH
  2
AcDbHatch
  3
AutoCAD 2000
 90
    32768
280
     0
281
     1
  0
CLASS
  1
XRECORD
  2
AcDbXrecord
  3
AutoCAD 2000
 90
    32768
280
     0
281
     0
  0
CLASS
  1
LONG_TRANSACTION
  2
AcDbLongTransaction
  3
AutoCAD 2000
 90
    32768
280
     0
281
     0
  0
CLASS
  1
LWPOLYLINE
  2
AcDbPolyline
  3
AutoCAD 2000
 90
    32768
280
     0
281
     1
  0
CLASS
  1
HATCH
  2
AcDbHatch
  3
AutoCAD 2000
 90
    32768
280
     0
281
     1
  0
CLASS
  1
XRECORD
  2
AcDbXrecord
  3
AutoCAD 2000
 90
    32768
280
     0
281
     0
  0
CLASS
  1
LONG_TRANSACTION
  2
AcDbLongTransaction
  3
AutoCAD 2000
 90
    32768
280
     0
281
     0
  0
CLASS
  1
LWPOLYLINE
  2
AcDbPolyline
  3
AutoCAD 2000
 90
    32768
280
     0
281
     1
  0
CLASS
  1
HATCH
  2
AcDbHatch
  3
AutoCAD 2000
 90
    32768
280
     0
281
     1
  0
CLASS
  1
XRECORD
  2
AcDbXrecord
  3
AutoCAD 2000
 90
    32768
280
     0
281
     0
  0
ENDSEC
  0
SECTION
  2
TABLES
  0
TABLE
  2
VPORT
  5
8
330
0
100
AcDbSymbolTable
 70
     2
  0
VPORT
  5
4DAE
330
8
100
AcDbSymbolTableRecord
100
AcDbViewportTableRecord
  2
*Active
 70
     0
 10
0.0
 20
0.0
 11
1.0
 21
1.0
 12
209.9839807163665
 22
153.2340390244925
 13
0.0
 23
0.0
 14
5.0
 24
5.0
 15
0.0
 25
0.0
 16
0.0
 26
0.0
 36
1.0
 17
0.0
 27
0.0
 37
0.0
 40
308.9613795674607
 41
1.527918781725888
 42
50.0
 43
0.0
 44
0.0
 50
0.0
 51
0.0
 71
     0
 72
   100
 73
     1
 74
     0
 75
     0
 76
     0
 77
     0
 78
     0
281
     0
 65
     1
110
0.0
120
0.0
130
0.0
111
1.0
121
0.0
131
0.0
112
0.0
122
1.0
132
0.0
 79
     0
146
0.0
  0
ENDTAB
  0
TABLE
  2
LTYPE
  5
5
330
0
100
AcDbSymbolTable
 70
     2
  0
LTYPE
  5
14
330
5
100
AcDbSymbolTableRecord
100
AcDbLinetypeTableRecord
  2
BYBLOCK
 70
     0
  3

 72
    65
 73
     0
 40
0.0
  0
LTYPE
  5
15
330
5
100
AcDbSymbolTableRecord
100
AcDbLinetypeTableRecord
  2
BYLAYER
 70
     0
  3

 72
    65
 73
     0
 40
0.0
  0
LTYPE
  5
16
330
5
100
AcDbSymbolTableRecord
100
AcDbLinetypeTableRecord
  2
CONTINUOUS
 70
     0
  3
Solid line
 72
    65
 73
     0
 40
0.0
  0
LTYPE
  5
120
330
5
100
AcDbSymbolTableRecord
100
AcDbLinetypeTableRecord
  2
CENTER
 70
     0
  3
____ _ ____ _ ____ _ ____ _ ____ _ ____ _ ____ 
 72
    65
 73
     4
 40
2.0
 49
1.25
 74
     0
 49
-0.25
 74
     0
 49
0.25
 74
     0
 49
-0.25
 74
     0
  0
ENDTAB
  0
TABLE
  2
LAYER
  5
2
330
0
100
AcDbSymbolTable
 70
     9
  0
LAYER
  5
F
330
2
100
AcDbSymbolTableRecord
100
AcDbLayerTableRecord
  2
0
 70
     0
 62
     7
  6
CONTINUOUS
370
    -3
390
33A
  0
LAYER
  5
62
330
2
100
AcDbSymbolTableRecord
100
AcDbLayerTableRecord
  2
VIEWPORT
 70
     0
 62
     7
  6
CONTINUOUS
370
    -3
390
33A
  0
LAYER
  5
6B
330
2
100
AcDbSymbolTableRecord
100
AcDbLayerTableRecord
  2
ZUWAKU
 70
     0
 62
     7
  6
CONTINUOUS
370
    -3
390
33A
  0
LAYER
  5
140
330
2
100
AcDbSymbolTableRecord
100
AcDbLayerTableRecord
  2
SEIHIN
 70
     0
 62
     3
  6
CONTINUOUS
370
    -3
390
33A
  0
LAYER
  5
141
330
2
100
AcDbSymbolTableRecord
100
AcDbLayerTableRecord
  2
SUNPOU
 70
     0
 62
     4
  6
CONTINUOUS
370
    -3
390
33A
  0
LAYER
  5
142
330
2
100
AcDbSymbolTableRecord
100
AcDbLayerTableRecord
  2
CENTER L
 70
     0
 62
     1
  6
CENTER
370
    -3
390
33A
  0
LAYER
  5
143
330
2
100
AcDbSymbolTableRecord
100
AcDbLayerTableRecord
  2
DEFPOINTS
 70
     0
 62
     7
  6
CONTINUOUS
290
     0
370
    -3
390
33A
  0
LAYER
  5
5D7
330
2
100
AcDbSymbolTableRecord
100
AcDbLayerTableRecord
  2
MOJI
 70
     0
 62
     2
  6
CONTINUOUS
370
    -3
390
33A
  0
LAYER
  5
A31
330
2
100
AcDbSymbolTableRecord
100
AcDbLayerTableRecord
  2
ﾊｯﾁﾝｸﾞ
 70
     0
 62
     7
  6
CONTINUOUS
370
    -3
390
33A
  0
ENDTAB
  0
TABLE
  2
STYLE
  5
3
330
0
100
AcDbSymbolTable
 70
     2
  0
STYLE
  5
10
330
3
100
AcDbSymbolTableRecord
100
AcDbTextStyleTableRecord
  2
STANDARD
 70
     0
 40
0.0
 41
1.0
 50
0.0
 71
     0
 42
2.5
  3
TXT
  4
bigfont.shx
  0
STYLE
  5
5D8
330
3
100
AcDbSymbolTableRecord
100
AcDbTextStyleTableRecord
  2
ｽﾀｲﾙ1
 70
     0
 40
0.0
 41
1.0
 50
0.0
 71
     0
 42
2.5
  3
MS PGothic.ttf
  4

1001
ACAD
1000
MS PGothic
1071
    32818
  0
ENDTAB
  0
TABLE
  2
VIEW
  5
6
330
0
100
AcDbSymbolTable
 70
     0
  0
ENDTAB
  0
TABLE
  2
UCS
  5
7
330
0
100
AcDbSymbolTable
 70
     0
  0
ENDTAB
  0
TABLE
  2
APPID
  5
9
330
0
100
AcDbSymbolTable
 70
     1
  0
APPID
  5
11
330
9
100
AcDbSymbolTableRecord
100
AcDbRegAppTableRecord
  2
ACAD
 70
     0
  0
ENDTAB
  0
TABLE
  2
DIMSTYLE
  5
A
330
0
100
AcDbSymbolTable
 70
     1
100
AcDbDimStyleTable
 71
     0
  0
DIMSTYLE
105
1D
102
{ACAD_REACTORS
330
419A
330
419D
330
4275
330
4276
330
428B
102
}
330
A
100
AcDbSymbolTableRecord
100
AcDbDimStyleTableRecord
  2
STANDARD
 70
     0
340
10
  0
ENDTAB
  0
TABLE
  2
BLOCK_RECORD
  5
1
330
0
100
AcDbSymbolTable
 70
     7
  0
BLOCK_RECORD
  5
1A
102
{ACAD_XDICTIONARY
360
36A
102
}
330
1
100
AcDbSymbolTableRecord
100
AcDbBlockTableRecord
  2
*MODEL_SPACE
340
33D
  0
BLOCK_RECORD
  5
17
102
{ACAD_XDICTIONARY
360
368
102
}
330
1
100
AcDbSymbolTableRecord
100
AcDbBlockTableRecord
  2
*PAPER_SPACE
340
33E
  0
BLOCK_RECORD
  5
B2
330
1
100
AcDbSymbolTableRecord
100
AcDbBlockTableRecord
  2
_OPEN
340
0
102
{BLKREFS
331
43C6
331
43C7
331
43BD
331
43BE
331
43E1
331
43E2
331
43CF
331
43D0
331
43D8
331
43D9
102
}
  0
BLOCK_RECORD
  5
10FA
330
1
100
AcDbSymbolTableRecord
100
AcDbBlockTableRecord
  2
*X1
340
0
102
{BLKREFS
331
6A2
102
}
  0
BLOCK_RECORD
  5
42B6
330
1
100
AcDbSymbolTableRecord
100
AcDbBlockTableRecord
  2
*D2
340
0
  0
BLOCK_RECORD
  5
42C2
330
1
100
AcDbSymbolTableRecord
100
AcDbBlockTableRecord
  2
*D3
340
0
  0
BLOCK_RECORD
  5
42CE
330
1
100
AcDbSymbolTableRecord
100
AcDbBlockTableRecord
  2
*D4
340
0
  0
BLOCK_RECORD
  5
42DA
330
1
100
AcDbSymbolTableRecord
100
AcDbBlockTableRecord
  2
*D5
340
0
  0
BLOCK_RECORD
  5
42E6
330
1
100
AcDbSymbolTableRecord
100
AcDbBlockTableRecord
  2
*D6
340
0
  0
ENDTAB
  0
ENDSEC
  0
SECTION
  2
BLOCKS
  0
BLOCK
  5
1B
330
1A
100
AcDbEntity
  8
0
100
AcDbBlockBegin
  2
*MODEL_SPACE
 70
     0
 10
0.0
 20
0.0
 30
0.0
  3
*MODEL_SPACE
  1

  0
ENDBLK
  5
1C
330
1A
100
AcDbEntity
  8
0
100
AcDbBlockEnd
  0
BLOCK
  5
18
330
17
100
AcDbEntity
 67
     1
  8
0
100
AcDbBlockBegin
  2
*PAPER_SPACE
 70
     0
 10
0.0
 20
0.0
 30
0.0
  3
*PAPER_SPACE
  1

  0
ENDBLK
  5
19
330
17
100
AcDbEntity
 67
     1
  8
0
100
AcDbBlockEnd
  0
BLOCK
  5
B3
330
B2
100
AcDbEntity
  8
0
100
AcDbBlockBegin
  2
_OPEN
 70
     0
 10
0.0
 20
0.0
 30
0.0
  3
_OPEN
  1

  0
LINE
  5
B4
330
B2
100
AcDbEntity
  8
0
  6
ByBlock
 62
     0
100
AcDbLine
 10
-1.0
 20
0.1666666666666666
 30
0.0
 11
0.0
 21
0.0
 31
0.0
  0
LINE
  5
B5
330
B2
100
AcDbEntity
  8
0
  6
ByBlock
 62
     0
100
AcDbLine
 10
0.0
 20
0.0
 30
0.0
 11
-1.0
 21
-0.1666666666666666
 31
0.0
  0
LINE
  5
B6
330
B2
100
AcDbEntity
  8
0
  6
ByBlock
 62
     0
100
AcDbLine
 10
0.0
 20
0.0
 30
0.0
 11
-1.0
 21
0.0
 31
0.0
  0
ENDBLK
  5
B7
330
B2
100
AcDbEntity
  8
0
100
AcDbBlockEnd
  0
BLOCK
  5
128E
330
10FA
100
AcDbEntity
  8
0
100
AcDbBlockBegin
  2
*X1
 70
     1
 10
0.0
 20
0.0
 30
0.0
  3
*X1
  1

  0
LINE
  5
10FB
330
10FA
100
AcDbEntity
  8
0
 62
     0
100
AcDbLine
 10
34.52110634279887
 20
11.30208408269516
 30
0.0
 11
34.19819087794135
 21
11.62499954755267
 31
0.0
  0
LINE
  5
10FC
330
10FA
100
AcDbEntity
  8
0
 62
     0
100
AcDbLine
 10
34.52110634279884
 20
10.85307127664168
 30
0.0
 11
33.74917807188788
 21
11.62499954755267
 31
0.0
  0
LINE
  5
10FD
330
10FA
100
AcDbEntity
  8
0
 62
     0
100
AcDbLine
 10
34.52110634279884
 20
10.40405847058823
 30
0.0
 11
33.3105393697914
 21
11.61462544359568
 31
0.0
  0
LINE
  5
10FE
330
10FA
100
AcDbEntity
  8
0
 62
     0
100
AcDbLine
 10
34.52110634279884
 20
9.955045664534793
 30
0.0
 11
33.12110634279884
 21
11.35504566453482
 31
0.0
  0
LINE
  5
10FF
330
10FA
100
AcDbEntity
  8
0
 62
     0
100
AcDbLine
 10
34.52110634279884
 20
9.506032858481347
 30
0.0
 11
33.12110634279881
 21
10.90603285848135
 31
0.0
  0
LINE
  5
1100
330
10FA
100
AcDbEntity
  8
0
 62
     0
100
AcDbLine
 10
34.52110634279884
 20
9.057020052427873
 30
0.0
 11
33.12110634279881
 21
10.4570200524279
 31
0.0
  0
LINE
  5
1101
330
10FA
100
AcDbEntity
  8
0
 62
     0
100
AcDbLine
 10
32.07110634279885
 20
11.05800724637441
 30
0.0
 11
31.50411404162062
 21
11.62499954755267
 31
0.0
  0
LINE
  5
1102
330
10FA
100
AcDbEntity
  8
0
 62
     0
100
AcDbLine
 10
34.52110634279884
 20
8.608007246374427
 30
0.0
 11
33.12110634279881
 21
10.00800724637446
 31
0.0
  0
LINE
  5
1103
330
10FA
100
AcDbEntity
  8
0
 62
     0
100
AcDbLine
 10
32.07110634279885
 20
10.60899444032097
 30
0.0
 11
31.05510123556721
 21
11.62499954755261
 31
0.0
  0
LINE
  5
1104
330
10FA
100
AcDbEntity
  8
0
 62
     0
100
AcDbLine
 10
34.52110634279884
 20
8.158994440320981
 30
0.0
 11
33.12110634279881
 21
9.558994440321015
 31
0.0
  0
LINE
  5
1105
330
10FA
100
AcDbEntity
  8
0
 62
     0
100
AcDbLine
 10
32.07110634279888
 20
10.15998163426746
 30
0.0
 11
30.71835086023028
 21
11.51273711683603
 31
0.0
  0
LINE
  5
1106
330
10FA
100
AcDbEntity
  8
0
 62
     0
100
AcDbLine
 10
34.52110634279881
 20
7.709981634267506
 30
0.0
 11
33.12110634279881
 21
9.109981634267541
 31
0.0
  0
LINE
  5
1107
330
10FA
100
AcDbEntity
  8
0
 62
     0
100
AcDbLine
 10
32.07110634279888
 20
9.710968828213992
 30
0.0
 11
30.67110634279888
 21
11.11096882821402
 31
0.0
  0
LINE
  5
1108
330
10FA
100
AcDbEntity
  8
0
 62
     0
100
AcDbLine
 10
34.52110634279884
 20
7.26096882821406
 30
0.0
 11
33.12110634279881
 21
8.660968828214066
 31
0.0
  0
LINE
  5
1109
330
10FA
100
AcDbEntity
  8
0
 62
     0
100
AcDbLine
 10
32.07110634279888
 20
9.261956022160575
 30
0.0
 11
30.67110634279885
 21
10.66195602216058
 31
0.0
  0
LINE
  5
110A
330
10FA
100
AcDbEntity
  8
0
 62
     0
100
AcDbLine
 10
34.52110634279884
 20
6.811956022160615
 30
0.0
 11
33.12110634279881
 21
8.211956022160649
 31
0.0
  0
LINE
  5
110B
330
10FA
100
AcDbEntity
  8
0
 62
     0
100
AcDbLine
 10
32.07110634279888
 20
8.8129432161071
 30
0.0
 11
30.67110634279885
 21
10.21294321610713
 31
0.0
  0
LINE
  5
110C
330
10FA
100
AcDbEntity
  8
0
 62
     0
100
AcDbLine
 10
34.52110634279881
 20
6.36294321610714
 30
0.0
 11
33.12110634279878
 21
7.762943216107174
 31
0.0
  0
LINE
  5
110D
330
10FA
100
AcDbEntity
  8
0
 62
     0
100
AcDbLine
 10
32.07110634279885
 20
8.363930410053626
 30
0.0
 11
30.67110634279882
 21
9.76393041005366
 31
0.0
  0
LINE
  5
110E
330
10FA
100
AcDbEntity
  8
0
 62
     0
100
AcDbLine
 10
34.52110634279884
 20
5.913930410053637
 30
0.0
 11
33.12110634279878
 21
7.313930410053728
 31
0.0
  0
LINE
  5
110F
330
10FA
100
AcDbEntity
  8
0
 62
     0
100
AcDbLine
 10
32.07110634279888
 20
7.914917604000208
 30
0.0
 11
30.67110634279885
 21
9.314917604000243
 31
0.0
  0
LINE
  5
1110
330
10FA
100
AcDbEntity
  8
0
 62
     0
100
AcDbLine
 10
28.92110634279887
 20
11.06491760400021
 30
0.0
 11
28.36102439924639
 21
11.62499954755267
 31
0.0
  0
LINE
  5
1111
330
10FA
100
AcDbEntity
  8
0
 62
     0
100
AcDbLine
 10
34.52110634279887
 20
5.46491760400022
 30
0.0
 11
33.12110634279881
 21
6.864917604000282
 31
0.0
  0
LINE
  5
1112
330
10FA
100
AcDbEntity
  8
0
 62
     0
100
AcDbLine
 10
32.07110634279885
 20
7.465904797946734
 30
0.0
 11
30.67110634279885
 21
8.865904797946768
 31
0.0
  0
LINE
  5
1113
330
10FA
100
AcDbEntity
  8
0
 62
     0
100
AcDbLine
 10
28.92110634279887
 20
10.61590479794674
 30
0.0
 11
27.91201159319294
 21
11.62499954755267
 31
0.0
  0
LINE
  5
1114
330
10FA
100
AcDbEntity
  8
0
 62
     0
100
AcDbLine
 10
34.52110634279884
 20
5.015904797946745
 30
0.0
 11
33.12110634279884
 21
6.41590479794678
 31
0.0
  0
LINE
  5
1115
330
10FA
100
AcDbEntity
  8
0
 62
     0
100
AcDbLine
 10
32.07110634279885
 20
7.016891991893288
 30
0.0
 11
30.67110634279882
 21
8.416891991893294
 31
0.0
  0
LINE
  5
1116
330
10FA
100
AcDbEntity
  8
0
 62
     0
100
AcDbLine
 10
28.92110634279885
 20
10.16689199189329
 30
0.0
 11
27.57122498113676
 21
11.51677335355538
 31
0.0
  0
LINE
  5
1117
330
10FA
100
AcDbEntity
  8
0
 62
     0
100
AcDbLine
 10
34.52110634279884
 20
4.566891991893299
 30
0.0
 11
33.12110634279881
 21
5.966891991893305
 31
0.0
  0
LINE
  5
1118
330
10FA
100
AcDbEntity
  8
0
 62
     0
100
AcDbLine
 10
32.07110634279888
 20
6.567879185839814
 30
0.0
 11
30.67110634279885
 21
7.967879185839848
 31
0.0
  0
LINE
  5
1119
330
10FA
100
AcDbEntity
  8
0
 62
     0
100
AcDbLine
 10
28.92110634279887
 20
9.717879185839819
 30
0.0
 11
27.52110634279887
 21
11.11787918583979
 31
0.0
  0
LINE
  5
111A
330
10FA
100
AcDbEntity
  8
0
 62
     0
100
AcDbLine
 10
34.52110634279887
 20
4.117879185839825
 30
0.0
 11
33.12110634279884
 21
5.517879185839859
 31
0.0
  0
LINE
  5
111B
330
10FA
100
AcDbEntity
  8
0
 62
     0
100
AcDbLine
 10
32.07110634279885
 20
6.118866379786368
 30
0.0
 11
30.67110634279882
 21
7.518866379786402
 31
0.0
  0
LINE
  5
111C
330
10FA
100
AcDbEntity
  8
0
 62
     0
100
AcDbLine
 10
28.92110634279885
 20
9.268866379786373
 30
0.0
 11
27.52110634279887
 21
10.66886637978637
 31
0.0
  0
LINE
  5
111D
330
10FA
100
AcDbEntity
  8
0
 62
     0
100
AcDbLine
 10
34.48512366535388
 20
3.704849057231371
 30
0.0
 11
33.12110634279881
 21
5.068866379786413
 31
0.0
  0
LINE
  5
111E
330
10FA
100
AcDbEntity
  8
0
 62
     0
100
AcDbLine
 10
32.07110634279885
 20
5.669853573732922
 30
0.0
 11
30.67110634279882
 21
7.069853573732956
 31
0.0
  0
LINE
  5
111F
330
10FA
100
AcDbEntity
  8
0
 62
     0
100
AcDbLine
 10
28.92110634279885
 20
8.819853573732927
 30
0.0
 11
27.52110634279887
 21
10.2198535737329
 31
0.0
  0
LINE
  5
1120
330
10FA
100
AcDbEntity
  8
0
 62
     0
100
AcDbLine
 10
34.16596036897917
 20
3.574999547552607
 30
0.0
 11
33.12110634279881
 21
4.619853573732967
 31
0.0
  0
LINE
  5
1121
330
10FA
100
AcDbEntity
  8
0
 62
     0
100
AcDbLine
 10
28.92110634279885
 20
8.370840767679453
 30
0.0
 11
27.52110634279884
 21
9.770840767679459
 31
0.0
  0
LINE
  5
1122
330
10FA
100
AcDbEntity
  8
0
 62
     0
100
AcDbLine
 10
32.07110634279882
 20
5.220840767679447
 30
0.0
 11
30.67110634279882
 21
6.620840767679482
 31
0.0
  0
LINE
  5
1123
330
10FA
100
AcDbEntity
  8
0
 62
     0
100
AcDbLine
 10
26.20860634279881
 20
11.08334076767945
 30
0.0
 11
25.66694756292565
 21
11.62499954755264
 31
0.0
  0
LINE
  5
1124
330
10FA
100
AcDbEntity
  8
0
 62
     0
100
AcDbLine
 10
33.71694756292569
 20
3.574999547552579
 30
0.0
 11
33.12110634279881
 21
4.170840767679493
 31
0.0
  0
LINE
  5
1125
330
10FA
100
AcDbEntity
  8
0
 62
     0
100
AcDbLine
 10
28.92110634279885
 20
7.921827961626036
 30
0.0
 11
27.52110634279887
 21
9.321827961626013
 31
0.0
  0
LINE
  5
1126
330
10FA
100
AcDbEntity
  8
0
 62
     0
100
AcDbLine
 10
26.20860634279884
 20
10.63432796162604
 30
0.0
 11
25.21793475687221
 21
11.62499954755264
 31
0.0
  0
LINE
  5
1127
330
10FA
100
AcDbEntity
  8
0
 62
     0
100
AcDbLine
 10
32.05812719247609
 20
4.784807111948794
 30
0.0
 11
30.67110634279882
 21
6.171827961626036
 31
0.0
  0
LINE
  5
1128
330
10FA
100
AcDbEntity
  8
0
 62
     0
100
AcDbLine
 10
28.92110634279885
 20
7.472815155572561
 30
0.0
 11
27.52110634279884
 21
8.872815155572538
 31
0.0
  0
LINE
  5
1129
330
10FA
100
AcDbEntity
  8
0
 62
     0
100
AcDbLine
 10
26.1108160697419
 20
10.28310542862951
 30
0.0
 11
24.76892195081876
 21
11.62499954755264
 31
0.0
  0
LINE
  5
112A
330
10FA
100
AcDbEntity
  8
0
 62
     0
100
AcDbLine
 10
31.96163454484747
 20
4.432286953523913
 30
0.0
 11
30.67110634279882
 21
5.72281515557259
 31
0.0
  0
LINE
  5
112B
330
10FA
100
AcDbEntity
  8
0
 62
     0
100
AcDbLine
 10
28.92110634279882
 20
7.023802349519087
 30
0.0
 11
27.52110634279884
 21
8.423802349519093
 31
0.0
  0
LINE
  5
112C
330
10FA
100
AcDbEntity
  8
0
 62
     0
100
AcDbLine
 10
25.71990914476526
 20
10.22499954755264
 30
0.0
 11
24.31990914476529
 21
11.62499954755264
 31
0.0
  0
LINE
  5
112D
330
10FA
100
AcDbEntity
  8
0
 62
     0
100
AcDbLine
 10
31.79911860688565
 20
4.145790085432281
 30
0.0
 11
30.63534847321907
 21
5.309560219098869
 31
0.0
  0
LINE
  5
112E
330
10FA
100
AcDbEntity
  8
0
 62
     0
100
AcDbLine
 10
28.92110634279885
 20
6.574789543465669
 30
0.0
 11
27.52110634279887
 21
7.974789543465647
 31
0.0
  0
LINE
  5
112F
330
10FA
100
AcDbEntity
  8
0
 62
     0
100
AcDbLine
 10
25.27089633871185
 20
10.22499954755267
 30
0.0
 11
23.90211297412315
 21
11.59378291214136
 31
0.0
  0
LINE
  5
1130
330
10FA
100
AcDbEntity
  8
0
 62
     0
100
AcDbLine
 10
31.58309770822313
 20
3.912798178041384
 30
0.0
 11
30.43455565398522
 21
5.061340232279263
 31
0.0
  0
LINE
  5
1131
330
10FA
100
AcDbEntity
  8
0
 62
     0
100
AcDbLine
 10
28.92110634279885
 20
6.125776737412195
 30
0.0
 11
27.52110634279884
 21
7.525776737412201
 31
0.0
  0
LINE
  5
1132
330
10FA
100
AcDbEntity
  8
0
 62
     0
100
AcDbLine
 10
24.82188353265843
 20
10.22499954755261
 30
0.0
 11
23.56979276185652
 21
11.47709031835452
 31
0.0
  0
LINE
  5
1133
330
10FA
100
AcDbEntity
  8
0
 62
     0
100
AcDbLine
 10
31.31501653576012
 20
3.731866544450923
 30
0.0
 11
30.07188353265843
 21
4.974999547552613
 31
0.0
  0
LINE
  5
1134
330
10FA
100
AcDbEntity
  8
0
 62
     0
100
AcDbLine
 10
28.92110634279882
 20
5.676763931358749
 30
0.0
 11
27.52110634279884
 21
7.076763931358726
 31
0.0
  0
LINE
  5
1135
330
10FA
100
AcDbEntity
  8
0
 62
     0
100
AcDbLine
 10
24.38376564061403
 20
10.21410463354354
 30
0.0
 11
23.29849229325142
 21
11.29937798090614
 31
0.0
  0
LINE
  5
1136
330
10FA
100
AcDbEntity
  8
0
 62
     0
100
AcDbLine
 10
30.98681025580441
 20
3.611060018353157
 30
0.0
 11
29.62287072660492
 21
4.974999547552641
 31
0.0
  0
LINE
  5
1137
330
10FA
100
AcDbEntity
  8
0
 62
     0
100
AcDbLine
 10
24.19610634279885
 20
9.95275112530524
 30
0.0
 11
23.07943626372915
 21
11.06942120437494
 31
0.0
  0
LINE
  5
1138
330
10FA
100
AcDbEntity
  8
0
 62
     0
100
AcDbLine
 10
30.57385792055149
 20
3.574999547552607
 30
0.0
 11
27.52110634279882
 21
6.627751125305252
 31
0.0
  0
LINE
  5
1139
330
10FA
100
AcDbEntity
  8
0
 62
     0
100
AcDbLine
 10
24.19610634279885
 20
9.503738319251795
 30
0.0
 11
22.91355080755266
 21
10.78629385449801
 31
0.0
  0
LINE
  5
113A
330
10FA
100
AcDbEntity
  8
0
 62
     0
100
AcDbLine
 10
30.12484511449804
 20
3.574999547552607
 30
0.0
 11
27.52110634279884
 21
6.178738319251834
 31
0.0
  0
LINE
  5
113B
330
10FA
100
AcDbEntity
  8
0
 62
     0
100
AcDbLine
 10
24.29937848335072
 20
8.951453372646483
 30
0.0
 11
22.81246154787061
 21
10.43837030812659
 31
0.0
  0
LINE
  5
113C
330
10FA
100
AcDbEntity
  8
0
 62
     0
100
AcDbLine
 10
29.67583230844454
 20
3.574999547552636
 30
0.0
 11
27.52110634279884
 21
5.72972551319836
 31
0.0
  0
LINE
  5
113D
330
10FA
100
AcDbEntity
  8
0
 62
     0
100
AcDbLine
 10
26.40790819414448
 20
6.393910855799248
 30
0.0
 11
22.79610634279882
 21
10.0057127071449
 31
0.0
  0
LINE
  5
113E
330
10FA
100
AcDbEntity
  8
0
 62
     0
100
AcDbLine
 10
21.7461063427988
 20
11.05571270714489
 30
0.0
 11
21.17681950239108
 21
11.62499954755264
 31
0.0
  0
LINE
  5
113F
330
10FA
100
AcDbEntity
  8
0
 62
     0
100
AcDbLine
 10
29.22681950239112
 20
3.574999547552607
 30
0.0
 11
27.52110634279882
 21
5.280712707144914
 31
0.0
  0
LINE
  5
1140
330
10FA
100
AcDbEntity
  8
0
 62
     0
100
AcDbLine
 10
26.47110634279883
 20
5.881699901091479
 30
0.0
 11
22.79610634279882
 21
9.556699901091462
 31
0.0
  0
LINE
  5
1141
330
10FA
100
AcDbEntity
  8
0
 62
     0
100
AcDbLine
 10
21.74610634279884
 20
10.60669990109147
 30
0.0
 11
20.72780669633766
 21
11.62499954755261
 31
0.0
  0
LINE
  5
1142
330
10FA
100
AcDbEntity
  8
0
 62
     0
100
AcDbLine
 10
28.76958275696526
 20
3.583223486925049
 30
0.0
 11
27.52933028217126
 21
4.823475961719026
 31
0.0
  0
LINE
  5
1143
330
10FA
100
AcDbEntity
  8
0
 62
     0
100
AcDbLine
 10
21.7461063427988
 20
10.15768709503799
 30
0.0
 11
20.3924113989112
 21
11.51138203892563
 31
0.0
  0
LINE
  5
1144
330
10FA
100
AcDbEntity
  8
0
 62
     0
100
AcDbLine
 10
26.47110634279883
 20
5.432687095038005
 30
0.0
 11
22.80781167674007
 21
9.095981761096737
 31
0.0
  0
LINE
  5
1145
330
10FA
100
AcDbEntity
  8
0
 62
     0
100
AcDbLine
 10
21.7461063427988
 20
9.708674288984553
 30
0.0
 11
20.34610634279883
 21
11.10867428898453
 31
0.0
  0
LINE
  5
1146
330
10FA
100
AcDbEntity
  8
0
 62
     0
100
AcDbLine
 10
26.47110634279886
 20
4.983674288984502
 30
0.0
 11
22.96687138566017
 21
8.487909246123194
 31
0.0
  0
LINE
  5
1147
330
10FA
100
AcDbEntity
  8
0
 62
     0
100
AcDbLine
 10
21.74610634279884
 20
9.259661482931079
 30
0.0
 11
20.34610634279883
 21
10.65966148293105
 31
0.0
  0
LINE
  5
1148
330
10FA
100
AcDbEntity
  8
0
 62
     0
100
AcDbLine
 10
26.41682543400432
 20
4.588942391725595
 30
0.0
 11
25.06900803948511
 21
5.936759786244806
 31
0.0
  0
LINE
  5
1149
330
10FA
100
AcDbEntity
  8
0
 62
     0
100
AcDbLine
 10
21.7461063427988
 20
8.810648676877661
 30
0.0
 11
20.34610634279883
 21
10.21064867687764
 31
0.0
  0
LINE
  5
114A
330
10FA
100
AcDbEntity
  8
0
 62
     0
100
AcDbLine
 10
19.20036289251032
 20
11.35639212716614
 30
0.0
 11
18.93175547212382
 21
11.62499954755264
 31
0.0
  0
LINE
  5
114B
330
10FA
100
AcDbEntity
  8
0
 62
     0
100
AcDbLine
 10
26.28288758012348
 20
4.273867439552986
 30
0.0
 11
25.07110634279888
 21
5.485648676877588
 31
0.0
  0
LINE
  5
114C
330
10FA
100
AcDbEntity
  8
0
 62
     0
100
AcDbLine
 10
21.7461063427988
 20
8.361635870824187
 30
0.0
 11
20.3461063427988
 21
9.761635870824164
 31
0.0
  0
LINE
  5
114D
330
10FA
100
AcDbEntity
  8
0
 62
     0
100
AcDbLine
 10
19.10089906038402
 20
11.00684315323897
 30
0.0
 11
18.48274266607032
 21
11.62499954755267
 31
0.0
  0
LINE
  5
114E
330
10FA
100
AcDbEntity
  8
0
 62
     0
100
AcDbLine
 10
26.09139418103584
 20
4.016348032587131
 30
0.0
 11
25.02246375135559
 21
5.085278462267382
 31
0.0
  0
LINE
  5
114F
330
10FA
100
AcDbEntity
  8
0
 62
     0
100
AcDbLine
 10
21.74610634279878
 20
7.912623064770713
 30
0.0
 11
20.3461063427988
 21
9.312623064770718
 31
0.0
  0
LINE
  5
1150
330
10FA
100
AcDbEntity
  8
0
 62
     0
100
AcDbLine
 10
18.9931359869312
 20
10.66559342063831
 30
0.0
 11
18.03852820519585
 21
11.62020120237363
 31
0.0
  0
LINE
  5
1151
330
10FA
100
AcDbEntity
  8
0
 62
     0
100
AcDbLine
 10
25.84823469847799
 20
3.8104947090915
 30
0.0
 11
24.68372986001691
 21
4.974999547552613
 31
0.0
  0
LINE
  5
1152
330
10FA
100
AcDbEntity
  8
0
 62
     0
100
AcDbLine
 10
21.7461063427988
 20
7.463610258717295
 30
0.0
 11
20.34610634279886
 21
8.863610258717244
 31
0.0
  0
LINE
  5
1153
330
10FA
100
AcDbEntity
  8
0
 62
     0
100
AcDbLine
 10
18.88537291347839
 20
10.32434368803768
 30
0.0
 11
17.82137291347837
 21
11.38834368803773
 31
0.0
  0
LINE
  5
1154
330
10FA
100
AcDbEntity
  8
0
 62
     0
100
AcDbLine
 10
25.55019272424781
 20
3.65952387726827
 30
0.0
 11
24.23471705396349
 21
4.974999547552613
 31
0.0
  0
LINE
  5
1155
330
10FA
100
AcDbEntity
  8
0
 62
     0
100
AcDbLine
 10
21.7461063427988
 20
7.014597452663821
 30
0.0
 11
20.34610634279886
 21
8.41459745266377
 31
0.0
  0
LINE
  5
1156
330
10FA
100
AcDbEntity
  8
0
 62
     0
100
AcDbLine
 10
18.77760984002551
 20
9.983093955437112
 30
0.0
 11
17.71360984002549
 21
11.04709395543713
 31
0.0
  0
LINE
  5
1157
330
10FA
100
AcDbEntity
  8
0
 62
     0
100
AcDbLine
 10
25.18135639842407
 20
3.57934739703856
 30
0.0
 11
23.78570424790999
 21
4.974999547552641
 31
0.0
  0
LINE
  5
1158
330
10FA
100
AcDbEntity
  8
0
 62
     0
100
AcDbLine
 10
21.74610634279878
 20
6.565584646610375
 30
0.0
 11
20.34610634279883
 21
7.965584646610295
 31
0.0
  0
LINE
  5
1159
330
10FA
100
AcDbEntity
  8
0
 62
     0
100
AcDbLine
 10
18.6698467665727
 20
9.641844222836425
 30
0.0
 11
17.60584676657268
 21
10.70584422283647
 31
0.0
  0
LINE
  5
115A
330
10FA
100
AcDbEntity
  8
0
 62
     0
100
AcDbLine
 10
24.73669144185655
 20
3.574999547552607
 30
0.0
 11
23.33669144185648
 21
4.97499954755267
 31
0.0
  0
LINE
  5
115B
330
10FA
100
AcDbEntity
  8
0
 62
     0
100
AcDbLine
 10
21.7461063427988
 20
6.116571840556929
 30
0.0
 11
20.34610634279886
 21
7.516571840556878
 31
0.0
  0
LINE
  5
115C
330
10FA
100
AcDbEntity
  8
0
 62
     0
100
AcDbLine
 10
18.56208369311985
 20
9.30059449023588
 30
0.0
 11
17.49808369311983
 21
10.3645944902359
 31
0.0
  0
LINE
  5
115D
330
10FA
100
AcDbEntity
  8
0
 62
     0
100
AcDbLine
 10
24.2876786358031
 20
3.574999547552636
 30
0.0
 11
23.07087278715493
 21
4.7918053962008
 31
0.0
  0
LINE
  5
115E
330
10FA
100
AcDbEntity
  8
0
 62
     0
100
AcDbLine
 10
18.45432061966707
 20
8.959344757635193
 30
0.0
 11
17.39032061966702
 21
10.02334475763521
 31
0.0
  0
LINE
  5
115F
330
10FA
100
AcDbEntity
  8
0
 62
     0
100
AcDbLine
 10
21.74610634279878
 20
5.667559034503454
 30
0.0
 11
20.34610634279883
 21
7.067559034503403
 31
0.0
  0
LINE
  5
1160
330
10FA
100
AcDbEntity
  8
0
 62
     0
100
AcDbLine
 10
16.32110634279885
 20
11.09255903450341
 30
0.0
 11
15.78866582974959
 21
11.62499954755267
 31
0.0
  0
LINE
  5
1161
330
10FA
100
AcDbEntity
  8
0
 62
     0
100
AcDbLine
 10
23.83866582974965
 20
3.574999547552607
 30
0.0
 11
23.05860634279886
 21
4.355059034503398
 31
0.0
  0
LINE
  5
1162
330
10FA
100
AcDbEntity
  8
0
 62
     0
100
AcDbLine
 10
18.34655754621417
 20
8.618095025034591
 30
0.0
 11
17.28255754621415
 21
9.682095025034641
 31
0.0
  0
LINE
  5
1163
330
10FA
100
AcDbEntity
  8
0
 62
     0
100
AcDbLine
 10
21.7461063427988
 20
5.218546228449952
 30
0.0
 11
20.34610634279883
 21
6.618546228449957
 31
0.0
  0
LINE
  5
1164
330
10FA
100
AcDbEntity
  8
0
 62
     0
100
AcDbLine
 10
16.32110634279885
 20
10.64354622844993
 30
0.0
 11
15.33965302369617
 21
11.62499954755261
 31
0.0
  0
LINE
  5
1165
330
10FA
100
AcDbEntity
  8
0
 62
     0
100
AcDbLine
 10
23.38965302369618
 20
3.574999547552607
 30
0.0
 11
23.05860634279884
 21
3.906046228449952
 31
0.0
  0
LINE
  5
1166
330
10FA
100
AcDbEntity
  8
0
 62
     0
100
AcDbLine
 10
18.23879447276138
 20
8.276845292433932
 30
0.0
 11
17.17479447276136
 21
9.340845292433954
 31
0.0
  0
LINE
  5
1167
330
10FA
100
AcDbEntity
  8
0
 62
     0
100
AcDbLine
 10
16.32110634279888
 20
10.19453342239643
 30
0.0
 11
14.98338387834999
 21
11.53225588684531
 31
0.0
  0
LINE
  5
1168
330
10FA
100
AcDbEntity
  8
0
 62
     0
100
AcDbLine
 10
21.7461063427988
 20
4.769533422396506
 30
0.0
 11
20.34610634279883
 21
6.169533422396483
 31
0.0
  0
LINE
  5
1169
330
10FA
100
AcDbEntity
  8
0
 62
     0
100
AcDbLine
 10
18.13103139930854
 20
7.935595559833359
 30
0.0
 11
17.06703139930849
 21
8.999595559833409
 31
0.0
  0
LINE
  5
116A
330
10FA
100
AcDbEntity
  8
0
 62
     0
100
AcDbLine
 10
16.32110634279888
 20
9.745520616342986
 30
0.0
 11
14.92110634279882
 21
11.14552061634307
 31
0.0
  0
LINE
  5
116B
330
10FA
100
AcDbEntity
  8
0
 62
     0
100
AcDbLine
 10
21.74610634279884
 20
4.32052061634306
 30
0.0
 11
20.34610634279883
 21
5.720520616343065
 31
0.0
  0
LINE
  5
116C
330
10FA
100
AcDbEntity
  8
0
 62
     0
100
AcDbLine
 10
18.02848714461257
 20
7.589127008475855
 30
0.0
 11
16.9592683258557
 21
8.658345827232722
 31
0.0
  0
LINE
  5
116D
330
10FA
100
AcDbEntity
  8
0
 62
     0
100
AcDbLine
 10
16.32110634279888
 20
9.29650781028954
 30
0.0
 11
14.92110634279882
 21
10.6965078102896
 31
0.0
  0
LINE
  5
116E
330
10FA
100
AcDbEntity
  8
0
 62
     0
100
AcDbLine
 10
21.7461063427988
 20
3.871507810289614
 30
0.0
 11
20.34610634279886
 21
5.271507810289534
 31
0.0
  0
LINE
  5
116F
330
10FA
100
AcDbEntity
  8
0
 62
     0
100
AcDbLine
 10
18.23572382432962
 20
6.932877522705325
 30
0.0
 11
16.8139945780133
 21
8.354606769021643
 31
0.0
  0
LINE
  5
1170
330
10FA
100
AcDbEntity
  8
0
 62
     0
100
AcDbLine
 10
16.32110634279885
 20
8.847495004236066
 30
0.0
 11
14.92110634279879
 21
10.24749500423612
 31
0.0
  0
LINE
  5
1171
330
10FA
100
AcDbEntity
  8
0
 62
     0
100
AcDbLine
 10
21.57658384413261
 20
3.592017502902336
 30
0.0
 11
20.34610634279886
 21
4.822495004236088
 31
0.0
  0
LINE
  5
1172
330
10FA
100
AcDbEntity
  8
0
 62
     0
100
AcDbLine
 10
18.44296050404659
 20
6.276628036934937
 30
0.0
 11
14.92110634279882
 21
9.798482198182711
 31
0.0
  0
LINE
  5
1173
330
10FA
100
AcDbEntity
  8
0
 62
     0
100
AcDbLine
 10
13.69610634279888
 20
11.02348219818264
 30
0.0
 11
13.09458899342885
 21
11.62499954755264
 31
0.0
  0
LINE
  5
1174
330
10FA
100
AcDbEntity
  8
0
 62
     0
100
AcDbLine
 10
21.14458899342889
 20
3.574999547552636
 30
0.0
 11
20.34610634279886
 21
4.373482198182642
 31
0.0
  0
LINE
  5
1175
330
10FA
100
AcDbEntity
  8
0
 62
     0
100
AcDbLine
 10
18.65019718376359
 20
5.620378551164463
 30
0.0
 11
14.92110634279879
 21
9.349469392129236
 31
0.0
  0
LINE
  5
1176
330
10FA
100
AcDbEntity
  8
0
 62
     0
100
AcDbLine
 10
13.69610634279888
 20
10.57446939212917
 30
0.0
 11
12.64557618737544
 21
11.62499954755261
 31
0.0
  0
LINE
  5
1177
330
10FA
100
AcDbEntity
  8
0
 62
     0
100
AcDbLine
 10
20.69557618737542
 20
3.574999547552636
 30
0.0
 11
20.34610634279886
 21
3.924469392129196
 31
0.0
  0
LINE
  5
1178
330
10FA
100
AcDbEntity
  8
0
 62
     0
100
AcDbLine
 10
13.56265299510374
 20
10.25890993377083
 30
0.0
 11
12.21254213599803
 21
11.60902079287652
 31
0.0
  0
LINE
  5
1179
330
10FA
100
AcDbEntity
  8
0
 62
     0
100
AcDbLine
 10
18.85743386348056
 20
4.964129065394018
 30
0.0
 11
14.92110634279879
 21
8.90045658607579
 31
0.0
  0
LINE
  5
117A
330
10FA
100
AcDbEntity
  8
0
 62
     0
100
AcDbLine
 10
16.48986080396957
 20
6.882689318851561
 30
0.0
 11
14.92110634279885
 21
8.451443780022287
 31
0.0
  0
LINE
  5
117B
330
10FA
100
AcDbEntity
  8
0
 62
     0
100
AcDbLine
 10
13.14755057526849
 20
10.22499954755264
 30
0.0
 11
11.8435206012044
 21
11.52902952161673
 31
0.0
  0
LINE
  5
117C
330
10FA
100
AcDbEntity
  8
0
 62
     0
100
AcDbLine
 10
19.06467054319759
 20
4.307879579623545
 30
0.0
 11
17.01851669704359
 21
6.354033425777544
 31
0.0
  0
LINE
  5
117D
330
10FA
100
AcDbEntity
  8
0
 62
     0
100
AcDbLine
 10
16.32110634279891
 20
6.602430973968779
 30
0.0
 11
14.92110634279885
 21
8.002430973968841
 31
0.0
  0
LINE
  5
117E
330
10FA
100
AcDbEntity
  8
0
 62
     0
100
AcDbLine
 10
12.69853776921502
 20
10.22499954755264
 30
0.0
 11
11.52415989328903
 21
11.39937742347862
 31
0.0
  0
LINE
  5
117F
330
10FA
100
AcDbEntity
  8
0
 62
     0
100
AcDbLine
 10
19.18218997205284
 20
3.741347344714853
 30
0.0
 11
17.22575337676056
 21
5.697783940007127
 31
0.0
  0
LINE
  5
1180
330
10FA
100
AcDbEntity
  8
0
 62
     0
100
AcDbLine
 10
16.32110634279885
 20
6.153418167915361
 30
0.0
 11
14.92110634279882
 21
7.553418167915395
 31
0.0
  0
LINE
  5
1181
330
10FA
100
AcDbEntity
  8
0
 62
     0
100
AcDbLine
 10
12.27698101794325
 20
10.19754349277096
 30
0.0
 11
11.24478540562176
 21
11.22973910509244
 31
0.0
  0
LINE
  5
1182
330
10FA
100
AcDbEntity
  8
0
 62
     0
100
AcDbLine
 10
18.89952496316155
 20
3.574999547552664
 30
0.0
 11
17.43299005647756
 21
5.041534454236654
 31
0.0
  0
LINE
  5
1183
330
10FA
100
AcDbEntity
  8
0
 62
     0
100
AcDbLine
 10
16.32110634279885
 20
5.704405361861887
 30
0.0
 11
14.92110634279882
 21
7.104405361861921
 31
0.0
  0
LINE
  5
1184
330
10FA
100
AcDbEntity
  8
0
 62
     0
100
AcDbLine
 10
11.99105292152376
 20
10.03445878313698
 30
0.0
 11
11.00095780131587
 21
11.02455390334486
 31
0.0
  0
LINE
  5
1185
330
10FA
100
AcDbEntity
  8
0
 62
     0
100
AcDbLine
 10
18.4505121571081
 20
3.574999547552636
 30
0.0
 11
17.6402267361945
 21
4.385284968466237
 31
0.0
  0
LINE
  5
1186
330
10FA
100
AcDbEntity
  8
0
 62
     0
100
AcDbLine
 10
13.86382090919767
 20
7.712677989409655
 30
0.0
 11
13.10878478465579
 21
8.467714113951501
 31
0.0
  0
LINE
  5
1187
330
10FA
100
AcDbEntity
  8
0
 62
     0
100
AcDbLine
 10
16.32110634279885
 20
5.255392555808469
 30
0.0
 11
14.92110634279882
 21
6.655392555808475
 31
0.0
  0
LINE
  5
1188
330
10FA
100
AcDbEntity
  8
0
 62
     0
100
AcDbLine
 10
11.81299213645928
 20
9.76350676214804
 30
0.0
 11
10.79127478831026
 21
10.78522411029706
 31
0.0
  0
LINE
  5
1189
330
10FA
100
AcDbEntity
  8
0
 62
     0
100
AcDbLine
 10
17.97633284895226
 20
3.600166049655058
 30
0.0
 11
17.85115576315692
 21
3.725343135450401
 31
0.0
  0
LINE
  5
118A
330
10FA
100
AcDbEntity
  8
0
 62
     0
100
AcDbLine
 10
13.82056407912671
 20
7.30692201342714
 30
0.0
 11
12.70302880867328
 21
8.424457283880542
 31
0.0
  0
LINE
  5
118B
330
10FA
100
AcDbEntity
  8
0
 62
     0
100
AcDbLine
 10
11.77110634279887
 20
9.356379749754978
 30
0.0
 11
10.61680527782942
 21
10.51068081472442
 31
0.0
  0
LINE
  5
118C
330
10FA
100
AcDbEntity
  8
0
 62
     0
100
AcDbLine
 10
16.32110634279885
 20
4.806379749754995
 30
0.0
 11
14.92110634279882
 21
6.206379749755029
 31
0.0
  0
LINE
  5
118D
330
10FA
100
AcDbEntity
  8
0
 62
     0
100
AcDbLine
 10
13.65463629947771
 20
7.023836987022662
 30
0.0
 11
12.41994378226883
 21
8.258529504231546
 31
0.0
  0
LINE
  5
118E
330
10FA
100
AcDbEntity
  8
0
 62
     0
100
AcDbLine
 10
11.77110634279884
 20
8.907366943701532
 30
0.0
 11
10.48151542422434
 21
10.19695786227603
 31
0.0
  0
LINE
  5
118F
330
10FA
100
AcDbEntity
  8
0
 62
     0
100
AcDbLine
 10
16.32110634279882
 20
4.357366943701521
 30
0.0
 11
14.92110634279882
 21
5.757366943701555
 31
0.0
  0
LINE
  5
1190
330
10FA
100
AcDbEntity
  8
0
 62
     0
100
AcDbLine
 10
11.77110634279887
 20
8.458354137648086
 30
0.0
 11
10.39415848776141
 21
9.835301992685543
 31
0.0
  0
LINE
  5
1191
330
10FA
100
AcDbEntity
  8
0
 62
     0
100
AcDbLine
 10
13.40371957840946
 20
6.825740902037495
 30
0.0
 11
12.22184769728366
 21
8.007612783163295
 31
0.0
  0
LINE
  5
1192
330
10FA
100
AcDbEntity
  8
0
 62
     0
100
AcDbLine
 10
9.05860634279881
 20
11.17085413764812
 30
0.0
 11
8.604460932894284
 21
11.62499954755267
 31
0.0
  0
LINE
  5
1193
330
10FA
100
AcDbEntity
  8
0
 62
     0
100
AcDbLine
 10
16.32110634279885
 20
3.908354137648103
 30
0.0
 11
14.92110634279882
 21
5.308354137648137
 31
0.0
  0
LINE
  5
1194
330
10FA
100
AcDbEntity
  8
0
 62
     0
100
AcDbLine
 10
11.77110634279884
 20
8.009341331594612
 30
0.0
 11
10.37110634279878
 21
9.409341331594703
 31
0.0
  0
LINE
  5
1195
330
10FA
100
AcDbEntity
  8
0
 62
     0
100
AcDbLine
 10
13.05355985719575
 20
6.726887817197734
 30
0.0
 11
12.12299461244387
 21
7.657453061949581
 31
0.0
  0
LINE
  5
1196
330
10FA
100
AcDbEntity
  8
0
 62
     0
100
AcDbLine
 10
9.05860634279881
 20
10.72184133159467
 30
0.0
 11
8.155448126840809
 21
11.62499954755264
 31
0.0
  0
LINE
  5
1197
330
10FA
100
AcDbEntity
  8
0
 62
     0
100
AcDbLine
 10
16.17715444216349
 20
3.603293232229987
 30
0.0
 11
14.92110634279882
 21
4.859341331594663
 31
0.0
  0
LINE
  5
1198
330
10FA
100
AcDbEntity
  8
0
 62
     0
100
AcDbLine
 10
11.77110634279884
 20
7.560328525541166
 30
0.0
 11
10.37110634279878
 21
8.960328525541228
 31
0.0
  0
LINE
  5
1199
330
10FA
100
AcDbEntity
  8
0
 62
     0
100
AcDbLine
 10
9.004089357663644
 20
10.32734551067636
 30
0.0
 11
7.706435320787363
 21
11.62499954755264
 31
0.0
  0
LINE
  5
119A
330
10FA
100
AcDbEntity
  8
0
 62
     0
100
AcDbLine
 10
15.7564353207874
 20
3.574999547552579
 30
0.0
 11
14.92110634279879
 21
4.410328525541189
 31
0.0
  0
LINE
  5
119B
330
10FA
100
AcDbEntity
  8
0
 62
     0
100
AcDbLine
 10
11.77110634279884
 20
7.111315719487691
 30
0.0
 11
10.37110634279875
 21
8.511315719487754
 31
0.0
  0
LINE
  5
119C
330
10FA
100
AcDbEntity
  8
0
 62
     0
100
AcDbLine
 10
8.657422514733895
 20
10.22499954755264
 30
0.0
 11
7.257422514733889
 21
11.62499954755261
 31
0.0
  0
LINE
  5
119D
330
10FA
100
AcDbEntity
  8
0
 62
     0
100
AcDbLine
 10
15.3074225147339
 20
3.574999547552607
 30
0.0
 11
14.92110634279879
 21
3.961315719487743
 31
0.0
  0
LINE
  5
119E
330
10FA
100
AcDbEntity
  8
0
 62
     0
100
AcDbLine
 10
11.77110634279884
 20
6.662302913434274
 30
0.0
 11
10.37110634279878
 21
8.062302913434336
 31
0.0
  0
LINE
  5
119F
330
10FA
100
AcDbEntity
  8
0
 62
     0
100
AcDbLine
 10
8.208409708680477
 20
10.22499954755261
 30
0.0
 11
6.825845072628055
 21
11.60756418360506
 31
0.0
  0
LINE
  5
11A0
330
10FA
100
AcDbEntity
  8
0
 62
     0
100
AcDbLine
 10
13.69480511838031
 20
4.738604137852775
 30
0.0
 11
13.45971093309896
 21
4.973698323134158
 31
0.0
  0
LINE
  5
11A1
330
10FA
100
AcDbEntity
  8
0
 62
     0
100
AcDbLine
 10
11.77110634279884
 20
6.2132901073808
 30
0.0
 11
10.37110634279881
 21
7.613290107380834
 31
0.0
  0
LINE
  5
11A2
330
10FA
100
AcDbEntity
  8
0
 62
     0
100
AcDbLine
 10
7.759396902626974
 20
10.22499954755264
 30
0.0
 11
6.479277668388817
 21
11.50511878179082
 31
0.0
  0
LINE
  5
11A3
330
10FA
100
AcDbEntity
  8
0
 62
     0
100
AcDbLine
 10
13.69610634279885
 20
4.28829010738076
 30
0.0
 11
13.009396902627
 21
4.974999547552641
 31
0.0
  0
LINE
  5
11A4
330
10FA
100
AcDbEntity
  8
0
 62
     0
100
AcDbLine
 10
11.77110634279881
 20
5.764277301327325
 30
0.0
 11
10.37110634279881
 21
7.164277301327359
 31
0.0
  0
LINE
  5
11A5
330
10FA
100
AcDbEntity
  8
0
 62
     0
100
AcDbLine
 10
7.310384096573528
 20
10.22499954755264
 30
0.0
 11
6.197154338465225
 21
11.33822930566094
 31
0.0
  0
LINE
  5
11A6
330
10FA
100
AcDbEntity
  8
0
 62
     0
100
AcDbLine
 10
13.69610634279885
 20
3.839277301327314
 30
0.0
 11
12.56038409657352
 21
4.974999547552641
 31
0.0
  0
LINE
  5
11A7
330
10FA
100
AcDbEntity
  8
0
 62
     0
100
AcDbLine
 10
7.055237682766289
 20
10.03113315530643
 30
0.0
 11
5.968107932344821
 21
11.1182629057279
 31
0.0
  0
LINE
  5
11A8
330
10FA
100
AcDbEntity
  8
0
 62
     0
100
AcDbLine
 10
13.50223995055262
 20
3.584130887520132
 30
0.0
 11
10.37110634279881
 21
6.715264495273942
 31
0.0
  0
LINE
  5
11A9
330
10FA
100
AcDbEntity
  8
0
 62
     0
100
AcDbLine
 10
7.046106342798879
 20
9.591251689220399
 30
0.0
 11
5.791367331110308
 21
10.84599070090897
 31
0.0
  0
LINE
  5
11AA
330
10FA
100
AcDbEntity
  8
0
 62
     0
100
AcDbLine
 10
13.06235848446667
 20
3.574999547552607
 30
0.0
 11
10.37110634279881
 21
6.266251689220467
 31
0.0
  0
LINE
  5
11AB
330
10FA
100
AcDbEntity
  8
0
 62
     0
100
AcDbLine
 10
7.077174196866678
 20
9.111171029099125
 30
0.0
 11
5.675927279963417
 21
10.51241794600238
 31
0.0
  0
LINE
  5
11AC
330
10FA
100
AcDbEntity
  8
0
 62
     0
100
AcDbLine
 10
12.61334567841319
 20
3.574999547552607
 30
0.0
 11
10.37110634279878
 21
5.817238883166993
 31
0.0
  0
LINE
  5
11AD
330
10FA
100
AcDbEntity
  8
0
 62
     0
100
AcDbLine
 10
9.223294388410153
 20
6.516038031502176
 30
0.0
 11
5.646106342798844
 21
10.09322607711351
 31
0.0
  0
LINE
  5
11AE
330
10FA
100
AcDbEntity
  8
0
 62
     0
100
AcDbLine
 10
12.13769682883139
 20
3.601635591080963
 30
0.0
 11
10.39774238632711
 21
5.341590033585248
 31
0.0
  0
LINE
  5
11AF
330
10FA
100
AcDbEntity
  8
0
 62
     0
100
AcDbLine
 10
9.319241645452763
 20
5.971077968406149
 30
0.0
 11
5.646106342798844
 21
9.644213271060067
 31
0.0
  0
LINE
  5
11B0
330
10FA
100
AcDbEntity
  8
0
 62
     0
100
AcDbLine
 10
11.45079287253059
 20
3.839526741328285
 30
0.0
 11
10.6356335365744
 21
4.654686077284509
 31
0.0
  0
LINE
  5
11B1
330
10FA
100
AcDbEntity
  8
0
 62
     0
100
AcDbLine
 10
9.321106342798856
 20
5.520200465006553
 30
0.0
 11
5.649888566509957
 21
9.191418241295451
 31
0.0
  0
LINE
  5
11B2
330
10FA
100
AcDbEntity
  8
0
 62
     0
100
AcDbLine
 10
9.321106342798884
 20
5.07118765895305
 30
0.0
 11
5.761533945671885
 21
8.630760056080049
 31
0.0
  0
LINE
  5
11B3
330
10FA
100
AcDbEntity
  8
0
 62
     0
100
AcDbLine
 10
9.284846344732812
 20
4.658434850965733
 30
0.0
 11
7.903150522923311
 21
6.040130672775234
 31
0.0
  0
LINE
  5
11B4
330
10FA
100
AcDbEntity
  8
0
 62
     0
100
AcDbLine
 10
9.16387737521839
 20
4.33039101442668
 30
0.0
 11
7.921106342798879
 21
5.573162046846192
 31
0.0
  0
LINE
  5
11B5
330
10FA
100
AcDbEntity
  8
0
 62
     0
100
AcDbLine
 10
8.982817751527505
 20
4.062437832064091
 30
0.0
 11
7.903156826648455
 21
5.142098756943113
 31
0.0
  0
LINE
  5
11B6
330
10FA
100
AcDbEntity
  8
0
 62
     0
100
AcDbLine
 10
8.749704565394068
 20
3.846538212144082
 30
0.0
 11
7.621243229985509
 21
4.97499954755267
 31
0.0
  0
LINE
  5
11B7
330
10FA
100
AcDbEntity
  8
0
 62
     0
100
AcDbLine
 10
8.463072341527663
 20
3.684157629957041
 30
0.0
 11
7.172230423932035
 21
4.974999547552641
 31
0.0
  0
LINE
  5
11B8
330
10FA
100
AcDbEntity
  8
0
 62
     0
100
AcDbLine
 10
8.110366046984694
 20
3.587851118446536
 30
0.0
 11
6.723217617878589
 21
4.974999547552641
 31
0.0
  0
LINE
  5
11B9
330
10FA
100
AcDbEntity
  8
0
 62
     0
100
AcDbLine
 10
7.674204811825148
 20
3.574999547552607
 30
0.0
 11
6.274204811825171
 21
4.974999547552584
 31
0.0
  0
LINE
  5
11BA
330
10FA
100
AcDbEntity
  8
0
 62
     0
100
AcDbLine
 10
7.225192005771702
 20
3.574999547552607
 30
0.0
 11
5.948530058362763
 21
4.851661494961575
 31
0.0
  0
LINE
  5
11BB
330
10FA
100
AcDbEntity
  8
0
 62
     0
100
AcDbLine
 10
6.7761791997182
 20
3.574999547552636
 30
0.0
 11
5.908606342798805
 21
4.442572404472031
 31
0.0
  0
LINE
  5
11BC
330
10FA
100
AcDbEntity
  8
0
 62
     0
100
AcDbLine
 10
6.327166393664754
 20
3.574999547552636
 30
0.0
 11
5.908606342798805
 21
3.993559598418585
 31
0.0
  0
LINE
  5
11BD
330
10FA
100
AcDbEntity
  8
0
 62
     0
100
AcDbLine
 10
34.31694998513225
 20
3.581565436111389
 30
0.0
 11
34.51454045424014
 21
3.779155905219283
 31
0.0
  0
LINE
  5
11BE
330
10FA
100
AcDbEntity
  8
0
 62
     0
100
AcDbLine
 10
33.86137129052002
 20
3.574999547552579
 30
0.0
 11
34.5211063427989
 21
4.234734599831455
 31
0.0
  0
LINE
  5
11BF
330
10FA
100
AcDbEntity
  8
0
 62
     0
100
AcDbLine
 10
33.41235848446661
 20
3.574999547552636
 30
0.0
 11
34.5211063427989
 21
4.683747405884929
 31
0.0
  0
LINE
  5
11C0
330
10FA
100
AcDbEntity
  8
0
 62
     0
100
AcDbLine
 10
33.1367051244247
 20
3.748358993564181
 30
0.0
 11
34.5211063427989
 21
5.132760211938375
 31
0.0
  0
LINE
  5
11C1
330
10FA
100
AcDbEntity
  8
0
 62
     0
100
AcDbLine
 10
33.12110634279884
 20
4.181773017991787
 30
0.0
 11
34.52110634279887
 21
5.581773017991821
 31
0.0
  0
LINE
  5
11C2
330
10FA
100
AcDbEntity
  8
0
 62
     0
100
AcDbLine
 10
33.12110634279886
 20
4.630785824045261
 30
0.0
 11
34.5211063427989
 21
6.030785824045267
 31
0.0
  0
LINE
  5
11C3
330
10FA
100
AcDbEntity
  8
0
 62
     0
100
AcDbLine
 10
33.12110634279886
 20
5.079798630098707
 30
0.0
 11
34.52110634279887
 21
6.479798630098741
 31
0.0
  0
LINE
  5
11C4
330
10FA
100
AcDbEntity
  8
0
 62
     0
100
AcDbLine
 10
33.12110634279884
 20
5.528811436152182
 30
0.0
 11
34.52110634279887
 21
6.928811436152216
 31
0.0
  0
LINE
  5
11C5
330
10FA
100
AcDbEntity
  8
0
 62
     0
100
AcDbLine
 10
31.3343887738313
 20
3.742093867184649
 30
0.0
 11
31.90401202316692
 21
4.31171711652027
 31
0.0
  0
LINE
  5
11C6
330
10FA
100
AcDbEntity
  8
0
 62
     0
100
AcDbLine
 10
33.12110634279886
 20
5.977824242205599
 30
0.0
 11
34.5211063427989
 21
7.377824242205633
 31
0.0
  0
LINE
  5
11C7
330
10FA
100
AcDbEntity
  8
0
 62
     0
100
AcDbLine
 10
30.71910469057005
 20
3.575822589976809
 30
0.0
 11
32.07028330037479
 21
4.927001199781528
 31
0.0
  0
LINE
  5
11C8
330
10FA
100
AcDbEntity
  8
0
 62
     0
100
AcDbLine
 10
33.12110634279884
 20
6.426837048259073
 30
0.0
 11
34.52110634279887
 21
7.826837048259108
 31
0.0
  0
LINE
  5
11C9
330
10FA
100
AcDbEntity
  8
0
 62
     0
100
AcDbLine
 10
30.2692688420924
 20
3.574999547552607
 30
0.0
 11
32.07110634279894
 21
5.376837048259147
 31
0.0
  0
LINE
  5
11CA
330
10FA
100
AcDbEntity
  8
0
 62
     0
100
AcDbLine
 10
33.12110634279884
 20
6.875849854312548
 30
0.0
 11
34.52110634279887
 21
8.275849854312554
 31
0.0
  0
LINE
  5
11CB
330
10FA
100
AcDbEntity
  8
0
 62
     0
100
AcDbLine
 10
29.82025603603892
 20
3.574999547552636
 30
0.0
 11
32.07110634279891
 21
5.825849854312622
 31
0.0
  0
LINE
  5
11CC
330
10FA
100
AcDbEntity
  8
0
 62
     0
100
AcDbLine
 10
33.12110634279886
 20
7.324862660365965
 30
0.0
 11
34.52110634279887
 21
8.724862660366
 31
0.0
  0
LINE
  5
11CD
330
10FA
100
AcDbEntity
  8
0
 62
     0
100
AcDbLine
 10
29.37124322998548
 20
3.574999547552607
 30
0.0
 11
32.07110634279894
 21
6.274862660366039
 31
0.0
  0
LINE
  5
11CE
330
10FA
100
AcDbEntity
  8
0
 62
     0
100
AcDbLine
 10
30.61881074175846
 20
5.271579865379067
 30
0.0
 11
32.07110634279891
 21
6.723875466419514
 31
0.0
  0
LINE
  5
11CF
330
10FA
100
AcDbEntity
  8
0
 62
     0
100
AcDbLine
 10
33.12110634279884
 20
7.77387546641944
 30
0.0
 11
34.52110634279887
 21
9.173875466419474
 31
0.0
  0
LINE
  5
11D0
330
10FA
100
AcDbEntity
  8
0
 62
     0
100
AcDbLine
 10
28.92223042393203
 20
3.574999547552607
 30
0.0
 11
30.37452602497245
 21
5.027295148593054
 31
0.0
  0
LINE
  5
11D1
330
10FA
100
AcDbEntity
  8
0
 62
     0
100
AcDbLine
 10
30.67110634279885
 20
5.772888272472897
 30
0.0
 11
32.07110634279891
 21
7.172888272472988
 31
0.0
  0
LINE
  5
11D2
330
10FA
100
AcDbEntity
  8
0
 62
     0
100
AcDbLine
 10
33.12110634279884
 20
8.222888272472886
 30
0.0
 11
34.52110634279887
 21
9.62288827247292
 31
0.0
  0
LINE
  5
11D3
330
10FA
100
AcDbEntity
  8
0
 62
     0
100
AcDbLine
 10
28.52919249356713
 20
3.630974423241184
 30
0.0
 11
29.87321761787856
 21
4.974999547552613
 31
0.0
  0
LINE
  5
11D4
330
10FA
100
AcDbEntity
  8
0
 62
     0
100
AcDbLine
 10
30.67110634279882
 20
6.221901078526371
 30
0.0
 11
32.07110634279891
 21
7.621901078526434
 31
0.0
  0
LINE
  5
11D5
330
10FA
100
AcDbEntity
  8
0
 62
     0
100
AcDbLine
 10
33.12110634279881
 20
8.67190107852636
 30
0.0
 11
34.52110634279884
 21
10.07190107852639
 31
0.0
  0
LINE
  5
11D6
330
10FA
100
AcDbEntity
  8
0
 62
     0
100
AcDbLine
 10
28.21519905996206
 20
3.76599379568961
 30
0.0
 11
29.42464370464728
 21
4.97543844037483
 31
0.0
  0
LINE
  5
11D7
330
10FA
100
AcDbEntity
  8
0
 62
     0
100
AcDbLine
 10
30.67110634279888
 20
6.670913884579846
 30
0.0
 11
32.07110634279891
 21
8.07091388457988
 31
0.0
  0
LINE
  5
11D8
330
10FA
100
AcDbEntity
  8
0
 62
     0
100
AcDbLine
 10
33.12110634279884
 20
9.120913884579806
 30
0.0
 11
34.52110634279887
 21
10.52091388457981
 31
0.0
  0
LINE
  5
11D9
330
10FA
100
AcDbEntity
  8
0
 62
     0
100
AcDbLine
 10
27.95856911927953
 20
3.958376661060469
 30
0.0
 11
29.10290441029093
 21
5.102711952071899
 31
0.0
  0
LINE
  5
11DA
330
10FA
100
AcDbEntity
  8
0
 62
     0
100
AcDbLine
 10
30.67110634279888
 20
7.11992669063332
 30
0.0
 11
32.07110634279891
 21
8.519926690633326
 31
0.0
  0
LINE
  5
11DB
330
10FA
100
AcDbEntity
  8
0
 62
     0
100
AcDbLine
 10
33.12110634279884
 20
9.569926690633252
 30
0.0
 11
34.5211063427989
 21
10.96992669063331
 31
0.0
  0
LINE
  5
11DC
330
10FA
100
AcDbEntity
  8
0
 62
     0
100
AcDbLine
 10
27.75358703166699
 20
4.202407379501437
 30
0.0
 11
28.9342852710863
 21
5.383105618920723
 31
0.0
  0
LINE
  5
11DD
330
10FA
100
AcDbEntity
  8
0
 62
     0
100
AcDbLine
 10
30.67110634279888
 20
7.568939496686766
 30
0.0
 11
32.07110634279888
 21
8.9689394966868
 31
0.0
  0
LINE
  5
11DE
330
10FA
100
AcDbEntity
  8
0
 62
     0
100
AcDbLine
 10
33.12110634279886
 20
10.01893949668675
 30
0.0
 11
34.51603176602358
 21
11.4138649199115
 31
0.0
  0
LINE
  5
11DF
330
10FA
100
AcDbEntity
  8
0
 62
     0
100
AcDbLine
 10
27.60362459245004
 20
4.501457746337933
 30
0.0
 11
28.92110634279885
 21
5.818939496686766
 31
0.0
  0
LINE
  5
11E0
330
10FA
100
AcDbEntity
  8
0
 62
     0
100
AcDbLine
 10
30.67110634279888
 20
8.017952302740212
 30
0.0
 11
32.07110634279891
 21
9.417952302740246
 31
0.0
  0
LINE
  5
11E1
330
10FA
100
AcDbEntity
  8
0
 62
     0
100
AcDbLine
 10
33.12110634279886
 20
10.4679523027402
 30
0.0
 11
34.27747459348376
 21
11.62432055342509
 31
0.0
  0
LINE
  5
11E2
330
10FA
100
AcDbEntity
  8
0
 62
     0
100
AcDbLine
 10
27.52491782497182
 20
4.871763784913156
 30
0.0
 11
28.92110634279891
 21
6.267952302740241
 31
0.0
  0
LINE
  5
11E3
330
10FA
100
AcDbEntity
  8
0
 62
     0
100
AcDbLine
 10
30.67110634279888
 20
8.466965108793658
 30
0.0
 11
32.07110634279891
 21
9.866965108793692
 31
0.0
  0
LINE
  5
11E4
330
10FA
100
AcDbEntity
  8
0
 62
     0
100
AcDbLine
 10
33.12110634279886
 20
10.91696510879364
 30
0.0
 11
33.82914078155781
 21
11.62499954755261
 31
0.0
  0
LINE
  5
11E5
330
10FA
100
AcDbEntity
  8
0
 62
     0
100
AcDbLine
 10
27.52110634279887
 20
5.316965108793681
 30
0.0
 11
28.92110634279891
 21
6.716965108793687
 31
0.0
  0
LINE
  5
11E6
330
10FA
100
AcDbEntity
  8
0
 62
     0
100
AcDbLine
 10
30.67110634279885
 20
8.915977914847132
 30
0.0
 11
32.07110634279888
 21
10.31597791484716
 31
0.0
  0
LINE
  5
11E7
330
10FA
100
AcDbEntity
  8
0
 62
     0
100
AcDbLine
 10
27.52110634279887
 20
5.765977914847127
 30
0.0
 11
28.92110634279887
 21
7.165977914847161
 31
0.0
  0
LINE
  5
11E8
330
10FA
100
AcDbEntity
  8
0
 62
     0
100
AcDbLine
 10
33.12112970017258
 20
11.36600127222087
 30
0.0
 11
33.38010461813055
 21
11.62497619017881
 31
0.0
  0
LINE
  5
11E9
330
10FA
100
AcDbEntity
  8
0
 62
     0
100
AcDbLine
 10
25.36032852744276
 20
3.605200099491042
 30
0.0
 11
26.44090579086051
 21
4.685777362908794
 31
0.0
  0
LINE
  5
11EA
330
10FA
100
AcDbEntity
  8
0
 62
     0
100
AcDbLine
 10
27.52110634279884
 20
6.214990720900601
 30
0.0
 11
28.92110634279887
 21
7.614990720900635
 31
0.0
  0
LINE
  5
11EB
330
10FA
100
AcDbEntity
  8
0
 62
     0
100
AcDbLine
 10
30.67110634279885
 20
9.364990720900607
 30
0.0
 11
32.07110634279888
 21
10.76499072090061
 31
0.0
  0
LINE
  5
11EC
330
10FA
100
AcDbEntity
  8
0
 62
     0
100
AcDbLine
 10
24.88111516945088
 20
3.574999547552636
 30
0.0
 11
26.47110634279886
 21
5.16499072090059
 31
0.0
  0
LINE
  5
11ED
330
10FA
100
AcDbEntity
  8
0
 62
     0
100
AcDbLine
 10
27.52110634279887
 20
6.664003526954019
 30
0.0
 11
28.92110634279891
 21
8.064003526954053
 31
0.0
  0
LINE
  5
11EE
330
10FA
100
AcDbEntity
  8
0
 62
     0
100
AcDbLine
 10
30.67110634279888
 20
9.814003526954024
 30
0.0
 11
32.07110634279888
 21
11.21400352695405
 31
0.0
  0
LINE
  5
11EF
330
10FA
100
AcDbEntity
  8
0
 62
     0
100
AcDbLine
 10
24.43210236339743
 20
3.574999547552607
 30
0.0
 11
26.47110634279892
 21
5.614003526954064
 31
0.0
  0
LINE
  5
11F0
330
10FA
100
AcDbEntity
  8
0
 62
     0
100
AcDbLine
 10
27.52110634279884
 20
7.113016333007493
 30
0.0
 11
28.92110634279887
 21
8.513016333007527
 31
0.0
  0
LINE
  5
11F1
330
10FA
100
AcDbEntity
  8
0
 62
     0
100
AcDbLine
 10
30.67110634279885
 20
10.26301633300749
 30
0.0
 11
31.97423761538178
 21
11.56614760559043
 31
0.0
  0
LINE
  5
11F2
330
10FA
100
AcDbEntity
  8
0
 62
     0
100
AcDbLine
 10
23.98308955734393
 20
3.574999547552579
 30
0.0
 11
26.46394704259239
 21
6.055857032801014
 31
0.0
  0
LINE
  5
11F3
330
10FA
100
AcDbEntity
  8
0
 62
     0
100
AcDbLine
 10
27.52110634279887
 20
7.562029139060996
 30
0.0
 11
28.92110634279887
 21
8.962029139060973
 31
0.0
  0
LINE
  5
11F4
330
10FA
100
AcDbEntity
  8
0
 62
     0
100
AcDbLine
 10
30.67110634279885
 20
10.71202913906094
 30
0.0
 11
31.58407675129052
 21
11.62499954755264
 31
0.0
  0
LINE
  5
11F5
330
10FA
100
AcDbEntity
  8
0
 62
     0
100
AcDbLine
 10
23.53407675129051
 20
3.574999547552636
 30
0.0
 11
26.39649085727799
 21
6.437413653540119
 31
0.0
  0
LINE
  5
11F6
330
10FA
100
AcDbEntity
  8
0
 62
     0
100
AcDbLine
 10
27.5211063427989
 20
8.011041945114442
 30
0.0
 11
28.92110634279893
 21
9.411041945114448
 31
0.0
  0
LINE
  5
11F7
330
10FA
100
AcDbEntity
  8
0
 62
     0
100
AcDbLine
 10
25.07110634279891
 20
5.561041945114453
 30
0.0
 11
26.27619712881872
 21
6.766132731134263
 31
0.0
  0
LINE
  5
11F8
330
10FA
100
AcDbEntity
  8
0
 62
     0
100
AcDbLine
 10
30.67110634279885
 20
11.16104194511439
 30
0.0
 11
31.1350639452371
 21
11.62499954755264
 31
0.0
  0
LINE
  5
11F9
330
10FA
100
AcDbEntity
  8
0
 62
     0
100
AcDbLine
 10
23.14919162180268
 20
3.639127224118198
 30
0.0
 11
24.48506394523707
 21
4.974999547552613
 31
0.0
  0
LINE
  5
11FA
330
10FA
100
AcDbEntity
  8
0
 62
     0
100
AcDbLine
 10
25.06117105523518
 20
6.000119463604164
 30
0.0
 11
26.11444747638842
 21
7.053395884757406
 31
0.0
  0
LINE
  5
11FB
330
10FA
100
AcDbEntity
  8
0
 62
     0
100
AcDbLine
 10
27.5211063427989
 20
8.460054751167888
 30
0.0
 11
28.92110634279891
 21
9.860054751167922
 31
0.0
  0
LINE
  5
11FC
330
10FA
100
AcDbEntity
  8
0
 62
     0
100
AcDbLine
 10
23.05860634279884
 20
3.997554751167825
 30
0.0
 11
24.03605113918357
 21
4.974999547552584
 31
0.0
  0
LINE
  5
11FD
330
10FA
100
AcDbEntity
  8
0
 62
     0
100
AcDbLine
 10
24.92397863666573
 20
6.311939851088226
 30
0.0
 11
25.91651191742451
 21
7.304473131847004
 31
0.0
  0
LINE
  5
11FE
330
10FA
100
AcDbEntity
  8
0
 62
     0
100
AcDbLine
 10
27.52110634279887
 20
8.909067557221362
 30
0.0
 11
28.92110634279891
 21
10.30906755722139
 31
0.0
  0
LINE
  5
11FF
330
10FA
100
AcDbEntity
  8
0
 62
     0
100
AcDbLine
 10
23.05860634279881
 20
4.4465675572213
 30
0.0
 11
23.58703833313015
 21
4.974999547552641
 31
0.0
  0
LINE
  5
1200
330
10FA
100
AcDbEntity
  8
0
 62
     0
100
AcDbLine
 10
27.5211063427989
 20
9.35808036327478
 30
0.0
 11
28.92110634279891
 21
10.75808036327481
 31
0.0
  0
LINE
  5
1201
330
10FA
100
AcDbEntity
  8
0
 62
     0
100
AcDbLine
 10
24.70334118810723
 20
6.540315208583137
 30
0.0
 11
25.69329068176839
 21
7.530264702244295
 31
0.0
  0
LINE
  5
1202
330
10FA
100
AcDbEntity
  8
0
 62
     0
100
AcDbLine
 10
24.47883478508049
 20
6.764821611609875
 30
0.0
 11
25.46878427874165
 21
7.754771105271032
 31
0.0
  0
LINE
  5
1203
330
10FA
100
AcDbEntity
  8
0
 62
     0
100
AcDbLine
 10
27.52110634279887
 20
9.807093169328254
 30
0.0
 11
28.92110634279891
 21
11.20709316932828
 31
0.0
  0
LINE
  5
1204
330
10FA
100
AcDbEntity
  8
0
 62
     0
100
AcDbLine
 10
21.28901272102325
 20
3.574999547552636
 30
0.0
 11
21.74610634279886
 21
4.032093169328248
 31
0.0
  0
LINE
  5
1205
330
10FA
100
AcDbEntity
  8
0
 62
     0
100
AcDbLine
 10
24.25432838205381
 20
6.98932801463664
 30
0.0
 11
25.24427787571491
 21
7.979277508297769
 31
0.0
  0
LINE
  5
1206
330
10FA
100
AcDbEntity
  8
0
 62
     0
100
AcDbLine
 10
27.52110634279887
 20
10.25610597538172
 30
0.0
 11
28.82801588874943
 21
11.56301552133228
 31
0.0
  0
LINE
  5
1207
330
10FA
100
AcDbEntity
  8
0
 62
     0
100
AcDbLine
 10
20.83999991496975
 20
3.574999547552607
 30
0.0
 11
21.74610634279886
 21
4.481105975381723
 31
0.0
  0
LINE
  5
1208
330
10FA
100
AcDbEntity
  8
0
 62
     0
100
AcDbLine
 10
24.02982197902701
 20
7.213834417663349
 30
0.0
 11
25.01977147268817
 21
8.203783911324507
 31
0.0
  0
LINE
  5
1209
330
10FA
100
AcDbEntity
  8
0
 62
     0
100
AcDbLine
 10
27.52110634279887
 20
10.70511878143517
 30
0.0
 11
28.44098710891632
 21
11.62499954755264
 31
0.0
  0
LINE
  5
120A
330
10FA
100
AcDbEntity
  8
0
 62
     0
100
AcDbLine
 10
20.44679267784732
 20
3.630805116483657
 30
0.0
 11
21.74610634279886
 21
4.930118781435169
 31
0.0
  0
LINE
  5
120B
330
10FA
100
AcDbEntity
  8
0
 62
     0
100
AcDbLine
 10
23.8053155760003
 20
7.438340820690058
 30
0.0
 11
24.79526506966147
 21
8.428290314351215
 31
0.0
  0
LINE
  5
120C
330
10FA
100
AcDbEntity
  8
0
 62
     0
100
AcDbLine
 10
27.52110634279887
 20
11.15413158748862
 30
0.0
 11
27.99197430286287
 21
11.62499954755261
 31
0.0
  0
LINE
  5
120D
330
10FA
100
AcDbEntity
  8
0
 62
     0
100
AcDbLine
 10
20.34610634279889
 20
3.979131587488637
 30
0.0
 11
21.74610634279886
 21
5.379131587488615
 31
0.0
  0
LINE
  5
120E
330
10FA
100
AcDbEntity
  8
0
 62
     0
100
AcDbLine
 10
23.58080917297357
 20
7.662847223716795
 30
0.0
 11
24.57075866663473
 21
8.652796717377952
 31
0.0
  0
LINE
  5
120F
330
10FA
100
AcDbEntity
  8
0
 62
     0
100
AcDbLine
 10
20.34610634279886
 20
4.428144393542083
 30
0.0
 11
21.74610634279886
 21
5.828144393542061
 31
0.0
  0
LINE
  5
1210
330
10FA
100
AcDbEntity
  8
0
 62
     0
100
AcDbLine
 10
23.35731722245293
 20
7.88836807924963
 30
0.0
 11
24.34930398914392
 21
8.880354845940615
 31
0.0
  0
LINE
  5
1211
330
10FA
100
AcDbEntity
  8
0
 62
     0
100
AcDbLine
 10
20.34610634279886
 20
4.877157199595558
 30
0.0
 11
21.74610634279884
 21
6.277157199595535
 31
0.0
  0
LINE
  5
1212
330
10FA
100
AcDbEntity
  8
0
 62
     0
100
AcDbLine
 10
25.69394869075591
 20
10.22499954755261
 30
0.0
 11
26.20860634279887
 21
10.73965719959556
 31
0.0
  0
LINE
  5
1213
330
10FA
100
AcDbEntity
  8
0
 62
     0
100
AcDbLine
 10
19.09977823044334
 20
3.630829087240044
 30
0.0
 11
19.14460441117165
 21
3.675655267968352
 31
0.0
  0
LINE
  5
1214
330
10FA
100
AcDbEntity
  8
0
 62
     0
100
AcDbLine
 10
23.15831613304195
 20
8.138379795892063
 30
0.0
 11
24.20813327175128
 21
9.188196934601393
 31
0.0
  0
LINE
  5
1215
330
10FA
100
AcDbEntity
  8
0
 62
     0
100
AcDbLine
 10
20.34610634279889
 20
5.326170005648975
 30
0.0
 11
21.74610634279886
 21
6.726170005648981
 31
0.0
  0
LINE
  5
1216
330
10FA
100
AcDbEntity
  8
0
 62
     0
100
AcDbLine
 10
25.24493588470249
 20
10.22499954755258
 30
0.0
 11
26.2086063427989
 21
11.18867000564898
 31
0.0
  0
LINE
  5
1217
330
10FA
100
AcDbEntity
  8
0
 62
     0
100
AcDbLine
 10
18.59493588470249
 20
3.574999547552607
 30
0.0
 11
19.12782543285581
 21
4.1078890957059
 31
0.0
  0
LINE
  5
1218
330
10FA
100
AcDbEntity
  8
0
 62
     0
100
AcDbLine
 10
22.99539900084357
 20
8.424475469747164
 30
0.0
 11
24.19610634279888
 21
9.625182811702472
 31
0.0
  0
LINE
  5
1219
330
10FA
100
AcDbEntity
  8
0
 62
     0
100
AcDbLine
 10
20.34610634279886
 20
5.77518281170245
 30
0.0
 11
21.74610634279886
 21
7.175182811702427
 31
0.0
  0
LINE
  5
121A
330
10FA
100
AcDbEntity
  8
0
 62
     0
100
AcDbLine
 10
24.79592307864902
 20
10.22499954755261
 30
0.0
 11
26.12527187689988
 21
11.55434834580347
 31
0.0
  0
LINE
  5
121B
330
10FA
100
AcDbEntity
  8
0
 62
     0
100
AcDbLine
 10
18.14592307864899
 20
3.574999547552579
 30
0.0
 11
19.02006235940297
 21
4.44913882830653
 31
0.0
  0
LINE
  5
121C
330
10FA
100
AcDbEntity
  8
0
 62
     0
100
AcDbLine
 10
20.34610634279886
 20
6.224195617755896
 30
0.0
 11
21.74610634279884
 21
7.624195617755901
 31
0.0
  0
LINE
  5
121D
330
10FA
100
AcDbEntity
  8
0
 62
     0
100
AcDbLine
 10
22.87370796950858
 20
8.751797244465649
 30
0.0
 11
25.74691027259558
 21
11.62499954755264
 31
0.0
  0
LINE
  5
121E
330
10FA
100
AcDbEntity
  8
0
 62
     0
100
AcDbLine
 10
17.84991592332159
 20
3.728005198278623
 30
0.0
 11
18.91229928595012
 21
4.79038856090716
 31
0.0
  0
LINE
  5
121F
330
10FA
100
AcDbEntity
  8
0
 62
     0
100
AcDbLine
 10
20.34610634279883
 20
6.67320842380937
 30
0.0
 11
21.74610634279884
 21
8.073208423809347
 31
0.0
  0
LINE
  5
1220
330
10FA
100
AcDbEntity
  8
0
 62
     0
100
AcDbLine
 10
22.80435453996574
 20
9.13145662097628
 30
0.0
 11
25.29789746654214
 21
11.62499954755264
 31
0.0
  0
LINE
  5
1221
330
10FA
100
AcDbEntity
  8
0
 62
     0
100
AcDbLine
 10
17.74053621249726
 20
4.067638293507769
 30
0.0
 11
18.80453621249728
 21
5.131638293507819
 31
0.0
  0
LINE
  5
1222
330
10FA
100
AcDbEntity
  8
0
 62
     0
100
AcDbLine
 10
20.34610634279889
 20
7.122221229862844
 30
0.0
 11
21.74610634279884
 21
8.522221229862793
 31
0.0
  0
LINE
  5
1223
330
10FA
100
AcDbEntity
  8
0
 62
     0
100
AcDbLine
 10
22.79610634279884
 20
9.572221229862805
 30
0.0
 11
24.84888466048869
 21
11.62499954755264
 31
0.0
  0
LINE
  5
1224
330
10FA
100
AcDbEntity
  8
0
 62
     0
100
AcDbLine
 10
17.63277313904438
 20
4.408888026108343
 30
0.0
 11
18.69677313904449
 21
5.472888026108449
 31
0.0
  0
LINE
  5
1225
330
10FA
100
AcDbEntity
  8
0
 62
     0
100
AcDbLine
 10
20.34610634279889
 20
7.571234035916319
 30
0.0
 11
21.74610634279884
 21
8.971234035916268
 31
0.0
  0
LINE
  5
1226
330
10FA
100
AcDbEntity
  8
0
 62
     0
100
AcDbLine
 10
22.79610634279884
 20
10.02123403591625
 30
0.0
 11
24.39987185443524
 21
11.62499954755264
 31
0.0
  0
LINE
  5
1227
330
10FA
100
AcDbEntity
  8
0
 62
     0
100
AcDbLine
 10
17.5250100655916
 20
4.750137758709001
 30
0.0
 11
18.58901006559162
 21
5.814137758709051
 31
0.0
  0
LINE
  5
1228
330
10FA
100
AcDbEntity
  8
0
 62
     0
100
AcDbLine
 10
20.34610634279889
 20
8.020246841969765
 30
0.0
 11
21.74610634279884
 21
9.420246841969714
 31
0.0
  0
LINE
  5
1229
330
10FA
100
AcDbEntity
  8
0
 62
     0
100
AcDbLine
 10
17.41724699213875
 20
5.09138749130966
 30
0.0
 11
18.48124699213883
 21
6.15538749130971
 31
0.0
  0
LINE
  5
122A
330
10FA
100
AcDbEntity
  8
0
 62
     0
100
AcDbLine
 10
22.82276467785956
 20
10.49690517703044
 30
0.0
 11
23.92420071332105
 21
11.59834121249193
 31
0.0
  0
LINE
  5
122B
330
10FA
100
AcDbEntity
  8
0
 62
     0
100
AcDbLine
 10
15.9008590483817
 20
3.574999547552607
 30
0.0
 11
16.32110634279888
 21
3.995246841969787
 31
0.0
  0
LINE
  5
122C
330
10FA
100
AcDbEntity
  8
0
 62
     0
100
AcDbLine
 10
17.30948391868594
 20
5.432637223910262
 30
0.0
 11
18.37348391868596
 21
6.496637223910283
 31
0.0
  0
LINE
  5
122D
330
10FA
100
AcDbEntity
  8
0
 62
     0
100
AcDbLine
 10
20.34610634279889
 20
8.469259648023211
 30
0.0
 11
21.74610634279884
 21
9.86925964802316
 31
0.0
  0
LINE
  5
122E
330
10FA
100
AcDbEntity
  8
0
 62
     0
100
AcDbLine
 10
15.45184624232828
 20
3.574999547552579
 30
0.0
 11
16.32110634279891
 21
4.444259648023205
 31
0.0
  0
LINE
  5
122F
330
10FA
100
AcDbEntity
  8
0
 62
     0
100
AcDbLine
 10
17.20172084523307
 20
5.773886956510835
 30
0.0
 11
18.26572084523317
 21
6.837886956510942
 31
0.0
  0
LINE
  5
1230
330
10FA
100
AcDbEntity
  8
0
 62
     0
100
AcDbLine
 10
20.34610634279889
 20
8.918272454076657
 30
0.0
 11
21.74610634279884
 21
10.3182724540766
 31
0.0
  0
LINE
  5
1231
330
10FA
100
AcDbEntity
  8
0
 62
     0
100
AcDbLine
 10
15.04340831010051
 20
3.615574421378283
 30
0.0
 11
16.32110634279888
 21
4.893272454076679
 31
0.0
  0
LINE
  5
1232
330
10FA
100
AcDbEntity
  8
0
 62
     0
100
AcDbLine
 10
17.09395777178025
 20
6.115136689111523
 30
0.0
 11
18.15795777178027
 21
7.179136689111544
 31
0.0
  0
LINE
  5
1233
330
10FA
100
AcDbEntity
  8
0
 62
     0
100
AcDbLine
 10
20.34610634279886
 20
9.367285260130131
 30
0.0
 11
21.7461063427988
 21
10.76728526013008
 31
0.0
  0
LINE
  5
1234
330
10FA
100
AcDbEntity
  8
0
 62
     0
100
AcDbLine
 10
14.92110634279885
 20
3.94228526013012
 30
0.0
 11
16.32110634279888
 21
5.342285260130154
 31
0.0
  0
LINE
  5
1235
330
10FA
100
AcDbEntity
  8
0
 62
     0
100
AcDbLine
 10
16.98619469832743
 20
6.456386421712124
 30
0.0
 11
18.05019469832751
 21
7.520386421712203
 31
0.0
  0
LINE
  5
1236
330
10FA
100
AcDbEntity
  8
0
 62
     0
100
AcDbLine
 10
20.34610634279889
 20
9.816298066183577
 30
0.0
 11
21.74610634279884
 21
11.21629806618352
 31
0.0
  0
LINE
  5
1237
330
10FA
100
AcDbEntity
  8
0
 62
     0
100
AcDbLine
 10
14.92110634279887
 20
4.391298066183537
 30
0.0
 11
16.32110634279894
 21
5.791298066183628
 31
0.0
  0
LINE
  5
1238
330
10FA
100
AcDbEntity
  8
0
 62
     0
100
AcDbLine
 10
16.86879530484151
 20
6.787999834279673
 30
0.0
 11
18.18394233880707
 21
8.103146868245232
 31
0.0
  0
LINE
  5
1239
330
10FA
100
AcDbEntity
  8
0
 62
     0
100
AcDbLine
 10
20.34610634279891
 20
10.26531087223708
 30
0.0
 11
21.64796863154961
 21
11.56717316098774
 31
0.0
  0
LINE
  5
123A
330
10FA
100
AcDbEntity
  8
0
 62
     0
100
AcDbLine
 10
14.92110634279885
 20
4.840310872237012
 30
0.0
 11
16.32110634279894
 21
6.240310872237074
 31
0.0
  0
LINE
  5
123B
330
10FA
100
AcDbEntity
  8
0
 62
     0
100
AcDbLine
 10
16.52520261990778
 20
6.893419955399423
 30
0.0
 11
18.39117901852407
 21
8.759396354015706
 31
0.0
  0
LINE
  5
123C
330
10FA
100
AcDbEntity
  8
0
 62
     0
100
AcDbLine
 10
14.92110634279885
 20
5.289323678290486
 30
0.0
 11
16.32768593495208
 21
6.695903270443722
 31
0.0
  0
LINE
  5
123D
330
10FA
100
AcDbEntity
  8
0
 62
     0
100
AcDbLine
 10
20.34610634279891
 20
10.71432367829052
 30
0.0
 11
21.25678221206101
 21
11.62499954755264
 31
0.0
  0
LINE
  5
123E
330
10FA
100
AcDbEntity
  8
0
 62
     0
100
AcDbLine
 10
13.206782212061
 20
3.574999547552607
 30
0.0
 11
13.69610634279891
 21
4.064323678290548
 31
0.0
  0
LINE
  5
123F
330
10FA
100
AcDbEntity
  8
0
 62
     0
100
AcDbLine
 10
14.92110634279885
 20
5.738336484343932
 30
0.0
 11
18.59841569824107
 21
9.415645839786179
 31
0.0
  0
LINE
  5
1240
330
10FA
100
AcDbEntity
  8
0
 62
     0
100
AcDbLine
 10
20.34610634279889
 20
11.163336484344
 30
0.0
 11
20.80776940600753
 21
11.62499954755264
 31
0.0
  0
LINE
  5
1241
330
10FA
100
AcDbEntity
  8
0
 62
     0
100
AcDbLine
 10
12.75776940600752
 20
3.574999547552636
 30
0.0
 11
13.69610634279891
 21
4.513336484343994
 31
0.0
  0
LINE
  5
1242
330
10FA
100
AcDbEntity
  8
0
 62
     0
100
AcDbLine
 10
14.9211063427989
 20
6.187349290397406
 30
0.0
 11
18.80565237795809
 21
10.07189532555662
 31
0.0
  0
LINE
  5
1243
330
10FA
100
AcDbEntity
  8
0
 62
     0
100
AcDbLine
 10
12.31459691212913
 20
3.58083985972766
 30
0.0
 11
13.62543920099574
 21
4.891682148594242
 31
0.0
  0
LINE
  5
1244
330
10FA
100
AcDbEntity
  8
0
 62
     0
100
AcDbLine
 10
14.92110634279887
 20
6.636362096450881
 30
0.0
 11
16.58474379390062
 21
8.29999954755263
 31
0.0
  0
LINE
  5
1245
330
10FA
100
AcDbEntity
  8
0
 62
     0
100
AcDbLine
 10
16.96673521152115
 20
8.681990965173127
 30
0.0
 11
19.01288905767506
 21
10.72814481132706
 31
0.0
  0
LINE
  5
1246
330
10FA
100
AcDbEntity
  8
0
 62
     0
100
AcDbLine
 10
11.93051665340564
 20
3.64577240705762
 30
0.0
 11
13.25974379390061
 21
4.974999547552613
 31
0.0
  0
LINE
  5
1247
330
10FA
100
AcDbEntity
  8
0
 62
     0
100
AcDbLine
 10
14.92110634279887
 20
7.085374902504327
 30
0.0
 11
16.33010162815301
 21
8.494370187858493
 31
0.0
  0
LINE
  5
1248
330
10FA
100
AcDbEntity
  8
0
 62
     0
100
AcDbLine
 10
17.17397189123809
 20
9.338240450943573
 30
0.0
 11
19.20042478357572
 21
11.3646933432812
 31
0.0
  0
LINE
  5
1249
330
10FA
100
AcDbEntity
  8
0
 62
     0
100
AcDbLine
 10
11.59994952499243
 20
3.764218084697915
 30
0.0
 11
12.81073098784716
 21
4.974999547552613
 31
0.0
  0
LINE
  5
124A
330
10FA
100
AcDbEntity
  8
0
 62
     0
100
AcDbLine
 10
14.92110634279887
 20
7.534387708557773
 30
0.0
 11
16.32110634279891
 21
8.934387708557807
 31
0.0
  0
LINE
  5
124B
330
10FA
100
AcDbEntity
  8
0
 62
     0
100
AcDbLine
 10
17.38120857095509
 20
9.994489936713989
 30
0.0
 11
19.00341884729104
 21
11.61670021304993
 31
0.0
  0
LINE
  5
124C
330
10FA
100
AcDbEntity
  8
0
 62
     0
100
AcDbLine
 10
11.31114788291029
 20
3.924429248669156
 30
0.0
 11
12.36917881215672
 21
4.982460177915612
 31
0.0
  0
LINE
  5
124D
330
10FA
100
AcDbEntity
  8
0
 62
     0
100
AcDbLine
 10
14.92110634279887
 20
7.983400514611247
 30
0.0
 11
16.32110634279891
 21
9.383400514611253
 31
0.0
  0
LINE
  5
124E
330
10FA
100
AcDbEntity
  8
0
 62
     0
100
AcDbLine
 10
17.58844525067206
 20
10.6507394224844
 30
0.0
 11
18.56270537574025
 21
11.62499954755261
 31
0.0
  0
LINE
  5
124F
330
10FA
100
AcDbEntity
  8
0
 62
     0
100
AcDbLine
 10
11.05867039971926
 20
4.120964571531601
 30
0.0
 11
12.05202074164756
 21
5.114314913459907
 31
0.0
  0
LINE
  5
1250
330
10FA
100
AcDbEntity
  8
0
 62
     0
100
AcDbLine
 10
14.92110634279887
 20
8.432413320664693
 30
0.0
 11
16.32110634279888
 21
9.832413320664727
 31
0.0
  0
LINE
  5
1251
330
10FA
100
AcDbEntity
  8
0
 62
     0
100
AcDbLine
 10
13.25192340868696
 20
6.763230386552805
 30
0.0
 11
13.83287550379867
 21
7.344182481664518
 31
0.0
  0
LINE
  5
1252
330
10FA
100
AcDbEntity
  8
0
 62
     0
100
AcDbLine
 10
17.795681930389
 20
11.30698890825485
 30
0.0
 11
18.11369256968677
 21
11.62499954755261
 31
0.0
  0
LINE
  5
1253
330
10FA
100
AcDbEntity
  8
0
 62
     0
100
AcDbLine
 10
10.84045186305434
 20
4.351758840920183
 30
0.0
 11
11.84689526601147
 21
5.358202243877315
 31
0.0
  0
LINE
  5
1254
330
10FA
100
AcDbEntity
  8
0
 62
     0
100
AcDbLine
 10
12.7894369878721
 20
6.749756771791425
 30
0.0
 11
13.84634911856005
 21
7.806668902479373
 31
0.0
  0
LINE
  5
1255
330
10FA
100
AcDbEntity
  8
0
 62
     0
100
AcDbLine
 10
14.92110634279885
 20
8.881426126718167
 30
0.0
 11
16.32110634279888
 21
10.2814261267182
 31
0.0
  0
LINE
  5
1256
330
10FA
100
AcDbEntity
  8
0
 62
     0
100
AcDbLine
 10
10.65694225058285
 20
4.617262034502147
 30
0.0
 11
11.7711063427989
 21
5.73142612671819
 31
0.0
  0
LINE
  5
1257
330
10FA
100
AcDbEntity
  8
0
 62
     0
100
AcDbLine
 10
12.48236370316203
 20
6.891696293134742
 30
0.0
 11
13.70440959721671
 21
8.113742187189444
 31
0.0
  0
LINE
  5
1258
330
10FA
100
AcDbEntity
  8
0
 62
     0
100
AcDbLine
 10
14.92110634279887
 20
9.330438932771585
 30
0.0
 11
16.32110634279891
 21
10.73043893277161
 31
0.0
  0
LINE
  5
1259
330
10FA
100
AcDbEntity
  8
0
 62
     0
100
AcDbLine
 10
10.51128349562048
 20
4.920616085593223
 30
0.0
 11
11.7711063427989
 21
6.180438932771636
 31
0.0
  0
LINE
  5
125A
330
10FA
100
AcDbEntity
  8
0
 62
     0
100
AcDbLine
 10
12.26338373966717
 20
7.121729135693385
 30
0.0
 11
13.47437675465809
 21
8.332722150684276
 31
0.0
  0
LINE
  5
125B
330
10FA
100
AcDbEntity
  8
0
 62
     0
100
AcDbLine
 10
14.92110634279885
 20
9.779451738825059
 30
0.0
 11
16.32110634279894
 21
11.17945173882512
 31
0.0
  0
LINE
  5
125C
330
10FA
100
AcDbEntity
  8
0
 62
     0
100
AcDbLine
 10
10.41071481353316
 20
5.26906020955937
 30
0.0
 11
11.7711063427989
 21
6.62945173882511
 31
0.0
  0
LINE
  5
125D
330
10FA
100
AcDbEntity
  8
0
 62
     0
100
AcDbLine
 10
12.13535837346302
 20
7.442716575542704
 30
0.0
 11
13.15338931480877
 21
8.46074751688846
 31
0.0
  0
LINE
  5
125E
330
10FA
100
AcDbEntity
  8
0
 62
     0
100
AcDbLine
 10
10.37110634279881
 20
5.678464544878494
 30
0.0
 11
11.77110634279887
 21
7.078464544878556
 31
0.0
  0
LINE
  5
125F
330
10FA
100
AcDbEntity
  8
0
 62
     0
100
AcDbLine
 10
14.92110634279885
 20
10.22846454487853
 30
0.0
 11
16.24248128862126
 21
11.54983949070094
 31
0.0
  0
LINE
  5
1260
330
10FA
100
AcDbEntity
  8
0
 62
     0
100
AcDbLine
 10
8.328107963860986
 20
3.63546616594067
 30
0.0
 11
9.26063972441085
 21
4.567997926490534
 31
0.0
  0
LINE
  5
1261
330
10FA
100
AcDbEntity
  8
0
 62
     0
100
AcDbLine
 10
12.19456491520344
 20
7.950935923336515
 30
0.0
 11
12.64516996701493
 21
8.401540975148037
 31
0.0
  0
LINE
  5
1262
330
10FA
100
AcDbEntity
  8
0
 62
     0
100
AcDbLine
 10
10.37110634279886
 20
6.127477350931968
 30
0.0
 11
11.7711063427989
 21
7.527477350932002
 31
0.0
  0
LINE
  5
1263
330
10FA
100
AcDbEntity
  8
0
 62
     0
100
AcDbLine
 10
14.92110634279887
 20
10.67747735093195
 30
0.0
 11
15.86862853941951
 21
11.62499954755261
 31
0.0
  0
LINE
  5
1264
330
10FA
100
AcDbEntity
  8
0
 62
     0
100
AcDbLine
 10
7.818628539419506
 20
3.574999547552607
 30
0.0
 11
9.321106342798913
 21
5.077477350932014
 31
0.0
  0
LINE
  5
1265
330
10FA
100
AcDbEntity
  8
0
 62
     0
100
AcDbLine
 10
10.37110634279886
 20
6.576490156985443
 30
0.0
 11
11.7711063427989
 21
7.976490156985448
 31
0.0
  0
LINE
  5
1266
330
10FA
100
AcDbEntity
  8
0
 62
     0
100
AcDbLine
 10
14.9211063427989
 20
11.12649015698545
 30
0.0
 11
15.41961573336607
 21
11.62499954755264
 31
0.0
  0
LINE
  5
1267
330
10FA
100
AcDbEntity
  8
0
 62
     0
100
AcDbLine
 10
7.369615733366003
 20
3.574999547552579
 30
0.0
 11
9.321106342798941
 21
5.526490156985516
 31
0.0
  0
LINE
  5
1268
330
10FA
100
AcDbEntity
  8
0
 62
     0
100
AcDbLine
 10
10.37110634279886
 20
7.025502963038888
 30
0.0
 11
11.77110634279887
 21
8.425502963038923
 31
0.0
  0
LINE
  5
1269
330
10FA
100
AcDbEntity
  8
0
 62
     0
100
AcDbLine
 10
6.920602927312586
 20
3.574999547552636
 30
0.0
 11
9.319136666518289
 21
5.973533286758339
 31
0.0
  0
LINE
  5
126A
330
10FA
100
AcDbEntity
  8
0
 62
     0
100
AcDbLine
 10
10.37110634279886
 20
7.474515769092363
 30
0.0
 11
11.7711063427989
 21
8.874515769092397
 31
0.0
  0
LINE
  5
126B
330
10FA
100
AcDbEntity
  8
0
 62
     0
100
AcDbLine
 10
13.12159012125917
 20
10.22499954755267
 30
0.0
 11
13.69610634279891
 21
10.7995157690924
 31
0.0
  0
LINE
  5
126C
330
10FA
100
AcDbEntity
  8
0
 62
     0
100
AcDbLine
 10
6.471590121259112
 20
3.574999547552607
 30
0.0
 11
9.264305748357571
 21
6.367715174651067
 31
0.0
  0
LINE
  5
126D
330
10FA
100
AcDbEntity
  8
0
 62
     0
100
AcDbLine
 10
10.37110634279886
 20
7.92352857514578
 30
0.0
 11
11.77110634279887
 21
9.323528575145815
 31
0.0
  0
LINE
  5
126E
330
10FA
100
AcDbEntity
  8
0
 62
     0
100
AcDbLine
 10
7.921106342798879
 20
5.473528575145792
 30
0.0
 11
9.153136376335567
 21
6.70555860868248
 31
0.0
  0
LINE
  5
126F
330
10FA
100
AcDbEntity
  8
0
 62
     0
100
AcDbLine
 10
12.67257731520567
 20
10.22499954755261
 30
0.0
 11
13.69610634279891
 21
11.24852857514585
 31
0.0
  0
LINE
  5
1270
330
10FA
100
AcDbEntity
  8
0
 62
     0
100
AcDbLine
 10
6.051440252835647
 20
3.603862485182588
 30
0.0
 11
7.422577315205671
 21
4.974999547552613
 31
0.0
  0
LINE
  5
1271
330
10FA
100
AcDbEntity
  8
0
 62
     0
100
AcDbLine
 10
10.37110634279883
 20
8.372541381199255
 30
0.0
 11
11.85401369568864
 21
9.855448734089065
 31
0.0
  0
LINE
  5
1272
330
10FA
100
AcDbEntity
  8
0
 62
     0
100
AcDbLine
 10
7.920026796994193
 20
5.92146183539458
 30
0.0
 11
8.998920608999497
 21
7.000355647399914
 31
0.0
  0
LINE
  5
1273
330
10FA
100
AcDbEntity
  8
0
 62
     0
100
AcDbLine
 10
12.14065715626242
 20
10.14209219466283
 30
0.0
 11
13.57937263533887
 21
11.58080767373928
 31
0.0
  0
LINE
  5
1274
330
10FA
100
AcDbEntity
  8
0
 62
     0
100
AcDbLine
 10
5.908606342798861
 20
3.910041381199278
 30
0.0
 11
6.973564509152225
 21
4.974999547552613
 31
0.0
  0
LINE
  5
1275
330
10FA
100
AcDbEntity
  8
0
 62
     0
100
AcDbLine
 10
7.810225287243838
 20
6.260673131697728
 30
0.0
 11
8.807799626580049
 21
7.258247471033939
 31
0.0
  0
LINE
  5
1276
330
10FA
100
AcDbEntity
  8
0
 62
     0
100
AcDbLine
 10
10.37110634279883
 20
8.821554187252729
 30
0.0
 11
13.17455170309878
 21
11.62499954755267
 31
0.0
  0
LINE
  5
1277
330
10FA
100
AcDbEntity
  8
0
 62
     0
100
AcDbLine
 10
5.908606342798861
 20
4.359054187252723
 30
0.0
 11
6.524551703098751
 21
4.974999547552641
 31
0.0
  0
LINE
  5
1278
330
10FA
100
AcDbEntity
  8
0
 62
     0
100
AcDbLine
 10
7.597097873091513
 20
6.496558523598821
 30
0.0
 11
8.58704736675267
 21
7.486508017259978
 31
0.0
  0
LINE
  5
1279
330
10FA
100
AcDbEntity
  8
0
 62
     0
100
AcDbLine
 10
10.37110634279883
 20
9.270566993306147
 30
0.0
 11
12.72553889704525
 21
11.62499954755256
 31
0.0
  0
LINE
  5
127A
330
10FA
100
AcDbEntity
  8
0
 62
     0
100
AcDbLine
 10
5.943082303808694
 20
4.842542954316002
 30
0.0
 11
6.041062936035501
 21
4.940523586542809
 31
0.0
  0
LINE
  5
127B
330
10FA
100
AcDbEntity
  8
0
 62
     0
100
AcDbLine
 10
10.38109389987707
 20
9.729567356437826
 30
0.0
 11
12.26653853391357
 21
11.61501199047435
 31
0.0
  0
LINE
  5
127C
330
10FA
100
AcDbEntity
  8
0
 62
     0
100
AcDbLine
 10
7.372591470064776
 20
6.721064926625558
 30
0.0
 11
8.362540963725933
 21
7.711014420286716
 31
0.0
  0
LINE
  5
127D
330
10FA
100
AcDbEntity
  8
0
 62
     0
100
AcDbLine
 10
10.53082561600996
 20
10.32831187862422
 30
0.0
 11
11.66779401172721
 21
11.46528027434146
 31
0.0
  0
LINE
  5
127E
330
10FA
100
AcDbEntity
  8
0
 62
     0
100
AcDbLine
 10
7.148085067038039
 20
6.945571329652295
 30
0.0
 11
8.138034560699196
 21
7.935520823313453
 31
0.0
  0
LINE
  5
127F
330
10FA
100
AcDbEntity
  8
0
 62
     0
100
AcDbLine
 10
6.92357866401133
 20
7.170077732679004
 30
0.0
 11
7.913528157672487
 21
8.160027226340162
 31
0.0
  0
LINE
  5
1280
330
10FA
100
AcDbEntity
  8
0
 62
     0
100
AcDbLine
 10
6.699072260984593
 20
7.394584135705741
 30
0.0
 11
7.68902175464575
 21
8.384533629366899
 31
0.0
  0
LINE
  5
1281
330
10FA
100
AcDbEntity
  8
0
 62
     0
100
AcDbLine
 10
6.474565857957827
 20
7.61909053873245
 30
0.0
 11
7.464515351619013
 21
8.609040032393636
 31
0.0
  0
LINE
  5
1282
330
10FA
100
AcDbEntity
  8
0
 62
     0
100
AcDbLine
 10
8.631462060724544
 20
10.22499954755261
 30
0.0
 11
9.058606342798867
 21
10.65214382962696
 31
0.0
  0
LINE
  5
1283
330
10FA
100
AcDbEntity
  8
0
 62
     0
100
AcDbLine
 10
6.250101111945156
 20
7.843638598773253
 30
0.0
 11
7.240133933661439
 21
8.833671420489537
 31
0.0
  0
LINE
  5
1284
330
10FA
100
AcDbEntity
  8
0
 62
     0
100
AcDbLine
 10
8.182449254671098
 20
10.22499954755261
 30
0.0
 11
9.058606342798896
 21
11.10115663568038
 31
0.0
  0
LINE
  5
1285
330
10FA
100
AcDbEntity
  8
0
 62
     0
100
AcDbLine
 10
6.044367149669369
 20
8.086917442550856
 30
0.0
 11
7.075185493017499
 21
9.117735785899014
 31
0.0
  0
LINE
  5
1286
330
10FA
100
AcDbEntity
  8
0
 62
     0
100
AcDbLine
 10
7.733436448617624
 20
10.22499954755261
 30
0.0
 11
9.015326892918295
 21
11.50688999185328
 31
0.0
  0
LINE
  5
1287
330
10FA
100
AcDbEntity
  8
0
 62
     0
100
AcDbLine
 10
5.874136846538135
 20
8.365699945473096
 30
0.0
 11
7.04610634279885
 21
9.537669441733811
 31
0.0
  0
LINE
  5
1288
330
10FA
100
AcDbEntity
  8
0
 62
     0
100
AcDbLine
 10
7.283190317979148
 20
10.22376622296761
 30
0.0
 11
8.684423642564155
 21
11.62499954755261
 31
0.0
  0
LINE
  5
1289
330
10FA
100
AcDbEntity
  8
0
 62
     0
100
AcDbLine
 10
5.743790198672087
 20
8.684366103660522
 30
0.0
 11
7.047339667383937
 21
9.987915572372401
 31
0.0
  0
LINE
  5
128A
330
10FA
100
AcDbEntity
  8
0
 62
     0
100
AcDbLine
 10
5.662884217548054
 20
9.052472928589935
 30
0.0
 11
8.235410836510766
 21
11.62499954755264
 31
0.0
  0
LINE
  5
128B
330
10FA
100
AcDbEntity
  8
0
 62
     0
100
AcDbLine
 10
5.646106342798901
 20
9.484707859894228
 30
0.0
 11
7.786398030457263
 21
11.62499954755261
 31
0.0
  0
LINE
  5
128C
330
10FA
100
AcDbEntity
  8
0
 62
     0
100
AcDbLine
 10
5.646106342798873
 20
9.933720665947703
 30
0.0
 11
7.337385224403789
 21
11.62499954755261
 31
0.0
  0
LINE
  5
128D
330
10FA
100
AcDbEntity
  8
0
 62
     0
100
AcDbLine
 10
5.656202348018041
 20
10.39282947722031
 30
0.0
 11
6.878276413131175
 21
11.61490354233345
 31
0.0
  0
ENDBLK
  5
128F
330
10FA
100
AcDbEntity
  8
0
100
AcDbBlockEnd
  0
BLOCK
  5
42C0
330
42B6
100
AcDbEntity
  8
0
100
AcDbBlockBegin
  2
*D2
 70
     1
 10
0.0
 20
0.0
 30
0.0
  3
*D2
  1

  0
LINE
  5
43C3
330
42B6
100
AcDbEntity
  8
SUNPOU
 62
     4
370
    -2
100
AcDbLine
 10
175.5339270001385
 20
135.8554867205141
 30
0.0
 11
175.5339270001385
 21
149.3969836801636
 31
0.0
  0
LINE
  5
43C4
330
42B6
100
AcDbEntity
  8
SUNPOU
 62
     4
370
    -2
100
AcDbLine
 10
232.2119908036291
 20
135.8146586111918
 30
0.0
 11
232.2119908036291
 21
149.3969836801636
 31
0.0
  0
LINE
  5
43C5
330
42B6
100
AcDbEntity
  8
SUNPOU
 62
     4
370
    -2
100
AcDbLine
 10
178.5339270001385
 20
147.8969836801636
 30
0.0
 11
229.2119908036291
 21
147.8969836801636
 31
0.0
  0
INSERT
  5
43C6
330
42B6
100
AcDbEntity
  8
SUNPOU
 62
     4
370
    -2
100
AcDbBlockReference
  2
_OPEN
 10
175.5339270001385
 20
147.8969836801636
 30
0.0
 41
3.0
 42
3.0
 43
3.0
 50
180.0
  0
INSERT
  5
43C7
330
42B6
100
AcDbEntity
  8
SUNPOU
 62
     4
370
    -2
100
AcDbBlockReference
  2
_OPEN
 10
232.2119908036291
 20
147.8969836801636
 30
0.0
 41
3.0
 42
3.0
 43
3.0
  0
MTEXT
  5
43C8
330
42B6
100
AcDbEntity
  8
SUNPOU
 62
     4
100
AcDbMText
 10
203.8729589018838
 20
150.3969836801636
 30
0.0
 40
3.0
 41
0.0
 71
     5
 72
     5
  1
\A1;φ57
 73
     1
 44
1.0
1001
ACAD
1000
MTEXTBEGIN
1070
    73
1070
     1
1070
    44
1040
1.0
1070
    74
1070
     0
1000
MTEXTEND
1000
MTEXTBEGIN
1070
    73
1070
     1
1070
    44
1040
1.0
1070
    74
1070
     0
1000
MTEXTEND
  0
POINT
  5
43C9
330
42B6
100
AcDbEntity
  8
DEFPOINTS
 62
     0
100
AcDbPoint
 10
175.5339270001385
 20
132.8554867205141
 30
0.0
  0
POINT
  5
43CA
330
42B6
100
AcDbEntity
  8
DEFPOINTS
 62
     0
100
AcDbPoint
 10
232.2119908036291
 20
132.8146586111918
 30
0.0
  0
POINT
  5
43CB
330
42B6
100
AcDbEntity
  8
DEFPOINTS
 62
     0
100
AcDbPoint
 10
232.2119908036291
 20
147.8969836801636
 30
0.0
  0
ENDBLK
  5
42C1
330
42B6
100
AcDbEntity
  8
0
100
AcDbBlockEnd
  0
BLOCK
  5
42CC
330
42C2
100
AcDbEntity
  8
0
100
AcDbBlockBegin
  2
*D3
 70
     1
 10
0.0
 20
0.0
 30
0.0
  3
*D3
  1

  0
LINE
  5
43BA
330
42C2
100
AcDbEntity
  8
SUNPOU
 62
     4
370
    -2
100
AcDbLine
 10
173.8705608568051
 20
103.8142016966624
 30
0.0
 11
173.8705608568051
 21
157.5035886415925
 31
0.0
  0
LINE
  5
43BB
330
42C2
100
AcDbEntity
  8
SUNPOU
 62
     4
370
    -2
100
AcDbLine
 10
233.8705608568051
 20
103.8142016966624
 30
0.0
 11
233.8705608568051
 21
157.5035886415925
 31
0.0
  0
LINE
  5
43BC
330
42C2
100
AcDbEntity
  8
SUNPOU
 62
     4
370
    -2
100
AcDbLine
 10
176.8705608568051
 20
156.0035886415924
 30
0.0
 11
230.8705608568051
 21
156.0035886415924
 31
0.0
  0
INSERT
  5
43BD
330
42C2
100
AcDbEntity
  8
SUNPOU
 62
     4
370
    -2
100
AcDbBlockReference
  2
_OPEN
 10
173.8705608568051
 20
156.0035886415924
 30
0.0
 41
3.0
 42
3.0
 43
3.0
 50
180.0
  0
INSERT
  5
43BE
330
42C2
100
AcDbEntity
  8
SUNPOU
 62
     4
370
    -2
100
AcDbBlockReference
  2
_OPEN
 10
233.8705608568051
 20
156.0035886415924
 30
0.0
 41
3.0
 42
3.0
 43
3.0
  0
MTEXT
  5
43BF
330
42C2
100
AcDbEntity
  8
SUNPOU
 62
     4
100
AcDbMText
 10
203.8705608568051
 20
158.5035886415925
 30
0.0
 40
3.0
 41
0.0
 71
     5
 72
     5
  1
\A1;φ60
 73
     1
 44
1.0
1001
ACAD
1000
MTEXTBEGIN
1070
    73
1070
     1
1070
    44
1040
1.0
1070
    74
1070
     0
1000
MTEXTEND
1000
MTEXTBEGIN
1070
    73
1070
     1
1070
    44
1040
1.0
1070
    74
1070
     0
1000
MTEXTEND
  0
POINT
  5
43C0
330
42C2
100
AcDbEntity
  8
DEFPOINTS
 62
     0
100
AcDbPoint
 10
173.8705608568051
 20
100.8142016966623
 30
0.0
  0
POINT
  5
43C1
330
42C2
100
AcDbEntity
  8
DEFPOINTS
 62
     0
100
AcDbPoint
 10
233.8705608568051
 20
100.8142016966623
 30
0.0
  0
POINT
  5
43C2
330
42C2
100
AcDbEntity
  8
DEFPOINTS
 62
     0
100
AcDbPoint
 10
233.8705608568051
 20
156.0035886415924
 30
0.0
  0
ENDBLK
  5
42CD
330
42C2
100
AcDbEntity
  8
0
100
AcDbBlockEnd
  0
BLOCK
  5
42D8
330
42CE
100
AcDbEntity
  8
0
100
AcDbBlockBegin
  2
*D4
 70
     1
 10
0.0
 20
0.0
 30
0.0
  3
*D4
  1

  0
LINE
  5
43DE
330
42CE
100
AcDbEntity
  8
SUNPOU
 62
     4
370
    -2
100
AcDbLine
 10
234.8596335843175
 20
135.8142016966624
 30
0.0
 11
256.2948143361472
 21
135.8142016966624
 31
0.0
  0
LINE
  5
43DF
330
42CE
100
AcDbEntity
  8
SUNPOU
 62
     4
370
    -2
100
AcDbLine
 10
236.8705608568051
 20
100.8142016966623
 30
0.0
 11
256.2948143361471
 21
100.8142016966623
 31
0.0
  0
LINE
  5
43E0
330
42CE
100
AcDbEntity
  8
SUNPOU
 62
     4
370
    -2
100
AcDbLine
 10
254.7948143361471
 20
132.8142016966624
 30
0.0
 11
254.7948143361471
 21
103.8142016966624
 31
0.0
  0
INSERT
  5
43E1
330
42CE
100
AcDbEntity
  8
SUNPOU
 62
     4
370
    -2
100
AcDbBlockReference
  2
_OPEN
 10
254.7948143361471
 20
135.8142016966624
 30
0.0
 41
3.0
 42
3.0
 43
3.0
 50
90.0
  0
INSERT
  5
43E2
330
42CE
100
AcDbEntity
  8
SUNPOU
 62
     4
370
    -2
100
AcDbBlockReference
  2
_OPEN
 10
254.7948143361471
 20
100.8142016966623
 30
0.0
 41
3.0
 42
3.0
 43
3.0
 50
270.0
  0
MTEXT
  5
43E3
330
42CE
100
AcDbEntity
  8
SUNPOU
 62
     4
100
AcDbMText
 10
252.2948143361471
 20
118.3142016966624
 30
0.0
 40
3.0
 41
0.0
 71
     5
 72
     5
  1
\A1;※35
 11
0.0000000000000001
 21
1.0
 31
0.0
 73
     1
 44
1.0
1001
ACAD
1000
MTEXTBEGIN
1070
    73
1070
     1
1070
    44
1040
1.0
1070
    74
1070
     0
1000
MTEXTEND
1000
MTEXTBEGIN
1070
    73
1070
     1
1070
    44
1040
1.0
1070
    74
1070
     0
1000
MTEXTEND
  0
POINT
  5
43E4
330
42CE
100
AcDbEntity
  8
DEFPOINTS
 62
     0
100
AcDbPoint
 10
231.8596335843175
 20
135.8142016966624
 30
0.0
  0
POINT
  5
43E5
330
42CE
100
AcDbEntity
  8
DEFPOINTS
 62
     0
100
AcDbPoint
 10
233.8705608568051
 20
100.8142016966623
 30
0.0
  0
POINT
  5
43E6
330
42CE
100
AcDbEntity
  8
DEFPOINTS
 62
     0
100
AcDbPoint
 10
254.7948143361471
 20
100.8142016966623
 30
0.0
  0
ENDBLK
  5
42D9
330
42CE
100
AcDbEntity
  8
0
100
AcDbBlockEnd
  0
BLOCK
  5
42E4
330
42DA
100
AcDbEntity
  8
0
100
AcDbBlockBegin
  2
*D5
 70
     1
 10
0.0
 20
0.0
 30
0.0
  3
*D5
  1

  0
LINE
  5
43CC
330
42DA
100
AcDbEntity
  8
SUNPOU
 62
     4
370
    -2
100
AcDbLine
 10
234.8596335843175
 20
135.8142016966624
 30
0.0
 11
266.1034639832712
 21
135.8142016966624
 31
0.0
  0
LINE
  5
43CD
330
42DA
100
AcDbEntity
  8
SUNPOU
 62
     4
370
    -2
100
AcDbLine
 10
234.8596335843175
 20
64.8142016966624
 30
0.0
 11
266.1034639832711
 21
64.8142016966624
 31
0.0
  0
LINE
  5
43CE
330
42DA
100
AcDbEntity
  8
SUNPOU
 62
     4
370
    -2
100
AcDbLine
 10
264.6034639832711
 20
132.8142016966624
 30
0.0
 11
264.6034639832711
 21
67.81420169666239
 31
0.0
  0
INSERT
  5
43CF
330
42DA
100
AcDbEntity
  8
SUNPOU
 62
     4
370
    -2
100
AcDbBlockReference
  2
_OPEN
 10
264.6034639832711
 20
135.8142016966624
 30
0.0
 41
3.0
 42
3.0
 43
3.0
 50
90.0
  0
INSERT
  5
43D0
330
42DA
100
AcDbEntity
  8
SUNPOU
 62
     4
370
    -2
100
AcDbBlockReference
  2
_OPEN
 10
264.6034639832711
 20
64.8142016966624
 30
0.0
 41
3.0
 42
3.0
 43
3.0
 50
270.0
  0
MTEXT
  5
43D1
330
42DA
100
AcDbEntity
  8
SUNPOU
 62
     4
100
AcDbMText
 10
262.1034639832711
 20
100.3142016966624
 30
0.0
 40
3.0
 41
0.0
 71
     5
 72
     5
  1
\A1;71
 11
0.0000000000000001
 21
1.0
 31
0.0
 73
     1
 44
1.0
1001
ACAD
1000
MTEXTBEGIN
1070
    73
1070
     1
1070
    44
1040
1.0
1070
    74
1070
     0
1000
MTEXTEND
1000
MTEXTBEGIN
1070
    73
1070
     1
1070
    44
1040
1.0
1070
    74
1070
     0
1000
MTEXTEND
  0
POINT
  5
43D2
330
42DA
100
AcDbEntity
  8
DEFPOINTS
 62
     0
100
AcDbPoint
 10
231.8596335843175
 20
135.8142016966624
 30
0.0
  0
POINT
  5
43D3
330
42DA
100
AcDbEntity
  8
DEFPOINTS
 62
     0
100
AcDbPoint
 10
231.8596335843175
 20
64.8142016966624
 30
0.0
  0
POINT
  5
43D4
330
42DA
100
AcDbEntity
  8
DEFPOINTS
 62
     0
100
AcDbPoint
 10
264.6034639832711
 20
64.8142016966624
 30
0.0
  0
ENDBLK
  5
42E5
330
42DA
100
AcDbEntity
  8
0
100
AcDbBlockEnd
  0
BLOCK
  5
42F0
330
42E6
100
AcDbEntity
  8
0
100
AcDbBlockBegin
  2
*D6
 70
     1
 10
0.0
 20
0.0
 30
0.0
  3
*D6
  1

  0
LINE
  5
43D5
330
42E6
100
AcDbEntity
  8
SUNPOU
 62
     4
370
    -2
100
AcDbLine
 10
236.8705608568051
 20
99.8142016966624
 30
0.0
 11
256.2948143361471
 21
99.8142016966624
 31
0.0
  0
LINE
  5
43D6
330
42E6
100
AcDbEntity
  8
SUNPOU
 62
     4
370
    -2
100
AcDbLine
 10
234.8596335843175
 20
64.8142016966624
 30
0.0
 11
256.2948143361471
 21
64.8142016966624
 31
0.0
  0
LINE
  5
43D7
330
42E6
100
AcDbEntity
  8
SUNPOU
 62
     4
370
    -2
100
AcDbLine
 10
254.7948143361471
 20
96.81420169666239
 30
0.0
 11
254.7948143361471
 21
67.81420169666239
 31
0.0
  0
INSERT
  5
43D8
330
42E6
100
AcDbEntity
  8
SUNPOU
 62
     4
370
    -2
100
AcDbBlockReference
  2
_OPEN
 10
254.7948143361471
 20
99.8142016966624
 30
0.0
 41
3.0
 42
3.0
 43
3.0
 50
90.0
  0
INSERT
  5
43D9
330
42E6
100
AcDbEntity
  8
SUNPOU
 62
     4
370
    -2
100
AcDbBlockReference
  2
_OPEN
 10
254.7948143361471
 20
64.8142016966624
 30
0.0
 41
3.0
 42
3.0
 43
3.0
 50
270.0
  0
MTEXT
  5
43DA
330
42E6
100
AcDbEntity
  8
SUNPOU
 62
     4
100
AcDbMText
 10
252.2948143361471
 20
82.31420169666243
 30
0.0
 40
3.0
 41
0.0
 71
     5
 72
     5
  1
\A1;※35
 11
0.0000000000000001
 21
1.0
 31
0.0
 73
     1
 44
1.0
1001
ACAD
1000
MTEXTBEGIN
1070
    73
1070
     1
1070
    44
1040
1.0
1070
    74
1070
     0
1000
MTEXTEND
1000
MTEXTBEGIN
1070
    73
1070
     1
1070
    44
1040
1.0
1070
    74
1070
     0
1000
MTEXTEND
  0
POINT
  5
43DB
330
42E6
100
AcDbEntity
  8
DEFPOINTS
 62
     0
100
AcDbPoint
 10
233.8705608568051
 20
99.8142016966624
 30
0.0
  0
POINT
  5
43DC
330
42E6
100
AcDbEntity
  8
DEFPOINTS
 62
     0
100
AcDbPoint
 10
231.8596335843175
 20
64.8142016966624
 30
0.0
  0
POINT
  5
43DD
330
42E6
100
AcDbEntity
  8
DEFPOINTS
 62
     0
100
AcDbPoint
 10
254.7948143361471
 20
64.8142016966624
 30
0.0
  0
ENDBLK
  5
42F1
330
42E6
100
AcDbEntity
  8
0
100
AcDbBlockEnd
  0
ENDSEC
  0
SECTION
  2
ENTITIES
  0
LINE
  5
693
330
1A
100
AcDbEntity
  8
ZUWAKU
100
AcDbLine
 10
104.3233009104422
 20
7.599999547552665
 30
0.0
 11
223.7121822509039
 21
7.599999547552661
 31
0.0
  0
LINE
  5
694
330
1A
100
AcDbEntity
  8
ZUWAKU
100
AcDbLine
 10
104.3233009104422
 20
7.799999547552661
 30
0.0
 11
223.7121822509039
 21
7.799999547552666
 31
0.0
  0
LINE
  5
695
330
1A
100
AcDbEntity
  8
ZUWAKU
100
AcDbLine
 10
104.3233009104422
 20
7.699999547552661
 30
0.0
 11
223.7121822509039
 21
7.699999547552661
 31
0.0
  0
LINE
  5
696
330
1A
100
AcDbEntity
  8
ZUWAKU
100
AcDbLine
 10
0.0000002654082891
 20
15.39999954755265
 30
0.0
 11
398.7000002654082
 21
15.39999954755265
 31
0.0
  0
LINE
  5
697
330
1A
100
AcDbEntity
  8
ZUWAKU
100
AcDbLine
 10
0.0000002654082891
 20
15.29999954755265
 30
0.0
 11
398.7000002654082
 21
15.29999954755265
 31
0.0
  0
LINE
  5
698
330
1A
100
AcDbEntity
  8
ZUWAKU
100
AcDbLine
 10
0.0000002654082891
 20
15.19999954755265
 30
0.0
 11
398.7000002654082
 21
15.19999954755265
 31
0.0
  0
LINE
  5
699
330
1A
100
AcDbEntity
  8
ZUWAKU
100
AcDbLine
 10
0.0000002654082891
 20
15.09999954755264
 30
0.0
 11
398.7000002654082
 21
15.09999954755264
 31
0.0
  0
LINE
  5
69A
330
1A
100
AcDbEntity
  8
ZUWAKU
100
AcDbLine
 10
0.0000002654082891
 20
14.99999954755264
 30
0.0
 11
398.7000002654082
 21
14.99999954755264
 31
0.0
  0
LWPOLYLINE
  5
69B
330
1A
100
AcDbEntity
  8
ZUWAKU
100
AcDbPolyline
 90
        4
 70
     1
 43
0.0
 10
0.100000265408255
 20
275.6999995475526
 10
0.100000265408255
 20
0.0999995475526703
 10
398.7000002654082
 20
0.0999995475526818
 10
398.7000002654083
 20
275.6999995475526
  0
LWPOLYLINE
  5
69C
330
1A
100
AcDbEntity
  8
ZUWAKU
100
AcDbPolyline
 90
        4
 70
     1
 43
0.0
 10
0.3000002654082436
 20
275.4999995475527
 10
0.3000002654082436
 20
0.2999995475526589
 10
398.5000002654084
 20
0.299999547552682
 10
398.5000002654082
 20
275.4999995475527
  0
LWPOLYLINE
  5
69D
330
1A
100
AcDbEntity
  8
ZUWAKU
100
AcDbPolyline
 90
        4
 70
     1
 43
0.0
 10
0.0000002654082891
 20
275.7999995475526
 10
0.0000002654082891
 20
-0.0000004524473525
 10
398.8000002654083
 20
-0.0000004524473187
 10
398.8000002654083
 20
275.7999995475527
  0
LWPOLYLINE
  5
69E
330
1A
100
AcDbEntity
  8
ZUWAKU
100
AcDbPolyline
 90
        4
 70
     1
 43
0.0
 10
0.2000002654082777
 20
275.5999995475526
 10
0.2000002654082777
 20
0.199999547552693
 10
398.6000002654083
 20
0.1999995475526814
 10
398.6000002654083
 20
275.5999995475526
  0
LWPOLYLINE
  5
69F
330
1A
100
AcDbEntity
  8
ZUWAKU
100
AcDbPolyline
 90
        4
 70
     1
 43
0.0
 10
0.4000002654082664
 20
275.3999995475526
 10
0.4000002654082664
 20
0.3999995475526816
 10
398.4000002654082
 20
0.3999995475526816
 10
398.4000002654082
 20
275.3999995475526
  0
INSERT
  5
6A2
330
1A
100
AcDbEntity
  8
ZUWAKU
  6
Continuous
100
AcDbBlockReference
  2
*X1
 10
0.0
 20
0.0
 30
0.0
1001
ACAD
1000
HATCH
1002
{
1070
    19
1000
ANSI37
1040
0.1
1040
0.0
1000
R14_HATCH_DATA
1000
6A2
1011
1.0
1021
0.0
1031
0.0
1011
0.0
1021
1.0
1031
0.0
1011
0.0
1021
0.0
1031
1.0
1040
0.0
1010
0.0
1020
0.0
1030
1.0
1000
ANSI37
1070
     0
1070
     0
1071
        8
1071
        7
1070
     1
1070
     1
1071
       24
1040
7.251131595968215
1040
8.822423788044437
1040
-0.1989123673796348
1040
7.046106342798849
1040
9.317398534874961
1040
0.0
1040
7.046106342798849
1040
9.962499547552651
1040
-0.4142135623730912
1040
7.308606342798834
1040
10.22499954755264
1040
0.0
1040
8.796106342798788
1040
10.22499954755264
1040
0.4142135623731546
1040
9.058606342798841
1040
10.48749954755264
1040
0.0
1040
9.058606342798841
1040
11.36249954755265
1040
0.4142135623731586
1040
8.796106342798788
1040
11.62499954755264
1040
0.0
1040
7.046106342798849
1040
11.62499954755264
1040
0.4142135623730928
1040
5.646106342798869
1040
10.22499954755266
1040
0.0
1040
5.646106342798869
1040
9.317398534875026
1040
0.1989123673796619
1040
6.261182102307084
1040
7.832474294383221
1040
0.0
1040
7.716081089629423
1040
6.377575307060895
1040
-0.1989123673796613
1040
7.921106342798849
1040
5.882600560230301
1040
0.0
1040
7.921106342798849
1040
5.237499547552641
1040
-0.4142135623730911
1040
7.658606342798859
1040
4.974999547552648
1040
0.0
1040
6.171106342798904
1040
4.974999547552648
1040
0.4142135623731526
1040
5.908606342798859
1040
4.712499547552654
1040
0.0
1040
5.908606342798859
1040
3.837499547552643
1040
0.4142135623731526
1040
6.171106342798904
1040
3.574999547552649
1040
0.0
1040
7.921106342798849
1040
3.574999547552649
1040
0.4142135623731045
1040
9.321106342798886
1040
4.974999547552638
1040
0.0
1040
9.321106342798886
1040
5.882600560230271
1040
0.1989123673796604
1040
8.706030583290608
1040
7.367524800722041
1040
0.0
1071
        0
1071
        7
1070
     1
1070
     1
1071
       16
1040
11.77110634279886
1040
9.524999547552651
1040
-0.4142135623730935
1040
12.47110634279886
1040
10.22499954755264
1040
0.0
1040
13.43360634279884
1040
10.22499954755264
1040
0.4142135623731546
1040
13.69610634279888
1040
10.48749954755264
1040
0.0
1040
13.69610634279888
1040
11.36249954755265
1040
0.4142135623730951
1040
13.43360634279889
1040
11.62499954755264
1040
0.0
1040
12.4711063427988
1040
11.62499954755262
1040
0.4142135623730893
1040
10.37110634279883
1040
9.524999547552617
1040
0.0
1040
10.37110634279883
1040
5.674999547552661
1040
0.4142135623730969
1040
12.47110634279886
1040
3.574999547552649
1040
0.0
1040
13.43360634279884
1040
3.574999547552649
1040
0.4142135623731526
1040
13.69610634279888
1040
3.837499547552643
1040
0.0
1040
13.69610634279888
1040
4.712499547552654
1040
0.4142135623730891
1040
13.43360634279889
1040
4.974999547552648
1040
0.0
1040
12.47110634279886
1040
4.974999547552648
1040
-0.4142135623730928
1040
11.77110634279886
1040
5.674999547552641
1040
0.0
1071
        0
1071
        7
1070
     1
1070
     1
1071
        2
1040
12.12110634279884
1040
7.599999547552645
1040
1.0
1040
13.87110634279884
1040
7.599999547552645
1040
1.0
1071
        0
1071
        7
1070
     1
1070
     1
1071
       26
1040
18.65742958388784
1040
9.602523144334361
1040
0.0
1040
19.18824940045675
1040
11.28345256346915
1040
0.5069206636600134
1040
18.93793395085907
1040
11.62499954755264
1040
0.0
1040
18.08848926105445
1040
11.62499954755264
1040
0.3272098845218764
1040
17.83817381145678
1040
11.44154653163613
1040
0.0
1040
16.90403887414088
1040
8.483452563469185
1040
-0.3272098845219541
1040
16.65372342454315
1040
8.299999547552646
1040
0.0
1040
16.58360634279893
1040
8.299999547552646
1040
-0.4142135623731526
1040
16.32110634279888
1040
8.56249954755264
1040
0.0
1040
16.32110634279888
1040
11.36249954755265
1040
0.4142135623730951
1040
16.05860634279889
1040
11.62499954755264
1040
0.0
1040
15.18360634279883
1040
11.62499954755264
1040
0.4142135623730871
1040
14.92110634279885
1040
11.36249954755265
1040
0.0
1040
14.92110634279885
1040
3.837499547552643
1040
0.4142135623730891
1040
15.18360634279883
1040
3.574999547552649
1040
0.0
1040
16.05860634279884
1040
3.574999547552649
1040
0.4142135623731526
1040
16.32110634279888
1040
3.837499547552643
1040
0.0
1040
16.32110634279888
1040
6.63749954755265
1040
-0.4142135623731526
1040
16.58360634279893
1040
6.899999547552646
1040
0.0
1040
16.65372342454321
1040
6.899999547552646
1040
-0.3272098845218915
1040
16.90403887414088
1040
6.716546531636111
1040
0.0
1040
17.83817381145678
1040
3.758452563469185
1040
0.3272098845218902
1040
18.08848926105445
1040
3.574999547552649
1040
0.0
1040
18.93793395085907
1040
3.574999547552649
1040
0.5069206636600336
1040
19.18824940045675
1040
3.916546531636154
1040
0.0
1040
18.02505371121992
1040
7.599999547552716
1040
0.0
1071
        0
1071
        7
1070
     1
1070
     1
1071
        8
1040
21.74610634279883
1040
11.36249954755265
1040
0.4142135623731546
1040
21.48360634279879
1040
11.62499954755264
1040
0.0
1040
20.60860634279891
1040
11.62499954755264
1040
0.4142135623731507
1040
20.34610634279885
1040
11.36249954755265
1040
0.0
1040
20.34610634279885
1040
3.837499547552643
1040
0.4142135623731526
1040
20.60860634279891
1040
3.574999547552649
1040
0.0
1040
21.48360634279879
1040
3.574999547552649
1040
0.4142135623731526
1040
21.74610634279883
1040
3.837499547552643
1040
0.0
1071
        0
1071
        7
1070
     1
1070
     1
1071
       24
1040
24.19610634279888
1040
9.962499547552651
1040
-0.4142135623731546
1040
24.45860634279893
1040
10.22499954755264
1040
0.0
1040
25.94610634279888
1040
10.22499954755264
1040
0.4142135623730911
1040
26.20860634279887
1040
10.48749954755264
1040
0.0
1040
26.20860634279887
1040
11.36249954755265
1040
0.4142135623730952
1040
25.94610634279888
1040
11.62499954755264
1040
0.0
1040
24.19610634279888
1040
11.62499954755264
1040
0.4142135623731048
1040
22.79610634279884
1040
10.22499954755266
1040
0.0
1040
22.79610634279884
1040
9.317398534875026
1040
0.1989123673796613
1040
23.41118210230712
1040
7.832474294383251
1040
0.0
1040
24.86608108962945
1040
6.377575307060917
1040
-0.1989123673796402
1040
25.07110634279888
1040
5.882600560230381
1040
0.0
1040
25.07110634279888
1040
5.237499547552641
1040
-0.4142135623730911
1040
24.80860634279889
1040
4.974999547552648
1040
0.0
1040
23.32110634279888
1040
4.974999547552648
1040
0.4142135623731526
1040
23.05860634279884
1040
4.712499547552654
1040
0.0
1040
23.05860634279884
1040
3.837499547552643
1040
0.4142135623730891
1040
23.32110634279882
1040
3.574999547552649
1040
0.0
1040
25.07110634279888
1040
3.574999547552649
1040
0.4142135623730925
1040
26.47110634279886
1040
4.974999547552638
1040
0.0
1040
26.47110634279886
1040
5.882600560230271
1040
0.1989123673796675
1040
25.85603058329059
1040
7.367524800722101
1040
0.0
1040
24.4011315959683
1040
8.822423788044357
1040
-0.1989123673796652
1040
24.19610634279888
1040
9.317398534874939
1040
0.0
1071
        0
1071
        7
1070
     1
1070
     1
1071
       16
1040
28.92110634279885
1040
11.36249954755264
1040
0.414213562373103
1040
28.65860634279886
1040
11.62499954755264
1040
0.0
1040
27.78360634279886
1040
11.62499954755264
1040
0.4142135623730871
1040
27.52110634279887
1040
11.36249954755265
1040
0.0
1040
27.52110634279887
1040
4.974999547552638
1040
0.4142135623730927
1040
28.92110634279885
1040
3.574999547552649
1040
0.0
1040
30.67110634279885
1040
3.574999547552649
1040
0.4142135623731045
1040
32.07110634279888
1040
4.974999547552638
1040
0.0
1040
32.07110634279888
1040
11.36249954755265
1040
0.4142135623730951
1040
31.80860634279889
1040
11.62499954755264
1040
0.0
1040
30.93360634279884
1040
11.62499954755264
1040
0.4142135623730871
1040
30.67110634279885
1040
11.36249954755265
1040
0.0
1040
30.67110634279885
1040
5.499999547552635
1040
-0.4142135623730879
1040
30.14610634279887
1040
4.974999547552648
1040
0.0
1040
29.44610634279888
1040
4.974999547552648
1040
-0.4142135623731197
1040
28.92110634279885
1040
5.499999547552635
1040
0.0
1071
        0
1071
        7
1070
     1
1070
     1
1071
        8
1040
34.52110634279887
1040
11.36249954755265
1040
0.4142135623730871
1040
34.25860634279888
1040
11.62499954755264
1040
0.0
1040
33.38360634279888
1040
11.62499954755264
1040
0.4142135623731507
1040
33.12110634279884
1040
11.36249954755265
1040
0.0
1040
33.12110634279884
1040
3.837499547552643
1040
0.4142135623730891
1040
33.38360634279883
1040
3.574999547552649
1040
0.0
1040
34.25860634279888
1040
3.574999547552649
1040
0.4142135623730891
1040
34.52110634279887
1040
3.837499547552643
1040
0.0
1071
        0
1070
     0
1070
     1
1040
0.0
1040
0.1
1070
     0
1070
     2
1040
0.7853981633974483
1040
-450.4711519019312
1040
-6.600000452447313
1040
-0.2245064030267288
1040
0.2245064030267288
1070
     0
1040
2.356194490192344
1040
-450.4711519019312
1040
-6.600000452447313
1040
-0.2245064030267288
1040
-0.2245064030267288
1070
     0
1040
0.057451373970553
1071
        8
1040
8.039927746919939
1040
7.583586370495421
1040
0.0
1040
11.20225776862787
1040
9.422030638778151
1040
0.0
1040
12.58218420823811
1040
7.755940370588006
1040
0.0
1040
15.45703025622685
1040
8.100648370773395
1040
0.0
1040
20.91923627488665
1040
8.330454504544206
1040
0.0
1040
23.44910071297306
1040
9.709287705756251
1040
0.0
1040
28.27884325160846
1040
9.364578505100151
1040
0.0
1040
33.91354007521965
1040
9.594384638870961
1040
0.0
1002
}
  0
LINE
  5
6A3
330
1A
100
AcDbEntity
  8
ZUWAKU
100
AcDbLine
 10
12.47110634279886
 20
11.62499954755262
 30
0.0
 11
13.43360634279884
 21
11.62499954755264
 31
0.0
  0
LINE
  5
6A4
330
1A
100
AcDbEntity
  8
ZUWAKU
100
AcDbLine
 10
13.43360634279884
 20
10.22499954755264
 30
0.0
 11
12.47110634279886
 21
10.22499954755264
 31
0.0
  0
LINE
  5
6A5
330
1A
100
AcDbEntity
  8
ZUWAKU
100
AcDbLine
 10
12.47110634279886
 20
4.974999547552648
 30
0.0
 11
13.43360634279884
 21
4.974999547552648
 31
0.0
  0
LINE
  5
6A6
330
1A
100
AcDbEntity
  8
ZUWAKU
100
AcDbLine
 10
13.43360634279884
 20
3.574999547552649
 30
0.0
 11
12.47110634279886
 21
3.574999547552649
 31
0.0
  0
CIRCLE
  5
6A7
330
1A
100
AcDbEntity
  8
ZUWAKU
100
AcDbCircle
 10
12.99610634279883
 20
7.599999547552645
 30
0.0
 40
0.875
  0
ARC
  5
6A8
330
1A
100
AcDbEntity
  8
ZUWAKU
100
AcDbCircle
 10
7.746106342798839
 20
9.317398534874994
 30
0.0
 40
0.6999999999999995
100
AcDbArc
 50
180.0000000000015
 51
224.9999999999988
  0
LINE
  5
6A9
330
1A
100
AcDbEntity
  8
ZUWAKU
100
AcDbLine
 10
11.77110634279886
 20
9.524999547552646
 30
0.0
 11
11.77110634279886
 21
5.67499954755265
 31
0.0
  0
LINE
  5
6AA
330
1A
100
AcDbEntity
  8
ZUWAKU
100
AcDbLine
 10
10.37110634279883
 20
5.67499954755265
 30
0.0
 11
10.37110634279883
 21
9.524999547552626
 31
0.0
  0
ARC
  5
6AB
330
1A
100
AcDbEntity
  8
ZUWAKU
100
AcDbCircle
 10
7.746106342798839
 20
9.317398534874994
 30
0.0
 40
2.099999999999999
100
AcDbArc
 50
180.0
 51
225.0
  0
ARC
  5
6AC
330
1A
100
AcDbEntity
  8
ZUWAKU
100
AcDbCircle
 10
7.921106342798849
 20
4.974999547552648
 30
0.0
 40
1.399999999999999
100
AcDbArc
 50
270.0
 51
0.0
  0
ARC
  5
6AD
330
1A
100
AcDbEntity
  8
ZUWAKU
100
AcDbCircle
 10
12.47110634279886
 20
5.67499954755265
 30
0.0
 40
2.099999999999999
100
AcDbArc
 50
180.0
 51
270.0
  0
ARC
  5
6AE
330
1A
100
AcDbEntity
  8
ZUWAKU
100
AcDbCircle
 10
7.221106342798859
 20
5.882600560230301
 30
0.0
 40
2.099999999999999
100
AcDbArc
 50
0.0
 51
45.0
  0
LINE
  5
6AF
330
1A
100
AcDbEntity
  8
ZUWAKU
100
AcDbLine
 10
8.706030583290608
 20
7.36752480072206
 30
0.0
 11
7.251131595968269
 21
8.822423788044396
 31
0.0
  0
LINE
  5
6B0
330
1A
100
AcDbEntity
  8
ZUWAKU
100
AcDbLine
 10
7.921106342798849
 20
5.23749954755265
 30
0.0
 11
7.921106342798849
 21
5.88260056023032
 31
0.0
  0
ARC
  5
6B1
330
1A
100
AcDbEntity
  8
ZUWAKU
100
AcDbCircle
 10
7.658606342798859
 20
5.23749954755265
 30
0.0
 40
0.2625
100
AcDbArc
 50
270.0
 51
0.0
  0
ARC
  5
6B2
330
1A
100
AcDbEntity
  8
ZUWAKU
100
AcDbCircle
 10
7.221106342798859
 20
5.88260056023032
 30
0.0
 40
0.6999999999999995
100
AcDbArc
 50
0.0
 51
45.0
  0
LINE
  5
6B3
330
1A
100
AcDbEntity
  8
ZUWAKU
100
AcDbLine
 10
5.908606342798859
 20
3.837499547552649
 30
0.0
 11
5.908606342798859
 21
4.712499547552648
 31
0.0
  0
ARC
  5
6B4
330
1A
100
AcDbEntity
  8
ZUWAKU
100
AcDbCircle
 10
6.171106342798849
 20
3.837499547552649
 30
0.0
 40
0.2625
100
AcDbArc
 50
180.0
 51
270.0
  0
ARC
  5
6B5
330
1A
100
AcDbEntity
  8
ZUWAKU
100
AcDbCircle
 10
6.171106342798849
 20
4.712499547552648
 30
0.0
 40
0.2625
100
AcDbArc
 50
90.0
 51
180.0
  0
LINE
  5
6B6
330
1A
100
AcDbEntity
  8
ZUWAKU
100
AcDbLine
 10
6.171106342798849
 20
3.574999547552649
 30
0.0
 11
7.921106342798849
 21
3.574999547552649
 31
0.0
  0
LINE
  5
6B7
330
1A
100
AcDbEntity
  8
ZUWAKU
100
AcDbLine
 10
6.171106342798849
 20
4.974999547552648
 30
0.0
 11
7.658606342798859
 21
4.974999547552648
 31
0.0
  0
LINE
  5
6B8
330
1A
100
AcDbEntity
  8
ZUWAKU
100
AcDbLine
 10
6.261182102307084
 20
7.832474294383235
 30
0.0
 11
7.716081089629423
 21
6.377575307060906
 31
0.0
  0
LINE
  5
6B9
330
1A
100
AcDbEntity
  8
ZUWAKU
100
AcDbLine
 10
9.321106342798886
 20
4.974999547552648
 30
0.0
 11
9.321106342798886
 21
5.88260056023032
 31
0.0
  0
ARC
  5
6BA
330
1A
100
AcDbEntity
  8
ZUWAKU
100
AcDbCircle
 10
12.47110634279886
 20
5.67499954755265
 30
0.0
 40
0.6999999999999995
100
AcDbArc
 50
180.0
 51
270.0
  0
ARC
  5
6BB
330
1A
100
AcDbEntity
  8
ZUWAKU
100
AcDbCircle
 10
8.79610634279885
 20
11.36249954755264
 30
0.0
 40
0.2625
100
AcDbArc
 50
0.0
 51
90.0
  0
ARC
  5
6BC
330
1A
100
AcDbEntity
  8
ZUWAKU
100
AcDbCircle
 10
8.79610634279885
 20
10.48749954755264
 30
0.0
 40
0.2625
100
AcDbArc
 50
270.0
 51
0.0
  0
LINE
  5
6BD
330
1A
100
AcDbEntity
  8
ZUWAKU
100
AcDbLine
 10
7.046106342798849
 20
11.62499954755264
 30
0.0
 11
8.79610634279885
 21
11.62499954755264
 31
0.0
  0
ARC
  5
6BE
330
1A
100
AcDbEntity
  8
ZUWAKU
100
AcDbCircle
 10
7.308606342798834
 20
9.962499547552646
 30
0.0
 40
0.2625
100
AcDbArc
 50
90.0
 51
180.0
  0
LINE
  5
6BF
330
1A
100
AcDbEntity
  8
ZUWAKU
100
AcDbLine
 10
7.046106342798849
 20
9.962499547552646
 30
0.0
 11
7.046106342798849
 21
9.317398534874977
 31
0.0
  0
LINE
  5
6C0
330
1A
100
AcDbEntity
  8
ZUWAKU
100
AcDbLine
 10
8.79610634279885
 20
10.22499954755264
 30
0.0
 11
7.308606342798834
 21
10.22499954755264
 31
0.0
  0
LINE
  5
6C1
330
1A
100
AcDbEntity
  8
ZUWAKU
100
AcDbLine
 10
5.646106342798869
 20
10.22499954755264
 30
0.0
 11
5.646106342798869
 21
9.317398534874977
 31
0.0
  0
ARC
  5
6C2
330
1A
100
AcDbEntity
  8
ZUWAKU
100
AcDbCircle
 10
7.046106342798849
 20
10.22499954755264
 30
0.0
 40
1.399999999999999
100
AcDbArc
 50
90.0
 51
180.0
  0
LINE
  5
6C3
330
1A
100
AcDbEntity
  8
ZUWAKU
100
AcDbLine
 10
9.058606342798841
 20
11.36249954755264
 30
0.0
 11
9.058606342798841
 21
10.48749954755264
 31
0.0
  0
ARC
  5
6C4
330
1A
100
AcDbEntity
  8
ZUWAKU
100
AcDbCircle
 10
12.47110634279886
 20
9.524999547552646
 30
0.0
 40
0.6999999999999995
100
AcDbArc
 50
90.0
 51
180.0
  0
ARC
  5
6C5
330
1A
100
AcDbEntity
  8
ZUWAKU
100
AcDbCircle
 10
12.47110634279886
 20
9.524999547552626
 30
0.0
 40
2.099999999999999
100
AcDbArc
 50
90.0
 51
180.0
  0
LINE
  5
6C6
330
1A
100
AcDbEntity
  8
ZUWAKU
100
AcDbLine
 10
39.66331503940239
 20
14.99999954755264
 30
0.0
 11
39.6633150394025
 21
0.3999995475526816
 31
0.0
  0
LINE
  5
6C7
330
1A
100
AcDbEntity
  8
ZUWAKU
100
AcDbLine
 10
39.76331503940241
 20
14.99999954755264
 30
0.0
 11
39.76331503940252
 21
0.3999995475526816
 31
0.0
  0
LINE
  5
6C8
330
1A
100
AcDbEntity
  8
ZUWAKU
100
AcDbLine
 10
39.56331503940248
 20
14.99999954755264
 30
0.0
 11
39.56331503940248
 21
0.3999995475526816
 31
0.0
  0
LINE
  5
6C9
330
1A
100
AcDbEntity
  8
ZUWAKU
100
AcDbLine
 10
32.07110634279888
 20
4.974999547552648
 30
0.0
 11
32.07110634279888
 21
11.36249954755264
 31
0.0
  0
LINE
  5
6CA
330
1A
100
AcDbEntity
  8
ZUWAKU
100
AcDbLine
 10
30.67110634279885
 20
11.36249954755264
 30
0.0
 11
30.67110634279885
 21
5.499999547552645
 31
0.0
  0
LINE
  5
6CB
330
1A
100
AcDbEntity
  8
ZUWAKU
100
AcDbLine
 10
34.52110634279887
 20
3.837499547552649
 30
0.0
 11
34.52110634279887
 21
11.36249954755264
 31
0.0
  0
LINE
  5
6CC
330
1A
100
AcDbEntity
  8
ZUWAKU
100
AcDbLine
 10
33.12110634279884
 20
11.36249954755264
 30
0.0
 11
33.12110634279884
 21
3.837499547552649
 31
0.0
  0
ARC
  5
6CD
330
1A
100
AcDbEntity
  8
ZUWAKU
100
AcDbCircle
 10
24.89610634279887
 20
9.317398534874994
 30
0.0
 40
0.6999999999999995
100
AcDbArc
 50
180.0000000000015
 51
224.9999999999988
  0
ARC
  5
6CE
330
1A
100
AcDbEntity
  8
ZUWAKU
100
AcDbCircle
 10
24.89610634279887
 20
9.317398534874994
 30
0.0
 40
2.099999999999999
100
AcDbArc
 50
180.0
 51
225.0
  0
LINE
  5
6CF
330
1A
100
AcDbEntity
  8
ZUWAKU
100
AcDbLine
 10
18.65742958388784
 20
9.602523144334361
 30
0.0
 11
18.02505371121992
 21
7.599999547552655
 31
0.0
  0
LINE
  5
6D0
330
1A
100
AcDbEntity
  8
ZUWAKU
100
AcDbLine
 10
20.34610634279885
 20
11.36249954755264
 30
0.0
 11
20.34610634279885
 21
3.837499547552649
 31
0.0
  0
LINE
  5
6D1
330
1A
100
AcDbEntity
  8
ZUWAKU
100
AcDbLine
 10
21.74610634279883
 20
3.837499547552649
 30
0.0
 11
21.74610634279883
 21
11.36249954755264
 31
0.0
  0
LINE
  5
6D2
330
1A
100
AcDbEntity
  8
ZUWAKU
100
AcDbLine
 10
27.52110634279887
 20
11.36249954755264
 30
0.0
 11
27.52110634279887
 21
4.974999547552648
 31
0.0
  0
LINE
  5
6D3
330
1A
100
AcDbEntity
  8
ZUWAKU
100
AcDbLine
 10
28.92110634279885
 20
5.499999547552645
 30
0.0
 11
28.92110634279885
 21
11.36249954755264
 31
0.0
  0
LINE
  5
6D4
330
1A
100
AcDbEntity
  8
ZUWAKU
100
AcDbLine
 10
16.32110634279888
 20
8.562499547552651
 30
0.0
 11
16.32110634279888
 21
11.36249954755264
 31
0.0
  0
LINE
  5
6D5
330
1A
100
AcDbEntity
  8
ZUWAKU
100
AcDbLine
 10
14.92110634279885
 20
11.36249954755264
 30
0.0
 11
14.92110634279885
 21
3.837499547552649
 31
0.0
  0
LINE
  5
6D6
330
1A
100
AcDbEntity
  8
ZUWAKU
100
AcDbLine
 10
17.83817381145678
 20
11.44154653163613
 30
0.0
 11
16.90403887414088
 21
8.48345256346916
 31
0.0
  0
LINE
  5
6D7
330
1A
100
AcDbEntity
  8
ZUWAKU
100
AcDbLine
 10
30.14610634279887
 20
4.974999547552648
 30
0.0
 11
29.44610634279888
 21
4.974999547552648
 31
0.0
  0
LINE
  5
6D8
330
1A
100
AcDbEntity
  8
ZUWAKU
100
AcDbLine
 10
28.92110634279885
 20
3.574999547552649
 30
0.0
 11
30.67110634279885
 21
3.574999547552649
 31
0.0
  0
LINE
  5
6D9
330
1A
100
AcDbEntity
  8
ZUWAKU
100
AcDbLine
 10
20.60860634279884
 20
3.574999547552649
 30
0.0
 11
21.48360634279885
 21
3.574999547552649
 31
0.0
  0
LINE
  5
6DA
330
1A
100
AcDbEntity
  8
ZUWAKU
100
AcDbLine
 10
17.83817381145678
 20
3.758452563469162
 30
0.0
 11
16.90403887414088
 21
6.716546531636131
 31
0.0
  0
ARC
  5
6DB
330
1A
100
AcDbEntity
  8
ZUWAKU
100
AcDbCircle
 10
16.65372342454321
 20
8.562499547552651
 30
0.0
 40
0.2625
100
AcDbArc
 50
270.0
 51
342.4744316262769
  0
LINE
  5
6DC
330
1A
100
AcDbEntity
  8
ZUWAKU
100
AcDbLine
 10
16.65372342454321
 20
8.299999547552646
 30
0.0
 11
16.58360634279887
 21
8.299999547552646
 31
0.0
  0
LINE
  5
6DD
330
1A
100
AcDbEntity
  8
ZUWAKU
100
AcDbLine
 10
16.58360634279887
 20
6.899999547552646
 30
0.0
 11
16.65372342454321
 21
6.899999547552646
 31
0.0
  0
ARC
  5
6DE
330
1A
100
AcDbEntity
  8
ZUWAKU
100
AcDbCircle
 10
16.58360634279887
 20
8.562499547552651
 30
0.0
 40
0.2625
100
AcDbArc
 50
180.0
 51
270.0
  0
LINE
  5
6DF
330
1A
100
AcDbEntity
  8
ZUWAKU
100
AcDbLine
 10
15.18360634279883
 20
3.574999547552649
 30
0.0
 11
16.05860634279884
 21
3.574999547552649
 31
0.0
  0
ARC
  5
6E0
330
1A
100
AcDbEntity
  8
ZUWAKU
100
AcDbCircle
 10
16.05860634279884
 20
3.837499547552649
 30
0.0
 40
0.2625
100
AcDbArc
 50
270.0
 51
0.0
  0
LINE
  5
6E1
330
1A
100
AcDbEntity
  8
ZUWAKU
100
AcDbLine
 10
16.32110634279888
 20
3.837499547552649
 30
0.0
 11
16.32110634279888
 21
6.637499547552645
 31
0.0
  0
LINE
  5
6E2
330
1A
100
AcDbEntity
  8
ZUWAKU
100
AcDbLine
 10
13.69610634279888
 20
4.712499547552648
 30
0.0
 11
13.69610634279888
 21
3.837499547552649
 31
0.0
  0
ARC
  5
6E3
330
1A
100
AcDbEntity
  8
ZUWAKU
100
AcDbCircle
 10
13.43360634279884
 20
3.837499547552649
 30
0.0
 40
0.2625
100
AcDbArc
 50
270.0
 51
0.0
  0
ARC
  5
6E4
330
1A
100
AcDbEntity
  8
ZUWAKU
100
AcDbCircle
 10
13.43360634279884
 20
4.712499547552648
 30
0.0
 40
0.2625
100
AcDbArc
 50
0.0
 51
90.0
  0
ARC
  5
6E5
330
1A
100
AcDbEntity
  8
ZUWAKU
100
AcDbCircle
 10
15.18360634279883
 20
3.837499547552649
 30
0.0
 40
0.2625
100
AcDbArc
 50
180.0
 51
270.0
  0
ARC
  5
6E6
330
1A
100
AcDbEntity
  8
ZUWAKU
100
AcDbCircle
 10
16.65372342454321
 20
6.637499547552645
 30
0.0
 40
0.2625
100
AcDbArc
 50
17.52556837372303
 51
90.0
  0
ARC
  5
6E7
330
1A
100
AcDbEntity
  8
ZUWAKU
100
AcDbCircle
 10
16.58360634279887
 20
6.637499547552645
 30
0.0
 40
0.2625
100
AcDbArc
 50
90.0
 51
180.0
  0
ARC
  5
6E8
330
1A
100
AcDbEntity
  8
ZUWAKU
100
AcDbCircle
 10
20.60860634279884
 20
3.837499547552649
 30
0.0
 40
0.2625
100
AcDbArc
 50
180.0
 51
270.0
  0
LINE
  5
6E9
330
1A
100
AcDbEntity
  8
ZUWAKU
100
AcDbLine
 10
18.08848926105451
 20
3.574999547552649
 30
0.0
 11
18.93793395085902
 21
3.574999547552649
 31
0.0
  0
ARC
  5
6EA
330
1A
100
AcDbEntity
  8
ZUWAKU
100
AcDbCircle
 10
18.93793395085902
 20
3.837499547552649
 30
0.0
 40
0.2625
100
AcDbArc
 50
270.0
 51
17.52556837372303
  0
LINE
  5
6EB
330
1A
100
AcDbEntity
  8
ZUWAKU
100
AcDbLine
 10
19.18824940045675
 20
3.916546531636136
 30
0.0
 11
18.02505371121992
 21
7.599999547552655
 31
0.0
  0
ARC
  5
6EC
330
1A
100
AcDbEntity
  8
ZUWAKU
100
AcDbCircle
 10
18.08848926105451
 20
3.837499547552649
 30
0.0
 40
0.2625
100
AcDbArc
 50
197.5255683737229
 51
270.0
  0
ARC
  5
6ED
330
1A
100
AcDbEntity
  8
ZUWAKU
100
AcDbCircle
 10
28.92110634279885
 20
4.974999547552648
 30
0.0
 40
1.399999999999999
100
AcDbArc
 50
180.0
 51
270.0
  0
ARC
  5
6EE
330
1A
100
AcDbEntity
  8
ZUWAKU
100
AcDbCircle
 10
25.07110634279888
 20
4.974999547552648
 30
0.0
 40
1.399999999999999
100
AcDbArc
 50
270.0
 51
0.0
  0
LINE
  5
6EF
330
1A
100
AcDbEntity
  8
ZUWAKU
100
AcDbLine
 10
25.85603058329064
 20
7.36752480072206
 30
0.0
 11
24.40113159596825
 21
8.822423788044396
 31
0.0
  0
LINE
  5
6F0
330
1A
100
AcDbEntity
  8
ZUWAKU
100
AcDbLine
 10
25.07110634279888
 20
5.23749954755265
 30
0.0
 11
25.07110634279888
 21
5.88260056023032
 31
0.0
  0
ARC
  5
6F1
330
1A
100
AcDbEntity
  8
ZUWAKU
100
AcDbCircle
 10
24.37110634279884
 20
5.88260056023032
 30
0.0
 40
0.6999999999999995
100
AcDbArc
 50
0.0
 51
45.0
  0
ARC
  5
6F2
330
1A
100
AcDbEntity
  8
ZUWAKU
100
AcDbCircle
 10
24.80860634279884
 20
5.23749954755265
 30
0.0
 40
0.2625
100
AcDbArc
 50
270.0
 51
0.0
  0
LINE
  5
6F3
330
1A
100
AcDbEntity
  8
ZUWAKU
100
AcDbLine
 10
23.05860634279884
 20
3.837499547552649
 30
0.0
 11
23.05860634279884
 21
4.712499547552648
 31
0.0
  0
ARC
  5
6F4
330
1A
100
AcDbEntity
  8
ZUWAKU
100
AcDbCircle
 10
23.32110634279888
 20
3.837499547552649
 30
0.0
 40
0.2625
100
AcDbArc
 50
180.0
 51
270.0
  0
ARC
  5
6F5
330
1A
100
AcDbEntity
  8
ZUWAKU
100
AcDbCircle
 10
21.48360634279885
 20
3.837499547552649
 30
0.0
 40
0.2625
100
AcDbArc
 50
270.0
 51
0.0
  0
ARC
  5
6F6
330
1A
100
AcDbEntity
  8
ZUWAKU
100
AcDbCircle
 10
23.32110634279888
 20
4.712499547552648
 30
0.0
 40
0.2625
100
AcDbArc
 50
90.0
 51
180.0
  0
LINE
  5
6F7
330
1A
100
AcDbEntity
  8
ZUWAKU
100
AcDbLine
 10
23.32110634279888
 20
4.974999547552648
 30
0.0
 11
24.80860634279884
 21
4.974999547552648
 31
0.0
  0
LINE
  5
6F8
330
1A
100
AcDbEntity
  8
ZUWAKU
100
AcDbLine
 10
23.32110634279888
 20
3.574999547552649
 30
0.0
 11
25.07110634279888
 21
3.574999547552649
 31
0.0
  0
LINE
  5
6F9
330
1A
100
AcDbEntity
  8
ZUWAKU
100
AcDbLine
 10
23.41118210230712
 20
7.832474294383235
 30
0.0
 11
24.86608108962945
 21
6.377575307060906
 31
0.0
  0
LINE
  5
6FA
330
1A
100
AcDbEntity
  8
ZUWAKU
100
AcDbLine
 10
26.47110634279886
 20
4.974999547552648
 30
0.0
 11
26.47110634279886
 21
5.88260056023032
 31
0.0
  0
ARC
  5
6FB
330
1A
100
AcDbEntity
  8
ZUWAKU
100
AcDbCircle
 10
24.37110634279884
 20
5.882600560230301
 30
0.0
 40
2.099999999999999
100
AcDbArc
 50
0.0
 51
45.0
  0
ARC
  5
6FC
330
1A
100
AcDbEntity
  8
ZUWAKU
100
AcDbCircle
 10
29.44610634279888
 20
5.499999547552645
 30
0.0
 40
0.5249999999999995
100
AcDbArc
 50
180.0
 51
270.0
  0
ARC
  5
6FD
330
1A
100
AcDbEntity
  8
ZUWAKU
100
AcDbCircle
 10
30.67110634279885
 20
4.974999547552648
 30
0.0
 40
1.399999999999999
100
AcDbArc
 50
270.0
 51
0.0
  0
LINE
  5
6FE
330
1A
100
AcDbEntity
  8
ZUWAKU
100
AcDbLine
 10
33.38360634279888
 20
3.574999547552649
 30
0.0
 11
34.25860634279888
 21
3.574999547552649
 31
0.0
  0
ARC
  5
6FF
330
1A
100
AcDbEntity
  8
ZUWAKU
100
AcDbCircle
 10
33.38360634279888
 20
3.837499547552649
 30
0.0
 40
0.2625
100
AcDbArc
 50
180.0
 51
270.0
  0
ARC
  5
700
330
1A
100
AcDbEntity
  8
ZUWAKU
100
AcDbCircle
 10
30.14610634279887
 20
5.499999547552645
 30
0.0
 40
0.5249999999999995
100
AcDbArc
 50
270.0
 51
0.0
  0
ARC
  5
701
330
1A
100
AcDbEntity
  8
ZUWAKU
100
AcDbCircle
 10
34.25860634279888
 20
3.837499547552649
 30
0.0
 40
0.2625
100
AcDbArc
 50
270.0
 51
0.0
  0
LINE
  5
702
330
1A
100
AcDbEntity
  8
ZUWAKU
100
AcDbLine
 10
21.48360634279885
 20
11.62499954755264
 30
0.0
 11
20.60860634279884
 21
11.62499954755264
 31
0.0
  0
ARC
  5
703
330
1A
100
AcDbEntity
  8
ZUWAKU
100
AcDbCircle
 10
16.05860634279884
 20
11.36249954755264
 30
0.0
 40
0.2625
100
AcDbArc
 50
0.0
 51
90.0
  0
LINE
  5
704
330
1A
100
AcDbEntity
  8
ZUWAKU
100
AcDbLine
 10
16.05860634279884
 20
11.62499954755264
 30
0.0
 11
15.18360634279883
 21
11.62499954755264
 31
0.0
  0
ARC
  5
705
330
1A
100
AcDbEntity
  8
ZUWAKU
100
AcDbCircle
 10
13.43360634279884
 20
11.36249954755264
 30
0.0
 40
0.2625
100
AcDbArc
 50
0.0
 51
90.0
  0
ARC
  5
706
330
1A
100
AcDbEntity
  8
ZUWAKU
100
AcDbCircle
 10
15.18360634279883
 20
11.36249954755264
 30
0.0
 40
0.2625
100
AcDbArc
 50
90.0
 51
180.0
  0
ARC
  5
707
330
1A
100
AcDbEntity
  8
ZUWAKU
100
AcDbCircle
 10
13.43360634279884
 20
10.48749954755264
 30
0.0
 40
0.2625
100
AcDbArc
 50
270.0
 51
0.0
  0
LINE
  5
708
330
1A
100
AcDbEntity
  8
ZUWAKU
100
AcDbLine
 10
13.69610634279888
 20
11.36249954755264
 30
0.0
 11
13.69610634279888
 21
10.48749954755264
 31
0.0
  0
ARC
  5
709
330
1A
100
AcDbEntity
  8
ZUWAKU
100
AcDbCircle
 10
20.60860634279884
 20
11.36249954755264
 30
0.0
 40
0.2625
100
AcDbArc
 50
90.0
 51
180.0
  0
LINE
  5
70A
330
1A
100
AcDbEntity
  8
ZUWAKU
100
AcDbLine
 10
18.08848926105451
 20
11.62499954755264
 30
0.0
 11
18.93793395085902
 21
11.62499954755264
 31
0.0
  0
ARC
  5
70B
330
1A
100
AcDbEntity
  8
ZUWAKU
100
AcDbCircle
 10
18.93793395085902
 20
11.36249954755264
 30
0.0
 40
0.2625
100
AcDbArc
 50
342.4744316262769
 51
90.0
  0
LINE
  5
70C
330
1A
100
AcDbEntity
  8
ZUWAKU
100
AcDbLine
 10
19.18824940045675
 20
11.28345256346916
 30
0.0
 11
18.65742958388784
 21
9.602523144334361
 31
0.0
  0
ARC
  5
70D
330
1A
100
AcDbEntity
  8
ZUWAKU
100
AcDbCircle
 10
18.08848926105451
 20
11.36249954755264
 30
0.0
 40
0.2625
100
AcDbArc
 50
90.0
 51
162.4744316262769
  0
LINE
  5
70E
330
1A
100
AcDbEntity
  8
ZUWAKU
100
AcDbLine
 10
24.19610634279888
 20
11.62499954755264
 30
0.0
 11
25.94610634279888
 21
11.62499954755264
 31
0.0
  0
LINE
  5
70F
330
1A
100
AcDbEntity
  8
ZUWAKU
100
AcDbLine
 10
25.94610634279888
 20
10.22499954755264
 30
0.0
 11
24.45860634279886
 21
10.22499954755264
 31
0.0
  0
ARC
  5
710
330
1A
100
AcDbEntity
  8
ZUWAKU
100
AcDbCircle
 10
24.45860634279886
 20
9.962499547552646
 30
0.0
 40
0.2625
100
AcDbArc
 50
90.0
 51
180.0
  0
LINE
  5
711
330
1A
100
AcDbEntity
  8
ZUWAKU
100
AcDbLine
 10
24.19610634279888
 20
9.962499547552646
 30
0.0
 11
24.19610634279888
 21
9.317398534874977
 31
0.0
  0
ARC
  5
712
330
1A
100
AcDbEntity
  8
ZUWAKU
100
AcDbCircle
 10
21.48360634279885
 20
11.36249954755264
 30
0.0
 40
0.2625
100
AcDbArc
 50
0.0
 51
90.0
  0
LINE
  5
713
330
1A
100
AcDbEntity
  8
ZUWAKU
100
AcDbLine
 10
22.79610634279884
 20
10.22499954755264
 30
0.0
 11
22.79610634279884
 21
9.317398534874977
 31
0.0
  0
ARC
  5
714
330
1A
100
AcDbEntity
  8
ZUWAKU
100
AcDbCircle
 10
24.19610634279888
 20
10.22499954755264
 30
0.0
 40
1.399999999999999
100
AcDbArc
 50
90.0
 51
180.0
  0
ARC
  5
715
330
1A
100
AcDbEntity
  8
ZUWAKU
100
AcDbCircle
 10
28.65860634279886
 20
11.36249954755264
 30
0.0
 40
0.2625
100
AcDbArc
 50
0.0
 51
90.0
  0
ARC
  5
716
330
1A
100
AcDbEntity
  8
ZUWAKU
100
AcDbCircle
 10
27.78360634279886
 20
11.36249954755264
 30
0.0
 40
0.2625
100
AcDbArc
 50
90.0
 51
180.0
  0
LINE
  5
717
330
1A
100
AcDbEntity
  8
ZUWAKU
100
AcDbLine
 10
28.65860634279886
 20
11.62499954755264
 30
0.0
 11
27.78360634279886
 21
11.62499954755264
 31
0.0
  0
ARC
  5
718
330
1A
100
AcDbEntity
  8
ZUWAKU
100
AcDbCircle
 10
25.94610634279888
 20
11.36249954755264
 30
0.0
 40
0.2625
100
AcDbArc
 50
0.0
 51
90.0
  0
ARC
  5
719
330
1A
100
AcDbEntity
  8
ZUWAKU
100
AcDbCircle
 10
25.94610634279888
 20
10.48749954755264
 30
0.0
 40
0.2625
100
AcDbArc
 50
270.0
 51
0.0
  0
LINE
  5
71A
330
1A
100
AcDbEntity
  8
ZUWAKU
100
AcDbLine
 10
26.20860634279887
 20
11.36249954755264
 30
0.0
 11
26.20860634279887
 21
10.48749954755264
 31
0.0
  0
LINE
  5
71B
330
1A
100
AcDbEntity
  8
ZUWAKU
100
AcDbLine
 10
34.25860634279888
 20
11.62499954755264
 30
0.0
 11
33.38360634279888
 21
11.62499954755264
 31
0.0
  0
ARC
  5
71C
330
1A
100
AcDbEntity
  8
ZUWAKU
100
AcDbCircle
 10
33.38360634279888
 20
11.36249954755264
 30
0.0
 40
0.2625
100
AcDbArc
 50
90.0
 51
180.0
  0
ARC
  5
71D
330
1A
100
AcDbEntity
  8
ZUWAKU
100
AcDbCircle
 10
31.80860634279884
 20
11.36249954755264
 30
0.0
 40
0.2625
100
AcDbArc
 50
0.0
 51
90.0
  0
LINE
  5
71E
330
1A
100
AcDbEntity
  8
ZUWAKU
100
AcDbLine
 10
31.80860634279884
 20
11.62499954755264
 30
0.0
 11
30.93360634279884
 21
11.62499954755264
 31
0.0
  0
ARC
  5
71F
330
1A
100
AcDbEntity
  8
ZUWAKU
100
AcDbCircle
 10
30.93360634279884
 20
11.36249954755264
 30
0.0
 40
0.2625
100
AcDbArc
 50
90.0
 51
180.0
  0
ARC
  5
720
330
1A
100
AcDbEntity
  8
ZUWAKU
100
AcDbCircle
 10
34.25860634279888
 20
11.36249954755264
 30
0.0
 40
0.2625
100
AcDbArc
 50
0.0
 51
90.0
  0
LINE
  5
722
330
1A
100
AcDbEntity
  8
ZUWAKU
100
AcDbLine
 10
104.1233009104422
 20
14.99999954755264
 30
0.0
 11
104.1233009104422
 21
0.3999995475526816
 31
0.0
  0
LINE
  5
723
330
1A
100
AcDbEntity
  8
ZUWAKU
100
AcDbLine
 10
104.3233009104421
 20
14.99999954755264
 30
0.0
 11
104.3233009104422
 21
0.3999995475526816
 31
0.0
  0
LINE
  5
724
330
1A
100
AcDbEntity
  8
ZUWAKU
100
AcDbLine
 10
104.2233009104421
 20
14.99999954755264
 30
0.0
 11
104.2233009104422
 21
0.3999995475526816
 31
0.0
  0
TEXT
  5
725
330
1A
100
AcDbEntity
  8
ZUWAKU
100
AcDbText
 10
104.862023421547
 20
4.827677816745456
 30
0.0
 40
2.0
  1
サイズ
 41
0.9
  7
ｽﾀｲﾙ1
100
AcDbText
  0
TEXT
  5
727
330
1A
100
AcDbEntity
  8
ZUWAKU
100
AcDbText
 10
104.8620234215469
 20
12.02767781674543
 30
0.0
 40
2.0
  1
品名
 41
0.9
  7
ｽﾀｲﾙ1
100
AcDbText
  0
LINE
  5
728
330
1A
100
AcDbEntity
  8
ZUWAKU
100
AcDbLine
 10
324.4086015205104
 20
7.599999547552661
 30
0.0
 11
348.6245055396789
 21
7.599999547552661
 31
0.0
  0
LINE
  5
729
330
1A
100
AcDbEntity
  8
ZUWAKU
100
AcDbLine
 10
324.4086015205104
 20
7.699999547552666
 30
0.0
 11
348.6245055396789
 21
7.699999547552661
 31
0.0
  0
LINE
  5
72A
330
1A
100
AcDbEntity
  8
ZUWAKU
100
AcDbLine
 10
324.4086015205104
 20
7.799999547552661
 30
0.0
 11
348.6245055396789
 21
7.799999547552661
 31
0.0
  0
TEXT
  5
72B
330
1A
100
AcDbEntity
  8
ZUWAKU
100
AcDbText
 10
329.1019691090594
 20
9.00246007625634
 30
0.0
 40
2.799999999999999
  1
　　．　　．　　
 41
0.9
  7
ｽﾀｲﾙ1
100
AcDbText
  0
LINE
  5
72C
330
1A
100
AcDbEntity
  8
ZUWAKU
100
AcDbLine
 10
252.5995900144786
 20
7.599999547552665
 30
0.0
 11
276.2634781484645
 21
7.599999547552665
 31
0.0
  0
LINE
  5
72D
330
1A
100
AcDbEntity
  8
ZUWAKU
100
AcDbLine
 10
252.5995900144786
 20
7.699999547552661
 30
0.0
 11
276.2634781484645
 21
7.699999547552661
 31
0.0
  0
LINE
  5
72E
330
1A
100
AcDbEntity
  8
ZUWAKU
100
AcDbLine
 10
252.5995900144786
 20
7.799999547552661
 30
0.0
 11
276.2634781484645
 21
7.799999547552661
 31
0.0
  0
LINE
  5
730
330
1A
100
AcDbEntity
  8
ZUWAKU
100
AcDbLine
 10
223.8121822509038
 20
14.99999954755264
 30
0.0
 11
223.8121822509039
 21
0.3999995475526816
 31
0.0
  0
LINE
  5
731
330
1A
100
AcDbEntity
  8
ZUWAKU
100
AcDbLine
 10
223.9121822509038
 20
14.99999954755264
 30
0.0
 11
223.912182250904
 21
0.3999995475526816
 31
0.0
  0
LINE
  5
732
330
1A
100
AcDbEntity
  8
ZUWAKU
100
AcDbLine
 10
223.7121822509039
 20
14.99999954755264
 30
0.0
 11
223.7121822509039
 21
0.3999995475526816
 31
0.0
  0
TEXT
  5
733
330
1A
100
AcDbEntity
  8
MOJI
100
AcDbText
 10
264.0204542515647
 20
9.00246007625634
 30
0.0
 40
2.799999999999999
  1
Ａ３
 41
0.9
  7
ｽﾀｲﾙ1
100
AcDbText
  0
LINE
  5
734
330
1A
100
AcDbEntity
  8
ZUWAKU
100
AcDbLine
 10
252.4995900144787
 20
14.99999954755264
 30
0.0
 11
252.4995900144787
 21
0.3999995475526816
 31
0.0
  0
LINE
  5
735
330
1A
100
AcDbEntity
  8
ZUWAKU
100
AcDbLine
 10
252.5995900144786
 20
14.99999954755264
 30
0.0
 11
252.5995900144788
 21
0.3999995475526816
 31
0.0
  0
LINE
  5
736
330
1A
100
AcDbEntity
  8
ZUWAKU
100
AcDbLine
 10
252.3995900144787
 20
14.99999954755264
 30
0.0
 11
252.3995900144787
 21
0.3999995475526816
 31
0.0
  0
TEXT
  5
737
330
1A
100
AcDbEntity
  8
ZUWAKU
100
AcDbText
 10
253.3383125255836
 20
4.827677816745456
 30
0.0
 40
2.0
  1
縮尺
 41
0.9
  7
ｽﾀｲﾙ1
100
AcDbText
  0
TEXT
  5
738
330
1A
100
AcDbEntity
  8
MOJI
100
AcDbText
 10
264.0204542515647
 20
1.602460076256358
 30
0.0
 40
2.799999999999999
  1
１/１
 41
0.9
  7
ｽﾀｲﾙ1
100
AcDbText
  0
TEXT
  5
739
330
1A
100
AcDbEntity
  8
ZUWAKU
100
AcDbText
 10
224.6509047620087
 20
12.02767781674543
 30
0.0
 40
2.0
  1
品番
 41
0.9
  7
ｽﾀｲﾙ1
100
AcDbText
  0
TEXT
  5
73A
330
1A
100
AcDbEntity
  8
ZUWAKU
100
AcDbText
 10
253.3383125255835
 20
12.02767781674543
 30
0.0
 40
2.0
  1
用紙
 41
0.9
  7
ｽﾀｲﾙ1
100
AcDbText
  0
LINE
  5
73B
330
1A
100
AcDbEntity
  8
ZUWAKU
100
AcDbLine
 10
324.3086015205103
 20
14.99999954755264
 30
0.0
 11
324.3086015205105
 21
0.3999995475526816
 31
0.0
  0
LINE
  5
73C
330
1A
100
AcDbEntity
  8
ZUWAKU
100
AcDbLine
 10
324.4086015205104
 20
14.99999954755264
 30
0.0
 11
324.4086015205106
 21
0.3999995475526816
 31
0.0
  0
LINE
  5
73D
330
1A
100
AcDbEntity
  8
ZUWAKU
100
AcDbLine
 10
324.2086015205105
 20
14.99999954755264
 30
0.0
 11
324.2086015205105
 21
0.3999995475526816
 31
0.0
  0
LINE
  5
73E
330
1A
100
AcDbEntity
  8
ZUWAKU
100
AcDbLine
 10
276.3634781484644
 20
14.99999954755264
 30
0.0
 11
276.3634781484644
 21
0.3999995475526816
 31
0.0
  0
LINE
  5
73F
330
1A
100
AcDbEntity
  8
ZUWAKU
100
AcDbLine
 10
276.4634781484644
 20
14.99999954755264
 30
0.0
 11
276.4634781484645
 21
0.3999995475526816
 31
0.0
  0
LINE
  5
740
330
1A
100
AcDbEntity
  8
ZUWAKU
100
AcDbLine
 10
276.2634781484645
 20
14.99999954755264
 30
0.0
 11
276.2634781484645
 21
0.3999995475526816
 31
0.0
  0
TEXT
  5
741
330
1A
100
AcDbEntity
  8
ZUWAKU
100
AcDbText
 10
325.1473240316152
 20
12.02767781674543
 30
0.0
 40
2.0
  1
DATE
 41
0.9
  7
ｽﾀｲﾙ1
100
AcDbText
  0
LINE
  5
742
330
1A
100
AcDbEntity
  8
ZUWAKU
100
AcDbLine
 10
348.6245055396789
 20
14.99999954755264
 30
0.0
 11
348.6245055396789
 21
0.3999995475526816
 31
0.0
  0
LINE
  5
743
330
1A
100
AcDbEntity
  8
ZUWAKU
100
AcDbLine
 10
348.7245055396789
 20
14.99999954755264
 30
0.0
 11
348.7245055396789
 21
0.3999995475526816
 31
0.0
  0
LINE
  5
744
330
1A
100
AcDbEntity
  8
ZUWAKU
100
AcDbLine
 10
348.8245055396788
 20
14.99999954755264
 30
0.0
 11
348.8245055396789
 21
0.3999995475526816
 31
0.0
  0
LINE
  5
745
330
1A
100
AcDbEntity
  8
ZUWAKU
100
AcDbLine
 10
348.9245055396789
 20
14.99999954755264
 30
0.0
 11
348.9245055396789
 21
0.3999995475526816
 31
0.0
  0
TEXT
  5
746
330
1A
100
AcDbEntity
  8
ZUWAKU
100
AcDbText
 10
354.2640423615301
 20
8.776919215396045
 30
0.0
 40
3.0
  1
積水化学工業株式会社
 41
0.9
  7
ｽﾀｲﾙ1
100
AcDbText
  0
TEXT
  5
747
330
1A
100
AcDbEntity
  8
ZUWAKU
100
AcDbText
 10
354.2640423615301
 20
3.32441970447968
 30
0.0
 40
3.0
  1
建材事業部
 41
0.9
  7
ｽﾀｲﾙ1
100
AcDbText
  0
TEXT
  5
74D
330
1A
100
AcDbEntity
  8
ZUWAKU
100
AcDbText
 10
230.9795720347352
 20
1.468216205049543
 30
0.0
 40
1.5
  1
□には色品番が入ります
 41
0.9
  7
ｽﾀｲﾙ1
100
AcDbText
  0
TEXT
  5
369F
330
1A
100
AcDbEntity
  8
MOJI
100
AcDbText
 10
113.859080746851
 20
2.524376541434719
 30
0.0
 40
2.799999999999999
  1
ＵＲＴ６０
 41
0.9
  7
ｽﾀｲﾙ1
100
AcDbText
  0
LINE
  5
4190
330
1A
100
AcDbEntity
  8
CENTER L
  6
CENTER
 62
     1
 48
5.0
100
AcDbLine
 10
169.7128629440081
 20
100.3142016966623
 30
0.0
 11
238.028258769602
 21
100.3142016966623
 31
0.0
  0
LINE
  5
4191
330
1A
100
AcDbEntity
  8
CENTER L
  6
CENTER
 62
     1
 48
5.0
100
AcDbLine
 10
240.8705608568051
 20
208.0605224800796
 30
0.0
 11
166.8705608568051
 21
208.0605224800796
 31
0.0
  0
CIRCLE
  5
4192
330
1A
100
AcDbEntity
  8
SEIHIN
  6
Continuous
 62
     3
 48
5.0
100
AcDbCircle
 10
203.8705608568051
 20
208.0605224800796
 30
0.0
 40
27.98907272751273
  0
CIRCLE
  5
4193
330
1A
100
AcDbEntity
  8
SEIHIN
  6
Continuous
 62
     3
 48
5.0
100
AcDbCircle
 10
203.8705608568051
 20
208.0605224800796
 30
0.0
 40
28.34142994682457
  0
CIRCLE
  5
4194
330
1A
100
AcDbEntity
  8
SEIHIN
  6
Continuous
 62
     3
 48
5.0
100
AcDbCircle
 10
203.8705608568051
 20
208.0605224800796
 30
0.0
 40
26.63907272751277
  0
CIRCLE
  5
4195
330
1A
100
AcDbEntity
  8
SEIHIN
  6
Continuous
 62
     3
 48
5.0
100
AcDbCircle
 10
203.8705608568051
 20
208.0605224800796
 30
0.0
 40
30.0
  0
LINE
  5
4196
330
1A
100
AcDbEntity
  8
SEIHIN
  6
Continuous
 62
     3
 48
5.0
100
AcDbLine
 10
203.8705608568051
 20
99.8142016966624
 30
0.0
 11
233.8705608568051
 21
99.8142016966624
 31
0.0
  0
LINE
  5
4197
330
1A
100
AcDbEntity
  8
SEIHIN
  6
Continuous
 62
     3
 48
5.0
100
AcDbLine
 10
203.8705608568051
 20
100.8142016966623
 30
0.0
 11
233.8705608568051
 21
100.8142016966623
 31
0.0
  0
LINE
  5
4198
330
1A
100
AcDbEntity
  8
SEIHIN
  6
Continuous
 62
     3
 48
5.0
100
AcDbLine
 10
232.2119908036291
 20
132.8146586111918
 30
0.0
 11
203.8705608568051
 21
132.8146586111918
 31
0.0
  0
LINE
  5
4199
330
1A
100
AcDbEntity
  8
SEIHIN
  6
Continuous
 62
     3
 48
5.0
100
AcDbLine
 10
203.8705608568051
 20
135.8142016966624
 30
0.0
 11
231.8596335843175
 21
135.8142016966624
 31
0.0
  0
DIMENSION
  5
419A
330
1A
100
AcDbEntity
  8
SUNPOU
100
AcDbDimension
  2
*D2
 10
232.2119908036291
 20
147.8969836801636
 30
0.0
 11
203.8729589018838
 21
150.3969836801636
 31
0.0
 70
    32
  1
φ<>
 71
     5
 42
-1.0
  3
STANDARD
100
AcDbAlignedDimension
 13
175.5339270001385
 23
132.8554867205141
 33
0.0
 14
232.2119908036291
 24
132.8146586111918
 34
0.0
100
AcDbRotatedDimension
1001
ACAD
1000
DSTYLE
1002
{
1070
    41
1040
3.0
1070
    42
1040
3.0
1070
    43
1040
7.0
1070
    44
1040
1.5
1070
    73
1070
     0
1070
    74
1070
     0
1070
    77
1070
     3
1070
   140
1040
3.0
1070
   141
1040
150.0
1070
   144
1040
1.0
1070
   147
1040
1.0
1070
   172
1070
     1
1070
   173
1070
     1
1070
   176
1070
     4
1070
   177
1070
     4
1070
   178
1070
     4
1070
   271
1070
     0
1070
   272
1070
     2
1070
     6
1000
OPEN
1070
     7
1000
OPEN
1002
}
  0
LINE
  5
419B
330
1A
100
AcDbEntity
  8
SEIHIN
  6
Continuous
 62
     3
 48
5.0
100
AcDbLine
 10
232.2119908036291
 20
67.81374478213115
 30
0.0
 11
203.8705608568051
 21
67.81374478213115
 31
0.0
  0
LINE
  5
419C
330
1A
100
AcDbEntity
  8
SEIHIN
  6
Continuous
 62
     3
 48
5.0
100
AcDbLine
 10
203.8705608568051
 20
64.8142016966624
 30
0.0
 11
231.8596335843175
 21
64.8142016966624
 31
0.0
  0
DIMENSION
  5
419D
330
1A
100
AcDbEntity
  8
SUNPOU
100
AcDbDimension
  2
*D3
 10
233.8705608568051
 20
156.0035886415924
 30
0.0
 11
203.8705608568051
 21
158.5035886415925
 31
0.0
 70
    32
  1
φ<>
 71
     5
 42
-1.0
  3
STANDARD
100
AcDbAlignedDimension
 13
173.8705608568051
 23
100.8142016966623
 33
0.0
 14
233.8705608568051
 24
100.8142016966623
 34
0.0
100
AcDbRotatedDimension
1001
ACAD
1000
DSTYLE
1002
{
1070
    41
1040
3.0
1070
    42
1040
3.0
1070
    43
1040
7.0
1070
    44
1040
1.5
1070
    73
1070
     0
1070
    74
1070
     0
1070
    77
1070
     3
1070
   140
1040
3.0
1070
   141
1040
150.0
1070
   144
1040
1.0
1070
   147
1040
1.0
1070
   172
1070
     1
1070
   173
1070
     1
1070
   176
1070
     4
1070
   177
1070
     4
1070
   178
1070
     4
1070
   271
1070
     0
1070
   272
1070
     2
1070
     6
1000
OPEN
1070
     7
1000
OPEN
1002
}
  0
LINE
  5
41A6
330
1A
100
AcDbEntity
  8
SEIHIN
  6
Continuous
 62
     3
 48
5.0
100
AcDbLine
 10
175.529130909981
 20
132.8146586111918
 30
0.0
 11
174.9705608568054
 21
100.8142016966623
 31
0.0
  0
LINE
  5
41A7
330
1A
100
AcDbEntity
  8
CENTER L
  6
CENTER
 62
     1
 48
5.0
100
AcDbLine
 10
203.8705608568051
 20
142.8837994052567
 30
0.0
 11
203.8705608568051
 21
57.15269941541669
 31
0.0
  0
LINE
  5
41A8
330
1A
100
AcDbEntity
  8
ﾊｯﾁﾝｸﾞ
 48
5.0
100
AcDbLine
 10
119.4049192587687
 20
128.8907207183867
 30
0.0
 11
117.4366418475843
 21
126.9224433072024
 31
0.0
  0
LINE
  5
41A9
330
1A
100
AcDbEntity
  8
SEIHIN
  6
Continuous
 62
     3
 48
5.0
100
AcDbLine
 10
119.2565377058168
 20
137.3914941936757
 30
0.0
 11
119.8151077589924
 21
105.3910372791463
 31
0.0
  0
LINE
  5
41AA
330
1A
100
AcDbEntity
  8
SEIHIN
  6
Continuous
 62
     3
 48
5.0
100
AcDbLine
 10
117.5541804865048
 20
140.3910372791463
 30
0.0
 11
117.2443766799339
 21
104.8910372791463
 31
0.0
  0
LINE
  5
41AB
330
1A
100
AcDbEntity
  8
ﾊｯﾁﾝｸﾞ
 48
5.0
100
AcDbLine
 10
64.38631977005446
 20
127.7536579560885
 30
0.0
 11
62.37025827049968
 21
125.7375964565337
 31
0.0
  0
LINE
  5
41AC
330
1A
100
AcDbEntity
  8
SEIHIN
  6
Continuous
 62
     3
 48
5.0
100
AcDbLine
 10
62.01510775899317
 20
105.3910372791463
 30
0.0
 11
62.57367781216874
 21
137.3914941936757
 31
0.0
  0
LINE
  5
41AD
330
1A
100
AcDbEntity
  8
SEIHIN
  6
Continuous
 62
     3
 48
5.0
100
AcDbLine
 10
64.5858388380517
 20
104.8910372791463
 30
0.0
 11
64.27603503148077
 21
140.3910372791463
 31
0.0
  0
LINE
  5
41AE
330
1A
100
AcDbEntity
  8
CENTER L
  6
CENTER
 62
     1
 48
5.0
100
AcDbLine
 10
90.9151077589928
 20
147.4606349877405
 30
0.0
 11
90.9151077589928
 21
62.321439570552
 31
0.0
  0
LINE
  5
4236
330
1A
100
AcDbEntity
  8
CENTER L
  6
CENTER
 62
     1
 48
5.0
100
AcDbLine
 10
56.75740984619586
 20
104.8910372791463
 30
0.0
 11
125.0728056717897
 21
104.8910372791463
 31
0.0
  0
LINE
  5
4237
330
1A
100
AcDbEntity
  8
SEIHIN
  6
Continuous
 62
     3
 48
5.0
100
AcDbLine
 10
117.5541804865048
 20
69.39103727914631
 30
0.0
 11
64.27603503148077
 21
69.39103727914631
 31
0.0
  0
LINE
  5
4238
330
1A
100
AcDbEntity
  8
SEIHIN
  6
Continuous
 62
     3
 48
5.0
100
AcDbLine
 10
62.57367781216874
 20
72.39058036461506
 30
0.0
 11
62.01510775899317
 21
104.3910372791463
 31
0.0
  0
LINE
  5
4239
330
1A
100
AcDbEntity
  8
SEIHIN
  6
Continuous
 62
     3
 48
5.0
100
AcDbLine
 10
64.27603503148077
 20
69.39103727914631
 30
0.0
 11
64.5858388380517
 21
104.8910372791463
 31
0.0
  0
LINE
  5
423A
330
1A
100
AcDbEntity
  8
ﾊｯﾁﾝｸﾞ
 48
5.0
100
AcDbLine
 10
64.39357367040122
 20
82.85963125108651
 30
0.0
 11
62.4252962592169
 21
80.891353839904
 31
0.0
  0
LINE
  5
423B
330
1A
100
AcDbEntity
  8
ﾊｯﾁﾝｸﾞ
 48
5.0
100
AcDbLine
 10
64.31451422114389
 20
73.80031568076197
 30
0.0
 11
62.60848369831421
 21
72.09428515793229
 31
0.0
  0
LINE
  5
423C
330
1A
100
AcDbEntity
  8
SEIHIN
  6
Continuous
 62
     3
 48
5.0
100
AcDbLine
 10
64.27603503148077
 20
69.39103727914631
 30
0.0
 11
62.92603503148041
 21
69.39103727914631
 31
0.0
  0
LINE
  5
423D
330
1A
100
AcDbEntity
  8
ﾊｯﾁﾝｸﾞ
 48
5.0
100
AcDbLine
 10
64.35404394577256
 20
78.32997346592424
 30
0.0
 11
62.50232715673212
 21
76.47825667688562
 31
0.0
  0
LINE
  5
423E
330
1A
100
AcDbEntity
  8
SEIHIN
  6
Continuous
 62
     3
 48
5.0
100
AcDbLine
 10
62.92603503148041
 20
69.39103727914631
 30
0.0
 11
62.57367781216874
 21
72.39058036461506
 31
0.0
  0
LINE
  5
423F
330
1A
100
AcDbEntity
  8
ﾊｯﾁﾝｸﾞ
 48
5.0
100
AcDbLine
 10
64.42516552225845
 20
123.3023756477571
 30
0.0
 11
62.29049044102487
 21
121.1677005665235
 31
0.0
  0
LINE
  5
4240
330
1A
100
AcDbEntity
  8
ﾊｯﾁﾝｸﾞ
 48
5.0
100
AcDbLine
 10
64.46401127446245
 20
118.8510933394256
 30
0.0
 11
62.21072261154825
 21
116.5978046765133
 31
0.0
  0
LINE
  5
4241
330
1A
100
AcDbEntity
  8
ﾊｯﾁﾝｸﾞ
 48
5.0
100
AcDbLine
 10
64.50285702666644
 20
114.399811031096
 30
0.0
 11
62.13095478207344
 21
112.027908786503
 31
0.0
  0
LINE
  5
4242
330
1A
100
AcDbEntity
  8
ﾊｯﾁﾝｸﾞ
 48
5.0
100
AcDbLine
 10
64.54170277887044
 20
109.9485287227664
 30
0.0
 11
62.05118695259864
 21
107.4580128964928
 31
0.0
  0
LINE
  5
4243
330
1A
100
AcDbEntity
  8
ﾊｯﾁﾝｸﾞ
 48
5.0
100
AcDbLine
 10
64.58054853107444
 20
105.497246414435
 30
0.0
 11
62.04014177164265
 21
102.9568396550032
 31
0.0
  0
LINE
  5
4244
330
1A
100
AcDbEntity
  8
ﾊｯﾁﾝｸﾞ
 48
5.0
100
AcDbLine
 10
64.55169256891406
 20
100.9782623917392
 30
0.0
 11
62.11717266915605
 21
98.54374249198304
 31
0.0
  0
LINE
  5
4245
330
1A
100
AcDbEntity
  8
ﾊｯﾁﾝｸﾞ
 48
5.0
100
AcDbLine
 10
64.51216284428539
 20
96.44860460657696
 30
0.0
 11
62.19420356667126
 21
94.13064532896283
 31
0.0
  0
LINE
  5
4246
330
1A
100
AcDbEntity
  8
ﾊｯﾁﾝｸﾞ
 48
5.0
100
AcDbLine
 10
64.47263311965674
 20
91.91894682141469
 30
0.0
 11
62.27123446418648
 21
89.71754816594261
 31
0.0
  0
LINE
  5
4247
330
1A
100
AcDbEntity
  8
ﾊｯﾁﾝｸﾞ
 48
5.0
100
AcDbLine
 10
64.43310339502807
 20
87.3892890362506
 30
0.0
 11
62.34826536170169
 21
85.30445100292423
 31
0.0
  0
LINE
  5
4248
330
1A
100
AcDbEntity
  8
SEIHIN
  6
Continuous
 62
     3
 48
5.0
100
AcDbLine
 10
60.9151077589928
 20
105.3910372791463
 30
0.0
 11
60.9151077589928
 21
104.3910372791463
 31
0.0
  0
LINE
  5
4249
330
1A
100
AcDbEntity
  8
SEIHIN
  6
Continuous
 62
     3
 48
5.0
100
AcDbLine
 10
60.9151077589928
 20
105.3910372791463
 30
0.0
 11
62.01510775899317
 21
105.3910372791463
 31
0.0
  0
LINE
  5
424A
330
1A
100
AcDbEntity
  8
SEIHIN
  6
Continuous
 62
     3
 48
5.0
100
AcDbLine
 10
62.01510775899317
 20
104.3910372791463
 30
0.0
 11
60.9151077589928
 21
104.3910372791463
 31
0.0
  0
LINE
  5
424B
330
1A
100
AcDbEntity
  8
ﾊｯﾁﾝｸﾞ
 48
5.0
100
AcDbLine
 10
119.4599572474859
 20
84.04447810175884
 30
0.0
 11
117.4438957479311
 21
82.02841660220405
 31
0.0
  0
LINE
  5
424C
330
1A
100
AcDbEntity
  8
SEIHIN
  6
Continuous
 62
     3
 48
5.0
100
AcDbLine
 10
119.8151077589924
 20
104.3910372791463
 30
0.0
 11
119.2565377058168
 21
72.39058036461506
 31
0.0
  0
LINE
  5
424D
330
1A
100
AcDbEntity
  8
SEIHIN
  6
Continuous
 62
     3
 48
5.0
100
AcDbLine
 10
117.2443766799339
 20
104.8910372791463
 30
0.0
 11
117.5541804865048
 21
69.39103727914631
 31
0.0
  0
LINE
  5
424E
330
1A
100
AcDbEntity
  8
ﾊｯﾁﾝｸﾞ
 48
5.0
100
AcDbLine
 10
118.9876754148686
 20
70.10181208753715
 30
0.0
 11
118.276900606476
 21
69.39103727914631
 31
0.0
  0
LINE
  5
424F
330
1A
100
AcDbEntity
  8
SEIHIN
  6
Continuous
 62
     3
 48
5.0
100
AcDbLine
 10
118.9041804865051
 20
69.39103727914631
 30
0.0
 11
117.5541804865048
 21
69.39103727914631
 31
0.0
  0
LINE
  5
4250
330
1A
100
AcDbEntity
  8
SEIHIN
  6
Continuous
 62
     3
 48
5.0
100
AcDbLine
 10
119.2565377058168
 20
72.39058036461506
 30
0.0
 11
118.9041804865051
 21
69.39103727914631
 31
0.0
  0
LINE
  5
4251
330
1A
100
AcDbEntity
  8
ﾊｯﾁﾝｸﾞ
 48
5.0
100
AcDbLine
 10
119.3801894180111
 20
79.47458221174861
 30
0.0
 11
117.4827415001351
 21
77.57713429387445
 31
0.0
  0
LINE
  5
4252
330
1A
100
AcDbEntity
  8
ﾊｯﾁﾝｸﾞ
 48
5.0
100
AcDbLine
 10
119.3004215885363
 20
74.90468632173838
 30
0.0
 11
117.5215872523391
 21
73.12585198554302
 31
0.0
  0
LINE
  5
4253
330
1A
100
AcDbEntity
  8
ﾊｯﾁﾝｸﾞ
 48
5.0
100
AcDbLine
 10
119.7900737463429
 20
106.8252349032893
 30
0.0
 11
117.2496669869111
 21
104.2848281438539
 31
0.0
  0
LINE
  5
4254
330
1A
100
AcDbEntity
  8
ﾊｯﾁﾝｸﾞ
 48
5.0
100
AcDbLine
 10
119.6194929064373
 20
93.18426988177931
 30
0.0
 11
117.3662042435231
 21
90.93098121886511
 31
0.0
  0
LINE
  5
4255
330
1A
100
AcDbEntity
  8
ﾊｯﾁﾝｸﾞ
 48
5.0
100
AcDbLine
 10
119.5397250769607
 20
88.61437399176907
 30
0.0
 11
117.4050499957271
 21
86.47969891053367
 31
0.0
  0
LINE
  5
4256
330
1A
100
AcDbEntity
  8
ﾊｯﾁﾝｸﾞ
 48
5.0
100
AcDbLine
 10
119.7790285653869
 20
102.3240616617979
 30
0.0
 11
117.2885127391151
 21
99.83354583552614
 31
0.0
  0
LINE
  5
4257
330
1A
100
AcDbEntity
  8
ﾊｯﾁﾝｸﾞ
 48
5.0
100
AcDbLine
 10
119.6992607359121
 20
97.75416577178772
 30
0.0
 11
117.3273584913191
 21
95.38226352719471
 31
0.0
  0
LINE
  5
4258
330
1A
100
AcDbEntity
  8
SEIHIN
  6
Continuous
 62
     3
 48
5.0
100
AcDbLine
 10
119.8151077589924
 20
105.3910372791463
 30
0.0
 11
120.9151077589928
 21
105.3910372791463
 31
0.0
  0
LINE
  5
4259
330
1A
100
AcDbEntity
  8
SEIHIN
  6
Continuous
 62
     3
 48
5.0
100
AcDbLine
 10
120.9151077589928
 20
104.3910372791463
 30
0.0
 11
120.9151077589928
 21
105.3910372791463
 31
0.0
  0
LINE
  5
425A
330
1A
100
AcDbEntity
  8
SEIHIN
  6
Continuous
 62
     3
 48
5.0
100
AcDbLine
 10
120.9151077589928
 20
104.3910372791463
 30
0.0
 11
119.8151077589924
 21
104.3910372791463
 31
0.0
  0
LINE
  5
425B
330
1A
100
AcDbEntity
  8
ﾊｯﾁﾝｸﾞ
 48
5.0
100
AcDbLine
 10
119.6360119513143
 20
115.6514292293279
 30
0.0
 11
117.3180526737002
 21
113.3334699517138
 31
0.0
  0
LINE
  5
425C
330
1A
100
AcDbEntity
  8
ﾊｯﾁﾝｸﾞ
 48
5.0
100
AcDbLine
 10
119.7130428488295
 20
111.2383320663077
 30
0.0
 11
117.2785229490715
 21
108.8038121665515
 31
0.0
  0
LINE
  5
425D
330
1A
100
AcDbEntity
  8
ﾊｯﾁﾝｸﾞ
 48
5.0
100
AcDbLine
 10
119.4819501562839
 20
124.4776235553665
 30
0.0
 11
117.3971121229575
 21
122.3927855220401
 31
0.0
  0
LINE
  5
425E
330
1A
100
AcDbEntity
  8
ﾊｯﾁﾝｸﾞ
 48
5.0
100
AcDbLine
 10
119.5589810537991
 20
120.0645263923481
 30
0.0
 11
117.3575823983288
 21
117.8631277368779
 31
0.0
  0
LINE
  5
425F
330
1A
100
AcDbEntity
  8
SEIHIN
  6
Continuous
 62
     3
 48
5.0
100
AcDbLine
 10
174.9705608568054
 20
99.8142016966624
 30
0.0
 11
175.529130909981
 21
67.81374478213115
 31
0.0
  0
LINE
  5
4260
330
1A
100
AcDbEntity
  8
SEIHIN
  6
Continuous
 62
     3
 48
5.0
100
AcDbLine
 10
203.8705608568051
 20
67.81374478213115
 30
0.0
 11
175.529130909981
 21
67.81374478213115
 31
0.0
  0
LINE
  5
4261
330
1A
100
AcDbEntity
  8
SEIHIN
  6
Continuous
 62
     3
 48
5.0
100
AcDbLine
 10
175.8814881292927
 20
64.8142016966624
 30
0.0
 11
203.8705608568051
 21
64.8142016966624
 31
0.0
  0
LINE
  5
4262
330
1A
100
AcDbEntity
  8
SEIHIN
  6
Continuous
 62
     3
 48
5.0
100
AcDbLine
 10
175.529130909981
 20
67.81374478213115
 30
0.0
 11
175.8814881292927
 21
64.8142016966624
 31
0.0
  0
LINE
  5
4263
330
1A
100
AcDbEntity
  8
SEIHIN
  6
Continuous
 62
     3
 48
5.0
100
AcDbLine
 10
173.8705608568051
 20
99.8142016966624
 30
0.0
 11
203.8705608568051
 21
99.8142016966624
 31
0.0
  0
LINE
  5
4264
330
1A
100
AcDbEntity
  8
SEIHIN
  6
Continuous
 62
     3
 48
5.0
100
AcDbLine
 10
173.8705608568051
 20
100.8142016966623
 30
0.0
 11
203.8705608568051
 21
100.8142016966623
 31
0.0
  0
LINE
  5
4265
330
1A
100
AcDbEntity
  8
SEIHIN
  6
Continuous
 62
     3
 48
5.0
100
AcDbLine
 10
173.8705608568051
 20
100.8142016966623
 30
0.0
 11
173.8705608568051
 21
99.8142016966624
 31
0.0
  0
LINE
  5
4266
330
1A
100
AcDbEntity
  8
SEIHIN
  6
Continuous
 62
     3
 48
5.0
100
AcDbLine
 10
117.5541804865048
 20
140.3910372791463
 30
0.0
 11
64.27603503148077
 21
140.3910372791463
 31
0.0
  0
LINE
  5
4267
330
1A
100
AcDbEntity
  8
ﾊｯﾁﾝｸﾞ
 48
5.0
100
AcDbLine
 10
64.30862826564646
 20
136.6562225727477
 30
0.0
 11
62.5297939294511
 21
134.8773882365523
 31
0.0
  0
LINE
  5
4268
330
1A
100
AcDbEntity
  8
SEIHIN
  6
Continuous
 62
     3
 48
5.0
100
AcDbLine
 10
62.92603503148041
 20
140.3910372791463
 30
0.0
 11
64.27603503148077
 21
140.3910372791463
 31
0.0
  0
LINE
  5
4269
330
1A
100
AcDbEntity
  8
ﾊｯﾁﾝｸﾞ
 48
5.0
100
AcDbLine
 10
64.34747401785045
 20
132.2049402644181
 30
0.0
 11
62.45002609997448
 21
130.3074923465439
 31
0.0
  0
LINE
  5
426A
330
1A
100
AcDbEntity
  8
SEIHIN
  6
Continuous
 62
     3
 48
5.0
100
AcDbLine
 10
62.57367781216874
 20
137.3914941936757
 30
0.0
 11
62.92603503148041
 21
140.3910372791463
 31
0.0
  0
LINE
  5
426B
330
1A
100
AcDbEntity
  8
ﾊｯﾁﾝｸﾞ
 48
5.0
100
AcDbLine
 10
63.55331491150957
 20
140.3910372791463
 30
0.0
 11
62.8425401031169
 21
139.6802624707536
 31
0.0
  0
LINE
  5
426C
330
1A
100
AcDbEntity
  8
SEIHIN
  6
Continuous
 62
     3
 48
5.0
100
AcDbLine
 10
118.9041804865051
 20
140.3910372791463
 30
0.0
 11
119.2565377058168
 21
137.3914941936757
 31
0.0
  0
LINE
  5
426D
330
1A
100
AcDbEntity
  8
ﾊｯﾁﾝｸﾞ
 48
5.0
100
AcDbLine
 10
119.2217318196713
 20
137.6877894003603
 30
0.0
 11
117.5157012968417
 21
135.9817588775306
 31
0.0
  0
LINE
  5
426E
330
1A
100
AcDbEntity
  8
ﾊｯﾁﾝｸﾞ
 48
5.0
100
AcDbLine
 10
119.3278883612534
 20
133.3038178814069
 30
0.0
 11
117.476171572213
 21
131.4521010923665
 31
0.0
  0
LINE
  5
426F
330
1A
100
AcDbEntity
  8
SEIHIN
  6
Continuous
 62
     3
 48
5.0
100
AcDbLine
 10
117.5541804865048
 20
140.3910372791463
 30
0.0
 11
118.9041804865051
 21
140.3910372791463
 31
0.0
  0
LINE
  5
4270
330
1A
100
AcDbEntity
  8
CENTER L
  6
CENTER
 62
     1
 48
5.0
100
AcDbLine
 10
203.8705608568051
 20
171.0605224800796
 30
0.0
 11
203.8705608568051
 21
245.0605224800796
 31
0.0
  0
LINE
  5
4271
330
1A
100
AcDbEntity
  8
SEIHIN
  6
Continuous
 62
     3
 48
5.0
100
AcDbLine
 10
203.8705608568051
 20
132.8146586111918
 30
0.0
 11
175.529130909981
 21
132.8146586111918
 31
0.0
  0
LINE
  5
4272
330
1A
100
AcDbEntity
  8
SEIHIN
  6
Continuous
 62
     3
 48
5.0
100
AcDbLine
 10
175.8814881292927
 20
135.8142016966624
 30
0.0
 11
203.8705608568051
 21
135.8142016966624
 31
0.0
  0
LINE
  5
4273
330
1A
100
AcDbEntity
  8
SEIHIN
  6
Continuous
 62
     3
 48
5.0
100
AcDbLine
 10
175.8814881292927
 20
135.8142016966624
 30
0.0
 11
175.529130909981
 21
132.8146586111918
 31
0.0
  0
LINE
  5
4274
330
1A
100
AcDbEntity
  8
SEIHIN
  6
Continuous
 62
     3
 48
5.0
100
AcDbLine
 10
232.7705608568047
 20
100.8142016966623
 30
0.0
 11
232.2119908036291
 21
132.8146586111918
 31
0.0
  0
DIMENSION
  5
4275
330
1A
100
AcDbEntity
  8
SUNPOU
100
AcDbDimension
  2
*D4
 10
254.7948143361471
 20
100.8142016966623
 30
0.0
 11
252.2948143361471
 21
118.3142016966624
 31
0.0
 70
    32
  1
※<>
 71
     5
 42
-1.0
  3
STANDARD
100
AcDbAlignedDimension
 13
231.8596335843175
 23
135.8142016966624
 33
0.0
 14
233.8705608568051
 24
100.8142016966623
 34
0.0
 50
90.0
100
AcDbRotatedDimension
1001
ACAD
1000
DSTYLE
1002
{
1070
    41
1040
3.0
1070
    42
1040
3.0
1070
    43
1040
7.0
1070
    44
1040
1.5
1070
    73
1070
     0
1070
    74
1070
     0
1070
    77
1070
     3
1070
   140
1040
3.0
1070
   141
1040
150.0
1070
   144
1040
1.0
1070
   147
1040
1.0
1070
   172
1070
     1
1070
   173
1070
     1
1070
   176
1070
     4
1070
   177
1070
     4
1070
   178
1070
     4
1070
   271
1070
     0
1070
   272
1070
     2
1070
     6
1000
OPEN
1070
     7
1000
OPEN
1002
}
  0
DIMENSION
  5
4276
330
1A
100
AcDbEntity
  8
SUNPOU
100
AcDbDimension
  2
*D5
 10
264.6034639832711
 20
64.8142016966624
 30
0.0
 11
262.1034639832711
 21
100.3142016966624
 31
0.0
 70
    32
 71
     5
 42
-1.0
  3
STANDARD
100
AcDbAlignedDimension
 13
231.8596335843175
 23
135.8142016966624
 33
0.0
 14
231.8596335843175
 24
64.8142016966624
 34
0.0
 50
90.0
100
AcDbRotatedDimension
1001
ACAD
1000
DSTYLE
1002
{
1070
    41
1040
3.0
1070
    42
1040
3.0
1070
    43
1040
7.0
1070
    44
1040
1.5
1070
    73
1070
     0
1070
    74
1070
     0
1070
    77
1070
     3
1070
   140
1040
3.0
1070
   141
1040
150.0
1070
   144
1040
1.0
1070
   147
1040
1.0
1070
   172
1070
     1
1070
   173
1070
     1
1070
   176
1070
     4
1070
   177
1070
     4
1070
   178
1070
     4
1070
   271
1070
     0
1070
   272
1070
     2
1070
     6
1000
OPEN
1070
     7
1000
OPEN
1002
}
  0
LINE
  5
428A
330
1A
100
AcDbEntity
  8
SEIHIN
  6
Continuous
 62
     3
 48
5.0
100
AcDbLine
 10
232.2119908036291
 20
67.81374478213115
 30
0.0
 11
232.7705608568047
 21
99.8142016966624
 31
0.0
  0
DIMENSION
  5
428B
330
1A
100
AcDbEntity
  8
SUNPOU
100
AcDbDimension
  2
*D6
 10
254.7948143361471
 20
64.8142016966624
 30
0.0
 11
252.2948143361471
 21
82.31420169666243
 31
0.0
 70
    32
  1
※<>
 71
     5
 42
-1.0
  3
STANDARD
100
AcDbAlignedDimension
 13
233.8705608568051
 23
99.8142016966624
 33
0.0
 14
231.8596335843175
 24
64.8142016966624
 34
0.0
 50
90.0
100
AcDbRotatedDimension
1001
ACAD
1000
DSTYLE
1002
{
1070
    41
1040
3.0
1070
    42
1040
3.0
1070
    43
1040
7.0
1070
    44
1040
1.5
1070
    73
1070
     0
1070
    74
1070
     0
1070
    77
1070
     3
1070
   140
1040
3.0
1070
   141
1040
150.0
1070
   144
1040
1.0
1070
   147
1040
1.0
1070
   172
1070
     1
1070
   173
1070
     1
1070
   176
1070
     4
1070
   177
1070
     4
1070
   178
1070
     4
1070
   271
1070
     0
1070
   272
1070
     2
1070
     6
1000
OPEN
1070
     7
1000
OPEN
1002
}
  0
LINE
  5
428C
330
1A
100
AcDbEntity
  8
SEIHIN
  6
Continuous
 62
     3
 48
5.0
100
AcDbLine
 10
231.8596335843175
 20
64.8142016966624
 30
0.0
 11
232.2119908036291
 21
67.81374478213115
 31
0.0
  0
LINE
  5
428D
330
1A
100
AcDbEntity
  8
SEIHIN
  6
Continuous
 62
     3
 48
5.0
100
AcDbLine
 10
233.8705608568051
 20
99.8142016966624
 30
0.0
 11
233.8705608568051
 21
100.8142016966623
 31
0.0
  0
LINE
  5
42A4
330
1A
100
AcDbEntity
  8
SEIHIN
  6
Continuous
 62
     3
 48
5.0
100
AcDbLine
 10
232.2119908036291
 20
132.8146586111918
 30
0.0
 11
231.8596335843175
 21
135.8142016966624
 31
0.0
  0
TEXT
  5
431F
330
1A
100
AcDbEntity
  8
MOJI
100
AcDbText
 10
113.9562759050437
 20
10.01805677449533
 30
0.0
 40
2.799999999999999
  1
インサイドたてソケット
 41
0.9
  7
ｽﾀｲﾙ1
100
AcDbText
  0
TEXT
  5
4CB6
330
1A
100
AcDbEntity
  8
MOJI
100
AcDbText
 10
44.64138808139749
 20
6.242677182400996
 30
0.0
 40
2.799999999999999
  1
ユニシェイプＵＲＴ６０ＢＬ
 41
0.9
  7
ｽﾀｲﾙ1
100
AcDbText
  0
TEXT
  5
4D44
330
1A
100
AcDbEntity
  8
MOJI
100
AcDbText
 10
227.707177370123
 20
6.73799520856798
 30
0.0
 40
2.799999999999999
  1
ＰＨ０５□
 41
0.9
  7
ｽﾀｲﾙ1
100
AcDbText
  0
VIEWPORT
  5
22
330
17
100
AcDbEntity
 67
     1
  8
0
100
AcDbViewport
 10
313.6808219178082
 20
148.5
 30
0.0
 40
627.3616438356165
 41
297.0
 68
     2
 69
     1
 12
313.6808219178082
 22
148.5
 13
0.0
 23
0.0
 14
1.0
 24
1.0
 15
10.0
 25
10.0
 16
0.0
 26
0.0
 36
1.0
 17
0.0
 27
0.0
 37
0.0
 42
50.0
 43
0.0
 44
0.0
 45
297.0
 50
0.0
 51
0.0
 72
   100
 90
    32768
  1

281
     0
 71
     1
 74
     0
110
0.0
120
0.0
130
0.0
111
1.0
121
0.0
131
0.0
112
0.0
122
1.0
132
0.0
 79
     0
146
0.0
  0
VIEWPORT
  5
64
330
17
100
AcDbEntity
 67
     1
  8
VIEWPORT
100
AcDbViewport
 10
210.0
 20
148.5
 30
0.0
 40
420.0
 41
297.0
 68
     1
 69
     2
 12
210.0
 22
148.5
 13
0.0
 23
0.0
 14
5.0
 24
5.0
 15
0.0
 25
0.0
 16
0.0
 26
0.0
 36
1.0
 17
0.0
 27
0.0
 37
0.0
 42
50.0
 43
0.0
 44
0.0
 45
302.9399999999998
 50
0.0
 51
0.0
 72
   100
 90
    32768
  1

281
     0
 71
     1
 74
     0
110
0.0
120
0.0
130
0.0
111
1.0
121
0.0
131
0.0
112
0.0
122
1.0
132
0.0
 79
     0
146
0.0
  0
ENDSEC
  0
SECTION
  2
OBJECTS
  0
DICTIONARY
  5
C
330
0
100
AcDbDictionary
281
     1
  3
ACAD_GROUP
350
D
  3
ACAD_LAYOUT
350
33B
  3
ACAD_MLINESTYLE
350
E
  3
ACAD_PLOTSETTINGS
350
33C
  3
ACAD_PLOTSTYLENAME
350
339
  0
DICTIONARY
  5
36A
330
1A
100
AcDbDictionary
280
     1
281
     1
  3
ACAD_LAYOUTSELFREF
360
4D87
  0
DICTIONARY
  5
368
330
17
100
AcDbDictionary
280
     1
281
     1
  3
ACAD_LAYOUTSELFREF
360
4D86
  0
DICTIONARY
  5
D
102
{ACAD_REACTORS
330
C
102
}
330
C
100
AcDbDictionary
281
     1
  0
DICTIONARY
  5
33B
102
{ACAD_REACTORS
330
C
102
}
330
C
100
AcDbDictionary
281
     1
  3
Model
350
33D
  3
ﾚｲｱｳﾄ1
350
33E
  0
DICTIONARY
  5
E
102
{ACAD_REACTORS
330
C
102
}
330
C
100
AcDbDictionary
281
     1
  3
STANDARD
350
13
  0
DICTIONARY
  5
33C
102
{ACAD_REACTORS
330
C
102
}
330
C
100
AcDbDictionary
281
     1
  0
ACDBDICTIONARYWDFLT
  5
339
102
{ACAD_REACTORS
330
C
102
}
330
C
100
AcDbDictionary
281
     1
  3
Normal
350
33A
100
AcDbDictionaryWithDefault
340
33A
1001
ACAD
1000
TREAT_AS_HARD
1070
     0
1000
TREAT_AS_HARD
1070
     0
1000
TREAT_AS_HARD
1070
     0
1000
TREAT_AS_HARD
1070
     0
1000
TREAT_AS_HARD
1070
     0
1000
TREAT_AS_HARD
1070
     0
1000
TREAT_AS_HARD
1070
     0
1000
TREAT_AS_HARD
1070
     0
  0
XRECORD
  5
4D87
102
{ACAD_REACTORS
330
36A
102
}
330
36A
100
AcDbXrecord
280
     1
340
1A
  0
XRECORD
  5
4D86
102
{ACAD_REACTORS
330
368
102
}
330
368
100
AcDbXrecord
280
     1
340
17
  0
LAYOUT
  5
33D
102
{ACAD_REACTORS
330
33B
102
}
330
33B
100
AcDbPlotSettings
  1

  2
Acrobat PDFWriter
  4
A3
  6

 40
7.143749713897705
 41
7.143756389617919
 42
7.143768310546875
 43
7.14373779296875
 44
297.1270751953125
 45
420.1583251953125
 46
0.0
 47
0.0
 48
0.0
 49
0.0
140
0.0
141
0.0
142
1.0
143
1.0
 70
 28336
 72
     1
 73
     1
 74
     2
  7
print.ctb
 75
    16
147
1.0
148
0.0
149
0.0
100
AcDbLayout
  1
Model
 70
     1
 71
     0
 10
0.0
 20
0.0
 11
12.0
 21
9.0
 12
0.0
 22
0.0
 32
0.0
 14
0.0
 24
0.0
 34
0.0
 15
0.0
 25
0.0
 35
0.0
146
0.0
 13
0.0
 23
0.0
 33
0.0
 16
1.0
 26
0.0
 36
0.0
 17
0.0
 27
1.0
 37
0.0
 76
     0
330
1A
  0
LAYOUT
  5
33E
102
{ACAD_REACTORS
330
33B
102
}
330
33B
100
AcDbPlotSettings
  1

  2
C:\PROGRAM FILES\ACAD LT 2000\plotters\DWF ePlot.pc3
  4

  6

 40
0.0
 41
0.0
 42
0.0
 43
0.0
 44
0.0
 45
0.0
 46
0.0
 47
0.0
 48
0.0
 49
0.0
140
0.0
141
0.0
142
1.0
143
1.0
 70
   688
 72
     0
 73
     0
 74
     5
  7
print.ctb
 75
    16
147
1.0
148
0.0
149
0.0
100
AcDbLayout
  1
ﾚｲｱｳﾄ1
 70
     1
 71
     1
 10
0.0
 20
0.0
 11
420.0
 21
297.0
 12
0.0
 22
0.0
 32
0.0
 14
0.0
 24
0.0
 34
0.0
 15
420.0
 25
297.0
 35
0.0
146
0.0
 13
0.0
 23
0.0
 33
0.0
 16
1.0
 26
0.0
 36
0.0
 17
0.0
 27
1.0
 37
0.0
 76
     0
330
17
331
64
  0
MLINESTYLE
  5
13
102
{ACAD_REACTORS
330
E
102
}
330
E
100
AcDbMlineStyle
  2
STANDARD
 70
     0
  3

 62
     0
 51
90.0
 52
90.0
 71
     2
 49
0.5
 62
   256
  6
BYLAYER
 49
-0.5
 62
   256
  6
BYLAYER
  0
ACDBPLACEHOLDER
  5
33A
102
{ACAD_REACTORS
330
339
102
}
330
339
  0
ENDSEC
  0
EOF
