  0
SECTION
  2
HEADER
  9
$ACADVER
  1
AC1015
  9
$ACADMAINTVER
 70
     6
  9
$DWGCODEPAGE
  3
ANSI_932
  9
$INSBASE
 10
0.0
 20
0.0
 30
0.0
  9
$EXTMIN
 10
0.0000002654082891
 20
-0.0000004524473525
 30
-0.0000000100002274
  9
$EXTMAX
 10
398.8000002654083
 20
275.7999995475527
 30
0.0000000100002274
  9
$LIMMIN
 10
0.0
 20
0.0
  9
$LIMMAX
 10
420.0
 20
297.0
  9
$ORTHOMODE
 70
     1
  9
$REGENMODE
 70
     1
  9
$FILLMODE
 70
     1
  9
$QTEXTMODE
 70
     0
  9
$MIRRTEXT
 70
     1
  9
$LTSCALE
 40
1.0
  9
$ATTMODE
 70
     1
  9
$TEXTSIZE
 40
2.5
  9
$TRACEWID
 40
1.0
  9
$TEXTSTYLE
  7
STANDARD
  9
$CLAYER
  8
SUNPOU
  9
$CELTYPE
  6
BYLAYER
  9
$CECOLOR
 62
   256
  9
$CELTSCALE
 40
1.0
  9
$DISPSILH
 70
     0
  9
$DIMSCALE
 40
1.0
  9
$DIMASZ
 40
3.0
  9
$DIMEXO
 40
3.0
  9
$DIMDLI
 40
7.0
  9
$DIMRND
 40
0.0
  9
$DIMDLE
 40
0.0
  9
$DIMEXE
 40
1.5
  9
$DIMTP
 40
0.0
  9
$DIMTM
 40
0.0
  9
$DIMTXT
 40
3.0
  9
$DIMCEN
 40
150.0
  9
$DIMTSZ
 40
0.0
  9
$DIMTOL
 70
     0
  9
$DIMLIM
 70
     0
  9
$DIMTIH
 70
     0
  9
$DIMTOH
 70
     0
  9
$DIMSE1
 70
     0
  9
$DIMSE2
 70
     0
  9
$DIMTAD
 70
     3
  9
$DIMZIN
 70
     0
  9
$DIMBLK
  1

  9
$DIMASO
 70
     1
  9
$DIMSHO
 70
     1
  9
$DIMPOST
  1

  9
$DIMAPOST
  1

  9
$DIMALT
 70
     0
  9
$DIMALTD
 70
     2
  9
$DIMALTF
 40
25.4
  9
$DIMLFAC
 40
1.0
  9
$DIMTOFL
 70
     1
  9
$DIMTVP
 40
0.0
  9
$DIMTIX
 70
     0
  9
$DIMSOXD
 70
     0
  9
$DIMSAH
 70
     1
  9
$DIMBLK1
  1
OPEN
  9
$DIMBLK2
  1
OPEN
  9
$DIMSTYLE
  2
STANDARD
  9
$DIMCLRD
 70
   256
  9
$DIMCLRE
 70
   256
  9
$DIMCLRT
 70
   256
  9
$DIMTFAC
 40
1.0
  9
$DIMGAP
 40
1.0
  9
$DIMJUST
 70
     0
  9
$DIMSD1
 70
     0
  9
$DIMSD2
 70
     0
  9
$DIMTOLJ
 70
     1
  9
$DIMTZIN
 70
     0
  9
$DIMALTZ
 70
     0
  9
$DIMALTTZ
 70
     0
  9
$DIMUPT
 70
     0
  9
$DIMDEC
 70
     0
  9
$DIMTDEC
 70
     0
  9
$DIMALTU
 70
     2
  9
$DIMALTTD
 70
     2
  9
$DIMTXSTY
  7
STANDARD
  9
$DIMAUNIT
 70
     0
  9
$DIMADEC
 70
     0
  9
$DIMALTRND
 40
0.0
  9
$DIMAZIN
 70
     0
  9
$DIMDSEP
 70
    46
  9
$DIMATFIT
 70
     3
  9
$DIMFRAC
 70
     0
  9
$DIMLDRBLK
  1
OPEN
  9
$DIMLUNIT
 70
     2
  9
$DIMLWD
 70
    -1
  9
$DIMLWE
 70
    -1
  9
$DIMTMOVE
 70
     0
  9
$LUNITS
 70
     2
  9
$LUPREC
 70
     4
  9
$SKETCHINC
 40
1.0
  9
$FILLETRAD
 40
55.0
  9
$AUNITS
 70
     0
  9
$AUPREC
 70
     0
  9
$MENU
  1
.
  9
$ELEVATION
 40
0.0
  9
$PELEVATION
 40
0.0
  9
$THICKNESS
 40
0.0
  9
$LIMCHECK
 70
     0
  9
$CHAMFERA
 40
10.0
  9
$CHAMFERB
 40
10.0
  9
$CHAMFERC
 40
20.0
  9
$CHAMFERD
 40
0.0
  9
$SKPOLY
 70
     0
  9
$TDCREATE
 40
2451074.584006712
  9
$TDUCREATE
 40
2451074.209006713
  9
$TDUPDATE
 40
2455838.587333900
  9
$TDUUPDATE
 40
2455838.212333900
  9
$TDINDWG
 40
0.0532082986
  9
$TDUSRTIMER
 40
0.0532082986
  9
$USRTIMER
 70
     1
  9
$ANGBASE
 50
0.0
  9
$ANGDIR
 70
     0
  9
$PDMODE
 70
     0
  9
$PDSIZE
 40
0.0
  9
$PLINEWID
 40
0.0
  9
$SPLFRAME
 70
     0
  9
$SPLINETYPE
 70
     6
  9
$SPLINESEGS
 70
     8
  9
$HANDSEED
  5
17E8
  9
$SURFTAB1
 70
     6
  9
$SURFTAB2
 70
     6
  9
$SURFTYPE
 70
     6
  9
$SURFU
 70
     6
  9
$SURFV
 70
     6
  9
$UCSBASE
  2

  9
$UCSNAME
  2

  9
$UCSORG
 10
0.0
 20
0.0
 30
0.0
  9
$UCSXDIR
 10
1.0
 20
0.0
 30
0.0
  9
$UCSYDIR
 10
0.0
 20
1.0
 30
0.0
  9
$UCSORTHOREF
  2

  9
$UCSORTHOVIEW
 70
     0
  9
$UCSORGTOP
 10
0.0
 20
0.0
 30
0.0
  9
$UCSORGBOTTOM
 10
0.0
 20
0.0
 30
0.0
  9
$UCSORGLEFT
 10
0.0
 20
0.0
 30
0.0
  9
$UCSORGRIGHT
 10
0.0
 20
0.0
 30
0.0
  9
$UCSORGFRONT
 10
0.0
 20
0.0
 30
0.0
  9
$UCSORGBACK
 10
0.0
 20
0.0
 30
0.0
  9
$PUCSBASE
  2

  9
$PUCSNAME
  2

  9
$PUCSORG
 10
0.0
 20
0.0
 30
0.0
  9
$PUCSXDIR
 10
1.0
 20
0.0
 30
0.0
  9
$PUCSYDIR
 10
0.0
 20
1.0
 30
0.0
  9
$PUCSORTHOREF
  2

  9
$PUCSORTHOVIEW
 70
     0
  9
$PUCSORGTOP
 10
0.0
 20
0.0
 30
0.0
  9
$PUCSORGBOTTOM
 10
0.0
 20
0.0
 30
0.0
  9
$PUCSORGLEFT
 10
0.0
 20
0.0
 30
0.0
  9
$PUCSORGRIGHT
 10
0.0
 20
0.0
 30
0.0
  9
$PUCSORGFRONT
 10
0.0
 20
0.0
 30
0.0
  9
$PUCSORGBACK
 10
0.0
 20
0.0
 30
0.0
  9
$USERI1
 70
     0
  9
$USERI2
 70
     0
  9
$USERI3
 70
     0
  9
$USERI4
 70
     0
  9
$USERI5
 70
     0
  9
$USERR1
 40
0.0
  9
$USERR2
 40
0.0
  9
$USERR3
 40
0.0
  9
$USERR4
 40
0.0
  9
$USERR5
 40
0.0
  9
$WORLDVIEW
 70
     1
  9
$SHADEDGE
 70
     3
  9
$SHADEDIF
 70
    70
  9
$TILEMODE
 70
     1
  9
$MAXACTVP
 70
    16
  9
$PINSBASE
 10
0.0
 20
0.0
 30
0.0
  9
$PLIMCHECK
 70
     0
  9
$PEXTMIN
 10
0.0
 20
0.0
 30
0.0
  9
$PEXTMAX
 10
420.0
 20
297.0
 30
0.0
  9
$PLIMMIN
 10
0.0
 20
0.0
  9
$PLIMMAX
 10
420.0
 20
297.0
  9
$UNITMODE
 70
     0
  9
$VISRETAIN
 70
     0
  9
$PLINEGEN
 70
     0
  9
$PSLTSCALE
 70
     1
  9
$TREEDEPTH
 70
  3020
  9
$CMLSTYLE
  2
STANDARD
  9
$CMLJUST
 70
     0
  9
$CMLSCALE
 40
1.0
  9
$PROXYGRAPHICS
 70
     1
  9
$MEASUREMENT
 70
     1
  9
$CELWEIGHT
370
    -1
  9
$ENDCAPS
280
     0
  9
$JOINSTYLE
280
     0
  9
$LWDISPLAY
290
     0
  9
$INSUNITS
 70
     0
  9
$HYPERLINKBASE
  1

  9
$STYLESHEET
  1
print.ctb
  9
$XEDIT
290
     1
  9
$CEPSNTYPE
380
     0
  9
$PSTYLEMODE
290
     1
  9
$FINGERPRINTGUID
  2
{D4F8574C-2E33-4D51-A6AD-99326D707132}
  9
$VERSIONGUID
  2
{792D6304-FA1D-495F-A21D-B9A6E7369F75}
  9
$EXTNAMES
290
     1
  9
$PSVPSCALE
 40
0.0
  9
$OLESTARTUP
290
     0
  0
ENDSEC
  0
SECTION
  2
CLASSES
  0
CLASS
  1
ACDBDICTIONARYWDFLT
  2
AcDbDictionaryWithDefault
  3
AutoCAD 2000
 90
        0
280
     0
281
     0
  0
CLASS
  1
ACDBPLACEHOLDER
  2
AcDbPlaceHolder
  3
AutoCAD 2000
 90
        0
280
     0
281
     0
  0
CLASS
  1
LAYOUT
  2
AcDbLayout
  3
AutoCAD 2000
 90
        0
280
     0
281
     0
  0
CLASS
  1
LONG_TRANSACTION
  2
AcDbLongTransaction
  3
AutoCAD 2000
 90
    32768
280
     0
281
     0
  0
CLASS
  1
LWPOLYLINE
  2
AcDbPolyline
  3
AutoCAD 2000
 90
    32768
280
     0
281
     1
  0
CLASS
  1
HATCH
  2
AcDbHatch
  3
AutoCAD 2000
 90
    32768
280
     0
281
     1
  0
CLASS
  1
XRECORD
  2
AcDbXrecord
  3
AutoCAD 2000
 90
    32768
280
     0
281
     0
  0
CLASS
  1
LONG_TRANSACTION
  2
AcDbLongTransaction
  3
AutoCAD 2000
 90
    32768
280
     0
281
     0
  0
CLASS
  1
LWPOLYLINE
  2
AcDbPolyline
  3
AutoCAD 2000
 90
    32768
280
     0
281
     1
  0
CLASS
  1
HATCH
  2
AcDbHatch
  3
AutoCAD 2000
 90
    32768
280
     0
281
     1
  0
CLASS
  1
XRECORD
  2
AcDbXrecord
  3
AutoCAD 2000
 90
    32768
280
     0
281
     0
  0
CLASS
  1
LONG_TRANSACTION
  2
AcDbLongTransaction
  3
AutoCAD 2000
 90
    32768
280
     0
281
     0
  0
CLASS
  1
LWPOLYLINE
  2
AcDbPolyline
  3
AutoCAD 2000
 90
    32768
280
     0
281
     1
  0
CLASS
  1
HATCH
  2
AcDbHatch
  3
AutoCAD 2000
 90
    32768
280
     0
281
     1
  0
CLASS
  1
XRECORD
  2
AcDbXrecord
  3
AutoCAD 2000
 90
    32768
280
     0
281
     0
  0
CLASS
  1
LONG_TRANSACTION
  2
AcDbLongTransaction
  3
AutoCAD 2000
 90
    32768
280
     0
281
     0
  0
CLASS
  1
LWPOLYLINE
  2
AcDbPolyline
  3
AutoCAD 2000
 90
    32768
280
     0
281
     1
  0
CLASS
  1
HATCH
  2
AcDbHatch
  3
AutoCAD 2000
 90
    32768
280
     0
281
     1
  0
CLASS
  1
XRECORD
  2
AcDbXrecord
  3
AutoCAD 2000
 90
    32768
280
     0
281
     0
  0
CLASS
  1
LONG_TRANSACTION
  2
AcDbLongTransaction
  3
AutoCAD 2000
 90
    32768
280
     0
281
     0
  0
CLASS
  1
LWPOLYLINE
  2
AcDbPolyline
  3
AutoCAD 2000
 90
    32768
280
     0
281
     1
  0
CLASS
  1
HATCH
  2
AcDbHatch
  3
AutoCAD 2000
 90
    32768
280
     0
281
     1
  0
CLASS
  1
XRECORD
  2
AcDbXrecord
  3
AutoCAD 2000
 90
    32768
280
     0
281
     0
  0
CLASS
  1
LONG_TRANSACTION
  2
AcDbLongTransaction
  3
AutoCAD 2000
 90
    32768
280
     0
281
     0
  0
CLASS
  1
LWPOLYLINE
  2
AcDbPolyline
  3
AutoCAD 2000
 90
    32768
280
     0
281
     1
  0
CLASS
  1
HATCH
  2
AcDbHatch
  3
AutoCAD 2000
 90
    32768
280
     0
281
     1
  0
CLASS
  1
XRECORD
  2
AcDbXrecord
  3
AutoCAD 2000
 90
    32768
280
     0
281
     0
  0
CLASS
  1
LONG_TRANSACTION
  2
AcDbLongTransaction
  3
AutoCAD 2000
 90
    32768
280
     0
281
     0
  0
CLASS
  1
LWPOLYLINE
  2
AcDbPolyline
  3
AutoCAD 2000
 90
    32768
280
     0
281
     1
  0
CLASS
  1
HATCH
  2
AcDbHatch
  3
AutoCAD 2000
 90
    32768
280
     0
281
     1
  0
CLASS
  1
XRECORD
  2
AcDbXrecord
  3
AutoCAD 2000
 90
    32768
280
     0
281
     0
  0
CLASS
  1
LONG_TRANSACTION
  2
AcDbLongTransaction
  3
AutoCAD 2000
 90
    32768
280
     0
281
     0
  0
CLASS
  1
LWPOLYLINE
  2
AcDbPolyline
  3
AutoCAD 2000
 90
    32768
280
     0
281
     1
  0
CLASS
  1
HATCH
  2
AcDbHatch
  3
AutoCAD 2000
 90
    32768
280
     0
281
     1
  0
CLASS
  1
XRECORD
  2
AcDbXrecord
  3
AutoCAD 2000
 90
    32768
280
     0
281
     0
  0
ENDSEC
  0
SECTION
  2
TABLES
  0
TABLE
  2
VPORT
  5
8
330
0
100
AcDbSymbolTable
 70
     2
  0
VPORT
  5
17E7
330
8
100
AcDbSymbolTableRecord
100
AcDbViewportTableRecord
  2
*Active
 70
     0
 10
0.0
 20
0.0
 11
1.0
 21
1.0
 12
203.8182752755655
 22
147.6020886711662
 13
0.0
 23
0.0
 14
5.0
 24
5.0
 15
0.0
 25
0.0
 16
0.0
 26
0.0
 36
1.0
 17
0.0
 27
0.0
 37
0.0
 40
339.6750260409901
 41
1.527918781725888
 42
50.0
 43
0.0
 44
0.0
 50
0.0
 51
0.0
 71
     0
 72
   100
 73
     1
 74
     0
 75
     0
 76
     0
 77
     0
 78
     0
281
     0
 65
     1
110
0.0
120
0.0
130
0.0
111
1.0
121
0.0
131
0.0
112
0.0
122
1.0
132
0.0
 79
     0
146
0.0
  0
ENDTAB
  0
TABLE
  2
LTYPE
  5
5
330
0
100
AcDbSymbolTable
 70
     2
  0
LTYPE
  5
14
330
5
100
AcDbSymbolTableRecord
100
AcDbLinetypeTableRecord
  2
BYBLOCK
 70
     0
  3

 72
    65
 73
     0
 40
0.0
  0
LTYPE
  5
15
330
5
100
AcDbSymbolTableRecord
100
AcDbLinetypeTableRecord
  2
BYLAYER
 70
     0
  3

 72
    65
 73
     0
 40
0.0
  0
LTYPE
  5
16
330
5
100
AcDbSymbolTableRecord
100
AcDbLinetypeTableRecord
  2
CONTINUOUS
 70
     0
  3
Solid line
 72
    65
 73
     0
 40
0.0
  0
LTYPE
  5
120
330
5
100
AcDbSymbolTableRecord
100
AcDbLinetypeTableRecord
  2
CENTER
 70
     0
  3
____ _ ____ _ ____ _ ____ _ ____ _ ____ _ ____ 
 72
    65
 73
     4
 40
2.0
 49
1.25
 74
     0
 49
-0.25
 74
     0
 49
0.25
 74
     0
 49
-0.25
 74
     0
  0
ENDTAB
  0
TABLE
  2
LAYER
  5
2
330
0
100
AcDbSymbolTable
 70
     9
  0
LAYER
  5
F
330
2
100
AcDbSymbolTableRecord
100
AcDbLayerTableRecord
  2
0
 70
     0
 62
     7
  6
CONTINUOUS
370
    -3
390
33A
  0
LAYER
  5
62
330
2
100
AcDbSymbolTableRecord
100
AcDbLayerTableRecord
  2
VIEWPORT
 70
     0
 62
     7
  6
CONTINUOUS
370
    -3
390
33A
  0
LAYER
  5
6B
330
2
100
AcDbSymbolTableRecord
100
AcDbLayerTableRecord
  2
ZUWAKU
 70
     0
 62
     7
  6
CONTINUOUS
370
    -3
390
33A
  0
LAYER
  5
140
330
2
100
AcDbSymbolTableRecord
100
AcDbLayerTableRecord
  2
SEIHIN
 70
     0
 62
     3
  6
CONTINUOUS
370
    -3
390
33A
  0
LAYER
  5
141
330
2
100
AcDbSymbolTableRecord
100
AcDbLayerTableRecord
  2
SUNPOU
 70
     0
 62
     4
  6
CONTINUOUS
370
    -3
390
33A
  0
LAYER
  5
142
330
2
100
AcDbSymbolTableRecord
100
AcDbLayerTableRecord
  2
CENTER L
 70
     0
 62
     1
  6
CENTER
370
    -3
390
33A
  0
LAYER
  5
143
330
2
100
AcDbSymbolTableRecord
100
AcDbLayerTableRecord
  2
DEFPOINTS
 70
     0
 62
     7
  6
CONTINUOUS
290
     0
370
    -3
390
33A
  0
LAYER
  5
5D7
330
2
100
AcDbSymbolTableRecord
100
AcDbLayerTableRecord
  2
MOJI
 70
     0
 62
     2
  6
CONTINUOUS
370
    -3
390
33A
  0
LAYER
  5
A31
330
2
100
AcDbSymbolTableRecord
100
AcDbLayerTableRecord
  2
ﾊｯﾁﾝｸﾞ
 70
     0
 62
     7
  6
CONTINUOUS
370
    -3
390
33A
  0
ENDTAB
  0
TABLE
  2
STYLE
  5
3
330
0
100
AcDbSymbolTable
 70
     3
  0
STYLE
  5
10
330
3
100
AcDbSymbolTableRecord
100
AcDbTextStyleTableRecord
  2
STANDARD
 70
     0
 40
0.0
 41
1.0
 50
0.0
 71
     0
 42
2.5
  3
TXT
  4
bigfont.shx
  0
STYLE
  5
5D8
330
3
100
AcDbSymbolTableRecord
100
AcDbTextStyleTableRecord
  2
ｽﾀｲﾙ1
 70
     0
 40
0.0
 41
1.0
 50
0.0
 71
     0
 42
2.5
  3
MS PGothic.ttf
  4

1001
ACAD
1000
MS PGothic
1071
    32818
  0
STYLE
  5
173A
330
3
100
AcDbSymbolTableRecord
100
AcDbTextStyleTableRecord
  2
MSPｺﾞｼｯｸ
 70
     0
 40
0.0
 41
1.0
 50
0.0
 71
     0
 42
2.5
  3
MS PGothic.ttf
  4

1001
ACAD
1000
MS PGothic
1071
    32818
  0
ENDTAB
  0
TABLE
  2
VIEW
  5
6
330
0
100
AcDbSymbolTable
 70
     0
  0
ENDTAB
  0
TABLE
  2
UCS
  5
7
330
0
100
AcDbSymbolTable
 70
     0
  0
ENDTAB
  0
TABLE
  2
APPID
  5
9
330
0
100
AcDbSymbolTable
 70
     1
  0
APPID
  5
11
330
9
100
AcDbSymbolTableRecord
100
AcDbRegAppTableRecord
  2
ACAD
 70
     0
  0
ENDTAB
  0
TABLE
  2
DIMSTYLE
  5
A
330
0
100
AcDbSymbolTable
 70
     1
100
AcDbDimStyleTable
 71
     0
  0
DIMSTYLE
105
1D
102
{ACAD_REACTORS
330
C70
330
BC2
330
BBD
330
BC9
330
C6B
330
BBF
330
C6D
330
C51
330
C56
330
C78
330
BC3
102
}
330
A
100
AcDbSymbolTableRecord
100
AcDbDimStyleTableRecord
  2
STANDARD
 70
     0
340
10
  0
ENDTAB
  0
TABLE
  2
BLOCK_RECORD
  5
1
330
0
100
AcDbSymbolTable
 70
    20
  0
BLOCK_RECORD
  5
1A
102
{ACAD_XDICTIONARY
360
36A
102
}
330
1
100
AcDbSymbolTableRecord
100
AcDbBlockTableRecord
  2
*MODEL_SPACE
340
33D
  0
BLOCK_RECORD
  5
17
102
{ACAD_XDICTIONARY
360
368
102
}
330
1
100
AcDbSymbolTableRecord
100
AcDbBlockTableRecord
  2
*PAPER_SPACE
340
33E
  0
BLOCK_RECORD
  5
B2
330
1
100
AcDbSymbolTableRecord
100
AcDbBlockTableRecord
  2
_OPEN
340
0
102
{BLKREFS
331
12AC
331
12AD
331
12B5
331
12B6
331
12BE
331
12BF
331
17DA
331
17DB
331
12D1
331
12D2
331
12DA
331
12DB
331
12E3
331
12E4
331
12EE
331
12EF
331
12F8
331
12F9
331
1301
331
1302
331
130B
331
130C
331
1730
331
1731
102
}
  0
BLOCK_RECORD
  5
9A5
330
1
100
AcDbSymbolTableRecord
100
AcDbBlockTableRecord
  2
*X1
340
0
102
{BLKREFS
331
C82
102
}
  0
BLOCK_RECORD
  5
9DE
330
1
100
AcDbSymbolTableRecord
100
AcDbBlockTableRecord
  2
*X2
340
0
102
{BLKREFS
331
CA0
102
}
  0
BLOCK_RECORD
  5
9FE
330
1
100
AcDbSymbolTableRecord
100
AcDbBlockTableRecord
  2
*X3
340
0
102
{BLKREFS
331
D03
102
}
  0
BLOCK_RECORD
  5
A0C
330
1
100
AcDbSymbolTableRecord
100
AcDbBlockTableRecord
  2
*X4
340
0
102
{BLKREFS
331
CED
102
}
  0
BLOCK_RECORD
  5
A1A
330
1
100
AcDbSymbolTableRecord
100
AcDbBlockTableRecord
  2
*X5
340
0
102
{BLKREFS
331
CF7
102
}
  0
BLOCK_RECORD
  5
D09
330
1
100
AcDbSymbolTableRecord
100
AcDbBlockTableRecord
  2
*D6
340
0
  0
BLOCK_RECORD
  5
D16
330
1
100
AcDbSymbolTableRecord
100
AcDbBlockTableRecord
  2
*D7
340
0
  0
BLOCK_RECORD
  5
D23
330
1
100
AcDbSymbolTableRecord
100
AcDbBlockTableRecord
  2
*D8
340
0
  0
BLOCK_RECORD
  5
D30
330
1
100
AcDbSymbolTableRecord
100
AcDbBlockTableRecord
  2
*D9
340
0
  0
BLOCK_RECORD
  5
D3D
330
1
100
AcDbSymbolTableRecord
100
AcDbBlockTableRecord
  2
*D10
340
0
  0
BLOCK_RECORD
  5
D4A
330
1
100
AcDbSymbolTableRecord
100
AcDbBlockTableRecord
  2
*D11
340
0
  0
BLOCK_RECORD
  5
D57
330
1
100
AcDbSymbolTableRecord
100
AcDbBlockTableRecord
  2
*D12
340
0
  0
BLOCK_RECORD
  5
D64
330
1
100
AcDbSymbolTableRecord
100
AcDbBlockTableRecord
  2
*D13
340
0
  0
BLOCK_RECORD
  5
D71
330
1
100
AcDbSymbolTableRecord
100
AcDbBlockTableRecord
  2
*D14
340
0
  0
BLOCK_RECORD
  5
D7E
330
1
100
AcDbSymbolTableRecord
100
AcDbBlockTableRecord
  2
*D15
340
0
  0
BLOCK_RECORD
  5
D8B
330
1
100
AcDbSymbolTableRecord
100
AcDbBlockTableRecord
  2
*D16
340
0
  0
BLOCK_RECORD
  5
10FA
330
1
100
AcDbSymbolTableRecord
100
AcDbBlockTableRecord
  2
*X17
340
0
102
{BLKREFS
331
6A2
102
}
  0
ENDTAB
  0
ENDSEC
  0
SECTION
  2
BLOCKS
  0
BLOCK
  5
1B
330
1A
100
AcDbEntity
  8
0
100
AcDbBlockBegin
  2
*MODEL_SPACE
 70
     0
 10
0.0
 20
0.0
 30
0.0
  3
*MODEL_SPACE
  1

  0
ENDBLK
  5
1C
330
1A
100
AcDbEntity
  8
0
100
AcDbBlockEnd
  0
BLOCK
  5
18
330
17
100
AcDbEntity
 67
     1
  8
0
100
AcDbBlockBegin
  2
*PAPER_SPACE
 70
     0
 10
0.0
 20
0.0
 30
0.0
  3
*PAPER_SPACE
  1

  0
ENDBLK
  5
19
330
17
100
AcDbEntity
 67
     1
  8
0
100
AcDbBlockEnd
  0
BLOCK
  5
B3
330
B2
100
AcDbEntity
  8
0
100
AcDbBlockBegin
  2
_OPEN
 70
     0
 10
0.0
 20
0.0
 30
0.0
  3
_OPEN
  1

  0
LINE
  5
B4
330
B2
100
AcDbEntity
  8
0
  6
ByBlock
 62
     0
100
AcDbLine
 10
-1.0
 20
0.1666666666666666
 30
0.0
 11
0.0
 21
0.0
 31
0.0
  0
LINE
  5
B5
330
B2
100
AcDbEntity
  8
0
  6
ByBlock
 62
     0
100
AcDbLine
 10
0.0
 20
0.0
 30
0.0
 11
-1.0
 21
-0.1666666666666666
 31
0.0
  0
LINE
  5
B6
330
B2
100
AcDbEntity
  8
0
  6
ByBlock
 62
     0
100
AcDbLine
 10
0.0
 20
0.0
 30
0.0
 11
-1.0
 21
0.0
 31
0.0
  0
ENDBLK
  5
B7
330
B2
100
AcDbEntity
  8
0
100
AcDbBlockEnd
  0
BLOCK
  5
9DC
330
9A5
100
AcDbEntity
  8
0
100
AcDbBlockBegin
  2
*X1
 70
     1
 10
0.0
 20
0.0
 30
0.0
  3
*X1
  1

  0
LINE
  5
9A6
330
9A5
100
AcDbEntity
  8
0
 62
     0
100
AcDbLine
 10
180.237428336832
 20
177.4090012120858
 30
0.0
 11
181.7986409068818
 21
178.9702137821356
 31
0.0
  0
LINE
  5
9A7
330
9A5
100
AcDbEntity
  8
0
 62
     0
100
AcDbLine
 10
179.9884897375584
 20
179.9884897375583
 30
0.0
 11
181.823541520821
 21
181.823541520821
 31
0.0
  0
LINE
  5
9A8
330
9A5
100
AcDbEntity
  8
0
 62
     0
100
AcDbLine
 10
179.9399663375489
 20
182.7683934622951
 30
0.0
 11
181.8484421347602
 21
184.6768692595064
 31
0.0
  0
LINE
  5
9A9
330
9A5
100
AcDbEntity
  8
0
 62
     0
100
AcDbLine
 10
179.8914429375395
 20
185.5482971870318
 30
0.0
 11
181.8733427486994
 21
187.5301969981918
 31
0.0
  0
LINE
  5
9AA
330
9A5
100
AcDbEntity
  8
0
 62
     0
100
AcDbLine
 10
179.84291953753
 20
188.3282009117686
 30
0.0
 11
181.8982433626387
 21
190.3835247368772
 31
0.0
  0
LINE
  5
9AB
330
9A5
100
AcDbEntity
  8
0
 62
     0
100
AcDbLine
 10
179.7943961375207
 20
191.1081046365054
 30
0.0
 11
181.9231439765779
 21
193.2368524755626
 31
0.0
  0
LINE
  5
9AC
330
9A5
100
AcDbEntity
  8
0
 62
     0
100
AcDbLine
 10
179.7458727375112
 20
193.8880083612421
 30
0.0
 11
181.948044590517
 21
196.090180214248
 31
0.0
  0
LINE
  5
9AD
330
9A5
100
AcDbEntity
  8
0
 62
     0
100
AcDbLine
 10
179.6973493375018
 20
196.6679120859789
 30
0.0
 11
181.9729452044562
 21
198.9435079529334
 31
0.0
  0
LINE
  5
9AE
330
9A5
100
AcDbEntity
  8
0
 62
     0
100
AcDbLine
 10
179.6488259374924
 20
199.4478158107156
 30
0.0
 11
181.9978458183955
 21
201.7968356916187
 31
0.0
  0
LINE
  5
9AF
330
9A5
100
AcDbEntity
  8
0
 62
     0
100
AcDbLine
 10
179.6003025374829
 20
202.2277195354524
 30
0.0
 11
182.0227464323346
 21
204.6501634303041
 31
0.0
  0
LINE
  5
9B0
330
9A5
100
AcDbEntity
  8
0
 62
     0
100
AcDbLine
 10
179.5517791374734
 20
205.0076232601891
 30
0.0
 11
182.0476470462739
 21
207.5034911689895
 31
0.0
  0
LINE
  5
9B1
330
9A5
100
AcDbEntity
  8
0
 62
     0
100
AcDbLine
 10
178.1640109048892
 20
206.4482821523511
 30
0.0
 11
179.7640109048877
 21
208.0482821523496
 31
0.0
  0
LINE
  5
9B2
330
9A5
100
AcDbEntity
  8
0
 62
     0
100
AcDbLine
 10
176.676632342971
 20
207.7893307151791
 30
0.0
 11
179.1572442061574
 21
210.2699425783655
 31
0.0
  0
LINE
  5
9B3
330
9A5
100
AcDbEntity
  8
0
 62
     0
100
AcDbLine
 10
176.676632342971
 20
210.6177578399253
 30
0.0
 11
179.1327744409894
 21
213.0738999379437
 31
0.0
  0
LINE
  5
9B4
330
9A5
100
AcDbEntity
  8
0
 62
     0
100
AcDbLine
 10
176.676632342971
 20
213.4461849646715
 30
0.0
 11
179.1083046758215
 21
215.8778572975219
 31
0.0
  0
LINE
  5
9B5
330
9A5
100
AcDbEntity
  8
0
 62
     0
100
AcDbLine
 10
176.676632342971
 20
216.2746120894176
 30
0.0
 11
179.0838349106535
 21
218.6818146571001
 31
0.0
  0
LINE
  5
9B6
330
9A5
100
AcDbEntity
  8
0
 62
     0
100
AcDbLine
 10
176.676632342971
 20
219.1030392141638
 30
0.0
 11
179.0593651454855
 21
221.4857720166783
 31
0.0
  0
LINE
  5
9B7
330
9A5
100
AcDbEntity
  8
0
 62
     0
100
AcDbLine
 10
176.676632342971
 20
221.93146633891
 30
0.0
 11
179.0348953803176
 21
224.2897293762566
 31
0.0
  0
LINE
  5
9B8
330
9A5
100
AcDbEntity
  8
0
 62
     0
100
AcDbLine
 10
176.676632342971
 20
224.7598934636562
 30
0.0
 11
179.0104256151496
 21
227.0936867358348
 31
0.0
  0
LINE
  5
9B9
330
9A5
100
AcDbEntity
  8
0
 62
     0
100
AcDbLine
 10
176.676632342971
 20
227.5883205884024
 30
0.0
 11
178.9859558499816
 21
229.897644095413
 31
0.0
  0
LINE
  5
9BA
330
9A5
100
AcDbEntity
  8
0
 62
     0
100
AcDbLine
 10
176.676632342971
 20
230.4167477131486
 30
0.0
 11
178.9614860848136
 21
232.7016014549912
 31
0.0
  0
LINE
  5
9BB
330
9A5
100
AcDbEntity
  8
0
 62
     0
100
AcDbLine
 10
176.676632342971
 20
233.2451748378947
 30
0.0
 11
178.9370163196456
 21
235.5055588145694
 31
0.0
  0
LINE
  5
9BC
330
9A5
100
AcDbEntity
  8
0
 62
     0
100
AcDbLine
 10
176.676632342971
 20
236.073601962641
 30
0.0
 11
178.9125465544777
 21
238.3095161741477
 31
0.0
  0
LINE
  5
9BD
330
9A5
100
AcDbEntity
  8
0
 62
     0
100
AcDbLine
 10
176.676632342971
 20
238.9020290873872
 30
0.0
 11
178.8880767893097
 21
241.1134735337258
 31
0.0
  0
LINE
  5
9BE
330
9A5
100
AcDbEntity
  8
0
 62
     0
100
AcDbLine
 10
176.676632342971
 20
241.7304562121334
 30
0.0
 11
178.8636070241417
 21
243.917430893304
 31
0.0
  0
LINE
  5
9BF
330
9A5
100
AcDbEntity
  8
0
 62
     0
100
AcDbLine
 10
176.676632342971
 20
244.5588833368795
 30
0.0
 11
178.8391372589737
 21
246.7213882528823
 31
0.0
  0
LINE
  5
9C0
330
9A5
100
AcDbEntity
  8
0
 62
     0
100
AcDbLine
 10
176.676632342971
 20
247.3873104616257
 30
0.0
 11
178.8146674938058
 21
249.5253456124605
 31
0.0
  0
LINE
  5
9C1
330
9A5
100
AcDbEntity
  8
0
 62
     0
100
AcDbLine
 10
176.676632342971
 20
250.2157375863719
 30
0.0
 11
178.7901977286377
 21
252.3293029720387
 31
0.0
  0
LINE
  5
9C2
330
9A5
100
AcDbEntity
  8
0
 62
     0
100
AcDbLine
 10
176.676632342971
 20
253.0441647111181
 30
0.0
 11
178.7657279634698
 21
255.1332603316169
 31
0.0
  0
LINE
  5
9C3
330
9A5
100
AcDbEntity
  8
0
 62
     0
100
AcDbLine
 10
176.676632342971
 20
255.8725918358643
 30
0.0
 11
178.7412581983018
 21
257.9372176911951
 31
0.0
  0
LINE
  5
9C4
330
9A5
100
AcDbEntity
  8
0
 62
     0
100
AcDbLine
 10
176.676632342971
 20
258.7010189606105
 30
0.0
 11
178.7167884331338
 21
260.7411750507733
 31
0.0
  0
LINE
  5
9C5
330
9A5
100
AcDbEntity
  8
0
 62
     0
100
AcDbLine
 10
176.676632342971
 20
261.5294460853567
 30
0.0
 11
178.6923186679659
 21
263.5451324103515
 31
0.0
  0
LINE
  5
9C6
330
9A5
100
AcDbEntity
  8
0
 62
     0
100
AcDbLine
 10
176.676632342971
 20
264.3578732101029
 30
0.0
 11
178.6678489027979
 21
266.3490897699297
 31
0.0
  0
LINE
  5
9C7
330
9A5
100
AcDbEntity
  8
0
 62
     0
100
AcDbLine
 10
176.676632342971
 20
267.186300334849
 30
0.0
 11
178.6433791376299
 21
269.1530471295079
 31
0.0
  0
LINE
  5
9C8
330
9A5
100
AcDbEntity
  8
0
 62
     0
100
AcDbLine
 10
176.676632342971
 20
270.0147274595952
 30
0.0
 11
178.6189093724619
 21
271.9570044890862
 31
0.0
  0
LINE
  5
9C9
330
9A5
100
AcDbEntity
  8
0
 62
     0
100
AcDbLine
 10
176.676632342971
 20
272.8431545843414
 30
0.0
 11
178.5944396072939
 21
274.7609618486644
 31
0.0
  0
LINE
  5
9CA
330
9A5
100
AcDbEntity
  8
0
 62
     0
100
AcDbLine
 10
176.676632342971
 20
275.6715817090876
 30
0.0
 11
178.569969842126
 21
277.5649192082426
 31
0.0
  0
LINE
  5
9CB
330
9A5
100
AcDbEntity
  8
0
 62
     0
100
AcDbLine
 10
176.676632342971
 20
278.5000088338339
 30
0.0
 11
178.545500076958
 21
280.3688765678208
 31
0.0
  0
LINE
  5
9CC
330
9A5
100
AcDbEntity
  8
0
 62
     0
100
AcDbLine
 10
176.676632342971
 20
281.32843595858
 30
0.0
 11
178.52103031179
 21
283.1728339273991
 31
0.0
  0
LINE
  5
9CD
330
9A5
100
AcDbEntity
  8
0
 62
     0
100
AcDbLine
 10
176.676632342971
 20
284.1568630833262
 30
0.0
 11
178.4965605466221
 21
285.9767912869772
 31
0.0
  0
LINE
  5
9CE
330
9A5
100
AcDbEntity
  8
0
 62
     0
100
AcDbLine
 10
176.676632342971
 20
286.9852902080724
 30
0.0
 11
178.4720907814541
 21
288.7807486465555
 31
0.0
  0
LINE
  5
9CF
330
9A5
100
AcDbEntity
  8
0
 62
     0
100
AcDbLine
 10
176.676632342971
 20
289.8137173328186
 30
0.0
 11
178.4476210162861
 21
291.5847060061337
 31
0.0
  0
LINE
  5
9D0
330
9A5
100
AcDbEntity
  8
0
 62
     0
100
AcDbLine
 10
176.676632342971
 20
292.6421444575648
 30
0.0
 11
178.4231512511182
 21
294.3886633657119
 31
0.0
  0
LINE
  5
9D1
330
9A5
100
AcDbEntity
  8
0
 62
     0
100
AcDbLine
 10
176.676632342971
 20
295.4705715823109
 30
0.0
 11
178.3986814859502
 21
297.1926207252901
 31
0.0
  0
LINE
  5
9D2
330
9A5
100
AcDbEntity
  8
0
 62
     0
100
AcDbLine
 10
176.676632342971
 20
298.2989987070571
 30
0.0
 11
178.3742117207822
 21
299.9965780848683
 31
0.0
  0
LINE
  5
9D3
330
9A5
100
AcDbEntity
  8
0
 62
     0
100
AcDbLine
 10
176.676632342971
 20
301.1274258318034
 30
0.0
 11
178.3497419556142
 21
302.8005354444466
 31
0.0
  0
LINE
  5
9D4
330
9A5
100
AcDbEntity
  8
0
 62
     0
100
AcDbLine
 10
176.676632342971
 20
303.9558529565495
 30
0.0
 11
178.3252721904463
 21
305.6044928040248
 31
0.0
  0
LINE
  5
9D5
330
9A5
100
AcDbEntity
  8
0
 62
     0
100
AcDbLine
 10
176.676632342971
 20
306.7842800812957
 30
0.0
 11
178.3008024252783
 21
308.408450163603
 31
0.0
  0
LINE
  5
9D6
330
9A5
100
AcDbEntity
  8
0
 62
     0
100
AcDbLine
 10
176.676632342971
 20
309.6127072060419
 30
0.0
 11
178.2763326601103
 21
311.2124075231812
 31
0.0
  0
LINE
  5
9D7
330
9A5
100
AcDbEntity
  8
0
 62
     0
100
AcDbLine
 10
176.676632342971
 20
312.4411343307881
 30
0.0
 11
178.2518628949424
 21
314.0163648827595
 31
0.0
  0
LINE
  5
9D8
330
9A5
100
AcDbEntity
  8
0
 62
     0
100
AcDbLine
 10
176.676632342971
 20
315.2695614555343
 30
0.0
 11
178.2273931297744
 21
316.8203222423377
 31
0.0
  0
LINE
  5
9D9
330
9A5
100
AcDbEntity
  8
0
 62
     0
100
AcDbLine
 10
176.676632342971
 20
318.0979885802805
 30
0.0
 11
178.2029233646064
 21
319.6242796019159
 31
0.0
  0
LINE
  5
9DA
330
9A5
100
AcDbEntity
  8
0
 62
     0
100
AcDbLine
 10
176.676632342971
 20
320.9264157050267
 30
0.0
 11
178.1784535994384
 21
322.4282369614941
 31
0.0
  0
LINE
  5
9DB
330
9A5
100
AcDbEntity
  8
0
 62
     0
100
AcDbLine
 10
176.676632342971
 20
323.7548428297728
 30
0.0
 11
177.3700716655493
 21
324.4482821523511
 31
0.0
  0
ENDBLK
  5
9DD
330
9A5
100
AcDbEntity
  8
0
100
AcDbBlockEnd
  0
BLOCK
  5
9FC
330
9DE
100
AcDbEntity
  8
0
100
AcDbBlockBegin
  2
*X2
 70
     1
 10
0.0
 20
0.0
 30
0.0
  3
*X2
  1

  0
LINE
  5
9DF
330
9DE
100
AcDbEntity
  8
0
 62
     0
100
AcDbLine
 10
235.8452517720211
 20
176.4482821523511
 30
0.0
 11
236.5905282442063
 21
177.1935586245362
 31
0.0
  0
LINE
  5
9E0
330
9DE
100
AcDbEntity
  8
0
 62
     0
100
AcDbLine
 10
235.0588121876752
 20
178.4902696927513
 30
0.0
 11
236.870242046016
 21
180.3016995510921
 31
0.0
  0
LINE
  5
9E1
330
9DE
100
AcDbEntity
  8
0
 62
     0
100
AcDbLine
 10
235.0343424225072
 20
181.2942270523296
 30
0.0
 11
236.920489497654
 21
183.1803741274764
 31
0.0
  0
LINE
  5
9E2
330
9DE
100
AcDbEntity
  8
0
 62
     0
100
AcDbLine
 10
235.0098726573393
 20
184.0981844119078
 30
0.0
 11
236.9707369492921
 21
186.0590487038606
 31
0.0
  0
LINE
  5
9E3
330
9DE
100
AcDbEntity
  8
0
 62
     0
100
AcDbLine
 10
234.9854028921714
 20
186.9021417714861
 30
0.0
 11
237.0209844009302
 21
188.9377232802449
 31
0.0
  0
LINE
  5
9E4
330
9DE
100
AcDbEntity
  8
0
 62
     0
100
AcDbLine
 10
234.9609331270034
 20
189.7060991310643
 30
0.0
 11
237.0712318525682
 21
191.8163978566291
 31
0.0
  0
LINE
  5
9E5
330
9DE
100
AcDbEntity
  8
0
 62
     0
100
AcDbLine
 10
234.9364633618354
 20
192.5100564906425
 30
0.0
 11
237.1214793042063
 21
194.6950724330134
 31
0.0
  0
LINE
  5
9E6
330
9DE
100
AcDbEntity
  8
0
 62
     0
100
AcDbLine
 10
234.9119935966674
 20
195.3140138502208
 30
0.0
 11
237.1717267558443
 21
197.5737470093976
 31
0.0
  0
LINE
  5
9E7
330
9DE
100
AcDbEntity
  8
0
 62
     0
100
AcDbLine
 10
234.8875238314995
 20
198.117971209799
 30
0.0
 11
237.2219742074824
 21
200.4524215857818
 31
0.0
  0
LINE
  5
9E8
330
9DE
100
AcDbEntity
  8
0
 62
     0
100
AcDbLine
 10
234.8630540663315
 20
200.9219285693772
 30
0.0
 11
237.2722216591204
 21
203.3310961621661
 31
0.0
  0
LINE
  5
9E9
330
9DE
100
AcDbEntity
  8
0
 62
     0
100
AcDbLine
 10
237.5609805245592
 20
206.4482821523511
 30
0.0
 11
240.176632342971
 21
209.0639339707629
 31
0.0
  0
LINE
  5
9EA
330
9DE
100
AcDbEntity
  8
0
 62
     0
100
AcDbLine
 10
234.8385843011635
 20
203.7258859289555
 30
0.0
 11
237.3224691107584
 21
206.2097707385503
 31
0.0
  0
LINE
  5
9EB
330
9DE
100
AcDbEntity
  8
0
 62
     0
100
AcDbLine
 10
237.6884652060397
 20
209.4041939585778
 30
0.0
 11
240.176632342971
 21
211.8923610955091
 31
0.0
  0
LINE
  5
9EC
330
9DE
100
AcDbEntity
  8
0
 62
     0
100
AcDbLine
 10
259.976656721822
 20
231.6923854743601
 30
0.0
 11
261.4047624526338
 21
233.1204912051719
 31
0.0
  0
LINE
  5
9ED
330
9DE
100
AcDbEntity
  8
0
 62
     0
100
AcDbLine
 10
234.8141145359956
 20
206.5298432885337
 30
0.0
 11
236.3325533998116
 21
208.0482821523496
 31
0.0
  0
LINE
  5
9EE
330
9DE
100
AcDbEntity
  8
0
 62
     0
100
AcDbLine
 10
256.9917998784357
 20
231.5359557557199
 30
0.0
 11
258.5981156344006
 21
233.1422715116848
 31
0.0
  0
LINE
  5
9EF
330
9DE
100
AcDbEntity
  8
0
 62
     0
100
AcDbLine
 10
237.7133658199789
 20
212.2575216972632
 30
0.0
 11
240.176632342971
 21
214.7207882202553
 31
0.0
  0
LINE
  5
9F0
330
9DE
100
AcDbEntity
  8
0
 62
     0
100
AcDbLine
 10
254.0069430350493
 20
231.3795260370798
 30
0.0
 11
255.6737493956479
 21
233.0463323976784
 31
0.0
  0
LINE
  5
9F1
330
9DE
100
AcDbEntity
  8
0
 62
     0
100
AcDbLine
 10
237.7382664339182
 20
215.1108494359486
 30
0.0
 11
240.176632342971
 21
217.5492153450014
 31
0.0
  0
LINE
  5
9F2
330
9DE
100
AcDbEntity
  8
0
 62
     0
100
AcDbLine
 10
251.022086191663
 20
231.2230963184396
 30
0.0
 11
252.7493831568952
 21
232.9503932836718
 31
0.0
  0
LINE
  5
9F3
330
9DE
100
AcDbEntity
  8
0
 62
     0
100
AcDbLine
 10
237.7631670478574
 20
217.964177174634
 30
0.0
 11
240.176632342971
 21
220.3776424697476
 31
0.0
  0
LINE
  5
9F4
330
9DE
100
AcDbEntity
  8
0
 62
     0
100
AcDbLine
 10
248.0372293482766
 20
231.0666665997995
 30
0.0
 11
249.8250169181425
 21
232.8544541696654
 31
0.0
  0
LINE
  5
9F5
330
9DE
100
AcDbEntity
  8
0
 62
     0
100
AcDbLine
 10
237.7880676617966
 20
220.8175049133194
 30
0.0
 11
240.176632342971
 21
223.2060695944938
 31
0.0
  0
LINE
  5
9F6
330
9DE
100
AcDbEntity
  8
0
 62
     0
100
AcDbLine
 10
245.0523725048903
 20
230.9102368811593
 30
0.0
 11
246.9006506793899
 21
232.7585150556589
 31
0.0
  0
LINE
  5
9F7
330
9DE
100
AcDbEntity
  8
0
 62
     0
100
AcDbLine
 10
237.8129682757357
 20
223.6708326520048
 30
0.0
 11
240.176632342971
 21
226.03449671924
 31
0.0
  0
LINE
  5
9F8
330
9DE
100
AcDbEntity
  8
0
 62
     0
100
AcDbLine
 10
242.0675156615039
 20
230.7538071625192
 30
0.0
 11
243.9762844406372
 21
232.6625759416524
 31
0.0
  0
LINE
  5
9F9
330
9DE
100
AcDbEntity
  8
0
 62
     0
100
AcDbLine
 10
237.8378688896749
 20
226.5241603906902
 30
0.0
 11
240.176632342971
 21
228.8629238439863
 31
0.0
  0
LINE
  5
9FA
330
9DE
100
AcDbEntity
  8
0
 62
     0
100
AcDbLine
 10
237.8627695036142
 20
229.3774881293756
 30
0.0
 11
241.0519182018845
 21
232.5666368276459
 31
0.0
  0
LINE
  5
9FB
330
9DE
100
AcDbEntity
  8
0
 62
     0
100
AcDbLine
 10
237.8876701175534
 20
232.230815868061
 30
0.0
 11
238.1275519631318
 21
232.4706977136394
 31
0.0
  0
ENDBLK
  5
9FD
330
9DE
100
AcDbEntity
  8
0
100
AcDbBlockEnd
  0
BLOCK
  5
A0A
330
9FE
100
AcDbEntity
  8
0
100
AcDbBlockBegin
  2
*X3
 70
     1
 10
0.0
 20
0.0
 30
0.0
  3
*X3
  1

  0
LINE
  5
9FF
330
9FE
100
AcDbEntity
  8
0
 62
     0
100
AcDbLine
 10
240.176632342971
 20
331.1656468557593
 30
0.0
 11
239.8939970463792
 21
331.4482821523511
 31
0.0
  0
LINE
  5
A00
330
9FE
100
AcDbEntity
  8
0
 62
     0
100
AcDbLine
 10
240.176632342971
 20
328.3372197310132
 30
0.0
 11
238.3652898589141
 21
330.14856221507
 31
0.0
  0
LINE
  5
A01
330
9FE
100
AcDbEntity
  8
0
 62
     0
100
AcDbLine
 10
240.1766323429709
 20
325.5087926062669
 30
0.0
 11
238.3408200937461
 21
327.3446048554918
 31
0.0
  0
LINE
  5
A02
330
9FE
100
AcDbEntity
  8
0
 62
     0
100
AcDbLine
 10
238.4087156721407
 20
324.4482821523511
 30
0.0
 11
236.4087156721407
 21
326.4482821523511
 31
0.0
  0
LINE
  5
A03
330
9FE
100
AcDbEntity
  8
0
 62
     0
100
AcDbLine
 10
235.5802885473945
 20
324.4482821523511
 30
0.0
 11
233.5802885473945
 21
326.4482821523511
 31
0.0
  0
LINE
  5
A04
330
9FE
100
AcDbEntity
  8
0
 62
     0
100
AcDbLine
 10
232.7518614226483
 20
324.448282152351
 30
0.0
 11
230.7518614226483
 21
326.4482821523511
 31
0.0
  0
LINE
  5
A05
330
9FE
100
AcDbEntity
  8
0
 62
     0
100
AcDbLine
 10
229.9234342979021
 20
324.448282152351
 30
0.0
 11
227.9234342979021
 21
326.4482821523511
 31
0.0
  0
LINE
  5
A06
330
9FE
100
AcDbEntity
  8
0
 62
     0
100
AcDbLine
 10
227.0950071731559
 20
324.448282152351
 30
0.0
 11
225.0950071731559
 21
326.4482821523511
 31
0.0
  0
LINE
  5
A07
330
9FE
100
AcDbEntity
  8
0
 62
     0
100
AcDbLine
 10
224.2665800484097
 20
324.4482821523511
 30
0.0
 11
222.2665800484097
 21
326.4482821523511
 31
0.0
  0
LINE
  5
A08
330
9FE
100
AcDbEntity
  8
0
 62
     0
100
AcDbLine
 10
221.4381529236636
 20
324.4482821523511
 30
0.0
 11
219.4381529236635
 21
326.4482821523511
 31
0.0
  0
LINE
  5
A09
330
9FE
100
AcDbEntity
  8
0
 62
     0
100
AcDbLine
 10
218.6097257989174
 20
324.4482821523511
 30
0.0
 11
216.6097257989174
 21
326.4482821523511
 31
0.0
  0
ENDBLK
  5
A0B
330
9FE
100
AcDbEntity
  8
0
100
AcDbBlockEnd
  0
BLOCK
  5
A18
330
A0C
100
AcDbEntity
  8
0
100
AcDbBlockBegin
  2
*X4
 70
     1
 10
0.0
 20
0.0
 30
0.0
  3
*X4
  1

  0
LINE
  5
A0D
330
A0C
100
AcDbEntity
  8
0
 62
     0
100
AcDbLine
 10
200.926632342971
 20
325.1608128598203
 30
0.0
 11
199.6391630504402
 21
326.4482821523511
 31
0.0
  0
LINE
  5
A0E
330
A0C
100
AcDbEntity
  8
0
 62
     0
100
AcDbLine
 10
198.810735925694
 20
324.448282152351
 30
0.0
 11
196.810735925694
 21
326.4482821523511
 31
0.0
  0
LINE
  5
A0F
330
A0C
100
AcDbEntity
  8
0
 62
     0
100
AcDbLine
 10
195.9823088009478
 20
324.4482821523511
 30
0.0
 11
193.9823088009478
 21
326.4482821523511
 31
0.0
  0
LINE
  5
A10
330
A0C
100
AcDbEntity
  8
0
 62
     0
100
AcDbLine
 10
193.1538816762017
 20
324.4482821523511
 30
0.0
 11
191.1538816762017
 21
326.4482821523511
 31
0.0
  0
LINE
  5
A11
330
A0C
100
AcDbEntity
  8
0
 62
     0
100
AcDbLine
 10
190.3254545514555
 20
324.4482821523511
 30
0.0
 11
188.3254545514555
 21
326.4482821523511
 31
0.0
  0
LINE
  5
A12
330
A0C
100
AcDbEntity
  8
0
 62
     0
100
AcDbLine
 10
187.4970274267093
 20
324.4482821523511
 30
0.0
 11
185.4970274267092
 21
326.4482821523511
 31
0.0
  0
LINE
  5
A13
330
A0C
100
AcDbEntity
  8
0
 62
     0
100
AcDbLine
 10
178.4837460118112
 20
330.6331364425029
 30
0.0
 11
177.668600301963
 21
331.4482821523511
 31
0.0
  0
LINE
  5
A14
330
A0C
100
AcDbEntity
  8
0
 62
     0
100
AcDbLine
 10
184.6686003019631
 20
324.4482821523511
 30
0.0
 11
182.6686003019631
 21
326.4482821523511
 31
0.0
  0
LINE
  5
A15
330
A0C
100
AcDbEntity
  8
0
 62
     0
100
AcDbLine
 10
178.5086466257505
 20
327.7798087038175
 30
0.0
 11
176.676632342971
 21
329.6118229865969
 31
0.0
  0
LINE
  5
A16
330
A0C
100
AcDbEntity
  8
0
 62
     0
100
AcDbLine
 10
181.8401731772169
 20
324.4482821523511
 30
0.0
 11
179.8401731772169
 21
326.4482821523511
 31
0.0
  0
LINE
  5
A17
330
A0C
100
AcDbEntity
  8
0
 62
     0
100
AcDbLine
 10
179.0117460524707
 20
324.4482821523511
 30
0.0
 11
176.676632342971
 21
326.7833958618507
 31
0.0
  0
ENDBLK
  5
A19
330
A0C
100
AcDbEntity
  8
0
100
AcDbBlockEnd
  0
BLOCK
  5
A2F
330
A1A
100
AcDbEntity
  8
0
100
AcDbBlockBegin
  2
*X5
 70
     1
 10
0.0
 20
0.0
 30
0.0
  3
*X5
  1

  0
LINE
  5
A1B
330
A1A
100
AcDbEntity
  8
0
 62
     0
100
AcDbLine
 10
259.899972072656
 20
293.8410975696103
 30
0.0
 11
261.4137170909139
 21
295.3548425878681
 31
0.0
  0
LINE
  5
A1C
330
A1A
100
AcDbEntity
  8
0
 62
     0
100
AcDbLine
 10
256.8519370897585
 20
293.6214897114588
 30
0.0
 11
258.4288602475274
 21
295.1984128692278
 31
0.0
  0
LINE
  5
A1D
330
A1A
100
AcDbEntity
  8
0
 62
     0
100
AcDbLine
 10
253.8039021068609
 20
293.4018818533075
 30
0.0
 11
255.4440034041409
 21
295.0419831505875
 31
0.0
  0
LINE
  5
A1E
330
A1A
100
AcDbEntity
  8
0
 62
     0
100
AcDbLine
 10
250.7558671239633
 20
293.1822739951561
 30
0.0
 11
252.4591465607544
 21
294.8855534319473
 31
0.0
  0
LINE
  5
A1F
330
A1A
100
AcDbEntity
  8
0
 62
     0
100
AcDbLine
 10
247.7078321410657
 20
292.9626661370047
 30
0.0
 11
249.474289717368
 21
294.729123713307
 31
0.0
  0
LINE
  5
A20
330
A1A
100
AcDbEntity
  8
0
 62
     0
100
AcDbLine
 10
244.6597971581681
 20
292.7430582788534
 30
0.0
 11
246.4894328739815
 21
294.5726939946668
 31
0.0
  0
LINE
  5
A21
330
A1A
100
AcDbEntity
  8
0
 62
     0
100
AcDbLine
 10
241.6117621752706
 20
292.5234504207019
 30
0.0
 11
243.5045760305951
 21
294.4162642760264
 31
0.0
  0
LINE
  5
A22
330
A1A
100
AcDbEntity
  8
0
 62
     0
100
AcDbLine
 10
239.4483377643756
 20
290.3600260098069
 30
0.0
 11
240.2429498124301
 21
291.1546380578613
 31
0.0
  0
LINE
  5
A23
330
A1A
100
AcDbEntity
  8
0
 62
     0
100
AcDbLine
 10
238.4105830102796
 20
292.1506983804572
 30
0.0
 11
240.5459962469933
 21
294.2861116171709
 31
0.0
  0
LINE
  5
A24
330
A1A
100
AcDbEntity
  8
0
 62
     0
100
AcDbLine
 10
238.4354836242187
 20
295.0040261191424
 30
0.0
 11
240.176632342971
 21
296.7451748378948
 31
0.0
  0
LINE
  5
A25
330
A1A
100
AcDbEntity
  8
0
 62
     0
100
AcDbLine
 10
238.4603842381576
 20
297.8573538578276
 30
0.0
 11
240.176632342971
 21
299.573601962641
 31
0.0
  0
LINE
  5
A26
330
A1A
100
AcDbEntity
  8
0
 62
     0
100
AcDbLine
 10
238.4852848520966
 20
300.7106815965128
 30
0.0
 11
240.176632342971
 21
302.4020290873871
 31
0.0
  0
LINE
  5
A27
330
A1A
100
AcDbEntity
  8
0
 62
     0
100
AcDbLine
 10
238.5101854660357
 20
303.564009335198
 30
0.0
 11
240.176632342971
 21
305.2304562121333
 31
0.0
  0
LINE
  5
A28
330
A1A
100
AcDbEntity
  8
0
 62
     0
100
AcDbLine
 10
238.5350860799746
 20
306.4173370738831
 30
0.0
 11
240.1766323429709
 21
308.0588833368794
 31
0.0
  0
LINE
  5
A29
330
A1A
100
AcDbEntity
  8
0
 62
     0
100
AcDbLine
 10
238.5599866939136
 20
309.2706648125683
 30
0.0
 11
240.176632342971
 21
310.8873104616257
 31
0.0
  0
LINE
  5
A2A
330
A1A
100
AcDbEntity
  8
0
 62
     0
100
AcDbLine
 10
238.5848873078526
 20
312.1239925512536
 30
0.0
 11
240.176632342971
 21
313.7157375863719
 31
0.0
  0
LINE
  5
A2B
330
A1A
100
AcDbEntity
  8
0
 62
     0
100
AcDbLine
 10
238.6097879217916
 20
314.9773202899388
 30
0.0
 11
240.176632342971
 21
316.5441647111181
 31
0.0
  0
LINE
  5
A2C
330
A1A
100
AcDbEntity
  8
0
 62
     0
100
AcDbLine
 10
238.6346885357306
 20
317.8306480286238
 30
0.0
 11
240.176632342971
 21
319.3725918358643
 31
0.0
  0
LINE
  5
A2D
330
A1A
100
AcDbEntity
  8
0
 62
     0
100
AcDbLine
 10
238.6595891496696
 20
320.6839757673091
 30
0.0
 11
240.1766323429709
 21
322.2010189606104
 31
0.0
  0
LINE
  5
A2E
330
A1A
100
AcDbEntity
  8
0
 62
     0
100
AcDbLine
 10
238.7750606782448
 20
323.6278744206305
 30
0.0
 11
239.5954684099654
 21
324.4482821523511
 31
0.0
  0
ENDBLK
  5
A30
330
A1A
100
AcDbEntity
  8
0
100
AcDbBlockEnd
  0
BLOCK
  5
D14
330
D09
100
AcDbEntity
  8
0
100
AcDbBlockBegin
  2
*D6
 70
     1
 10
0.0
 20
0.0
 30
0.0
  3
*D6
  1

  0
LINE
  5
12A9
330
D09
100
AcDbEntity
  8
SUNPOU
 62
     4
100
AcDbLine
 10
57.71999324010494
 20
183.8061324813678
 30
0.0
 11
34.94676001220797
 21
183.8061324813678
 31
0.0
  0
LINE
  5
12AA
330
D09
100
AcDbEntity
  8
SUNPOU
 62
     4
100
AcDbLine
 10
89.46999324010494
 20
113.0046532454906
 30
0.0
 11
34.94676001220796
 21
113.0046532454906
 31
0.0
  0
LINE
  5
12AB
330
D09
100
AcDbEntity
  8
SUNPOU
 62
     4
100
AcDbLine
 10
36.44676001220797
 20
180.8061324813678
 30
0.0
 11
36.44676001220796
 21
116.0046532454906
 31
0.0
  0
INSERT
  5
12AC
330
D09
100
AcDbEntity
  8
SUNPOU
 62
     4
100
AcDbBlockReference
  2
_OPEN
 10
36.44676001220797
 20
183.8061324813678
 30
0.0
 41
3.0
 42
3.0
 43
3.0
 50
90.0
  0
INSERT
  5
12AD
330
D09
100
AcDbEntity
  8
SUNPOU
 62
     4
100
AcDbBlockReference
  2
_OPEN
 10
36.44676001220796
 20
113.0046532454906
 30
0.0
 41
3.0
 42
3.0
 43
3.0
 50
270.0
  0
MTEXT
  5
12AE
330
D09
100
AcDbEntity
  8
SUNPOU
 62
     4
100
AcDbMText
 10
33.94676001220794
 20
148.4053928634292
 30
0.0
 40
3.0
 41
0.0
 71
     5
 72
     5
  1
\A1;71
 11
0.0000000000000001
 21
1.0
 31
0.0
 73
     1
 44
1.0
1001
ACAD
1000
MTEXTBEGIN
1070
    73
1070
     1
1070
    44
1040
1.0
1070
    74
1070
     0
1000
MTEXTEND
1000
MTEXTBEGIN
1070
    73
1070
     1
1070
    44
1040
1.0
1070
    74
1070
     0
1000
MTEXTEND
1000
MTEXTBEGIN
1070
    73
1070
     1
1070
    44
1040
1.0
1070
    74
1070
     0
1000
MTEXTEND
1000
MTEXTBEGIN
1070
    73
1070
     1
1070
    44
1040
1.0
1070
    74
1070
     0
1000
MTEXTEND
  0
POINT
  5
12AF
330
D09
100
AcDbEntity
  8
DEFPOINTS
 62
     0
100
AcDbPoint
 10
60.71999324010494
 20
183.8061324813678
 30
0.0
  0
POINT
  5
12B0
330
D09
100
AcDbEntity
  8
DEFPOINTS
 62
     0
100
AcDbPoint
 10
92.46999324010493
 20
113.0046532454906
 30
0.0
  0
POINT
  5
12B1
330
D09
100
AcDbEntity
  8
DEFPOINTS
 62
     0
100
AcDbPoint
 10
36.44676001220796
 20
113.0046532454906
 30
0.0
  0
ENDBLK
  5
D15
330
D09
100
AcDbEntity
  8
0
100
AcDbBlockEnd
  0
BLOCK
  5
D21
330
D16
100
AcDbEntity
  8
0
100
AcDbBlockBegin
  2
*D7
 70
     1
 10
0.0
 20
0.0
 30
0.0
  3
*D7
  1

  0
LINE
  5
12B2
330
D16
100
AcDbEntity
  8
SUNPOU
 62
     4
100
AcDbLine
 10
150.2145113791021
 20
145.9592747439998
 30
0.0
 11
167.0992548966064
 21
146.8441666555166
 31
0.0
  0
LINE
  5
12B3
330
D16
100
AcDbEntity
  8
SUNPOU
 62
     4
100
AcDbLine
 10
153.3285007755594
 20
86.54081742610804
 30
0.0
 11
170.2132442930637
 21
87.42570933762488
 31
0.0
  0
LINE
  5
12B4
330
D16
100
AcDbEntity
  8
SUNPOU
 62
     4
100
AcDbLine
 10
165.7583184632035
 20
143.7697741168884
 30
0.0
 11
168.5582921222029
 21
90.34309400752411
 31
0.0
  0
INSERT
  5
12B5
330
D16
100
AcDbEntity
  8
SUNPOU
 62
     4
100
AcDbBlockReference
  2
_OPEN
 10
165.6013105944745
 20
146.7656627211522
 30
0.0
 41
3.0
 42
3.0
 43
3.0
 50
93.00000000000236
  0
INSERT
  5
12B6
330
D16
100
AcDbEntity
  8
SUNPOU
 62
     4
100
AcDbBlockReference
  2
_OPEN
 10
168.7152999909319
 20
87.34720540326041
 30
0.0
 41
3.0
 42
3.0
 43
3.0
 50
273.0000000000023
  0
MTEXT
  5
12B7
330
D16
100
AcDbEntity
  8
SUNPOU
 62
     4
100
AcDbMText
 10
169.6548791295896
 20
117.1872739528137
 30
0.0
 40
3.0
 41
0.0
 71
     5
 72
     5
  1
\A1;φ60
 11
0.052335956242985
 21
-0.9986295347545716
 31
0.0
 73
     1
 44
1.0
1001
ACAD
1000
MTEXTBEGIN
1070
    73
1070
     1
1070
    44
1040
1.0
1070
    74
1070
     0
1000
MTEXTEND
1000
MTEXTBEGIN
1070
    73
1070
     1
1070
    44
1040
1.0
1070
    74
1070
     0
1000
MTEXTEND
1000
MTEXTBEGIN
1070
    73
1070
     1
1070
    44
1040
1.0
1070
    74
1070
     0
1000
MTEXTEND
1000
MTEXTBEGIN
1070
    73
1070
     1
1070
    44
1040
1.0
1070
    74
1070
     0
1000
MTEXTEND
  0
POINT
  5
12B8
330
D16
100
AcDbEntity
  8
DEFPOINTS
 62
     0
100
AcDbPoint
 10
147.2186227748384
 20
145.8022668752709
 30
0.0
  0
POINT
  5
12B9
330
D16
100
AcDbEntity
  8
DEFPOINTS
 62
     0
100
AcDbPoint
 10
150.3326121712957
 20
86.38380955737909
 30
0.0
  0
POINT
  5
12BA
330
D16
100
AcDbEntity
  8
DEFPOINTS
 62
     0
100
AcDbPoint
 10
168.7152999909319
 20
87.34720540326041
 30
0.0
  0
ENDBLK
  5
D22
330
D16
100
AcDbEntity
  8
0
100
AcDbBlockEnd
  0
BLOCK
  5
D2E
330
D23
100
AcDbEntity
  8
0
100
AcDbBlockBegin
  2
*D8
 70
     1
 10
0.0
 20
0.0
 30
0.0
  3
*D8
  1

  0
LINE
  5
12BB
330
D23
100
AcDbEntity
  8
SUNPOU
 62
     4
100
AcDbLine
 10
57.71999324010494
 20
183.8061324813678
 30
0.0
 11
26.6504721574652
 21
183.8061324813678
 31
0.0
  0
LINE
  5
12BC
330
D23
100
AcDbEntity
  8
SUNPOU
 62
     4
100
AcDbLine
 10
61.39364518795037
 20
28.80613248136785
 30
0.0
 11
26.65047215746517
 21
28.80613248136786
 31
0.0
  0
LINE
  5
12BD
330
D23
100
AcDbEntity
  8
SUNPOU
 62
     4
100
AcDbLine
 10
28.1504721574652
 20
180.8061324813678
 30
0.0
 11
28.15047215746517
 21
31.80613248136786
 31
0.0
  0
INSERT
  5
12BE
330
D23
100
AcDbEntity
  8
SUNPOU
 62
     4
100
AcDbBlockReference
  2
_OPEN
 10
28.1504721574652
 20
183.8061324813678
 30
0.0
 41
3.0
 42
3.0
 43
3.0
 50
90.0
  0
INSERT
  5
12BF
330
D23
100
AcDbEntity
  8
SUNPOU
 62
     4
100
AcDbBlockReference
  2
_OPEN
 10
28.15047215746517
 20
28.80613248136786
 30
0.0
 41
3.0
 42
3.0
 43
3.0
 50
270.0
  0
MTEXT
  5
12C0
330
D23
100
AcDbEntity
  8
SUNPOU
 62
     4
100
AcDbMText
 10
25.65047215746517
 20
104.7343169923435
 30
0.0
 40
3.0
 41
0.0
 71
     5
 72
     5
  1
\A1;155
 11
0.0000000000000001
 21
1.0
 31
0.0
 73
     1
 44
1.0
1001
ACAD
1000
MTEXTBEGIN
1070
    73
1070
     1
1070
    44
1040
1.0
1070
    74
1070
     0
1000
MTEXTEND
1000
MTEXTBEGIN
1070
    73
1070
     1
1070
    44
1040
1.0
1070
    74
1070
     0
1000
MTEXTEND
1000
MTEXTBEGIN
1070
    73
1070
     1
1070
    44
1040
1.0
1070
    74
1070
     0
1000
MTEXTEND
1000
MTEXTBEGIN
1070
    73
1070
     1
1070
    44
1040
1.0
1070
    74
1070
     0
1000
MTEXTEND
  0
POINT
  5
12C1
330
D23
100
AcDbEntity
  8
DEFPOINTS
 62
     0
100
AcDbPoint
 10
60.71999324010494
 20
183.8061324813678
 30
0.0
  0
POINT
  5
12C2
330
D23
100
AcDbEntity
  8
DEFPOINTS
 62
     0
100
AcDbPoint
 10
64.39364518795037
 20
28.80613248136785
 30
0.0
  0
POINT
  5
12C3
330
D23
100
AcDbEntity
  8
DEFPOINTS
 62
     0
100
AcDbPoint
 10
28.15047215746517
 20
28.80613248136786
 30
0.0
  0
ENDBLK
  5
D2F
330
D23
100
AcDbEntity
  8
0
100
AcDbBlockEnd
  0
BLOCK
  5
D3B
330
D30
100
AcDbEntity
  8
0
100
AcDbBlockBegin
  2
*D9
 70
     1
 10
0.0
 20
0.0
 30
0.0
  3
*D9
  1

  0
ARC
  5
17D9
330
D30
100
AcDbEntity
  8
SUNPOU
 62
     4
100
AcDbCircle
 10
92.46999324010495
 20
113.00465324549
 30
0.0
 40
25.94257283777266
100
AcDbArc
 50
9.819996487952909
 51
83.37061677327715
  0
INSERT
  5
17DA
330
D30
100
AcDbEntity
  8
SUNPOU
 62
     4
100
AcDbBlockReference
  2
_OPEN
 10
118.3723523917421
 20
114.4485631536002
 30
0.0
 41
3.0
 42
3.0
 43
3.0
 50
276.5053048745915
  0
INSERT
  5
17DB
330
D30
100
AcDbEntity
  8
SUNPOU
 62
     4
100
AcDbBlockReference
  2
_OPEN
 10
92.46999324010493
 20
138.9472260832627
 30
0.0
 41
3.0
 42
3.0
 43
3.0
 50
176.6853083866385
  0
MTEXT
  5
17DC
330
D30
100
AcDbEntity
  8
SUNPOU
 62
     4
100
AcDbMText
 10
112.0142225682902
 20
133.6687053553572
 30
0.0
 40
3.0
 41
0.0
 71
     5
 72
     5
  1
\A1;87°
 11
0.726518385932534
 21
-0.6871470256808115
 31
0.0
 73
     1
 44
1.0
  0
POINT
  5
17DD
330
D30
100
AcDbEntity
  8
DEFPOINTS
 62
     0
100
AcDbPoint
 10
114.439998339709
 20
126.8008832148153
 30
0.0
  0
POINT
  5
17DE
330
D30
100
AcDbEntity
  8
DEFPOINTS
 62
     0
100
AcDbPoint
 10
152.7842956402069
 20
116.3668342084837
 30
0.0
  0
POINT
  5
17DF
330
D30
100
AcDbEntity
  8
DEFPOINTS
 62
     0
100
AcDbPoint
 10
92.46999324010497
 20
188.4771842432796
 30
0.0
  0
POINT
  5
17E0
330
D30
100
AcDbEntity
  8
DEFPOINTS
 62
     0
100
AcDbPoint
 10
92.46999324010493
 20
20.38032394710886
 30
0.0
  0
POINT
  5
17E1
330
D30
100
AcDbEntity
  8
DEFPOINTS
 62
     0
100
AcDbPoint
 10
88.30958136108938
 20
112.7727338323292
 30
0.0
  0
ENDBLK
  5
D3C
330
D30
100
AcDbEntity
  8
0
100
AcDbBlockEnd
  0
BLOCK
  5
D48
330
D3D
100
AcDbEntity
  8
0
100
AcDbBlockBegin
  2
*D10
 70
     1
 10
0.0
 20
0.0
 30
0.0
  3
*D10
  1

  0
LINE
  5
12CE
330
D3D
100
AcDbEntity
  8
SUNPOU
 62
     4
100
AcDbLine
 10
89.46999324010494
 20
113.0046532454906
 30
0.0
 11
34.94676001220797
 21
113.0046532454906
 31
0.0
  0
LINE
  5
12CF
330
D3D
100
AcDbEntity
  8
SUNPOU
 62
     4
100
AcDbLine
 10
57.71999324010494
 20
58.80613248136786
 30
0.0
 11
34.94676001220796
 21
58.80613248136786
 31
0.0
  0
LINE
  5
12D0
330
D3D
100
AcDbEntity
  8
SUNPOU
 62
     4
100
AcDbLine
 10
36.44676001220796
 20
110.0046532454906
 30
0.0
 11
36.44676001220796
 21
61.80613248136786
 31
0.0
  0
INSERT
  5
12D1
330
D3D
100
AcDbEntity
  8
SUNPOU
 62
     4
100
AcDbBlockReference
  2
_OPEN
 10
36.44676001220797
 20
113.0046532454906
 30
0.0
 41
3.0
 42
3.0
 43
3.0
 50
90.0
  0
INSERT
  5
12D2
330
D3D
100
AcDbEntity
  8
SUNPOU
 62
     4
100
AcDbBlockReference
  2
_OPEN
 10
36.44676001220796
 20
58.80613248136786
 30
0.0
 41
3.0
 42
3.0
 43
3.0
 50
270.0
  0
MTEXT
  5
12D3
330
D3D
100
AcDbEntity
  8
SUNPOU
 62
     4
100
AcDbMText
 10
33.94676001220795
 20
85.90539286342927
 30
0.0
 40
3.0
 41
0.0
 71
     5
 72
     5
  1
\A1;54
 11
0.0000000000000001
 21
1.0
 31
0.0
 73
     1
 44
1.0
1001
ACAD
1000
MTEXTBEGIN
1070
    73
1070
     1
1070
    44
1040
1.0
1070
    74
1070
     0
1000
MTEXTEND
1000
MTEXTBEGIN
1070
    73
1070
     1
1070
    44
1040
1.0
1070
    74
1070
     0
1000
MTEXTEND
1000
MTEXTBEGIN
1070
    73
1070
     1
1070
    44
1040
1.0
1070
    74
1070
     0
1000
MTEXTEND
1000
MTEXTBEGIN
1070
    73
1070
     1
1070
    44
1040
1.0
1070
    74
1070
     0
1000
MTEXTEND
  0
POINT
  5
12D4
330
D3D
100
AcDbEntity
  8
DEFPOINTS
 62
     0
100
AcDbPoint
 10
92.46999324010493
 20
113.0046532454906
 30
0.0
  0
POINT
  5
12D5
330
D3D
100
AcDbEntity
  8
DEFPOINTS
 62
     0
100
AcDbPoint
 10
60.71999324010494
 20
58.80613248136786
 30
0.0
  0
POINT
  5
12D6
330
D3D
100
AcDbEntity
  8
DEFPOINTS
 62
     0
100
AcDbPoint
 10
36.44676001220796
 20
58.80613248136786
 30
0.0
  0
ENDBLK
  5
D49
330
D3D
100
AcDbEntity
  8
0
100
AcDbBlockEnd
  0
BLOCK
  5
D55
330
D4A
100
AcDbEntity
  8
0
100
AcDbBlockBegin
  2
*D11
 70
     1
 10
0.0
 20
0.0
 30
0.0
  3
*D11
  1

  0
LINE
  5
12D7
330
D4A
100
AcDbEntity
  8
SUNPOU
 62
     4
100
AcDbLine
 10
127.2199932401049
 20
58.80613248136786
 30
0.0
 11
147.1360678214084
 21
58.80613248136785
 31
0.0
  0
LINE
  5
12D8
330
D4A
100
AcDbEntity
  8
SUNPOU
 62
     4
100
AcDbLine
 10
123.5463412922586
 20
28.80613248136785
 30
0.0
 11
147.1360678214084
 21
28.80613248136785
 31
0.0
  0
LINE
  5
12D9
330
D4A
100
AcDbEntity
  8
SUNPOU
 62
     4
100
AcDbLine
 10
145.6360678214084
 20
55.80613248136785
 30
0.0
 11
145.6360678214084
 21
31.80613248136785
 31
0.0
  0
INSERT
  5
12DA
330
D4A
100
AcDbEntity
  8
SUNPOU
 62
     4
100
AcDbBlockReference
  2
_OPEN
 10
145.6360678214084
 20
58.80613248136785
 30
0.0
 41
3.0
 42
3.0
 43
3.0
 50
90.0
  0
INSERT
  5
12DB
330
D4A
100
AcDbEntity
  8
SUNPOU
 62
     4
100
AcDbBlockReference
  2
_OPEN
 10
145.6360678214084
 20
28.80613248136785
 30
0.0
 41
3.0
 42
3.0
 43
3.0
 50
270.0
  0
MTEXT
  5
12DC
330
D4A
100
AcDbEntity
  8
SUNPOU
 62
     4
100
AcDbMText
 10
143.1360678214084
 20
43.80613248136787
 30
0.0
 40
3.0
 41
0.0
 71
     5
 72
     5
  1
\A1;※ａ30
 11
0.0000000000000001
 21
1.0
 31
0.0
 73
     1
 44
1.0
1001
ACAD
1000
MTEXTBEGIN
1070
    73
1070
     1
1070
    44
1040
1.0
1070
    74
1070
     0
1000
MTEXTEND
1000
MTEXTBEGIN
1070
    73
1070
     1
1070
    44
1040
1.0
1070
    74
1070
     0
1000
MTEXTEND
1000
MTEXTBEGIN
1070
    73
1070
     1
1070
    44
1040
1.0
1070
    74
1070
     0
1000
MTEXTEND
1000
MTEXTBEGIN
1070
    73
1070
     1
1070
    44
1040
1.0
1070
    74
1070
     0
1000
MTEXTEND
  0
POINT
  5
12DD
330
D4A
100
AcDbEntity
  8
DEFPOINTS
 62
     0
100
AcDbPoint
 10
124.2199932401049
 20
58.80613248136786
 30
0.0
  0
POINT
  5
12DE
330
D4A
100
AcDbEntity
  8
DEFPOINTS
 62
     0
100
AcDbPoint
 10
120.5463412922586
 20
28.80613248136785
 30
0.0
  0
POINT
  5
12DF
330
D4A
100
AcDbEntity
  8
DEFPOINTS
 62
     0
100
AcDbPoint
 10
145.6360678214084
 20
28.80613248136785
 30
0.0
  0
ENDBLK
  5
D56
330
D4A
100
AcDbEntity
  8
0
100
AcDbBlockEnd
  0
BLOCK
  5
D62
330
D57
100
AcDbEntity
  8
0
100
AcDbBlockBegin
  2
*D12
 70
     1
 10
0.0
 20
0.0
 30
0.0
  3
*D12
  1

  0
LINE
  5
12E0
330
D57
100
AcDbEntity
  8
SUNPOU
 62
     4
100
AcDbLine
 10
64.0412879686387
 20
28.80567556683661
 30
0.0
 11
64.0412879686387
 21
17.10873549033772
 31
0.0
  0
LINE
  5
12E1
330
D57
100
AcDbEntity
  8
SUNPOU
 62
     4
100
AcDbLine
 10
120.8986985115711
 20
28.80567556683661
 30
0.0
 11
120.8986985115711
 21
17.10873549033772
 31
0.0
  0
LINE
  5
12E2
330
D57
100
AcDbEntity
  8
SUNPOU
 62
     4
100
AcDbLine
 10
67.04128796863869
 20
18.60873549033772
 30
0.0
 11
117.8986985115711
 21
18.60873549033772
 31
0.0
  0
INSERT
  5
12E3
330
D57
100
AcDbEntity
  8
SUNPOU
 62
     4
100
AcDbBlockReference
  2
_OPEN
 10
64.0412879686387
 20
18.60873549033772
 30
0.0
 41
3.0
 42
3.0
 43
3.0
 50
180.0
  0
INSERT
  5
12E4
330
D57
100
AcDbEntity
  8
SUNPOU
 62
     4
100
AcDbBlockReference
  2
_OPEN
 10
120.8986985115711
 20
18.60873549033772
 30
0.0
 41
3.0
 42
3.0
 43
3.0
  0
MTEXT
  5
12E5
330
D57
100
AcDbEntity
  8
SUNPOU
 62
     4
100
AcDbMText
 10
92.46999324010493
 20
21.10873549033772
 30
0.0
 40
3.0
 41
0.0
 71
     5
 72
     5
  1
\A1;φ57
 73
     1
 44
1.0
1001
ACAD
1000
MTEXTBEGIN
1070
    73
1070
     1
1070
    44
1040
1.0
1070
    74
1070
     0
1000
MTEXTEND
1000
MTEXTBEGIN
1070
    73
1070
     1
1070
    44
1040
1.0
1070
    74
1070
     0
1000
MTEXTEND
1000
MTEXTBEGIN
1070
    73
1070
     1
1070
    44
1040
1.0
1070
    74
1070
     0
1000
MTEXTEND
1000
MTEXTBEGIN
1070
    73
1070
     1
1070
    44
1040
1.0
1070
    74
1070
     0
1000
MTEXTEND
  0
POINT
  5
12E6
330
D57
100
AcDbEntity
  8
DEFPOINTS
 62
     0
100
AcDbPoint
 10
64.0412879686387
 20
31.80567556683661
 30
0.0
  0
POINT
  5
12E7
330
D57
100
AcDbEntity
  8
DEFPOINTS
 62
     0
100
AcDbPoint
 10
120.8986985115711
 20
31.80567556683661
 30
0.0
  0
POINT
  5
12E8
330
D57
100
AcDbEntity
  8
DEFPOINTS
 62
     0
100
AcDbPoint
 10
120.8986985115711
 20
18.60873549033772
 30
0.0
  0
ENDBLK
  5
D63
330
D57
100
AcDbEntity
  8
0
100
AcDbBlockEnd
  0
BLOCK
  5
D6F
330
D64
100
AcDbEntity
  8
0
100
AcDbBlockBegin
  2
*D13
 70
     1
 10
0.0
 20
0.0
 30
0.0
  3
*D13
  1

  0
LINE
  5
12E9
330
D64
100
AcDbEntity
  8
SUNPOU
 62
     4
100
AcDbLine
 10
57.71999324010494
 20
183.8061324813678
 30
0.0
 11
44.48413656944197
 21
183.8061324813678
 31
0.0
  0
LINE
  5
12EA
330
D64
100
AcDbEntity
  8
SUNPOU
 62
     4
100
AcDbLine
 10
57.71999324010494
 20
176.8061324813678
 30
0.0
 11
44.48413656944197
 21
176.8061324813678
 31
0.0
  0
LINE
  5
12EB
330
D64
100
AcDbEntity
  8
SUNPOU
 62
     4
100
AcDbLine
 10
45.98413656944197
 20
186.8061324813678
 30
0.0
 11
45.98413656944197
 21
189.8061324813678
 31
0.0
  0
LINE
  5
12EC
330
D64
100
AcDbEntity
  8
SUNPOU
 62
     4
100
AcDbLine
 10
45.98413656944196
 20
173.8061324813678
 30
0.0
 11
45.98413656944196
 21
170.8061324813678
 31
0.0
  0
LINE
  5
12ED
330
D64
100
AcDbEntity
  8
SUNPOU
 62
     4
100
AcDbLine
 10
45.98413656944197
 20
183.8061324813678
 30
0.0
 11
45.98413656944197
 21
176.8061324813678
 31
0.0
  0
INSERT
  5
12EE
330
D64
100
AcDbEntity
  8
SUNPOU
 62
     4
100
AcDbBlockReference
  2
_OPEN
 10
45.98413656944197
 20
183.8061324813678
 30
0.0
 41
3.0
 42
3.0
 43
3.0
 50
270.0
  0
INSERT
  5
12EF
330
D64
100
AcDbEntity
  8
SUNPOU
 62
     4
100
AcDbBlockReference
  2
_OPEN
 10
45.98413656944197
 20
176.8061324813678
 30
0.0
 41
3.0
 42
3.0
 43
3.0
 50
90.0
  0
MTEXT
  5
12F0
330
D64
100
AcDbEntity
  8
SUNPOU
 62
     4
100
AcDbMText
 10
43.48413656944194
 20
180.3061324813678
 30
0.0
 40
3.0
 41
0.0
 71
     5
 72
     5
  1
\A1;7
 11
0.0000000000000001
 21
1.0
 31
0.0
 73
     1
 44
1.0
1001
ACAD
1000
MTEXTBEGIN
1070
    73
1070
     1
1070
    44
1040
1.0
1070
    74
1070
     0
1000
MTEXTEND
1000
MTEXTBEGIN
1070
    73
1070
     1
1070
    44
1040
1.0
1070
    74
1070
     0
1000
MTEXTEND
1000
MTEXTBEGIN
1070
    73
1070
     1
1070
    44
1040
1.0
1070
    74
1070
     0
1000
MTEXTEND
1000
MTEXTBEGIN
1070
    73
1070
     1
1070
    44
1040
1.0
1070
    74
1070
     0
1000
MTEXTEND
  0
POINT
  5
12F1
330
D64
100
AcDbEntity
  8
DEFPOINTS
 62
     0
100
AcDbPoint
 10
60.71999324010494
 20
183.8061324813678
 30
0.0
  0
POINT
  5
12F2
330
D64
100
AcDbEntity
  8
DEFPOINTS
 62
     0
100
AcDbPoint
 10
60.71999324010494
 20
176.8061324813678
 30
0.0
  0
POINT
  5
12F3
330
D64
100
AcDbEntity
  8
DEFPOINTS
 62
     0
100
AcDbPoint
 10
45.98413656944197
 20
176.8061324813678
 30
0.0
  0
ENDBLK
  5
D70
330
D64
100
AcDbEntity
  8
0
100
AcDbBlockEnd
  0
BLOCK
  5
D7C
330
D71
100
AcDbEntity
  8
0
100
AcDbBlockBegin
  2
*D14
 70
     1
 10
0.0
 20
0.0
 30
0.0
  3
*D14
  1

  0
LINE
  5
12F4
330
D71
100
AcDbEntity
  8
SUNPOU
 62
     4
100
AcDbLine
 10
124.2199932401331
 20
150.1265945294579
 30
0.0
 11
124.2199932401331
 21
161.6103490619551
 31
0.0
  0
LINE
  5
12F5
330
D71
100
AcDbEntity
  8
SUNPOU
 62
     4
100
AcDbLine
 10
146.2199932401049
 20
150.7526756110218
 30
0.0
 11
146.2199932401049
 21
161.6103490619551
 31
0.0
  0
LINE
  5
12F6
330
D71
100
AcDbEntity
  8
SUNPOU
 62
     4
100
AcDbLine
 10
127.2199932401331
 20
160.1103490619551
 30
0.0
 11
143.2199932401049
 21
160.1103490619551
 31
0.0
  0
LINE
  5
12F7
330
D71
100
AcDbEntity
  8
SUNPOU
 62
     4
100
AcDbLine
 10
146.2199932401049
 20
160.1103490619551
 30
0.0
 11
173.2199932401049
 21
160.1103490619551
 31
0.0
  0
INSERT
  5
12F8
330
D71
100
AcDbEntity
  8
SUNPOU
 62
     4
100
AcDbBlockReference
  2
_OPEN
 10
124.2199932401331
 20
160.1103490619551
 30
0.0
 41
3.0
 42
3.0
 43
3.0
 50
180.0
  0
INSERT
  5
12F9
330
D71
100
AcDbEntity
  8
SUNPOU
 62
     4
100
AcDbBlockReference
  2
_OPEN
 10
146.2199932401049
 20
160.1103490619551
 30
0.0
 41
3.0
 42
3.0
 43
3.0
  0
MTEXT
  5
12FA
330
D71
100
AcDbEntity
  8
SUNPOU
 62
     4
100
AcDbMText
 10
166.2199932401049
 20
162.6103490619551
 30
0.0
 40
3.0
 41
0.0
 71
     5
 72
     5
  1
\A1;※ｂ22
 73
     1
 44
1.0
1001
ACAD
1000
MTEXTBEGIN
1070
    73
1070
     1
1070
    44
1040
1.0
1070
    74
1070
     0
1000
MTEXTEND
1000
MTEXTBEGIN
1070
    73
1070
     1
1070
    44
1040
1.0
1070
    74
1070
     0
1000
MTEXTEND
1000
MTEXTBEGIN
1070
    73
1070
     1
1070
    44
1040
1.0
1070
    74
1070
     0
1000
MTEXTEND
1000
MTEXTBEGIN
1070
    73
1070
     1
1070
    44
1040
1.0
1070
    74
1070
     0
1000
MTEXTEND
  0
POINT
  5
12FB
330
D71
100
AcDbEntity
  8
DEFPOINTS
 62
     0
100
AcDbPoint
 10
124.2199932401331
 20
147.1265945294579
 30
0.0
  0
POINT
  5
12FC
330
D71
100
AcDbEntity
  8
DEFPOINTS
 62
     0
100
AcDbPoint
 10
146.2199932401049
 20
147.7526756110218
 30
0.0
  0
POINT
  5
12FD
330
D71
100
AcDbEntity
  8
DEFPOINTS
 62
     0
100
AcDbPoint
 10
146.2199932401049
 20
160.1103490619551
 30
0.0
  0
ENDBLK
  5
D7D
330
D71
100
AcDbEntity
  8
0
100
AcDbBlockEnd
  0
BLOCK
  5
D89
330
D7E
100
AcDbEntity
  8
0
100
AcDbBlockBegin
  2
*D15
 70
     1
 10
0.0
 20
0.0
 30
0.0
  3
*D15
  1

  0
LINE
  5
12FE
330
D7E
100
AcDbEntity
  8
SUNPOU
 62
     4
100
AcDbLine
 10
60.71999324010494
 20
179.310368727499
 30
0.0
 11
60.71999324010494
 21
194.9197160589894
 31
0.0
  0
LINE
  5
12FF
330
D7E
100
AcDbEntity
  8
SUNPOU
 62
     4
100
AcDbLine
 10
124.2199932401049
 20
179.310368727499
 30
0.0
 11
124.2199932401049
 21
194.9197160589894
 31
0.0
  0
LINE
  5
1300
330
D7E
100
AcDbEntity
  8
SUNPOU
 62
     4
100
AcDbLine
 10
63.71999324010494
 20
193.4197160589894
 30
0.0
 11
121.2199932401049
 21
193.4197160589894
 31
0.0
  0
INSERT
  5
1301
330
D7E
100
AcDbEntity
  8
SUNPOU
 62
     4
100
AcDbBlockReference
  2
_OPEN
 10
60.71999324010494
 20
193.4197160589894
 30
0.0
 41
3.0
 42
3.0
 43
3.0
 50
180.0
  0
INSERT
  5
1302
330
D7E
100
AcDbEntity
  8
SUNPOU
 62
     4
100
AcDbBlockReference
  2
_OPEN
 10
124.2199932401049
 20
193.4197160589894
 30
0.0
 41
3.0
 42
3.0
 43
3.0
  0
MTEXT
  5
1303
330
D7E
100
AcDbEntity
  8
SUNPOU
 62
     4
100
AcDbMText
 10
92.46999324010493
 20
195.9197160589894
 30
0.0
 40
3.0
 41
0.0
 71
     5
 72
     5
  1
\A1;φ64
 73
     1
 44
1.0
1001
ACAD
1000
MTEXTBEGIN
1070
    73
1070
     1
1070
    44
1040
1.0
1070
    74
1070
     0
1000
MTEXTEND
1000
MTEXTBEGIN
1070
    73
1070
     1
1070
    44
1040
1.0
1070
    74
1070
     0
1000
MTEXTEND
1000
MTEXTBEGIN
1070
    73
1070
     1
1070
    44
1040
1.0
1070
    74
1070
     0
1000
MTEXTEND
1000
MTEXTBEGIN
1070
    73
1070
     1
1070
    44
1040
1.0
1070
    74
1070
     0
1000
MTEXTEND
  0
POINT
  5
1304
330
D7E
100
AcDbEntity
  8
DEFPOINTS
 62
     0
100
AcDbPoint
 10
60.71999324010494
 20
176.310368727499
 30
0.0
  0
POINT
  5
1305
330
D7E
100
AcDbEntity
  8
DEFPOINTS
 62
     0
100
AcDbPoint
 10
124.2199932401049
 20
176.310368727499
 30
0.0
  0
POINT
  5
1306
330
D7E
100
AcDbEntity
  8
DEFPOINTS
 62
     0
100
AcDbPoint
 10
124.2199932401049
 20
193.4197160589894
 30
0.0
  0
ENDBLK
  5
D8A
330
D7E
100
AcDbEntity
  8
0
100
AcDbBlockEnd
  0
BLOCK
  5
D94
330
D8B
100
AcDbEntity
  8
0
100
AcDbBlockBegin
  2
*D16
 70
     1
 10
0.0
 20
0.0
 30
0.0
  3
*D16
  1

  0
LINE
  5
1307
330
D8B
100
AcDbEntity
  8
SUNPOU
 62
     4
100
AcDbLine
 10
81.27653622949171
 20
215.3427844848117
 30
0.0
 11
87.2463799684859
 21
225.7524418150023
 31
0.0
  0
LINE
  5
1308
330
D8B
100
AcDbEntity
  8
SUNPOU
 62
     4
100
AcDbLine
 10
97.693606511724
 20
243.9693421428328
 30
0.0
 11
99.18606744647256
 21
246.5717564753804
 31
0.0
  0
MTEXT
  5
1309
330
D8B
100
AcDbEntity
  8
SUNPOU
 62
     4
100
AcDbMText
 10
81.34654902115816
 20
220.490123429257
 30
0.0
 40
3.0
 41
0.0
 71
     5
 72
     5
  1
\A1;\U+220515
 11
0.497486978249518
 21
0.8674714441825527
 31
0.0
 73
     1
 44
1.0
1001
ACAD
1000
MTEXTBEGIN
1070
    73
1070
     1
1070
    44
1040
1.0
1070
    74
1070
     0
1000
MTEXTEND
1000
MTEXTBEGIN
1070
    73
1070
     1
1070
    44
1040
1.0
1070
    74
1070
     0
1000
MTEXTEND
1000
MTEXTBEGIN
1070
    73
1070
     1
1070
    44
1040
1.0
1070
    74
1070
     0
1000
MTEXTEND
1000
MTEXTBEGIN
1070
    73
1070
     1
1070
    44
1040
1.0
1070
    74
1070
     0
1000
MTEXTEND
  0
LINE
  5
130A
330
D8B
100
AcDbEntity
  8
SUNPOU
 62
     4
100
AcDbLine
 10
96.20114557697545
 20
241.3669278102851
 30
0.0
 11
88.73884090323446
 21
228.35485614755
 31
0.0
  0
INSERT
  5
130B
330
D8B
100
AcDbEntity
  8
SUNPOU
 62
     4
100
AcDbBlockReference
  2
_OPEN
 10
96.20114557697545
 20
241.3669278102851
 30
0.0
 41
3.0
 42
3.0
 43
3.0
 50
240.1661213741812
  0
INSERT
  5
130C
330
D8B
100
AcDbEntity
  8
SUNPOU
 62
     4
100
AcDbBlockReference
  2
_OPEN
 10
88.73884090323446
 20
228.35485614755
 30
0.0
 41
3.0
 42
3.0
 43
3.0
 50
60.16612137418118
  0
POINT
  5
130D
330
D8B
100
AcDbEntity
  8
DEFPOINTS
 62
     0
100
AcDbPoint
 10
88.73884090323446
 20
228.35485614755
 30
0.0
  0
POINT
  5
130E
330
D8B
100
AcDbEntity
  8
DEFPOINTS
 62
     0
100
AcDbPoint
 10
96.20114557697545
 20
241.3669278102851
 30
0.0
  0
ENDBLK
  5
D95
330
D8B
100
AcDbEntity
  8
0
100
AcDbBlockEnd
  0
BLOCK
  5
128E
330
10FA
100
AcDbEntity
  8
0
100
AcDbBlockBegin
  2
*X17
 70
     1
 10
0.0
 20
0.0
 30
0.0
  3
*X17
  1

  0
LINE
  5
10FB
330
10FA
100
AcDbEntity
  8
0
 62
     0
100
AcDbLine
 10
34.52110634279887
 20
11.30208408269516
 30
0.0
 11
34.19819087794135
 21
11.62499954755267
 31
0.0
  0
LINE
  5
10FC
330
10FA
100
AcDbEntity
  8
0
 62
     0
100
AcDbLine
 10
34.52110634279884
 20
10.85307127664168
 30
0.0
 11
33.74917807188788
 21
11.62499954755267
 31
0.0
  0
LINE
  5
10FD
330
10FA
100
AcDbEntity
  8
0
 62
     0
100
AcDbLine
 10
34.52110634279884
 20
10.40405847058823
 30
0.0
 11
33.3105393697914
 21
11.61462544359568
 31
0.0
  0
LINE
  5
10FE
330
10FA
100
AcDbEntity
  8
0
 62
     0
100
AcDbLine
 10
34.52110634279884
 20
9.955045664534793
 30
0.0
 11
33.12110634279884
 21
11.35504566453482
 31
0.0
  0
LINE
  5
10FF
330
10FA
100
AcDbEntity
  8
0
 62
     0
100
AcDbLine
 10
34.52110634279884
 20
9.506032858481347
 30
0.0
 11
33.12110634279881
 21
10.90603285848135
 31
0.0
  0
LINE
  5
1100
330
10FA
100
AcDbEntity
  8
0
 62
     0
100
AcDbLine
 10
34.52110634279884
 20
9.057020052427873
 30
0.0
 11
33.12110634279881
 21
10.4570200524279
 31
0.0
  0
LINE
  5
1101
330
10FA
100
AcDbEntity
  8
0
 62
     0
100
AcDbLine
 10
32.07110634279885
 20
11.05800724637441
 30
0.0
 11
31.50411404162062
 21
11.62499954755267
 31
0.0
  0
LINE
  5
1102
330
10FA
100
AcDbEntity
  8
0
 62
     0
100
AcDbLine
 10
34.52110634279884
 20
8.608007246374427
 30
0.0
 11
33.12110634279881
 21
10.00800724637446
 31
0.0
  0
LINE
  5
1103
330
10FA
100
AcDbEntity
  8
0
 62
     0
100
AcDbLine
 10
32.07110634279885
 20
10.60899444032097
 30
0.0
 11
31.05510123556721
 21
11.62499954755261
 31
0.0
  0
LINE
  5
1104
330
10FA
100
AcDbEntity
  8
0
 62
     0
100
AcDbLine
 10
34.52110634279884
 20
8.158994440320981
 30
0.0
 11
33.12110634279881
 21
9.558994440321015
 31
0.0
  0
LINE
  5
1105
330
10FA
100
AcDbEntity
  8
0
 62
     0
100
AcDbLine
 10
32.07110634279888
 20
10.15998163426746
 30
0.0
 11
30.71835086023028
 21
11.51273711683603
 31
0.0
  0
LINE
  5
1106
330
10FA
100
AcDbEntity
  8
0
 62
     0
100
AcDbLine
 10
34.52110634279881
 20
7.709981634267506
 30
0.0
 11
33.12110634279881
 21
9.109981634267541
 31
0.0
  0
LINE
  5
1107
330
10FA
100
AcDbEntity
  8
0
 62
     0
100
AcDbLine
 10
32.07110634279888
 20
9.710968828213992
 30
0.0
 11
30.67110634279888
 21
11.11096882821402
 31
0.0
  0
LINE
  5
1108
330
10FA
100
AcDbEntity
  8
0
 62
     0
100
AcDbLine
 10
34.52110634279884
 20
7.26096882821406
 30
0.0
 11
33.12110634279881
 21
8.660968828214066
 31
0.0
  0
LINE
  5
1109
330
10FA
100
AcDbEntity
  8
0
 62
     0
100
AcDbLine
 10
32.07110634279888
 20
9.261956022160575
 30
0.0
 11
30.67110634279885
 21
10.66195602216058
 31
0.0
  0
LINE
  5
110A
330
10FA
100
AcDbEntity
  8
0
 62
     0
100
AcDbLine
 10
34.52110634279884
 20
6.811956022160615
 30
0.0
 11
33.12110634279881
 21
8.211956022160649
 31
0.0
  0
LINE
  5
110B
330
10FA
100
AcDbEntity
  8
0
 62
     0
100
AcDbLine
 10
32.07110634279888
 20
8.8129432161071
 30
0.0
 11
30.67110634279885
 21
10.21294321610713
 31
0.0
  0
LINE
  5
110C
330
10FA
100
AcDbEntity
  8
0
 62
     0
100
AcDbLine
 10
34.52110634279881
 20
6.36294321610714
 30
0.0
 11
33.12110634279878
 21
7.762943216107174
 31
0.0
  0
LINE
  5
110D
330
10FA
100
AcDbEntity
  8
0
 62
     0
100
AcDbLine
 10
32.07110634279885
 20
8.363930410053626
 30
0.0
 11
30.67110634279882
 21
9.76393041005366
 31
0.0
  0
LINE
  5
110E
330
10FA
100
AcDbEntity
  8
0
 62
     0
100
AcDbLine
 10
34.52110634279884
 20
5.913930410053637
 30
0.0
 11
33.12110634279878
 21
7.313930410053728
 31
0.0
  0
LINE
  5
110F
330
10FA
100
AcDbEntity
  8
0
 62
     0
100
AcDbLine
 10
32.07110634279888
 20
7.914917604000208
 30
0.0
 11
30.67110634279885
 21
9.314917604000243
 31
0.0
  0
LINE
  5
1110
330
10FA
100
AcDbEntity
  8
0
 62
     0
100
AcDbLine
 10
28.92110634279887
 20
11.06491760400021
 30
0.0
 11
28.36102439924639
 21
11.62499954755267
 31
0.0
  0
LINE
  5
1111
330
10FA
100
AcDbEntity
  8
0
 62
     0
100
AcDbLine
 10
34.52110634279887
 20
5.46491760400022
 30
0.0
 11
33.12110634279881
 21
6.864917604000282
 31
0.0
  0
LINE
  5
1112
330
10FA
100
AcDbEntity
  8
0
 62
     0
100
AcDbLine
 10
32.07110634279885
 20
7.465904797946734
 30
0.0
 11
30.67110634279885
 21
8.865904797946768
 31
0.0
  0
LINE
  5
1113
330
10FA
100
AcDbEntity
  8
0
 62
     0
100
AcDbLine
 10
28.92110634279887
 20
10.61590479794674
 30
0.0
 11
27.91201159319294
 21
11.62499954755267
 31
0.0
  0
LINE
  5
1114
330
10FA
100
AcDbEntity
  8
0
 62
     0
100
AcDbLine
 10
34.52110634279884
 20
5.015904797946745
 30
0.0
 11
33.12110634279884
 21
6.41590479794678
 31
0.0
  0
LINE
  5
1115
330
10FA
100
AcDbEntity
  8
0
 62
     0
100
AcDbLine
 10
32.07110634279885
 20
7.016891991893288
 30
0.0
 11
30.67110634279882
 21
8.416891991893294
 31
0.0
  0
LINE
  5
1116
330
10FA
100
AcDbEntity
  8
0
 62
     0
100
AcDbLine
 10
28.92110634279885
 20
10.16689199189329
 30
0.0
 11
27.57122498113676
 21
11.51677335355538
 31
0.0
  0
LINE
  5
1117
330
10FA
100
AcDbEntity
  8
0
 62
     0
100
AcDbLine
 10
34.52110634279884
 20
4.566891991893299
 30
0.0
 11
33.12110634279881
 21
5.966891991893305
 31
0.0
  0
LINE
  5
1118
330
10FA
100
AcDbEntity
  8
0
 62
     0
100
AcDbLine
 10
32.07110634279888
 20
6.567879185839814
 30
0.0
 11
30.67110634279885
 21
7.967879185839848
 31
0.0
  0
LINE
  5
1119
330
10FA
100
AcDbEntity
  8
0
 62
     0
100
AcDbLine
 10
28.92110634279887
 20
9.717879185839819
 30
0.0
 11
27.52110634279887
 21
11.11787918583979
 31
0.0
  0
LINE
  5
111A
330
10FA
100
AcDbEntity
  8
0
 62
     0
100
AcDbLine
 10
34.52110634279887
 20
4.117879185839825
 30
0.0
 11
33.12110634279884
 21
5.517879185839859
 31
0.0
  0
LINE
  5
111B
330
10FA
100
AcDbEntity
  8
0
 62
     0
100
AcDbLine
 10
32.07110634279885
 20
6.118866379786368
 30
0.0
 11
30.67110634279882
 21
7.518866379786402
 31
0.0
  0
LINE
  5
111C
330
10FA
100
AcDbEntity
  8
0
 62
     0
100
AcDbLine
 10
28.92110634279885
 20
9.268866379786373
 30
0.0
 11
27.52110634279887
 21
10.66886637978637
 31
0.0
  0
LINE
  5
111D
330
10FA
100
AcDbEntity
  8
0
 62
     0
100
AcDbLine
 10
34.48512366535388
 20
3.704849057231371
 30
0.0
 11
33.12110634279881
 21
5.068866379786413
 31
0.0
  0
LINE
  5
111E
330
10FA
100
AcDbEntity
  8
0
 62
     0
100
AcDbLine
 10
32.07110634279885
 20
5.669853573732922
 30
0.0
 11
30.67110634279882
 21
7.069853573732956
 31
0.0
  0
LINE
  5
111F
330
10FA
100
AcDbEntity
  8
0
 62
     0
100
AcDbLine
 10
28.92110634279885
 20
8.819853573732927
 30
0.0
 11
27.52110634279887
 21
10.2198535737329
 31
0.0
  0
LINE
  5
1120
330
10FA
100
AcDbEntity
  8
0
 62
     0
100
AcDbLine
 10
34.16596036897917
 20
3.574999547552607
 30
0.0
 11
33.12110634279881
 21
4.619853573732967
 31
0.0
  0
LINE
  5
1121
330
10FA
100
AcDbEntity
  8
0
 62
     0
100
AcDbLine
 10
28.92110634279885
 20
8.370840767679453
 30
0.0
 11
27.52110634279884
 21
9.770840767679459
 31
0.0
  0
LINE
  5
1122
330
10FA
100
AcDbEntity
  8
0
 62
     0
100
AcDbLine
 10
32.07110634279882
 20
5.220840767679447
 30
0.0
 11
30.67110634279882
 21
6.620840767679482
 31
0.0
  0
LINE
  5
1123
330
10FA
100
AcDbEntity
  8
0
 62
     0
100
AcDbLine
 10
26.20860634279881
 20
11.08334076767945
 30
0.0
 11
25.66694756292565
 21
11.62499954755264
 31
0.0
  0
LINE
  5
1124
330
10FA
100
AcDbEntity
  8
0
 62
     0
100
AcDbLine
 10
33.71694756292569
 20
3.574999547552579
 30
0.0
 11
33.12110634279881
 21
4.170840767679493
 31
0.0
  0
LINE
  5
1125
330
10FA
100
AcDbEntity
  8
0
 62
     0
100
AcDbLine
 10
28.92110634279885
 20
7.921827961626036
 30
0.0
 11
27.52110634279887
 21
9.321827961626013
 31
0.0
  0
LINE
  5
1126
330
10FA
100
AcDbEntity
  8
0
 62
     0
100
AcDbLine
 10
26.20860634279884
 20
10.63432796162604
 30
0.0
 11
25.21793475687221
 21
11.62499954755264
 31
0.0
  0
LINE
  5
1127
330
10FA
100
AcDbEntity
  8
0
 62
     0
100
AcDbLine
 10
32.05812719247609
 20
4.784807111948794
 30
0.0
 11
30.67110634279882
 21
6.171827961626036
 31
0.0
  0
LINE
  5
1128
330
10FA
100
AcDbEntity
  8
0
 62
     0
100
AcDbLine
 10
28.92110634279885
 20
7.472815155572561
 30
0.0
 11
27.52110634279884
 21
8.872815155572538
 31
0.0
  0
LINE
  5
1129
330
10FA
100
AcDbEntity
  8
0
 62
     0
100
AcDbLine
 10
26.1108160697419
 20
10.28310542862951
 30
0.0
 11
24.76892195081876
 21
11.62499954755264
 31
0.0
  0
LINE
  5
112A
330
10FA
100
AcDbEntity
  8
0
 62
     0
100
AcDbLine
 10
31.96163454484747
 20
4.432286953523913
 30
0.0
 11
30.67110634279882
 21
5.72281515557259
 31
0.0
  0
LINE
  5
112B
330
10FA
100
AcDbEntity
  8
0
 62
     0
100
AcDbLine
 10
28.92110634279882
 20
7.023802349519087
 30
0.0
 11
27.52110634279884
 21
8.423802349519093
 31
0.0
  0
LINE
  5
112C
330
10FA
100
AcDbEntity
  8
0
 62
     0
100
AcDbLine
 10
25.71990914476526
 20
10.22499954755264
 30
0.0
 11
24.31990914476529
 21
11.62499954755264
 31
0.0
  0
LINE
  5
112D
330
10FA
100
AcDbEntity
  8
0
 62
     0
100
AcDbLine
 10
31.79911860688565
 20
4.145790085432281
 30
0.0
 11
30.63534847321907
 21
5.309560219098869
 31
0.0
  0
LINE
  5
112E
330
10FA
100
AcDbEntity
  8
0
 62
     0
100
AcDbLine
 10
28.92110634279885
 20
6.574789543465669
 30
0.0
 11
27.52110634279887
 21
7.974789543465647
 31
0.0
  0
LINE
  5
112F
330
10FA
100
AcDbEntity
  8
0
 62
     0
100
AcDbLine
 10
25.27089633871185
 20
10.22499954755267
 30
0.0
 11
23.90211297412315
 21
11.59378291214136
 31
0.0
  0
LINE
  5
1130
330
10FA
100
AcDbEntity
  8
0
 62
     0
100
AcDbLine
 10
31.58309770822313
 20
3.912798178041384
 30
0.0
 11
30.43455565398522
 21
5.061340232279263
 31
0.0
  0
LINE
  5
1131
330
10FA
100
AcDbEntity
  8
0
 62
     0
100
AcDbLine
 10
28.92110634279885
 20
6.125776737412195
 30
0.0
 11
27.52110634279884
 21
7.525776737412201
 31
0.0
  0
LINE
  5
1132
330
10FA
100
AcDbEntity
  8
0
 62
     0
100
AcDbLine
 10
24.82188353265843
 20
10.22499954755261
 30
0.0
 11
23.56979276185652
 21
11.47709031835452
 31
0.0
  0
LINE
  5
1133
330
10FA
100
AcDbEntity
  8
0
 62
     0
100
AcDbLine
 10
31.31501653576012
 20
3.731866544450923
 30
0.0
 11
30.07188353265843
 21
4.974999547552613
 31
0.0
  0
LINE
  5
1134
330
10FA
100
AcDbEntity
  8
0
 62
     0
100
AcDbLine
 10
28.92110634279882
 20
5.676763931358749
 30
0.0
 11
27.52110634279884
 21
7.076763931358726
 31
0.0
  0
LINE
  5
1135
330
10FA
100
AcDbEntity
  8
0
 62
     0
100
AcDbLine
 10
24.38376564061403
 20
10.21410463354354
 30
0.0
 11
23.29849229325142
 21
11.29937798090614
 31
0.0
  0
LINE
  5
1136
330
10FA
100
AcDbEntity
  8
0
 62
     0
100
AcDbLine
 10
30.98681025580441
 20
3.611060018353157
 30
0.0
 11
29.62287072660492
 21
4.974999547552641
 31
0.0
  0
LINE
  5
1137
330
10FA
100
AcDbEntity
  8
0
 62
     0
100
AcDbLine
 10
24.19610634279885
 20
9.95275112530524
 30
0.0
 11
23.07943626372915
 21
11.06942120437494
 31
0.0
  0
LINE
  5
1138
330
10FA
100
AcDbEntity
  8
0
 62
     0
100
AcDbLine
 10
30.57385792055149
 20
3.574999547552607
 30
0.0
 11
27.52110634279882
 21
6.627751125305252
 31
0.0
  0
LINE
  5
1139
330
10FA
100
AcDbEntity
  8
0
 62
     0
100
AcDbLine
 10
24.19610634279885
 20
9.503738319251795
 30
0.0
 11
22.91355080755266
 21
10.78629385449801
 31
0.0
  0
LINE
  5
113A
330
10FA
100
AcDbEntity
  8
0
 62
     0
100
AcDbLine
 10
30.12484511449804
 20
3.574999547552607
 30
0.0
 11
27.52110634279884
 21
6.178738319251834
 31
0.0
  0
LINE
  5
113B
330
10FA
100
AcDbEntity
  8
0
 62
     0
100
AcDbLine
 10
24.29937848335072
 20
8.951453372646483
 30
0.0
 11
22.81246154787061
 21
10.43837030812659
 31
0.0
  0
LINE
  5
113C
330
10FA
100
AcDbEntity
  8
0
 62
     0
100
AcDbLine
 10
29.67583230844454
 20
3.574999547552636
 30
0.0
 11
27.52110634279884
 21
5.72972551319836
 31
0.0
  0
LINE
  5
113D
330
10FA
100
AcDbEntity
  8
0
 62
     0
100
AcDbLine
 10
26.40790819414448
 20
6.393910855799248
 30
0.0
 11
22.79610634279882
 21
10.0057127071449
 31
0.0
  0
LINE
  5
113E
330
10FA
100
AcDbEntity
  8
0
 62
     0
100
AcDbLine
 10
21.7461063427988
 20
11.05571270714489
 30
0.0
 11
21.17681950239108
 21
11.62499954755264
 31
0.0
  0
LINE
  5
113F
330
10FA
100
AcDbEntity
  8
0
 62
     0
100
AcDbLine
 10
29.22681950239112
 20
3.574999547552607
 30
0.0
 11
27.52110634279882
 21
5.280712707144914
 31
0.0
  0
LINE
  5
1140
330
10FA
100
AcDbEntity
  8
0
 62
     0
100
AcDbLine
 10
26.47110634279883
 20
5.881699901091479
 30
0.0
 11
22.79610634279882
 21
9.556699901091462
 31
0.0
  0
LINE
  5
1141
330
10FA
100
AcDbEntity
  8
0
 62
     0
100
AcDbLine
 10
21.74610634279884
 20
10.60669990109147
 30
0.0
 11
20.72780669633766
 21
11.62499954755261
 31
0.0
  0
LINE
  5
1142
330
10FA
100
AcDbEntity
  8
0
 62
     0
100
AcDbLine
 10
28.76958275696526
 20
3.583223486925049
 30
0.0
 11
27.52933028217126
 21
4.823475961719026
 31
0.0
  0
LINE
  5
1143
330
10FA
100
AcDbEntity
  8
0
 62
     0
100
AcDbLine
 10
21.7461063427988
 20
10.15768709503799
 30
0.0
 11
20.3924113989112
 21
11.51138203892563
 31
0.0
  0
LINE
  5
1144
330
10FA
100
AcDbEntity
  8
0
 62
     0
100
AcDbLine
 10
26.47110634279883
 20
5.432687095038005
 30
0.0
 11
22.80781167674007
 21
9.095981761096737
 31
0.0
  0
LINE
  5
1145
330
10FA
100
AcDbEntity
  8
0
 62
     0
100
AcDbLine
 10
21.7461063427988
 20
9.708674288984553
 30
0.0
 11
20.34610634279883
 21
11.10867428898453
 31
0.0
  0
LINE
  5
1146
330
10FA
100
AcDbEntity
  8
0
 62
     0
100
AcDbLine
 10
26.47110634279886
 20
4.983674288984502
 30
0.0
 11
22.96687138566017
 21
8.487909246123194
 31
0.0
  0
LINE
  5
1147
330
10FA
100
AcDbEntity
  8
0
 62
     0
100
AcDbLine
 10
21.74610634279884
 20
9.259661482931079
 30
0.0
 11
20.34610634279883
 21
10.65966148293105
 31
0.0
  0
LINE
  5
1148
330
10FA
100
AcDbEntity
  8
0
 62
     0
100
AcDbLine
 10
26.41682543400432
 20
4.588942391725595
 30
0.0
 11
25.06900803948511
 21
5.936759786244806
 31
0.0
  0
LINE
  5
1149
330
10FA
100
AcDbEntity
  8
0
 62
     0
100
AcDbLine
 10
21.7461063427988
 20
8.810648676877661
 30
0.0
 11
20.34610634279883
 21
10.21064867687764
 31
0.0
  0
LINE
  5
114A
330
10FA
100
AcDbEntity
  8
0
 62
     0
100
AcDbLine
 10
19.20036289251032
 20
11.35639212716614
 30
0.0
 11
18.93175547212382
 21
11.62499954755264
 31
0.0
  0
LINE
  5
114B
330
10FA
100
AcDbEntity
  8
0
 62
     0
100
AcDbLine
 10
26.28288758012348
 20
4.273867439552986
 30
0.0
 11
25.07110634279888
 21
5.485648676877588
 31
0.0
  0
LINE
  5
114C
330
10FA
100
AcDbEntity
  8
0
 62
     0
100
AcDbLine
 10
21.7461063427988
 20
8.361635870824187
 30
0.0
 11
20.3461063427988
 21
9.761635870824164
 31
0.0
  0
LINE
  5
114D
330
10FA
100
AcDbEntity
  8
0
 62
     0
100
AcDbLine
 10
19.10089906038402
 20
11.00684315323897
 30
0.0
 11
18.48274266607032
 21
11.62499954755267
 31
0.0
  0
LINE
  5
114E
330
10FA
100
AcDbEntity
  8
0
 62
     0
100
AcDbLine
 10
26.09139418103584
 20
4.016348032587131
 30
0.0
 11
25.02246375135559
 21
5.085278462267382
 31
0.0
  0
LINE
  5
114F
330
10FA
100
AcDbEntity
  8
0
 62
     0
100
AcDbLine
 10
21.74610634279878
 20
7.912623064770713
 30
0.0
 11
20.3461063427988
 21
9.312623064770718
 31
0.0
  0
LINE
  5
1150
330
10FA
100
AcDbEntity
  8
0
 62
     0
100
AcDbLine
 10
18.9931359869312
 20
10.66559342063831
 30
0.0
 11
18.03852820519585
 21
11.62020120237363
 31
0.0
  0
LINE
  5
1151
330
10FA
100
AcDbEntity
  8
0
 62
     0
100
AcDbLine
 10
25.84823469847799
 20
3.8104947090915
 30
0.0
 11
24.68372986001691
 21
4.974999547552613
 31
0.0
  0
LINE
  5
1152
330
10FA
100
AcDbEntity
  8
0
 62
     0
100
AcDbLine
 10
21.7461063427988
 20
7.463610258717295
 30
0.0
 11
20.34610634279886
 21
8.863610258717244
 31
0.0
  0
LINE
  5
1153
330
10FA
100
AcDbEntity
  8
0
 62
     0
100
AcDbLine
 10
18.88537291347839
 20
10.32434368803768
 30
0.0
 11
17.82137291347837
 21
11.38834368803773
 31
0.0
  0
LINE
  5
1154
330
10FA
100
AcDbEntity
  8
0
 62
     0
100
AcDbLine
 10
25.55019272424781
 20
3.65952387726827
 30
0.0
 11
24.23471705396349
 21
4.974999547552613
 31
0.0
  0
LINE
  5
1155
330
10FA
100
AcDbEntity
  8
0
 62
     0
100
AcDbLine
 10
21.7461063427988
 20
7.014597452663821
 30
0.0
 11
20.34610634279886
 21
8.41459745266377
 31
0.0
  0
LINE
  5
1156
330
10FA
100
AcDbEntity
  8
0
 62
     0
100
AcDbLine
 10
18.77760984002551
 20
9.983093955437112
 30
0.0
 11
17.71360984002549
 21
11.04709395543713
 31
0.0
  0
LINE
  5
1157
330
10FA
100
AcDbEntity
  8
0
 62
     0
100
AcDbLine
 10
25.18135639842407
 20
3.57934739703856
 30
0.0
 11
23.78570424790999
 21
4.974999547552641
 31
0.0
  0
LINE
  5
1158
330
10FA
100
AcDbEntity
  8
0
 62
     0
100
AcDbLine
 10
21.74610634279878
 20
6.565584646610375
 30
0.0
 11
20.34610634279883
 21
7.965584646610295
 31
0.0
  0
LINE
  5
1159
330
10FA
100
AcDbEntity
  8
0
 62
     0
100
AcDbLine
 10
18.6698467665727
 20
9.641844222836425
 30
0.0
 11
17.60584676657268
 21
10.70584422283647
 31
0.0
  0
LINE
  5
115A
330
10FA
100
AcDbEntity
  8
0
 62
     0
100
AcDbLine
 10
24.73669144185655
 20
3.574999547552607
 30
0.0
 11
23.33669144185648
 21
4.97499954755267
 31
0.0
  0
LINE
  5
115B
330
10FA
100
AcDbEntity
  8
0
 62
     0
100
AcDbLine
 10
21.7461063427988
 20
6.116571840556929
 30
0.0
 11
20.34610634279886
 21
7.516571840556878
 31
0.0
  0
LINE
  5
115C
330
10FA
100
AcDbEntity
  8
0
 62
     0
100
AcDbLine
 10
18.56208369311985
 20
9.30059449023588
 30
0.0
 11
17.49808369311983
 21
10.3645944902359
 31
0.0
  0
LINE
  5
115D
330
10FA
100
AcDbEntity
  8
0
 62
     0
100
AcDbLine
 10
24.2876786358031
 20
3.574999547552636
 30
0.0
 11
23.07087278715493
 21
4.7918053962008
 31
0.0
  0
LINE
  5
115E
330
10FA
100
AcDbEntity
  8
0
 62
     0
100
AcDbLine
 10
18.45432061966707
 20
8.959344757635193
 30
0.0
 11
17.39032061966702
 21
10.02334475763521
 31
0.0
  0
LINE
  5
115F
330
10FA
100
AcDbEntity
  8
0
 62
     0
100
AcDbLine
 10
21.74610634279878
 20
5.667559034503454
 30
0.0
 11
20.34610634279883
 21
7.067559034503403
 31
0.0
  0
LINE
  5
1160
330
10FA
100
AcDbEntity
  8
0
 62
     0
100
AcDbLine
 10
16.32110634279885
 20
11.09255903450341
 30
0.0
 11
15.78866582974959
 21
11.62499954755267
 31
0.0
  0
LINE
  5
1161
330
10FA
100
AcDbEntity
  8
0
 62
     0
100
AcDbLine
 10
23.83866582974965
 20
3.574999547552607
 30
0.0
 11
23.05860634279886
 21
4.355059034503398
 31
0.0
  0
LINE
  5
1162
330
10FA
100
AcDbEntity
  8
0
 62
     0
100
AcDbLine
 10
18.34655754621417
 20
8.618095025034591
 30
0.0
 11
17.28255754621415
 21
9.682095025034641
 31
0.0
  0
LINE
  5
1163
330
10FA
100
AcDbEntity
  8
0
 62
     0
100
AcDbLine
 10
21.7461063427988
 20
5.218546228449952
 30
0.0
 11
20.34610634279883
 21
6.618546228449957
 31
0.0
  0
LINE
  5
1164
330
10FA
100
AcDbEntity
  8
0
 62
     0
100
AcDbLine
 10
16.32110634279885
 20
10.64354622844993
 30
0.0
 11
15.33965302369617
 21
11.62499954755261
 31
0.0
  0
LINE
  5
1165
330
10FA
100
AcDbEntity
  8
0
 62
     0
100
AcDbLine
 10
23.38965302369618
 20
3.574999547552607
 30
0.0
 11
23.05860634279884
 21
3.906046228449952
 31
0.0
  0
LINE
  5
1166
330
10FA
100
AcDbEntity
  8
0
 62
     0
100
AcDbLine
 10
18.23879447276138
 20
8.276845292433932
 30
0.0
 11
17.17479447276136
 21
9.340845292433954
 31
0.0
  0
LINE
  5
1167
330
10FA
100
AcDbEntity
  8
0
 62
     0
100
AcDbLine
 10
16.32110634279888
 20
10.19453342239643
 30
0.0
 11
14.98338387834999
 21
11.53225588684531
 31
0.0
  0
LINE
  5
1168
330
10FA
100
AcDbEntity
  8
0
 62
     0
100
AcDbLine
 10
21.7461063427988
 20
4.769533422396506
 30
0.0
 11
20.34610634279883
 21
6.169533422396483
 31
0.0
  0
LINE
  5
1169
330
10FA
100
AcDbEntity
  8
0
 62
     0
100
AcDbLine
 10
18.13103139930854
 20
7.935595559833359
 30
0.0
 11
17.06703139930849
 21
8.999595559833409
 31
0.0
  0
LINE
  5
116A
330
10FA
100
AcDbEntity
  8
0
 62
     0
100
AcDbLine
 10
16.32110634279888
 20
9.745520616342986
 30
0.0
 11
14.92110634279882
 21
11.14552061634307
 31
0.0
  0
LINE
  5
116B
330
10FA
100
AcDbEntity
  8
0
 62
     0
100
AcDbLine
 10
21.74610634279884
 20
4.32052061634306
 30
0.0
 11
20.34610634279883
 21
5.720520616343065
 31
0.0
  0
LINE
  5
116C
330
10FA
100
AcDbEntity
  8
0
 62
     0
100
AcDbLine
 10
18.02848714461257
 20
7.589127008475855
 30
0.0
 11
16.9592683258557
 21
8.658345827232722
 31
0.0
  0
LINE
  5
116D
330
10FA
100
AcDbEntity
  8
0
 62
     0
100
AcDbLine
 10
16.32110634279888
 20
9.29650781028954
 30
0.0
 11
14.92110634279882
 21
10.6965078102896
 31
0.0
  0
LINE
  5
116E
330
10FA
100
AcDbEntity
  8
0
 62
     0
100
AcDbLine
 10
21.7461063427988
 20
3.871507810289614
 30
0.0
 11
20.34610634279886
 21
5.271507810289534
 31
0.0
  0
LINE
  5
116F
330
10FA
100
AcDbEntity
  8
0
 62
     0
100
AcDbLine
 10
18.23572382432962
 20
6.932877522705325
 30
0.0
 11
16.8139945780133
 21
8.354606769021643
 31
0.0
  0
LINE
  5
1170
330
10FA
100
AcDbEntity
  8
0
 62
     0
100
AcDbLine
 10
16.32110634279885
 20
8.847495004236066
 30
0.0
 11
14.92110634279879
 21
10.24749500423612
 31
0.0
  0
LINE
  5
1171
330
10FA
100
AcDbEntity
  8
0
 62
     0
100
AcDbLine
 10
21.57658384413261
 20
3.592017502902336
 30
0.0
 11
20.34610634279886
 21
4.822495004236088
 31
0.0
  0
LINE
  5
1172
330
10FA
100
AcDbEntity
  8
0
 62
     0
100
AcDbLine
 10
18.44296050404659
 20
6.276628036934937
 30
0.0
 11
14.92110634279882
 21
9.798482198182711
 31
0.0
  0
LINE
  5
1173
330
10FA
100
AcDbEntity
  8
0
 62
     0
100
AcDbLine
 10
13.69610634279888
 20
11.02348219818264
 30
0.0
 11
13.09458899342885
 21
11.62499954755264
 31
0.0
  0
LINE
  5
1174
330
10FA
100
AcDbEntity
  8
0
 62
     0
100
AcDbLine
 10
21.14458899342889
 20
3.574999547552636
 30
0.0
 11
20.34610634279886
 21
4.373482198182642
 31
0.0
  0
LINE
  5
1175
330
10FA
100
AcDbEntity
  8
0
 62
     0
100
AcDbLine
 10
18.65019718376359
 20
5.620378551164463
 30
0.0
 11
14.92110634279879
 21
9.349469392129236
 31
0.0
  0
LINE
  5
1176
330
10FA
100
AcDbEntity
  8
0
 62
     0
100
AcDbLine
 10
13.69610634279888
 20
10.57446939212917
 30
0.0
 11
12.64557618737544
 21
11.62499954755261
 31
0.0
  0
LINE
  5
1177
330
10FA
100
AcDbEntity
  8
0
 62
     0
100
AcDbLine
 10
20.69557618737542
 20
3.574999547552636
 30
0.0
 11
20.34610634279886
 21
3.924469392129196
 31
0.0
  0
LINE
  5
1178
330
10FA
100
AcDbEntity
  8
0
 62
     0
100
AcDbLine
 10
13.56265299510374
 20
10.25890993377083
 30
0.0
 11
12.21254213599803
 21
11.60902079287652
 31
0.0
  0
LINE
  5
1179
330
10FA
100
AcDbEntity
  8
0
 62
     0
100
AcDbLine
 10
18.85743386348056
 20
4.964129065394018
 30
0.0
 11
14.92110634279879
 21
8.90045658607579
 31
0.0
  0
LINE
  5
117A
330
10FA
100
AcDbEntity
  8
0
 62
     0
100
AcDbLine
 10
16.48986080396957
 20
6.882689318851561
 30
0.0
 11
14.92110634279885
 21
8.451443780022287
 31
0.0
  0
LINE
  5
117B
330
10FA
100
AcDbEntity
  8
0
 62
     0
100
AcDbLine
 10
13.14755057526849
 20
10.22499954755264
 30
0.0
 11
11.8435206012044
 21
11.52902952161673
 31
0.0
  0
LINE
  5
117C
330
10FA
100
AcDbEntity
  8
0
 62
     0
100
AcDbLine
 10
19.06467054319759
 20
4.307879579623545
 30
0.0
 11
17.01851669704359
 21
6.354033425777544
 31
0.0
  0
LINE
  5
117D
330
10FA
100
AcDbEntity
  8
0
 62
     0
100
AcDbLine
 10
16.32110634279891
 20
6.602430973968779
 30
0.0
 11
14.92110634279885
 21
8.002430973968841
 31
0.0
  0
LINE
  5
117E
330
10FA
100
AcDbEntity
  8
0
 62
     0
100
AcDbLine
 10
12.69853776921502
 20
10.22499954755264
 30
0.0
 11
11.52415989328903
 21
11.39937742347862
 31
0.0
  0
LINE
  5
117F
330
10FA
100
AcDbEntity
  8
0
 62
     0
100
AcDbLine
 10
19.18218997205284
 20
3.741347344714853
 30
0.0
 11
17.22575337676056
 21
5.697783940007127
 31
0.0
  0
LINE
  5
1180
330
10FA
100
AcDbEntity
  8
0
 62
     0
100
AcDbLine
 10
16.32110634279885
 20
6.153418167915361
 30
0.0
 11
14.92110634279882
 21
7.553418167915395
 31
0.0
  0
LINE
  5
1181
330
10FA
100
AcDbEntity
  8
0
 62
     0
100
AcDbLine
 10
12.27698101794325
 20
10.19754349277096
 30
0.0
 11
11.24478540562176
 21
11.22973910509244
 31
0.0
  0
LINE
  5
1182
330
10FA
100
AcDbEntity
  8
0
 62
     0
100
AcDbLine
 10
18.89952496316155
 20
3.574999547552664
 30
0.0
 11
17.43299005647756
 21
5.041534454236654
 31
0.0
  0
LINE
  5
1183
330
10FA
100
AcDbEntity
  8
0
 62
     0
100
AcDbLine
 10
16.32110634279885
 20
5.704405361861887
 30
0.0
 11
14.92110634279882
 21
7.104405361861921
 31
0.0
  0
LINE
  5
1184
330
10FA
100
AcDbEntity
  8
0
 62
     0
100
AcDbLine
 10
11.99105292152376
 20
10.03445878313698
 30
0.0
 11
11.00095780131587
 21
11.02455390334486
 31
0.0
  0
LINE
  5
1185
330
10FA
100
AcDbEntity
  8
0
 62
     0
100
AcDbLine
 10
18.4505121571081
 20
3.574999547552636
 30
0.0
 11
17.6402267361945
 21
4.385284968466237
 31
0.0
  0
LINE
  5
1186
330
10FA
100
AcDbEntity
  8
0
 62
     0
100
AcDbLine
 10
13.86382090919767
 20
7.712677989409655
 30
0.0
 11
13.10878478465579
 21
8.467714113951501
 31
0.0
  0
LINE
  5
1187
330
10FA
100
AcDbEntity
  8
0
 62
     0
100
AcDbLine
 10
16.32110634279885
 20
5.255392555808469
 30
0.0
 11
14.92110634279882
 21
6.655392555808475
 31
0.0
  0
LINE
  5
1188
330
10FA
100
AcDbEntity
  8
0
 62
     0
100
AcDbLine
 10
11.81299213645928
 20
9.76350676214804
 30
0.0
 11
10.79127478831026
 21
10.78522411029706
 31
0.0
  0
LINE
  5
1189
330
10FA
100
AcDbEntity
  8
0
 62
     0
100
AcDbLine
 10
17.97633284895226
 20
3.600166049655058
 30
0.0
 11
17.85115576315692
 21
3.725343135450401
 31
0.0
  0
LINE
  5
118A
330
10FA
100
AcDbEntity
  8
0
 62
     0
100
AcDbLine
 10
13.82056407912671
 20
7.30692201342714
 30
0.0
 11
12.70302880867328
 21
8.424457283880542
 31
0.0
  0
LINE
  5
118B
330
10FA
100
AcDbEntity
  8
0
 62
     0
100
AcDbLine
 10
11.77110634279887
 20
9.356379749754978
 30
0.0
 11
10.61680527782942
 21
10.51068081472442
 31
0.0
  0
LINE
  5
118C
330
10FA
100
AcDbEntity
  8
0
 62
     0
100
AcDbLine
 10
16.32110634279885
 20
4.806379749754995
 30
0.0
 11
14.92110634279882
 21
6.206379749755029
 31
0.0
  0
LINE
  5
118D
330
10FA
100
AcDbEntity
  8
0
 62
     0
100
AcDbLine
 10
13.65463629947771
 20
7.023836987022662
 30
0.0
 11
12.41994378226883
 21
8.258529504231546
 31
0.0
  0
LINE
  5
118E
330
10FA
100
AcDbEntity
  8
0
 62
     0
100
AcDbLine
 10
11.77110634279884
 20
8.907366943701532
 30
0.0
 11
10.48151542422434
 21
10.19695786227603
 31
0.0
  0
LINE
  5
118F
330
10FA
100
AcDbEntity
  8
0
 62
     0
100
AcDbLine
 10
16.32110634279882
 20
4.357366943701521
 30
0.0
 11
14.92110634279882
 21
5.757366943701555
 31
0.0
  0
LINE
  5
1190
330
10FA
100
AcDbEntity
  8
0
 62
     0
100
AcDbLine
 10
11.77110634279887
 20
8.458354137648086
 30
0.0
 11
10.39415848776141
 21
9.835301992685543
 31
0.0
  0
LINE
  5
1191
330
10FA
100
AcDbEntity
  8
0
 62
     0
100
AcDbLine
 10
13.40371957840946
 20
6.825740902037495
 30
0.0
 11
12.22184769728366
 21
8.007612783163295
 31
0.0
  0
LINE
  5
1192
330
10FA
100
AcDbEntity
  8
0
 62
     0
100
AcDbLine
 10
9.05860634279881
 20
11.17085413764812
 30
0.0
 11
8.604460932894284
 21
11.62499954755267
 31
0.0
  0
LINE
  5
1193
330
10FA
100
AcDbEntity
  8
0
 62
     0
100
AcDbLine
 10
16.32110634279885
 20
3.908354137648103
 30
0.0
 11
14.92110634279882
 21
5.308354137648137
 31
0.0
  0
LINE
  5
1194
330
10FA
100
AcDbEntity
  8
0
 62
     0
100
AcDbLine
 10
11.77110634279884
 20
8.009341331594612
 30
0.0
 11
10.37110634279878
 21
9.409341331594703
 31
0.0
  0
LINE
  5
1195
330
10FA
100
AcDbEntity
  8
0
 62
     0
100
AcDbLine
 10
13.05355985719575
 20
6.726887817197734
 30
0.0
 11
12.12299461244387
 21
7.657453061949581
 31
0.0
  0
LINE
  5
1196
330
10FA
100
AcDbEntity
  8
0
 62
     0
100
AcDbLine
 10
9.05860634279881
 20
10.72184133159467
 30
0.0
 11
8.155448126840809
 21
11.62499954755264
 31
0.0
  0
LINE
  5
1197
330
10FA
100
AcDbEntity
  8
0
 62
     0
100
AcDbLine
 10
16.17715444216349
 20
3.603293232229987
 30
0.0
 11
14.92110634279882
 21
4.859341331594663
 31
0.0
  0
LINE
  5
1198
330
10FA
100
AcDbEntity
  8
0
 62
     0
100
AcDbLine
 10
11.77110634279884
 20
7.560328525541166
 30
0.0
 11
10.37110634279878
 21
8.960328525541228
 31
0.0
  0
LINE
  5
1199
330
10FA
100
AcDbEntity
  8
0
 62
     0
100
AcDbLine
 10
9.004089357663644
 20
10.32734551067636
 30
0.0
 11
7.706435320787363
 21
11.62499954755264
 31
0.0
  0
LINE
  5
119A
330
10FA
100
AcDbEntity
  8
0
 62
     0
100
AcDbLine
 10
15.7564353207874
 20
3.574999547552579
 30
0.0
 11
14.92110634279879
 21
4.410328525541189
 31
0.0
  0
LINE
  5
119B
330
10FA
100
AcDbEntity
  8
0
 62
     0
100
AcDbLine
 10
11.77110634279884
 20
7.111315719487691
 30
0.0
 11
10.37110634279875
 21
8.511315719487754
 31
0.0
  0
LINE
  5
119C
330
10FA
100
AcDbEntity
  8
0
 62
     0
100
AcDbLine
 10
8.657422514733895
 20
10.22499954755264
 30
0.0
 11
7.257422514733889
 21
11.62499954755261
 31
0.0
  0
LINE
  5
119D
330
10FA
100
AcDbEntity
  8
0
 62
     0
100
AcDbLine
 10
15.3074225147339
 20
3.574999547552607
 30
0.0
 11
14.92110634279879
 21
3.961315719487743
 31
0.0
  0
LINE
  5
119E
330
10FA
100
AcDbEntity
  8
0
 62
     0
100
AcDbLine
 10
11.77110634279884
 20
6.662302913434274
 30
0.0
 11
10.37110634279878
 21
8.062302913434336
 31
0.0
  0
LINE
  5
119F
330
10FA
100
AcDbEntity
  8
0
 62
     0
100
AcDbLine
 10
8.208409708680477
 20
10.22499954755261
 30
0.0
 11
6.825845072628055
 21
11.60756418360506
 31
0.0
  0
LINE
  5
11A0
330
10FA
100
AcDbEntity
  8
0
 62
     0
100
AcDbLine
 10
13.69480511838031
 20
4.738604137852775
 30
0.0
 11
13.45971093309896
 21
4.973698323134158
 31
0.0
  0
LINE
  5
11A1
330
10FA
100
AcDbEntity
  8
0
 62
     0
100
AcDbLine
 10
11.77110634279884
 20
6.2132901073808
 30
0.0
 11
10.37110634279881
 21
7.613290107380834
 31
0.0
  0
LINE
  5
11A2
330
10FA
100
AcDbEntity
  8
0
 62
     0
100
AcDbLine
 10
7.759396902626974
 20
10.22499954755264
 30
0.0
 11
6.479277668388817
 21
11.50511878179082
 31
0.0
  0
LINE
  5
11A3
330
10FA
100
AcDbEntity
  8
0
 62
     0
100
AcDbLine
 10
13.69610634279885
 20
4.28829010738076
 30
0.0
 11
13.009396902627
 21
4.974999547552641
 31
0.0
  0
LINE
  5
11A4
330
10FA
100
AcDbEntity
  8
0
 62
     0
100
AcDbLine
 10
11.77110634279881
 20
5.764277301327325
 30
0.0
 11
10.37110634279881
 21
7.164277301327359
 31
0.0
  0
LINE
  5
11A5
330
10FA
100
AcDbEntity
  8
0
 62
     0
100
AcDbLine
 10
7.310384096573528
 20
10.22499954755264
 30
0.0
 11
6.197154338465225
 21
11.33822930566094
 31
0.0
  0
LINE
  5
11A6
330
10FA
100
AcDbEntity
  8
0
 62
     0
100
AcDbLine
 10
13.69610634279885
 20
3.839277301327314
 30
0.0
 11
12.56038409657352
 21
4.974999547552641
 31
0.0
  0
LINE
  5
11A7
330
10FA
100
AcDbEntity
  8
0
 62
     0
100
AcDbLine
 10
7.055237682766289
 20
10.03113315530643
 30
0.0
 11
5.968107932344821
 21
11.1182629057279
 31
0.0
  0
LINE
  5
11A8
330
10FA
100
AcDbEntity
  8
0
 62
     0
100
AcDbLine
 10
13.50223995055262
 20
3.584130887520132
 30
0.0
 11
10.37110634279881
 21
6.715264495273942
 31
0.0
  0
LINE
  5
11A9
330
10FA
100
AcDbEntity
  8
0
 62
     0
100
AcDbLine
 10
7.046106342798879
 20
9.591251689220399
 30
0.0
 11
5.791367331110308
 21
10.84599070090897
 31
0.0
  0
LINE
  5
11AA
330
10FA
100
AcDbEntity
  8
0
 62
     0
100
AcDbLine
 10
13.06235848446667
 20
3.574999547552607
 30
0.0
 11
10.37110634279881
 21
6.266251689220467
 31
0.0
  0
LINE
  5
11AB
330
10FA
100
AcDbEntity
  8
0
 62
     0
100
AcDbLine
 10
7.077174196866678
 20
9.111171029099125
 30
0.0
 11
5.675927279963417
 21
10.51241794600238
 31
0.0
  0
LINE
  5
11AC
330
10FA
100
AcDbEntity
  8
0
 62
     0
100
AcDbLine
 10
12.61334567841319
 20
3.574999547552607
 30
0.0
 11
10.37110634279878
 21
5.817238883166993
 31
0.0
  0
LINE
  5
11AD
330
10FA
100
AcDbEntity
  8
0
 62
     0
100
AcDbLine
 10
9.223294388410153
 20
6.516038031502176
 30
0.0
 11
5.646106342798844
 21
10.09322607711351
 31
0.0
  0
LINE
  5
11AE
330
10FA
100
AcDbEntity
  8
0
 62
     0
100
AcDbLine
 10
12.13769682883139
 20
3.601635591080963
 30
0.0
 11
10.39774238632711
 21
5.341590033585248
 31
0.0
  0
LINE
  5
11AF
330
10FA
100
AcDbEntity
  8
0
 62
     0
100
AcDbLine
 10
9.319241645452763
 20
5.971077968406149
 30
0.0
 11
5.646106342798844
 21
9.644213271060067
 31
0.0
  0
LINE
  5
11B0
330
10FA
100
AcDbEntity
  8
0
 62
     0
100
AcDbLine
 10
11.45079287253059
 20
3.839526741328285
 30
0.0
 11
10.6356335365744
 21
4.654686077284509
 31
0.0
  0
LINE
  5
11B1
330
10FA
100
AcDbEntity
  8
0
 62
     0
100
AcDbLine
 10
9.321106342798856
 20
5.520200465006553
 30
0.0
 11
5.649888566509957
 21
9.191418241295451
 31
0.0
  0
LINE
  5
11B2
330
10FA
100
AcDbEntity
  8
0
 62
     0
100
AcDbLine
 10
9.321106342798884
 20
5.07118765895305
 30
0.0
 11
5.761533945671885
 21
8.630760056080049
 31
0.0
  0
LINE
  5
11B3
330
10FA
100
AcDbEntity
  8
0
 62
     0
100
AcDbLine
 10
9.284846344732812
 20
4.658434850965733
 30
0.0
 11
7.903150522923311
 21
6.040130672775234
 31
0.0
  0
LINE
  5
11B4
330
10FA
100
AcDbEntity
  8
0
 62
     0
100
AcDbLine
 10
9.16387737521839
 20
4.33039101442668
 30
0.0
 11
7.921106342798879
 21
5.573162046846192
 31
0.0
  0
LINE
  5
11B5
330
10FA
100
AcDbEntity
  8
0
 62
     0
100
AcDbLine
 10
8.982817751527505
 20
4.062437832064091
 30
0.0
 11
7.903156826648455
 21
5.142098756943113
 31
0.0
  0
LINE
  5
11B6
330
10FA
100
AcDbEntity
  8
0
 62
     0
100
AcDbLine
 10
8.749704565394068
 20
3.846538212144082
 30
0.0
 11
7.621243229985509
 21
4.97499954755267
 31
0.0
  0
LINE
  5
11B7
330
10FA
100
AcDbEntity
  8
0
 62
     0
100
AcDbLine
 10
8.463072341527663
 20
3.684157629957041
 30
0.0
 11
7.172230423932035
 21
4.974999547552641
 31
0.0
  0
LINE
  5
11B8
330
10FA
100
AcDbEntity
  8
0
 62
     0
100
AcDbLine
 10
8.110366046984694
 20
3.587851118446536
 30
0.0
 11
6.723217617878589
 21
4.974999547552641
 31
0.0
  0
LINE
  5
11B9
330
10FA
100
AcDbEntity
  8
0
 62
     0
100
AcDbLine
 10
7.674204811825148
 20
3.574999547552607
 30
0.0
 11
6.274204811825171
 21
4.974999547552584
 31
0.0
  0
LINE
  5
11BA
330
10FA
100
AcDbEntity
  8
0
 62
     0
100
AcDbLine
 10
7.225192005771702
 20
3.574999547552607
 30
0.0
 11
5.948530058362763
 21
4.851661494961575
 31
0.0
  0
LINE
  5
11BB
330
10FA
100
AcDbEntity
  8
0
 62
     0
100
AcDbLine
 10
6.7761791997182
 20
3.574999547552636
 30
0.0
 11
5.908606342798805
 21
4.442572404472031
 31
0.0
  0
LINE
  5
11BC
330
10FA
100
AcDbEntity
  8
0
 62
     0
100
AcDbLine
 10
6.327166393664754
 20
3.574999547552636
 30
0.0
 11
5.908606342798805
 21
3.993559598418585
 31
0.0
  0
LINE
  5
11BD
330
10FA
100
AcDbEntity
  8
0
 62
     0
100
AcDbLine
 10
34.31694998513225
 20
3.581565436111389
 30
0.0
 11
34.51454045424014
 21
3.779155905219283
 31
0.0
  0
LINE
  5
11BE
330
10FA
100
AcDbEntity
  8
0
 62
     0
100
AcDbLine
 10
33.86137129052002
 20
3.574999547552579
 30
0.0
 11
34.5211063427989
 21
4.234734599831455
 31
0.0
  0
LINE
  5
11BF
330
10FA
100
AcDbEntity
  8
0
 62
     0
100
AcDbLine
 10
33.41235848446661
 20
3.574999547552636
 30
0.0
 11
34.5211063427989
 21
4.683747405884929
 31
0.0
  0
LINE
  5
11C0
330
10FA
100
AcDbEntity
  8
0
 62
     0
100
AcDbLine
 10
33.1367051244247
 20
3.748358993564181
 30
0.0
 11
34.5211063427989
 21
5.132760211938375
 31
0.0
  0
LINE
  5
11C1
330
10FA
100
AcDbEntity
  8
0
 62
     0
100
AcDbLine
 10
33.12110634279884
 20
4.181773017991787
 30
0.0
 11
34.52110634279887
 21
5.581773017991821
 31
0.0
  0
LINE
  5
11C2
330
10FA
100
AcDbEntity
  8
0
 62
     0
100
AcDbLine
 10
33.12110634279886
 20
4.630785824045261
 30
0.0
 11
34.5211063427989
 21
6.030785824045267
 31
0.0
  0
LINE
  5
11C3
330
10FA
100
AcDbEntity
  8
0
 62
     0
100
AcDbLine
 10
33.12110634279886
 20
5.079798630098707
 30
0.0
 11
34.52110634279887
 21
6.479798630098741
 31
0.0
  0
LINE
  5
11C4
330
10FA
100
AcDbEntity
  8
0
 62
     0
100
AcDbLine
 10
33.12110634279884
 20
5.528811436152182
 30
0.0
 11
34.52110634279887
 21
6.928811436152216
 31
0.0
  0
LINE
  5
11C5
330
10FA
100
AcDbEntity
  8
0
 62
     0
100
AcDbLine
 10
31.3343887738313
 20
3.742093867184649
 30
0.0
 11
31.90401202316692
 21
4.31171711652027
 31
0.0
  0
LINE
  5
11C6
330
10FA
100
AcDbEntity
  8
0
 62
     0
100
AcDbLine
 10
33.12110634279886
 20
5.977824242205599
 30
0.0
 11
34.5211063427989
 21
7.377824242205633
 31
0.0
  0
LINE
  5
11C7
330
10FA
100
AcDbEntity
  8
0
 62
     0
100
AcDbLine
 10
30.71910469057005
 20
3.575822589976809
 30
0.0
 11
32.07028330037479
 21
4.927001199781528
 31
0.0
  0
LINE
  5
11C8
330
10FA
100
AcDbEntity
  8
0
 62
     0
100
AcDbLine
 10
33.12110634279884
 20
6.426837048259073
 30
0.0
 11
34.52110634279887
 21
7.826837048259108
 31
0.0
  0
LINE
  5
11C9
330
10FA
100
AcDbEntity
  8
0
 62
     0
100
AcDbLine
 10
30.2692688420924
 20
3.574999547552607
 30
0.0
 11
32.07110634279894
 21
5.376837048259147
 31
0.0
  0
LINE
  5
11CA
330
10FA
100
AcDbEntity
  8
0
 62
     0
100
AcDbLine
 10
33.12110634279884
 20
6.875849854312548
 30
0.0
 11
34.52110634279887
 21
8.275849854312554
 31
0.0
  0
LINE
  5
11CB
330
10FA
100
AcDbEntity
  8
0
 62
     0
100
AcDbLine
 10
29.82025603603892
 20
3.574999547552636
 30
0.0
 11
32.07110634279891
 21
5.825849854312622
 31
0.0
  0
LINE
  5
11CC
330
10FA
100
AcDbEntity
  8
0
 62
     0
100
AcDbLine
 10
33.12110634279886
 20
7.324862660365965
 30
0.0
 11
34.52110634279887
 21
8.724862660366
 31
0.0
  0
LINE
  5
11CD
330
10FA
100
AcDbEntity
  8
0
 62
     0
100
AcDbLine
 10
29.37124322998548
 20
3.574999547552607
 30
0.0
 11
32.07110634279894
 21
6.274862660366039
 31
0.0
  0
LINE
  5
11CE
330
10FA
100
AcDbEntity
  8
0
 62
     0
100
AcDbLine
 10
30.61881074175846
 20
5.271579865379067
 30
0.0
 11
32.07110634279891
 21
6.723875466419514
 31
0.0
  0
LINE
  5
11CF
330
10FA
100
AcDbEntity
  8
0
 62
     0
100
AcDbLine
 10
33.12110634279884
 20
7.77387546641944
 30
0.0
 11
34.52110634279887
 21
9.173875466419474
 31
0.0
  0
LINE
  5
11D0
330
10FA
100
AcDbEntity
  8
0
 62
     0
100
AcDbLine
 10
28.92223042393203
 20
3.574999547552607
 30
0.0
 11
30.37452602497245
 21
5.027295148593054
 31
0.0
  0
LINE
  5
11D1
330
10FA
100
AcDbEntity
  8
0
 62
     0
100
AcDbLine
 10
30.67110634279885
 20
5.772888272472897
 30
0.0
 11
32.07110634279891
 21
7.172888272472988
 31
0.0
  0
LINE
  5
11D2
330
10FA
100
AcDbEntity
  8
0
 62
     0
100
AcDbLine
 10
33.12110634279884
 20
8.222888272472886
 30
0.0
 11
34.52110634279887
 21
9.62288827247292
 31
0.0
  0
LINE
  5
11D3
330
10FA
100
AcDbEntity
  8
0
 62
     0
100
AcDbLine
 10
28.52919249356713
 20
3.630974423241184
 30
0.0
 11
29.87321761787856
 21
4.974999547552613
 31
0.0
  0
LINE
  5
11D4
330
10FA
100
AcDbEntity
  8
0
 62
     0
100
AcDbLine
 10
30.67110634279882
 20
6.221901078526371
 30
0.0
 11
32.07110634279891
 21
7.621901078526434
 31
0.0
  0
LINE
  5
11D5
330
10FA
100
AcDbEntity
  8
0
 62
     0
100
AcDbLine
 10
33.12110634279881
 20
8.67190107852636
 30
0.0
 11
34.52110634279884
 21
10.07190107852639
 31
0.0
  0
LINE
  5
11D6
330
10FA
100
AcDbEntity
  8
0
 62
     0
100
AcDbLine
 10
28.21519905996206
 20
3.76599379568961
 30
0.0
 11
29.42464370464728
 21
4.97543844037483
 31
0.0
  0
LINE
  5
11D7
330
10FA
100
AcDbEntity
  8
0
 62
     0
100
AcDbLine
 10
30.67110634279888
 20
6.670913884579846
 30
0.0
 11
32.07110634279891
 21
8.07091388457988
 31
0.0
  0
LINE
  5
11D8
330
10FA
100
AcDbEntity
  8
0
 62
     0
100
AcDbLine
 10
33.12110634279884
 20
9.120913884579806
 30
0.0
 11
34.52110634279887
 21
10.52091388457981
 31
0.0
  0
LINE
  5
11D9
330
10FA
100
AcDbEntity
  8
0
 62
     0
100
AcDbLine
 10
27.95856911927953
 20
3.958376661060469
 30
0.0
 11
29.10290441029093
 21
5.102711952071899
 31
0.0
  0
LINE
  5
11DA
330
10FA
100
AcDbEntity
  8
0
 62
     0
100
AcDbLine
 10
30.67110634279888
 20
7.11992669063332
 30
0.0
 11
32.07110634279891
 21
8.519926690633326
 31
0.0
  0
LINE
  5
11DB
330
10FA
100
AcDbEntity
  8
0
 62
     0
100
AcDbLine
 10
33.12110634279884
 20
9.569926690633252
 30
0.0
 11
34.5211063427989
 21
10.96992669063331
 31
0.0
  0
LINE
  5
11DC
330
10FA
100
AcDbEntity
  8
0
 62
     0
100
AcDbLine
 10
27.75358703166699
 20
4.202407379501437
 30
0.0
 11
28.9342852710863
 21
5.383105618920723
 31
0.0
  0
LINE
  5
11DD
330
10FA
100
AcDbEntity
  8
0
 62
     0
100
AcDbLine
 10
30.67110634279888
 20
7.568939496686766
 30
0.0
 11
32.07110634279888
 21
8.9689394966868
 31
0.0
  0
LINE
  5
11DE
330
10FA
100
AcDbEntity
  8
0
 62
     0
100
AcDbLine
 10
33.12110634279886
 20
10.01893949668675
 30
0.0
 11
34.51603176602358
 21
11.4138649199115
 31
0.0
  0
LINE
  5
11DF
330
10FA
100
AcDbEntity
  8
0
 62
     0
100
AcDbLine
 10
27.60362459245004
 20
4.501457746337933
 30
0.0
 11
28.92110634279885
 21
5.818939496686766
 31
0.0
  0
LINE
  5
11E0
330
10FA
100
AcDbEntity
  8
0
 62
     0
100
AcDbLine
 10
30.67110634279888
 20
8.017952302740212
 30
0.0
 11
32.07110634279891
 21
9.417952302740246
 31
0.0
  0
LINE
  5
11E1
330
10FA
100
AcDbEntity
  8
0
 62
     0
100
AcDbLine
 10
33.12110634279886
 20
10.4679523027402
 30
0.0
 11
34.27747459348376
 21
11.62432055342509
 31
0.0
  0
LINE
  5
11E2
330
10FA
100
AcDbEntity
  8
0
 62
     0
100
AcDbLine
 10
27.52491782497182
 20
4.871763784913156
 30
0.0
 11
28.92110634279891
 21
6.267952302740241
 31
0.0
  0
LINE
  5
11E3
330
10FA
100
AcDbEntity
  8
0
 62
     0
100
AcDbLine
 10
30.67110634279888
 20
8.466965108793658
 30
0.0
 11
32.07110634279891
 21
9.866965108793692
 31
0.0
  0
LINE
  5
11E4
330
10FA
100
AcDbEntity
  8
0
 62
     0
100
AcDbLine
 10
33.12110634279886
 20
10.91696510879364
 30
0.0
 11
33.82914078155781
 21
11.62499954755261
 31
0.0
  0
LINE
  5
11E5
330
10FA
100
AcDbEntity
  8
0
 62
     0
100
AcDbLine
 10
27.52110634279887
 20
5.316965108793681
 30
0.0
 11
28.92110634279891
 21
6.716965108793687
 31
0.0
  0
LINE
  5
11E6
330
10FA
100
AcDbEntity
  8
0
 62
     0
100
AcDbLine
 10
30.67110634279885
 20
8.915977914847132
 30
0.0
 11
32.07110634279888
 21
10.31597791484716
 31
0.0
  0
LINE
  5
11E7
330
10FA
100
AcDbEntity
  8
0
 62
     0
100
AcDbLine
 10
27.52110634279887
 20
5.765977914847127
 30
0.0
 11
28.92110634279887
 21
7.165977914847161
 31
0.0
  0
LINE
  5
11E8
330
10FA
100
AcDbEntity
  8
0
 62
     0
100
AcDbLine
 10
33.12112970017258
 20
11.36600127222087
 30
0.0
 11
33.38010461813055
 21
11.62497619017881
 31
0.0
  0
LINE
  5
11E9
330
10FA
100
AcDbEntity
  8
0
 62
     0
100
AcDbLine
 10
25.36032852744276
 20
3.605200099491042
 30
0.0
 11
26.44090579086051
 21
4.685777362908794
 31
0.0
  0
LINE
  5
11EA
330
10FA
100
AcDbEntity
  8
0
 62
     0
100
AcDbLine
 10
27.52110634279884
 20
6.214990720900601
 30
0.0
 11
28.92110634279887
 21
7.614990720900635
 31
0.0
  0
LINE
  5
11EB
330
10FA
100
AcDbEntity
  8
0
 62
     0
100
AcDbLine
 10
30.67110634279885
 20
9.364990720900607
 30
0.0
 11
32.07110634279888
 21
10.76499072090061
 31
0.0
  0
LINE
  5
11EC
330
10FA
100
AcDbEntity
  8
0
 62
     0
100
AcDbLine
 10
24.88111516945088
 20
3.574999547552636
 30
0.0
 11
26.47110634279886
 21
5.16499072090059
 31
0.0
  0
LINE
  5
11ED
330
10FA
100
AcDbEntity
  8
0
 62
     0
100
AcDbLine
 10
27.52110634279887
 20
6.664003526954019
 30
0.0
 11
28.92110634279891
 21
8.064003526954053
 31
0.0
  0
LINE
  5
11EE
330
10FA
100
AcDbEntity
  8
0
 62
     0
100
AcDbLine
 10
30.67110634279888
 20
9.814003526954024
 30
0.0
 11
32.07110634279888
 21
11.21400352695405
 31
0.0
  0
LINE
  5
11EF
330
10FA
100
AcDbEntity
  8
0
 62
     0
100
AcDbLine
 10
24.43210236339743
 20
3.574999547552607
 30
0.0
 11
26.47110634279892
 21
5.614003526954064
 31
0.0
  0
LINE
  5
11F0
330
10FA
100
AcDbEntity
  8
0
 62
     0
100
AcDbLine
 10
27.52110634279884
 20
7.113016333007493
 30
0.0
 11
28.92110634279887
 21
8.513016333007527
 31
0.0
  0
LINE
  5
11F1
330
10FA
100
AcDbEntity
  8
0
 62
     0
100
AcDbLine
 10
30.67110634279885
 20
10.26301633300749
 30
0.0
 11
31.97423761538178
 21
11.56614760559043
 31
0.0
  0
LINE
  5
11F2
330
10FA
100
AcDbEntity
  8
0
 62
     0
100
AcDbLine
 10
23.98308955734393
 20
3.574999547552579
 30
0.0
 11
26.46394704259239
 21
6.055857032801014
 31
0.0
  0
LINE
  5
11F3
330
10FA
100
AcDbEntity
  8
0
 62
     0
100
AcDbLine
 10
27.52110634279887
 20
7.562029139060996
 30
0.0
 11
28.92110634279887
 21
8.962029139060973
 31
0.0
  0
LINE
  5
11F4
330
10FA
100
AcDbEntity
  8
0
 62
     0
100
AcDbLine
 10
30.67110634279885
 20
10.71202913906094
 30
0.0
 11
31.58407675129052
 21
11.62499954755264
 31
0.0
  0
LINE
  5
11F5
330
10FA
100
AcDbEntity
  8
0
 62
     0
100
AcDbLine
 10
23.53407675129051
 20
3.574999547552636
 30
0.0
 11
26.39649085727799
 21
6.437413653540119
 31
0.0
  0
LINE
  5
11F6
330
10FA
100
AcDbEntity
  8
0
 62
     0
100
AcDbLine
 10
27.5211063427989
 20
8.011041945114442
 30
0.0
 11
28.92110634279893
 21
9.411041945114448
 31
0.0
  0
LINE
  5
11F7
330
10FA
100
AcDbEntity
  8
0
 62
     0
100
AcDbLine
 10
25.07110634279891
 20
5.561041945114453
 30
0.0
 11
26.27619712881872
 21
6.766132731134263
 31
0.0
  0
LINE
  5
11F8
330
10FA
100
AcDbEntity
  8
0
 62
     0
100
AcDbLine
 10
30.67110634279885
 20
11.16104194511439
 30
0.0
 11
31.1350639452371
 21
11.62499954755264
 31
0.0
  0
LINE
  5
11F9
330
10FA
100
AcDbEntity
  8
0
 62
     0
100
AcDbLine
 10
23.14919162180268
 20
3.639127224118198
 30
0.0
 11
24.48506394523707
 21
4.974999547552613
 31
0.0
  0
LINE
  5
11FA
330
10FA
100
AcDbEntity
  8
0
 62
     0
100
AcDbLine
 10
25.06117105523518
 20
6.000119463604164
 30
0.0
 11
26.11444747638842
 21
7.053395884757406
 31
0.0
  0
LINE
  5
11FB
330
10FA
100
AcDbEntity
  8
0
 62
     0
100
AcDbLine
 10
27.5211063427989
 20
8.460054751167888
 30
0.0
 11
28.92110634279891
 21
9.860054751167922
 31
0.0
  0
LINE
  5
11FC
330
10FA
100
AcDbEntity
  8
0
 62
     0
100
AcDbLine
 10
23.05860634279884
 20
3.997554751167825
 30
0.0
 11
24.03605113918357
 21
4.974999547552584
 31
0.0
  0
LINE
  5
11FD
330
10FA
100
AcDbEntity
  8
0
 62
     0
100
AcDbLine
 10
24.92397863666573
 20
6.311939851088226
 30
0.0
 11
25.91651191742451
 21
7.304473131847004
 31
0.0
  0
LINE
  5
11FE
330
10FA
100
AcDbEntity
  8
0
 62
     0
100
AcDbLine
 10
27.52110634279887
 20
8.909067557221362
 30
0.0
 11
28.92110634279891
 21
10.30906755722139
 31
0.0
  0
LINE
  5
11FF
330
10FA
100
AcDbEntity
  8
0
 62
     0
100
AcDbLine
 10
23.05860634279881
 20
4.4465675572213
 30
0.0
 11
23.58703833313015
 21
4.974999547552641
 31
0.0
  0
LINE
  5
1200
330
10FA
100
AcDbEntity
  8
0
 62
     0
100
AcDbLine
 10
27.5211063427989
 20
9.35808036327478
 30
0.0
 11
28.92110634279891
 21
10.75808036327481
 31
0.0
  0
LINE
  5
1201
330
10FA
100
AcDbEntity
  8
0
 62
     0
100
AcDbLine
 10
24.70334118810723
 20
6.540315208583137
 30
0.0
 11
25.69329068176839
 21
7.530264702244295
 31
0.0
  0
LINE
  5
1202
330
10FA
100
AcDbEntity
  8
0
 62
     0
100
AcDbLine
 10
24.47883478508049
 20
6.764821611609875
 30
0.0
 11
25.46878427874165
 21
7.754771105271032
 31
0.0
  0
LINE
  5
1203
330
10FA
100
AcDbEntity
  8
0
 62
     0
100
AcDbLine
 10
27.52110634279887
 20
9.807093169328254
 30
0.0
 11
28.92110634279891
 21
11.20709316932828
 31
0.0
  0
LINE
  5
1204
330
10FA
100
AcDbEntity
  8
0
 62
     0
100
AcDbLine
 10
21.28901272102325
 20
3.574999547552636
 30
0.0
 11
21.74610634279886
 21
4.032093169328248
 31
0.0
  0
LINE
  5
1205
330
10FA
100
AcDbEntity
  8
0
 62
     0
100
AcDbLine
 10
24.25432838205381
 20
6.98932801463664
 30
0.0
 11
25.24427787571491
 21
7.979277508297769
 31
0.0
  0
LINE
  5
1206
330
10FA
100
AcDbEntity
  8
0
 62
     0
100
AcDbLine
 10
27.52110634279887
 20
10.25610597538172
 30
0.0
 11
28.82801588874943
 21
11.56301552133228
 31
0.0
  0
LINE
  5
1207
330
10FA
100
AcDbEntity
  8
0
 62
     0
100
AcDbLine
 10
20.83999991496975
 20
3.574999547552607
 30
0.0
 11
21.74610634279886
 21
4.481105975381723
 31
0.0
  0
LINE
  5
1208
330
10FA
100
AcDbEntity
  8
0
 62
     0
100
AcDbLine
 10
24.02982197902701
 20
7.213834417663349
 30
0.0
 11
25.01977147268817
 21
8.203783911324507
 31
0.0
  0
LINE
  5
1209
330
10FA
100
AcDbEntity
  8
0
 62
     0
100
AcDbLine
 10
27.52110634279887
 20
10.70511878143517
 30
0.0
 11
28.44098710891632
 21
11.62499954755264
 31
0.0
  0
LINE
  5
120A
330
10FA
100
AcDbEntity
  8
0
 62
     0
100
AcDbLine
 10
20.44679267784732
 20
3.630805116483657
 30
0.0
 11
21.74610634279886
 21
4.930118781435169
 31
0.0
  0
LINE
  5
120B
330
10FA
100
AcDbEntity
  8
0
 62
     0
100
AcDbLine
 10
23.8053155760003
 20
7.438340820690058
 30
0.0
 11
24.79526506966147
 21
8.428290314351215
 31
0.0
  0
LINE
  5
120C
330
10FA
100
AcDbEntity
  8
0
 62
     0
100
AcDbLine
 10
27.52110634279887
 20
11.15413158748862
 30
0.0
 11
27.99197430286287
 21
11.62499954755261
 31
0.0
  0
LINE
  5
120D
330
10FA
100
AcDbEntity
  8
0
 62
     0
100
AcDbLine
 10
20.34610634279889
 20
3.979131587488637
 30
0.0
 11
21.74610634279886
 21
5.379131587488615
 31
0.0
  0
LINE
  5
120E
330
10FA
100
AcDbEntity
  8
0
 62
     0
100
AcDbLine
 10
23.58080917297357
 20
7.662847223716795
 30
0.0
 11
24.57075866663473
 21
8.652796717377952
 31
0.0
  0
LINE
  5
120F
330
10FA
100
AcDbEntity
  8
0
 62
     0
100
AcDbLine
 10
20.34610634279886
 20
4.428144393542083
 30
0.0
 11
21.74610634279886
 21
5.828144393542061
 31
0.0
  0
LINE
  5
1210
330
10FA
100
AcDbEntity
  8
0
 62
     0
100
AcDbLine
 10
23.35731722245293
 20
7.88836807924963
 30
0.0
 11
24.34930398914392
 21
8.880354845940615
 31
0.0
  0
LINE
  5
1211
330
10FA
100
AcDbEntity
  8
0
 62
     0
100
AcDbLine
 10
20.34610634279886
 20
4.877157199595558
 30
0.0
 11
21.74610634279884
 21
6.277157199595535
 31
0.0
  0
LINE
  5
1212
330
10FA
100
AcDbEntity
  8
0
 62
     0
100
AcDbLine
 10
25.69394869075591
 20
10.22499954755261
 30
0.0
 11
26.20860634279887
 21
10.73965719959556
 31
0.0
  0
LINE
  5
1213
330
10FA
100
AcDbEntity
  8
0
 62
     0
100
AcDbLine
 10
19.09977823044334
 20
3.630829087240044
 30
0.0
 11
19.14460441117165
 21
3.675655267968352
 31
0.0
  0
LINE
  5
1214
330
10FA
100
AcDbEntity
  8
0
 62
     0
100
AcDbLine
 10
23.15831613304195
 20
8.138379795892063
 30
0.0
 11
24.20813327175128
 21
9.188196934601393
 31
0.0
  0
LINE
  5
1215
330
10FA
100
AcDbEntity
  8
0
 62
     0
100
AcDbLine
 10
20.34610634279889
 20
5.326170005648975
 30
0.0
 11
21.74610634279886
 21
6.726170005648981
 31
0.0
  0
LINE
  5
1216
330
10FA
100
AcDbEntity
  8
0
 62
     0
100
AcDbLine
 10
25.24493588470249
 20
10.22499954755258
 30
0.0
 11
26.2086063427989
 21
11.18867000564898
 31
0.0
  0
LINE
  5
1217
330
10FA
100
AcDbEntity
  8
0
 62
     0
100
AcDbLine
 10
18.59493588470249
 20
3.574999547552607
 30
0.0
 11
19.12782543285581
 21
4.1078890957059
 31
0.0
  0
LINE
  5
1218
330
10FA
100
AcDbEntity
  8
0
 62
     0
100
AcDbLine
 10
22.99539900084357
 20
8.424475469747164
 30
0.0
 11
24.19610634279888
 21
9.625182811702472
 31
0.0
  0
LINE
  5
1219
330
10FA
100
AcDbEntity
  8
0
 62
     0
100
AcDbLine
 10
20.34610634279886
 20
5.77518281170245
 30
0.0
 11
21.74610634279886
 21
7.175182811702427
 31
0.0
  0
LINE
  5
121A
330
10FA
100
AcDbEntity
  8
0
 62
     0
100
AcDbLine
 10
24.79592307864902
 20
10.22499954755261
 30
0.0
 11
26.12527187689988
 21
11.55434834580347
 31
0.0
  0
LINE
  5
121B
330
10FA
100
AcDbEntity
  8
0
 62
     0
100
AcDbLine
 10
18.14592307864899
 20
3.574999547552579
 30
0.0
 11
19.02006235940297
 21
4.44913882830653
 31
0.0
  0
LINE
  5
121C
330
10FA
100
AcDbEntity
  8
0
 62
     0
100
AcDbLine
 10
20.34610634279886
 20
6.224195617755896
 30
0.0
 11
21.74610634279884
 21
7.624195617755901
 31
0.0
  0
LINE
  5
121D
330
10FA
100
AcDbEntity
  8
0
 62
     0
100
AcDbLine
 10
22.87370796950858
 20
8.751797244465649
 30
0.0
 11
25.74691027259558
 21
11.62499954755264
 31
0.0
  0
LINE
  5
121E
330
10FA
100
AcDbEntity
  8
0
 62
     0
100
AcDbLine
 10
17.84991592332159
 20
3.728005198278623
 30
0.0
 11
18.91229928595012
 21
4.79038856090716
 31
0.0
  0
LINE
  5
121F
330
10FA
100
AcDbEntity
  8
0
 62
     0
100
AcDbLine
 10
20.34610634279883
 20
6.67320842380937
 30
0.0
 11
21.74610634279884
 21
8.073208423809347
 31
0.0
  0
LINE
  5
1220
330
10FA
100
AcDbEntity
  8
0
 62
     0
100
AcDbLine
 10
22.80435453996574
 20
9.13145662097628
 30
0.0
 11
25.29789746654214
 21
11.62499954755264
 31
0.0
  0
LINE
  5
1221
330
10FA
100
AcDbEntity
  8
0
 62
     0
100
AcDbLine
 10
17.74053621249726
 20
4.067638293507769
 30
0.0
 11
18.80453621249728
 21
5.131638293507819
 31
0.0
  0
LINE
  5
1222
330
10FA
100
AcDbEntity
  8
0
 62
     0
100
AcDbLine
 10
20.34610634279889
 20
7.122221229862844
 30
0.0
 11
21.74610634279884
 21
8.522221229862793
 31
0.0
  0
LINE
  5
1223
330
10FA
100
AcDbEntity
  8
0
 62
     0
100
AcDbLine
 10
22.79610634279884
 20
9.572221229862805
 30
0.0
 11
24.84888466048869
 21
11.62499954755264
 31
0.0
  0
LINE
  5
1224
330
10FA
100
AcDbEntity
  8
0
 62
     0
100
AcDbLine
 10
17.63277313904438
 20
4.408888026108343
 30
0.0
 11
18.69677313904449
 21
5.472888026108449
 31
0.0
  0
LINE
  5
1225
330
10FA
100
AcDbEntity
  8
0
 62
     0
100
AcDbLine
 10
20.34610634279889
 20
7.571234035916319
 30
0.0
 11
21.74610634279884
 21
8.971234035916268
 31
0.0
  0
LINE
  5
1226
330
10FA
100
AcDbEntity
  8
0
 62
     0
100
AcDbLine
 10
22.79610634279884
 20
10.02123403591625
 30
0.0
 11
24.39987185443524
 21
11.62499954755264
 31
0.0
  0
LINE
  5
1227
330
10FA
100
AcDbEntity
  8
0
 62
     0
100
AcDbLine
 10
17.5250100655916
 20
4.750137758709001
 30
0.0
 11
18.58901006559162
 21
5.814137758709051
 31
0.0
  0
LINE
  5
1228
330
10FA
100
AcDbEntity
  8
0
 62
     0
100
AcDbLine
 10
20.34610634279889
 20
8.020246841969765
 30
0.0
 11
21.74610634279884
 21
9.420246841969714
 31
0.0
  0
LINE
  5
1229
330
10FA
100
AcDbEntity
  8
0
 62
     0
100
AcDbLine
 10
17.41724699213875
 20
5.09138749130966
 30
0.0
 11
18.48124699213883
 21
6.15538749130971
 31
0.0
  0
LINE
  5
122A
330
10FA
100
AcDbEntity
  8
0
 62
     0
100
AcDbLine
 10
22.82276467785956
 20
10.49690517703044
 30
0.0
 11
23.92420071332105
 21
11.59834121249193
 31
0.0
  0
LINE
  5
122B
330
10FA
100
AcDbEntity
  8
0
 62
     0
100
AcDbLine
 10
15.9008590483817
 20
3.574999547552607
 30
0.0
 11
16.32110634279888
 21
3.995246841969787
 31
0.0
  0
LINE
  5
122C
330
10FA
100
AcDbEntity
  8
0
 62
     0
100
AcDbLine
 10
17.30948391868594
 20
5.432637223910262
 30
0.0
 11
18.37348391868596
 21
6.496637223910283
 31
0.0
  0
LINE
  5
122D
330
10FA
100
AcDbEntity
  8
0
 62
     0
100
AcDbLine
 10
20.34610634279889
 20
8.469259648023211
 30
0.0
 11
21.74610634279884
 21
9.86925964802316
 31
0.0
  0
LINE
  5
122E
330
10FA
100
AcDbEntity
  8
0
 62
     0
100
AcDbLine
 10
15.45184624232828
 20
3.574999547552579
 30
0.0
 11
16.32110634279891
 21
4.444259648023205
 31
0.0
  0
LINE
  5
122F
330
10FA
100
AcDbEntity
  8
0
 62
     0
100
AcDbLine
 10
17.20172084523307
 20
5.773886956510835
 30
0.0
 11
18.26572084523317
 21
6.837886956510942
 31
0.0
  0
LINE
  5
1230
330
10FA
100
AcDbEntity
  8
0
 62
     0
100
AcDbLine
 10
20.34610634279889
 20
8.918272454076657
 30
0.0
 11
21.74610634279884
 21
10.3182724540766
 31
0.0
  0
LINE
  5
1231
330
10FA
100
AcDbEntity
  8
0
 62
     0
100
AcDbLine
 10
15.04340831010051
 20
3.615574421378283
 30
0.0
 11
16.32110634279888
 21
4.893272454076679
 31
0.0
  0
LINE
  5
1232
330
10FA
100
AcDbEntity
  8
0
 62
     0
100
AcDbLine
 10
17.09395777178025
 20
6.115136689111523
 30
0.0
 11
18.15795777178027
 21
7.179136689111544
 31
0.0
  0
LINE
  5
1233
330
10FA
100
AcDbEntity
  8
0
 62
     0
100
AcDbLine
 10
20.34610634279886
 20
9.367285260130131
 30
0.0
 11
21.7461063427988
 21
10.76728526013008
 31
0.0
  0
LINE
  5
1234
330
10FA
100
AcDbEntity
  8
0
 62
     0
100
AcDbLine
 10
14.92110634279885
 20
3.94228526013012
 30
0.0
 11
16.32110634279888
 21
5.342285260130154
 31
0.0
  0
LINE
  5
1235
330
10FA
100
AcDbEntity
  8
0
 62
     0
100
AcDbLine
 10
16.98619469832743
 20
6.456386421712124
 30
0.0
 11
18.05019469832751
 21
7.520386421712203
 31
0.0
  0
LINE
  5
1236
330
10FA
100
AcDbEntity
  8
0
 62
     0
100
AcDbLine
 10
20.34610634279889
 20
9.816298066183577
 30
0.0
 11
21.74610634279884
 21
11.21629806618352
 31
0.0
  0
LINE
  5
1237
330
10FA
100
AcDbEntity
  8
0
 62
     0
100
AcDbLine
 10
14.92110634279887
 20
4.391298066183537
 30
0.0
 11
16.32110634279894
 21
5.791298066183628
 31
0.0
  0
LINE
  5
1238
330
10FA
100
AcDbEntity
  8
0
 62
     0
100
AcDbLine
 10
16.86879530484151
 20
6.787999834279673
 30
0.0
 11
18.18394233880707
 21
8.103146868245232
 31
0.0
  0
LINE
  5
1239
330
10FA
100
AcDbEntity
  8
0
 62
     0
100
AcDbLine
 10
20.34610634279891
 20
10.26531087223708
 30
0.0
 11
21.64796863154961
 21
11.56717316098774
 31
0.0
  0
LINE
  5
123A
330
10FA
100
AcDbEntity
  8
0
 62
     0
100
AcDbLine
 10
14.92110634279885
 20
4.840310872237012
 30
0.0
 11
16.32110634279894
 21
6.240310872237074
 31
0.0
  0
LINE
  5
123B
330
10FA
100
AcDbEntity
  8
0
 62
     0
100
AcDbLine
 10
16.52520261990778
 20
6.893419955399423
 30
0.0
 11
18.39117901852407
 21
8.759396354015706
 31
0.0
  0
LINE
  5
123C
330
10FA
100
AcDbEntity
  8
0
 62
     0
100
AcDbLine
 10
14.92110634279885
 20
5.289323678290486
 30
0.0
 11
16.32768593495208
 21
6.695903270443722
 31
0.0
  0
LINE
  5
123D
330
10FA
100
AcDbEntity
  8
0
 62
     0
100
AcDbLine
 10
20.34610634279891
 20
10.71432367829052
 30
0.0
 11
21.25678221206101
 21
11.62499954755264
 31
0.0
  0
LINE
  5
123E
330
10FA
100
AcDbEntity
  8
0
 62
     0
100
AcDbLine
 10
13.206782212061
 20
3.574999547552607
 30
0.0
 11
13.69610634279891
 21
4.064323678290548
 31
0.0
  0
LINE
  5
123F
330
10FA
100
AcDbEntity
  8
0
 62
     0
100
AcDbLine
 10
14.92110634279885
 20
5.738336484343932
 30
0.0
 11
18.59841569824107
 21
9.415645839786179
 31
0.0
  0
LINE
  5
1240
330
10FA
100
AcDbEntity
  8
0
 62
     0
100
AcDbLine
 10
20.34610634279889
 20
11.163336484344
 30
0.0
 11
20.80776940600753
 21
11.62499954755264
 31
0.0
  0
LINE
  5
1241
330
10FA
100
AcDbEntity
  8
0
 62
     0
100
AcDbLine
 10
12.75776940600752
 20
3.574999547552636
 30
0.0
 11
13.69610634279891
 21
4.513336484343994
 31
0.0
  0
LINE
  5
1242
330
10FA
100
AcDbEntity
  8
0
 62
     0
100
AcDbLine
 10
14.9211063427989
 20
6.187349290397406
 30
0.0
 11
18.80565237795809
 21
10.07189532555662
 31
0.0
  0
LINE
  5
1243
330
10FA
100
AcDbEntity
  8
0
 62
     0
100
AcDbLine
 10
12.31459691212913
 20
3.58083985972766
 30
0.0
 11
13.62543920099574
 21
4.891682148594242
 31
0.0
  0
LINE
  5
1244
330
10FA
100
AcDbEntity
  8
0
 62
     0
100
AcDbLine
 10
14.92110634279887
 20
6.636362096450881
 30
0.0
 11
16.58474379390062
 21
8.29999954755263
 31
0.0
  0
LINE
  5
1245
330
10FA
100
AcDbEntity
  8
0
 62
     0
100
AcDbLine
 10
16.96673521152115
 20
8.681990965173127
 30
0.0
 11
19.01288905767506
 21
10.72814481132706
 31
0.0
  0
LINE
  5
1246
330
10FA
100
AcDbEntity
  8
0
 62
     0
100
AcDbLine
 10
11.93051665340564
 20
3.64577240705762
 30
0.0
 11
13.25974379390061
 21
4.974999547552613
 31
0.0
  0
LINE
  5
1247
330
10FA
100
AcDbEntity
  8
0
 62
     0
100
AcDbLine
 10
14.92110634279887
 20
7.085374902504327
 30
0.0
 11
16.33010162815301
 21
8.494370187858493
 31
0.0
  0
LINE
  5
1248
330
10FA
100
AcDbEntity
  8
0
 62
     0
100
AcDbLine
 10
17.17397189123809
 20
9.338240450943573
 30
0.0
 11
19.20042478357572
 21
11.3646933432812
 31
0.0
  0
LINE
  5
1249
330
10FA
100
AcDbEntity
  8
0
 62
     0
100
AcDbLine
 10
11.59994952499243
 20
3.764218084697915
 30
0.0
 11
12.81073098784716
 21
4.974999547552613
 31
0.0
  0
LINE
  5
124A
330
10FA
100
AcDbEntity
  8
0
 62
     0
100
AcDbLine
 10
14.92110634279887
 20
7.534387708557773
 30
0.0
 11
16.32110634279891
 21
8.934387708557807
 31
0.0
  0
LINE
  5
124B
330
10FA
100
AcDbEntity
  8
0
 62
     0
100
AcDbLine
 10
17.38120857095509
 20
9.994489936713989
 30
0.0
 11
19.00341884729104
 21
11.61670021304993
 31
0.0
  0
LINE
  5
124C
330
10FA
100
AcDbEntity
  8
0
 62
     0
100
AcDbLine
 10
11.31114788291029
 20
3.924429248669156
 30
0.0
 11
12.36917881215672
 21
4.982460177915612
 31
0.0
  0
LINE
  5
124D
330
10FA
100
AcDbEntity
  8
0
 62
     0
100
AcDbLine
 10
14.92110634279887
 20
7.983400514611247
 30
0.0
 11
16.32110634279891
 21
9.383400514611253
 31
0.0
  0
LINE
  5
124E
330
10FA
100
AcDbEntity
  8
0
 62
     0
100
AcDbLine
 10
17.58844525067206
 20
10.6507394224844
 30
0.0
 11
18.56270537574025
 21
11.62499954755261
 31
0.0
  0
LINE
  5
124F
330
10FA
100
AcDbEntity
  8
0
 62
     0
100
AcDbLine
 10
11.05867039971926
 20
4.120964571531601
 30
0.0
 11
12.05202074164756
 21
5.114314913459907
 31
0.0
  0
LINE
  5
1250
330
10FA
100
AcDbEntity
  8
0
 62
     0
100
AcDbLine
 10
14.92110634279887
 20
8.432413320664693
 30
0.0
 11
16.32110634279888
 21
9.832413320664727
 31
0.0
  0
LINE
  5
1251
330
10FA
100
AcDbEntity
  8
0
 62
     0
100
AcDbLine
 10
13.25192340868696
 20
6.763230386552805
 30
0.0
 11
13.83287550379867
 21
7.344182481664518
 31
0.0
  0
LINE
  5
1252
330
10FA
100
AcDbEntity
  8
0
 62
     0
100
AcDbLine
 10
17.795681930389
 20
11.30698890825485
 30
0.0
 11
18.11369256968677
 21
11.62499954755261
 31
0.0
  0
LINE
  5
1253
330
10FA
100
AcDbEntity
  8
0
 62
     0
100
AcDbLine
 10
10.84045186305434
 20
4.351758840920183
 30
0.0
 11
11.84689526601147
 21
5.358202243877315
 31
0.0
  0
LINE
  5
1254
330
10FA
100
AcDbEntity
  8
0
 62
     0
100
AcDbLine
 10
12.7894369878721
 20
6.749756771791425
 30
0.0
 11
13.84634911856005
 21
7.806668902479373
 31
0.0
  0
LINE
  5
1255
330
10FA
100
AcDbEntity
  8
0
 62
     0
100
AcDbLine
 10
14.92110634279885
 20
8.881426126718167
 30
0.0
 11
16.32110634279888
 21
10.2814261267182
 31
0.0
  0
LINE
  5
1256
330
10FA
100
AcDbEntity
  8
0
 62
     0
100
AcDbLine
 10
10.65694225058285
 20
4.617262034502147
 30
0.0
 11
11.7711063427989
 21
5.73142612671819
 31
0.0
  0
LINE
  5
1257
330
10FA
100
AcDbEntity
  8
0
 62
     0
100
AcDbLine
 10
12.48236370316203
 20
6.891696293134742
 30
0.0
 11
13.70440959721671
 21
8.113742187189444
 31
0.0
  0
LINE
  5
1258
330
10FA
100
AcDbEntity
  8
0
 62
     0
100
AcDbLine
 10
14.92110634279887
 20
9.330438932771585
 30
0.0
 11
16.32110634279891
 21
10.73043893277161
 31
0.0
  0
LINE
  5
1259
330
10FA
100
AcDbEntity
  8
0
 62
     0
100
AcDbLine
 10
10.51128349562048
 20
4.920616085593223
 30
0.0
 11
11.7711063427989
 21
6.180438932771636
 31
0.0
  0
LINE
  5
125A
330
10FA
100
AcDbEntity
  8
0
 62
     0
100
AcDbLine
 10
12.26338373966717
 20
7.121729135693385
 30
0.0
 11
13.47437675465809
 21
8.332722150684276
 31
0.0
  0
LINE
  5
125B
330
10FA
100
AcDbEntity
  8
0
 62
     0
100
AcDbLine
 10
14.92110634279885
 20
9.779451738825059
 30
0.0
 11
16.32110634279894
 21
11.17945173882512
 31
0.0
  0
LINE
  5
125C
330
10FA
100
AcDbEntity
  8
0
 62
     0
100
AcDbLine
 10
10.41071481353316
 20
5.26906020955937
 30
0.0
 11
11.7711063427989
 21
6.62945173882511
 31
0.0
  0
LINE
  5
125D
330
10FA
100
AcDbEntity
  8
0
 62
     0
100
AcDbLine
 10
12.13535837346302
 20
7.442716575542704
 30
0.0
 11
13.15338931480877
 21
8.46074751688846
 31
0.0
  0
LINE
  5
125E
330
10FA
100
AcDbEntity
  8
0
 62
     0
100
AcDbLine
 10
10.37110634279881
 20
5.678464544878494
 30
0.0
 11
11.77110634279887
 21
7.078464544878556
 31
0.0
  0
LINE
  5
125F
330
10FA
100
AcDbEntity
  8
0
 62
     0
100
AcDbLine
 10
14.92110634279885
 20
10.22846454487853
 30
0.0
 11
16.24248128862126
 21
11.54983949070094
 31
0.0
  0
LINE
  5
1260
330
10FA
100
AcDbEntity
  8
0
 62
     0
100
AcDbLine
 10
8.328107963860986
 20
3.63546616594067
 30
0.0
 11
9.26063972441085
 21
4.567997926490534
 31
0.0
  0
LINE
  5
1261
330
10FA
100
AcDbEntity
  8
0
 62
     0
100
AcDbLine
 10
12.19456491520344
 20
7.950935923336515
 30
0.0
 11
12.64516996701493
 21
8.401540975148037
 31
0.0
  0
LINE
  5
1262
330
10FA
100
AcDbEntity
  8
0
 62
     0
100
AcDbLine
 10
10.37110634279886
 20
6.127477350931968
 30
0.0
 11
11.7711063427989
 21
7.527477350932002
 31
0.0
  0
LINE
  5
1263
330
10FA
100
AcDbEntity
  8
0
 62
     0
100
AcDbLine
 10
14.92110634279887
 20
10.67747735093195
 30
0.0
 11
15.86862853941951
 21
11.62499954755261
 31
0.0
  0
LINE
  5
1264
330
10FA
100
AcDbEntity
  8
0
 62
     0
100
AcDbLine
 10
7.818628539419506
 20
3.574999547552607
 30
0.0
 11
9.321106342798913
 21
5.077477350932014
 31
0.0
  0
LINE
  5
1265
330
10FA
100
AcDbEntity
  8
0
 62
     0
100
AcDbLine
 10
10.37110634279886
 20
6.576490156985443
 30
0.0
 11
11.7711063427989
 21
7.976490156985448
 31
0.0
  0
LINE
  5
1266
330
10FA
100
AcDbEntity
  8
0
 62
     0
100
AcDbLine
 10
14.9211063427989
 20
11.12649015698545
 30
0.0
 11
15.41961573336607
 21
11.62499954755264
 31
0.0
  0
LINE
  5
1267
330
10FA
100
AcDbEntity
  8
0
 62
     0
100
AcDbLine
 10
7.369615733366003
 20
3.574999547552579
 30
0.0
 11
9.321106342798941
 21
5.526490156985516
 31
0.0
  0
LINE
  5
1268
330
10FA
100
AcDbEntity
  8
0
 62
     0
100
AcDbLine
 10
10.37110634279886
 20
7.025502963038888
 30
0.0
 11
11.77110634279887
 21
8.425502963038923
 31
0.0
  0
LINE
  5
1269
330
10FA
100
AcDbEntity
  8
0
 62
     0
100
AcDbLine
 10
6.920602927312586
 20
3.574999547552636
 30
0.0
 11
9.319136666518289
 21
5.973533286758339
 31
0.0
  0
LINE
  5
126A
330
10FA
100
AcDbEntity
  8
0
 62
     0
100
AcDbLine
 10
10.37110634279886
 20
7.474515769092363
 30
0.0
 11
11.7711063427989
 21
8.874515769092397
 31
0.0
  0
LINE
  5
126B
330
10FA
100
AcDbEntity
  8
0
 62
     0
100
AcDbLine
 10
13.12159012125917
 20
10.22499954755267
 30
0.0
 11
13.69610634279891
 21
10.7995157690924
 31
0.0
  0
LINE
  5
126C
330
10FA
100
AcDbEntity
  8
0
 62
     0
100
AcDbLine
 10
6.471590121259112
 20
3.574999547552607
 30
0.0
 11
9.264305748357571
 21
6.367715174651067
 31
0.0
  0
LINE
  5
126D
330
10FA
100
AcDbEntity
  8
0
 62
     0
100
AcDbLine
 10
10.37110634279886
 20
7.92352857514578
 30
0.0
 11
11.77110634279887
 21
9.323528575145815
 31
0.0
  0
LINE
  5
126E
330
10FA
100
AcDbEntity
  8
0
 62
     0
100
AcDbLine
 10
7.921106342798879
 20
5.473528575145792
 30
0.0
 11
9.153136376335567
 21
6.70555860868248
 31
0.0
  0
LINE
  5
126F
330
10FA
100
AcDbEntity
  8
0
 62
     0
100
AcDbLine
 10
12.67257731520567
 20
10.22499954755261
 30
0.0
 11
13.69610634279891
 21
11.24852857514585
 31
0.0
  0
LINE
  5
1270
330
10FA
100
AcDbEntity
  8
0
 62
     0
100
AcDbLine
 10
6.051440252835647
 20
3.603862485182588
 30
0.0
 11
7.422577315205671
 21
4.974999547552613
 31
0.0
  0
LINE
  5
1271
330
10FA
100
AcDbEntity
  8
0
 62
     0
100
AcDbLine
 10
10.37110634279883
 20
8.372541381199255
 30
0.0
 11
11.85401369568864
 21
9.855448734089065
 31
0.0
  0
LINE
  5
1272
330
10FA
100
AcDbEntity
  8
0
 62
     0
100
AcDbLine
 10
7.920026796994193
 20
5.92146183539458
 30
0.0
 11
8.998920608999497
 21
7.000355647399914
 31
0.0
  0
LINE
  5
1273
330
10FA
100
AcDbEntity
  8
0
 62
     0
100
AcDbLine
 10
12.14065715626242
 20
10.14209219466283
 30
0.0
 11
13.57937263533887
 21
11.58080767373928
 31
0.0
  0
LINE
  5
1274
330
10FA
100
AcDbEntity
  8
0
 62
     0
100
AcDbLine
 10
5.908606342798861
 20
3.910041381199278
 30
0.0
 11
6.973564509152225
 21
4.974999547552613
 31
0.0
  0
LINE
  5
1275
330
10FA
100
AcDbEntity
  8
0
 62
     0
100
AcDbLine
 10
7.810225287243838
 20
6.260673131697728
 30
0.0
 11
8.807799626580049
 21
7.258247471033939
 31
0.0
  0
LINE
  5
1276
330
10FA
100
AcDbEntity
  8
0
 62
     0
100
AcDbLine
 10
10.37110634279883
 20
8.821554187252729
 30
0.0
 11
13.17455170309878
 21
11.62499954755267
 31
0.0
  0
LINE
  5
1277
330
10FA
100
AcDbEntity
  8
0
 62
     0
100
AcDbLine
 10
5.908606342798861
 20
4.359054187252723
 30
0.0
 11
6.524551703098751
 21
4.974999547552641
 31
0.0
  0
LINE
  5
1278
330
10FA
100
AcDbEntity
  8
0
 62
     0
100
AcDbLine
 10
7.597097873091513
 20
6.496558523598821
 30
0.0
 11
8.58704736675267
 21
7.486508017259978
 31
0.0
  0
LINE
  5
1279
330
10FA
100
AcDbEntity
  8
0
 62
     0
100
AcDbLine
 10
10.37110634279883
 20
9.270566993306147
 30
0.0
 11
12.72553889704525
 21
11.62499954755256
 31
0.0
  0
LINE
  5
127A
330
10FA
100
AcDbEntity
  8
0
 62
     0
100
AcDbLine
 10
5.943082303808694
 20
4.842542954316002
 30
0.0
 11
6.041062936035501
 21
4.940523586542809
 31
0.0
  0
LINE
  5
127B
330
10FA
100
AcDbEntity
  8
0
 62
     0
100
AcDbLine
 10
10.38109389987707
 20
9.729567356437826
 30
0.0
 11
12.26653853391357
 21
11.61501199047435
 31
0.0
  0
LINE
  5
127C
330
10FA
100
AcDbEntity
  8
0
 62
     0
100
AcDbLine
 10
7.372591470064776
 20
6.721064926625558
 30
0.0
 11
8.362540963725933
 21
7.711014420286716
 31
0.0
  0
LINE
  5
127D
330
10FA
100
AcDbEntity
  8
0
 62
     0
100
AcDbLine
 10
10.53082561600996
 20
10.32831187862422
 30
0.0
 11
11.66779401172721
 21
11.46528027434146
 31
0.0
  0
LINE
  5
127E
330
10FA
100
AcDbEntity
  8
0
 62
     0
100
AcDbLine
 10
7.148085067038039
 20
6.945571329652295
 30
0.0
 11
8.138034560699196
 21
7.935520823313453
 31
0.0
  0
LINE
  5
127F
330
10FA
100
AcDbEntity
  8
0
 62
     0
100
AcDbLine
 10
6.92357866401133
 20
7.170077732679004
 30
0.0
 11
7.913528157672487
 21
8.160027226340162
 31
0.0
  0
LINE
  5
1280
330
10FA
100
AcDbEntity
  8
0
 62
     0
100
AcDbLine
 10
6.699072260984593
 20
7.394584135705741
 30
0.0
 11
7.68902175464575
 21
8.384533629366899
 31
0.0
  0
LINE
  5
1281
330
10FA
100
AcDbEntity
  8
0
 62
     0
100
AcDbLine
 10
6.474565857957827
 20
7.61909053873245
 30
0.0
 11
7.464515351619013
 21
8.609040032393636
 31
0.0
  0
LINE
  5
1282
330
10FA
100
AcDbEntity
  8
0
 62
     0
100
AcDbLine
 10
8.631462060724544
 20
10.22499954755261
 30
0.0
 11
9.058606342798867
 21
10.65214382962696
 31
0.0
  0
LINE
  5
1283
330
10FA
100
AcDbEntity
  8
0
 62
     0
100
AcDbLine
 10
6.250101111945156
 20
7.843638598773253
 30
0.0
 11
7.240133933661439
 21
8.833671420489537
 31
0.0
  0
LINE
  5
1284
330
10FA
100
AcDbEntity
  8
0
 62
     0
100
AcDbLine
 10
8.182449254671098
 20
10.22499954755261
 30
0.0
 11
9.058606342798896
 21
11.10115663568038
 31
0.0
  0
LINE
  5
1285
330
10FA
100
AcDbEntity
  8
0
 62
     0
100
AcDbLine
 10
6.044367149669369
 20
8.086917442550856
 30
0.0
 11
7.075185493017499
 21
9.117735785899014
 31
0.0
  0
LINE
  5
1286
330
10FA
100
AcDbEntity
  8
0
 62
     0
100
AcDbLine
 10
7.733436448617624
 20
10.22499954755261
 30
0.0
 11
9.015326892918295
 21
11.50688999185328
 31
0.0
  0
LINE
  5
1287
330
10FA
100
AcDbEntity
  8
0
 62
     0
100
AcDbLine
 10
5.874136846538135
 20
8.365699945473096
 30
0.0
 11
7.04610634279885
 21
9.537669441733811
 31
0.0
  0
LINE
  5
1288
330
10FA
100
AcDbEntity
  8
0
 62
     0
100
AcDbLine
 10
7.283190317979148
 20
10.22376622296761
 30
0.0
 11
8.684423642564155
 21
11.62499954755261
 31
0.0
  0
LINE
  5
1289
330
10FA
100
AcDbEntity
  8
0
 62
     0
100
AcDbLine
 10
5.743790198672087
 20
8.684366103660522
 30
0.0
 11
7.047339667383937
 21
9.987915572372401
 31
0.0
  0
LINE
  5
128A
330
10FA
100
AcDbEntity
  8
0
 62
     0
100
AcDbLine
 10
5.662884217548054
 20
9.052472928589935
 30
0.0
 11
8.235410836510766
 21
11.62499954755264
 31
0.0
  0
LINE
  5
128B
330
10FA
100
AcDbEntity
  8
0
 62
     0
100
AcDbLine
 10
5.646106342798901
 20
9.484707859894228
 30
0.0
 11
7.786398030457263
 21
11.62499954755261
 31
0.0
  0
LINE
  5
128C
330
10FA
100
AcDbEntity
  8
0
 62
     0
100
AcDbLine
 10
5.646106342798873
 20
9.933720665947703
 30
0.0
 11
7.337385224403789
 21
11.62499954755261
 31
0.0
  0
LINE
  5
128D
330
10FA
100
AcDbEntity
  8
0
 62
     0
100
AcDbLine
 10
5.656202348018041
 20
10.39282947722031
 30
0.0
 11
6.878276413131175
 21
11.61490354233345
 31
0.0
  0
ENDBLK
  5
128F
330
10FA
100
AcDbEntity
  8
0
100
AcDbBlockEnd
  0
ENDSEC
  0
SECTION
  2
ENTITIES
  0
LINE
  5
693
330
1A
100
AcDbEntity
  8
ZUWAKU
100
AcDbLine
 10
104.3233009104422
 20
7.599999547552665
 30
0.0
 11
223.7121822509039
 21
7.599999547552661
 31
0.0
  0
LINE
  5
694
330
1A
100
AcDbEntity
  8
ZUWAKU
100
AcDbLine
 10
104.3233009104422
 20
7.799999547552661
 30
0.0
 11
223.7121822509039
 21
7.799999547552666
 31
0.0
  0
LINE
  5
695
330
1A
100
AcDbEntity
  8
ZUWAKU
100
AcDbLine
 10
104.3233009104422
 20
7.699999547552661
 30
0.0
 11
223.7121822509039
 21
7.699999547552661
 31
0.0
  0
LINE
  5
696
330
1A
100
AcDbEntity
  8
ZUWAKU
100
AcDbLine
 10
0.0000002654082891
 20
15.39999954755265
 30
0.0
 11
398.7000002654082
 21
15.39999954755265
 31
0.0
  0
LINE
  5
697
330
1A
100
AcDbEntity
  8
ZUWAKU
100
AcDbLine
 10
0.0000002654082891
 20
15.29999954755265
 30
0.0
 11
398.7000002654082
 21
15.29999954755265
 31
0.0
  0
LINE
  5
698
330
1A
100
AcDbEntity
  8
ZUWAKU
100
AcDbLine
 10
0.0000002654082891
 20
15.19999954755265
 30
0.0
 11
398.7000002654082
 21
15.19999954755265
 31
0.0
  0
LINE
  5
699
330
1A
100
AcDbEntity
  8
ZUWAKU
100
AcDbLine
 10
0.0000002654082891
 20
15.09999954755264
 30
0.0
 11
398.7000002654082
 21
15.09999954755264
 31
0.0
  0
LINE
  5
69A
330
1A
100
AcDbEntity
  8
ZUWAKU
100
AcDbLine
 10
0.0000002654082891
 20
14.99999954755264
 30
0.0
 11
398.7000002654082
 21
14.99999954755264
 31
0.0
  0
LWPOLYLINE
  5
69B
330
1A
100
AcDbEntity
  8
ZUWAKU
100
AcDbPolyline
 90
        4
 70
     1
 43
0.0
 10
0.100000265408255
 20
275.6999995475526
 10
0.100000265408255
 20
0.0999995475526703
 10
398.7000002654082
 20
0.0999995475526818
 10
398.7000002654083
 20
275.6999995475526
  0
LWPOLYLINE
  5
69C
330
1A
100
AcDbEntity
  8
ZUWAKU
100
AcDbPolyline
 90
        4
 70
     1
 43
0.0
 10
0.3000002654082436
 20
275.4999995475527
 10
0.3000002654082436
 20
0.2999995475526589
 10
398.5000002654084
 20
0.299999547552682
 10
398.5000002654082
 20
275.4999995475527
  0
LWPOLYLINE
  5
69D
330
1A
100
AcDbEntity
  8
ZUWAKU
100
AcDbPolyline
 90
        4
 70
     1
 43
0.0
 10
0.0000002654082891
 20
275.7999995475526
 10
0.0000002654082891
 20
-0.0000004524473525
 10
398.8000002654083
 20
-0.0000004524473187
 10
398.8000002654083
 20
275.7999995475527
  0
LWPOLYLINE
  5
69E
330
1A
100
AcDbEntity
  8
ZUWAKU
100
AcDbPolyline
 90
        4
 70
     1
 43
0.0
 10
0.2000002654082777
 20
275.5999995475526
 10
0.2000002654082777
 20
0.199999547552693
 10
398.6000002654083
 20
0.1999995475526814
 10
398.6000002654083
 20
275.5999995475526
  0
LWPOLYLINE
  5
69F
330
1A
100
AcDbEntity
  8
ZUWAKU
100
AcDbPolyline
 90
        4
 70
     1
 43
0.0
 10
0.4000002654082664
 20
275.3999995475526
 10
0.4000002654082664
 20
0.3999995475526816
 10
398.4000002654082
 20
0.3999995475526816
 10
398.4000002654082
 20
275.3999995475526
  0
INSERT
  5
6A2
330
1A
100
AcDbEntity
  8
ZUWAKU
  6
Continuous
100
AcDbBlockReference
  2
*X17
 10
0.0
 20
0.0
 30
0.0
1001
ACAD
1000
HATCH
1002
{
1070
    19
1000
ANSI37
1040
0.1
1040
0.0
1000
R14_HATCH_DATA
1000
6A2
1011
1.0
1021
0.0
1031
0.0
1011
0.0
1021
1.0
1031
0.0
1011
0.0
1021
0.0
1031
1.0
1040
0.0
1010
0.0
1020
0.0
1030
1.0
1000
ANSI37
1070
     0
1070
     0
1071
        8
1071
        7
1070
     1
1070
     1
1071
       24
1040
7.251131595968215
1040
8.822423788044437
1040
-0.1989123673796348
1040
7.046106342798849
1040
9.317398534874961
1040
0.0
1040
7.046106342798849
1040
9.962499547552651
1040
-0.4142135623730912
1040
7.308606342798834
1040
10.22499954755264
1040
0.0
1040
8.796106342798788
1040
10.22499954755264
1040
0.4142135623731546
1040
9.058606342798841
1040
10.48749954755264
1040
0.0
1040
9.058606342798841
1040
11.36249954755265
1040
0.4142135623731586
1040
8.796106342798788
1040
11.62499954755264
1040
0.0
1040
7.046106342798849
1040
11.62499954755264
1040
0.4142135623730928
1040
5.646106342798869
1040
10.22499954755266
1040
0.0
1040
5.646106342798869
1040
9.317398534875026
1040
0.1989123673796619
1040
6.261182102307084
1040
7.832474294383221
1040
0.0
1040
7.716081089629423
1040
6.377575307060895
1040
-0.1989123673796613
1040
7.921106342798849
1040
5.882600560230301
1040
0.0
1040
7.921106342798849
1040
5.237499547552641
1040
-0.4142135623730911
1040
7.658606342798859
1040
4.974999547552648
1040
0.0
1040
6.171106342798904
1040
4.974999547552648
1040
0.4142135623731526
1040
5.908606342798859
1040
4.712499547552654
1040
0.0
1040
5.908606342798859
1040
3.837499547552643
1040
0.4142135623731526
1040
6.171106342798904
1040
3.574999547552649
1040
0.0
1040
7.921106342798849
1040
3.574999547552649
1040
0.4142135623731045
1040
9.321106342798886
1040
4.974999547552638
1040
0.0
1040
9.321106342798886
1040
5.882600560230271
1040
0.1989123673796604
1040
8.706030583290608
1040
7.367524800722041
1040
0.0
1071
        0
1071
        7
1070
     1
1070
     1
1071
       16
1040
11.77110634279886
1040
9.524999547552651
1040
-0.4142135623730935
1040
12.47110634279886
1040
10.22499954755264
1040
0.0
1040
13.43360634279884
1040
10.22499954755264
1040
0.4142135623731546
1040
13.69610634279888
1040
10.48749954755264
1040
0.0
1040
13.69610634279888
1040
11.36249954755265
1040
0.4142135623730951
1040
13.43360634279889
1040
11.62499954755264
1040
0.0
1040
12.4711063427988
1040
11.62499954755262
1040
0.4142135623730893
1040
10.37110634279883
1040
9.524999547552617
1040
0.0
1040
10.37110634279883
1040
5.674999547552661
1040
0.4142135623730969
1040
12.47110634279886
1040
3.574999547552649
1040
0.0
1040
13.43360634279884
1040
3.574999547552649
1040
0.4142135623731526
1040
13.69610634279888
1040
3.837499547552643
1040
0.0
1040
13.69610634279888
1040
4.712499547552654
1040
0.4142135623730891
1040
13.43360634279889
1040
4.974999547552648
1040
0.0
1040
12.47110634279886
1040
4.974999547552648
1040
-0.4142135623730928
1040
11.77110634279886
1040
5.674999547552641
1040
0.0
1071
        0
1071
        7
1070
     1
1070
     1
1071
        2
1040
12.12110634279884
1040
7.599999547552645
1040
1.0
1040
13.87110634279884
1040
7.599999547552645
1040
1.0
1071
        0
1071
        7
1070
     1
1070
     1
1071
       26
1040
18.65742958388784
1040
9.602523144334361
1040
0.0
1040
19.18824940045675
1040
11.28345256346915
1040
0.5069206636600134
1040
18.93793395085907
1040
11.62499954755264
1040
0.0
1040
18.08848926105445
1040
11.62499954755264
1040
0.3272098845218764
1040
17.83817381145678
1040
11.44154653163613
1040
0.0
1040
16.90403887414088
1040
8.483452563469185
1040
-0.3272098845219541
1040
16.65372342454315
1040
8.299999547552646
1040
0.0
1040
16.58360634279893
1040
8.299999547552646
1040
-0.4142135623731526
1040
16.32110634279888
1040
8.56249954755264
1040
0.0
1040
16.32110634279888
1040
11.36249954755265
1040
0.4142135623730951
1040
16.05860634279889
1040
11.62499954755264
1040
0.0
1040
15.18360634279883
1040
11.62499954755264
1040
0.4142135623730871
1040
14.92110634279885
1040
11.36249954755265
1040
0.0
1040
14.92110634279885
1040
3.837499547552643
1040
0.4142135623730891
1040
15.18360634279883
1040
3.574999547552649
1040
0.0
1040
16.05860634279884
1040
3.574999547552649
1040
0.4142135623731526
1040
16.32110634279888
1040
3.837499547552643
1040
0.0
1040
16.32110634279888
1040
6.63749954755265
1040
-0.4142135623731526
1040
16.58360634279893
1040
6.899999547552646
1040
0.0
1040
16.65372342454321
1040
6.899999547552646
1040
-0.3272098845218915
1040
16.90403887414088
1040
6.716546531636111
1040
0.0
1040
17.83817381145678
1040
3.758452563469185
1040
0.3272098845218902
1040
18.08848926105445
1040
3.574999547552649
1040
0.0
1040
18.93793395085907
1040
3.574999547552649
1040
0.5069206636600336
1040
19.18824940045675
1040
3.916546531636154
1040
0.0
1040
18.02505371121992
1040
7.599999547552716
1040
0.0
1071
        0
1071
        7
1070
     1
1070
     1
1071
        8
1040
21.74610634279883
1040
11.36249954755265
1040
0.4142135623731546
1040
21.48360634279879
1040
11.62499954755264
1040
0.0
1040
20.60860634279891
1040
11.62499954755264
1040
0.4142135623731507
1040
20.34610634279885
1040
11.36249954755265
1040
0.0
1040
20.34610634279885
1040
3.837499547552643
1040
0.4142135623731526
1040
20.60860634279891
1040
3.574999547552649
1040
0.0
1040
21.48360634279879
1040
3.574999547552649
1040
0.4142135623731526
1040
21.74610634279883
1040
3.837499547552643
1040
0.0
1071
        0
1071
        7
1070
     1
1070
     1
1071
       24
1040
24.19610634279888
1040
9.962499547552651
1040
-0.4142135623731546
1040
24.45860634279893
1040
10.22499954755264
1040
0.0
1040
25.94610634279888
1040
10.22499954755264
1040
0.4142135623730911
1040
26.20860634279887
1040
10.48749954755264
1040
0.0
1040
26.20860634279887
1040
11.36249954755265
1040
0.4142135623730952
1040
25.94610634279888
1040
11.62499954755264
1040
0.0
1040
24.19610634279888
1040
11.62499954755264
1040
0.4142135623731048
1040
22.79610634279884
1040
10.22499954755266
1040
0.0
1040
22.79610634279884
1040
9.317398534875026
1040
0.1989123673796613
1040
23.41118210230712
1040
7.832474294383251
1040
0.0
1040
24.86608108962945
1040
6.377575307060917
1040
-0.1989123673796402
1040
25.07110634279888
1040
5.882600560230381
1040
0.0
1040
25.07110634279888
1040
5.237499547552641
1040
-0.4142135623730911
1040
24.80860634279889
1040
4.974999547552648
1040
0.0
1040
23.32110634279888
1040
4.974999547552648
1040
0.4142135623731526
1040
23.05860634279884
1040
4.712499547552654
1040
0.0
1040
23.05860634279884
1040
3.837499547552643
1040
0.4142135623730891
1040
23.32110634279882
1040
3.574999547552649
1040
0.0
1040
25.07110634279888
1040
3.574999547552649
1040
0.4142135623730925
1040
26.47110634279886
1040
4.974999547552638
1040
0.0
1040
26.47110634279886
1040
5.882600560230271
1040
0.1989123673796675
1040
25.85603058329059
1040
7.367524800722101
1040
0.0
1040
24.4011315959683
1040
8.822423788044357
1040
-0.1989123673796652
1040
24.19610634279888
1040
9.317398534874939
1040
0.0
1071
        0
1071
        7
1070
     1
1070
     1
1071
       16
1040
28.92110634279885
1040
11.36249954755264
1040
0.414213562373103
1040
28.65860634279886
1040
11.62499954755264
1040
0.0
1040
27.78360634279886
1040
11.62499954755264
1040
0.4142135623730871
1040
27.52110634279887
1040
11.36249954755265
1040
0.0
1040
27.52110634279887
1040
4.974999547552638
1040
0.4142135623730927
1040
28.92110634279885
1040
3.574999547552649
1040
0.0
1040
30.67110634279885
1040
3.574999547552649
1040
0.4142135623731045
1040
32.07110634279888
1040
4.974999547552638
1040
0.0
1040
32.07110634279888
1040
11.36249954755265
1040
0.4142135623730951
1040
31.80860634279889
1040
11.62499954755264
1040
0.0
1040
30.93360634279884
1040
11.62499954755264
1040
0.4142135623730871
1040
30.67110634279885
1040
11.36249954755265
1040
0.0
1040
30.67110634279885
1040
5.499999547552635
1040
-0.4142135623730879
1040
30.14610634279887
1040
4.974999547552648
1040
0.0
1040
29.44610634279888
1040
4.974999547552648
1040
-0.4142135623731197
1040
28.92110634279885
1040
5.499999547552635
1040
0.0
1071
        0
1071
        7
1070
     1
1070
     1
1071
        8
1040
34.52110634279887
1040
11.36249954755265
1040
0.4142135623730871
1040
34.25860634279888
1040
11.62499954755264
1040
0.0
1040
33.38360634279888
1040
11.62499954755264
1040
0.4142135623731507
1040
33.12110634279884
1040
11.36249954755265
1040
0.0
1040
33.12110634279884
1040
3.837499547552643
1040
0.4142135623730891
1040
33.38360634279883
1040
3.574999547552649
1040
0.0
1040
34.25860634279888
1040
3.574999547552649
1040
0.4142135623730891
1040
34.52110634279887
1040
3.837499547552643
1040
0.0
1071
        0
1070
     0
1070
     1
1040
0.0
1040
0.1
1070
     0
1070
     2
1040
0.7853981633974483
1040
-450.4711519019312
1040
-6.600000452447313
1040
-0.2245064030267288
1040
0.2245064030267288
1070
     0
1040
2.356194490192344
1040
-450.4711519019312
1040
-6.600000452447313
1040
-0.2245064030267288
1040
-0.2245064030267288
1070
     0
1040
0.057451373970553
1071
        8
1040
8.039927746919939
1040
7.583586370495421
1040
0.0
1040
11.20225776862787
1040
9.422030638778151
1040
0.0
1040
12.58218420823811
1040
7.755940370588006
1040
0.0
1040
15.45703025622685
1040
8.100648370773395
1040
0.0
1040
20.91923627488665
1040
8.330454504544206
1040
0.0
1040
23.44910071297306
1040
9.709287705756251
1040
0.0
1040
28.27884325160846
1040
9.364578505100151
1040
0.0
1040
33.91354007521965
1040
9.594384638870961
1040
0.0
1002
}
  0
LINE
  5
6A3
330
1A
100
AcDbEntity
  8
ZUWAKU
100
AcDbLine
 10
12.47110634279886
 20
11.62499954755262
 30
0.0
 11
13.43360634279884
 21
11.62499954755264
 31
0.0
  0
LINE
  5
6A4
330
1A
100
AcDbEntity
  8
ZUWAKU
100
AcDbLine
 10
13.43360634279884
 20
10.22499954755264
 30
0.0
 11
12.47110634279886
 21
10.22499954755264
 31
0.0
  0
LINE
  5
6A5
330
1A
100
AcDbEntity
  8
ZUWAKU
100
AcDbLine
 10
12.47110634279886
 20
4.974999547552648
 30
0.0
 11
13.43360634279884
 21
4.974999547552648
 31
0.0
  0
LINE
  5
6A6
330
1A
100
AcDbEntity
  8
ZUWAKU
100
AcDbLine
 10
13.43360634279884
 20
3.574999547552649
 30
0.0
 11
12.47110634279886
 21
3.574999547552649
 31
0.0
  0
CIRCLE
  5
6A7
330
1A
100
AcDbEntity
  8
ZUWAKU
100
AcDbCircle
 10
12.99610634279883
 20
7.599999547552645
 30
0.0
 40
0.875
  0
ARC
  5
6A8
330
1A
100
AcDbEntity
  8
ZUWAKU
100
AcDbCircle
 10
7.746106342798839
 20
9.317398534874994
 30
0.0
 40
0.6999999999999995
100
AcDbArc
 50
180.0000000000015
 51
224.9999999999988
  0
LINE
  5
6A9
330
1A
100
AcDbEntity
  8
ZUWAKU
100
AcDbLine
 10
11.77110634279886
 20
9.524999547552646
 30
0.0
 11
11.77110634279886
 21
5.67499954755265
 31
0.0
  0
LINE
  5
6AA
330
1A
100
AcDbEntity
  8
ZUWAKU
100
AcDbLine
 10
10.37110634279883
 20
5.67499954755265
 30
0.0
 11
10.37110634279883
 21
9.524999547552626
 31
0.0
  0
ARC
  5
6AB
330
1A
100
AcDbEntity
  8
ZUWAKU
100
AcDbCircle
 10
7.746106342798839
 20
9.317398534874994
 30
0.0
 40
2.099999999999999
100
AcDbArc
 50
180.0
 51
225.0
  0
ARC
  5
6AC
330
1A
100
AcDbEntity
  8
ZUWAKU
100
AcDbCircle
 10
7.921106342798849
 20
4.974999547552648
 30
0.0
 40
1.399999999999999
100
AcDbArc
 50
270.0
 51
0.0
  0
ARC
  5
6AD
330
1A
100
AcDbEntity
  8
ZUWAKU
100
AcDbCircle
 10
12.47110634279886
 20
5.67499954755265
 30
0.0
 40
2.099999999999999
100
AcDbArc
 50
180.0
 51
270.0
  0
ARC
  5
6AE
330
1A
100
AcDbEntity
  8
ZUWAKU
100
AcDbCircle
 10
7.221106342798859
 20
5.882600560230301
 30
0.0
 40
2.099999999999999
100
AcDbArc
 50
0.0
 51
45.0
  0
LINE
  5
6AF
330
1A
100
AcDbEntity
  8
ZUWAKU
100
AcDbLine
 10
8.706030583290608
 20
7.36752480072206
 30
0.0
 11
7.251131595968269
 21
8.822423788044396
 31
0.0
  0
LINE
  5
6B0
330
1A
100
AcDbEntity
  8
ZUWAKU
100
AcDbLine
 10
7.921106342798849
 20
5.23749954755265
 30
0.0
 11
7.921106342798849
 21
5.88260056023032
 31
0.0
  0
ARC
  5
6B1
330
1A
100
AcDbEntity
  8
ZUWAKU
100
AcDbCircle
 10
7.658606342798859
 20
5.23749954755265
 30
0.0
 40
0.2625
100
AcDbArc
 50
270.0
 51
0.0
  0
ARC
  5
6B2
330
1A
100
AcDbEntity
  8
ZUWAKU
100
AcDbCircle
 10
7.221106342798859
 20
5.88260056023032
 30
0.0
 40
0.6999999999999995
100
AcDbArc
 50
0.0
 51
45.0
  0
LINE
  5
6B3
330
1A
100
AcDbEntity
  8
ZUWAKU
100
AcDbLine
 10
5.908606342798859
 20
3.837499547552649
 30
0.0
 11
5.908606342798859
 21
4.712499547552648
 31
0.0
  0
ARC
  5
6B4
330
1A
100
AcDbEntity
  8
ZUWAKU
100
AcDbCircle
 10
6.171106342798849
 20
3.837499547552649
 30
0.0
 40
0.2625
100
AcDbArc
 50
180.0
 51
270.0
  0
ARC
  5
6B5
330
1A
100
AcDbEntity
  8
ZUWAKU
100
AcDbCircle
 10
6.171106342798849
 20
4.712499547552648
 30
0.0
 40
0.2625
100
AcDbArc
 50
90.0
 51
180.0
  0
LINE
  5
6B6
330
1A
100
AcDbEntity
  8
ZUWAKU
100
AcDbLine
 10
6.171106342798849
 20
3.574999547552649
 30
0.0
 11
7.921106342798849
 21
3.574999547552649
 31
0.0
  0
LINE
  5
6B7
330
1A
100
AcDbEntity
  8
ZUWAKU
100
AcDbLine
 10
6.171106342798849
 20
4.974999547552648
 30
0.0
 11
7.658606342798859
 21
4.974999547552648
 31
0.0
  0
LINE
  5
6B8
330
1A
100
AcDbEntity
  8
ZUWAKU
100
AcDbLine
 10
6.261182102307084
 20
7.832474294383235
 30
0.0
 11
7.716081089629423
 21
6.377575307060906
 31
0.0
  0
LINE
  5
6B9
330
1A
100
AcDbEntity
  8
ZUWAKU
100
AcDbLine
 10
9.321106342798886
 20
4.974999547552648
 30
0.0
 11
9.321106342798886
 21
5.88260056023032
 31
0.0
  0
ARC
  5
6BA
330
1A
100
AcDbEntity
  8
ZUWAKU
100
AcDbCircle
 10
12.47110634279886
 20
5.67499954755265
 30
0.0
 40
0.6999999999999995
100
AcDbArc
 50
180.0
 51
270.0
  0
ARC
  5
6BB
330
1A
100
AcDbEntity
  8
ZUWAKU
100
AcDbCircle
 10
8.79610634279885
 20
11.36249954755264
 30
0.0
 40
0.2625
100
AcDbArc
 50
0.0
 51
90.0
  0
ARC
  5
6BC
330
1A
100
AcDbEntity
  8
ZUWAKU
100
AcDbCircle
 10
8.79610634279885
 20
10.48749954755264
 30
0.0
 40
0.2625
100
AcDbArc
 50
270.0
 51
0.0
  0
LINE
  5
6BD
330
1A
100
AcDbEntity
  8
ZUWAKU
100
AcDbLine
 10
7.046106342798849
 20
11.62499954755264
 30
0.0
 11
8.79610634279885
 21
11.62499954755264
 31
0.0
  0
ARC
  5
6BE
330
1A
100
AcDbEntity
  8
ZUWAKU
100
AcDbCircle
 10
7.308606342798834
 20
9.962499547552646
 30
0.0
 40
0.2625
100
AcDbArc
 50
90.0
 51
180.0
  0
LINE
  5
6BF
330
1A
100
AcDbEntity
  8
ZUWAKU
100
AcDbLine
 10
7.046106342798849
 20
9.962499547552646
 30
0.0
 11
7.046106342798849
 21
9.317398534874977
 31
0.0
  0
LINE
  5
6C0
330
1A
100
AcDbEntity
  8
ZUWAKU
100
AcDbLine
 10
8.79610634279885
 20
10.22499954755264
 30
0.0
 11
7.308606342798834
 21
10.22499954755264
 31
0.0
  0
LINE
  5
6C1
330
1A
100
AcDbEntity
  8
ZUWAKU
100
AcDbLine
 10
5.646106342798869
 20
10.22499954755264
 30
0.0
 11
5.646106342798869
 21
9.317398534874977
 31
0.0
  0
ARC
  5
6C2
330
1A
100
AcDbEntity
  8
ZUWAKU
100
AcDbCircle
 10
7.046106342798849
 20
10.22499954755264
 30
0.0
 40
1.399999999999999
100
AcDbArc
 50
90.0
 51
180.0
  0
LINE
  5
6C3
330
1A
100
AcDbEntity
  8
ZUWAKU
100
AcDbLine
 10
9.058606342798841
 20
11.36249954755264
 30
0.0
 11
9.058606342798841
 21
10.48749954755264
 31
0.0
  0
ARC
  5
6C4
330
1A
100
AcDbEntity
  8
ZUWAKU
100
AcDbCircle
 10
12.47110634279886
 20
9.524999547552646
 30
0.0
 40
0.6999999999999995
100
AcDbArc
 50
90.0
 51
180.0
  0
ARC
  5
6C5
330
1A
100
AcDbEntity
  8
ZUWAKU
100
AcDbCircle
 10
12.47110634279886
 20
9.524999547552626
 30
0.0
 40
2.099999999999999
100
AcDbArc
 50
90.0
 51
180.0
  0
LINE
  5
6C6
330
1A
100
AcDbEntity
  8
ZUWAKU
100
AcDbLine
 10
39.66331503940239
 20
14.99999954755264
 30
0.0
 11
39.6633150394025
 21
0.3999995475526816
 31
0.0
  0
LINE
  5
6C7
330
1A
100
AcDbEntity
  8
ZUWAKU
100
AcDbLine
 10
39.76331503940241
 20
14.99999954755264
 30
0.0
 11
39.76331503940252
 21
0.3999995475526816
 31
0.0
  0
LINE
  5
6C8
330
1A
100
AcDbEntity
  8
ZUWAKU
100
AcDbLine
 10
39.56331503940248
 20
14.99999954755264
 30
0.0
 11
39.56331503940248
 21
0.3999995475526816
 31
0.0
  0
LINE
  5
6C9
330
1A
100
AcDbEntity
  8
ZUWAKU
100
AcDbLine
 10
32.07110634279888
 20
4.974999547552648
 30
0.0
 11
32.07110634279888
 21
11.36249954755264
 31
0.0
  0
LINE
  5
6CA
330
1A
100
AcDbEntity
  8
ZUWAKU
100
AcDbLine
 10
30.67110634279885
 20
11.36249954755264
 30
0.0
 11
30.67110634279885
 21
5.499999547552645
 31
0.0
  0
LINE
  5
6CB
330
1A
100
AcDbEntity
  8
ZUWAKU
100
AcDbLine
 10
34.52110634279887
 20
3.837499547552649
 30
0.0
 11
34.52110634279887
 21
11.36249954755264
 31
0.0
  0
LINE
  5
6CC
330
1A
100
AcDbEntity
  8
ZUWAKU
100
AcDbLine
 10
33.12110634279884
 20
11.36249954755264
 30
0.0
 11
33.12110634279884
 21
3.837499547552649
 31
0.0
  0
ARC
  5
6CD
330
1A
100
AcDbEntity
  8
ZUWAKU
100
AcDbCircle
 10
24.89610634279887
 20
9.317398534874994
 30
0.0
 40
0.6999999999999995
100
AcDbArc
 50
180.0000000000015
 51
224.9999999999988
  0
ARC
  5
6CE
330
1A
100
AcDbEntity
  8
ZUWAKU
100
AcDbCircle
 10
24.89610634279887
 20
9.317398534874994
 30
0.0
 40
2.099999999999999
100
AcDbArc
 50
180.0
 51
225.0
  0
LINE
  5
6CF
330
1A
100
AcDbEntity
  8
ZUWAKU
100
AcDbLine
 10
18.65742958388784
 20
9.602523144334361
 30
0.0
 11
18.02505371121992
 21
7.599999547552655
 31
0.0
  0
LINE
  5
6D0
330
1A
100
AcDbEntity
  8
ZUWAKU
100
AcDbLine
 10
20.34610634279885
 20
11.36249954755264
 30
0.0
 11
20.34610634279885
 21
3.837499547552649
 31
0.0
  0
LINE
  5
6D1
330
1A
100
AcDbEntity
  8
ZUWAKU
100
AcDbLine
 10
21.74610634279883
 20
3.837499547552649
 30
0.0
 11
21.74610634279883
 21
11.36249954755264
 31
0.0
  0
LINE
  5
6D2
330
1A
100
AcDbEntity
  8
ZUWAKU
100
AcDbLine
 10
27.52110634279887
 20
11.36249954755264
 30
0.0
 11
27.52110634279887
 21
4.974999547552648
 31
0.0
  0
LINE
  5
6D3
330
1A
100
AcDbEntity
  8
ZUWAKU
100
AcDbLine
 10
28.92110634279885
 20
5.499999547552645
 30
0.0
 11
28.92110634279885
 21
11.36249954755264
 31
0.0
  0
LINE
  5
6D4
330
1A
100
AcDbEntity
  8
ZUWAKU
100
AcDbLine
 10
16.32110634279888
 20
8.562499547552651
 30
0.0
 11
16.32110634279888
 21
11.36249954755264
 31
0.0
  0
LINE
  5
6D5
330
1A
100
AcDbEntity
  8
ZUWAKU
100
AcDbLine
 10
14.92110634279885
 20
11.36249954755264
 30
0.0
 11
14.92110634279885
 21
3.837499547552649
 31
0.0
  0
LINE
  5
6D6
330
1A
100
AcDbEntity
  8
ZUWAKU
100
AcDbLine
 10
17.83817381145678
 20
11.44154653163613
 30
0.0
 11
16.90403887414088
 21
8.48345256346916
 31
0.0
  0
LINE
  5
6D7
330
1A
100
AcDbEntity
  8
ZUWAKU
100
AcDbLine
 10
30.14610634279887
 20
4.974999547552648
 30
0.0
 11
29.44610634279888
 21
4.974999547552648
 31
0.0
  0
LINE
  5
6D8
330
1A
100
AcDbEntity
  8
ZUWAKU
100
AcDbLine
 10
28.92110634279885
 20
3.574999547552649
 30
0.0
 11
30.67110634279885
 21
3.574999547552649
 31
0.0
  0
LINE
  5
6D9
330
1A
100
AcDbEntity
  8
ZUWAKU
100
AcDbLine
 10
20.60860634279884
 20
3.574999547552649
 30
0.0
 11
21.48360634279885
 21
3.574999547552649
 31
0.0
  0
LINE
  5
6DA
330
1A
100
AcDbEntity
  8
ZUWAKU
100
AcDbLine
 10
17.83817381145678
 20
3.758452563469162
 30
0.0
 11
16.90403887414088
 21
6.716546531636131
 31
0.0
  0
ARC
  5
6DB
330
1A
100
AcDbEntity
  8
ZUWAKU
100
AcDbCircle
 10
16.65372342454321
 20
8.562499547552651
 30
0.0
 40
0.2625
100
AcDbArc
 50
270.0
 51
342.4744316262769
  0
LINE
  5
6DC
330
1A
100
AcDbEntity
  8
ZUWAKU
100
AcDbLine
 10
16.65372342454321
 20
8.299999547552646
 30
0.0
 11
16.58360634279887
 21
8.299999547552646
 31
0.0
  0
LINE
  5
6DD
330
1A
100
AcDbEntity
  8
ZUWAKU
100
AcDbLine
 10
16.58360634279887
 20
6.899999547552646
 30
0.0
 11
16.65372342454321
 21
6.899999547552646
 31
0.0
  0
ARC
  5
6DE
330
1A
100
AcDbEntity
  8
ZUWAKU
100
AcDbCircle
 10
16.58360634279887
 20
8.562499547552651
 30
0.0
 40
0.2625
100
AcDbArc
 50
180.0
 51
270.0
  0
LINE
  5
6DF
330
1A
100
AcDbEntity
  8
ZUWAKU
100
AcDbLine
 10
15.18360634279883
 20
3.574999547552649
 30
0.0
 11
16.05860634279884
 21
3.574999547552649
 31
0.0
  0
ARC
  5
6E0
330
1A
100
AcDbEntity
  8
ZUWAKU
100
AcDbCircle
 10
16.05860634279884
 20
3.837499547552649
 30
0.0
 40
0.2625
100
AcDbArc
 50
270.0
 51
0.0
  0
LINE
  5
6E1
330
1A
100
AcDbEntity
  8
ZUWAKU
100
AcDbLine
 10
16.32110634279888
 20
3.837499547552649
 30
0.0
 11
16.32110634279888
 21
6.637499547552645
 31
0.0
  0
LINE
  5
6E2
330
1A
100
AcDbEntity
  8
ZUWAKU
100
AcDbLine
 10
13.69610634279888
 20
4.712499547552648
 30
0.0
 11
13.69610634279888
 21
3.837499547552649
 31
0.0
  0
ARC
  5
6E3
330
1A
100
AcDbEntity
  8
ZUWAKU
100
AcDbCircle
 10
13.43360634279884
 20
3.837499547552649
 30
0.0
 40
0.2625
100
AcDbArc
 50
270.0
 51
0.0
  0
ARC
  5
6E4
330
1A
100
AcDbEntity
  8
ZUWAKU
100
AcDbCircle
 10
13.43360634279884
 20
4.712499547552648
 30
0.0
 40
0.2625
100
AcDbArc
 50
0.0
 51
90.0
  0
ARC
  5
6E5
330
1A
100
AcDbEntity
  8
ZUWAKU
100
AcDbCircle
 10
15.18360634279883
 20
3.837499547552649
 30
0.0
 40
0.2625
100
AcDbArc
 50
180.0
 51
270.0
  0
ARC
  5
6E6
330
1A
100
AcDbEntity
  8
ZUWAKU
100
AcDbCircle
 10
16.65372342454321
 20
6.637499547552645
 30
0.0
 40
0.2625
100
AcDbArc
 50
17.52556837372303
 51
90.0
  0
ARC
  5
6E7
330
1A
100
AcDbEntity
  8
ZUWAKU
100
AcDbCircle
 10
16.58360634279887
 20
6.637499547552645
 30
0.0
 40
0.2625
100
AcDbArc
 50
90.0
 51
180.0
  0
ARC
  5
6E8
330
1A
100
AcDbEntity
  8
ZUWAKU
100
AcDbCircle
 10
20.60860634279884
 20
3.837499547552649
 30
0.0
 40
0.2625
100
AcDbArc
 50
180.0
 51
270.0
  0
LINE
  5
6E9
330
1A
100
AcDbEntity
  8
ZUWAKU
100
AcDbLine
 10
18.08848926105451
 20
3.574999547552649
 30
0.0
 11
18.93793395085902
 21
3.574999547552649
 31
0.0
  0
ARC
  5
6EA
330
1A
100
AcDbEntity
  8
ZUWAKU
100
AcDbCircle
 10
18.93793395085902
 20
3.837499547552649
 30
0.0
 40
0.2625
100
AcDbArc
 50
270.0
 51
17.52556837372303
  0
LINE
  5
6EB
330
1A
100
AcDbEntity
  8
ZUWAKU
100
AcDbLine
 10
19.18824940045675
 20
3.916546531636136
 30
0.0
 11
18.02505371121992
 21
7.599999547552655
 31
0.0
  0
ARC
  5
6EC
330
1A
100
AcDbEntity
  8
ZUWAKU
100
AcDbCircle
 10
18.08848926105451
 20
3.837499547552649
 30
0.0
 40
0.2625
100
AcDbArc
 50
197.5255683737229
 51
270.0
  0
ARC
  5
6ED
330
1A
100
AcDbEntity
  8
ZUWAKU
100
AcDbCircle
 10
28.92110634279885
 20
4.974999547552648
 30
0.0
 40
1.399999999999999
100
AcDbArc
 50
180.0
 51
270.0
  0
ARC
  5
6EE
330
1A
100
AcDbEntity
  8
ZUWAKU
100
AcDbCircle
 10
25.07110634279888
 20
4.974999547552648
 30
0.0
 40
1.399999999999999
100
AcDbArc
 50
270.0
 51
0.0
  0
LINE
  5
6EF
330
1A
100
AcDbEntity
  8
ZUWAKU
100
AcDbLine
 10
25.85603058329064
 20
7.36752480072206
 30
0.0
 11
24.40113159596825
 21
8.822423788044396
 31
0.0
  0
LINE
  5
6F0
330
1A
100
AcDbEntity
  8
ZUWAKU
100
AcDbLine
 10
25.07110634279888
 20
5.23749954755265
 30
0.0
 11
25.07110634279888
 21
5.88260056023032
 31
0.0
  0
ARC
  5
6F1
330
1A
100
AcDbEntity
  8
ZUWAKU
100
AcDbCircle
 10
24.37110634279884
 20
5.88260056023032
 30
0.0
 40
0.6999999999999995
100
AcDbArc
 50
0.0
 51
45.0
  0
ARC
  5
6F2
330
1A
100
AcDbEntity
  8
ZUWAKU
100
AcDbCircle
 10
24.80860634279884
 20
5.23749954755265
 30
0.0
 40
0.2625
100
AcDbArc
 50
270.0
 51
0.0
  0
LINE
  5
6F3
330
1A
100
AcDbEntity
  8
ZUWAKU
100
AcDbLine
 10
23.05860634279884
 20
3.837499547552649
 30
0.0
 11
23.05860634279884
 21
4.712499547552648
 31
0.0
  0
ARC
  5
6F4
330
1A
100
AcDbEntity
  8
ZUWAKU
100
AcDbCircle
 10
23.32110634279888
 20
3.837499547552649
 30
0.0
 40
0.2625
100
AcDbArc
 50
180.0
 51
270.0
  0
ARC
  5
6F5
330
1A
100
AcDbEntity
  8
ZUWAKU
100
AcDbCircle
 10
21.48360634279885
 20
3.837499547552649
 30
0.0
 40
0.2625
100
AcDbArc
 50
270.0
 51
0.0
  0
ARC
  5
6F6
330
1A
100
AcDbEntity
  8
ZUWAKU
100
AcDbCircle
 10
23.32110634279888
 20
4.712499547552648
 30
0.0
 40
0.2625
100
AcDbArc
 50
90.0
 51
180.0
  0
LINE
  5
6F7
330
1A
100
AcDbEntity
  8
ZUWAKU
100
AcDbLine
 10
23.32110634279888
 20
4.974999547552648
 30
0.0
 11
24.80860634279884
 21
4.974999547552648
 31
0.0
  0
LINE
  5
6F8
330
1A
100
AcDbEntity
  8
ZUWAKU
100
AcDbLine
 10
23.32110634279888
 20
3.574999547552649
 30
0.0
 11
25.07110634279888
 21
3.574999547552649
 31
0.0
  0
LINE
  5
6F9
330
1A
100
AcDbEntity
  8
ZUWAKU
100
AcDbLine
 10
23.41118210230712
 20
7.832474294383235
 30
0.0
 11
24.86608108962945
 21
6.377575307060906
 31
0.0
  0
LINE
  5
6FA
330
1A
100
AcDbEntity
  8
ZUWAKU
100
AcDbLine
 10
26.47110634279886
 20
4.974999547552648
 30
0.0
 11
26.47110634279886
 21
5.88260056023032
 31
0.0
  0
ARC
  5
6FB
330
1A
100
AcDbEntity
  8
ZUWAKU
100
AcDbCircle
 10
24.37110634279884
 20
5.882600560230301
 30
0.0
 40
2.099999999999999
100
AcDbArc
 50
0.0
 51
45.0
  0
ARC
  5
6FC
330
1A
100
AcDbEntity
  8
ZUWAKU
100
AcDbCircle
 10
29.44610634279888
 20
5.499999547552645
 30
0.0
 40
0.5249999999999995
100
AcDbArc
 50
180.0
 51
270.0
  0
ARC
  5
6FD
330
1A
100
AcDbEntity
  8
ZUWAKU
100
AcDbCircle
 10
30.67110634279885
 20
4.974999547552648
 30
0.0
 40
1.399999999999999
100
AcDbArc
 50
270.0
 51
0.0
  0
LINE
  5
6FE
330
1A
100
AcDbEntity
  8
ZUWAKU
100
AcDbLine
 10
33.38360634279888
 20
3.574999547552649
 30
0.0
 11
34.25860634279888
 21
3.574999547552649
 31
0.0
  0
ARC
  5
6FF
330
1A
100
AcDbEntity
  8
ZUWAKU
100
AcDbCircle
 10
33.38360634279888
 20
3.837499547552649
 30
0.0
 40
0.2625
100
AcDbArc
 50
180.0
 51
270.0
  0
ARC
  5
700
330
1A
100
AcDbEntity
  8
ZUWAKU
100
AcDbCircle
 10
30.14610634279887
 20
5.499999547552645
 30
0.0
 40
0.5249999999999995
100
AcDbArc
 50
270.0
 51
0.0
  0
ARC
  5
701
330
1A
100
AcDbEntity
  8
ZUWAKU
100
AcDbCircle
 10
34.25860634279888
 20
3.837499547552649
 30
0.0
 40
0.2625
100
AcDbArc
 50
270.0
 51
0.0
  0
LINE
  5
702
330
1A
100
AcDbEntity
  8
ZUWAKU
100
AcDbLine
 10
21.48360634279885
 20
11.62499954755264
 30
0.0
 11
20.60860634279884
 21
11.62499954755264
 31
0.0
  0
ARC
  5
703
330
1A
100
AcDbEntity
  8
ZUWAKU
100
AcDbCircle
 10
16.05860634279884
 20
11.36249954755264
 30
0.0
 40
0.2625
100
AcDbArc
 50
0.0
 51
90.0
  0
LINE
  5
704
330
1A
100
AcDbEntity
  8
ZUWAKU
100
AcDbLine
 10
16.05860634279884
 20
11.62499954755264
 30
0.0
 11
15.18360634279883
 21
11.62499954755264
 31
0.0
  0
ARC
  5
705
330
1A
100
AcDbEntity
  8
ZUWAKU
100
AcDbCircle
 10
13.43360634279884
 20
11.36249954755264
 30
0.0
 40
0.2625
100
AcDbArc
 50
0.0
 51
90.0
  0
ARC
  5
706
330
1A
100
AcDbEntity
  8
ZUWAKU
100
AcDbCircle
 10
15.18360634279883
 20
11.36249954755264
 30
0.0
 40
0.2625
100
AcDbArc
 50
90.0
 51
180.0
  0
ARC
  5
707
330
1A
100
AcDbEntity
  8
ZUWAKU
100
AcDbCircle
 10
13.43360634279884
 20
10.48749954755264
 30
0.0
 40
0.2625
100
AcDbArc
 50
270.0
 51
0.0
  0
LINE
  5
708
330
1A
100
AcDbEntity
  8
ZUWAKU
100
AcDbLine
 10
13.69610634279888
 20
11.36249954755264
 30
0.0
 11
13.69610634279888
 21
10.48749954755264
 31
0.0
  0
ARC
  5
709
330
1A
100
AcDbEntity
  8
ZUWAKU
100
AcDbCircle
 10
20.60860634279884
 20
11.36249954755264
 30
0.0
 40
0.2625
100
AcDbArc
 50
90.0
 51
180.0
  0
LINE
  5
70A
330
1A
100
AcDbEntity
  8
ZUWAKU
100
AcDbLine
 10
18.08848926105451
 20
11.62499954755264
 30
0.0
 11
18.93793395085902
 21
11.62499954755264
 31
0.0
  0
ARC
  5
70B
330
1A
100
AcDbEntity
  8
ZUWAKU
100
AcDbCircle
 10
18.93793395085902
 20
11.36249954755264
 30
0.0
 40
0.2625
100
AcDbArc
 50
342.4744316262769
 51
90.0
  0
LINE
  5
70C
330
1A
100
AcDbEntity
  8
ZUWAKU
100
AcDbLine
 10
19.18824940045675
 20
11.28345256346916
 30
0.0
 11
18.65742958388784
 21
9.602523144334361
 31
0.0
  0
ARC
  5
70D
330
1A
100
AcDbEntity
  8
ZUWAKU
100
AcDbCircle
 10
18.08848926105451
 20
11.36249954755264
 30
0.0
 40
0.2625
100
AcDbArc
 50
90.0
 51
162.4744316262769
  0
LINE
  5
70E
330
1A
100
AcDbEntity
  8
ZUWAKU
100
AcDbLine
 10
24.19610634279888
 20
11.62499954755264
 30
0.0
 11
25.94610634279888
 21
11.62499954755264
 31
0.0
  0
LINE
  5
70F
330
1A
100
AcDbEntity
  8
ZUWAKU
100
AcDbLine
 10
25.94610634279888
 20
10.22499954755264
 30
0.0
 11
24.45860634279886
 21
10.22499954755264
 31
0.0
  0
ARC
  5
710
330
1A
100
AcDbEntity
  8
ZUWAKU
100
AcDbCircle
 10
24.45860634279886
 20
9.962499547552646
 30
0.0
 40
0.2625
100
AcDbArc
 50
90.0
 51
180.0
  0
LINE
  5
711
330
1A
100
AcDbEntity
  8
ZUWAKU
100
AcDbLine
 10
24.19610634279888
 20
9.962499547552646
 30
0.0
 11
24.19610634279888
 21
9.317398534874977
 31
0.0
  0
ARC
  5
712
330
1A
100
AcDbEntity
  8
ZUWAKU
100
AcDbCircle
 10
21.48360634279885
 20
11.36249954755264
 30
0.0
 40
0.2625
100
AcDbArc
 50
0.0
 51
90.0
  0
LINE
  5
713
330
1A
100
AcDbEntity
  8
ZUWAKU
100
AcDbLine
 10
22.79610634279884
 20
10.22499954755264
 30
0.0
 11
22.79610634279884
 21
9.317398534874977
 31
0.0
  0
ARC
  5
714
330
1A
100
AcDbEntity
  8
ZUWAKU
100
AcDbCircle
 10
24.19610634279888
 20
10.22499954755264
 30
0.0
 40
1.399999999999999
100
AcDbArc
 50
90.0
 51
180.0
  0
ARC
  5
715
330
1A
100
AcDbEntity
  8
ZUWAKU
100
AcDbCircle
 10
28.65860634279886
 20
11.36249954755264
 30
0.0
 40
0.2625
100
AcDbArc
 50
0.0
 51
90.0
  0
ARC
  5
716
330
1A
100
AcDbEntity
  8
ZUWAKU
100
AcDbCircle
 10
27.78360634279886
 20
11.36249954755264
 30
0.0
 40
0.2625
100
AcDbArc
 50
90.0
 51
180.0
  0
LINE
  5
717
330
1A
100
AcDbEntity
  8
ZUWAKU
100
AcDbLine
 10
28.65860634279886
 20
11.62499954755264
 30
0.0
 11
27.78360634279886
 21
11.62499954755264
 31
0.0
  0
ARC
  5
718
330
1A
100
AcDbEntity
  8
ZUWAKU
100
AcDbCircle
 10
25.94610634279888
 20
11.36249954755264
 30
0.0
 40
0.2625
100
AcDbArc
 50
0.0
 51
90.0
  0
ARC
  5
719
330
1A
100
AcDbEntity
  8
ZUWAKU
100
AcDbCircle
 10
25.94610634279888
 20
10.48749954755264
 30
0.0
 40
0.2625
100
AcDbArc
 50
270.0
 51
0.0
  0
LINE
  5
71A
330
1A
100
AcDbEntity
  8
ZUWAKU
100
AcDbLine
 10
26.20860634279887
 20
11.36249954755264
 30
0.0
 11
26.20860634279887
 21
10.48749954755264
 31
0.0
  0
LINE
  5
71B
330
1A
100
AcDbEntity
  8
ZUWAKU
100
AcDbLine
 10
34.25860634279888
 20
11.62499954755264
 30
0.0
 11
33.38360634279888
 21
11.62499954755264
 31
0.0
  0
ARC
  5
71C
330
1A
100
AcDbEntity
  8
ZUWAKU
100
AcDbCircle
 10
33.38360634279888
 20
11.36249954755264
 30
0.0
 40
0.2625
100
AcDbArc
 50
90.0
 51
180.0
  0
ARC
  5
71D
330
1A
100
AcDbEntity
  8
ZUWAKU
100
AcDbCircle
 10
31.80860634279884
 20
11.36249954755264
 30
0.0
 40
0.2625
100
AcDbArc
 50
0.0
 51
90.0
  0
LINE
  5
71E
330
1A
100
AcDbEntity
  8
ZUWAKU
100
AcDbLine
 10
31.80860634279884
 20
11.62499954755264
 30
0.0
 11
30.93360634279884
 21
11.62499954755264
 31
0.0
  0
ARC
  5
71F
330
1A
100
AcDbEntity
  8
ZUWAKU
100
AcDbCircle
 10
30.93360634279884
 20
11.36249954755264
 30
0.0
 40
0.2625
100
AcDbArc
 50
90.0
 51
180.0
  0
ARC
  5
720
330
1A
100
AcDbEntity
  8
ZUWAKU
100
AcDbCircle
 10
34.25860634279888
 20
11.36249954755264
 30
0.0
 40
0.2625
100
AcDbArc
 50
0.0
 51
90.0
  0
LINE
  5
722
330
1A
100
AcDbEntity
  8
ZUWAKU
100
AcDbLine
 10
104.1233009104422
 20
14.99999954755264
 30
0.0
 11
104.1233009104422
 21
0.3999995475526816
 31
0.0
  0
LINE
  5
723
330
1A
100
AcDbEntity
  8
ZUWAKU
100
AcDbLine
 10
104.3233009104421
 20
14.99999954755264
 30
0.0
 11
104.3233009104422
 21
0.3999995475526816
 31
0.0
  0
LINE
  5
724
330
1A
100
AcDbEntity
  8
ZUWAKU
100
AcDbLine
 10
104.2233009104421
 20
14.99999954755264
 30
0.0
 11
104.2233009104422
 21
0.3999995475526816
 31
0.0
  0
TEXT
  5
725
330
1A
100
AcDbEntity
  8
ZUWAKU
100
AcDbText
 10
104.862023421547
 20
4.827677816745456
 30
0.0
 40
2.0
  1
サイズ
 41
0.9
  7
ｽﾀｲﾙ1
100
AcDbText
  0
TEXT
  5
727
330
1A
100
AcDbEntity
  8
ZUWAKU
100
AcDbText
 10
104.8620234215469
 20
12.02767781674543
 30
0.0
 40
2.0
  1
品名
 41
0.9
  7
ｽﾀｲﾙ1
100
AcDbText
  0
LINE
  5
728
330
1A
100
AcDbEntity
  8
ZUWAKU
100
AcDbLine
 10
324.4086015205104
 20
7.599999547552661
 30
0.0
 11
348.6245055396789
 21
7.599999547552661
 31
0.0
  0
LINE
  5
729
330
1A
100
AcDbEntity
  8
ZUWAKU
100
AcDbLine
 10
324.4086015205104
 20
7.699999547552666
 30
0.0
 11
348.6245055396789
 21
7.699999547552661
 31
0.0
  0
LINE
  5
72A
330
1A
100
AcDbEntity
  8
ZUWAKU
100
AcDbLine
 10
324.4086015205104
 20
7.799999547552661
 30
0.0
 11
348.6245055396789
 21
7.799999547552661
 31
0.0
  0
TEXT
  5
72B
330
1A
100
AcDbEntity
  8
ZUWAKU
100
AcDbText
 10
329.1019691090594
 20
9.00246007625634
 30
0.0
 40
2.799999999999999
  1
　　．　　．　　
 41
0.9
  7
ｽﾀｲﾙ1
100
AcDbText
  0
LINE
  5
72C
330
1A
100
AcDbEntity
  8
ZUWAKU
100
AcDbLine
 10
252.5995900144786
 20
7.599999547552665
 30
0.0
 11
276.2634781484645
 21
7.599999547552665
 31
0.0
  0
LINE
  5
72D
330
1A
100
AcDbEntity
  8
ZUWAKU
100
AcDbLine
 10
252.5995900144786
 20
7.699999547552661
 30
0.0
 11
276.2634781484645
 21
7.699999547552661
 31
0.0
  0
LINE
  5
72E
330
1A
100
AcDbEntity
  8
ZUWAKU
100
AcDbLine
 10
252.5995900144786
 20
7.799999547552661
 30
0.0
 11
276.2634781484645
 21
7.799999547552661
 31
0.0
  0
LINE
  5
730
330
1A
100
AcDbEntity
  8
ZUWAKU
100
AcDbLine
 10
223.8121822509038
 20
14.99999954755264
 30
0.0
 11
223.8121822509039
 21
0.3999995475526816
 31
0.0
  0
LINE
  5
731
330
1A
100
AcDbEntity
  8
ZUWAKU
100
AcDbLine
 10
223.9121822509038
 20
14.99999954755264
 30
0.0
 11
223.912182250904
 21
0.3999995475526816
 31
0.0
  0
LINE
  5
732
330
1A
100
AcDbEntity
  8
ZUWAKU
100
AcDbLine
 10
223.7121822509039
 20
14.99999954755264
 30
0.0
 11
223.7121822509039
 21
0.3999995475526816
 31
0.0
  0
TEXT
  5
733
330
1A
100
AcDbEntity
  8
MOJI
100
AcDbText
 10
264.0204542515647
 20
9.00246007625634
 30
0.0
 40
2.799999999999999
  1
Ａ３
 41
0.9
  7
ｽﾀｲﾙ1
100
AcDbText
  0
LINE
  5
734
330
1A
100
AcDbEntity
  8
ZUWAKU
100
AcDbLine
 10
252.4995900144787
 20
14.99999954755264
 30
0.0
 11
252.4995900144787
 21
0.3999995475526816
 31
0.0
  0
LINE
  5
735
330
1A
100
AcDbEntity
  8
ZUWAKU
100
AcDbLine
 10
252.5995900144786
 20
14.99999954755264
 30
0.0
 11
252.5995900144788
 21
0.3999995475526816
 31
0.0
  0
LINE
  5
736
330
1A
100
AcDbEntity
  8
ZUWAKU
100
AcDbLine
 10
252.3995900144787
 20
14.99999954755264
 30
0.0
 11
252.3995900144787
 21
0.3999995475526816
 31
0.0
  0
TEXT
  5
737
330
1A
100
AcDbEntity
  8
ZUWAKU
100
AcDbText
 10
253.3383125255836
 20
4.827677816745456
 30
0.0
 40
2.0
  1
縮尺
 41
0.9
  7
ｽﾀｲﾙ1
100
AcDbText
  0
TEXT
  5
738
330
1A
100
AcDbEntity
  8
MOJI
100
AcDbText
 10
264.0204542515647
 20
1.602460076256358
 30
0.0
 40
2.799999999999999
  1
１/１
 41
0.9
  7
ｽﾀｲﾙ1
100
AcDbText
  0
TEXT
  5
739
330
1A
100
AcDbEntity
  8
ZUWAKU
100
AcDbText
 10
224.6509047620087
 20
12.02767781674543
 30
0.0
 40
2.0
  1
品番
 41
0.9
  7
ｽﾀｲﾙ1
100
AcDbText
  0
TEXT
  5
73A
330
1A
100
AcDbEntity
  8
ZUWAKU
100
AcDbText
 10
253.3383125255835
 20
12.02767781674543
 30
0.0
 40
2.0
  1
用紙
 41
0.9
  7
ｽﾀｲﾙ1
100
AcDbText
  0
LINE
  5
73B
330
1A
100
AcDbEntity
  8
ZUWAKU
100
AcDbLine
 10
324.3086015205103
 20
14.99999954755264
 30
0.0
 11
324.3086015205105
 21
0.3999995475526816
 31
0.0
  0
LINE
  5
73C
330
1A
100
AcDbEntity
  8
ZUWAKU
100
AcDbLine
 10
324.4086015205104
 20
14.99999954755264
 30
0.0
 11
324.4086015205106
 21
0.3999995475526816
 31
0.0
  0
LINE
  5
73D
330
1A
100
AcDbEntity
  8
ZUWAKU
100
AcDbLine
 10
324.2086015205105
 20
14.99999954755264
 30
0.0
 11
324.2086015205105
 21
0.3999995475526816
 31
0.0
  0
LINE
  5
73E
330
1A
100
AcDbEntity
  8
ZUWAKU
100
AcDbLine
 10
276.3634781484644
 20
14.99999954755264
 30
0.0
 11
276.3634781484644
 21
0.3999995475526816
 31
0.0
  0
LINE
  5
73F
330
1A
100
AcDbEntity
  8
ZUWAKU
100
AcDbLine
 10
276.4634781484644
 20
14.99999954755264
 30
0.0
 11
276.4634781484645
 21
0.3999995475526816
 31
0.0
  0
LINE
  5
740
330
1A
100
AcDbEntity
  8
ZUWAKU
100
AcDbLine
 10
276.2634781484645
 20
14.99999954755264
 30
0.0
 11
276.2634781484645
 21
0.3999995475526816
 31
0.0
  0
TEXT
  5
741
330
1A
100
AcDbEntity
  8
ZUWAKU
100
AcDbText
 10
325.1473240316152
 20
12.02767781674543
 30
0.0
 40
2.0
  1
DATE
 41
0.9
  7
ｽﾀｲﾙ1
100
AcDbText
  0
LINE
  5
742
330
1A
100
AcDbEntity
  8
ZUWAKU
100
AcDbLine
 10
348.6245055396789
 20
14.99999954755264
 30
0.0
 11
348.6245055396789
 21
0.3999995475526816
 31
0.0
  0
LINE
  5
743
330
1A
100
AcDbEntity
  8
ZUWAKU
100
AcDbLine
 10
348.7245055396789
 20
14.99999954755264
 30
0.0
 11
348.7245055396789
 21
0.3999995475526816
 31
0.0
  0
LINE
  5
744
330
1A
100
AcDbEntity
  8
ZUWAKU
100
AcDbLine
 10
348.8245055396788
 20
14.99999954755264
 30
0.0
 11
348.8245055396789
 21
0.3999995475526816
 31
0.0
  0
LINE
  5
745
330
1A
100
AcDbEntity
  8
ZUWAKU
100
AcDbLine
 10
348.9245055396789
 20
14.99999954755264
 30
0.0
 11
348.9245055396789
 21
0.3999995475526816
 31
0.0
  0
TEXT
  5
746
330
1A
100
AcDbEntity
  8
ZUWAKU
100
AcDbText
 10
354.2640423615301
 20
8.776919215396045
 30
0.0
 40
3.0
  1
積水化学工業株式会社
 41
0.9
  7
ｽﾀｲﾙ1
100
AcDbText
  0
TEXT
  5
747
330
1A
100
AcDbEntity
  8
ZUWAKU
100
AcDbText
 10
354.2640423615301
 20
3.32441970447968
 30
0.0
 40
3.0
  1
建材事業部
 41
0.9
  7
ｽﾀｲﾙ1
100
AcDbText
  0
TEXT
  5
74D
330
1A
100
AcDbEntity
  8
ZUWAKU
100
AcDbText
 10
230.9795720347352
 20
1.468216205049543
 30
0.0
 40
1.5
  1
□には色品番が入ります
 41
0.9
  7
ｽﾀｲﾙ1
100
AcDbText
  0
ARC
  5
BA0
330
1A
100
AcDbEntity
  8
SEIHIN
100
AcDbCircle
 10
221.506887530184
 20
114.8069764002738
 30
0.0
 40
29.97092680907325
100
AcDbArc
 50
79.24392214597002
 51
100.7560778540299
  0
ARC
  5
BA1
330
1A
100
AcDbEntity
  8
SEIHIN
100
AcDbCircle
 10
221.506887530184
 20
114.8121891441186
 30
0.0
 40
27.96571295665206
100
AcDbArc
 50
80.90443132334964
 51
99.09556867665036
  0
LINE
  5
BA2
330
1A
100
AcDbEntity
  8
SEIHIN
100
AcDbLine
 10
189.756887530184
 20
176.8061324813678
 30
0.0
 11
253.256887530184
 21
176.8061324813678
 31
0.0
  0
LINE
  5
BA3
330
1A
100
AcDbEntity
  8
SEIHIN
100
AcDbLine
 10
189.756887530184
 20
176.8061324813678
 30
0.0
 11
253.256887530184
 21
176.8061324813678
 31
0.0
  0
LINE
  5
BA4
330
1A
100
AcDbEntity
  8
SEIHIN
100
AcDbLine
 10
189.756887530184
 20
183.8061324813678
 30
0.0
 11
253.256887530184
 21
183.8061324813678
 31
0.0
  0
LINE
  5
BA5
330
1A
100
AcDbEntity
  8
SEIHIN
100
AcDbLine
 10
189.756887530184
 20
58.80613248136786
 30
0.0
 11
253.256887530184
 21
58.80613248136786
 31
0.0
  0
LINE
  5
BA6
330
1A
100
AcDbEntity
  8
CENTER L
 48
5.0
100
AcDbLine
 10
257.0705458804495
 20
115.959103625595
 30
0.0
 11
184.7944895955188
 21
115.959103625595
 31
0.0
  0
LINE
  5
BA7
330
1A
100
AcDbEntity
  8
SEIHIN
100
AcDbLine
 10
249.5832355823377
 20
28.80613248136785
 30
0.0
 11
193.4305394780294
 21
28.80613248136785
 31
0.0
  0
LINE
  5
BA8
330
1A
100
AcDbEntity
  8
SEIHIN
100
AcDbLine
 10
193.0781822587178
 20
31.80567556683843
 30
0.0
 11
249.9355928016493
 21
31.80567556683843
 31
0.0
  0
ELLIPSE
  5
BB6
330
1A
100
AcDbEntity
  8
SEIHIN
100
AcDbEllipse
 10
221.506887530184
 20
113.1421854891321
 30
0.0
 11
31.74999999999977
 21
0.0000000000010516
 31
0.0
210
0.0
220
0.0
230
1.0
 40
0.9481824412338896
 41
3.141592653589758
 42
6.283185307179586
  0
ELLIPSE
  5
BB7
330
1A
100
AcDbEntity
  8
SEIHIN
100
AcDbEllipse
 10
221.506887530184
 20
115.9591036255932
 30
0.0
 11
0.0
 21
31.79357198543397
 31
-0.0000000000000142
210
-0.0000000000000067
220
0.0000000000000004
230
1.0
 40
0.9986295347545745
 41
0.0
 42
6.283185307179586
  0
SPLINE
  5
BB8
330
1A
100
AcDbEntity
  8
SEIHIN
100
AcDbSpline
210
0.0
220
0.0
230
1.0
 70
    11
 71
     3
 72
    71
 73
    67
 74
     0
 42
0.0000000001
 43
0.0000000001
 40
0.0
 40
0.0
 40
0.0
 40
0.0
 40
0.0156914970429037
 40
0.0312302665297734
 40
0.0467691932191541
 40
0.0624611572747804
 40
0.0781537064615926
 40
0.0936966796719984
 40
0.1092429147989753
 40
0.124945154486106
 40
0.1406455885627941
 40
0.1561966849474186
 40
0.1717510429165881
 40
0.1874611667036236
 40
0.203168874360238
 40
0.2187262844769328
 40
0.234285811313786
 40
0.2499998075390883
 40
0.2657099197656482
 40
0.2812681392581114
 40
0.2968268567190288
 40
0.3125384483611922
 40
0.3282446896429529
 40
0.3437977407547805
 40
0.3593501439963402
 40
0.3750544605463768
 40
0.3907528198551061
 40
0.4062977488141854
 40
0.4218420281920852
 40
0.4375384577253301
 40
0.4532295391205597
 40
0.4687681492761098
 40
0.4843072547145143
 40
0.4999998074746867
 40
0.5156884813831092
 40
0.5312262811414043
 40
0.5467661969772381
 40
0.5624611572375443
 40
0.5781537064242585
 40
0.5936966796346312
 40
0.6092429147616415
 40
0.6249451544488718
 40
0.6406455885256158
 40
0.6561966849102581
 40
0.6717510428794104
 40
0.6874611666663974
 40
0.7031688743230445
 40
0.7187262844397513
 40
0.7342858112765918
 40
0.7499998075018534
 40
0.7657099197282932
 40
0.7812681392207158
 40
0.7968268566816734
 40
0.8125384483239555
 40
0.8282446896058846
 40
0.8437977407177667
 40
0.8593501439592735
 40
0.875054460509159
 40
0.8907528198179603
 40
0.9062977487770663
 40
0.9218420281549375
 40
0.9375384576880886
 40
0.9532325348574337
 40
0.9687721340107199
 40
0.9843102698775833
 40
1.0
 40
1.0
 40
1.0
 40
1.0
 10
221.506887530184
 20
146.7607470098645
 30
0.0
 10
222.5192433695765
 20
146.7328604608554
 30
0.0
 10
224.5341016460552
 20
146.677358786559
 30
0.0
 10
227.522798910345
 20
146.2197893582996
 30
0.0
 10
230.4525450915462
 20
145.4866278271109
 30
0.0
 10
233.3041501601637
 20
144.4588803940167
 30
0.0
 10
236.0454851318609
 20
143.1660667324648
 30
0.0
 10
238.6378443737421
 20
141.6130189752492
 30
0.0
 10
241.0628371817729
 20
139.8088300518155
 30
0.0
 10
243.30520548829
 20
137.7674500070442
 30
0.0
 10
245.3438077107657
 20
135.5221388443768
 30
0.0
 10
247.1453337062712
 20
133.0939926189747
 30
0.0
 10
248.696226054999
 20
130.4978685340573
 30
0.0
 10
249.9877671458662
 20
127.7526163238579
 30
0.0
 10
251.0131212583219
 20
124.8970362642229
 30
0.0
 10
251.7495806887091
 20
121.9633877746308
 30
0.0
 10
252.1902961199975
 20
118.9705868110776
 30
0.0
 10
252.3344148775004
 20
115.9393864589327
 30
0.0
 10
252.1904483819926
 20
112.9082608692696
 30
0.0
 10
251.7497447952946
 20
109.9157069131323
 30
0.0
 10
251.0132018907834
 20
106.9818256478773
 30
0.0
 10
249.9879598870084
 20
104.126118204589
 30
0.0
 10
248.6965880606376
 20
101.3808767715253
 30
0.0
 10
247.1458010367159
 20
98.78497620511723
 30
0.0
 10
245.3441089564021
 20
96.35664731367421
 30
0.0
 10
243.3055616211595
 20
94.11117398729572
 30
0.0
 10
241.063353917496
 20
92.06974477036045
 30
0.0
 10
238.6385434493304
 20
90.26570076874838
 30
0.0
 10
236.0459623665956
 20
88.71262713031308
 30
0.0
 10
233.3044358588058
 20
87.41926160783066
 30
0.0
 10
230.4527271645038
 20
86.39245778845895
 30
0.0
 10
227.523036681423
 20
85.65495082560289
 30
0.0
 10
224.5342625808189
 20
85.21360716202059
 30
0.0
 10
221.5071393885409
 20
85.06928296066678
 30
0.0
 10
218.4800908108864
 20
85.21345468726929
 30
0.0
 10
215.4915633749315
 20
85.65478650149078
 30
0.0
 10
212.5616405083164
 20
86.39237702009621
 30
0.0
 10
209.7098045656457
 20
87.41906857244055
 30
0.0
 10
206.968288699084
 20
88.71226465488314
 30
0.0
 10
204.3759310147015
 20
90.26523280952085
 30
0.0
 10
201.9509377897102
 20
92.0694430433158
 30
0.0
 10
199.708569596004
 20
94.11081732189984
 30
0.0
 10
197.6699673432504
 20
96.35613003148854
 30
0.0
 10
195.8684413557766
 20
98.78427584625194
 30
0.0
 10
194.3175490048997
 20
101.3804000410999
 30
0.0
 10
193.0260079146228
 20
104.1256522215552
 30
0.0
 10
192.000653802017
 20
106.981232289172
 30
0.0
 10
191.2641943716726
 20
109.9148807766467
 30
0.0
 10
190.8234789403723
 20
112.9076817407748
 30
0.0
 10
190.6793601828676
 20
115.9388820927105
 30
0.0
 10
190.8233266783681
 20
118.9700076825701
 30
0.0
 10
191.264030265077
 20
121.9625616380652
 30
0.0
 10
192.0005731695482
 20
124.8964429056576
 30
0.0
 10
193.0258151734833
 20
127.7521503401984
 30
0.0
 10
194.3171869992747
 20
130.4973918059548
 30
0.0
 10
195.8679740253492
 20
133.0932922516275
 30
0.0
 10
197.6696660976231
 20
135.5216215942108
 30
0.0
 10
199.7082134631518
 20
137.7670932210147
 30
0.0
 10
201.9504210540035
 20
139.8085287706143
 30
0.0
 10
204.3752319391842
 20
141.6125493657635
 30
0.0
 10
206.9678114638136
 20
143.1657104589684
 30
0.0
 10
209.7095188402945
 20
144.458829051773
 30
0.0
 10
212.561458361517
 20
145.4869225830224
 30
0.0
 10
215.4913255008596
 20
146.2201886669062
 30
0.0
 10
218.4799298082607
 20
146.677687872714
 30
0.0
 10
220.4946415140857
 20
146.7329711740566
 30
0.0
 10
221.506887530184
 20
146.7607470098645
 30
0.0
  0
SPLINE
  5
BB9
330
1A
100
AcDbEntity
  8
SEIHIN
100
AcDbSpline
210
0.0
220
0.0
230
1.0
 70
     8
 71
     3
 72
    11
 73
     7
 74
     0
 42
0.0000000001
 43
0.0000000001
 40
0.0
 40
0.0
 40
0.0
 40
0.0
 40
0.2758490168278307
 40
0.5560411704998242
 40
0.7769096258893128
 40
1.0
 40
1.0
 40
1.0
 40
1.0
 10
225.9276326331682
 20
142.2645621019636
 30
0.0
 10
225.1217995661991
 20
142.38109125184
 30
0.0
 10
223.4974459000604
 20
142.6159842583091
 30
0.0
 10
221.1817489938011
 20
142.6678160951832
 30
0.0
 10
219.0314498908446
 20
142.5560271686334
 30
0.0
 10
217.7367381665772
 20
142.3620407443357
 30
0.0
 10
217.0861424271988
 20
142.2645621019636
 30
0.0
  0
SPLINE
  5
BBA
330
1A
100
AcDbEntity
  8
SEIHIN
100
AcDbSpline
210
0.0
220
0.0
230
1.0
 70
     8
 71
     3
 72
    28
 73
    24
 74
     0
 42
0.0000000001
 43
0.0000000001
 40
0.7074203323863115
 40
0.7074203323863115
 40
0.7074203323863115
 40
0.7074203323863115
 40
0.7187816689958505
 40
0.7187816689958505
 40
0.7478450079703795
 40
0.7478450079703795
 40
0.7769083469449086
 40
0.7769083469449086
 40
0.8059716859194375
 40
0.8059716859194375
 40
0.8350350248939665
 40
0.8350350248939665
 40
0.8640983638684957
 40
0.8640983638684957
 40
0.8931617028430247
 40
0.8931617028430247
 40
0.9222250418175537
 40
0.9222250418175537
 40
0.9512883807920829
 40
0.9512883807920829
 40
0.9692145752954449
 40
0.9692145752954449
 40
0.971746002040615
 40
0.971746002040615
 40
0.971746002040615
 40
0.971746002040615
 10
192.2992182639086
 20
106.2094473420057
 30
0.0
 10
192.1080909572846
 20
106.9045895993078
 30
0.0
 10
191.941946697535
 20
107.6064695753488
 30
0.0
 10
191.443140080173
 20
110.1222850343702
 30
0.0
 10
191.2544007165213
 20
111.9644793764201
 30
0.0
 10
191.2060900121639
 20
115.6553360705153
 30
0.0
 10
191.3446101386989
 20
117.5024079191401
 30
0.0
 10
191.9620078688556
 20
121.1386023238352
 30
0.0
 10
192.4412590879534
 20
122.9270507615476
 30
0.0
 10
193.7139958470327
 20
126.3909959533057
 30
0.0
 10
194.5030442154809
 20
128.0675998762591
 30
0.0
 10
196.3753626280892
 20
131.2455087866781
 30
0.0
 10
197.4597730675141
 20
132.7462138768275
 30
0.0
 10
199.8851251847227
 20
135.5264754357882
 30
0.0
 10
201.2224338287217
 20
136.809996520526
 30
0.0
 10
204.1053689873064
 20
139.1108472345001
 30
0.0
 10
205.6535621357554
 20
140.1267143809035
 30
0.0
 10
208.9114363319772
 20
141.8562423480594
 30
0.0
 10
210.6208283122534
 20
142.575478831076
 30
0.0
 10
213.4616758766278
 20
143.4788181585639
 30
0.0
 10
214.565460145649
 20
143.7603792438391
 30
0.0
 10
215.8403145850523
 20
144.0133259172954
 30
0.0
 10
215.9982534161415
 20
144.0434038339499
 30
0.0
 10
216.1563577066554
 20
144.0721936449128
 30
0.0
  0
LINE
  5
BBB
330
1A
100
AcDbEntity
  8
SEIHIN
100
AcDbLine
 10
146.2199932400321
 20
147.7526756110181
 30
0.0
 11
146.2199932400321
 21
84.16553164015557
 31
0.0
  0
LINE
  5
BBC
330
1A
100
AcDbEntity
  8
SEIHIN
100
AcDbLine
 10
121.9112372614477
 20
144.1667833023389
 30
0.0
 11
92.46999324016327
 21
113.1421854891443
 31
0.0
  0
DIMENSION
  5
BBD
330
1A
100
AcDbEntity
  8
SUNPOU
100
AcDbDimension
  2
*D6
 10
36.44676001220796
 20
113.0046532454906
 30
0.0
 11
33.94676001220794
 21
148.4053928634292
 31
0.0
 70
    32
 71
     5
 42
-1.0
  3
STANDARD
100
AcDbAlignedDimension
 13
60.71999324010494
 23
183.8061324813678
 33
0.0
 14
92.46999324010493
 24
113.0046532454906
 34
0.0
 50
90.0
100
AcDbRotatedDimension
1001
ACAD
1000
DSTYLE
1002
{
1070
    41
1040
3.0
1070
    42
1040
3.0
1070
    43
1040
7.0
1070
    44
1040
1.5
1070
    73
1070
     0
1070
    74
1070
     0
1070
    77
1070
     3
1070
   140
1040
3.0
1070
   141
1040
150.0
1070
   147
1040
1.0
1070
   172
1070
     1
1070
   173
1070
     1
1070
   176
1070
     4
1070
   177
1070
     4
1070
   178
1070
     4
1070
   271
1070
     0
1070
   272
1070
     2
1070
     6
1000
OPEN
1070
     7
1000
OPEN
1002
}
  0
LINE
  5
BBE
330
1A
100
AcDbEntity
  8
SEIHIN
100
AcDbLine
 10
60.71999324010494
 20
176.8061324813678
 30
0.0
 11
60.71999324010494
 21
58.80613248136786
 31
0.0
  0
DIMENSION
  5
BBF
330
1A
100
AcDbEntity
  8
SUNPOU
100
AcDbDimension
  2
*D7
 10
168.7152999909319
 20
87.34720540326041
 30
0.0
 11
169.6548791295896
 21
117.1872739528137
 31
0.0
 70
    33
  1
φ<>
 71
     5
 42
-1.0
  3
STANDARD
100
AcDbAlignedDimension
 13
147.2186227748384
 23
145.8022668752709
 33
0.0
 14
150.3326121712957
 24
86.38380955737909
 34
0.0
1001
ACAD
1000
DSTYLE
1002
{
1070
    41
1040
3.0
1070
    42
1040
3.0
1070
    43
1040
7.0
1070
    44
1040
1.5
1070
    73
1070
     0
1070
    74
1070
     0
1070
    77
1070
     3
1070
   140
1040
3.0
1070
   141
1040
150.0
1070
   147
1040
1.0
1070
   172
1070
     1
1070
   173
1070
     1
1070
   176
1070
     4
1070
   177
1070
     4
1070
   178
1070
     4
1070
   271
1070
     0
1070
   272
1070
     2
1070
     6
1000
OPEN
1070
     7
1000
OPEN
1002
}
  0
LINE
  5
BC0
330
1A
100
AcDbEntity
  8
CENTER L
 48
5.0
100
AcDbLine
 10
221.506887530184
 20
188.4771842432796
 30
0.0
 11
221.506887530184
 21
19.21873785864556
 31
0.0
  0
LINE
  5
BC1
330
1A
100
AcDbEntity
  8
CENTER L
 48
5.0
100
AcDbLine
 10
92.46999324010493
 20
188.4771842432796
 30
0.0
 11
92.46999324010493
 21
23.43395547948262
 31
0.0
  0
DIMENSION
  5
BC2
330
1A
100
AcDbEntity
  8
SUNPOU
100
AcDbDimension
  2
*D8
 10
28.15047215746517
 20
28.80613248136786
 30
0.0
 11
28.15047215746517
 21
104.7343169923435
 31
0.0
 70
   160
 71
     5
 42
-1.0
  3
STANDARD
100
AcDbAlignedDimension
 13
60.71999324010494
 23
183.8061324813678
 33
0.0
 14
64.39364518795037
 24
28.80613248136785
 34
0.0
 50
90.0
100
AcDbRotatedDimension
1001
ACAD
1000
DSTYLE
1002
{
1070
    41
1040
3.0
1070
    42
1040
3.0
1070
    43
1040
7.0
1070
    44
1040
1.5
1070
    73
1070
     0
1070
    74
1070
     0
1070
    77
1070
     3
1070
   140
1040
3.0
1070
   141
1040
150.0
1070
   147
1040
1.0
1070
   172
1070
     1
1070
   173
1070
     1
1070
   176
1070
     4
1070
   177
1070
     4
1070
   178
1070
     4
1070
   271
1070
     0
1070
   272
1070
     2
1070
     6
1000
OPEN
1070
     7
1000
OPEN
1002
}
  0
DIMENSION
  5
BC3
330
1A
100
AcDbEntity
  8
SUNPOU
100
AcDbDimension
  2
*D9
 10
88.30958136108938
 20
112.7727338323292
 30
0.0
 11
112.0142225682902
 21
133.6687053553572
 31
0.0
 70
    34
 71
     5
 42
-1.0
  3
STANDARD
100
AcDb2LineAngularDimension
 13
92.46999324010493
 23
188.4771842432796
 33
0.0
 14
92.46999324010493
 24
20.38032394710887
 34
0.0
 15
152.7842956402069
 25
116.3668342084837
 35
0.0
 16
114.439998339709
 26
126.8008832148153
 36
0.0
1001
ACAD
1000
DSTYLE
1002
{
1070
   271
1070
     0
1070
    41
1040
3.0
1070
    42
1040
3.0
1070
    43
1040
7.0
1070
    44
1040
1.5
1070
    73
1070
     0
1070
    74
1070
     0
1070
    77
1070
     3
1070
   140
1040
3.0
1070
   141
1040
150.0
1070
   147
1040
1.0
1070
   172
1070
     1
1070
   173
1070
     1
1070
   176
1070
     4
1070
   177
1070
     4
1070
   178
1070
     4
1070
   271
1070
     0
1070
   272
1070
     2
1070
     6
1000
OPEN
1070
     7
1000
OPEN
1002
}
  0
SPLINE
  5
BC4
330
1A
100
AcDbEntity
  8
SEIHIN
100
AcDbSpline
210
0.0
220
0.0
230
1.0
 70
    24
 71
     1
 72
     4
 73
     2
 74
     0
 42
0.0000000001
 43
0.0000000001
 40
0.0
 40
0.0
 40
1.0
 40
1.0
 10
189.756887530184
 20
176.8061324813678
 30
0.0
 10
189.756887530184
 20
115.9591036255932
 30
0.0
  0
SPLINE
  5
BC5
330
1A
100
AcDbEntity
  8
SEIHIN
100
AcDbSpline
210
0.0
220
0.0
230
1.0
 70
    24
 71
     1
 72
     4
 73
     2
 74
     0
 42
0.0000000001
 43
0.0000000001
 40
0.0
 40
0.0
 40
1.0
 40
1.0
 10
189.756887530184
 20
113.1421854891031
 30
0.0
 10
189.756887530184
 20
58.80613248136786
 30
0.0
  0
SPLINE
  5
BC6
330
1A
100
AcDbEntity
  8
SEIHIN
100
AcDbSpline
210
0.0
220
0.0
230
1.0
 70
    24
 71
     1
 72
     4
 73
     2
 74
     0
 42
0.0000000001
 43
0.0000000001
 40
0.0
 40
0.0
 40
1.0
 40
1.0
 10
192.6068875301834
 20
58.80613248136786
 30
0.0
 10
193.0781822587178
 20
31.80567556683843
 30
0.0
  0
SPLINE
  5
BC7
330
1A
100
AcDbEntity
  8
SEIHIN
100
AcDbSpline
210
0.0
220
0.0
230
1.0
 70
    24
 71
     1
 72
     4
 73
     2
 74
     0
 42
0.0000000001
 43
0.0000000001
 40
0.0
 40
0.0
 40
1.0
 40
1.0
 10
193.0781822587178
 20
31.80567556683843
 30
0.0
 10
193.4305394780294
 20
28.80613248136785
 30
0.0
  0
SPLINE
  5
BC8
330
1A
100
AcDbEntity
  8
SEIHIN
100
AcDbSpline
210
0.0
220
0.0
230
1.0
 70
    24
 71
     1
 72
     4
 73
     2
 74
     0
 42
0.0000000001
 43
0.0000000001
 40
0.0
 40
0.0
 40
1.0
 40
1.0
 10
189.756887530184
 20
115.9591036255895
 30
0.0
 10
189.756887530184
 20
113.1421854891249
 30
0.0
  0
DIMENSION
  5
BC9
330
1A
100
AcDbEntity
  8
SUNPOU
100
AcDbDimension
  2
*D10
 10
36.44676001220796
 20
58.80613248136786
 30
0.0
 11
33.94676001220795
 21
85.90539286342927
 31
0.0
 70
    32
 71
     5
 42
-1.0
  3
STANDARD
100
AcDbAlignedDimension
 13
92.46999324010493
 23
113.0046532454906
 33
0.0
 14
60.71999324010494
 24
58.80613248136786
 34
0.0
 50
90.0
100
AcDbRotatedDimension
1001
ACAD
1000
DSTYLE
1002
{
1070
    41
1040
3.0
1070
    42
1040
3.0
1070
    43
1040
7.0
1070
    44
1040
1.5
1070
    73
1070
     0
1070
    74
1070
     0
1070
    77
1070
     3
1070
   140
1040
3.0
1070
   141
1040
150.0
1070
   147
1040
1.0
1070
   172
1070
     1
1070
   173
1070
     1
1070
   176
1070
     4
1070
   177
1070
     4
1070
   178
1070
     4
1070
   271
1070
     0
1070
   272
1070
     2
1070
     6
1000
OPEN
1070
     7
1000
OPEN
1002
}
  0
TEXT
  5
C4A
330
1A
100
AcDbEntity
  8
MOJI
100
AcDbText
 10
113.6475992358673
 20
2.421792381708655
 30
0.0
 40
2.799999999999999
  1
ＵＲＴ６０－ＶＵ５０・８７°
 41
0.9
  7
ｽﾀｲﾙ1
100
AcDbText
  0
TEXT
  5
C4F
330
1A
100
AcDbEntity
  8
MOJI
100
AcDbText
 10
114.1095031043632
 20
9.675934848534893
 30
0.0
 40
2.799999999999999
  1
Ｙ管
 41
0.9
  7
ｽﾀｲﾙ1
100
AcDbText
  0
DIMENSION
  5
C51
330
1A
100
AcDbEntity
  8
SUNPOU
100
AcDbDimension
  2
*D11
 10
145.6360678214084
 20
28.80613248136785
 30
0.0
 11
143.1360678214084
 21
43.80613248136787
 31
0.0
 70
    32
  1
※ａ<>
 71
     5
 42
-1.0
  3
STANDARD
100
AcDbAlignedDimension
 13
124.2199932401049
 23
58.80613248136786
 33
0.0
 14
120.5463412922586
 24
28.80613248136785
 34
0.0
 50
90.0
100
AcDbRotatedDimension
1001
ACAD
1000
DSTYLE
1002
{
1070
    41
1040
3.0
1070
    42
1040
3.0
1070
    43
1040
7.0
1070
    44
1040
1.5
1070
    73
1070
     0
1070
    74
1070
     0
1070
    77
1070
     3
1070
   140
1040
3.0
1070
   141
1040
150.0
1070
   147
1040
1.0
1070
   172
1070
     1
1070
   173
1070
     1
1070
   176
1070
     4
1070
   177
1070
     4
1070
   178
1070
     4
1070
   271
1070
     0
1070
   272
1070
     2
1070
     6
1000
OPEN
1070
     7
1000
OPEN
1002
}
  0
LINE
  5
C52
330
1A
100
AcDbEntity
  8
SEIHIN
100
AcDbLine
 10
120.8986985115711
 20
31.80567556683661
 30
0.0
 11
121.3699932401054
 21
58.80613248136786
 31
0.0
  0
LINE
  5
C53
330
1A
100
AcDbEntity
  8
SEIHIN
100
AcDbLine
 10
63.5699932401053
 20
58.80613248136786
 30
0.0
 11
64.04128796863961
 21
31.80567556683661
 31
0.0
  0
LINE
  5
C54
330
1A
100
AcDbEntity
  8
SEIHIN
100
AcDbLine
 10
64.0412879686387
 20
31.80567556683661
 30
0.0
 11
120.8986985115702
 21
31.80567556683661
 31
0.0
  0
LINE
  5
C55
330
1A
100
AcDbEntity
  8
SEIHIN
100
AcDbLine
 10
120.5463412922595
 20
28.80613248136782
 30
0.0
 11
64.39364518795128
 21
28.80613248136785
 31
0.0
  0
DIMENSION
  5
C56
330
1A
100
AcDbEntity
  8
SUNPOU
100
AcDbDimension
  2
*D12
 10
120.8986985115711
 20
18.60873549033772
 30
0.0
 11
92.46999324010493
 21
21.10873549033772
 31
0.0
 70
    32
  1
φ<>
 71
     5
 42
-1.0
  3
STANDARD
100
AcDbAlignedDimension
 13
64.0412879686387
 23
31.80567556683661
 33
0.0
 14
120.8986985115711
 24
31.80567556683661
 34
0.0
100
AcDbRotatedDimension
1001
ACAD
1000
DSTYLE
1002
{
1070
    41
1040
3.0
1070
    42
1040
3.0
1070
    43
1040
7.0
1070
    44
1040
1.5
1070
    73
1070
     0
1070
    74
1070
     0
1070
    77
1070
     3
1070
   140
1040
3.0
1070
   141
1040
150.0
1070
   147
1040
1.0
1070
   172
1070
     1
1070
   173
1070
     1
1070
   176
1070
     4
1070
   177
1070
     4
1070
   178
1070
     4
1070
   271
1070
     0
1070
   272
1070
     2
1070
     6
1000
OPEN
1070
     7
1000
OPEN
1002
}
  0
LINE
  5
C57
330
1A
100
AcDbEntity
  8
SEIHIN
100
AcDbLine
 10
64.04128796863961
 20
31.80567556683661
 30
0.0
 11
64.39364518795128
 21
28.80613248136785
 31
0.0
  0
LINE
  5
C58
330
1A
100
AcDbEntity
  8
SEIHIN
100
AcDbLine
 10
120.5463412922595
 20
28.80613248136785
 30
0.0
 11
120.8986985115711
 21
31.80567556683661
 31
0.0
  0
LINE
  5
C59
330
1A
100
AcDbEntity
  8
SEIHIN
100
AcDbLine
 10
121.443698744762
 20
85.64716559881285
 30
0.0
 11
92.46999324016327
 21
113.1421854891443
 31
0.0
  0
LINE
  5
C5A
330
1A
100
AcDbEntity
  8
SEIHIN
100
AcDbLine
 10
60.71999324010494
 20
58.80613248136786
 30
0.0
 11
124.2199932401049
 21
58.80613248136788
 31
0.0
  0
LINE
  5
C5B
330
1A
100
AcDbEntity
  8
CENTER L
 48
5.0
100
AcDbLine
 10
152.7842956402069
 20
116.3668342084837
 30
0.0
 11
88.30958136108938
 21
112.7727338323292
 31
0.0
  0
LINE
  5
C5C
330
1A
100
AcDbEntity
  8
SEIHIN
100
AcDbLine
 10
124.6938252620125
 20
83.03739297995514
 30
0.0
 11
146.2199932400321
 21
84.16553164015557
 31
0.0
  0
LINE
  5
C5D
330
1A
100
AcDbEntity
  8
SEIHIN
100
AcDbLine
 10
124.2199932401049
 20
58.80613248136786
 30
0.0
 11
124.219993240134
 21
82.53807821257749
 31
0.0
  0
ARC
  5
C5E
330
1A
100
AcDbEntity
  8
SEIHIN
100
AcDbCircle
 10
124.719993240134
 20
82.53807821257749
 30
0.0
 40
0.5000000000013917
100
AcDbArc
 50
93.0000000000056
 51
180.0
  0
SPLINE
  5
C5F
330
1A
100
AcDbEntity
  8
SEIHIN
100
AcDbSpline
210
0.0
220
0.0
230
1.0
 70
    24
 71
     3
 72
     9
 73
     5
 74
     0
 42
0.0000000001
 43
0.0000000001
 40
0.0
 40
0.0
 40
0.0
 40
0.0
 40
0.4869896164794816
 40
1.0
 40
1.0
 40
1.0
 40
1.0
 10
216.506887530184
 20
142.75317532229
 30
0.0
 10
216.506887530184
 20
142.7801555437525
 30
0.0
 10
216.506887530184
 20
142.8355575904241
 30
0.0
 10
216.506887530184
 20
142.8909591718619
 30
0.0
 10
216.506887530184
 20
142.9193807584014
 30
0.0
  0
SPLINE
  5
C60
330
1A
100
AcDbEntity
  8
SEIHIN
100
AcDbSpline
210
0.0
220
0.0
230
1.0
 70
     8
 71
     3
 72
    13
 73
     9
 74
     0
 42
0.0000000001
 43
0.0000000001
 40
0.0
 40
0.0
 40
0.0
 40
0.0
 40
0.1917359339234812
 40
0.3834716610692853
 40
0.5752156763136438
 40
0.7669900571232372
 40
0.9588016037230326
 40
1.0
 40
1.0
 40
1.0
 40
1.0
 10
215.9134658523753
 20
144.251332187572
 30
0.0
 10
215.969723780201
 20
144.256400019365
 30
0.0
 10
216.0822395751811
 20
144.2665356774868
 30
0.0
 10
216.2453159528577
 20
144.2099255059182
 30
0.0
 10
216.3808702500227
 20
144.1066199867472
 30
0.0
 10
216.474093944259
 20
143.9634001003686
 30
0.0
 10
216.5050744296077
 20
143.8406071107036
 30
0.0
 10
216.5066151211231
 20
143.772716849602
 30
0.0
 10
216.506887530184
 20
143.7607131992607
 30
0.0
  0
SPLINE
  5
C61
330
1A
100
AcDbEntity
  8
SEIHIN
100
AcDbSpline
210
0.0
220
0.0
230
1.0
 70
     8
 71
     3
 72
    13
 73
     9
 74
     0
 42
0.0000000001
 43
0.0000000001
 40
0.0
 40
0.0
 40
0.0
 40
0.0
 40
0.1950684877151212
 40
0.3901375739268919
 40
0.5851893416714339
 40
0.7802047020272549
 40
0.9751860636120522
 40
1.0
 40
1.0
 40
1.0
 40
1.0
 10
216.506887530184
 20
142.9193807584014
 30
0.0
 10
216.5124180137172
 20
142.863213675804
 30
0.0
 10
216.5234789977521
 20
142.7508793382784
 30
0.0
 10
216.6096844038711
 20
142.6013930652806
 30
0.0
 10
216.7366884125149
 20
142.487713034703
 30
0.0
 10
216.8950345135817
 20
142.4229411794712
 30
0.0
 10
217.0165686162463
 20
142.4161134958593
 30
0.0
 10
217.0789747315156
 20
142.4252327109951
 30
0.0
 10
217.0860201114164
 20
142.4262622308541
 30
0.0
  0
SPLINE
  5
C62
330
1A
100
AcDbEntity
  8
SEIHIN
100
AcDbSpline
210
0.0
220
0.0
230
1.0
 70
     8
 71
     3
 72
    13
 73
     9
 74
     0
 42
0.0000000001
 43
0.0000000001
 40
0.0
 40
0.0
 40
0.0
 40
0.0
 40
0.1975139965676508
 40
0.3950973091194215
 40
0.5908378364820133
 40
0.7837954901500833
 40
0.9749694748787936
 40
1.0
 40
1.0
 40
1.0
 40
1.0
 10
217.0861424271988
 20
142.2645621019636
 30
0.0
 10
217.0294531818445
 20
142.2604775954404
 30
0.0
 10
216.916054796492
 20
142.2523071489685
 30
0.0
 10
216.7535712795743
 20
142.3129623031817
 30
0.0
 10
216.6211112553101
 20
142.4203582859644
 30
0.0
 10
216.5332421474686
 20
142.5657866304044
 30
0.0
 10
216.5078430539524
 20
142.6836450473109
 30
0.0
 10
216.5069866752419
 20
142.7459608673306
 30
0.0
 10
216.506887530184
 20
142.75317532229
 30
0.0
  0
SPLINE
  5
C63
330
1A
100
AcDbEntity
  8
SEIHIN
100
AcDbSpline
210
0.0
220
0.0
230
1.0
 70
     8
 71
     3
 72
    13
 73
     9
 74
     0
 42
0.0000000001
 43
0.0000000001
 40
0.0
 40
0.0
 40
0.0
 40
0.0
 40
0.187651443874409
 40
0.3753391271700022
 40
0.5624134690012783
 40
0.7506546539759085
 40
0.9419626905404731
 40
1.0
 40
1.0
 40
1.0
 40
1.0
 10
216.506887530184
 20
143.5980077997554
 30
0.0
 10
216.5015524965529
 20
143.6534128530237
 30
0.0
 10
216.490881398985
 20
143.7642336594343
 30
0.0
 10
216.407269622724
 20
143.9116685903808
 30
0.0
 10
216.2839935812571
 20
144.0239724632082
 30
0.0
 10
216.129756629949
 20
144.0887841828188
 30
0.0
 10
216.0008164130831
 20
144.0981718985002
 30
0.0
 10
215.92984107366
 20
144.0859109197079
 30
0.0
 10
215.9133209428309
 20
144.0830570696888
 30
0.0
  0
SPLINE
  5
C64
330
1A
100
AcDbEntity
  8
SEIHIN
100
AcDbSpline
210
0.0
220
0.0
230
1.0
 70
     8
 71
     3
 72
     9
 73
     5
 74
     0
 42
0.0000000001
 43
0.0000000001
 40
0.0
 40
0.0
 40
0.0
 40
0.0
 40
0.429207443862187
 40
1.0
 40
1.0
 40
1.0
 40
1.0
 10
215.9133209428309
 20
144.0830570696888
 30
0.0
 10
215.9133417001557
 20
144.1071322007554
 30
0.0
 10
215.9133900621436
 20
144.1632242639515
 30
0.0
 10
215.9134383118198
 20
144.2193156448773
 30
0.0
 10
215.9134658523753
 20
144.251332187572
 30
0.0
  0
SPLINE
  5
C65
330
1A
100
AcDbEntity
  8
SEIHIN
100
AcDbSpline
210
0.0
220
0.0
230
1.0
 70
    24
 71
     1
 72
     4
 73
     2
 74
     0
 42
0.0000000001
 43
0.0000000001
 40
0.0
 40
0.0
 40
1.0
 40
1.0
 10
189.756887530184
 20
183.8061324813678
 30
0.0
 10
189.756887530184
 20
176.8061324813678
 30
0.0
  0
SPLINE
  5
C66
330
1A
100
AcDbEntity
  8
SEIHIN
100
AcDbSpline
210
0.0
220
0.0
230
1.0
 70
    24
 71
     1
 72
     4
 73
     2
 74
     0
 42
0.0000000001
 43
0.0000000001
 40
0.0
 40
0.0
 40
1.0
 40
1.0
 10
92.46999324019043
 20
203.1108919789272
 30
0.0
 10
146.2199932400849
 20
203.1108919789272
 30
0.0
  0
SPLINE
  5
C69
330
1A
100
AcDbEntity
  8
SEIHIN
100
AcDbSpline
210
0.0
220
0.0
230
1.0
 70
    24
 71
     1
 72
     4
 73
     2
 74
     0
 42
0.0000000001
 43
0.0000000001
 40
0.0
 40
0.0
 40
1.0
 40
1.0
 10
146.2199932400849
 20
266.6108919789272
 30
0.0
 10
92.46999324019043
 20
266.6108919789272
 30
0.0
  0
DIMENSION
  5
C6B
330
1A
100
AcDbEntity
  8
SUNPOU
100
AcDbDimension
  2
*D13
 10
45.98413656944197
 20
176.8061324813678
 30
0.0
 11
45.98413656944194
 21
180.3061324813678
 31
0.0
 70
   160
 71
     5
 42
-1.0
  3
STANDARD
100
AcDbAlignedDimension
 13
60.71999324010494
 23
183.8061324813678
 33
0.0
 14
60.71999324010494
 24
176.8061324813678
 34
0.0
 50
90.0
100
AcDbRotatedDimension
1001
ACAD
1000
DSTYLE
1002
{
1070
    41
1040
3.0
1070
    42
1040
3.0
1070
    43
1040
7.0
1070
    44
1040
1.5
1070
    73
1070
     0
1070
    74
1070
     0
1070
    77
1070
     3
1070
   140
1040
3.0
1070
   141
1040
150.0
1070
   147
1040
1.0
1070
   172
1070
     1
1070
   173
1070
     1
1070
   176
1070
     4
1070
   177
1070
     4
1070
   178
1070
     4
1070
   271
1070
     0
1070
   272
1070
     2
1070
     6
1000
OPEN
1070
     7
1000
OPEN
1002
}
  0
LINE
  5
C6C
330
1A
100
AcDbEntity
  8
CENTER L
 48
5.0
100
AcDbLine
 10
92.46999324010493
 20
197.496760513137
 30
0.0
 11
92.46999324010493
 21
272.2250234447138
 31
0.0
  0
DIMENSION
  5
C6D
330
1A
100
AcDbEntity
  8
SUNPOU
100
AcDbDimension
  2
*D14
 10
146.2199932401049
 20
160.1103490619551
 30
0.0
 11
166.2199932401049
 21
160.1103490619551
 31
0.0
 70
   160
  1
※ｂ<>
 71
     5
 42
-1.0
  3
STANDARD
100
AcDbAlignedDimension
 13
124.2199932401331
 23
147.1265945294579
 33
0.0
 14
146.2199932401049
 24
147.7526756110218
 34
0.0
100
AcDbRotatedDimension
1001
ACAD
1000
DSTYLE
1002
{
1070
    41
1040
3.0
1070
    42
1040
3.0
1070
    43
1040
7.0
1070
    44
1040
1.5
1070
    73
1070
     0
1070
    74
1070
     0
1070
    77
1070
     3
1070
   140
1040
3.0
1070
   141
1040
150.0
1070
   147
1040
1.0
1070
   172
1070
     1
1070
   173
1070
     1
1070
   176
1070
     4
1070
   177
1070
     4
1070
   178
1070
     4
1070
   271
1070
     0
1070
   272
1070
     2
1070
     6
1000
OPEN
1070
     7
1000
OPEN
1002
}
  0
LINE
  5
C6E
330
1A
100
AcDbEntity
  8
SEIHIN
100
AcDbLine
 10
124.2199932401049
 20
183.8061324813679
 30
0.0
 11
60.71999324010494
 21
183.8061324813678
 31
0.0
  0
LINE
  5
C6F
330
1A
100
AcDbEntity
  8
SEIHIN
100
AcDbLine
 10
124.2199932401049
 20
176.8061324813678
 30
0.0
 11
60.71999324010494
 21
176.8061324813678
 31
0.0
  0
DIMENSION
  5
C70
330
1A
100
AcDbEntity
  8
SUNPOU
100
AcDbDimension
  2
*D15
 10
124.2199932401049
 20
193.4197160589894
 30
0.0
 11
92.46999324010493
 21
195.9197160589894
 31
0.0
 70
    32
  1
φ<>
 71
     5
 42
-1.0
  3
STANDARD
100
AcDbAlignedDimension
 13
60.71999324010494
 23
176.310368727499
 33
0.0
 14
124.2199932401049
 24
176.310368727499
 34
0.0
100
AcDbRotatedDimension
1001
ACAD
1000
DSTYLE
1002
{
1070
    41
1040
3.0
1070
    42
1040
3.0
1070
    43
1040
7.0
1070
    44
1040
1.5
1070
    73
1070
     0
1070
    74
1070
     0
1070
    77
1070
     3
1070
   140
1040
3.0
1070
   141
1040
150.0
1070
   147
1040
1.0
1070
   172
1070
     1
1070
   173
1070
     1
1070
   176
1070
     4
1070
   177
1070
     4
1070
   178
1070
     4
1070
   271
1070
     0
1070
   272
1070
     2
1070
     6
1000
OPEN
1070
     7
1000
OPEN
1002
}
  0
LINE
  5
C71
330
1A
100
AcDbEntity
  8
SEIHIN
100
AcDbLine
 10
60.71999324010494
 20
176.8061324813678
 30
0.0
 11
60.71999324010494
 21
183.8061324813678
 31
0.0
  0
LINE
  5
C72
330
1A
100
AcDbEntity
  8
SEIHIN
100
AcDbLine
 10
124.219993240134
 20
147.1265945294434
 30
0.0
 11
124.2199932401049
 21
176.8061324813678
 31
0.0
  0
LINE
  5
C73
330
1A
100
AcDbEntity
  8
SEIHIN
100
AcDbLine
 10
146.2199932400321
 20
147.7526756110181
 30
0.0
 11
124.7461612182555
 21
146.6272797620657
 31
0.0
  0
ARC
  5
C74
330
1A
100
AcDbEntity
  8
SEIHIN
100
AcDbCircle
 10
124.719993240134
 20
147.1265945294434
 30
0.0
 40
0.5000000000000293
100
AcDbArc
 50
180.0
 51
273.0000000000056
  0
LINE
  5
C75
330
1A
100
AcDbEntity
  8
SEIHIN
100
AcDbLine
 10
124.2199932401049
 20
183.8061324813678
 30
0.0
 11
124.2199932401049
 21
176.8061324813678
 31
0.0
  0
LINE
  5
C76
330
1A
100
AcDbEntity
  8
CENTER L
 48
5.0
100
AcDbLine
 10
153.2199932400849
 20
234.8608919789255
 30
0.0
 11
53.71999324010494
 21
234.8608919789254
 31
0.0
  0
CIRCLE
  5
C77
330
1A
100
AcDbEntity
  8
SEIHIN
100
AcDbCircle
 10
92.46999324010493
 20
234.8608919789272
 30
0.0
 40
7.5
  0
DIMENSION
  5
C78
330
1A
100
AcDbEntity
  8
SUNPOU
100
AcDbDimension
  2
*D16
 10
96.20114557697545
 20
241.3669278102851
 30
0.0
 11
81.34654902115816
 21
220.490123429257
 31
0.0
 70
    35
 71
     5
 42
-1.0
  3
STANDARD
100
AcDbDiametricDimension
 15
88.73884090323446
 25
228.35485614755
 35
0.0
 40
0.0
1001
ACAD
1000
DSTYLE
1002
{
1070
    41
1040
3.0
1070
    42
1040
3.0
1070
    43
1040
7.0
1070
    44
1040
1.5
1070
    73
1070
     0
1070
    74
1070
     0
1070
    77
1070
     3
1070
   140
1040
3.0
1070
   141
1040
150.0
1070
   147
1040
1.0
1070
   172
1070
     1
1070
   173
1070
     1
1070
   176
1070
     4
1070
   177
1070
     4
1070
   178
1070
     4
1070
   271
1070
     0
1070
   272
1070
     2
1070
     6
1000
OPEN
1070
     7
1000
OPEN
1002
}
  0
CIRCLE
  5
C79
330
1A
100
AcDbEntity
  8
SEIHIN
100
AcDbCircle
 10
92.46999324010493
 20
234.8608919789272
 30
0.0
 40
29.95000000000004
  0
CIRCLE
  5
C7A
330
1A
100
AcDbEntity
  8
SEIHIN
100
AcDbCircle
 10
92.46999324010493
 20
234.8608919789272
 30
0.0
 40
31.75
  0
LINE
  5
C7B
330
1A
100
AcDbEntity
  8
SEIHIN
100
AcDbLine
 10
146.2199932400849
 20
266.6108919789272
 30
0.0
 11
146.2199932400849
 21
203.1108919789272
 31
0.0
  0
LINE
  5
C7C
330
1A
100
AcDbEntity
  8
SEIHIN
100
AcDbLine
 10
216.506887530184
 20
143.7607131992607
 30
0.0
 11
216.506887530184
 21
142.9193807584014
 31
0.0
  0
SPLINE
  5
C7D
330
1A
100
AcDbEntity
  8
SEIHIN
100
AcDbSpline
210
0.0
220
0.0
230
1.0
 70
     8
 71
     3
 72
    28
 73
    24
 74
     0
 42
0.0000000001
 43
0.0000000001
 40
0.0282431429535555
 40
0.0282431429535555
 40
0.0282431429535555
 40
0.0282431429535555
 40
0.034525173545482
 40
0.034525173545482
 40
0.0551407762951138
 40
0.0551407762951138
 40
0.0757563790447456
 40
0.0757563790447456
 40
0.0963719817943774
 40
0.0963719817943774
 40
0.1314751051370881
 40
0.1314751051370881
 40
0.1665782284797988
 40
0.1665782284797988
 40
0.1956415674543278
 40
0.1956415674543278
 40
0.2247049064288568
 40
0.2247049064288568
 40
0.2537682454033858
 40
0.2537682454033858
 40
0.2828315843779148
 40
0.2828315843779148
 40
0.2925705248809258
 40
0.2925705248809258
 40
0.2925705248809258
 40
0.2925705248809258
 10
226.8555374881287
 20
144.072339370093
 30
0.0
 10
227.2479405999587
 20
144.0009647620835
 30
0.0
 10
227.6392266011346
 20
143.921620826112
 30
0.0
 10
229.3068578511083
 20
143.5513564251657
 30
0.0
 10
230.5644933061348
 20
143.1862654306191
 30
0.0
 10
233.024574108957
 20
142.2927413372272
 30
0.0
 10
234.2275701064054
 20
141.7682086269788
 30
0.0
 10
236.5541500214987
 20
140.5708602782833
 30
0.0
 10
237.678065055701
 20
139.8963513548027
 30
0.0
 10
240.5820126050193
 20
137.8802245339987
 30
0.0
 10
242.2680422304633
 20
136.4023437508778
 30
0.0
 10
245.2892511668418
 20
133.1253649675176
 30
0.0
 10
246.6181780841464
 20
131.321814767683
 30
0.0
 10
248.648938908371
 20
127.7925366842531
 30
0.0
 10
249.4217261402813
 20
126.108088153414
 30
0.0
 10
250.6598948653599
 20
122.6319795228462
 30
0.0
 10
251.1204102431324
 20
120.8386769421713
 30
0.0
 10
251.700258451531
 20
117.1961789990924
 30
0.0
 10
251.8203117086438
 20
115.3475038346314
 30
0.0
 10
251.7358390853437
 20
111.6575828171112
 30
0.0
 10
251.5281603589405
 20
109.8175891343627
 30
0.0
 10
251.0243141349332
 20
107.4077648963456
 30
0.0
 10
250.8788482768149
 20
106.8069275878539
 30
0.0
 10
250.7150200790138
 20
106.2110485345042
 30
0.0
  0
SPLINE
  5
C7E
330
1A
100
AcDbEntity
  8
SEIHIN
100
AcDbSpline
210
0.0
220
0.0
230
1.0
 70
    24
 71
     3
 72
    39
 73
    35
 74
     0
 42
0.0000000001
 43
0.0000000001
 40
0.0
 40
0.0
 40
0.0
 40
0.0
 40
0.0313830061698536
 40
0.0624605571100235
 40
0.0935384224553363
 40
0.1249223626509948
 40
0.1563074731094756
 40
0.187393431499955
 40
0.2184859137260887
 40
0.2498904051926692
 40
0.281291285436974
 40
0.3123934901821465
 40
0.3435022180989206
 40
0.3749224777713822
 40
0.4063379051811412
 40
0.4374527373953164
 40
0.4685718030514385
 40
0.4999998076034161
 40
0.5314200441549177
 40
0.562536495121253
 40
0.5936539420248802
 40
0.625077137408728
 40
0.6564896320676504
 40
0.6875957462687341
 40
0.7187005647287834
 40
0.7501092099227752
 40
0.7815059406295645
 40
0.8125958105188969
 40
0.8436843812453702
 40
0.8750772523997046
 40
0.9064594272738899
 40
0.937536659551298
 40
0.9686148823947963
 40
1.0
 40
1.0
 40
1.0
 40
1.0
 10
384.9145283168859
 20
146.7607470098627
 30
0.0
 10
384.9145283168859
 20
146.7328604608536
 30
0.0
 10
384.9145283168859
 20
146.6773587865571
 30
0.0
 10
384.9145283168859
 20
146.2197893582978
 30
0.0
 10
384.9145283168859
 20
145.4866278271091
 30
0.0
 10
384.9145283168859
 20
144.4588803940149
 30
0.0
 10
384.9145283168859
 20
143.166066732463
 30
0.0
 10
384.9145283168859
 20
141.6130189752474
 30
0.0
 10
384.9145283168859
 20
139.8088300518155
 30
0.0
 10
384.9145283168859
 20
137.7674500070423
 30
0.0
 10
384.9145283168859
 20
135.5221388443768
 30
0.0
 10
384.9145283168859
 20
133.0939926189729
 30
0.0
 10
384.9145283168859
 20
130.4978685340555
 30
0.0
 10
384.9145283168859
 20
127.7526163238561
 30
0.0
 10
384.9145283168859
 20
124.8970362642211
 30
0.0
 10
384.9145283168859
 20
121.9633877746308
 30
0.0
 10
384.9145283168859
 20
118.9705868110667
 30
0.0
 10
384.9145283168859
 20
115.9393864589636
 30
0.0
 10
384.9145283168859
 20
112.9082608691404
 30
0.0
 10
384.9145283168859
 20
109.9157069135998
 30
0.0
 10
384.9145283168859
 20
106.9818256461202
 30
0.0
 10
384.9145283168859
 20
104.1261182112065
 30
0.0
 10
384.9145283168859
 20
101.380876746938
 30
0.0
 10
384.9145283168859
 20
98.78497629587025
 30
0.0
 10
384.9145283168859
 20
96.35664697347591
 30
0.0
 10
384.9145283168859
 20
94.11117527056365
 30
0.0
 10
384.9145283168859
 20
92.06974000446814
 30
0.0
 10
384.9145283168859
 20
90.26571836138817
 30
0.0
 10
384.9145283168859
 20
88.71256118361442
 30
0.0
 10
384.9145283168859
 20
87.41951037800015
 30
0.0
 10
384.9145283168859
 20
86.39153382748906
 30
0.0
 10
384.9145283168859
 20
85.65836182044938
 30
0.0
 10
384.9145283168859
 20
85.20081942548847
 30
0.0
 10
384.9145283168859
 20
85.14537830080541
 30
0.0
 10
384.9145283168859
 20
85.11752154184966
 30
0.0
  0
SPLINE
  5
C7F
330
1A
100
AcDbEntity
  8
SEIHIN
100
AcDbSpline
210
0.0
220
0.0
230
1.0
 70
     8
 71
     3
 72
    57
 73
    53
 74
     0
 42
0.0000000001
 43
0.0000000001
 40
0.0
 40
0.0
 40
0.0
 40
0.0
 40
0.0297297802967089
 40
0.0598866268154552
 40
0.0904715893470145
 40
0.1214856980215146
 40
0.1529299649382749
 40
0.1848053856927825
 40
0.2028496093950251
 40
0.2210296391201694
 40
0.2258141503421789
 40
0.230607995342844
 40
0.2354111771836054
 40
0.2402236989204603
 40
0.2450455636040405
 40
0.2498767742796928
 40
0.267715365210339
 40
0.2871470942447151
 40
0.3081722361508676
 40
0.3307910660641263
 40
0.3550038653400137
 40
0.3764007891755953
 40
0.3989053023394517
 40
0.4225176174662081
 40
0.4472379565175136
 40
0.4730665513005356
 40
0.5000036438792263
 40
0.5269657546086513
 40
0.5528166503007319
 40
0.5775559606251331
 40
0.601183336546579
 40
0.6236984507408773
 40
0.6451009981181669
 40
0.6677496989268969
 40
0.6890022490897268
 40
0.7088583064120975
 40
0.714443107138203
 40
0.7199065913190168
 40
0.7252487545176914
 40
0.7304695926305105
 40
0.7355691019002828
 40
0.7405472789313698
 40
0.7454041207065919
 40
0.7501396246063004
 40
0.7828803112172328
 40
0.8151895116347905
 40
0.8470674716629714
 40
0.8785144749405912
 40
0.9095308443652623
 40
0.9401169436122621
 40
0.9702731787556917
 40
1.0
 40
1.0
 40
1.0
 40
1.0
 10
383.915066026117
 20
85.58473237700843
 30
0.0
 10
383.9151697362681
 20
85.6103019081819
 30
0.0
 10
383.9153786463598
 20
85.66180827505911
 30
0.0
 10
383.9165152499049
 20
86.0817464537539
 30
0.0
 10
383.9176957731065
 20
86.76186327835592
 30
0.0
 10
383.918754310926
 20
87.73216641528041
 30
0.0
 10
383.9195546489086
 20
88.98781071843211
 30
0.0
 10
383.9200774336336
 20
90.29983735079611
 30
0.0
 10
383.9205486624173
 20
91.53922062713343
 30
0.0
 10
383.9209030531551
 20
92.34527308260647
 30
0.0
 10
383.9212017077393
 20
92.91517218252726
 30
0.0
 10
383.9213709635628
 20
93.21565182610527
 30
0.0
 10
383.9215575362172
 20
93.52187588214462
 30
0.0
 10
383.921761509157
 20
93.83380618234866
 30
0.0
 10
383.9219926290738
 20
94.15140300205701
 30
0.0
 10
383.9224332067565
 20
94.76446970906534
 30
0.0
 10
383.9238484534521
 20
95.73718085671305
 30
0.0
 10
383.9267416868774
 20
97.156140260793
 30
0.0
 10
383.9299703428255
 20
98.77032805662919
 30
0.0
 10
383.9330064976634
 20
100.5904739648084
 30
0.0
 10
383.9352687805335
 20
102.5013590514298
 30
0.0
 10
383.9367077169285
 20
104.4768380743297
 30
0.0
 10
383.9374540733183
 20
106.4908261124745
 30
0.0
 10
383.9377029759639
 20
108.6547226817364
 30
0.0
 10
383.9377717544025
 20
110.963182015921
 30
0.0
 10
383.9379856760556
 20
113.4073211362627
 30
0.0
 10
383.9395528158543
 20
115.9399279424577
 30
0.0
 10
383.9411155621278
 20
118.4732493820573
 30
0.0
 10
383.9413196122091
 20
120.9194510376599
 30
0.0
 10
383.9413770324513
 20
123.2295822760605
 30
0.0
 10
383.9416160025907
 20
125.3947043966126
 30
0.0
 10
383.9423555682738
 20
127.4094311855732
 30
0.0
 10
383.9437585264245
 20
129.3398005018915
 30
0.0
 10
383.9458975143884
 20
131.1706791568848
 30
0.0
 10
383.9486872681332
 20
132.8880260066051
 30
0.0
 10
383.9510558587603
 20
134.0923870910372
 30
0.0
 10
383.9526208002548
 20
134.8654260838283
 30
0.0
 10
383.9534356538538
 20
135.2698047913307
 30
0.0
 10
383.9542041102636
 20
135.6597069248727
 30
0.0
 10
383.9549121031382
 20
136.0353994707146
 30
0.0
 10
383.9555461944905
 20
136.397152060448
 30
0.0
 10
383.9560894212358
 20
136.7452400485216
 30
0.0
 10
383.9565359281737
 20
137.0799507119917
 30
0.0
 10
383.957438308164
 20
138.0382638140525
 30
0.0
 10
383.9581943579883
 20
139.5268904687326
 30
0.0
 10
383.958903769922
 20
141.3492698106491
 30
0.0
 10
383.959501042013
 20
142.8911940845845
 30
0.0
 10
383.960297196821
 20
144.1470027372378
 30
0.0
 10
383.9613517426219
 20
145.1173537358607
 30
0.0
 10
383.9625322472752
 20
145.7974932431842
 30
0.0
 10
383.9636712580336
 20
146.2174201040378
 30
0.0
 10
383.9638821390485
 20
146.268925430193
 30
0.0
 10
383.9639868234549
 20
146.2944934241476
 30
0.0
  0
SPLINE
  5
C80
330
1A
100
AcDbEntity
  8
SEIHIN
100
AcDbSpline
210
0.0
220
0.0
230
1.0
 70
     8
 71
     3
 72
    29
 73
    25
 74
     0
 42
0.0000000001
 43
0.0000000001
 40
0.0
 40
0.0
 40
0.0
 40
0.0
 40
0.0497590435253361
 40
0.0849225389710139
 40
0.1200893071210434
 40
0.1559828441439394
 40
0.1918795892748594
 40
0.2486112416969243
 40
0.3053577774972429
 40
0.3638246435796905
 40
0.4223019618663625
 40
0.4951855798007331
 40
0.5680832390392967
 40
0.6427691607111532
 40
0.7174612885132325
 40
0.7741937650501204
 40
0.8311030122191262
 40
0.859495268642255
 40
0.8878811414405184
 40
0.916796630441423
 40
0.9456557519652015
 40
0.9652880906309675
 40
0.9854027749934264
 40
1.0
 40
1.0
 40
1.0
 40
1.0
 10
360.6183336885537
 20
144.083057069687
 30
0.0
 10
360.4466988349317
 20
143.8996320212517
 30
0.0
 10
360.1537738405409
 20
143.5865849905911
 30
0.0
 10
359.5801944569425
 20
142.9732187616735
 30
0.0
 10
359.0012292263522
 20
142.3537440385679
 30
0.0
 10
358.3419352343103
 20
141.6478445592891
 30
0.0
 10
357.4699644889201
 20
140.7134496448342
 30
0.0
 10
356.3471907521147
 20
139.5088406433932
 30
0.0
 10
354.9286940810329
 20
137.9838390748717
 30
0.0
 10
353.3882797429392
 20
136.3235607004825
 30
0.0
 10
351.608687134149
 20
134.3985509057364
 30
0.0
 10
349.5994754560965
 20
132.2147771366688
 30
0.0
 10
347.349244618234
 20
129.7469953345897
 30
0.0
 10
345.0216363782078
 20
127.164856560348
 30
0.0
 10
342.8386558898787
 20
124.6865747437258
 30
0.0
 10
340.8508500832854
 20
122.3535611320711
 30
0.0
 10
339.3816286023834
 20
120.5364946262214
 30
0.0
 10
338.2528337438439
 20
119.031665974291
 30
0.0
 10
337.4453309319146
 20
117.8598374649717
 30
0.0
 10
336.6973725546399
 20
116.634730708305
 30
0.0
 10
336.1390921926727
 20
115.4645509932341
 30
0.0
 10
335.7956895419015
 20
114.3682544897072
 30
0.0
 10
335.6572462036506
 20
113.4620596824169
 30
0.0
 10
335.6910290090204
 20
112.8815651822131
 30
0.0
 10
335.7052355225864
 20
112.6374527439019
 30
0.0
  0
LINE
  5
C81
330
1A
100
AcDbEntity
  8
CENTER L
 48
5.0
100
AcDbLine
 10
331.1645283168859
 20
188.4771842432796
 30
0.0
 11
331.1645283168859
 21
20.38032394710887
 31
0.0
  0
INSERT
  5
C82
330
1A
100
AcDbEntity
  8
ﾊｯﾁﾝｸﾞ
100
AcDbBlockReference
  2
*X1
 10
122.7378959739148
 20
-147.6421496709832
 30
0.0
1001
ACAD
1000
HATCH
1002
{
1070
    19
1000
_USER
1040
2.0
1040
0.7853981633974483
1000
R14_HATCH_DATA
1000
76C
1011
123.7378959739148
1021
-147.6421496709832
1031
0.0
1011
122.7378959739148
1021
-146.6421496709832
1031
0.0
1011
122.7378959739148
1021
-147.6421496709832
1031
1.0
1040
0.0
1010
0.0
1020
0.0
1030
1.0
1000
_USER
1070
     0
1070
     0
1071
        1
1071
        0
1071
       11
1070
     1
1040
176.676632342971
1040
206.4482821523511
1040
179.5266323429714
1040
206.4482821523511
1070
     1
1040
179.5266323429714
1040
206.4482821523511
1040
179.9979270715057
1040
179.4478252378198
1070
     1
1040
179.9979270715048
1040
179.4478252378198
1040
180.3502842908164
1040
176.4482821523511
1070
     1
1040
180.3502842908174
1040
176.4482821523511
1040
181.7766323429714
1040
176.4482821523511
1070
     1
1040
181.7766323429714
1040
176.4482821523511
1040
182.0524013651593
1040
208.0482821523514
1070
     1
1040
182.0524013651593
1040
208.0482821523496
1040
179.6722879482686
1040
208.0482821523496
1070
     2
1040
179.6722879482686
1040
208.5482821523496
1040
0.5
1040
1.570796326794896
1040
3.132866007329739
1070
     0
1070
     1
1040
179.1723069867366
1040
208.5439188846016
1040
178.1695514676248
1040
323.4483202292872
1070
     1
1040
178.1695514676248
1040
323.4483202292872
1040
177.660824932127
1040
324.4482821523511
1070
     1
1040
177.660824932127
1040
324.4482821523511
1040
176.676632342971
1040
324.4482821523511
1070
     1
1040
176.676632342971
1040
324.4482821523511
1040
176.676632342971
1040
206.4482821523511
1071
        0
1070
     0
1070
     0
1040
0.7853981633974483
1040
2.0
1070
     0
1070
     1
1040
0.7853981633974483
1040
0.0
1040
0.0
1040
-1.414213562373094
1040
1.414213562373095
1070
     0
1071
        1
1040
-1059.358737087011
1040
-634.3304857213966
1040
0.0
1002
}
  0
LINE
  5
C83
330
1A
100
AcDbEntity
  8
SEIHIN
100
AcDbLine
 10
299.4145283168859
 20
176.8061324813678
 30
0.0
 11
299.4145283168859
 21
58.80613248136786
 31
0.0
  0
LINE
  5
C84
330
1A
100
AcDbEntity
  8
SEIHIN
100
AcDbLine
 10
300.9074474415397
 20
175.8061705583039
 30
0.0
 11
301.9102029606515
 21
60.90176921361842
 31
0.0
  0
SPLINE
  5
C85
330
1A
100
AcDbEntity
  8
SEIHIN
100
AcDbSpline
210
0.0
220
0.0
230
1.0
 70
    24
 71
     1
 72
     4
 73
     2
 74
     0
 42
0.0000000001
 43
0.0000000001
 40
0.0
 40
0.0
 40
1.0
 40
1.0
 10
253.256887530184
 20
115.9591036255932
 30
0.0
 10
253.256887530184
 20
176.8061324813678
 30
0.0
  0
SPLINE
  5
C86
330
1A
100
AcDbEntity
  8
SEIHIN
100
AcDbSpline
210
0.0
220
0.0
230
1.0
 70
     8
 71
     3
 72
    35
 73
    31
 74
     0
 42
0.0000000001
 43
0.0000000001
 40
0.0
 40
0.0
 40
0.0
 40
0.0
 40
0.016712176235502
 40
0.0338205497709427
 40
0.0528279826420503
 40
0.0818262088256055
 40
0.1110756016255377
 40
0.1571111209330276
 40
0.2033347121194774
 40
0.2728259854782928
 40
0.307754325931548
 40
0.3427349931089715
 40
0.3783384183908619
 40
0.4140040111409097
 40
0.4498712995575696
 40
0.4858128617564121
 40
0.5380805322556191
 40
0.5776786377311348
 40
0.6174173613350609
 40
0.6577473646143784
 40
0.69826658788035
 40
0.7333964403604859
 40
0.7686842063586066
 40
0.8045082169466978
 40
0.8405377869524548
 40
0.8752186008220746
 40
0.9101199833900652
 40
0.9457506031698819
 40
0.9816477673758106
 40
1.0
 40
1.0
 40
1.0
 40
1.0
 10
335.7052355225864
 20
112.6374527439019
 30
0.0
 10
335.7490476910229
 20
112.3481240400505
 30
0.0
 10
335.83771068753
 20
111.7626074866765
 30
0.0
 10
336.1501682631828
 20
110.890382703319
 30
0.0
 10
336.6453562706678
 20
109.8687632933159
 30
0.0
 10
337.3642481646425
 20
108.7316797682759
 30
0.0
 10
338.4405169072747
 20
107.2823486010382
 30
0.0
 10
339.7851225979688
 20
105.6801914996175
 30
0.0
 10
341.6330084494788
 20
103.6352466661063
 30
0.0
 10
343.3784812587232
 20
101.8043473935903
 30
0.0
 10
344.9828049381189
 20
100.1607926188916
 30
0.0
 10
346.1874998912339
 20
98.94208936670464
 30
0.0
 10
347.3860369354802
 20
97.74109943440443
 30
0.0
 10
348.5754560088139
 20
96.55817593896779
 30
0.0
 10
349.7450998068584
 20
95.40182580285716
 30
0.0
 10
351.0629764019418
 20
94.10516780259047
 30
0.0
 10
352.3731107748303
 20
92.82230585227432
 30
0.0
 10
353.6592405082469
 20
91.56760783767083
 30
0.0
 10
354.7719919359792
 20
90.48491025341888
 30
0.0
 10
355.8270610599033
 20
89.46056987018335
 30
0.0
 10
356.7683373472141
 20
88.54835242337856
 30
0.0
 10
357.5938573450407
 20
87.74941227815714
 30
0.0
 10
358.3104673968477
 20
87.05661920327827
 30
0.0
 10
358.9499998701444
 20
86.43889655673399
 30
0.0
 10
359.4944428078947
 20
85.91340778783877
 30
0.0
 10
359.9372533534838
 20
85.48625676749896
 30
0.0
 10
360.2774784311382
 20
85.15820501741462
 30
0.0
 10
360.5106117387927
 20
84.93348267496902
 30
0.0
 10
360.6151605225245
 20
84.83272467779341
 30
0.0
 10
360.6244491316151
 20
84.82377301991062
 30
0.0
 10
360.627591410142
 20
84.82074472987358
 30
0.0
  0
SPLINE
  5
C87
330
1A
100
AcDbEntity
  8
SEIHIN
100
AcDbSpline
210
0.0
220
0.0
230
1.0
 70
    24
 71
     3
 72
    11
 73
     7
 74
     0
 42
0.0000000001
 43
0.0000000001
 40
0.0
 40
0.0
 40
0.0
 40
0.0
 40
0.2503849313352862
 40
0.5007698626705885
 40
0.7503849313352803
 40
0.9999999999999998
 40
0.9999999999999998
 40
0.9999999999999998
 40
0.9999999999999998
 10
384.9145283168859
 20
85.11752154184966
 30
0.0
 10
384.8311115512046
 20
85.15651572614286
 30
0.0
 10
384.6642780198394
 20
85.23450409473104
 30
0.0
 10
384.4142842056958
 20
85.35136675155071
 30
0.0
 10
384.1645468744559
 20
85.46810951231043
 30
0.0
 10
383.9982263088973
 20
85.54585808877517
 30
0.0
 10
383.915066026117
 20
85.58473237700843
 30
0.0
  0
SPLINE
  5
C88
330
1A
100
AcDbEntity
  8
SEIHIN
100
AcDbSpline
210
0.0
220
0.0
230
1.0
 70
    24
 71
     1
 72
     4
 73
     2
 74
     0
 42
0.0000000001
 43
0.0000000001
 40
0.0
 40
0.0
 40
1.0
 40
1.0
 10
253.256887530184
 20
58.80613248136786
 30
0.0
 10
253.256887530184
 20
113.1421854891594
 30
0.0
  0
SPLINE
  5
C89
330
1A
100
AcDbEntity
  8
SEIHIN
100
AcDbSpline
210
0.0
220
0.0
230
1.0
 70
    24
 71
     1
 72
     4
 73
     2
 74
     0
 42
0.0000000001
 43
0.0000000001
 40
0.0
 40
0.0
 40
1.0
 40
1.0
 10
249.9355928016493
 20
31.80567556683843
 30
0.0
 10
250.4068875301836
 20
58.80613248136786
 30
0.0
  0
SPLINE
  5
C8A
330
1A
100
AcDbEntity
  8
SEIHIN
100
AcDbSpline
210
0.0
220
0.0
230
1.0
 70
    24
 71
     1
 72
     4
 73
     2
 74
     0
 42
0.0000000001
 43
0.0000000001
 40
0.0
 40
0.0
 40
1.0
 40
1.0
 10
249.5832355823377
 20
28.80613248136785
 30
0.0
 10
249.9355928016493
 20
31.80567556683843
 30
0.0
  0
SPLINE
  5
C8B
330
1A
100
AcDbEntity
  8
SEIHIN
100
AcDbSpline
210
0.0
220
0.0
230
1.0
 70
    24
 71
     1
 72
     4
 73
     2
 74
     0
 42
0.0000000001
 43
0.0000000001
 40
0.0
 40
0.0
 40
1.0
 40
1.0
 10
253.256887530184
 20
113.1421854891358
 30
0.0
 10
253.256887530184
 20
115.9591036255968
 30
0.0
  0
TEXT
  5
C8C
330
1A
100
AcDbEntity
  8
SUNPOU
100
AcDbText
 10
303.9170425541922
 20
247.7989661632999
 30
0.0
 40
4.0
  1
※b　ＶＵ管の差込み寸法を示す。
100
AcDbText
  0
TEXT
  5
C8D
330
1A
100
AcDbEntity
  8
SUNPOU
100
AcDbText
 10
303.9170425541922
 20
254.4389465307789
 30
0.0
 40
4.0
  1
※a　たてといの差込み寸法を示す。
100
AcDbText
  0
INSERT
  5
CA0
330
1A
100
AcDbEntity
  8
ﾊｯﾁﾝｸﾞ
100
AcDbBlockReference
  2
*X2
 10
122.7378959739148
 20
-147.6421496709832
 30
0.0
1001
ACAD
1000
HATCH
1002
{
1070
    19
1000
_USER
1040
2.0
1040
0.7853981633974483
1000
R14_HATCH_DATA
1000
76D
1011
123.7378959739148
1021
-147.6421496709832
1031
0.0
1011
122.7378959739148
1021
-146.6421496709832
1031
0.0
1011
122.7378959739148
1021
-147.6421496709832
1031
1.0
1040
0.0
1010
0.0
1020
0.0
1030
1.0
1000
_USER
1070
     0
1070
     0
1071
        1
1071
        0
1071
       14
1070
     1
1040
235.0766323429707
1040
176.4482821523511
1040
236.5029803951247
1040
176.4482821523511
1070
     1
1040
236.5029803951256
1040
176.4482821523511
1040
236.8553376144372
1040
179.4478252378198
1070
     1
1040
236.8553376144372
1040
179.4478252378198
1040
237.3266323429725
1040
206.4482821523511
1070
     1
1040
237.3266323429715
1040
206.4482821523511
1040
240.176632342971
1040
206.4482821523511
1070
     1
1040
240.176632342971
1040
206.4482821523511
1040
240.176632342971
1040
230.1802278835552
1070
     2
1040
240.6766323430001
1040
230.1802278835607
1040
0.5
1040
3.141592653579333
1040
4.660029102767466
1070
     0
1070
     1
1040
240.6504643648495
1040
230.6795426509311
1040
262.1766323429501
1040
231.8076813111406
1070
     1
1040
262.176632342971
1040
231.8076813111406
1040
262.176632342971
1040
232.7596712128329
1070
     1
1040
262.176632342971
1040
232.7596712128329
1040
261.1771700522022
1040
233.2268820479916
1070
     1
1040
261.1771700522022
1040
233.2268820479916
1040
237.8896954362262
1040
232.4628944008568
1070
     1
1040
237.8896954362262
1040
232.4628944008568
1040
237.6809576992054
1040
208.5439188845998
1070
     2
1040
237.1809767376735
1040
208.5482821523496
1040
0.5
1040
0.00872664626005
1040
1.570796326794896
1070
     0
1070
     1
1040
237.1809767376735
1040
208.0482821523496
1040
234.8008633207828
1040
208.0482821523496
1070
     1
1040
234.8008633207828
1040
208.0482821523496
1040
235.0766323429707
1040
176.4482821523492
1071
        0
1070
     0
1070
     0
1040
0.7853981633974483
1040
2.0
1070
     0
1070
     1
1040
0.7853981633974483
1040
0.0
1040
0.0
1040
-1.414213562373094
1040
1.414213562373095
1070
     0
1071
        1
1040
-1059.358737087011
1040
-634.3304857213966
1040
0.0
1002
}
  0
LINE
  5
CA1
330
1A
100
AcDbEntity
  8
SEIHIN
100
AcDbLine
 10
302.2645283168863
 20
58.80613248136786
 30
0.0
 11
302.7358230454205
 21
31.80567556683661
 31
0.0
  0
LINE
  5
CA2
330
1A
100
AcDbEntity
  8
SEIHIN
100
AcDbLine
 10
304.7902973390741
 20
60.4061324813664
 30
0.0
 11
304.5145283168863
 21
28.80613248136785
 31
0.0
  0
LINE
  5
CA3
330
1A
100
AcDbEntity
  8
SEIHIN
100
AcDbLine
 10
359.5932335883521
 20
31.80567556683661
 30
0.0
 11
360.0645283168864
 21
58.80613248136786
 31
0.0
  0
LINE
  5
CA4
330
1A
100
AcDbEntity
  8
SEIHIN
100
AcDbLine
 10
357.8145283168855
 20
28.80613248136785
 30
0.0
 11
357.5387592946976
 21
60.4061324813664
 31
0.0
  0
LINE
  5
CA5
330
1A
100
AcDbEntity
  8
SEIHIN
100
AcDbLine
 10
303.0881802647322
 20
28.80613248136788
 30
0.0
 11
359.2408763690404
 21
28.80613248136785
 31
0.0
  0
LINE
  5
CA6
330
1A
100
AcDbEntity
  8
SEIHIN
100
AcDbLine
 10
302.7358230454205
 20
31.80567556683661
 30
0.0
 11
303.0881802647322
 21
28.80613248136785
 31
0.0
  0
LINE
  5
CA7
330
1A
100
AcDbEntity
  8
SEIHIN
100
AcDbLine
 10
359.2408763690404
 20
28.80613248136785
 30
0.0
 11
359.5932335883521
 21
31.80567556683661
 31
0.0
  0
LINE
  5
CA8
330
1A
100
AcDbEntity
  8
CENTER L
 48
5.0
100
AcDbLine
 10
391.4788307169878
 20
116.3668342084837
 30
0.0
 11
327.0041164378703
 21
112.7727338323292
 31
0.0
  0
LINE
  5
CA9
330
1A
100
AcDbEntity
  8
SEIHIN
100
AcDbLine
 10
359.9188727115893
 20
60.4061324813664
 30
0.0
 11
302.4101839221835
 21
60.40613248136637
 31
0.0
  0
LINE
  5
CAA
330
1A
100
AcDbEntity
  8
SEIHIN
100
AcDbLine
 10
299.4145283168859
 20
58.80613248136786
 30
0.0
 11
302.2645283168863
 21
58.80613248136786
 31
0.0
  0
ARC
  5
CAB
330
1A
100
AcDbEntity
  8
SEIHIN
100
AcDbCircle
 10
302.4101839221835
 20
60.9061324813664
 30
0.0
 40
0.5
100
AcDbArc
 50
180.5000000000175
 51
270.0
  0
LINE
  5
CAC
330
1A
100
AcDbEntity
  8
SEIHIN
100
AcDbLine
 10
363.3883603387935
 20
83.03739297995514
 30
0.0
 11
384.9145283168131
 21
84.16553164015557
 31
0.0
  0
LINE
  5
CAD
330
1A
100
AcDbEntity
  8
SEIHIN
100
AcDbLine
 10
383.915066026118
 20
85.58473237700843
 30
0.0
 11
360.627591410142
 21
84.82074472987358
 31
0.0
  0
LINE
  5
CAE
330
1A
100
AcDbEntity
  8
SEIHIN
100
AcDbLine
 10
362.9145283168859
 20
58.80613248136786
 30
0.0
 11
362.914528316915
 21
82.53807821257749
 31
0.0
  0
LINE
  5
CAF
330
1A
100
AcDbEntity
  8
SEIHIN
100
AcDbLine
 10
360.4188536731203
 20
60.90176921361842
 30
0.0
 11
360.627591410142
 21
84.82074472987358
 31
0.0
  0
LINE
  5
CB0
330
1A
100
AcDbEntity
  8
SEIHIN
100
AcDbLine
 10
360.0645283168864
 20
58.80613248136786
 30
0.0
 11
362.9145283168859
 21
58.80613248136786
 31
0.0
  0
ARC
  5
CB1
330
1A
100
AcDbEntity
  8
SEIHIN
100
AcDbCircle
 10
359.9188727115893
 20
60.9061324813664
 30
0.0
 40
0.5
100
AcDbArc
 50
270.0
 51
359.5000000000343
  0
ARC
  5
CB2
330
1A
100
AcDbEntity
  8
SEIHIN
100
AcDbCircle
 10
363.414528316915
 20
82.53807821257749
 30
0.0
 40
0.5000000000013917
100
AcDbArc
 50
93.0000000000056
 51
180.0
  0
LINE
  5
CB3
330
1A
100
AcDbEntity
  8
SEIHIN
100
AcDbLine
 10
384.9145283168859
 20
85.11752154184966
 30
0.0
 11
384.9145283168859
 21
84.16553164015738
 31
0.0
  0
SPLINE
  5
CC2
330
1A
100
AcDbEntity
  8
SEIHIN
100
AcDbSpline
210
0.0
220
0.0
230
1.0
 70
    24
 71
     1
 72
     4
 73
     2
 74
     0
 42
0.0000000001
 43
0.0000000001
 40
0.0
 40
0.0
 40
0.9451949410491186
 40
0.9451949410491186
 10
335.1645283168859
 20
166.8061324813678
 30
0.0
 10
335.1645283168859
 20
176.8061324813678
 30
0.0
  0
SPLINE
  5
CC3
330
1A
100
AcDbEntity
  8
SEIHIN
100
AcDbSpline
210
0.0
220
0.0
230
1.0
 70
    24
 71
     3
 72
    12
 73
     8
 74
     0
 42
0.0000000001
 43
0.0000000001
 40
0.0
 40
0.0
 40
0.0
 40
0.0
 40
0.2214127062453474
 40
0.442921802510791
 40
0.6616258104273821
 40
0.8752345948409615
 40
1.0
 40
1.0
 40
1.0
 40
1.0
 10
337.1645283168859
 20
176.8061324813678
 30
0.0
 10
337.1645283168859
 20
176.7946967493607
 30
0.0
 10
337.1645283168859
 20
176.7718203069069
 30
0.0
 10
337.1645283168859
 20
176.5927610781999
 30
0.0
 10
337.1645283168859
 20
176.3304933846792
 30
0.0
 10
337.1645283168859
 20
176.0507492254217
 30
0.0
 10
337.1645283168859
 20
175.8720299073864
 30
0.0
 10
337.1645283168859
 20
175.8061324813678
 30
0.0
  0
SPLINE
  5
CC4
330
1A
100
AcDbEntity
  8
SEIHIN
100
AcDbSpline
210
0.0
220
0.0
230
1.0
 70
     8
 71
     3
 72
    12
 73
     8
 74
     0
 42
0.0000000001
 43
0.0000000001
 40
0.0
 40
0.0
 40
0.0
 40
0.0
 40
0.0870405868504156
 40
0.3465489536720579
 40
0.600193613287093
 40
0.8440669840465705
 40
1.0
 40
1.0
 40
1.0
 40
1.0
 10
360.8897922169103
 20
176.7972759005332
 30
0.0
 10
360.8671633810867
 20
176.7986007714333
 30
0.0
 10
360.7770674883381
 20
176.8038756970817
 30
0.0
 10
360.6270507253479
 20
176.7373245780235
 30
0.0
 10
360.4795033128644
 20
176.6072460835456
 30
0.0
 10
360.3957187726105
 20
176.4503368133699
 30
0.0
 10
360.3960138430452
 20
176.3458033993755
 30
0.0
 10
360.3961289268068
 20
176.3050331389348
 30
0.0
  0
SPLINE
  5
CC5
330
1A
100
AcDbEntity
  8
SEIHIN
100
AcDbSpline
210
0.0
220
0.0
230
1.0
 70
     8
 71
     3
 72
    10
 73
     6
 74
     0
 42
0.0000000001
 43
0.0000000001
 40
0.0
 40
0.0
 40
0.0
 40
0.0
 40
0.4510564330963947
 40
0.9019378230042766
 40
1.0
 40
1.0
 40
1.0
 40
1.0
 10
359.0674403512953
 20
175.8061324813678
 30
0.0
 10
359.0510359967806
 20
175.9712888474422
 30
0.0
 10
359.0182336538514
 20
176.3015374867335
 30
0.0
 10
358.8306155606655
 20
176.6287803853446
 30
0.0
 10
358.6986733650678
 20
176.7792524531831
 30
0.0
 10
358.6751034760695
 20
176.8061324813678
 30
0.0
  0
SPLINE
  5
CC6
330
1A
100
AcDbEntity
  8
SEIHIN
100
AcDbSpline
210
0.0
220
0.0
230
1.0
 70
     8
 71
     3
 72
     9
 73
     5
 74
     0
 42
0.0000000001
 43
0.0000000001
 40
0.0
 40
0.0
 40
0.0
 40
0.0
 40
0.608783901582147
 40
1.0
 40
1.0
 40
1.0
 40
1.0
 10
360.0256016321586
 20
176.8061324813678
 30
0.0
 10
359.9785952191773
 20
176.7093269493269
 30
0.0
 10
359.901381592374
 20
176.5503123436718
 30
0.0
 10
359.8919465738622
 20
176.3747969348277
 30
0.0
 10
359.8882554427305
 20
176.3061324813678
 30
0.0
  0
SPLINE
  5
CC7
330
1A
100
AcDbEntity
  8
SEIHIN
100
AcDbSpline
210
0.0
220
0.0
230
1.0
 70
    24
 71
     1
 72
     4
 73
     2
 74
     0
 42
0.0000000001
 43
0.0000000001
 40
0.0
 40
0.0
 40
1.0
 40
1.0
 10
359.8882554427223
 20
172.1998285675707
 30
0.0
 10
359.4859424764931
 20
171.8061324813678
 30
0.0
  0
SPLINE
  5
CC8
330
1A
100
AcDbEntity
  8
SEIHIN
100
AcDbSpline
210
0.0
220
0.0
230
1.0
 70
     8
 71
     3
 72
    12
 73
     8
 74
     0
 42
0.0000000001
 43
0.0000000001
 40
0.0
 40
0.0
 40
0.0
 40
0.0
 40
0.3354837354108961
 40
0.6092952652602019
 40
0.8029348335325968
 40
0.9526208419106129
 40
1.0
 40
1.0
 40
1.0
 40
1.0
 10
359.8882554427305
 20
172.1998285675634
 30
0.0
 10
359.9667298468935
 20
172.2788170212387
 30
0.0
 10
360.1092526515881
 20
172.4222734268859
 30
0.0
 10
360.2685051877338
 20
172.6043213018473
 30
0.0
 10
360.354396713647
 20
172.7188819392921
 30
0.0
 10
360.3892394339595
 20
172.7775490606599
 30
0.0
 10
360.3855711937917
 20
172.7880362842423
 30
0.0
 10
360.3846892615151
 20
172.7905576624906
 30
0.0
  0
SPLINE
  5
CC9
330
1A
100
AcDbEntity
  8
SEIHIN
100
AcDbSpline
210
0.0
220
0.0
230
1.0
 70
    24
 71
     1
 72
     4
 73
     2
 74
     0
 42
0.0000000001
 43
0.0000000001
 40
0.0
 40
0.0
 40
1.0
 40
1.0
 10
360.3882554427304
 20
176.3061324813678
 30
0.0
 10
360.3882554427304
 20
172.7905576624906
 30
0.0
  0
SPLINE
  5
CCA
330
1A
100
AcDbEntity
  8
SEIHIN
100
AcDbSpline
210
0.0
220
0.0
230
1.0
 70
    24
 71
     1
 72
     4
 73
     2
 74
     0
 42
0.0000000001
 43
0.0000000001
 40
0.0
 40
0.0
 40
1.0
 40
1.0
 10
301.9408011910413
 20
176.3061324813678
 30
0.0
 10
301.9408011910413
 20
172.7905576624906
 30
0.0
  0
SPLINE
  5
CCB
330
1A
100
AcDbEntity
  8
SEIHIN
100
AcDbSpline
210
0.0
220
0.0
230
1.0
 70
     8
 71
     3
 72
    12
 73
     8
 74
     0
 42
0.0000000001
 43
0.0000000001
 40
0.0
 40
0.0
 40
0.0
 40
0.0
 40
0.3354837354108961
 40
0.6092952652602019
 40
0.8029348335325968
 40
0.9526208419106129
 40
1.0
 40
1.0
 40
1.0
 40
1.0
 10
302.4408011910413
 20
172.1998285675634
 30
0.0
 10
302.3623267868783
 20
172.2788170212387
 30
0.0
 10
302.2198039821837
 20
172.4222734268859
 30
0.0
 10
302.060551446038
 20
172.6043213018473
 30
0.0
 10
301.9746599201248
 20
172.7188819392921
 30
0.0
 10
301.9398171998123
 20
172.7775490606599
 30
0.0
 10
301.9434854399801
 20
172.7880362842423
 30
0.0
 10
301.9443673722566
 20
172.7905576624906
 30
0.0
  0
SPLINE
  5
CCC
330
1A
100
AcDbEntity
  8
SEIHIN
100
AcDbSpline
210
0.0
220
0.0
230
1.0
 70
    24
 71
     1
 72
     4
 73
     2
 74
     0
 42
0.0000000001
 43
0.0000000001
 40
0.0
 40
0.0
 40
1.0
 40
1.0
 10
302.4408011910495
 20
172.1998285675707
 30
0.0
 10
302.8431141572787
 20
171.8061324813678
 30
0.0
  0
SPLINE
  5
CCD
330
1A
100
AcDbEntity
  8
SEIHIN
100
AcDbSpline
210
0.0
220
0.0
230
1.0
 70
     8
 71
     3
 72
     9
 73
     5
 74
     0
 42
0.0000000001
 43
0.0000000001
 40
0.0
 40
0.0
 40
0.0
 40
0.0
 40
0.608783901582147
 40
1.0
 40
1.0
 40
1.0
 40
1.0
 10
302.3034550016132
 20
176.8061324813678
 30
0.0
 10
302.3504614145945
 20
176.7093269493269
 30
0.0
 10
302.4276750413978
 20
176.5503123436718
 30
0.0
 10
302.4371100599096
 20
176.3747969348277
 30
0.0
 10
302.4408011910413
 20
176.3061324813678
 30
0.0
  0
SPLINE
  5
CCE
330
1A
100
AcDbEntity
  8
SEIHIN
100
AcDbSpline
210
0.0
220
0.0
230
1.0
 70
     8
 71
     3
 72
    10
 73
     6
 74
     0
 42
0.0000000001
 43
0.0000000001
 40
0.0
 40
0.0
 40
0.0
 40
0.0
 40
0.4510564330963947
 40
0.9019378230042766
 40
1.0
 40
1.0
 40
1.0
 40
1.0
 10
303.2616162824765
 20
175.8061324813678
 30
0.0
 10
303.2780206369912
 20
175.9712888474422
 30
0.0
 10
303.3108229799204
 20
176.3015374867335
 30
0.0
 10
303.4984410731063
 20
176.6287803853446
 30
0.0
 10
303.6303832687039
 20
176.7792524531831
 30
0.0
 10
303.6539531577023
 20
176.8061324813678
 30
0.0
  0
SPLINE
  5
CCF
330
1A
100
AcDbEntity
  8
SEIHIN
100
AcDbSpline
210
0.0
220
0.0
230
1.0
 70
     8
 71
     3
 72
    12
 73
     8
 74
     0
 42
0.0000000001
 43
0.0000000001
 40
0.0
 40
0.0
 40
0.0
 40
0.0
 40
0.0870405868504156
 40
0.3465489536720579
 40
0.600193613287093
 40
0.8440669840465705
 40
1.0
 40
1.0
 40
1.0
 40
1.0
 10
301.4392644168615
 20
176.7972759005332
 30
0.0
 10
301.461893252685
 20
176.7986007714333
 30
0.0
 10
301.5519891454337
 20
176.8038756970817
 30
0.0
 10
301.7020059084238
 20
176.7373245780235
 30
0.0
 10
301.8495533209074
 20
176.6072460835456
 30
0.0
 10
301.9333378611613
 20
176.4503368133699
 30
0.0
 10
301.9330427907266
 20
176.3458033993755
 30
0.0
 10
301.932927706965
 20
176.3050331389348
 30
0.0
  0
SPLINE
  5
CD0
330
1A
100
AcDbEntity
  8
SEIHIN
100
AcDbSpline
210
0.0
220
0.0
230
1.0
 70
    24
 71
     1
 72
     4
 73
     2
 74
     0
 42
0.0000000001
 43
0.0000000001
 40
0.0
 40
0.0
 40
1.0
 40
1.0
 10
360.6432289176032
 20
144.084859840408
 30
0.0
 10
360.6183336885537
 20
144.083057069687
 30
0.0
  0
SPLINE
  5
CD1
330
1A
100
AcDbEntity
  8
SEIHIN
100
AcDbSpline
210
0.0
220
0.0
230
1.0
 70
    24
 71
     1
 72
     4
 73
     2
 74
     0
 42
0.0000000001
 43
0.0000000001
 40
0.0
 40
0.0
 40
1.0
 40
1.0
 10
363.0377724869818
 20
142.4262622308523
 30
0.0
 10
363.0377322541394
 20
142.4270299192102
 30
0.0
  0
SPLINE
  5
CD2
330
1A
100
AcDbEntity
  8
SEIHIN
100
AcDbSpline
210
0.0
220
0.0
230
1.0
 70
     8
 71
     3
 72
    13
 73
     9
 74
     0
 42
0.0000000001
 43
0.0000000001
 40
0.0
 40
0.0
 40
0.0
 40
0.0
 40
0.1954113720155922
 40
0.390936862095258
 40
0.5835305925283426
 40
0.7725443524390457
 40
0.9597629940177709
 40
1.0
 40
1.0
 40
1.0
 40
1.0
 10
360.6183336885537
 20
144.083057069687
 30
0.0
 10
360.6290452685921
 20
144.0889556049077
 30
0.0
 10
360.6504746841106
 20
144.1007561200275
 30
0.0
 10
360.6797137274438
 20
144.0448128468523
 30
0.0
 10
360.7025898051019
 20
143.9409324397928
 30
0.0
 10
360.7170069188619
 20
143.7980592138063
 30
0.0
 10
360.7209922279476
 20
143.6766280800328
 30
0.0
 10
360.7206513703672
 20
143.6098252502741
 30
0.0
 10
360.7205910725083
 20
143.5980077997536
 30
0.0
  0
SPLINE
  5
CD3
330
1A
100
AcDbEntity
  8
SEIHIN
100
AcDbSpline
210
0.0
220
0.0
230
1.0
 70
     8
 71
     3
 72
     9
 73
     5
 74
     0
 42
0.0000000001
 43
0.0000000001
 40
0.0
 40
0.0
 40
0.0
 40
0.0
 40
0.1365948483351962
 40
1.0
 40
1.0
 40
1.0
 40
1.0
 10
360.7131135506474
 20
142.7531753222882
 30
0.0
 10
360.7134540154188
 20
142.791641910322
 30
0.0
 10
360.7159465308837
 20
143.0732527360704
 30
0.0
 10
360.7184390331845
 20
143.3548635619352
 30
0.0
 10
360.720591072511
 20
143.5980077997518
 30
0.0
  0
SPLINE
  5
CD4
330
1A
100
AcDbEntity
  8
SEIHIN
100
AcDbSpline
210
0.0
220
0.0
230
1.0
 70
     8
 71
     3
 72
    13
 73
     9
 74
     0
 42
0.0000000001
 43
0.0000000001
 40
0.0
 40
0.0
 40
0.0
 40
0.0
 40
0.1913658849226882
 40
0.3827597715193734
 40
0.5737715991213564
 40
0.7662095571142478
 40
0.9612688771100419
 40
1.0
 40
1.0
 40
1.0
 40
1.0
 10
360.7131135506474
 20
142.7531753222882
 30
0.0
 10
360.7135296813771
 20
142.6977270068745
 30
0.0
 10
360.7143620037263
 20
142.5868222625557
 30
0.0
 10
360.7271139321451
 20
142.439226983335
 30
0.0
 10
360.7464020624906
 20
142.3266796106253
 30
0.0
 10
360.7704843066026
 20
142.2615555864266
 30
0.0
 10
360.7894050399877
 20
142.2529967935241
 30
0.0
 10
360.7993505190556
 20
142.2629184251362
 30
0.0
 10
360.8009981465952
 20
142.2645621019618
 30
0.0
  0
SPLINE
  5
CD5
330
1A
100
AcDbEntity
  8
SEIHIN
100
AcDbSpline
210
0.0
220
0.0
230
1.0
 70
     8
 71
     3
 72
     9
 73
     5
 74
     0
 42
0.0000000001
 43
0.0000000001
 40
0.0
 40
0.0
 40
0.0
 40
0.0
 40
0.5516949635865975
 40
1.0
 40
1.0
 40
1.0
 40
1.0
 10
360.800998146597
 20
142.2645621019618
 30
0.0
 10
360.9056886677521
 20
142.3838806871225
 30
0.0
 10
361.0954502716527
 20
142.6001570590959
 30
0.0
 10
361.12081717118
 20
142.6290021120765
 30
0.0
 10
361.1321892799955
 20
142.6419334946039
 30
0.0
  0
SPLINE
  5
CD6
330
1A
100
AcDbEntity
  8
SEIHIN
100
AcDbSpline
210
0.0
220
0.0
230
1.0
 70
    24
 71
     1
 72
     4
 73
     2
 74
     0
 42
0.0000000001
 43
0.0000000001
 40
0.0
 40
0.0
 40
1.0
 40
1.0
 10
360.7894271591371
 20
142.257372152413
 30
0.0
 10
363.0382434113612
 20
142.419959898916
 30
0.0
  0
SPLINE
  5
CD7
330
1A
100
AcDbEntity
  8
SEIHIN
100
AcDbSpline
210
0.0
220
0.0
230
1.0
 70
    24
 71
     1
 72
     4
 73
     2
 74
     0
 42
0.0000000001
 43
0.0000000001
 40
0.0
 40
0.0
 40
0.9451949410491186
 40
0.9451949410491186
 10
327.1645283168859
 20
166.8061324813678
 30
0.0
 10
327.1645283168859
 20
176.8061324813678
 30
0.0
  0
SPLINE
  5
CD8
330
1A
100
AcDbEntity
  8
SEIHIN
100
AcDbSpline
210
0.0
220
0.0
230
1.0
 70
     8
 71
     3
 72
    12
 73
     8
 74
     0
 42
0.0000000001
 43
0.0000000001
 40
0.0
 40
0.0
 40
0.0
 40
0.0
 40
0.1439571175402469
 40
0.3593717202377928
 40
0.5734434460097768
 40
0.7866233418889273
 40
0.9999999999999998
 40
0.9999999999999998
 40
0.9999999999999998
 40
0.9999999999999998
 10
329.1645283168859
 20
164.8061324813678
 30
0.0
 10
329.0142461540322
 20
164.8162041337217
 30
0.0
 10
328.6390847149273
 20
164.8413468088091
 30
0.0
 10
328.0755227329823
 20
165.0848284844122
 30
0.0
 10
327.5716055356747
 20
165.5379846465274
 30
0.0
 10
327.2302359683731
 20
166.1349909182516
 30
0.0
 10
327.1864376018261
 20
166.582349841008
 30
0.0
 10
327.1645283168859
 20
166.8061324813678
 30
0.0
  0
SPLINE
  5
CD9
330
1A
100
AcDbEntity
  8
SEIHIN
100
AcDbSpline
210
0.0
220
0.0
230
1.0
 70
     8
 71
     3
 72
    12
 73
     8
 74
     0
 42
0.0000000001
 43
0.0000000001
 40
0.0
 40
0.0
 40
0.0
 40
0.0
 40
0.1380963255866222
 40
0.3534522742462003
 40
0.5692424377441715
 40
0.7845762857679314
 40
1.0
 40
1.0
 40
1.0
 40
1.0
 10
335.1645283168859
 20
166.8061324813678
 30
0.0
 10
335.1552150834181
 20
166.6617694360373
 30
0.0
 10
335.1313782178399
 20
166.2922777318052
 30
0.0
 10
334.8943262365596
 20
165.7298979086462
 30
0.0
 10
334.4416798310662
 20
165.2196132089919
 30
0.0
 10
333.8410965739126
 20
164.8729017764161
 30
0.0
 10
333.3900824332981
 20
164.8283920083139
 30
0.0
 10
333.1645283168859
 20
164.8061324813678
 30
0.0
  0
SPLINE
  5
CDA
330
1A
100
AcDbEntity
  8
SEIHIN
100
AcDbSpline
210
0.0
220
0.0
230
1.0
 70
    24
 71
     3
 72
    12
 73
     8
 74
     0
 42
0.0000000001
 43
0.0000000001
 40
0.0
 40
0.0
 40
0.0
 40
0.0
 40
0.2214127062453474
 40
0.442921802510791
 40
0.6616258104273821
 40
0.8752345948409615
 40
1.0
 40
1.0
 40
1.0
 40
1.0
 10
325.1645283168859
 20
176.8061324813678
 30
0.0
 10
325.1645283168859
 20
176.7946967493607
 30
0.0
 10
325.1645283168859
 20
176.7718203069069
 30
0.0
 10
325.1645283168859
 20
176.5927610781999
 30
0.0
 10
325.1645283168859
 20
176.3304933846792
 30
0.0
 10
325.1645283168859
 20
176.0507492254217
 30
0.0
 10
325.1645283168859
 20
175.8720299073864
 30
0.0
 10
325.1645283168859
 20
175.8061324813678
 30
0.0
  0
SPLINE
  5
CDB
330
1A
100
AcDbEntity
  8
SEIHIN
100
AcDbSpline
210
0.0
220
0.0
230
1.0
 70
     8
 71
     3
 72
    13
 73
     9
 74
     0
 42
0.0000000001
 43
0.0000000001
 40
0.0
 40
0.0
 40
0.0
 40
0.0
 40
0.1949664917305062
 40
0.38993271179378
 40
0.5849087667052252
 40
0.7799165920685281
 40
0.974961638743504
 40
1.0
 40
1.0
 40
1.0
 40
1.0
 10
225.9277549489506
 20
142.4262622308541
 30
0.0
 10
225.9841362055003
 20
142.4228267374181
 30
0.0
 10
226.0968986400375
 20
142.4159557553338
 30
0.0
 10
226.2582700371313
 20
142.4772676487171
 30
0.0
 10
226.3907386646733
 20
142.5844594859662
 30
0.0
 10
226.4798702228163
 20
142.7303178514302
 30
0.0
 10
226.5059182732675
 20
142.8491453762961
 30
0.0
 10
226.5067885238613
 20
142.9122064512174
 30
0.0
 10
226.506887530184
 20
142.9193807584032
 30
0.0
  0
SPLINE
  5
CDC
330
1A
100
AcDbEntity
  8
SEIHIN
100
AcDbSpline
210
0.0
220
0.0
230
1.0
 70
     8
 71
     3
 72
    13
 73
     9
 74
     0
 42
0.0000000001
 43
0.0000000001
 40
0.0
 40
0.0
 40
0.0
 40
0.0
 40
0.1918377904291304
 40
0.3836761754610421
 40
0.5754973546511277
 40
0.7672823634357608
 40
0.9590335948896568
 40
1.0
 40
1.0
 40
1.0
 40
1.0
 10
226.506887530184
 20
143.7607131992607
 30
0.0
 10
226.5124180891934
 20
143.8168809774305
 30
0.0
 10
226.5234792243554
 20
143.9292167078655
 30
0.0
 10
226.6096839997526
 20
144.0786959893538
 30
0.0
 10
226.7366917613326
 20
144.1924046776056
 30
0.0
 10
226.8950253375678
 20
144.2570701733037
 30
0.0
 10
227.0215291189706
 20
144.2644674128495
 30
0.0
 10
227.0885170076799
 20
144.2532983342151
 30
0.0
 10
227.1003092079918
 20
144.251332187572
 30
0.0
  0
SPLINE
  5
CDD
330
1A
100
AcDbEntity
  8
SEIHIN
100
AcDbSpline
210
0.0
220
0.0
230
1.0
 70
     8
 71
     3
 72
    13
 73
     9
 74
     0
 42
0.0000000001
 43
0.0000000001
 40
0.0
 40
0.0
 40
0.0
 40
0.0
 40
0.1913658849226882
 40
0.3827597715193734
 40
0.5737715991213564
 40
0.7662095571142478
 40
0.9612688771100419
 40
1.0
 40
1.0
 40
1.0
 40
1.0
 10
226.506887530184
 20
142.75317532229
 30
0.0
 10
226.5015435103723
 20
142.6977270068763
 30
0.0
 10
226.4908546887836
 20
142.5868222625575
 30
0.0
 10
226.4070891558012
 20
142.4392269833368
 30
0.0
 10
226.2834273683411
 20
142.3266796106271
 30
0.0
 10
226.1283906710732
 20
142.2615555864284
 30
0.0
 10
226.0044875824533
 20
142.2529967935241
 30
0.0
 10
225.9385553595111
 20
142.2629184251362
 30
0.0
 10
225.9276326331682
 20
142.2645621019636
 30
0.0
  0
SPLINE
  5
CDE
330
1A
100
AcDbEntity
  8
SEIHIN
100
AcDbSpline
210
0.0
220
0.0
230
1.0
 70
     8
 71
     3
 72
    13
 73
     9
 74
     0
 42
0.0000000001
 43
0.0000000001
 40
0.0
 40
0.0
 40
0.0
 40
0.0
 40
0.1954113720155922
 40
0.390936862095258
 40
0.5835305925283426
 40
0.7725443524390457
 40
0.9597629940177709
 40
1.0
 40
1.0
 40
1.0
 40
1.0
 10
227.100454117537
 20
144.0830570696888
 30
0.0
 10
227.0438124840684
 20
144.0889556049095
 30
0.0
 10
226.930496139048
 20
144.1007561200293
 30
0.0
 10
226.7657729149886
 20
144.0448128468541
 30
0.0
 10
226.6301476431635
 20
143.9409324397946
 30
0.0
 10
226.538570265373
 20
143.7980592138081
 30
0.0
 10
226.5086279747902
 20
143.6766280800346
 30
0.0
 10
226.5071491372136
 20
143.6098252502741
 30
0.0
 10
226.506887530184
 20
143.5980077997536
 30
0.0
  0
SPLINE
  5
CDF
330
1A
100
AcDbEntity
  8
SEIHIN
100
AcDbSpline
210
0.0
220
0.0
230
1.0
 70
    24
 71
     3
 72
     9
 73
     5
 74
     0
 42
0.0000000001
 43
0.0000000001
 40
0.0
 40
0.0
 40
0.0
 40
0.0
 40
0.5134161961141036
 40
1.0
 40
1.0
 40
1.0
 40
1.0
 10
226.506887530184
 20
143.5980077997536
 30
0.0
 10
226.506887530184
 20
143.6258531501206
 30
0.0
 10
226.506887530184
 20
143.6800885844094
 30
0.0
 10
226.506887530184
 20
143.7343234110229
 30
0.0
 10
226.506887530184
 20
143.7607131992607
 30
0.0
  0
SPLINE
  5
CE0
330
1A
100
AcDbEntity
  8
SEIHIN
100
AcDbSpline
210
0.0
220
0.0
230
1.0
 70
    24
 71
     3
 72
     9
 73
     5
 74
     0
 42
0.0000000001
 43
0.0000000001
 40
0.0
 40
0.0
 40
0.0
 40
0.0
 40
0.5130103835205162
 40
1.0
 40
1.0
 40
1.0
 40
1.0
 10
226.506887530184
 20
142.9193807584014
 30
0.0
 10
226.506887530184
 20
142.8909591718619
 30
0.0
 10
226.506887530184
 20
142.8355575904241
 30
0.0
 10
226.506887530184
 20
142.7801555437525
 30
0.0
 10
226.506887530184
 20
142.75317532229
 30
0.0
  0
SPLINE
  5
CE1
330
1A
100
AcDbEntity
  8
SEIHIN
100
AcDbSpline
210
0.0
220
0.0
230
1.0
 70
     8
 71
     3
 72
     9
 73
     5
 74
     0
 42
0.0000000001
 43
0.0000000001
 40
0.0
 40
0.0
 40
0.0
 40
0.0
 40
0.4292074438621838
 40
1.0
 40
1.0
 40
1.0
 40
1.0
 10
227.1003092079918
 20
144.251332187572
 30
0.0
 10
227.1003299148424
 20
144.227257363127
 30
0.0
 10
227.1003781592308
 20
144.171166014319
 30
0.0
 10
227.1004265159063
 20
144.1150739833973
 30
0.0
 10
227.100454117537
 20
144.0830570696888
 30
0.0
  0
SPLINE
  5
CE2
330
1A
100
AcDbEntity
  8
SEIHIN
100
AcDbSpline
210
0.0
220
0.0
230
1.0
 70
    24
 71
     1
 72
     4
 73
     2
 74
     0
 42
0.0000000001
 43
0.0000000001
 40
0.0
 40
0.0
 40
1.0
 40
1.0
 10
253.256887530184
 20
176.8061324813678
 30
0.0
 10
253.256887530184
 20
183.8061324813678
 30
0.0
  0
LINE
  5
CE3
330
1A
100
AcDbEntity
  8
SEIHIN
100
AcDbLine
 10
226.506887530184
 20
143.7607131992607
 30
0.0
 11
226.506887530184
 21
142.9193807584014
 31
0.0
  0
LINE
  5
CE4
330
1A
100
AcDbEntity
  8
SEIHIN
100
AcDbLine
 10
331.1645283168859
 20
178.8061324813678
 30
0.0
 11
361.0708939779319
 21
178.8061324813678
 31
0.0
  0
LINE
  5
CE5
330
1A
100
AcDbEntity
  8
SEIHIN
100
AcDbLine
 10
331.164528316886
 20
176.8061324813678
 30
0.0
 11
362.9145283168859
 21
176.8061324813678
 31
0.0
  0
LINE
  5
CE6
330
1A
100
AcDbEntity
  8
SEIHIN
100
AcDbLine
 10
333.1645283168859
 20
164.8061324813678
 30
0.0
 11
329.1645283168859
 21
164.8061324813678
 31
0.0
  0
LINE
  5
CE7
330
1A
100
AcDbEntity
  8
SEIHIN
100
AcDbLine
 10
362.9145283168859
 20
183.8061324813678
 30
0.0
 11
299.4145283168859
 21
183.8061324813678
 31
0.0
  0
LINE
  5
CE8
330
1A
100
AcDbEntity
  8
SEIHIN
100
AcDbLine
 10
303.2616162824765
 20
171.8061324813678
 30
0.0
 11
303.2616162824765
 21
175.8061324813678
 31
0.0
  0
LINE
  5
CE9
330
1A
100
AcDbEntity
  8
SEIHIN
100
AcDbLine
 10
302.4408011910413
 20
176.3061324813678
 30
0.0
 11
302.4408011910495
 21
172.1998285675707
 31
0.0
  0
LINE
  5
CEA
330
1A
100
AcDbEntity
  8
SEIHIN
100
AcDbLine
 10
325.1645283168859
 20
171.8061324813678
 30
0.0
 11
325.1645283168859
 21
175.8061324813678
 31
0.0
  0
LINE
  5
CEB
330
1A
100
AcDbEntity
  8
SEIHIN
100
AcDbLine
 10
325.1645283168859
 20
171.8061324813678
 30
0.0
 11
302.8431141572787
 21
171.8061324813678
 31
0.0
  0
LINE
  5
CEC
330
1A
100
AcDbEntity
  8
SEIHIN
100
AcDbLine
 10
300.9074474415397
 20
175.8061705583039
 30
0.0
 11
300.3987209060419
 21
176.8061324813678
 31
0.0
  0
INSERT
  5
CED
330
1A
100
AcDbEntity
  8
ﾊｯﾁﾝｸﾞ
100
AcDbBlockReference
  2
*X4
 10
122.7378959739148
 20
-147.6421496709832
 30
0.0
1001
ACAD
1000
HATCH
1002
{
1070
    19
1000
_USER
1040
2.0
1040
2.356194490192344
1000
R14_HATCH_DATA
1000
846
1011
123.7378959739148
1021
-147.6421496709832
1031
0.0
1011
122.7378959739148
1021
-146.6421496709832
1031
0.0
1011
122.7378959739148
1021
-147.6421496709832
1031
1.0
1040
0.0
1010
0.0
1020
0.0
1030
1.0
1000
_USER
1070
     0
1070
     0
1071
        1
1071
        0
1071
        6
1070
     1
1040
176.676632342971
1040
324.4482821523511
1040
200.926632342971
1040
324.4482821523511
1070
     1
1040
200.926632342971
1040
324.4482821523511
1040
200.926632342971
1040
326.4482821523511
1070
     1
1040
200.926632342971
1040
326.4482821523511
1040
178.520266681925
1040
326.4482821523511
1070
     1
1040
178.520266681925
1040
326.4482821523511
1040
178.4766323429712
1040
331.4482821523511
1070
     1
1040
178.4766323429712
1040
331.4482821523511
1040
176.676632342971
1040
331.4482821523511
1070
     1
1040
176.676632342971
1040
331.4482821523511
1040
176.676632342971
1040
324.4482821523511
1071
        0
1070
     0
1070
     0
1040
2.356194490192344
1040
2.0
1070
     0
1070
     1
1040
2.356194490192344
1040
0.0
1040
0.0
1040
-1.414213562373095
1040
-1.414213562373094
1070
     0
1071
        1
1040
-1059.358737087011
1040
-634.3304857213966
1040
0.0
1002
}
  0
LINE
  5
CEE
330
1A
100
AcDbEntity
  8
SEIHIN
100
AcDbLine
 10
331.1645283168858
 20
176.8061324813678
 30
0.0
 11
299.4145283168859
 21
176.8061324813678
 31
0.0
  0
LINE
  5
CEF
330
1A
100
AcDbEntity
  8
SEIHIN
100
AcDbLine
 10
299.4145283168859
 20
176.8061324813678
 30
0.0
 11
299.4145283168859
 21
183.8061324813678
 31
0.0
  0
LINE
  5
CF0
330
1A
100
AcDbEntity
  8
SEIHIN
100
AcDbLine
 10
331.1645283168859
 20
178.8061324813678
 30
0.0
 11
301.2581626558398
 21
178.8061324813678
 31
0.0
  0
LINE
  5
CF1
330
1A
100
AcDbEntity
  8
SEIHIN
100
AcDbLine
 10
301.9408011910413
 20
175.8061705583039
 30
0.0
 11
300.9074474415397
 21
175.8061705583039
 31
0.0
  0
LINE
  5
CF2
330
1A
100
AcDbEntity
  8
SEIHIN
100
AcDbLine
 10
301.2145283168861
 20
183.8061324813678
 30
0.0
 11
301.2581626558398
 21
178.8061324813678
 31
0.0
  0
LINE
  5
CF3
330
1A
100
AcDbEntity
  8
SEIHIN
100
AcDbLine
 10
323.6645283168859
 20
178.8061324813678
 30
0.0
 11
323.6645283168859
 21
176.8061324813678
 31
0.0
  0
LINE
  5
CF4
330
1A
100
AcDbEntity
  8
SEIHIN
100
AcDbLine
 10
337.1645283168859
 20
171.8061324813678
 30
0.0
 11
337.1645283168859
 21
175.8061324813678
 31
0.0
  0
LINE
  5
CF5
330
1A
100
AcDbEntity
  8
SEIHIN
100
AcDbLine
 10
359.8882554427305
 20
176.3061324813678
 30
0.0
 11
359.8882554427223
 21
172.1998285675707
 31
0.0
  0
LINE
  5
CF6
330
1A
100
AcDbEntity
  8
SEIHIN
100
AcDbLine
 10
359.0674403512953
 20
171.8061324813678
 30
0.0
 11
359.0674403512953
 21
175.8061324813678
 31
0.0
  0
INSERT
  5
CF7
330
1A
100
AcDbEntity
  8
ﾊｯﾁﾝｸﾞ
100
AcDbBlockReference
  2
*X5
 10
122.7378959739148
 20
-147.6421496709832
 30
0.0
1001
ACAD
1000
HATCH
1002
{
1070
    19
1000
_USER
1040
2.0
1040
0.7853981633974483
1000
R14_HATCH_DATA
1000
86A
1011
123.7378959739148
1021
-147.6421496709832
1031
0.0
1011
122.7378959739148
1021
-146.6421496709832
1031
0.0
1011
122.7378959739148
1021
-147.6421496709832
1031
1.0
1040
0.0
1010
0.0
1020
0.0
1030
1.0
1000
_USER
1070
     0
1070
     0
1071
        1
1071
        0
1071
       11
1070
     1
1040
238.3942933060834
1040
290.2840831655871
1040
240.2814479014969
1040
290.4200507581595
1070
     1
1040
240.2814479014969
1040
290.4200507581595
1040
240.176632342931
1040
292.4200507581594
1070
     1
1040
240.176632342931
1040
292.4200507581594
1040
261.2260908495409
1040
293.9366430951309
1070
     1
1040
261.22609084954
1040
293.9366430951309
1040
262.176632342971
1040
294.4028966808459
1070
     1
1040
262.176632342971
1040
294.4028966808459
1040
262.176632342971
1040
295.3948252820087
1070
     1
1040
262.176632342951
1040
295.3948252820087
1040
240.7028003210925
1040
294.2694294330417
1070
     2
1040
240.6766323430001
1040
294.7687442004266
1040
0.5
1040
1.518436449292427
1040
3.141592653576605
1070
     0
1070
     1
1040
240.176632342971
1040
294.7687442004194
1040
240.176632342971
1040
324.4482821523511
1070
     1
1040
240.176632342971
1040
324.4482821523511
1040
239.192439753815
1040
324.4482821523511
1070
     1
1040
239.192439753815
1040
324.4482821523511
1040
238.6837132183172
1040
323.4483202292872
1070
     1
1040
238.6837132183172
1040
323.4483202292872
1040
238.3942933060834
1040
290.2840831655871
1071
        0
1070
     0
1070
     0
1040
0.7853981633974483
1040
2.0
1070
     0
1070
     1
1040
0.7853981633974483
1040
0.0
1040
0.0
1040
-1.414213562373094
1040
1.414213562373095
1070
     0
1071
        1
1040
-1059.358737087011
1040
-634.3304857213966
1040
0.0
1002
}
  0
LINE
  5
CF8
330
1A
100
AcDbEntity
  8
SEIHIN
100
AcDbLine
 10
362.914528316915
 20
147.1265945294434
 30
0.0
 11
362.9145283168859
 21
176.8061324813678
 31
0.0
  0
LINE
  5
CF9
330
1A
100
AcDbEntity
  8
SEIHIN
100
AcDbLine
 10
361.1321892799955
 20
142.6419334946039
 30
0.0
 11
361.4216091922321
 21
175.8061705583039
 31
0.0
  0
ARC
  5
CFA
330
1A
100
AcDbEntity
  8
SEIHIN
100
AcDbCircle
 10
363.414528316915
 20
147.1265945294434
 30
0.0
 40
0.5000000000000293
100
AcDbArc
 50
180.0
 51
273.0000000000056
  0
LINE
  5
CFB
330
1A
100
AcDbEntity
  8
SEIHIN
100
AcDbLine
 10
362.9145283168459
 20
144.7779010871762
 30
0.0
 11
383.9639868234558
 21
146.2944934241476
 31
0.0
  0
LINE
  5
CFC
330
1A
100
AcDbEntity
  8
SEIHIN
100
AcDbLine
 10
363.0377724869818
 20
142.4262622308523
 30
0.0
 11
363.0193438754127
 21
142.7779010871762
 31
0.0
  0
LINE
  5
CFD
330
1A
100
AcDbEntity
  8
SEIHIN
100
AcDbLine
 10
361.1321892799955
 20
142.6419334946039
 30
0.0
 11
363.0193438754127
 21
142.7779010871762
 31
0.0
  0
LINE
  5
CFE
330
1A
100
AcDbEntity
  8
SEIHIN
100
AcDbLine
 10
363.0193438754127
 20
142.7779010871762
 30
0.0
 11
362.9145283168459
 21
144.7779010871762
 31
0.0
  0
LINE
  5
CFF
330
1A
100
AcDbEntity
  8
SEIHIN
100
AcDbLine
 10
337.1645283168859
 20
171.8061324813678
 30
0.0
 11
359.4859424764931
 21
171.8061324813678
 31
0.0
  0
LINE
  5
D00
330
1A
100
AcDbEntity
  8
SEIHIN
100
AcDbLine
 10
384.9145283168131
 20
147.7526756110181
 30
0.0
 11
363.4406962950365
 21
146.6272797620657
 31
0.0
  0
LINE
  5
D01
330
1A
100
AcDbEntity
  8
SEIHIN
100
AcDbLine
 10
384.9145283168859
 20
147.7526756110254
 30
0.0
 11
384.9145283168859
 21
146.7607470098627
 31
0.0
  0
LINE
  5
D02
330
1A
100
AcDbEntity
  8
SEIHIN
100
AcDbLine
 10
383.9639868234549
 20
146.2944934241476
 30
0.0
 11
384.9145283168859
 21
146.7607470098627
 31
0.0
  0
INSERT
  5
D03
330
1A
100
AcDbEntity
  8
ﾊｯﾁﾝｸﾞ
100
AcDbBlockReference
  2
*X3
 10
122.7378959739148
 20
-147.6421496709832
 30
0.0
1001
ACAD
1000
HATCH
1002
{
1070
    19
1000
_USER
1040
2.0
1040
2.356194490192344
1000
R14_HATCH_DATA
1000
842
1011
123.7378959739148
1021
-147.6421496709832
1031
0.0
1011
122.7378959739148
1021
-146.6421496709832
1031
0.0
1011
122.7378959739148
1021
-147.6421496709832
1031
1.0
1040
0.0
1010
0.0
1020
0.0
1030
1.0
1000
_USER
1070
     0
1070
     0
1071
        1
1071
        0
1071
        6
1070
     1
1040
215.926632342971
1040
324.4482821523511
1040
240.176632342971
1040
324.4482821523511
1070
     1
1040
240.176632342971
1040
324.4482821523511
1040
240.176632342971
1040
331.4482821523511
1070
     1
1040
240.176632342971
1040
331.4482821523511
1040
238.3766323429717
1040
331.4482821523511
1070
     1
1040
238.3766323429717
1040
331.4482821523511
1040
238.3329980040179
1040
326.4482821523511
1070
     1
1040
238.3329980040179
1040
326.4482821523511
1040
215.926632342971
1040
326.4482821523511
1070
     1
1040
215.926632342971
1040
326.4482821523511
1040
215.926632342971
1040
324.4482821523511
1071
        0
1070
     0
1070
     0
1040
2.356194490192344
1040
2.0
1070
     0
1070
     1
1040
2.356194490192344
1040
0.0
1040
0.0
1040
-1.414213562373095
1040
-1.414213562373094
1070
     0
1071
        1
1040
-1059.358737087011
1040
-634.3304857213966
1040
0.0
1002
}
  0
LINE
  5
D04
330
1A
100
AcDbEntity
  8
SEIHIN
100
AcDbLine
 10
338.6645283168859
 20
178.8061324813678
 30
0.0
 11
338.6645283168859
 21
176.8061324813678
 31
0.0
  0
LINE
  5
D05
330
1A
100
AcDbEntity
  8
SEIHIN
100
AcDbLine
 10
361.1145283168857
 20
183.8061324813678
 30
0.0
 11
361.0708939779319
 21
178.8061324813678
 31
0.0
  0
LINE
  5
D06
330
1A
100
AcDbEntity
  8
SEIHIN
100
AcDbLine
 10
360.3882554427304
 20
175.8061705583039
 30
0.0
 11
361.4216091922321
 21
175.8061705583039
 31
0.0
  0
LINE
  5
D07
330
1A
100
AcDbEntity
  8
SEIHIN
100
AcDbLine
 10
362.9145283168859
 20
176.8061324813678
 30
0.0
 11
362.9145283168859
 21
183.8061324813678
 31
0.0
  0
LINE
  5
D08
330
1A
100
AcDbEntity
  8
SEIHIN
100
AcDbLine
 10
361.4216091922321
 20
175.8061705583039
 30
0.0
 11
361.9303357277299
 21
176.8061324813678
 31
0.0
  0
TEXT
  5
15C0
330
1A
100
AcDbEntity
  8
MOJI
100
AcDbText
 10
44.44138808139745
 20
6.242677182400996
 30
0.0
 40
2.799999999999999
  1
ユニシェイプＵＲＴ６０ＢＬ
 41
0.9
  7
ｽﾀｲﾙ1
100
AcDbText
  0
TEXT
  5
164E
330
1A
100
AcDbEntity
  8
MOJI
100
AcDbText
 10
227.707177370123
 20
6.73799520856798
 30
0.0
 40
2.799999999999999
  1
ＰＨ０９□
 41
0.9
  7
ｽﾀｲﾙ1
100
AcDbText
  0
LINE
  5
1770
330
1A
100
AcDbEntity
  8
SEIHIN
  6
Continuous
 62
     3
 48
5.0
100
AcDbLine
 10
90.21999324010494
 20
171.8061324813677
 30
0.0
 11
90.21999324010494
 21
163.1539572410446
 31
0.0
  0
LINE
  5
1771
330
1A
100
AcDbEntity
  8
SEIHIN
  6
Continuous
 62
     3
 48
5.0
100
AcDbLine
 10
94.71999324010488
 20
171.8060324813675
 30
0.0
 11
94.71999324010488
 21
163.1538572410444
 31
0.0
  0
LINE
  5
1772
330
1A
100
AcDbEntity
  8
SEIHIN
  6
Continuous
 62
     3
 48
5.0
100
AcDbLine
 10
94.21999324010489
 20
171.3061324813677
 30
0.0
 11
94.2199932401049
 21
164.8061324813678
 31
0.0
  0
LINE
  5
1773
330
1A
100
AcDbEntity
  8
SEIHIN
  6
Continuous
 62
     3
 48
5.0
100
AcDbLine
 10
90.71999324010491
 20
171.3061324813677
 30
0.0
 11
90.71999324010494
 21
164.8061324813678
 31
0.0
  0
LINE
  5
1774
330
1A
100
AcDbEntity
  8
SEIHIN
  6
Continuous
 62
     3
 48
5.0
100
AcDbLine
 10
90.21999324010494
 20
163.1539572410446
 30
0.0
 11
94.71999324010488
 21
163.1539572410446
 31
0.0
  0
LINE
  5
1775
330
1A
100
AcDbEntity
  8
SEIHIN
  6
Continuous
 62
     3
 48
5.0
100
AcDbLine
 10
90.71999324010491
 20
164.8061324813678
 30
0.0
 11
94.21999324010489
 21
164.8061324813678
 31
0.0
  0
LINE
  5
1776
330
1A
100
AcDbEntity
  8
SEIHIN
  6
Continuous
 62
     3
 48
5.0
100
AcDbLine
 10
90.21999324010494
 20
171.8061324813677
 30
0.0
 11
94.71999324010488
 21
171.8061324813677
 31
0.0
  0
LINE
  5
1777
330
1A
100
AcDbEntity
  8
SEIHIN
  6
Continuous
 62
     3
 48
5.0
100
AcDbLine
 10
90.71999324010491
 20
171.3061324813677
 30
0.0
 11
94.21999324010489
 21
171.3061324813677
 31
0.0
  0
LINE
  5
1778
330
1A
100
AcDbEntity
  8
SEIHIN
  6
Continuous
 62
     3
 48
5.0
100
AcDbLine
 10
90.71999324010491
 20
170.2973313519514
 30
0.0
 11
94.21999324010489
 21
170.2973313519514
 31
0.0
  0
VIEWPORT
  5
22
330
17
100
AcDbEntity
 67
     1
  8
0
100
AcDbViewport
 10
313.6808219178082
 20
148.5
 30
0.0
 40
627.3616438356165
 41
297.0
 68
     2
 69
     1
 12
313.6808219178082
 22
148.5
 13
0.0
 23
0.0
 14
1.0
 24
1.0
 15
10.0
 25
10.0
 16
0.0
 26
0.0
 36
1.0
 17
0.0
 27
0.0
 37
0.0
 42
50.0
 43
0.0
 44
0.0
 45
297.0
 50
0.0
 51
0.0
 72
   100
 90
    32768
  1

281
     0
 71
     1
 74
     0
110
0.0
120
0.0
130
0.0
111
1.0
121
0.0
131
0.0
112
0.0
122
1.0
132
0.0
 79
     0
146
0.0
  0
VIEWPORT
  5
64
330
17
100
AcDbEntity
 67
     1
  8
VIEWPORT
100
AcDbViewport
 10
210.0
 20
148.5
 30
0.0
 40
420.0
 41
297.0
 68
     1
 69
     2
 12
210.0
 22
148.5
 13
0.0
 23
0.0
 14
5.0
 24
5.0
 15
0.0
 25
0.0
 16
0.0
 26
0.0
 36
1.0
 17
0.0
 27
0.0
 37
0.0
 42
50.0
 43
0.0
 44
0.0
 45
302.9399999999998
 50
0.0
 51
0.0
 72
   100
 90
    32768
  1

281
     0
 71
     1
 74
     0
110
0.0
120
0.0
130
0.0
111
1.0
121
0.0
131
0.0
112
0.0
122
1.0
132
0.0
 79
     0
146
0.0
  0
ENDSEC
  0
SECTION
  2
OBJECTS
  0
DICTIONARY
  5
C
330
0
100
AcDbDictionary
281
     1
  3
ACAD_GROUP
350
D
  3
ACAD_LAYOUT
350
33B
  3
ACAD_MLINESTYLE
350
E
  3
ACAD_PLOTSETTINGS
350
33C
  3
ACAD_PLOTSTYLENAME
350
339
  0
DICTIONARY
  5
36A
330
1A
100
AcDbDictionary
280
     1
281
     1
  3
ACAD_LAYOUTSELFREF
360
17B7
  0
DICTIONARY
  5
368
330
17
100
AcDbDictionary
280
     1
281
     1
  3
ACAD_LAYOUTSELFREF
360
17B6
  0
DICTIONARY
  5
D
102
{ACAD_REACTORS
330
C
102
}
330
C
100
AcDbDictionary
281
     1
  0
DICTIONARY
  5
33B
102
{ACAD_REACTORS
330
C
102
}
330
C
100
AcDbDictionary
281
     1
  3
Model
350
33D
  3
ﾚｲｱｳﾄ1
350
33E
  0
DICTIONARY
  5
E
102
{ACAD_REACTORS
330
C
102
}
330
C
100
AcDbDictionary
281
     1
  3
STANDARD
350
13
  0
DICTIONARY
  5
33C
102
{ACAD_REACTORS
330
C
102
}
330
C
100
AcDbDictionary
281
     1
  0
ACDBDICTIONARYWDFLT
  5
339
102
{ACAD_REACTORS
330
C
102
}
330
C
100
AcDbDictionary
281
     1
  3
Normal
350
33A
100
AcDbDictionaryWithDefault
340
33A
1001
ACAD
1000
TREAT_AS_HARD
1070
     0
1000
TREAT_AS_HARD
1070
     0
1000
TREAT_AS_HARD
1070
     0
1000
TREAT_AS_HARD
1070
     0
1000
TREAT_AS_HARD
1070
     0
1000
TREAT_AS_HARD
1070
     0
1000
TREAT_AS_HARD
1070
     0
1000
TREAT_AS_HARD
1070
     0
  0
XRECORD
  5
17B7
102
{ACAD_REACTORS
330
36A
102
}
330
36A
100
AcDbXrecord
280
     1
340
1A
  0
XRECORD
  5
17B6
102
{ACAD_REACTORS
330
368
102
}
330
368
100
AcDbXrecord
280
     1
340
17
  0
LAYOUT
  5
33D
102
{ACAD_REACTORS
330
33B
102
}
330
33B
100
AcDbPlotSettings
  1

  2
Acrobat PDFWriter
  4
A3
  6

 40
7.143749713897705
 41
7.143756389617919
 42
7.143768310546875
 43
7.14373779296875
 44
297.1270751953125
 45
420.1583251953125
 46
0.0
 47
0.0
 48
0.0
 49
0.0
140
0.0
141
0.0
142
1.0
143
1.0
 70
 28336
 72
     1
 73
     1
 74
     2
  7
print.ctb
 75
    16
147
1.0
148
0.0
149
0.0
100
AcDbLayout
  1
Model
 70
     1
 71
     0
 10
0.0
 20
0.0
 11
12.0
 21
9.0
 12
0.0
 22
0.0
 32
0.0
 14
0.0
 24
0.0
 34
0.0
 15
0.0
 25
0.0
 35
0.0
146
0.0
 13
0.0
 23
0.0
 33
0.0
 16
1.0
 26
0.0
 36
0.0
 17
0.0
 27
1.0
 37
0.0
 76
     0
330
1A
  0
LAYOUT
  5
33E
102
{ACAD_REACTORS
330
33B
102
}
330
33B
100
AcDbPlotSettings
  1

  2
C:\PROGRAM FILES\ACAD LT 2000\plotters\DWF ePlot.pc3
  4

  6

 40
0.0
 41
0.0
 42
0.0
 43
0.0
 44
0.0
 45
0.0
 46
0.0
 47
0.0
 48
0.0
 49
0.0
140
0.0
141
0.0
142
1.0
143
1.0
 70
   688
 72
     0
 73
     0
 74
     5
  7
print.ctb
 75
    16
147
1.0
148
0.0
149
0.0
100
AcDbLayout
  1
ﾚｲｱｳﾄ1
 70
     1
 71
     1
 10
0.0
 20
0.0
 11
420.0
 21
297.0
 12
0.0
 22
0.0
 32
0.0
 14
0.0
 24
0.0
 34
0.0
 15
420.0
 25
297.0
 35
0.0
146
0.0
 13
0.0
 23
0.0
 33
0.0
 16
1.0
 26
0.0
 36
0.0
 17
0.0
 27
1.0
 37
0.0
 76
     0
330
17
331
64
  0
MLINESTYLE
  5
13
102
{ACAD_REACTORS
330
E
102
}
330
E
100
AcDbMlineStyle
  2
STANDARD
 70
     0
  3

 62
     0
 51
90.0
 52
90.0
 71
     2
 49
0.5
 62
   256
  6
BYLAYER
 49
-0.5
 62
   256
  6
BYLAYER
  0
ACDBPLACEHOLDER
  5
33A
102
{ACAD_REACTORS
330
339
102
}
330
339
  0
ENDSEC
  0
EOF
