  0
SECTION
  2
HEADER
  9
$ACADVER
  1
AC1015
  9
$ACADMAINTVER
 70
     6
  9
$DWGCODEPAGE
  3
ANSI_932
  9
$INSBASE
 10
0.0
 20
0.0
 30
0.0
  9
$EXTMIN
 10
0.0000002654082891
 20
-0.0000004524473525
 30
0.0
  9
$EXTMAX
 10
398.8000002654083
 20
275.7999995475527
 30
0.0
  9
$LIMMIN
 10
0.0
 20
0.0
  9
$LIMMAX
 10
420.0
 20
297.0
  9
$ORTHOMODE
 70
     0
  9
$REGENMODE
 70
     1
  9
$FILLMODE
 70
     1
  9
$QTEXTMODE
 70
     0
  9
$MIRRTEXT
 70
     1
  9
$LTSCALE
 40
1.0
  9
$ATTMODE
 70
     1
  9
$TEXTSIZE
 40
2.5
  9
$TRACEWID
 40
1.0
  9
$TEXTSTYLE
  7
STANDARD
  9
$CLAYER
  8
SUNPOU
  9
$CELTYPE
  6
BYLAYER
  9
$CECOLOR
 62
   256
  9
$CELTSCALE
 40
1.0
  9
$DISPSILH
 70
     0
  9
$DIMSCALE
 40
1.0
  9
$DIMASZ
 40
3.0
  9
$DIMEXO
 40
3.0
  9
$DIMDLI
 40
7.0
  9
$DIMRND
 40
0.0
  9
$DIMDLE
 40
0.0
  9
$DIMEXE
 40
1.5
  9
$DIMTP
 40
0.0
  9
$DIMTM
 40
0.0
  9
$DIMTXT
 40
3.0
  9
$DIMCEN
 40
150.0
  9
$DIMTSZ
 40
0.0
  9
$DIMTOL
 70
     0
  9
$DIMLIM
 70
     0
  9
$DIMTIH
 70
     0
  9
$DIMTOH
 70
     0
  9
$DIMSE1
 70
     0
  9
$DIMSE2
 70
     0
  9
$DIMTAD
 70
     3
  9
$DIMZIN
 70
     0
  9
$DIMBLK
  1

  9
$DIMASO
 70
     1
  9
$DIMSHO
 70
     1
  9
$DIMPOST
  1

  9
$DIMAPOST
  1

  9
$DIMALT
 70
     0
  9
$DIMALTD
 70
     2
  9
$DIMALTF
 40
25.4
  9
$DIMLFAC
 40
1.0
  9
$DIMTOFL
 70
     1
  9
$DIMTVP
 40
0.0
  9
$DIMTIX
 70
     0
  9
$DIMSOXD
 70
     0
  9
$DIMSAH
 70
     1
  9
$DIMBLK1
  1
OPEN
  9
$DIMBLK2
  1
OPEN
  9
$DIMSTYLE
  2
STANDARD
  9
$DIMCLRD
 70
   256
  9
$DIMCLRE
 70
   256
  9
$DIMCLRT
 70
   256
  9
$DIMTFAC
 40
1.0
  9
$DIMGAP
 40
1.0
  9
$DIMJUST
 70
     0
  9
$DIMSD1
 70
     0
  9
$DIMSD2
 70
     0
  9
$DIMTOLJ
 70
     1
  9
$DIMTZIN
 70
     0
  9
$DIMALTZ
 70
     0
  9
$DIMALTTZ
 70
     0
  9
$DIMUPT
 70
     0
  9
$DIMDEC
 70
     0
  9
$DIMTDEC
 70
     0
  9
$DIMALTU
 70
     2
  9
$DIMALTTD
 70
     2
  9
$DIMTXSTY
  7
STANDARD
  9
$DIMAUNIT
 70
     0
  9
$DIMADEC
 70
     0
  9
$DIMALTRND
 40
0.0
  9
$DIMAZIN
 70
     0
  9
$DIMDSEP
 70
    46
  9
$DIMATFIT
 70
     3
  9
$DIMFRAC
 70
     0
  9
$DIMLDRBLK
  1
OPEN
  9
$DIMLUNIT
 70
     2
  9
$DIMLWD
 70
    -1
  9
$DIMLWE
 70
    -1
  9
$DIMTMOVE
 70
     0
  9
$LUNITS
 70
     2
  9
$LUPREC
 70
     4
  9
$SKETCHINC
 40
1.0
  9
$FILLETRAD
 40
55.0
  9
$AUNITS
 70
     0
  9
$AUPREC
 70
     0
  9
$MENU
  1
.
  9
$ELEVATION
 40
0.0
  9
$PELEVATION
 40
0.0
  9
$THICKNESS
 40
0.0
  9
$LIMCHECK
 70
     0
  9
$CHAMFERA
 40
10.0
  9
$CHAMFERB
 40
10.0
  9
$CHAMFERC
 40
20.0
  9
$CHAMFERD
 40
0.0
  9
$SKPOLY
 70
     0
  9
$TDCREATE
 40
2451074.584006712
  9
$TDUCREATE
 40
2451074.209006713
  9
$TDUPDATE
 40
2455838.585573946
  9
$TDUUPDATE
 40
2455838.210573946
  9
$TDINDWG
 40
0.0551557407
  9
$TDUSRTIMER
 40
0.0551557407
  9
$USRTIMER
 70
     1
  9
$ANGBASE
 50
0.0
  9
$ANGDIR
 70
     0
  9
$PDMODE
 70
     0
  9
$PDSIZE
 40
0.0
  9
$PLINEWID
 40
0.0
  9
$SPLFRAME
 70
     0
  9
$SPLINETYPE
 70
     6
  9
$SPLINESEGS
 70
     8
  9
$HANDSEED
  5
2A3B
  9
$SURFTAB1
 70
     6
  9
$SURFTAB2
 70
     6
  9
$SURFTYPE
 70
     6
  9
$SURFU
 70
     6
  9
$SURFV
 70
     6
  9
$UCSBASE
  2

  9
$UCSNAME
  2

  9
$UCSORG
 10
0.0
 20
0.0
 30
0.0
  9
$UCSXDIR
 10
1.0
 20
0.0
 30
0.0
  9
$UCSYDIR
 10
0.0
 20
1.0
 30
0.0
  9
$UCSORTHOREF
  2

  9
$UCSORTHOVIEW
 70
     0
  9
$UCSORGTOP
 10
0.0
 20
0.0
 30
0.0
  9
$UCSORGBOTTOM
 10
0.0
 20
0.0
 30
0.0
  9
$UCSORGLEFT
 10
0.0
 20
0.0
 30
0.0
  9
$UCSORGRIGHT
 10
0.0
 20
0.0
 30
0.0
  9
$UCSORGFRONT
 10
0.0
 20
0.0
 30
0.0
  9
$UCSORGBACK
 10
0.0
 20
0.0
 30
0.0
  9
$PUCSBASE
  2

  9
$PUCSNAME
  2

  9
$PUCSORG
 10
0.0
 20
0.0
 30
0.0
  9
$PUCSXDIR
 10
1.0
 20
0.0
 30
0.0
  9
$PUCSYDIR
 10
0.0
 20
1.0
 30
0.0
  9
$PUCSORTHOREF
  2

  9
$PUCSORTHOVIEW
 70
     0
  9
$PUCSORGTOP
 10
0.0
 20
0.0
 30
0.0
  9
$PUCSORGBOTTOM
 10
0.0
 20
0.0
 30
0.0
  9
$PUCSORGLEFT
 10
0.0
 20
0.0
 30
0.0
  9
$PUCSORGRIGHT
 10
0.0
 20
0.0
 30
0.0
  9
$PUCSORGFRONT
 10
0.0
 20
0.0
 30
0.0
  9
$PUCSORGBACK
 10
0.0
 20
0.0
 30
0.0
  9
$USERI1
 70
     0
  9
$USERI2
 70
     0
  9
$USERI3
 70
     0
  9
$USERI4
 70
     0
  9
$USERI5
 70
     0
  9
$USERR1
 40
0.0
  9
$USERR2
 40
0.0
  9
$USERR3
 40
0.0
  9
$USERR4
 40
0.0
  9
$USERR5
 40
0.0
  9
$WORLDVIEW
 70
     1
  9
$SHADEDGE
 70
     3
  9
$SHADEDIF
 70
    70
  9
$TILEMODE
 70
     1
  9
$MAXACTVP
 70
    16
  9
$PINSBASE
 10
0.0
 20
0.0
 30
0.0
  9
$PLIMCHECK
 70
     0
  9
$PEXTMIN
 10
0.0
 20
0.0
 30
0.0
  9
$PEXTMAX
 10
420.0
 20
297.0
 30
0.0
  9
$PLIMMIN
 10
0.0
 20
0.0
  9
$PLIMMAX
 10
420.0
 20
297.0
  9
$UNITMODE
 70
     0
  9
$VISRETAIN
 70
     0
  9
$PLINEGEN
 70
     0
  9
$PSLTSCALE
 70
     1
  9
$TREEDEPTH
 70
  3020
  9
$CMLSTYLE
  2
STANDARD
  9
$CMLJUST
 70
     0
  9
$CMLSCALE
 40
1.0
  9
$PROXYGRAPHICS
 70
     1
  9
$MEASUREMENT
 70
     1
  9
$CELWEIGHT
370
    -1
  9
$ENDCAPS
280
     0
  9
$JOINSTYLE
280
     0
  9
$LWDISPLAY
290
     0
  9
$INSUNITS
 70
     0
  9
$HYPERLINKBASE
  1

  9
$STYLESHEET
  1
print.ctb
  9
$XEDIT
290
     1
  9
$CEPSNTYPE
380
     0
  9
$PSTYLEMODE
290
     1
  9
$FINGERPRINTGUID
  2
{D4F8574C-2E33-4D51-A6AD-99326D707132}
  9
$VERSIONGUID
  2
{3FA66AC3-D155-4F3C-BE09-699CF1AF587C}
  9
$EXTNAMES
290
     1
  9
$PSVPSCALE
 40
0.0
  9
$OLESTARTUP
290
     0
  0
ENDSEC
  0
SECTION
  2
CLASSES
  0
CLASS
  1
ACDBDICTIONARYWDFLT
  2
AcDbDictionaryWithDefault
  3
AutoCAD 2000
 90
        0
280
     0
281
     0
  0
CLASS
  1
ACDBPLACEHOLDER
  2
AcDbPlaceHolder
  3
AutoCAD 2000
 90
        0
280
     0
281
     0
  0
CLASS
  1
LAYOUT
  2
AcDbLayout
  3
AutoCAD 2000
 90
        0
280
     0
281
     0
  0
CLASS
  1
LONG_TRANSACTION
  2
AcDbLongTransaction
  3
AutoCAD 2000
 90
    32768
280
     0
281
     0
  0
CLASS
  1
LWPOLYLINE
  2
AcDbPolyline
  3
AutoCAD 2000
 90
    32768
280
     0
281
     1
  0
CLASS
  1
HATCH
  2
AcDbHatch
  3
AutoCAD 2000
 90
    32768
280
     0
281
     1
  0
CLASS
  1
XRECORD
  2
AcDbXrecord
  3
AutoCAD 2000
 90
    32768
280
     0
281
     0
  0
CLASS
  1
LONG_TRANSACTION
  2
AcDbLongTransaction
  3
AutoCAD 2000
 90
    32768
280
     0
281
     0
  0
CLASS
  1
LWPOLYLINE
  2
AcDbPolyline
  3
AutoCAD 2000
 90
    32768
280
     0
281
     1
  0
CLASS
  1
HATCH
  2
AcDbHatch
  3
AutoCAD 2000
 90
    32768
280
     0
281
     1
  0
CLASS
  1
XRECORD
  2
AcDbXrecord
  3
AutoCAD 2000
 90
    32768
280
     0
281
     0
  0
CLASS
  1
LONG_TRANSACTION
  2
AcDbLongTransaction
  3
AutoCAD 2000
 90
    32768
280
     0
281
     0
  0
CLASS
  1
LWPOLYLINE
  2
AcDbPolyline
  3
AutoCAD 2000
 90
    32768
280
     0
281
     1
  0
CLASS
  1
HATCH
  2
AcDbHatch
  3
AutoCAD 2000
 90
    32768
280
     0
281
     1
  0
CLASS
  1
XRECORD
  2
AcDbXrecord
  3
AutoCAD 2000
 90
    32768
280
     0
281
     0
  0
CLASS
  1
LONG_TRANSACTION
  2
AcDbLongTransaction
  3
AutoCAD 2000
 90
    32768
280
     0
281
     0
  0
CLASS
  1
LWPOLYLINE
  2
AcDbPolyline
  3
AutoCAD 2000
 90
    32768
280
     0
281
     1
  0
CLASS
  1
HATCH
  2
AcDbHatch
  3
AutoCAD 2000
 90
    32768
280
     0
281
     1
  0
CLASS
  1
XRECORD
  2
AcDbXrecord
  3
AutoCAD 2000
 90
    32768
280
     0
281
     0
  0
CLASS
  1
LONG_TRANSACTION
  2
AcDbLongTransaction
  3
AutoCAD 2000
 90
    32768
280
     0
281
     0
  0
CLASS
  1
LWPOLYLINE
  2
AcDbPolyline
  3
AutoCAD 2000
 90
    32768
280
     0
281
     1
  0
CLASS
  1
HATCH
  2
AcDbHatch
  3
AutoCAD 2000
 90
    32768
280
     0
281
     1
  0
CLASS
  1
XRECORD
  2
AcDbXrecord
  3
AutoCAD 2000
 90
    32768
280
     0
281
     0
  0
CLASS
  1
LONG_TRANSACTION
  2
AcDbLongTransaction
  3
AutoCAD 2000
 90
    32768
280
     0
281
     0
  0
CLASS
  1
LWPOLYLINE
  2
AcDbPolyline
  3
AutoCAD 2000
 90
    32768
280
     0
281
     1
  0
CLASS
  1
HATCH
  2
AcDbHatch
  3
AutoCAD 2000
 90
    32768
280
     0
281
     1
  0
CLASS
  1
XRECORD
  2
AcDbXrecord
  3
AutoCAD 2000
 90
    32768
280
     0
281
     0
  0
CLASS
  1
LONG_TRANSACTION
  2
AcDbLongTransaction
  3
AutoCAD 2000
 90
    32768
280
     0
281
     0
  0
CLASS
  1
LWPOLYLINE
  2
AcDbPolyline
  3
AutoCAD 2000
 90
    32768
280
     0
281
     1
  0
CLASS
  1
HATCH
  2
AcDbHatch
  3
AutoCAD 2000
 90
    32768
280
     0
281
     1
  0
CLASS
  1
XRECORD
  2
AcDbXrecord
  3
AutoCAD 2000
 90
    32768
280
     0
281
     0
  0
CLASS
  1
LONG_TRANSACTION
  2
AcDbLongTransaction
  3
AutoCAD 2000
 90
    32768
280
     0
281
     0
  0
CLASS
  1
LWPOLYLINE
  2
AcDbPolyline
  3
AutoCAD 2000
 90
    32768
280
     0
281
     1
  0
CLASS
  1
HATCH
  2
AcDbHatch
  3
AutoCAD 2000
 90
    32768
280
     0
281
     1
  0
CLASS
  1
XRECORD
  2
AcDbXrecord
  3
AutoCAD 2000
 90
    32768
280
     0
281
     0
  0
ENDSEC
  0
SECTION
  2
TABLES
  0
TABLE
  2
VPORT
  5
8
330
0
100
AcDbSymbolTable
 70
     2
  0
VPORT
  5
2A3A
330
8
100
AcDbSymbolTableRecord
100
AcDbViewportTableRecord
  2
*Active
 70
     0
 10
0.0
 20
0.0
 11
1.0
 21
1.0
 12
209.9839807163665
 22
153.2340390244925
 13
0.0
 23
0.0
 14
5.0
 24
5.0
 15
0.0
 25
0.0
 16
0.0
 26
0.0
 36
1.0
 17
0.0
 27
0.0
 37
0.0
 40
308.9613795674607
 41
1.527918781725888
 42
50.0
 43
0.0
 44
0.0
 50
0.0
 51
0.0
 71
     0
 72
   100
 73
     1
 74
     0
 75
     0
 76
     0
 77
     0
 78
     0
281
     0
 65
     1
110
0.0
120
0.0
130
0.0
111
1.0
121
0.0
131
0.0
112
0.0
122
1.0
132
0.0
 79
     0
146
0.0
  0
ENDTAB
  0
TABLE
  2
LTYPE
  5
5
330
0
100
AcDbSymbolTable
 70
     2
  0
LTYPE
  5
14
330
5
100
AcDbSymbolTableRecord
100
AcDbLinetypeTableRecord
  2
BYBLOCK
 70
     0
  3

 72
    65
 73
     0
 40
0.0
  0
LTYPE
  5
15
330
5
100
AcDbSymbolTableRecord
100
AcDbLinetypeTableRecord
  2
BYLAYER
 70
     0
  3

 72
    65
 73
     0
 40
0.0
  0
LTYPE
  5
16
330
5
100
AcDbSymbolTableRecord
100
AcDbLinetypeTableRecord
  2
CONTINUOUS
 70
     0
  3
Solid line
 72
    65
 73
     0
 40
0.0
  0
LTYPE
  5
120
330
5
100
AcDbSymbolTableRecord
100
AcDbLinetypeTableRecord
  2
CENTER
 70
     0
  3
____ _ ____ _ ____ _ ____ _ ____ _ ____ _ ____ 
 72
    65
 73
     4
 40
2.0
 49
1.25
 74
     0
 49
-0.25
 74
     0
 49
0.25
 74
     0
 49
-0.25
 74
     0
  0
ENDTAB
  0
TABLE
  2
LAYER
  5
2
330
0
100
AcDbSymbolTable
 70
     9
  0
LAYER
  5
F
330
2
100
AcDbSymbolTableRecord
100
AcDbLayerTableRecord
  2
0
 70
     0
 62
     7
  6
CONTINUOUS
370
    -3
390
33A
  0
LAYER
  5
62
330
2
100
AcDbSymbolTableRecord
100
AcDbLayerTableRecord
  2
VIEWPORT
 70
     0
 62
     7
  6
CONTINUOUS
370
    -3
390
33A
  0
LAYER
  5
6B
330
2
100
AcDbSymbolTableRecord
100
AcDbLayerTableRecord
  2
ZUWAKU
 70
     0
 62
     7
  6
CONTINUOUS
370
    -3
390
33A
  0
LAYER
  5
140
330
2
100
AcDbSymbolTableRecord
100
AcDbLayerTableRecord
  2
SEIHIN
 70
     0
 62
     3
  6
CONTINUOUS
370
    -3
390
33A
  0
LAYER
  5
141
330
2
100
AcDbSymbolTableRecord
100
AcDbLayerTableRecord
  2
SUNPOU
 70
     0
 62
     4
  6
CONTINUOUS
370
    -3
390
33A
  0
LAYER
  5
142
330
2
100
AcDbSymbolTableRecord
100
AcDbLayerTableRecord
  2
CENTER L
 70
     0
 62
     1
  6
CENTER
370
    -3
390
33A
  0
LAYER
  5
143
330
2
100
AcDbSymbolTableRecord
100
AcDbLayerTableRecord
  2
DEFPOINTS
 70
     0
 62
     7
  6
CONTINUOUS
290
     0
370
    -3
390
33A
  0
LAYER
  5
5D7
330
2
100
AcDbSymbolTableRecord
100
AcDbLayerTableRecord
  2
MOJI
 70
     0
 62
     2
  6
CONTINUOUS
370
    -3
390
33A
  0
LAYER
  5
A31
330
2
100
AcDbSymbolTableRecord
100
AcDbLayerTableRecord
  2
ﾊｯﾁﾝｸﾞ
 70
     0
 62
     7
  6
CONTINUOUS
370
    -3
390
33A
  0
ENDTAB
  0
TABLE
  2
STYLE
  5
3
330
0
100
AcDbSymbolTable
 70
     2
  0
STYLE
  5
10
330
3
100
AcDbSymbolTableRecord
100
AcDbTextStyleTableRecord
  2
STANDARD
 70
     0
 40
0.0
 41
1.0
 50
0.0
 71
     0
 42
2.5
  3
TXT
  4
bigfont.shx
  0
STYLE
  5
5D8
330
3
100
AcDbSymbolTableRecord
100
AcDbTextStyleTableRecord
  2
ｽﾀｲﾙ1
 70
     0
 40
0.0
 41
1.0
 50
0.0
 71
     0
 42
2.5
  3
MS PGothic.ttf
  4

1001
ACAD
1000
MS PGothic
1071
    32818
  0
ENDTAB
  0
TABLE
  2
VIEW
  5
6
330
0
100
AcDbSymbolTable
 70
     0
  0
ENDTAB
  0
TABLE
  2
UCS
  5
7
330
0
100
AcDbSymbolTable
 70
     0
  0
ENDTAB
  0
TABLE
  2
APPID
  5
9
330
0
100
AcDbSymbolTable
 70
     1
  0
APPID
  5
11
330
9
100
AcDbSymbolTableRecord
100
AcDbRegAppTableRecord
  2
ACAD
 70
     0
  0
ENDTAB
  0
TABLE
  2
DIMSTYLE
  5
A
330
0
100
AcDbSymbolTable
 70
     1
100
AcDbDimStyleTable
 71
     0
  0
DIMSTYLE
105
1D
102
{ACAD_REACTORS
330
17E9
330
1714
330
1715
330
17F5
330
17F6
330
1810
330
171A
330
1733
330
17D5
330
1707
330
2872
330
2891
330
289E
102
}
330
A
100
AcDbSymbolTableRecord
100
AcDbDimStyleTableRecord
  2
STANDARD
 70
     0
340
10
  0
ENDTAB
  0
TABLE
  2
BLOCK_RECORD
  5
1
330
0
100
AcDbSymbolTable
 70
    20
  0
BLOCK_RECORD
  5
1A
102
{ACAD_XDICTIONARY
360
36A
102
}
330
1
100
AcDbSymbolTableRecord
100
AcDbBlockTableRecord
  2
*MODEL_SPACE
340
33D
  0
BLOCK_RECORD
  5
17
102
{ACAD_XDICTIONARY
360
368
102
}
330
1
100
AcDbSymbolTableRecord
100
AcDbBlockTableRecord
  2
*PAPER_SPACE
340
33E
  0
BLOCK_RECORD
  5
B2
330
1
100
AcDbSymbolTableRecord
100
AcDbBlockTableRecord
  2
_OPEN
340
0
102
{BLKREFS
331
28F7
331
28F8
331
20FE
331
20FF
331
2107
331
2108
331
2110
331
2111
331
2119
331
211A
331
2122
331
2123
331
288B
331
288C
331
2134
331
2135
331
213D
331
213E
331
2163
331
2164
331
216C
331
216D
331
2175
331
2176
331
217E
331
217F
331
2187
331
2188
331
2A1E
331
2A1F
331
2A26
331
2A27
331
2A2F
331
2A30
102
}
  0
BLOCK_RECORD
  5
10FA
330
1
100
AcDbSymbolTableRecord
100
AcDbBlockTableRecord
  2
*X1
340
0
102
{BLKREFS
331
6A2
102
}
  0
BLOCK_RECORD
  5
1552
330
1
100
AcDbSymbolTableRecord
100
AcDbBlockTableRecord
  2
*X2
340
0
102
{BLKREFS
331
172B
102
}
  0
BLOCK_RECORD
  5
1850
330
1
100
AcDbSymbolTableRecord
100
AcDbBlockTableRecord
  2
*D3
340
0
  0
BLOCK_RECORD
  5
185D
330
1
100
AcDbSymbolTableRecord
100
AcDbBlockTableRecord
  2
*D4
340
0
  0
BLOCK_RECORD
  5
186A
330
1
100
AcDbSymbolTableRecord
100
AcDbBlockTableRecord
  2
*D5
340
0
  0
BLOCK_RECORD
  5
1877
330
1
100
AcDbSymbolTableRecord
100
AcDbBlockTableRecord
  2
*D6
340
0
  0
BLOCK_RECORD
  5
189E
330
1
100
AcDbSymbolTableRecord
100
AcDbBlockTableRecord
  2
*D9
340
0
  0
BLOCK_RECORD
  5
18C5
330
1
100
AcDbSymbolTableRecord
100
AcDbBlockTableRecord
  2
*D12
340
0
  0
BLOCK_RECORD
  5
18D2
330
1
100
AcDbSymbolTableRecord
100
AcDbBlockTableRecord
  2
*D13
340
0
  0
BLOCK_RECORD
  5
18DF
330
1
100
AcDbSymbolTableRecord
100
AcDbBlockTableRecord
  2
*D14
340
0
  0
BLOCK_RECORD
  5
18EC
330
1
100
AcDbSymbolTableRecord
100
AcDbBlockTableRecord
  2
*D15
340
0
  0
BLOCK_RECORD
  5
18F9
330
1
100
AcDbSymbolTableRecord
100
AcDbBlockTableRecord
  2
*D16
340
0
  0
BLOCK_RECORD
  5
2873
330
1
100
AcDbSymbolTableRecord
100
AcDbBlockTableRecord
  2
*D17
340
0
  0
BLOCK_RECORD
  5
2892
330
1
100
AcDbSymbolTableRecord
100
AcDbBlockTableRecord
  2
*D18
340
0
  0
BLOCK_RECORD
  5
289F
330
1
100
AcDbSymbolTableRecord
100
AcDbBlockTableRecord
  2
*D19
340
0
  0
ENDTAB
  0
ENDSEC
  0
SECTION
  2
BLOCKS
  0
BLOCK
  5
1B
330
1A
100
AcDbEntity
  8
0
100
AcDbBlockBegin
  2
*MODEL_SPACE
 70
     0
 10
0.0
 20
0.0
 30
0.0
  3
*MODEL_SPACE
  1

  0
ENDBLK
  5
1C
330
1A
100
AcDbEntity
  8
0
100
AcDbBlockEnd
  0
BLOCK
  5
18
330
17
100
AcDbEntity
 67
     1
  8
0
100
AcDbBlockBegin
  2
*PAPER_SPACE
 70
     0
 10
0.0
 20
0.0
 30
0.0
  3
*PAPER_SPACE
  1

  0
ENDBLK
  5
19
330
17
100
AcDbEntity
 67
     1
  8
0
100
AcDbBlockEnd
  0
BLOCK
  5
B3
330
B2
100
AcDbEntity
  8
0
100
AcDbBlockBegin
  2
_OPEN
 70
     0
 10
0.0
 20
0.0
 30
0.0
  3
_OPEN
  1

  0
LINE
  5
B4
330
B2
100
AcDbEntity
  8
0
  6
ByBlock
 62
     0
100
AcDbLine
 10
-1.0
 20
0.1666666666666666
 30
0.0
 11
0.0
 21
0.0
 31
0.0
  0
LINE
  5
B5
330
B2
100
AcDbEntity
  8
0
  6
ByBlock
 62
     0
100
AcDbLine
 10
0.0
 20
0.0
 30
0.0
 11
-1.0
 21
-0.1666666666666666
 31
0.0
  0
LINE
  5
B6
330
B2
100
AcDbEntity
  8
0
  6
ByBlock
 62
     0
100
AcDbLine
 10
0.0
 20
0.0
 30
0.0
 11
-1.0
 21
0.0
 31
0.0
  0
ENDBLK
  5
B7
330
B2
100
AcDbEntity
  8
0
100
AcDbBlockEnd
  0
BLOCK
  5
128E
330
10FA
100
AcDbEntity
  8
0
100
AcDbBlockBegin
  2
*X1
 70
     1
 10
0.0
 20
0.0
 30
0.0
  3
*X1
  1

  0
LINE
  5
10FB
330
10FA
100
AcDbEntity
  8
0
 62
     0
100
AcDbLine
 10
34.52110634279887
 20
11.30208408269516
 30
0.0
 11
34.19819087794135
 21
11.62499954755267
 31
0.0
  0
LINE
  5
10FC
330
10FA
100
AcDbEntity
  8
0
 62
     0
100
AcDbLine
 10
34.52110634279884
 20
10.85307127664168
 30
0.0
 11
33.74917807188788
 21
11.62499954755267
 31
0.0
  0
LINE
  5
10FD
330
10FA
100
AcDbEntity
  8
0
 62
     0
100
AcDbLine
 10
34.52110634279884
 20
10.40405847058823
 30
0.0
 11
33.3105393697914
 21
11.61462544359568
 31
0.0
  0
LINE
  5
10FE
330
10FA
100
AcDbEntity
  8
0
 62
     0
100
AcDbLine
 10
34.52110634279884
 20
9.955045664534793
 30
0.0
 11
33.12110634279884
 21
11.35504566453482
 31
0.0
  0
LINE
  5
10FF
330
10FA
100
AcDbEntity
  8
0
 62
     0
100
AcDbLine
 10
34.52110634279884
 20
9.506032858481347
 30
0.0
 11
33.12110634279881
 21
10.90603285848135
 31
0.0
  0
LINE
  5
1100
330
10FA
100
AcDbEntity
  8
0
 62
     0
100
AcDbLine
 10
34.52110634279884
 20
9.057020052427873
 30
0.0
 11
33.12110634279881
 21
10.4570200524279
 31
0.0
  0
LINE
  5
1101
330
10FA
100
AcDbEntity
  8
0
 62
     0
100
AcDbLine
 10
32.07110634279885
 20
11.05800724637441
 30
0.0
 11
31.50411404162062
 21
11.62499954755267
 31
0.0
  0
LINE
  5
1102
330
10FA
100
AcDbEntity
  8
0
 62
     0
100
AcDbLine
 10
34.52110634279884
 20
8.608007246374427
 30
0.0
 11
33.12110634279881
 21
10.00800724637446
 31
0.0
  0
LINE
  5
1103
330
10FA
100
AcDbEntity
  8
0
 62
     0
100
AcDbLine
 10
32.07110634279885
 20
10.60899444032097
 30
0.0
 11
31.05510123556721
 21
11.62499954755261
 31
0.0
  0
LINE
  5
1104
330
10FA
100
AcDbEntity
  8
0
 62
     0
100
AcDbLine
 10
34.52110634279884
 20
8.158994440320981
 30
0.0
 11
33.12110634279881
 21
9.558994440321015
 31
0.0
  0
LINE
  5
1105
330
10FA
100
AcDbEntity
  8
0
 62
     0
100
AcDbLine
 10
32.07110634279888
 20
10.15998163426746
 30
0.0
 11
30.71835086023028
 21
11.51273711683603
 31
0.0
  0
LINE
  5
1106
330
10FA
100
AcDbEntity
  8
0
 62
     0
100
AcDbLine
 10
34.52110634279881
 20
7.709981634267506
 30
0.0
 11
33.12110634279881
 21
9.109981634267541
 31
0.0
  0
LINE
  5
1107
330
10FA
100
AcDbEntity
  8
0
 62
     0
100
AcDbLine
 10
32.07110634279888
 20
9.710968828213992
 30
0.0
 11
30.67110634279888
 21
11.11096882821402
 31
0.0
  0
LINE
  5
1108
330
10FA
100
AcDbEntity
  8
0
 62
     0
100
AcDbLine
 10
34.52110634279884
 20
7.26096882821406
 30
0.0
 11
33.12110634279881
 21
8.660968828214066
 31
0.0
  0
LINE
  5
1109
330
10FA
100
AcDbEntity
  8
0
 62
     0
100
AcDbLine
 10
32.07110634279888
 20
9.261956022160575
 30
0.0
 11
30.67110634279885
 21
10.66195602216058
 31
0.0
  0
LINE
  5
110A
330
10FA
100
AcDbEntity
  8
0
 62
     0
100
AcDbLine
 10
34.52110634279884
 20
6.811956022160615
 30
0.0
 11
33.12110634279881
 21
8.211956022160649
 31
0.0
  0
LINE
  5
110B
330
10FA
100
AcDbEntity
  8
0
 62
     0
100
AcDbLine
 10
32.07110634279888
 20
8.8129432161071
 30
0.0
 11
30.67110634279885
 21
10.21294321610713
 31
0.0
  0
LINE
  5
110C
330
10FA
100
AcDbEntity
  8
0
 62
     0
100
AcDbLine
 10
34.52110634279881
 20
6.36294321610714
 30
0.0
 11
33.12110634279878
 21
7.762943216107174
 31
0.0
  0
LINE
  5
110D
330
10FA
100
AcDbEntity
  8
0
 62
     0
100
AcDbLine
 10
32.07110634279885
 20
8.363930410053626
 30
0.0
 11
30.67110634279882
 21
9.76393041005366
 31
0.0
  0
LINE
  5
110E
330
10FA
100
AcDbEntity
  8
0
 62
     0
100
AcDbLine
 10
34.52110634279884
 20
5.913930410053637
 30
0.0
 11
33.12110634279878
 21
7.313930410053728
 31
0.0
  0
LINE
  5
110F
330
10FA
100
AcDbEntity
  8
0
 62
     0
100
AcDbLine
 10
32.07110634279888
 20
7.914917604000208
 30
0.0
 11
30.67110634279885
 21
9.314917604000243
 31
0.0
  0
LINE
  5
1110
330
10FA
100
AcDbEntity
  8
0
 62
     0
100
AcDbLine
 10
28.92110634279887
 20
11.06491760400021
 30
0.0
 11
28.36102439924639
 21
11.62499954755267
 31
0.0
  0
LINE
  5
1111
330
10FA
100
AcDbEntity
  8
0
 62
     0
100
AcDbLine
 10
34.52110634279887
 20
5.46491760400022
 30
0.0
 11
33.12110634279881
 21
6.864917604000282
 31
0.0
  0
LINE
  5
1112
330
10FA
100
AcDbEntity
  8
0
 62
     0
100
AcDbLine
 10
32.07110634279885
 20
7.465904797946734
 30
0.0
 11
30.67110634279885
 21
8.865904797946768
 31
0.0
  0
LINE
  5
1113
330
10FA
100
AcDbEntity
  8
0
 62
     0
100
AcDbLine
 10
28.92110634279887
 20
10.61590479794674
 30
0.0
 11
27.91201159319294
 21
11.62499954755267
 31
0.0
  0
LINE
  5
1114
330
10FA
100
AcDbEntity
  8
0
 62
     0
100
AcDbLine
 10
34.52110634279884
 20
5.015904797946745
 30
0.0
 11
33.12110634279884
 21
6.41590479794678
 31
0.0
  0
LINE
  5
1115
330
10FA
100
AcDbEntity
  8
0
 62
     0
100
AcDbLine
 10
32.07110634279885
 20
7.016891991893288
 30
0.0
 11
30.67110634279882
 21
8.416891991893294
 31
0.0
  0
LINE
  5
1116
330
10FA
100
AcDbEntity
  8
0
 62
     0
100
AcDbLine
 10
28.92110634279885
 20
10.16689199189329
 30
0.0
 11
27.57122498113676
 21
11.51677335355538
 31
0.0
  0
LINE
  5
1117
330
10FA
100
AcDbEntity
  8
0
 62
     0
100
AcDbLine
 10
34.52110634279884
 20
4.566891991893299
 30
0.0
 11
33.12110634279881
 21
5.966891991893305
 31
0.0
  0
LINE
  5
1118
330
10FA
100
AcDbEntity
  8
0
 62
     0
100
AcDbLine
 10
32.07110634279888
 20
6.567879185839814
 30
0.0
 11
30.67110634279885
 21
7.967879185839848
 31
0.0
  0
LINE
  5
1119
330
10FA
100
AcDbEntity
  8
0
 62
     0
100
AcDbLine
 10
28.92110634279887
 20
9.717879185839819
 30
0.0
 11
27.52110634279887
 21
11.11787918583979
 31
0.0
  0
LINE
  5
111A
330
10FA
100
AcDbEntity
  8
0
 62
     0
100
AcDbLine
 10
34.52110634279887
 20
4.117879185839825
 30
0.0
 11
33.12110634279884
 21
5.517879185839859
 31
0.0
  0
LINE
  5
111B
330
10FA
100
AcDbEntity
  8
0
 62
     0
100
AcDbLine
 10
32.07110634279885
 20
6.118866379786368
 30
0.0
 11
30.67110634279882
 21
7.518866379786402
 31
0.0
  0
LINE
  5
111C
330
10FA
100
AcDbEntity
  8
0
 62
     0
100
AcDbLine
 10
28.92110634279885
 20
9.268866379786373
 30
0.0
 11
27.52110634279887
 21
10.66886637978637
 31
0.0
  0
LINE
  5
111D
330
10FA
100
AcDbEntity
  8
0
 62
     0
100
AcDbLine
 10
34.48512366535388
 20
3.704849057231371
 30
0.0
 11
33.12110634279881
 21
5.068866379786413
 31
0.0
  0
LINE
  5
111E
330
10FA
100
AcDbEntity
  8
0
 62
     0
100
AcDbLine
 10
32.07110634279885
 20
5.669853573732922
 30
0.0
 11
30.67110634279882
 21
7.069853573732956
 31
0.0
  0
LINE
  5
111F
330
10FA
100
AcDbEntity
  8
0
 62
     0
100
AcDbLine
 10
28.92110634279885
 20
8.819853573732927
 30
0.0
 11
27.52110634279887
 21
10.2198535737329
 31
0.0
  0
LINE
  5
1120
330
10FA
100
AcDbEntity
  8
0
 62
     0
100
AcDbLine
 10
34.16596036897917
 20
3.574999547552607
 30
0.0
 11
33.12110634279881
 21
4.619853573732967
 31
0.0
  0
LINE
  5
1121
330
10FA
100
AcDbEntity
  8
0
 62
     0
100
AcDbLine
 10
28.92110634279885
 20
8.370840767679453
 30
0.0
 11
27.52110634279884
 21
9.770840767679459
 31
0.0
  0
LINE
  5
1122
330
10FA
100
AcDbEntity
  8
0
 62
     0
100
AcDbLine
 10
32.07110634279882
 20
5.220840767679447
 30
0.0
 11
30.67110634279882
 21
6.620840767679482
 31
0.0
  0
LINE
  5
1123
330
10FA
100
AcDbEntity
  8
0
 62
     0
100
AcDbLine
 10
26.20860634279881
 20
11.08334076767945
 30
0.0
 11
25.66694756292565
 21
11.62499954755264
 31
0.0
  0
LINE
  5
1124
330
10FA
100
AcDbEntity
  8
0
 62
     0
100
AcDbLine
 10
33.71694756292569
 20
3.574999547552579
 30
0.0
 11
33.12110634279881
 21
4.170840767679493
 31
0.0
  0
LINE
  5
1125
330
10FA
100
AcDbEntity
  8
0
 62
     0
100
AcDbLine
 10
28.92110634279885
 20
7.921827961626036
 30
0.0
 11
27.52110634279887
 21
9.321827961626013
 31
0.0
  0
LINE
  5
1126
330
10FA
100
AcDbEntity
  8
0
 62
     0
100
AcDbLine
 10
26.20860634279884
 20
10.63432796162604
 30
0.0
 11
25.21793475687221
 21
11.62499954755264
 31
0.0
  0
LINE
  5
1127
330
10FA
100
AcDbEntity
  8
0
 62
     0
100
AcDbLine
 10
32.05812719247609
 20
4.784807111948794
 30
0.0
 11
30.67110634279882
 21
6.171827961626036
 31
0.0
  0
LINE
  5
1128
330
10FA
100
AcDbEntity
  8
0
 62
     0
100
AcDbLine
 10
28.92110634279885
 20
7.472815155572561
 30
0.0
 11
27.52110634279884
 21
8.872815155572538
 31
0.0
  0
LINE
  5
1129
330
10FA
100
AcDbEntity
  8
0
 62
     0
100
AcDbLine
 10
26.1108160697419
 20
10.28310542862951
 30
0.0
 11
24.76892195081876
 21
11.62499954755264
 31
0.0
  0
LINE
  5
112A
330
10FA
100
AcDbEntity
  8
0
 62
     0
100
AcDbLine
 10
31.96163454484747
 20
4.432286953523913
 30
0.0
 11
30.67110634279882
 21
5.72281515557259
 31
0.0
  0
LINE
  5
112B
330
10FA
100
AcDbEntity
  8
0
 62
     0
100
AcDbLine
 10
28.92110634279882
 20
7.023802349519087
 30
0.0
 11
27.52110634279884
 21
8.423802349519093
 31
0.0
  0
LINE
  5
112C
330
10FA
100
AcDbEntity
  8
0
 62
     0
100
AcDbLine
 10
25.71990914476526
 20
10.22499954755264
 30
0.0
 11
24.31990914476529
 21
11.62499954755264
 31
0.0
  0
LINE
  5
112D
330
10FA
100
AcDbEntity
  8
0
 62
     0
100
AcDbLine
 10
31.79911860688565
 20
4.145790085432281
 30
0.0
 11
30.63534847321907
 21
5.309560219098869
 31
0.0
  0
LINE
  5
112E
330
10FA
100
AcDbEntity
  8
0
 62
     0
100
AcDbLine
 10
28.92110634279885
 20
6.574789543465669
 30
0.0
 11
27.52110634279887
 21
7.974789543465647
 31
0.0
  0
LINE
  5
112F
330
10FA
100
AcDbEntity
  8
0
 62
     0
100
AcDbLine
 10
25.27089633871185
 20
10.22499954755267
 30
0.0
 11
23.90211297412315
 21
11.59378291214136
 31
0.0
  0
LINE
  5
1130
330
10FA
100
AcDbEntity
  8
0
 62
     0
100
AcDbLine
 10
31.58309770822313
 20
3.912798178041384
 30
0.0
 11
30.43455565398522
 21
5.061340232279263
 31
0.0
  0
LINE
  5
1131
330
10FA
100
AcDbEntity
  8
0
 62
     0
100
AcDbLine
 10
28.92110634279885
 20
6.125776737412195
 30
0.0
 11
27.52110634279884
 21
7.525776737412201
 31
0.0
  0
LINE
  5
1132
330
10FA
100
AcDbEntity
  8
0
 62
     0
100
AcDbLine
 10
24.82188353265843
 20
10.22499954755261
 30
0.0
 11
23.56979276185652
 21
11.47709031835452
 31
0.0
  0
LINE
  5
1133
330
10FA
100
AcDbEntity
  8
0
 62
     0
100
AcDbLine
 10
31.31501653576012
 20
3.731866544450923
 30
0.0
 11
30.07188353265843
 21
4.974999547552613
 31
0.0
  0
LINE
  5
1134
330
10FA
100
AcDbEntity
  8
0
 62
     0
100
AcDbLine
 10
28.92110634279882
 20
5.676763931358749
 30
0.0
 11
27.52110634279884
 21
7.076763931358726
 31
0.0
  0
LINE
  5
1135
330
10FA
100
AcDbEntity
  8
0
 62
     0
100
AcDbLine
 10
24.38376564061403
 20
10.21410463354354
 30
0.0
 11
23.29849229325142
 21
11.29937798090614
 31
0.0
  0
LINE
  5
1136
330
10FA
100
AcDbEntity
  8
0
 62
     0
100
AcDbLine
 10
30.98681025580441
 20
3.611060018353157
 30
0.0
 11
29.62287072660492
 21
4.974999547552641
 31
0.0
  0
LINE
  5
1137
330
10FA
100
AcDbEntity
  8
0
 62
     0
100
AcDbLine
 10
24.19610634279885
 20
9.95275112530524
 30
0.0
 11
23.07943626372915
 21
11.06942120437494
 31
0.0
  0
LINE
  5
1138
330
10FA
100
AcDbEntity
  8
0
 62
     0
100
AcDbLine
 10
30.57385792055149
 20
3.574999547552607
 30
0.0
 11
27.52110634279882
 21
6.627751125305252
 31
0.0
  0
LINE
  5
1139
330
10FA
100
AcDbEntity
  8
0
 62
     0
100
AcDbLine
 10
24.19610634279885
 20
9.503738319251795
 30
0.0
 11
22.91355080755266
 21
10.78629385449801
 31
0.0
  0
LINE
  5
113A
330
10FA
100
AcDbEntity
  8
0
 62
     0
100
AcDbLine
 10
30.12484511449804
 20
3.574999547552607
 30
0.0
 11
27.52110634279884
 21
6.178738319251834
 31
0.0
  0
LINE
  5
113B
330
10FA
100
AcDbEntity
  8
0
 62
     0
100
AcDbLine
 10
24.29937848335072
 20
8.951453372646483
 30
0.0
 11
22.81246154787061
 21
10.43837030812659
 31
0.0
  0
LINE
  5
113C
330
10FA
100
AcDbEntity
  8
0
 62
     0
100
AcDbLine
 10
29.67583230844454
 20
3.574999547552636
 30
0.0
 11
27.52110634279884
 21
5.72972551319836
 31
0.0
  0
LINE
  5
113D
330
10FA
100
AcDbEntity
  8
0
 62
     0
100
AcDbLine
 10
26.40790819414448
 20
6.393910855799248
 30
0.0
 11
22.79610634279882
 21
10.0057127071449
 31
0.0
  0
LINE
  5
113E
330
10FA
100
AcDbEntity
  8
0
 62
     0
100
AcDbLine
 10
21.7461063427988
 20
11.05571270714489
 30
0.0
 11
21.17681950239108
 21
11.62499954755264
 31
0.0
  0
LINE
  5
113F
330
10FA
100
AcDbEntity
  8
0
 62
     0
100
AcDbLine
 10
29.22681950239112
 20
3.574999547552607
 30
0.0
 11
27.52110634279882
 21
5.280712707144914
 31
0.0
  0
LINE
  5
1140
330
10FA
100
AcDbEntity
  8
0
 62
     0
100
AcDbLine
 10
26.47110634279883
 20
5.881699901091479
 30
0.0
 11
22.79610634279882
 21
9.556699901091462
 31
0.0
  0
LINE
  5
1141
330
10FA
100
AcDbEntity
  8
0
 62
     0
100
AcDbLine
 10
21.74610634279884
 20
10.60669990109147
 30
0.0
 11
20.72780669633766
 21
11.62499954755261
 31
0.0
  0
LINE
  5
1142
330
10FA
100
AcDbEntity
  8
0
 62
     0
100
AcDbLine
 10
28.76958275696526
 20
3.583223486925049
 30
0.0
 11
27.52933028217126
 21
4.823475961719026
 31
0.0
  0
LINE
  5
1143
330
10FA
100
AcDbEntity
  8
0
 62
     0
100
AcDbLine
 10
21.7461063427988
 20
10.15768709503799
 30
0.0
 11
20.3924113989112
 21
11.51138203892563
 31
0.0
  0
LINE
  5
1144
330
10FA
100
AcDbEntity
  8
0
 62
     0
100
AcDbLine
 10
26.47110634279883
 20
5.432687095038005
 30
0.0
 11
22.80781167674007
 21
9.095981761096737
 31
0.0
  0
LINE
  5
1145
330
10FA
100
AcDbEntity
  8
0
 62
     0
100
AcDbLine
 10
21.7461063427988
 20
9.708674288984553
 30
0.0
 11
20.34610634279883
 21
11.10867428898453
 31
0.0
  0
LINE
  5
1146
330
10FA
100
AcDbEntity
  8
0
 62
     0
100
AcDbLine
 10
26.47110634279886
 20
4.983674288984502
 30
0.0
 11
22.96687138566017
 21
8.487909246123194
 31
0.0
  0
LINE
  5
1147
330
10FA
100
AcDbEntity
  8
0
 62
     0
100
AcDbLine
 10
21.74610634279884
 20
9.259661482931079
 30
0.0
 11
20.34610634279883
 21
10.65966148293105
 31
0.0
  0
LINE
  5
1148
330
10FA
100
AcDbEntity
  8
0
 62
     0
100
AcDbLine
 10
26.41682543400432
 20
4.588942391725595
 30
0.0
 11
25.06900803948511
 21
5.936759786244806
 31
0.0
  0
LINE
  5
1149
330
10FA
100
AcDbEntity
  8
0
 62
     0
100
AcDbLine
 10
21.7461063427988
 20
8.810648676877661
 30
0.0
 11
20.34610634279883
 21
10.21064867687764
 31
0.0
  0
LINE
  5
114A
330
10FA
100
AcDbEntity
  8
0
 62
     0
100
AcDbLine
 10
19.20036289251032
 20
11.35639212716614
 30
0.0
 11
18.93175547212382
 21
11.62499954755264
 31
0.0
  0
LINE
  5
114B
330
10FA
100
AcDbEntity
  8
0
 62
     0
100
AcDbLine
 10
26.28288758012348
 20
4.273867439552986
 30
0.0
 11
25.07110634279888
 21
5.485648676877588
 31
0.0
  0
LINE
  5
114C
330
10FA
100
AcDbEntity
  8
0
 62
     0
100
AcDbLine
 10
21.7461063427988
 20
8.361635870824187
 30
0.0
 11
20.3461063427988
 21
9.761635870824164
 31
0.0
  0
LINE
  5
114D
330
10FA
100
AcDbEntity
  8
0
 62
     0
100
AcDbLine
 10
19.10089906038402
 20
11.00684315323897
 30
0.0
 11
18.48274266607032
 21
11.62499954755267
 31
0.0
  0
LINE
  5
114E
330
10FA
100
AcDbEntity
  8
0
 62
     0
100
AcDbLine
 10
26.09139418103584
 20
4.016348032587131
 30
0.0
 11
25.02246375135559
 21
5.085278462267382
 31
0.0
  0
LINE
  5
114F
330
10FA
100
AcDbEntity
  8
0
 62
     0
100
AcDbLine
 10
21.74610634279878
 20
7.912623064770713
 30
0.0
 11
20.3461063427988
 21
9.312623064770718
 31
0.0
  0
LINE
  5
1150
330
10FA
100
AcDbEntity
  8
0
 62
     0
100
AcDbLine
 10
18.9931359869312
 20
10.66559342063831
 30
0.0
 11
18.03852820519585
 21
11.62020120237363
 31
0.0
  0
LINE
  5
1151
330
10FA
100
AcDbEntity
  8
0
 62
     0
100
AcDbLine
 10
25.84823469847799
 20
3.8104947090915
 30
0.0
 11
24.68372986001691
 21
4.974999547552613
 31
0.0
  0
LINE
  5
1152
330
10FA
100
AcDbEntity
  8
0
 62
     0
100
AcDbLine
 10
21.7461063427988
 20
7.463610258717295
 30
0.0
 11
20.34610634279886
 21
8.863610258717244
 31
0.0
  0
LINE
  5
1153
330
10FA
100
AcDbEntity
  8
0
 62
     0
100
AcDbLine
 10
18.88537291347839
 20
10.32434368803768
 30
0.0
 11
17.82137291347837
 21
11.38834368803773
 31
0.0
  0
LINE
  5
1154
330
10FA
100
AcDbEntity
  8
0
 62
     0
100
AcDbLine
 10
25.55019272424781
 20
3.65952387726827
 30
0.0
 11
24.23471705396349
 21
4.974999547552613
 31
0.0
  0
LINE
  5
1155
330
10FA
100
AcDbEntity
  8
0
 62
     0
100
AcDbLine
 10
21.7461063427988
 20
7.014597452663821
 30
0.0
 11
20.34610634279886
 21
8.41459745266377
 31
0.0
  0
LINE
  5
1156
330
10FA
100
AcDbEntity
  8
0
 62
     0
100
AcDbLine
 10
18.77760984002551
 20
9.983093955437112
 30
0.0
 11
17.71360984002549
 21
11.04709395543713
 31
0.0
  0
LINE
  5
1157
330
10FA
100
AcDbEntity
  8
0
 62
     0
100
AcDbLine
 10
25.18135639842407
 20
3.57934739703856
 30
0.0
 11
23.78570424790999
 21
4.974999547552641
 31
0.0
  0
LINE
  5
1158
330
10FA
100
AcDbEntity
  8
0
 62
     0
100
AcDbLine
 10
21.74610634279878
 20
6.565584646610375
 30
0.0
 11
20.34610634279883
 21
7.965584646610295
 31
0.0
  0
LINE
  5
1159
330
10FA
100
AcDbEntity
  8
0
 62
     0
100
AcDbLine
 10
18.6698467665727
 20
9.641844222836425
 30
0.0
 11
17.60584676657268
 21
10.70584422283647
 31
0.0
  0
LINE
  5
115A
330
10FA
100
AcDbEntity
  8
0
 62
     0
100
AcDbLine
 10
24.73669144185655
 20
3.574999547552607
 30
0.0
 11
23.33669144185648
 21
4.97499954755267
 31
0.0
  0
LINE
  5
115B
330
10FA
100
AcDbEntity
  8
0
 62
     0
100
AcDbLine
 10
21.7461063427988
 20
6.116571840556929
 30
0.0
 11
20.34610634279886
 21
7.516571840556878
 31
0.0
  0
LINE
  5
115C
330
10FA
100
AcDbEntity
  8
0
 62
     0
100
AcDbLine
 10
18.56208369311985
 20
9.30059449023588
 30
0.0
 11
17.49808369311983
 21
10.3645944902359
 31
0.0
  0
LINE
  5
115D
330
10FA
100
AcDbEntity
  8
0
 62
     0
100
AcDbLine
 10
24.2876786358031
 20
3.574999547552636
 30
0.0
 11
23.07087278715493
 21
4.7918053962008
 31
0.0
  0
LINE
  5
115E
330
10FA
100
AcDbEntity
  8
0
 62
     0
100
AcDbLine
 10
18.45432061966707
 20
8.959344757635193
 30
0.0
 11
17.39032061966702
 21
10.02334475763521
 31
0.0
  0
LINE
  5
115F
330
10FA
100
AcDbEntity
  8
0
 62
     0
100
AcDbLine
 10
21.74610634279878
 20
5.667559034503454
 30
0.0
 11
20.34610634279883
 21
7.067559034503403
 31
0.0
  0
LINE
  5
1160
330
10FA
100
AcDbEntity
  8
0
 62
     0
100
AcDbLine
 10
16.32110634279885
 20
11.09255903450341
 30
0.0
 11
15.78866582974959
 21
11.62499954755267
 31
0.0
  0
LINE
  5
1161
330
10FA
100
AcDbEntity
  8
0
 62
     0
100
AcDbLine
 10
23.83866582974965
 20
3.574999547552607
 30
0.0
 11
23.05860634279886
 21
4.355059034503398
 31
0.0
  0
LINE
  5
1162
330
10FA
100
AcDbEntity
  8
0
 62
     0
100
AcDbLine
 10
18.34655754621417
 20
8.618095025034591
 30
0.0
 11
17.28255754621415
 21
9.682095025034641
 31
0.0
  0
LINE
  5
1163
330
10FA
100
AcDbEntity
  8
0
 62
     0
100
AcDbLine
 10
21.7461063427988
 20
5.218546228449952
 30
0.0
 11
20.34610634279883
 21
6.618546228449957
 31
0.0
  0
LINE
  5
1164
330
10FA
100
AcDbEntity
  8
0
 62
     0
100
AcDbLine
 10
16.32110634279885
 20
10.64354622844993
 30
0.0
 11
15.33965302369617
 21
11.62499954755261
 31
0.0
  0
LINE
  5
1165
330
10FA
100
AcDbEntity
  8
0
 62
     0
100
AcDbLine
 10
23.38965302369618
 20
3.574999547552607
 30
0.0
 11
23.05860634279884
 21
3.906046228449952
 31
0.0
  0
LINE
  5
1166
330
10FA
100
AcDbEntity
  8
0
 62
     0
100
AcDbLine
 10
18.23879447276138
 20
8.276845292433932
 30
0.0
 11
17.17479447276136
 21
9.340845292433954
 31
0.0
  0
LINE
  5
1167
330
10FA
100
AcDbEntity
  8
0
 62
     0
100
AcDbLine
 10
16.32110634279888
 20
10.19453342239643
 30
0.0
 11
14.98338387834999
 21
11.53225588684531
 31
0.0
  0
LINE
  5
1168
330
10FA
100
AcDbEntity
  8
0
 62
     0
100
AcDbLine
 10
21.7461063427988
 20
4.769533422396506
 30
0.0
 11
20.34610634279883
 21
6.169533422396483
 31
0.0
  0
LINE
  5
1169
330
10FA
100
AcDbEntity
  8
0
 62
     0
100
AcDbLine
 10
18.13103139930854
 20
7.935595559833359
 30
0.0
 11
17.06703139930849
 21
8.999595559833409
 31
0.0
  0
LINE
  5
116A
330
10FA
100
AcDbEntity
  8
0
 62
     0
100
AcDbLine
 10
16.32110634279888
 20
9.745520616342986
 30
0.0
 11
14.92110634279882
 21
11.14552061634307
 31
0.0
  0
LINE
  5
116B
330
10FA
100
AcDbEntity
  8
0
 62
     0
100
AcDbLine
 10
21.74610634279884
 20
4.32052061634306
 30
0.0
 11
20.34610634279883
 21
5.720520616343065
 31
0.0
  0
LINE
  5
116C
330
10FA
100
AcDbEntity
  8
0
 62
     0
100
AcDbLine
 10
18.02848714461257
 20
7.589127008475855
 30
0.0
 11
16.9592683258557
 21
8.658345827232722
 31
0.0
  0
LINE
  5
116D
330
10FA
100
AcDbEntity
  8
0
 62
     0
100
AcDbLine
 10
16.32110634279888
 20
9.29650781028954
 30
0.0
 11
14.92110634279882
 21
10.6965078102896
 31
0.0
  0
LINE
  5
116E
330
10FA
100
AcDbEntity
  8
0
 62
     0
100
AcDbLine
 10
21.7461063427988
 20
3.871507810289614
 30
0.0
 11
20.34610634279886
 21
5.271507810289534
 31
0.0
  0
LINE
  5
116F
330
10FA
100
AcDbEntity
  8
0
 62
     0
100
AcDbLine
 10
18.23572382432962
 20
6.932877522705325
 30
0.0
 11
16.8139945780133
 21
8.354606769021643
 31
0.0
  0
LINE
  5
1170
330
10FA
100
AcDbEntity
  8
0
 62
     0
100
AcDbLine
 10
16.32110634279885
 20
8.847495004236066
 30
0.0
 11
14.92110634279879
 21
10.24749500423612
 31
0.0
  0
LINE
  5
1171
330
10FA
100
AcDbEntity
  8
0
 62
     0
100
AcDbLine
 10
21.57658384413261
 20
3.592017502902336
 30
0.0
 11
20.34610634279886
 21
4.822495004236088
 31
0.0
  0
LINE
  5
1172
330
10FA
100
AcDbEntity
  8
0
 62
     0
100
AcDbLine
 10
18.44296050404659
 20
6.276628036934937
 30
0.0
 11
14.92110634279882
 21
9.798482198182711
 31
0.0
  0
LINE
  5
1173
330
10FA
100
AcDbEntity
  8
0
 62
     0
100
AcDbLine
 10
13.69610634279888
 20
11.02348219818264
 30
0.0
 11
13.09458899342885
 21
11.62499954755264
 31
0.0
  0
LINE
  5
1174
330
10FA
100
AcDbEntity
  8
0
 62
     0
100
AcDbLine
 10
21.14458899342889
 20
3.574999547552636
 30
0.0
 11
20.34610634279886
 21
4.373482198182642
 31
0.0
  0
LINE
  5
1175
330
10FA
100
AcDbEntity
  8
0
 62
     0
100
AcDbLine
 10
18.65019718376359
 20
5.620378551164463
 30
0.0
 11
14.92110634279879
 21
9.349469392129236
 31
0.0
  0
LINE
  5
1176
330
10FA
100
AcDbEntity
  8
0
 62
     0
100
AcDbLine
 10
13.69610634279888
 20
10.57446939212917
 30
0.0
 11
12.64557618737544
 21
11.62499954755261
 31
0.0
  0
LINE
  5
1177
330
10FA
100
AcDbEntity
  8
0
 62
     0
100
AcDbLine
 10
20.69557618737542
 20
3.574999547552636
 30
0.0
 11
20.34610634279886
 21
3.924469392129196
 31
0.0
  0
LINE
  5
1178
330
10FA
100
AcDbEntity
  8
0
 62
     0
100
AcDbLine
 10
13.56265299510374
 20
10.25890993377083
 30
0.0
 11
12.21254213599803
 21
11.60902079287652
 31
0.0
  0
LINE
  5
1179
330
10FA
100
AcDbEntity
  8
0
 62
     0
100
AcDbLine
 10
18.85743386348056
 20
4.964129065394018
 30
0.0
 11
14.92110634279879
 21
8.90045658607579
 31
0.0
  0
LINE
  5
117A
330
10FA
100
AcDbEntity
  8
0
 62
     0
100
AcDbLine
 10
16.48986080396957
 20
6.882689318851561
 30
0.0
 11
14.92110634279885
 21
8.451443780022287
 31
0.0
  0
LINE
  5
117B
330
10FA
100
AcDbEntity
  8
0
 62
     0
100
AcDbLine
 10
13.14755057526849
 20
10.22499954755264
 30
0.0
 11
11.8435206012044
 21
11.52902952161673
 31
0.0
  0
LINE
  5
117C
330
10FA
100
AcDbEntity
  8
0
 62
     0
100
AcDbLine
 10
19.06467054319759
 20
4.307879579623545
 30
0.0
 11
17.01851669704359
 21
6.354033425777544
 31
0.0
  0
LINE
  5
117D
330
10FA
100
AcDbEntity
  8
0
 62
     0
100
AcDbLine
 10
16.32110634279891
 20
6.602430973968779
 30
0.0
 11
14.92110634279885
 21
8.002430973968841
 31
0.0
  0
LINE
  5
117E
330
10FA
100
AcDbEntity
  8
0
 62
     0
100
AcDbLine
 10
12.69853776921502
 20
10.22499954755264
 30
0.0
 11
11.52415989328903
 21
11.39937742347862
 31
0.0
  0
LINE
  5
117F
330
10FA
100
AcDbEntity
  8
0
 62
     0
100
AcDbLine
 10
19.18218997205284
 20
3.741347344714853
 30
0.0
 11
17.22575337676056
 21
5.697783940007127
 31
0.0
  0
LINE
  5
1180
330
10FA
100
AcDbEntity
  8
0
 62
     0
100
AcDbLine
 10
16.32110634279885
 20
6.153418167915361
 30
0.0
 11
14.92110634279882
 21
7.553418167915395
 31
0.0
  0
LINE
  5
1181
330
10FA
100
AcDbEntity
  8
0
 62
     0
100
AcDbLine
 10
12.27698101794325
 20
10.19754349277096
 30
0.0
 11
11.24478540562176
 21
11.22973910509244
 31
0.0
  0
LINE
  5
1182
330
10FA
100
AcDbEntity
  8
0
 62
     0
100
AcDbLine
 10
18.89952496316155
 20
3.574999547552664
 30
0.0
 11
17.43299005647756
 21
5.041534454236654
 31
0.0
  0
LINE
  5
1183
330
10FA
100
AcDbEntity
  8
0
 62
     0
100
AcDbLine
 10
16.32110634279885
 20
5.704405361861887
 30
0.0
 11
14.92110634279882
 21
7.104405361861921
 31
0.0
  0
LINE
  5
1184
330
10FA
100
AcDbEntity
  8
0
 62
     0
100
AcDbLine
 10
11.99105292152376
 20
10.03445878313698
 30
0.0
 11
11.00095780131587
 21
11.02455390334486
 31
0.0
  0
LINE
  5
1185
330
10FA
100
AcDbEntity
  8
0
 62
     0
100
AcDbLine
 10
18.4505121571081
 20
3.574999547552636
 30
0.0
 11
17.6402267361945
 21
4.385284968466237
 31
0.0
  0
LINE
  5
1186
330
10FA
100
AcDbEntity
  8
0
 62
     0
100
AcDbLine
 10
13.86382090919767
 20
7.712677989409655
 30
0.0
 11
13.10878478465579
 21
8.467714113951501
 31
0.0
  0
LINE
  5
1187
330
10FA
100
AcDbEntity
  8
0
 62
     0
100
AcDbLine
 10
16.32110634279885
 20
5.255392555808469
 30
0.0
 11
14.92110634279882
 21
6.655392555808475
 31
0.0
  0
LINE
  5
1188
330
10FA
100
AcDbEntity
  8
0
 62
     0
100
AcDbLine
 10
11.81299213645928
 20
9.76350676214804
 30
0.0
 11
10.79127478831026
 21
10.78522411029706
 31
0.0
  0
LINE
  5
1189
330
10FA
100
AcDbEntity
  8
0
 62
     0
100
AcDbLine
 10
17.97633284895226
 20
3.600166049655058
 30
0.0
 11
17.85115576315692
 21
3.725343135450401
 31
0.0
  0
LINE
  5
118A
330
10FA
100
AcDbEntity
  8
0
 62
     0
100
AcDbLine
 10
13.82056407912671
 20
7.30692201342714
 30
0.0
 11
12.70302880867328
 21
8.424457283880542
 31
0.0
  0
LINE
  5
118B
330
10FA
100
AcDbEntity
  8
0
 62
     0
100
AcDbLine
 10
11.77110634279887
 20
9.356379749754978
 30
0.0
 11
10.61680527782942
 21
10.51068081472442
 31
0.0
  0
LINE
  5
118C
330
10FA
100
AcDbEntity
  8
0
 62
     0
100
AcDbLine
 10
16.32110634279885
 20
4.806379749754995
 30
0.0
 11
14.92110634279882
 21
6.206379749755029
 31
0.0
  0
LINE
  5
118D
330
10FA
100
AcDbEntity
  8
0
 62
     0
100
AcDbLine
 10
13.65463629947771
 20
7.023836987022662
 30
0.0
 11
12.41994378226883
 21
8.258529504231546
 31
0.0
  0
LINE
  5
118E
330
10FA
100
AcDbEntity
  8
0
 62
     0
100
AcDbLine
 10
11.77110634279884
 20
8.907366943701532
 30
0.0
 11
10.48151542422434
 21
10.19695786227603
 31
0.0
  0
LINE
  5
118F
330
10FA
100
AcDbEntity
  8
0
 62
     0
100
AcDbLine
 10
16.32110634279882
 20
4.357366943701521
 30
0.0
 11
14.92110634279882
 21
5.757366943701555
 31
0.0
  0
LINE
  5
1190
330
10FA
100
AcDbEntity
  8
0
 62
     0
100
AcDbLine
 10
11.77110634279887
 20
8.458354137648086
 30
0.0
 11
10.39415848776141
 21
9.835301992685543
 31
0.0
  0
LINE
  5
1191
330
10FA
100
AcDbEntity
  8
0
 62
     0
100
AcDbLine
 10
13.40371957840946
 20
6.825740902037495
 30
0.0
 11
12.22184769728366
 21
8.007612783163295
 31
0.0
  0
LINE
  5
1192
330
10FA
100
AcDbEntity
  8
0
 62
     0
100
AcDbLine
 10
9.05860634279881
 20
11.17085413764812
 30
0.0
 11
8.604460932894284
 21
11.62499954755267
 31
0.0
  0
LINE
  5
1193
330
10FA
100
AcDbEntity
  8
0
 62
     0
100
AcDbLine
 10
16.32110634279885
 20
3.908354137648103
 30
0.0
 11
14.92110634279882
 21
5.308354137648137
 31
0.0
  0
LINE
  5
1194
330
10FA
100
AcDbEntity
  8
0
 62
     0
100
AcDbLine
 10
11.77110634279884
 20
8.009341331594612
 30
0.0
 11
10.37110634279878
 21
9.409341331594703
 31
0.0
  0
LINE
  5
1195
330
10FA
100
AcDbEntity
  8
0
 62
     0
100
AcDbLine
 10
13.05355985719575
 20
6.726887817197734
 30
0.0
 11
12.12299461244387
 21
7.657453061949581
 31
0.0
  0
LINE
  5
1196
330
10FA
100
AcDbEntity
  8
0
 62
     0
100
AcDbLine
 10
9.05860634279881
 20
10.72184133159467
 30
0.0
 11
8.155448126840809
 21
11.62499954755264
 31
0.0
  0
LINE
  5
1197
330
10FA
100
AcDbEntity
  8
0
 62
     0
100
AcDbLine
 10
16.17715444216349
 20
3.603293232229987
 30
0.0
 11
14.92110634279882
 21
4.859341331594663
 31
0.0
  0
LINE
  5
1198
330
10FA
100
AcDbEntity
  8
0
 62
     0
100
AcDbLine
 10
11.77110634279884
 20
7.560328525541166
 30
0.0
 11
10.37110634279878
 21
8.960328525541228
 31
0.0
  0
LINE
  5
1199
330
10FA
100
AcDbEntity
  8
0
 62
     0
100
AcDbLine
 10
9.004089357663644
 20
10.32734551067636
 30
0.0
 11
7.706435320787363
 21
11.62499954755264
 31
0.0
  0
LINE
  5
119A
330
10FA
100
AcDbEntity
  8
0
 62
     0
100
AcDbLine
 10
15.7564353207874
 20
3.574999547552579
 30
0.0
 11
14.92110634279879
 21
4.410328525541189
 31
0.0
  0
LINE
  5
119B
330
10FA
100
AcDbEntity
  8
0
 62
     0
100
AcDbLine
 10
11.77110634279884
 20
7.111315719487691
 30
0.0
 11
10.37110634279875
 21
8.511315719487754
 31
0.0
  0
LINE
  5
119C
330
10FA
100
AcDbEntity
  8
0
 62
     0
100
AcDbLine
 10
8.657422514733895
 20
10.22499954755264
 30
0.0
 11
7.257422514733889
 21
11.62499954755261
 31
0.0
  0
LINE
  5
119D
330
10FA
100
AcDbEntity
  8
0
 62
     0
100
AcDbLine
 10
15.3074225147339
 20
3.574999547552607
 30
0.0
 11
14.92110634279879
 21
3.961315719487743
 31
0.0
  0
LINE
  5
119E
330
10FA
100
AcDbEntity
  8
0
 62
     0
100
AcDbLine
 10
11.77110634279884
 20
6.662302913434274
 30
0.0
 11
10.37110634279878
 21
8.062302913434336
 31
0.0
  0
LINE
  5
119F
330
10FA
100
AcDbEntity
  8
0
 62
     0
100
AcDbLine
 10
8.208409708680477
 20
10.22499954755261
 30
0.0
 11
6.825845072628055
 21
11.60756418360506
 31
0.0
  0
LINE
  5
11A0
330
10FA
100
AcDbEntity
  8
0
 62
     0
100
AcDbLine
 10
13.69480511838031
 20
4.738604137852775
 30
0.0
 11
13.45971093309896
 21
4.973698323134158
 31
0.0
  0
LINE
  5
11A1
330
10FA
100
AcDbEntity
  8
0
 62
     0
100
AcDbLine
 10
11.77110634279884
 20
6.2132901073808
 30
0.0
 11
10.37110634279881
 21
7.613290107380834
 31
0.0
  0
LINE
  5
11A2
330
10FA
100
AcDbEntity
  8
0
 62
     0
100
AcDbLine
 10
7.759396902626974
 20
10.22499954755264
 30
0.0
 11
6.479277668388817
 21
11.50511878179082
 31
0.0
  0
LINE
  5
11A3
330
10FA
100
AcDbEntity
  8
0
 62
     0
100
AcDbLine
 10
13.69610634279885
 20
4.28829010738076
 30
0.0
 11
13.009396902627
 21
4.974999547552641
 31
0.0
  0
LINE
  5
11A4
330
10FA
100
AcDbEntity
  8
0
 62
     0
100
AcDbLine
 10
11.77110634279881
 20
5.764277301327325
 30
0.0
 11
10.37110634279881
 21
7.164277301327359
 31
0.0
  0
LINE
  5
11A5
330
10FA
100
AcDbEntity
  8
0
 62
     0
100
AcDbLine
 10
7.310384096573528
 20
10.22499954755264
 30
0.0
 11
6.197154338465225
 21
11.33822930566094
 31
0.0
  0
LINE
  5
11A6
330
10FA
100
AcDbEntity
  8
0
 62
     0
100
AcDbLine
 10
13.69610634279885
 20
3.839277301327314
 30
0.0
 11
12.56038409657352
 21
4.974999547552641
 31
0.0
  0
LINE
  5
11A7
330
10FA
100
AcDbEntity
  8
0
 62
     0
100
AcDbLine
 10
7.055237682766289
 20
10.03113315530643
 30
0.0
 11
5.968107932344821
 21
11.1182629057279
 31
0.0
  0
LINE
  5
11A8
330
10FA
100
AcDbEntity
  8
0
 62
     0
100
AcDbLine
 10
13.50223995055262
 20
3.584130887520132
 30
0.0
 11
10.37110634279881
 21
6.715264495273942
 31
0.0
  0
LINE
  5
11A9
330
10FA
100
AcDbEntity
  8
0
 62
     0
100
AcDbLine
 10
7.046106342798879
 20
9.591251689220399
 30
0.0
 11
5.791367331110308
 21
10.84599070090897
 31
0.0
  0
LINE
  5
11AA
330
10FA
100
AcDbEntity
  8
0
 62
     0
100
AcDbLine
 10
13.06235848446667
 20
3.574999547552607
 30
0.0
 11
10.37110634279881
 21
6.266251689220467
 31
0.0
  0
LINE
  5
11AB
330
10FA
100
AcDbEntity
  8
0
 62
     0
100
AcDbLine
 10
7.077174196866678
 20
9.111171029099125
 30
0.0
 11
5.675927279963417
 21
10.51241794600238
 31
0.0
  0
LINE
  5
11AC
330
10FA
100
AcDbEntity
  8
0
 62
     0
100
AcDbLine
 10
12.61334567841319
 20
3.574999547552607
 30
0.0
 11
10.37110634279878
 21
5.817238883166993
 31
0.0
  0
LINE
  5
11AD
330
10FA
100
AcDbEntity
  8
0
 62
     0
100
AcDbLine
 10
9.223294388410153
 20
6.516038031502176
 30
0.0
 11
5.646106342798844
 21
10.09322607711351
 31
0.0
  0
LINE
  5
11AE
330
10FA
100
AcDbEntity
  8
0
 62
     0
100
AcDbLine
 10
12.13769682883139
 20
3.601635591080963
 30
0.0
 11
10.39774238632711
 21
5.341590033585248
 31
0.0
  0
LINE
  5
11AF
330
10FA
100
AcDbEntity
  8
0
 62
     0
100
AcDbLine
 10
9.319241645452763
 20
5.971077968406149
 30
0.0
 11
5.646106342798844
 21
9.644213271060067
 31
0.0
  0
LINE
  5
11B0
330
10FA
100
AcDbEntity
  8
0
 62
     0
100
AcDbLine
 10
11.45079287253059
 20
3.839526741328285
 30
0.0
 11
10.6356335365744
 21
4.654686077284509
 31
0.0
  0
LINE
  5
11B1
330
10FA
100
AcDbEntity
  8
0
 62
     0
100
AcDbLine
 10
9.321106342798856
 20
5.520200465006553
 30
0.0
 11
5.649888566509957
 21
9.191418241295451
 31
0.0
  0
LINE
  5
11B2
330
10FA
100
AcDbEntity
  8
0
 62
     0
100
AcDbLine
 10
9.321106342798884
 20
5.07118765895305
 30
0.0
 11
5.761533945671885
 21
8.630760056080049
 31
0.0
  0
LINE
  5
11B3
330
10FA
100
AcDbEntity
  8
0
 62
     0
100
AcDbLine
 10
9.284846344732812
 20
4.658434850965733
 30
0.0
 11
7.903150522923311
 21
6.040130672775234
 31
0.0
  0
LINE
  5
11B4
330
10FA
100
AcDbEntity
  8
0
 62
     0
100
AcDbLine
 10
9.16387737521839
 20
4.33039101442668
 30
0.0
 11
7.921106342798879
 21
5.573162046846192
 31
0.0
  0
LINE
  5
11B5
330
10FA
100
AcDbEntity
  8
0
 62
     0
100
AcDbLine
 10
8.982817751527505
 20
4.062437832064091
 30
0.0
 11
7.903156826648455
 21
5.142098756943113
 31
0.0
  0
LINE
  5
11B6
330
10FA
100
AcDbEntity
  8
0
 62
     0
100
AcDbLine
 10
8.749704565394068
 20
3.846538212144082
 30
0.0
 11
7.621243229985509
 21
4.97499954755267
 31
0.0
  0
LINE
  5
11B7
330
10FA
100
AcDbEntity
  8
0
 62
     0
100
AcDbLine
 10
8.463072341527663
 20
3.684157629957041
 30
0.0
 11
7.172230423932035
 21
4.974999547552641
 31
0.0
  0
LINE
  5
11B8
330
10FA
100
AcDbEntity
  8
0
 62
     0
100
AcDbLine
 10
8.110366046984694
 20
3.587851118446536
 30
0.0
 11
6.723217617878589
 21
4.974999547552641
 31
0.0
  0
LINE
  5
11B9
330
10FA
100
AcDbEntity
  8
0
 62
     0
100
AcDbLine
 10
7.674204811825148
 20
3.574999547552607
 30
0.0
 11
6.274204811825171
 21
4.974999547552584
 31
0.0
  0
LINE
  5
11BA
330
10FA
100
AcDbEntity
  8
0
 62
     0
100
AcDbLine
 10
7.225192005771702
 20
3.574999547552607
 30
0.0
 11
5.948530058362763
 21
4.851661494961575
 31
0.0
  0
LINE
  5
11BB
330
10FA
100
AcDbEntity
  8
0
 62
     0
100
AcDbLine
 10
6.7761791997182
 20
3.574999547552636
 30
0.0
 11
5.908606342798805
 21
4.442572404472031
 31
0.0
  0
LINE
  5
11BC
330
10FA
100
AcDbEntity
  8
0
 62
     0
100
AcDbLine
 10
6.327166393664754
 20
3.574999547552636
 30
0.0
 11
5.908606342798805
 21
3.993559598418585
 31
0.0
  0
LINE
  5
11BD
330
10FA
100
AcDbEntity
  8
0
 62
     0
100
AcDbLine
 10
34.31694998513225
 20
3.581565436111389
 30
0.0
 11
34.51454045424014
 21
3.779155905219283
 31
0.0
  0
LINE
  5
11BE
330
10FA
100
AcDbEntity
  8
0
 62
     0
100
AcDbLine
 10
33.86137129052002
 20
3.574999547552579
 30
0.0
 11
34.5211063427989
 21
4.234734599831455
 31
0.0
  0
LINE
  5
11BF
330
10FA
100
AcDbEntity
  8
0
 62
     0
100
AcDbLine
 10
33.41235848446661
 20
3.574999547552636
 30
0.0
 11
34.5211063427989
 21
4.683747405884929
 31
0.0
  0
LINE
  5
11C0
330
10FA
100
AcDbEntity
  8
0
 62
     0
100
AcDbLine
 10
33.1367051244247
 20
3.748358993564181
 30
0.0
 11
34.5211063427989
 21
5.132760211938375
 31
0.0
  0
LINE
  5
11C1
330
10FA
100
AcDbEntity
  8
0
 62
     0
100
AcDbLine
 10
33.12110634279884
 20
4.181773017991787
 30
0.0
 11
34.52110634279887
 21
5.581773017991821
 31
0.0
  0
LINE
  5
11C2
330
10FA
100
AcDbEntity
  8
0
 62
     0
100
AcDbLine
 10
33.12110634279886
 20
4.630785824045261
 30
0.0
 11
34.5211063427989
 21
6.030785824045267
 31
0.0
  0
LINE
  5
11C3
330
10FA
100
AcDbEntity
  8
0
 62
     0
100
AcDbLine
 10
33.12110634279886
 20
5.079798630098707
 30
0.0
 11
34.52110634279887
 21
6.479798630098741
 31
0.0
  0
LINE
  5
11C4
330
10FA
100
AcDbEntity
  8
0
 62
     0
100
AcDbLine
 10
33.12110634279884
 20
5.528811436152182
 30
0.0
 11
34.52110634279887
 21
6.928811436152216
 31
0.0
  0
LINE
  5
11C5
330
10FA
100
AcDbEntity
  8
0
 62
     0
100
AcDbLine
 10
31.3343887738313
 20
3.742093867184649
 30
0.0
 11
31.90401202316692
 21
4.31171711652027
 31
0.0
  0
LINE
  5
11C6
330
10FA
100
AcDbEntity
  8
0
 62
     0
100
AcDbLine
 10
33.12110634279886
 20
5.977824242205599
 30
0.0
 11
34.5211063427989
 21
7.377824242205633
 31
0.0
  0
LINE
  5
11C7
330
10FA
100
AcDbEntity
  8
0
 62
     0
100
AcDbLine
 10
30.71910469057005
 20
3.575822589976809
 30
0.0
 11
32.07028330037479
 21
4.927001199781528
 31
0.0
  0
LINE
  5
11C8
330
10FA
100
AcDbEntity
  8
0
 62
     0
100
AcDbLine
 10
33.12110634279884
 20
6.426837048259073
 30
0.0
 11
34.52110634279887
 21
7.826837048259108
 31
0.0
  0
LINE
  5
11C9
330
10FA
100
AcDbEntity
  8
0
 62
     0
100
AcDbLine
 10
30.2692688420924
 20
3.574999547552607
 30
0.0
 11
32.07110634279894
 21
5.376837048259147
 31
0.0
  0
LINE
  5
11CA
330
10FA
100
AcDbEntity
  8
0
 62
     0
100
AcDbLine
 10
33.12110634279884
 20
6.875849854312548
 30
0.0
 11
34.52110634279887
 21
8.275849854312554
 31
0.0
  0
LINE
  5
11CB
330
10FA
100
AcDbEntity
  8
0
 62
     0
100
AcDbLine
 10
29.82025603603892
 20
3.574999547552636
 30
0.0
 11
32.07110634279891
 21
5.825849854312622
 31
0.0
  0
LINE
  5
11CC
330
10FA
100
AcDbEntity
  8
0
 62
     0
100
AcDbLine
 10
33.12110634279886
 20
7.324862660365965
 30
0.0
 11
34.52110634279887
 21
8.724862660366
 31
0.0
  0
LINE
  5
11CD
330
10FA
100
AcDbEntity
  8
0
 62
     0
100
AcDbLine
 10
29.37124322998548
 20
3.574999547552607
 30
0.0
 11
32.07110634279894
 21
6.274862660366039
 31
0.0
  0
LINE
  5
11CE
330
10FA
100
AcDbEntity
  8
0
 62
     0
100
AcDbLine
 10
30.61881074175846
 20
5.271579865379067
 30
0.0
 11
32.07110634279891
 21
6.723875466419514
 31
0.0
  0
LINE
  5
11CF
330
10FA
100
AcDbEntity
  8
0
 62
     0
100
AcDbLine
 10
33.12110634279884
 20
7.77387546641944
 30
0.0
 11
34.52110634279887
 21
9.173875466419474
 31
0.0
  0
LINE
  5
11D0
330
10FA
100
AcDbEntity
  8
0
 62
     0
100
AcDbLine
 10
28.92223042393203
 20
3.574999547552607
 30
0.0
 11
30.37452602497245
 21
5.027295148593054
 31
0.0
  0
LINE
  5
11D1
330
10FA
100
AcDbEntity
  8
0
 62
     0
100
AcDbLine
 10
30.67110634279885
 20
5.772888272472897
 30
0.0
 11
32.07110634279891
 21
7.172888272472988
 31
0.0
  0
LINE
  5
11D2
330
10FA
100
AcDbEntity
  8
0
 62
     0
100
AcDbLine
 10
33.12110634279884
 20
8.222888272472886
 30
0.0
 11
34.52110634279887
 21
9.62288827247292
 31
0.0
  0
LINE
  5
11D3
330
10FA
100
AcDbEntity
  8
0
 62
     0
100
AcDbLine
 10
28.52919249356713
 20
3.630974423241184
 30
0.0
 11
29.87321761787856
 21
4.974999547552613
 31
0.0
  0
LINE
  5
11D4
330
10FA
100
AcDbEntity
  8
0
 62
     0
100
AcDbLine
 10
30.67110634279882
 20
6.221901078526371
 30
0.0
 11
32.07110634279891
 21
7.621901078526434
 31
0.0
  0
LINE
  5
11D5
330
10FA
100
AcDbEntity
  8
0
 62
     0
100
AcDbLine
 10
33.12110634279881
 20
8.67190107852636
 30
0.0
 11
34.52110634279884
 21
10.07190107852639
 31
0.0
  0
LINE
  5
11D6
330
10FA
100
AcDbEntity
  8
0
 62
     0
100
AcDbLine
 10
28.21519905996206
 20
3.76599379568961
 30
0.0
 11
29.42464370464728
 21
4.97543844037483
 31
0.0
  0
LINE
  5
11D7
330
10FA
100
AcDbEntity
  8
0
 62
     0
100
AcDbLine
 10
30.67110634279888
 20
6.670913884579846
 30
0.0
 11
32.07110634279891
 21
8.07091388457988
 31
0.0
  0
LINE
  5
11D8
330
10FA
100
AcDbEntity
  8
0
 62
     0
100
AcDbLine
 10
33.12110634279884
 20
9.120913884579806
 30
0.0
 11
34.52110634279887
 21
10.52091388457981
 31
0.0
  0
LINE
  5
11D9
330
10FA
100
AcDbEntity
  8
0
 62
     0
100
AcDbLine
 10
27.95856911927953
 20
3.958376661060469
 30
0.0
 11
29.10290441029093
 21
5.102711952071899
 31
0.0
  0
LINE
  5
11DA
330
10FA
100
AcDbEntity
  8
0
 62
     0
100
AcDbLine
 10
30.67110634279888
 20
7.11992669063332
 30
0.0
 11
32.07110634279891
 21
8.519926690633326
 31
0.0
  0
LINE
  5
11DB
330
10FA
100
AcDbEntity
  8
0
 62
     0
100
AcDbLine
 10
33.12110634279884
 20
9.569926690633252
 30
0.0
 11
34.5211063427989
 21
10.96992669063331
 31
0.0
  0
LINE
  5
11DC
330
10FA
100
AcDbEntity
  8
0
 62
     0
100
AcDbLine
 10
27.75358703166699
 20
4.202407379501437
 30
0.0
 11
28.9342852710863
 21
5.383105618920723
 31
0.0
  0
LINE
  5
11DD
330
10FA
100
AcDbEntity
  8
0
 62
     0
100
AcDbLine
 10
30.67110634279888
 20
7.568939496686766
 30
0.0
 11
32.07110634279888
 21
8.9689394966868
 31
0.0
  0
LINE
  5
11DE
330
10FA
100
AcDbEntity
  8
0
 62
     0
100
AcDbLine
 10
33.12110634279886
 20
10.01893949668675
 30
0.0
 11
34.51603176602358
 21
11.4138649199115
 31
0.0
  0
LINE
  5
11DF
330
10FA
100
AcDbEntity
  8
0
 62
     0
100
AcDbLine
 10
27.60362459245004
 20
4.501457746337933
 30
0.0
 11
28.92110634279885
 21
5.818939496686766
 31
0.0
  0
LINE
  5
11E0
330
10FA
100
AcDbEntity
  8
0
 62
     0
100
AcDbLine
 10
30.67110634279888
 20
8.017952302740212
 30
0.0
 11
32.07110634279891
 21
9.417952302740246
 31
0.0
  0
LINE
  5
11E1
330
10FA
100
AcDbEntity
  8
0
 62
     0
100
AcDbLine
 10
33.12110634279886
 20
10.4679523027402
 30
0.0
 11
34.27747459348376
 21
11.62432055342509
 31
0.0
  0
LINE
  5
11E2
330
10FA
100
AcDbEntity
  8
0
 62
     0
100
AcDbLine
 10
27.52491782497182
 20
4.871763784913156
 30
0.0
 11
28.92110634279891
 21
6.267952302740241
 31
0.0
  0
LINE
  5
11E3
330
10FA
100
AcDbEntity
  8
0
 62
     0
100
AcDbLine
 10
30.67110634279888
 20
8.466965108793658
 30
0.0
 11
32.07110634279891
 21
9.866965108793692
 31
0.0
  0
LINE
  5
11E4
330
10FA
100
AcDbEntity
  8
0
 62
     0
100
AcDbLine
 10
33.12110634279886
 20
10.91696510879364
 30
0.0
 11
33.82914078155781
 21
11.62499954755261
 31
0.0
  0
LINE
  5
11E5
330
10FA
100
AcDbEntity
  8
0
 62
     0
100
AcDbLine
 10
27.52110634279887
 20
5.316965108793681
 30
0.0
 11
28.92110634279891
 21
6.716965108793687
 31
0.0
  0
LINE
  5
11E6
330
10FA
100
AcDbEntity
  8
0
 62
     0
100
AcDbLine
 10
30.67110634279885
 20
8.915977914847132
 30
0.0
 11
32.07110634279888
 21
10.31597791484716
 31
0.0
  0
LINE
  5
11E7
330
10FA
100
AcDbEntity
  8
0
 62
     0
100
AcDbLine
 10
27.52110634279887
 20
5.765977914847127
 30
0.0
 11
28.92110634279887
 21
7.165977914847161
 31
0.0
  0
LINE
  5
11E8
330
10FA
100
AcDbEntity
  8
0
 62
     0
100
AcDbLine
 10
33.12112970017258
 20
11.36600127222087
 30
0.0
 11
33.38010461813055
 21
11.62497619017881
 31
0.0
  0
LINE
  5
11E9
330
10FA
100
AcDbEntity
  8
0
 62
     0
100
AcDbLine
 10
25.36032852744276
 20
3.605200099491042
 30
0.0
 11
26.44090579086051
 21
4.685777362908794
 31
0.0
  0
LINE
  5
11EA
330
10FA
100
AcDbEntity
  8
0
 62
     0
100
AcDbLine
 10
27.52110634279884
 20
6.214990720900601
 30
0.0
 11
28.92110634279887
 21
7.614990720900635
 31
0.0
  0
LINE
  5
11EB
330
10FA
100
AcDbEntity
  8
0
 62
     0
100
AcDbLine
 10
30.67110634279885
 20
9.364990720900607
 30
0.0
 11
32.07110634279888
 21
10.76499072090061
 31
0.0
  0
LINE
  5
11EC
330
10FA
100
AcDbEntity
  8
0
 62
     0
100
AcDbLine
 10
24.88111516945088
 20
3.574999547552636
 30
0.0
 11
26.47110634279886
 21
5.16499072090059
 31
0.0
  0
LINE
  5
11ED
330
10FA
100
AcDbEntity
  8
0
 62
     0
100
AcDbLine
 10
27.52110634279887
 20
6.664003526954019
 30
0.0
 11
28.92110634279891
 21
8.064003526954053
 31
0.0
  0
LINE
  5
11EE
330
10FA
100
AcDbEntity
  8
0
 62
     0
100
AcDbLine
 10
30.67110634279888
 20
9.814003526954024
 30
0.0
 11
32.07110634279888
 21
11.21400352695405
 31
0.0
  0
LINE
  5
11EF
330
10FA
100
AcDbEntity
  8
0
 62
     0
100
AcDbLine
 10
24.43210236339743
 20
3.574999547552607
 30
0.0
 11
26.47110634279892
 21
5.614003526954064
 31
0.0
  0
LINE
  5
11F0
330
10FA
100
AcDbEntity
  8
0
 62
     0
100
AcDbLine
 10
27.52110634279884
 20
7.113016333007493
 30
0.0
 11
28.92110634279887
 21
8.513016333007527
 31
0.0
  0
LINE
  5
11F1
330
10FA
100
AcDbEntity
  8
0
 62
     0
100
AcDbLine
 10
30.67110634279885
 20
10.26301633300749
 30
0.0
 11
31.97423761538178
 21
11.56614760559043
 31
0.0
  0
LINE
  5
11F2
330
10FA
100
AcDbEntity
  8
0
 62
     0
100
AcDbLine
 10
23.98308955734393
 20
3.574999547552579
 30
0.0
 11
26.46394704259239
 21
6.055857032801014
 31
0.0
  0
LINE
  5
11F3
330
10FA
100
AcDbEntity
  8
0
 62
     0
100
AcDbLine
 10
27.52110634279887
 20
7.562029139060996
 30
0.0
 11
28.92110634279887
 21
8.962029139060973
 31
0.0
  0
LINE
  5
11F4
330
10FA
100
AcDbEntity
  8
0
 62
     0
100
AcDbLine
 10
30.67110634279885
 20
10.71202913906094
 30
0.0
 11
31.58407675129052
 21
11.62499954755264
 31
0.0
  0
LINE
  5
11F5
330
10FA
100
AcDbEntity
  8
0
 62
     0
100
AcDbLine
 10
23.53407675129051
 20
3.574999547552636
 30
0.0
 11
26.39649085727799
 21
6.437413653540119
 31
0.0
  0
LINE
  5
11F6
330
10FA
100
AcDbEntity
  8
0
 62
     0
100
AcDbLine
 10
27.5211063427989
 20
8.011041945114442
 30
0.0
 11
28.92110634279893
 21
9.411041945114448
 31
0.0
  0
LINE
  5
11F7
330
10FA
100
AcDbEntity
  8
0
 62
     0
100
AcDbLine
 10
25.07110634279891
 20
5.561041945114453
 30
0.0
 11
26.27619712881872
 21
6.766132731134263
 31
0.0
  0
LINE
  5
11F8
330
10FA
100
AcDbEntity
  8
0
 62
     0
100
AcDbLine
 10
30.67110634279885
 20
11.16104194511439
 30
0.0
 11
31.1350639452371
 21
11.62499954755264
 31
0.0
  0
LINE
  5
11F9
330
10FA
100
AcDbEntity
  8
0
 62
     0
100
AcDbLine
 10
23.14919162180268
 20
3.639127224118198
 30
0.0
 11
24.48506394523707
 21
4.974999547552613
 31
0.0
  0
LINE
  5
11FA
330
10FA
100
AcDbEntity
  8
0
 62
     0
100
AcDbLine
 10
25.06117105523518
 20
6.000119463604164
 30
0.0
 11
26.11444747638842
 21
7.053395884757406
 31
0.0
  0
LINE
  5
11FB
330
10FA
100
AcDbEntity
  8
0
 62
     0
100
AcDbLine
 10
27.5211063427989
 20
8.460054751167888
 30
0.0
 11
28.92110634279891
 21
9.860054751167922
 31
0.0
  0
LINE
  5
11FC
330
10FA
100
AcDbEntity
  8
0
 62
     0
100
AcDbLine
 10
23.05860634279884
 20
3.997554751167825
 30
0.0
 11
24.03605113918357
 21
4.974999547552584
 31
0.0
  0
LINE
  5
11FD
330
10FA
100
AcDbEntity
  8
0
 62
     0
100
AcDbLine
 10
24.92397863666573
 20
6.311939851088226
 30
0.0
 11
25.91651191742451
 21
7.304473131847004
 31
0.0
  0
LINE
  5
11FE
330
10FA
100
AcDbEntity
  8
0
 62
     0
100
AcDbLine
 10
27.52110634279887
 20
8.909067557221362
 30
0.0
 11
28.92110634279891
 21
10.30906755722139
 31
0.0
  0
LINE
  5
11FF
330
10FA
100
AcDbEntity
  8
0
 62
     0
100
AcDbLine
 10
23.05860634279881
 20
4.4465675572213
 30
0.0
 11
23.58703833313015
 21
4.974999547552641
 31
0.0
  0
LINE
  5
1200
330
10FA
100
AcDbEntity
  8
0
 62
     0
100
AcDbLine
 10
27.5211063427989
 20
9.35808036327478
 30
0.0
 11
28.92110634279891
 21
10.75808036327481
 31
0.0
  0
LINE
  5
1201
330
10FA
100
AcDbEntity
  8
0
 62
     0
100
AcDbLine
 10
24.70334118810723
 20
6.540315208583137
 30
0.0
 11
25.69329068176839
 21
7.530264702244295
 31
0.0
  0
LINE
  5
1202
330
10FA
100
AcDbEntity
  8
0
 62
     0
100
AcDbLine
 10
24.47883478508049
 20
6.764821611609875
 30
0.0
 11
25.46878427874165
 21
7.754771105271032
 31
0.0
  0
LINE
  5
1203
330
10FA
100
AcDbEntity
  8
0
 62
     0
100
AcDbLine
 10
27.52110634279887
 20
9.807093169328254
 30
0.0
 11
28.92110634279891
 21
11.20709316932828
 31
0.0
  0
LINE
  5
1204
330
10FA
100
AcDbEntity
  8
0
 62
     0
100
AcDbLine
 10
21.28901272102325
 20
3.574999547552636
 30
0.0
 11
21.74610634279886
 21
4.032093169328248
 31
0.0
  0
LINE
  5
1205
330
10FA
100
AcDbEntity
  8
0
 62
     0
100
AcDbLine
 10
24.25432838205381
 20
6.98932801463664
 30
0.0
 11
25.24427787571491
 21
7.979277508297769
 31
0.0
  0
LINE
  5
1206
330
10FA
100
AcDbEntity
  8
0
 62
     0
100
AcDbLine
 10
27.52110634279887
 20
10.25610597538172
 30
0.0
 11
28.82801588874943
 21
11.56301552133228
 31
0.0
  0
LINE
  5
1207
330
10FA
100
AcDbEntity
  8
0
 62
     0
100
AcDbLine
 10
20.83999991496975
 20
3.574999547552607
 30
0.0
 11
21.74610634279886
 21
4.481105975381723
 31
0.0
  0
LINE
  5
1208
330
10FA
100
AcDbEntity
  8
0
 62
     0
100
AcDbLine
 10
24.02982197902701
 20
7.213834417663349
 30
0.0
 11
25.01977147268817
 21
8.203783911324507
 31
0.0
  0
LINE
  5
1209
330
10FA
100
AcDbEntity
  8
0
 62
     0
100
AcDbLine
 10
27.52110634279887
 20
10.70511878143517
 30
0.0
 11
28.44098710891632
 21
11.62499954755264
 31
0.0
  0
LINE
  5
120A
330
10FA
100
AcDbEntity
  8
0
 62
     0
100
AcDbLine
 10
20.44679267784732
 20
3.630805116483657
 30
0.0
 11
21.74610634279886
 21
4.930118781435169
 31
0.0
  0
LINE
  5
120B
330
10FA
100
AcDbEntity
  8
0
 62
     0
100
AcDbLine
 10
23.8053155760003
 20
7.438340820690058
 30
0.0
 11
24.79526506966147
 21
8.428290314351215
 31
0.0
  0
LINE
  5
120C
330
10FA
100
AcDbEntity
  8
0
 62
     0
100
AcDbLine
 10
27.52110634279887
 20
11.15413158748862
 30
0.0
 11
27.99197430286287
 21
11.62499954755261
 31
0.0
  0
LINE
  5
120D
330
10FA
100
AcDbEntity
  8
0
 62
     0
100
AcDbLine
 10
20.34610634279889
 20
3.979131587488637
 30
0.0
 11
21.74610634279886
 21
5.379131587488615
 31
0.0
  0
LINE
  5
120E
330
10FA
100
AcDbEntity
  8
0
 62
     0
100
AcDbLine
 10
23.58080917297357
 20
7.662847223716795
 30
0.0
 11
24.57075866663473
 21
8.652796717377952
 31
0.0
  0
LINE
  5
120F
330
10FA
100
AcDbEntity
  8
0
 62
     0
100
AcDbLine
 10
20.34610634279886
 20
4.428144393542083
 30
0.0
 11
21.74610634279886
 21
5.828144393542061
 31
0.0
  0
LINE
  5
1210
330
10FA
100
AcDbEntity
  8
0
 62
     0
100
AcDbLine
 10
23.35731722245293
 20
7.88836807924963
 30
0.0
 11
24.34930398914392
 21
8.880354845940615
 31
0.0
  0
LINE
  5
1211
330
10FA
100
AcDbEntity
  8
0
 62
     0
100
AcDbLine
 10
20.34610634279886
 20
4.877157199595558
 30
0.0
 11
21.74610634279884
 21
6.277157199595535
 31
0.0
  0
LINE
  5
1212
330
10FA
100
AcDbEntity
  8
0
 62
     0
100
AcDbLine
 10
25.69394869075591
 20
10.22499954755261
 30
0.0
 11
26.20860634279887
 21
10.73965719959556
 31
0.0
  0
LINE
  5
1213
330
10FA
100
AcDbEntity
  8
0
 62
     0
100
AcDbLine
 10
19.09977823044334
 20
3.630829087240044
 30
0.0
 11
19.14460441117165
 21
3.675655267968352
 31
0.0
  0
LINE
  5
1214
330
10FA
100
AcDbEntity
  8
0
 62
     0
100
AcDbLine
 10
23.15831613304195
 20
8.138379795892063
 30
0.0
 11
24.20813327175128
 21
9.188196934601393
 31
0.0
  0
LINE
  5
1215
330
10FA
100
AcDbEntity
  8
0
 62
     0
100
AcDbLine
 10
20.34610634279889
 20
5.326170005648975
 30
0.0
 11
21.74610634279886
 21
6.726170005648981
 31
0.0
  0
LINE
  5
1216
330
10FA
100
AcDbEntity
  8
0
 62
     0
100
AcDbLine
 10
25.24493588470249
 20
10.22499954755258
 30
0.0
 11
26.2086063427989
 21
11.18867000564898
 31
0.0
  0
LINE
  5
1217
330
10FA
100
AcDbEntity
  8
0
 62
     0
100
AcDbLine
 10
18.59493588470249
 20
3.574999547552607
 30
0.0
 11
19.12782543285581
 21
4.1078890957059
 31
0.0
  0
LINE
  5
1218
330
10FA
100
AcDbEntity
  8
0
 62
     0
100
AcDbLine
 10
22.99539900084357
 20
8.424475469747164
 30
0.0
 11
24.19610634279888
 21
9.625182811702472
 31
0.0
  0
LINE
  5
1219
330
10FA
100
AcDbEntity
  8
0
 62
     0
100
AcDbLine
 10
20.34610634279886
 20
5.77518281170245
 30
0.0
 11
21.74610634279886
 21
7.175182811702427
 31
0.0
  0
LINE
  5
121A
330
10FA
100
AcDbEntity
  8
0
 62
     0
100
AcDbLine
 10
24.79592307864902
 20
10.22499954755261
 30
0.0
 11
26.12527187689988
 21
11.55434834580347
 31
0.0
  0
LINE
  5
121B
330
10FA
100
AcDbEntity
  8
0
 62
     0
100
AcDbLine
 10
18.14592307864899
 20
3.574999547552579
 30
0.0
 11
19.02006235940297
 21
4.44913882830653
 31
0.0
  0
LINE
  5
121C
330
10FA
100
AcDbEntity
  8
0
 62
     0
100
AcDbLine
 10
20.34610634279886
 20
6.224195617755896
 30
0.0
 11
21.74610634279884
 21
7.624195617755901
 31
0.0
  0
LINE
  5
121D
330
10FA
100
AcDbEntity
  8
0
 62
     0
100
AcDbLine
 10
22.87370796950858
 20
8.751797244465649
 30
0.0
 11
25.74691027259558
 21
11.62499954755264
 31
0.0
  0
LINE
  5
121E
330
10FA
100
AcDbEntity
  8
0
 62
     0
100
AcDbLine
 10
17.84991592332159
 20
3.728005198278623
 30
0.0
 11
18.91229928595012
 21
4.79038856090716
 31
0.0
  0
LINE
  5
121F
330
10FA
100
AcDbEntity
  8
0
 62
     0
100
AcDbLine
 10
20.34610634279883
 20
6.67320842380937
 30
0.0
 11
21.74610634279884
 21
8.073208423809347
 31
0.0
  0
LINE
  5
1220
330
10FA
100
AcDbEntity
  8
0
 62
     0
100
AcDbLine
 10
22.80435453996574
 20
9.13145662097628
 30
0.0
 11
25.29789746654214
 21
11.62499954755264
 31
0.0
  0
LINE
  5
1221
330
10FA
100
AcDbEntity
  8
0
 62
     0
100
AcDbLine
 10
17.74053621249726
 20
4.067638293507769
 30
0.0
 11
18.80453621249728
 21
5.131638293507819
 31
0.0
  0
LINE
  5
1222
330
10FA
100
AcDbEntity
  8
0
 62
     0
100
AcDbLine
 10
20.34610634279889
 20
7.122221229862844
 30
0.0
 11
21.74610634279884
 21
8.522221229862793
 31
0.0
  0
LINE
  5
1223
330
10FA
100
AcDbEntity
  8
0
 62
     0
100
AcDbLine
 10
22.79610634279884
 20
9.572221229862805
 30
0.0
 11
24.84888466048869
 21
11.62499954755264
 31
0.0
  0
LINE
  5
1224
330
10FA
100
AcDbEntity
  8
0
 62
     0
100
AcDbLine
 10
17.63277313904438
 20
4.408888026108343
 30
0.0
 11
18.69677313904449
 21
5.472888026108449
 31
0.0
  0
LINE
  5
1225
330
10FA
100
AcDbEntity
  8
0
 62
     0
100
AcDbLine
 10
20.34610634279889
 20
7.571234035916319
 30
0.0
 11
21.74610634279884
 21
8.971234035916268
 31
0.0
  0
LINE
  5
1226
330
10FA
100
AcDbEntity
  8
0
 62
     0
100
AcDbLine
 10
22.79610634279884
 20
10.02123403591625
 30
0.0
 11
24.39987185443524
 21
11.62499954755264
 31
0.0
  0
LINE
  5
1227
330
10FA
100
AcDbEntity
  8
0
 62
     0
100
AcDbLine
 10
17.5250100655916
 20
4.750137758709001
 30
0.0
 11
18.58901006559162
 21
5.814137758709051
 31
0.0
  0
LINE
  5
1228
330
10FA
100
AcDbEntity
  8
0
 62
     0
100
AcDbLine
 10
20.34610634279889
 20
8.020246841969765
 30
0.0
 11
21.74610634279884
 21
9.420246841969714
 31
0.0
  0
LINE
  5
1229
330
10FA
100
AcDbEntity
  8
0
 62
     0
100
AcDbLine
 10
17.41724699213875
 20
5.09138749130966
 30
0.0
 11
18.48124699213883
 21
6.15538749130971
 31
0.0
  0
LINE
  5
122A
330
10FA
100
AcDbEntity
  8
0
 62
     0
100
AcDbLine
 10
22.82276467785956
 20
10.49690517703044
 30
0.0
 11
23.92420071332105
 21
11.59834121249193
 31
0.0
  0
LINE
  5
122B
330
10FA
100
AcDbEntity
  8
0
 62
     0
100
AcDbLine
 10
15.9008590483817
 20
3.574999547552607
 30
0.0
 11
16.32110634279888
 21
3.995246841969787
 31
0.0
  0
LINE
  5
122C
330
10FA
100
AcDbEntity
  8
0
 62
     0
100
AcDbLine
 10
17.30948391868594
 20
5.432637223910262
 30
0.0
 11
18.37348391868596
 21
6.496637223910283
 31
0.0
  0
LINE
  5
122D
330
10FA
100
AcDbEntity
  8
0
 62
     0
100
AcDbLine
 10
20.34610634279889
 20
8.469259648023211
 30
0.0
 11
21.74610634279884
 21
9.86925964802316
 31
0.0
  0
LINE
  5
122E
330
10FA
100
AcDbEntity
  8
0
 62
     0
100
AcDbLine
 10
15.45184624232828
 20
3.574999547552579
 30
0.0
 11
16.32110634279891
 21
4.444259648023205
 31
0.0
  0
LINE
  5
122F
330
10FA
100
AcDbEntity
  8
0
 62
     0
100
AcDbLine
 10
17.20172084523307
 20
5.773886956510835
 30
0.0
 11
18.26572084523317
 21
6.837886956510942
 31
0.0
  0
LINE
  5
1230
330
10FA
100
AcDbEntity
  8
0
 62
     0
100
AcDbLine
 10
20.34610634279889
 20
8.918272454076657
 30
0.0
 11
21.74610634279884
 21
10.3182724540766
 31
0.0
  0
LINE
  5
1231
330
10FA
100
AcDbEntity
  8
0
 62
     0
100
AcDbLine
 10
15.04340831010051
 20
3.615574421378283
 30
0.0
 11
16.32110634279888
 21
4.893272454076679
 31
0.0
  0
LINE
  5
1232
330
10FA
100
AcDbEntity
  8
0
 62
     0
100
AcDbLine
 10
17.09395777178025
 20
6.115136689111523
 30
0.0
 11
18.15795777178027
 21
7.179136689111544
 31
0.0
  0
LINE
  5
1233
330
10FA
100
AcDbEntity
  8
0
 62
     0
100
AcDbLine
 10
20.34610634279886
 20
9.367285260130131
 30
0.0
 11
21.7461063427988
 21
10.76728526013008
 31
0.0
  0
LINE
  5
1234
330
10FA
100
AcDbEntity
  8
0
 62
     0
100
AcDbLine
 10
14.92110634279885
 20
3.94228526013012
 30
0.0
 11
16.32110634279888
 21
5.342285260130154
 31
0.0
  0
LINE
  5
1235
330
10FA
100
AcDbEntity
  8
0
 62
     0
100
AcDbLine
 10
16.98619469832743
 20
6.456386421712124
 30
0.0
 11
18.05019469832751
 21
7.520386421712203
 31
0.0
  0
LINE
  5
1236
330
10FA
100
AcDbEntity
  8
0
 62
     0
100
AcDbLine
 10
20.34610634279889
 20
9.816298066183577
 30
0.0
 11
21.74610634279884
 21
11.21629806618352
 31
0.0
  0
LINE
  5
1237
330
10FA
100
AcDbEntity
  8
0
 62
     0
100
AcDbLine
 10
14.92110634279887
 20
4.391298066183537
 30
0.0
 11
16.32110634279894
 21
5.791298066183628
 31
0.0
  0
LINE
  5
1238
330
10FA
100
AcDbEntity
  8
0
 62
     0
100
AcDbLine
 10
16.86879530484151
 20
6.787999834279673
 30
0.0
 11
18.18394233880707
 21
8.103146868245232
 31
0.0
  0
LINE
  5
1239
330
10FA
100
AcDbEntity
  8
0
 62
     0
100
AcDbLine
 10
20.34610634279891
 20
10.26531087223708
 30
0.0
 11
21.64796863154961
 21
11.56717316098774
 31
0.0
  0
LINE
  5
123A
330
10FA
100
AcDbEntity
  8
0
 62
     0
100
AcDbLine
 10
14.92110634279885
 20
4.840310872237012
 30
0.0
 11
16.32110634279894
 21
6.240310872237074
 31
0.0
  0
LINE
  5
123B
330
10FA
100
AcDbEntity
  8
0
 62
     0
100
AcDbLine
 10
16.52520261990778
 20
6.893419955399423
 30
0.0
 11
18.39117901852407
 21
8.759396354015706
 31
0.0
  0
LINE
  5
123C
330
10FA
100
AcDbEntity
  8
0
 62
     0
100
AcDbLine
 10
14.92110634279885
 20
5.289323678290486
 30
0.0
 11
16.32768593495208
 21
6.695903270443722
 31
0.0
  0
LINE
  5
123D
330
10FA
100
AcDbEntity
  8
0
 62
     0
100
AcDbLine
 10
20.34610634279891
 20
10.71432367829052
 30
0.0
 11
21.25678221206101
 21
11.62499954755264
 31
0.0
  0
LINE
  5
123E
330
10FA
100
AcDbEntity
  8
0
 62
     0
100
AcDbLine
 10
13.206782212061
 20
3.574999547552607
 30
0.0
 11
13.69610634279891
 21
4.064323678290548
 31
0.0
  0
LINE
  5
123F
330
10FA
100
AcDbEntity
  8
0
 62
     0
100
AcDbLine
 10
14.92110634279885
 20
5.738336484343932
 30
0.0
 11
18.59841569824107
 21
9.415645839786179
 31
0.0
  0
LINE
  5
1240
330
10FA
100
AcDbEntity
  8
0
 62
     0
100
AcDbLine
 10
20.34610634279889
 20
11.163336484344
 30
0.0
 11
20.80776940600753
 21
11.62499954755264
 31
0.0
  0
LINE
  5
1241
330
10FA
100
AcDbEntity
  8
0
 62
     0
100
AcDbLine
 10
12.75776940600752
 20
3.574999547552636
 30
0.0
 11
13.69610634279891
 21
4.513336484343994
 31
0.0
  0
LINE
  5
1242
330
10FA
100
AcDbEntity
  8
0
 62
     0
100
AcDbLine
 10
14.9211063427989
 20
6.187349290397406
 30
0.0
 11
18.80565237795809
 21
10.07189532555662
 31
0.0
  0
LINE
  5
1243
330
10FA
100
AcDbEntity
  8
0
 62
     0
100
AcDbLine
 10
12.31459691212913
 20
3.58083985972766
 30
0.0
 11
13.62543920099574
 21
4.891682148594242
 31
0.0
  0
LINE
  5
1244
330
10FA
100
AcDbEntity
  8
0
 62
     0
100
AcDbLine
 10
14.92110634279887
 20
6.636362096450881
 30
0.0
 11
16.58474379390062
 21
8.29999954755263
 31
0.0
  0
LINE
  5
1245
330
10FA
100
AcDbEntity
  8
0
 62
     0
100
AcDbLine
 10
16.96673521152115
 20
8.681990965173127
 30
0.0
 11
19.01288905767506
 21
10.72814481132706
 31
0.0
  0
LINE
  5
1246
330
10FA
100
AcDbEntity
  8
0
 62
     0
100
AcDbLine
 10
11.93051665340564
 20
3.64577240705762
 30
0.0
 11
13.25974379390061
 21
4.974999547552613
 31
0.0
  0
LINE
  5
1247
330
10FA
100
AcDbEntity
  8
0
 62
     0
100
AcDbLine
 10
14.92110634279887
 20
7.085374902504327
 30
0.0
 11
16.33010162815301
 21
8.494370187858493
 31
0.0
  0
LINE
  5
1248
330
10FA
100
AcDbEntity
  8
0
 62
     0
100
AcDbLine
 10
17.17397189123809
 20
9.338240450943573
 30
0.0
 11
19.20042478357572
 21
11.3646933432812
 31
0.0
  0
LINE
  5
1249
330
10FA
100
AcDbEntity
  8
0
 62
     0
100
AcDbLine
 10
11.59994952499243
 20
3.764218084697915
 30
0.0
 11
12.81073098784716
 21
4.974999547552613
 31
0.0
  0
LINE
  5
124A
330
10FA
100
AcDbEntity
  8
0
 62
     0
100
AcDbLine
 10
14.92110634279887
 20
7.534387708557773
 30
0.0
 11
16.32110634279891
 21
8.934387708557807
 31
0.0
  0
LINE
  5
124B
330
10FA
100
AcDbEntity
  8
0
 62
     0
100
AcDbLine
 10
17.38120857095509
 20
9.994489936713989
 30
0.0
 11
19.00341884729104
 21
11.61670021304993
 31
0.0
  0
LINE
  5
124C
330
10FA
100
AcDbEntity
  8
0
 62
     0
100
AcDbLine
 10
11.31114788291029
 20
3.924429248669156
 30
0.0
 11
12.36917881215672
 21
4.982460177915612
 31
0.0
  0
LINE
  5
124D
330
10FA
100
AcDbEntity
  8
0
 62
     0
100
AcDbLine
 10
14.92110634279887
 20
7.983400514611247
 30
0.0
 11
16.32110634279891
 21
9.383400514611253
 31
0.0
  0
LINE
  5
124E
330
10FA
100
AcDbEntity
  8
0
 62
     0
100
AcDbLine
 10
17.58844525067206
 20
10.6507394224844
 30
0.0
 11
18.56270537574025
 21
11.62499954755261
 31
0.0
  0
LINE
  5
124F
330
10FA
100
AcDbEntity
  8
0
 62
     0
100
AcDbLine
 10
11.05867039971926
 20
4.120964571531601
 30
0.0
 11
12.05202074164756
 21
5.114314913459907
 31
0.0
  0
LINE
  5
1250
330
10FA
100
AcDbEntity
  8
0
 62
     0
100
AcDbLine
 10
14.92110634279887
 20
8.432413320664693
 30
0.0
 11
16.32110634279888
 21
9.832413320664727
 31
0.0
  0
LINE
  5
1251
330
10FA
100
AcDbEntity
  8
0
 62
     0
100
AcDbLine
 10
13.25192340868696
 20
6.763230386552805
 30
0.0
 11
13.83287550379867
 21
7.344182481664518
 31
0.0
  0
LINE
  5
1252
330
10FA
100
AcDbEntity
  8
0
 62
     0
100
AcDbLine
 10
17.795681930389
 20
11.30698890825485
 30
0.0
 11
18.11369256968677
 21
11.62499954755261
 31
0.0
  0
LINE
  5
1253
330
10FA
100
AcDbEntity
  8
0
 62
     0
100
AcDbLine
 10
10.84045186305434
 20
4.351758840920183
 30
0.0
 11
11.84689526601147
 21
5.358202243877315
 31
0.0
  0
LINE
  5
1254
330
10FA
100
AcDbEntity
  8
0
 62
     0
100
AcDbLine
 10
12.7894369878721
 20
6.749756771791425
 30
0.0
 11
13.84634911856005
 21
7.806668902479373
 31
0.0
  0
LINE
  5
1255
330
10FA
100
AcDbEntity
  8
0
 62
     0
100
AcDbLine
 10
14.92110634279885
 20
8.881426126718167
 30
0.0
 11
16.32110634279888
 21
10.2814261267182
 31
0.0
  0
LINE
  5
1256
330
10FA
100
AcDbEntity
  8
0
 62
     0
100
AcDbLine
 10
10.65694225058285
 20
4.617262034502147
 30
0.0
 11
11.7711063427989
 21
5.73142612671819
 31
0.0
  0
LINE
  5
1257
330
10FA
100
AcDbEntity
  8
0
 62
     0
100
AcDbLine
 10
12.48236370316203
 20
6.891696293134742
 30
0.0
 11
13.70440959721671
 21
8.113742187189444
 31
0.0
  0
LINE
  5
1258
330
10FA
100
AcDbEntity
  8
0
 62
     0
100
AcDbLine
 10
14.92110634279887
 20
9.330438932771585
 30
0.0
 11
16.32110634279891
 21
10.73043893277161
 31
0.0
  0
LINE
  5
1259
330
10FA
100
AcDbEntity
  8
0
 62
     0
100
AcDbLine
 10
10.51128349562048
 20
4.920616085593223
 30
0.0
 11
11.7711063427989
 21
6.180438932771636
 31
0.0
  0
LINE
  5
125A
330
10FA
100
AcDbEntity
  8
0
 62
     0
100
AcDbLine
 10
12.26338373966717
 20
7.121729135693385
 30
0.0
 11
13.47437675465809
 21
8.332722150684276
 31
0.0
  0
LINE
  5
125B
330
10FA
100
AcDbEntity
  8
0
 62
     0
100
AcDbLine
 10
14.92110634279885
 20
9.779451738825059
 30
0.0
 11
16.32110634279894
 21
11.17945173882512
 31
0.0
  0
LINE
  5
125C
330
10FA
100
AcDbEntity
  8
0
 62
     0
100
AcDbLine
 10
10.41071481353316
 20
5.26906020955937
 30
0.0
 11
11.7711063427989
 21
6.62945173882511
 31
0.0
  0
LINE
  5
125D
330
10FA
100
AcDbEntity
  8
0
 62
     0
100
AcDbLine
 10
12.13535837346302
 20
7.442716575542704
 30
0.0
 11
13.15338931480877
 21
8.46074751688846
 31
0.0
  0
LINE
  5
125E
330
10FA
100
AcDbEntity
  8
0
 62
     0
100
AcDbLine
 10
10.37110634279881
 20
5.678464544878494
 30
0.0
 11
11.77110634279887
 21
7.078464544878556
 31
0.0
  0
LINE
  5
125F
330
10FA
100
AcDbEntity
  8
0
 62
     0
100
AcDbLine
 10
14.92110634279885
 20
10.22846454487853
 30
0.0
 11
16.24248128862126
 21
11.54983949070094
 31
0.0
  0
LINE
  5
1260
330
10FA
100
AcDbEntity
  8
0
 62
     0
100
AcDbLine
 10
8.328107963860986
 20
3.63546616594067
 30
0.0
 11
9.26063972441085
 21
4.567997926490534
 31
0.0
  0
LINE
  5
1261
330
10FA
100
AcDbEntity
  8
0
 62
     0
100
AcDbLine
 10
12.19456491520344
 20
7.950935923336515
 30
0.0
 11
12.64516996701493
 21
8.401540975148037
 31
0.0
  0
LINE
  5
1262
330
10FA
100
AcDbEntity
  8
0
 62
     0
100
AcDbLine
 10
10.37110634279886
 20
6.127477350931968
 30
0.0
 11
11.7711063427989
 21
7.527477350932002
 31
0.0
  0
LINE
  5
1263
330
10FA
100
AcDbEntity
  8
0
 62
     0
100
AcDbLine
 10
14.92110634279887
 20
10.67747735093195
 30
0.0
 11
15.86862853941951
 21
11.62499954755261
 31
0.0
  0
LINE
  5
1264
330
10FA
100
AcDbEntity
  8
0
 62
     0
100
AcDbLine
 10
7.818628539419506
 20
3.574999547552607
 30
0.0
 11
9.321106342798913
 21
5.077477350932014
 31
0.0
  0
LINE
  5
1265
330
10FA
100
AcDbEntity
  8
0
 62
     0
100
AcDbLine
 10
10.37110634279886
 20
6.576490156985443
 30
0.0
 11
11.7711063427989
 21
7.976490156985448
 31
0.0
  0
LINE
  5
1266
330
10FA
100
AcDbEntity
  8
0
 62
     0
100
AcDbLine
 10
14.9211063427989
 20
11.12649015698545
 30
0.0
 11
15.41961573336607
 21
11.62499954755264
 31
0.0
  0
LINE
  5
1267
330
10FA
100
AcDbEntity
  8
0
 62
     0
100
AcDbLine
 10
7.369615733366003
 20
3.574999547552579
 30
0.0
 11
9.321106342798941
 21
5.526490156985516
 31
0.0
  0
LINE
  5
1268
330
10FA
100
AcDbEntity
  8
0
 62
     0
100
AcDbLine
 10
10.37110634279886
 20
7.025502963038888
 30
0.0
 11
11.77110634279887
 21
8.425502963038923
 31
0.0
  0
LINE
  5
1269
330
10FA
100
AcDbEntity
  8
0
 62
     0
100
AcDbLine
 10
6.920602927312586
 20
3.574999547552636
 30
0.0
 11
9.319136666518289
 21
5.973533286758339
 31
0.0
  0
LINE
  5
126A
330
10FA
100
AcDbEntity
  8
0
 62
     0
100
AcDbLine
 10
10.37110634279886
 20
7.474515769092363
 30
0.0
 11
11.7711063427989
 21
8.874515769092397
 31
0.0
  0
LINE
  5
126B
330
10FA
100
AcDbEntity
  8
0
 62
     0
100
AcDbLine
 10
13.12159012125917
 20
10.22499954755267
 30
0.0
 11
13.69610634279891
 21
10.7995157690924
 31
0.0
  0
LINE
  5
126C
330
10FA
100
AcDbEntity
  8
0
 62
     0
100
AcDbLine
 10
6.471590121259112
 20
3.574999547552607
 30
0.0
 11
9.264305748357571
 21
6.367715174651067
 31
0.0
  0
LINE
  5
126D
330
10FA
100
AcDbEntity
  8
0
 62
     0
100
AcDbLine
 10
10.37110634279886
 20
7.92352857514578
 30
0.0
 11
11.77110634279887
 21
9.323528575145815
 31
0.0
  0
LINE
  5
126E
330
10FA
100
AcDbEntity
  8
0
 62
     0
100
AcDbLine
 10
7.921106342798879
 20
5.473528575145792
 30
0.0
 11
9.153136376335567
 21
6.70555860868248
 31
0.0
  0
LINE
  5
126F
330
10FA
100
AcDbEntity
  8
0
 62
     0
100
AcDbLine
 10
12.67257731520567
 20
10.22499954755261
 30
0.0
 11
13.69610634279891
 21
11.24852857514585
 31
0.0
  0
LINE
  5
1270
330
10FA
100
AcDbEntity
  8
0
 62
     0
100
AcDbLine
 10
6.051440252835647
 20
3.603862485182588
 30
0.0
 11
7.422577315205671
 21
4.974999547552613
 31
0.0
  0
LINE
  5
1271
330
10FA
100
AcDbEntity
  8
0
 62
     0
100
AcDbLine
 10
10.37110634279883
 20
8.372541381199255
 30
0.0
 11
11.85401369568864
 21
9.855448734089065
 31
0.0
  0
LINE
  5
1272
330
10FA
100
AcDbEntity
  8
0
 62
     0
100
AcDbLine
 10
7.920026796994193
 20
5.92146183539458
 30
0.0
 11
8.998920608999497
 21
7.000355647399914
 31
0.0
  0
LINE
  5
1273
330
10FA
100
AcDbEntity
  8
0
 62
     0
100
AcDbLine
 10
12.14065715626242
 20
10.14209219466283
 30
0.0
 11
13.57937263533887
 21
11.58080767373928
 31
0.0
  0
LINE
  5
1274
330
10FA
100
AcDbEntity
  8
0
 62
     0
100
AcDbLine
 10
5.908606342798861
 20
3.910041381199278
 30
0.0
 11
6.973564509152225
 21
4.974999547552613
 31
0.0
  0
LINE
  5
1275
330
10FA
100
AcDbEntity
  8
0
 62
     0
100
AcDbLine
 10
7.810225287243838
 20
6.260673131697728
 30
0.0
 11
8.807799626580049
 21
7.258247471033939
 31
0.0
  0
LINE
  5
1276
330
10FA
100
AcDbEntity
  8
0
 62
     0
100
AcDbLine
 10
10.37110634279883
 20
8.821554187252729
 30
0.0
 11
13.17455170309878
 21
11.62499954755267
 31
0.0
  0
LINE
  5
1277
330
10FA
100
AcDbEntity
  8
0
 62
     0
100
AcDbLine
 10
5.908606342798861
 20
4.359054187252723
 30
0.0
 11
6.524551703098751
 21
4.974999547552641
 31
0.0
  0
LINE
  5
1278
330
10FA
100
AcDbEntity
  8
0
 62
     0
100
AcDbLine
 10
7.597097873091513
 20
6.496558523598821
 30
0.0
 11
8.58704736675267
 21
7.486508017259978
 31
0.0
  0
LINE
  5
1279
330
10FA
100
AcDbEntity
  8
0
 62
     0
100
AcDbLine
 10
10.37110634279883
 20
9.270566993306147
 30
0.0
 11
12.72553889704525
 21
11.62499954755256
 31
0.0
  0
LINE
  5
127A
330
10FA
100
AcDbEntity
  8
0
 62
     0
100
AcDbLine
 10
5.943082303808694
 20
4.842542954316002
 30
0.0
 11
6.041062936035501
 21
4.940523586542809
 31
0.0
  0
LINE
  5
127B
330
10FA
100
AcDbEntity
  8
0
 62
     0
100
AcDbLine
 10
10.38109389987707
 20
9.729567356437826
 30
0.0
 11
12.26653853391357
 21
11.61501199047435
 31
0.0
  0
LINE
  5
127C
330
10FA
100
AcDbEntity
  8
0
 62
     0
100
AcDbLine
 10
7.372591470064776
 20
6.721064926625558
 30
0.0
 11
8.362540963725933
 21
7.711014420286716
 31
0.0
  0
LINE
  5
127D
330
10FA
100
AcDbEntity
  8
0
 62
     0
100
AcDbLine
 10
10.53082561600996
 20
10.32831187862422
 30
0.0
 11
11.66779401172721
 21
11.46528027434146
 31
0.0
  0
LINE
  5
127E
330
10FA
100
AcDbEntity
  8
0
 62
     0
100
AcDbLine
 10
7.148085067038039
 20
6.945571329652295
 30
0.0
 11
8.138034560699196
 21
7.935520823313453
 31
0.0
  0
LINE
  5
127F
330
10FA
100
AcDbEntity
  8
0
 62
     0
100
AcDbLine
 10
6.92357866401133
 20
7.170077732679004
 30
0.0
 11
7.913528157672487
 21
8.160027226340162
 31
0.0
  0
LINE
  5
1280
330
10FA
100
AcDbEntity
  8
0
 62
     0
100
AcDbLine
 10
6.699072260984593
 20
7.394584135705741
 30
0.0
 11
7.68902175464575
 21
8.384533629366899
 31
0.0
  0
LINE
  5
1281
330
10FA
100
AcDbEntity
  8
0
 62
     0
100
AcDbLine
 10
6.474565857957827
 20
7.61909053873245
 30
0.0
 11
7.464515351619013
 21
8.609040032393636
 31
0.0
  0
LINE
  5
1282
330
10FA
100
AcDbEntity
  8
0
 62
     0
100
AcDbLine
 10
8.631462060724544
 20
10.22499954755261
 30
0.0
 11
9.058606342798867
 21
10.65214382962696
 31
0.0
  0
LINE
  5
1283
330
10FA
100
AcDbEntity
  8
0
 62
     0
100
AcDbLine
 10
6.250101111945156
 20
7.843638598773253
 30
0.0
 11
7.240133933661439
 21
8.833671420489537
 31
0.0
  0
LINE
  5
1284
330
10FA
100
AcDbEntity
  8
0
 62
     0
100
AcDbLine
 10
8.182449254671098
 20
10.22499954755261
 30
0.0
 11
9.058606342798896
 21
11.10115663568038
 31
0.0
  0
LINE
  5
1285
330
10FA
100
AcDbEntity
  8
0
 62
     0
100
AcDbLine
 10
6.044367149669369
 20
8.086917442550856
 30
0.0
 11
7.075185493017499
 21
9.117735785899014
 31
0.0
  0
LINE
  5
1286
330
10FA
100
AcDbEntity
  8
0
 62
     0
100
AcDbLine
 10
7.733436448617624
 20
10.22499954755261
 30
0.0
 11
9.015326892918295
 21
11.50688999185328
 31
0.0
  0
LINE
  5
1287
330
10FA
100
AcDbEntity
  8
0
 62
     0
100
AcDbLine
 10
5.874136846538135
 20
8.365699945473096
 30
0.0
 11
7.04610634279885
 21
9.537669441733811
 31
0.0
  0
LINE
  5
1288
330
10FA
100
AcDbEntity
  8
0
 62
     0
100
AcDbLine
 10
7.283190317979148
 20
10.22376622296761
 30
0.0
 11
8.684423642564155
 21
11.62499954755261
 31
0.0
  0
LINE
  5
1289
330
10FA
100
AcDbEntity
  8
0
 62
     0
100
AcDbLine
 10
5.743790198672087
 20
8.684366103660522
 30
0.0
 11
7.047339667383937
 21
9.987915572372401
 31
0.0
  0
LINE
  5
128A
330
10FA
100
AcDbEntity
  8
0
 62
     0
100
AcDbLine
 10
5.662884217548054
 20
9.052472928589935
 30
0.0
 11
8.235410836510766
 21
11.62499954755264
 31
0.0
  0
LINE
  5
128B
330
10FA
100
AcDbEntity
  8
0
 62
     0
100
AcDbLine
 10
5.646106342798901
 20
9.484707859894228
 30
0.0
 11
7.786398030457263
 21
11.62499954755261
 31
0.0
  0
LINE
  5
128C
330
10FA
100
AcDbEntity
  8
0
 62
     0
100
AcDbLine
 10
5.646106342798873
 20
9.933720665947703
 30
0.0
 11
7.337385224403789
 21
11.62499954755261
 31
0.0
  0
LINE
  5
128D
330
10FA
100
AcDbEntity
  8
0
 62
     0
100
AcDbLine
 10
5.656202348018041
 20
10.39282947722031
 30
0.0
 11
6.878276413131175
 21
11.61490354233345
 31
0.0
  0
ENDBLK
  5
128F
330
10FA
100
AcDbEntity
  8
0
100
AcDbBlockEnd
  0
BLOCK
  5
15B8
330
1552
100
AcDbEntity
  8
0
100
AcDbBlockBegin
  2
*X2
 70
     1
 10
0.0
 20
0.0
 30
0.0
  3
*X2
  1

  0
LINE
  5
1553
330
1552
100
AcDbEntity
  8
0
 62
     0
100
AcDbLine
 10
269.0070869461333
 20
226.7501224715559
 30
0.0
 11
270.253265453454
 21
227.9963009788767
 31
0.0
  0
LINE
  5
1554
330
1552
100
AcDbEntity
  8
0
 62
     0
100
AcDbLine
 10
265.7838728422751
 20
226.3553354924439
 30
0.0
 11
267.6240007833164
 21
228.1954634334852
 31
0.0
  0
LINE
  5
1555
330
1552
100
AcDbEntity
  8
0
 62
     0
100
AcDbLine
 10
227.7955422198875
 20
188.3670048700563
 30
0.0
 11
229.3456782287707
 21
189.9171408789396
 31
0.0
  0
LINE
  5
1556
330
1552
100
AcDbEntity
  8
0
 62
     0
100
AcDbLine
 10
262.7427926766842
 20
226.1426824515992
 30
0.0
 11
264.6664439379981
 21
228.0663337129131
 31
0.0
  0
LINE
  5
1557
330
1552
100
AcDbEntity
  8
0
 62
     0
100
AcDbLine
 10
227.7710724547198
 20
191.1709622296348
 30
0.0
 11
229.5299989814726
 21
192.9298887563876
 31
0.0
  0
LINE
  5
1558
330
1552
100
AcDbEntity
  8
0
 62
     0
100
AcDbLine
 10
259.7017125110933
 20
225.9300294107545
 30
0.0
 11
261.7088870926798
 21
227.9372039923409
 31
0.0
  0
LINE
  5
1559
330
1552
100
AcDbEntity
  8
0
 62
     0
100
AcDbLine
 10
227.746602689552
 20
193.9749195892132
 30
0.0
 11
229.5802464331106
 21
195.8085633327718
 31
0.0
  0
LINE
  5
155A
330
1552
100
AcDbEntity
  8
0
 62
     0
100
AcDbLine
 10
256.6606323455025
 20
225.7173763699098
 30
0.0
 11
258.7513302473614
 21
227.8080742717688
 31
0.0
  0
LINE
  5
155B
330
1552
100
AcDbEntity
  8
0
 62
     0
100
AcDbLine
 10
227.7221329243842
 20
196.7788769487916
 30
0.0
 11
229.6304938847487
 21
198.687237909156
 31
0.0
  0
LINE
  5
155C
330
1552
100
AcDbEntity
  8
0
 62
     0
100
AcDbLine
 10
253.6195521799116
 20
225.5047233290651
 30
0.0
 11
255.7937734020431
 21
227.6789445511967
 31
0.0
  0
LINE
  5
155D
330
1552
100
AcDbEntity
  8
0
 62
     0
100
AcDbLine
 10
227.6976631592164
 20
199.58283430837
 30
0.0
 11
229.6807413363867
 21
201.5659124855403
 31
0.0
  0
LINE
  5
155E
330
1552
100
AcDbEntity
  8
0
 62
     0
100
AcDbLine
 10
250.5784720143207
 20
225.2920702882205
 30
0.0
 11
252.8362165567247
 21
227.5498148306245
 31
0.0
  0
LINE
  5
155F
330
1552
100
AcDbEntity
  8
0
 62
     0
100
AcDbLine
 10
227.6731933940486
 20
202.3867916679484
 30
0.0
 11
229.7309887880248
 21
204.4445870619245
 31
0.0
  0
LINE
  5
1560
330
1552
100
AcDbEntity
  8
0
 62
     0
100
AcDbLine
 10
247.5373918487298
 20
225.0794172473758
 30
0.0
 11
249.8786597114065
 21
227.4206851100524
 31
0.0
  0
LINE
  5
1561
330
1552
100
AcDbEntity
  8
0
 62
     0
100
AcDbLine
 10
227.6487236288808
 20
205.1907490275268
 30
0.0
 11
229.7812362396629
 21
207.3232616383088
 31
0.0
  0
LINE
  5
1562
330
1552
100
AcDbEntity
  8
0
 62
     0
100
AcDbLine
 10
244.4963116831389
 20
224.8667642065311
 30
0.0
 11
246.9211028660881
 21
227.2915553894803
 31
0.0
  0
LINE
  5
1563
330
1552
100
AcDbEntity
  8
0
 62
     0
100
AcDbLine
 10
227.624253863713
 20
207.9947063871052
 30
0.0
 11
229.8314836913009
 21
210.201936214693
 31
0.0
  0
LINE
  5
1564
330
1552
100
AcDbEntity
  8
0
 62
     0
100
AcDbLine
 10
241.4552315175481
 20
224.6541111656864
 30
0.0
 11
243.9635460207698
 21
227.1624256689081
 31
0.0
  0
LINE
  5
1565
330
1552
100
AcDbEntity
  8
0
 62
     0
100
AcDbLine
 10
227.5997840985453
 20
210.7986637466836
 30
0.0
 11
229.8817311429389
 21
213.0806107910772
 31
0.0
  0
LINE
  5
1566
330
1552
100
AcDbEntity
  8
0
 62
     0
100
AcDbLine
 10
238.4141513519572
 20
224.4414581248418
 30
0.0
 11
241.0059891754514
 21
227.033295948336
 31
0.0
  0
LINE
  5
1567
330
1552
100
AcDbEntity
  8
0
 62
     0
100
AcDbLine
 10
227.5753143333774
 20
213.602621106262
 30
0.0
 11
229.931978594577
 21
215.9592853674615
 31
0.0
  0
LINE
  5
1568
330
1552
100
AcDbEntity
  8
0
 62
     0
100
AcDbLine
 10
234.2111866303354
 20
223.0669205279661
 30
0.0
 11
238.0484323301331
 21
226.9041662277639
 31
0.0
  0
LINE
  5
1569
330
1552
100
AcDbEntity
  8
0
 62
     0
100
AcDbLine
 10
227.5508445682096
 20
216.4065784658404
 30
0.0
 11
231.0716965862293
 21
219.92743048386
 31
0.0
  0
LINE
  5
156A
330
1552
100
AcDbEntity
  8
0
 62
     0
100
AcDbLine
 10
227.5263748030419
 20
219.2105358254188
 30
0.0
 11
235.0908754848148
 21
226.7750365071917
 31
0.0
  0
LINE
  5
156B
330
1552
100
AcDbEntity
  8
0
 62
     0
100
AcDbLine
 10
227.5019050378741
 20
222.0144931849972
 30
0.0
 11
232.1333186394965
 21
226.6459067866195
 31
0.0
  0
LINE
  5
156C
330
1552
100
AcDbEntity
  8
0
 62
     0
100
AcDbLine
 10
227.4774352727063
 20
224.8184505445756
 30
0.0
 11
229.1757617941781
 21
226.5167770660474
 31
0.0
  0
LINE
  5
156D
330
1552
100
AcDbEntity
  8
0
 62
     0
100
AcDbLine
 10
267.2104287630082
 20
281.5220067833546
 30
0.0
 11
267.4362664272232
 21
281.7478444475696
 31
0.0
  0
LINE
  5
156E
330
1552
100
AcDbEntity
  8
0
 62
     0
100
AcDbLine
 10
173.923149566206
 20
188.2347275865524
 30
0.0
 11
174.3504253656637
 21
188.6620033860102
 31
0.0
  0
LINE
  5
156F
330
1552
100
AcDbEntity
  8
0
 62
     0
100
AcDbLine
 10
264.1977375499681
 20
281.3377426950607
 30
0.0
 11
265.833552506374
 21
282.9735576514666
 31
0.0
  0
LINE
  5
1570
330
1552
100
AcDbEntity
  8
0
 62
     0
100
AcDbLine
 10
172.7955516236725
 20
189.9355567687651
 30
0.0
 11
174.375325979603
 21
191.5153311246956
 31
0.0
  0
LINE
  5
1571
330
1552
100
AcDbEntity
  8
0
 62
     0
100
AcDbLine
 10
261.185046336928
 20
281.1534786067668
 30
0.0
 11
263.0544848372143
 21
283.0229171070531
 31
0.0
  0
LINE
  5
1572
330
1552
100
AcDbEntity
  8
0
 62
     0
100
AcDbLine
 10
172.6193654129329
 20
192.5877976827717
 30
0.0
 11
174.4002265935423
 21
194.3686588633811
 31
0.0
  0
LINE
  5
1573
330
1552
100
AcDbEntity
  8
0
 62
     0
100
AcDbLine
 10
258.172355123888
 20
280.9692145184729
 30
0.0
 11
260.1237129012598
 21
282.9205722958448
 31
0.0
  0
LINE
  5
1574
330
1552
100
AcDbEntity
  8
0
 62
     0
100
AcDbLine
 10
172.5708420129234
 20
195.3677014075084
 30
0.0
 11
174.4251272074815
 21
197.2219866020665
 31
0.0
  0
LINE
  5
1575
330
1552
100
AcDbEntity
  8
0
 62
     0
100
AcDbLine
 10
255.1596639108479
 20
280.784950430179
 30
0.0
 11
257.1929409653054
 21
282.8182274846365
 31
0.0
  0
LINE
  5
1576
330
1552
100
AcDbEntity
  8
0
 62
     0
100
AcDbLine
 10
172.522318612914
 20
198.1476051322452
 30
0.0
 11
174.4500278214208
 21
200.075314340752
 31
0.0
  0
LINE
  5
1577
330
1552
100
AcDbEntity
  8
0
 62
     0
100
AcDbLine
 10
252.1469726978077
 20
280.6006863418851
 30
0.0
 11
254.2621690293509
 21
282.7158826734282
 31
0.0
  0
LINE
  5
1578
330
1552
100
AcDbEntity
  8
0
 62
     0
100
AcDbLine
 10
172.4737952129046
 20
200.927508856982
 30
0.0
 11
174.47492843536
 21
202.9286420794374
 31
0.0
  0
LINE
  5
1579
330
1552
100
AcDbEntity
  8
0
 62
     0
100
AcDbLine
 10
249.1342814847676
 20
280.4164222535912
 30
0.0
 11
251.3313970933964
 21
282.6135378622199
 31
0.0
  0
LINE
  5
157A
330
1552
100
AcDbEntity
  8
0
 62
     0
100
AcDbLine
 10
172.4252718128951
 20
203.7074125817187
 30
0.0
 11
174.4998290492993
 21
205.7819698181229
 31
0.0
  0
LINE
  5
157B
330
1552
100
AcDbEntity
  8
0
 62
     0
100
AcDbLine
 10
246.1215902717275
 20
280.2321581652973
 30
0.0
 11
248.4006251574419
 21
282.5111930510117
 31
0.0
  0
LINE
  5
157C
330
1552
100
AcDbEntity
  8
0
 62
     0
100
AcDbLine
 10
172.3767484128857
 20
206.4873163064555
 30
0.0
 11
174.5247296632386
 21
208.6352975568083
 31
0.0
  0
LINE
  5
157D
330
1552
100
AcDbEntity
  8
0
 62
     0
100
AcDbLine
 10
243.1088990586875
 20
280.0478940770034
 30
0.0
 11
245.4698532214875
 21
282.4088482398034
 31
0.0
  0
LINE
  5
157E
330
1552
100
AcDbEntity
  8
0
 62
     0
100
AcDbLine
 10
172.3282250128763
 20
209.2672200311922
 30
0.0
 11
174.5496302771778
 21
211.4886252954937
 31
0.0
  0
LINE
  5
157F
330
1552
100
AcDbEntity
  8
0
 62
     0
100
AcDbLine
 10
240.0962078456473
 20
279.8636299887094
 30
0.0
 11
242.539081285533
 21
282.3065034285951
 31
0.0
  0
LINE
  5
1580
330
1552
100
AcDbEntity
  8
0
 62
     0
100
AcDbLine
 10
172.2797016128669
 20
212.047123755929
 30
0.0
 11
174.5745308911171
 21
214.3419530341792
 31
0.0
  0
LINE
  5
1581
330
1552
100
AcDbEntity
  8
0
 62
     0
100
AcDbLine
 10
237.0835166326072
 20
279.6793659004156
 30
0.0
 11
239.6083093495785
 21
282.2041586173869
 31
0.0
  0
LINE
  5
1582
330
1552
100
AcDbEntity
  8
0
 62
     0
100
AcDbLine
 10
172.2311782128574
 20
214.8270274806657
 30
0.0
 11
174.5994315050563
 21
217.1952807728647
 31
0.0
  0
LINE
  5
1583
330
1552
100
AcDbEntity
  8
0
 62
     0
100
AcDbLine
 10
234.0708254195671
 20
279.4951018121216
 30
0.0
 11
236.6775374136241
 21
282.1018138061786
 31
0.0
  0
LINE
  5
1584
330
1552
100
AcDbEntity
  8
0
 62
     0
100
AcDbLine
 10
172.182654812848
 20
217.6069312054025
 30
0.0
 11
174.6243321189956
 21
220.0486085115501
 31
0.0
  0
LINE
  5
1585
330
1552
100
AcDbEntity
  8
0
 62
     0
100
AcDbLine
 10
231.0581342065271
 20
279.3108377238278
 30
0.0
 11
233.7467654776696
 21
281.9994689949703
 31
0.0
  0
LINE
  5
1586
330
1552
100
AcDbEntity
  8
0
 62
     0
100
AcDbLine
 10
171.071696586252
 20
219.3244001035528
 30
0.0
 11
174.6492327329348
 21
222.9019362502355
 31
0.0
  0
LINE
  5
1587
330
1552
100
AcDbEntity
  8
0
 62
     0
100
AcDbLine
 10
228.045442993487
 20
279.1265736355338
 30
0.0
 11
231.9496062398612
 21
283.0307368819081
 31
0.0
  0
LINE
  5
1588
330
1552
100
AcDbEntity
  8
0
 62
     0
100
AcDbLine
 10
171.0716965862521
 20
222.1528272282989
 30
0.0
 11
174.6741333468741
 21
225.755263988921
 31
0.0
  0
LINE
  5
1589
330
1552
100
AcDbEntity
  8
0
 62
     0
100
AcDbLine
 10
227.3906470210848
 20
281.3002047878779
 30
0.0
 11
230.3251698197594
 21
284.2347275865524
 31
0.0
  0
LINE
  5
158A
330
1552
100
AcDbEntity
  8
0
 62
     0
100
AcDbLine
 10
171.071696586252
 20
224.9812543530451
 30
0.0
 11
174.6990339608133
 21
228.6085917276064
 31
0.0
  0
LINE
  5
158B
330
1552
100
AcDbEntity
  8
0
 62
     0
100
AcDbLine
 10
227.4155476350238
 20
284.1535325265631
 30
0.0
 11
229.9292372360996
 21
286.6672221276388
 31
0.0
  0
LINE
  5
158C
330
1552
100
AcDbEntity
  8
0
 62
     0
100
AcDbLine
 10
171.0716965862521
 20
227.8096814777914
 30
0.0
 11
174.7239345747526
 21
231.4619194662919
 31
0.0
  0
LINE
  5
158D
330
1552
100
AcDbEntity
  8
0
 62
     0
100
AcDbLine
 10
227.4404482489628
 20
287.0068602652482
 30
0.0
 11
229.8807138360902
 21
289.4471258523756
 31
0.0
  0
LINE
  5
158E
330
1552
100
AcDbEntity
  8
0
 62
     0
100
AcDbLine
 10
171.0716965862521
 20
230.6381086025375
 30
0.0
 11
174.7488351886919
 21
234.3152472049773
 31
0.0
  0
LINE
  5
158F
330
1552
100
AcDbEntity
  8
0
 62
     0
100
AcDbLine
 10
227.4653488629018
 20
289.8601880039334
 30
0.0
 11
229.8321904360808
 21
292.2270295771125
 31
0.0
  0
LINE
  5
1590
330
1552
100
AcDbEntity
  8
0
 62
     0
100
AcDbLine
 10
171.071696586252
 20
233.4665357272837
 30
0.0
 11
174.7737358026311
 21
237.1685749436628
 31
0.0
  0
LINE
  5
1591
330
1552
100
AcDbEntity
  8
0
 62
     0
100
AcDbLine
 10
227.4902494768409
 20
292.7135157426187
 30
0.0
 11
229.7836670360714
 21
295.0069333018492
 31
0.0
  0
LINE
  5
1592
330
1552
100
AcDbEntity
  8
0
 62
     0
100
AcDbLine
 10
171.0716965862521
 20
236.2949628520299
 30
0.0
 11
174.7986364165704
 21
240.0219026823482
 31
0.0
  0
LINE
  5
1593
330
1552
100
AcDbEntity
  8
0
 62
     0
100
AcDbLine
 10
227.5151500907798
 20
295.5668434813038
 30
0.0
 11
229.735143636062
 21
297.7868370265861
 31
0.0
  0
LINE
  5
1594
330
1552
100
AcDbEntity
  8
0
 62
     0
100
AcDbLine
 10
171.071696586252
 20
239.1233899767761
 30
0.0
 11
174.8235370305096
 21
242.8752304210336
 31
0.0
  0
LINE
  5
1595
330
1552
100
AcDbEntity
  8
0
 62
     0
100
AcDbLine
 10
227.5400507047188
 20
298.4201712199891
 30
0.0
 11
229.6866202360527
 21
300.5667407513229
 31
0.0
  0
LINE
  5
1596
330
1552
100
AcDbEntity
  8
0
 62
     0
100
AcDbLine
 10
171.071696586252
 20
241.9518171015223
 30
0.0
 11
174.8484376444489
 21
245.7285581597191
 31
0.0
  0
LINE
  5
1597
330
1552
100
AcDbEntity
  8
0
 62
     0
100
AcDbLine
 10
227.5649513186579
 20
301.2734989586742
 30
0.0
 11
229.6380968360433
 21
303.3466444760597
 31
0.0
  0
LINE
  5
1598
330
1552
100
AcDbEntity
  8
0
 62
     0
100
AcDbLine
 10
171.0716965862521
 20
244.7802442262684
 30
0.0
 11
174.8733382583881
 21
248.5818858984045
 31
0.0
  0
LINE
  5
1599
330
1552
100
AcDbEntity
  8
0
 62
     0
100
AcDbLine
 10
227.5898519325969
 20
304.1268266973595
 30
0.0
 11
229.5895734360339
 21
306.1265482007965
 31
0.0
  0
LINE
  5
159A
330
1552
100
AcDbEntity
  8
0
 62
     0
100
AcDbLine
 10
171.071696586252
 20
247.6086713510146
 30
0.0
 11
174.8982388723274
 21
251.43521363709
 31
0.0
  0
LINE
  5
159B
330
1552
100
AcDbEntity
  8
0
 62
     0
100
AcDbLine
 10
227.6147525465359
 20
306.9801544360446
 30
0.0
 11
229.5410500360246
 21
308.9064519255333
 31
0.0
  0
LINE
  5
159C
330
1552
100
AcDbEntity
  8
0
 62
     0
100
AcDbLine
 10
171.071696586252
 20
250.4370984757608
 30
0.0
 11
174.9231394862666
 21
254.2885413757754
 31
0.0
  0
LINE
  5
159D
330
1552
100
AcDbEntity
  8
0
 62
     0
100
AcDbLine
 10
227.6396531604749
 20
309.8334821747299
 30
0.0
 11
229.4925266360152
 21
311.6863556502701
 31
0.0
  0
LINE
  5
159E
330
1552
100
AcDbEntity
  8
0
 62
     0
100
AcDbLine
 10
171.071696586252
 20
253.265525600507
 30
0.0
 11
174.9480401002059
 21
257.1418691144609
 31
0.0
  0
LINE
  5
159F
330
1552
100
AcDbEntity
  8
0
 62
     0
100
AcDbLine
 10
227.6645537744139
 20
312.6868099134151
 30
0.0
 11
229.4440032360058
 21
314.4662593750069
 31
0.0
  0
LINE
  5
15A0
330
1552
100
AcDbEntity
  8
0
 62
     0
100
AcDbLine
 10
171.071696586252
 20
256.0939527252532
 30
0.0
 11
174.9389686090198
 21
259.961224748021
 31
0.0
  0
LINE
  5
15A1
330
1552
100
AcDbEntity
  8
0
 62
     0
100
AcDbLine
 10
227.6894543883529
 20
315.5401376521003
 30
0.0
 11
229.3049957666565
 21
317.1556790304039
 31
0.0
  0
LINE
  5
15A2
330
1552
100
AcDbEntity
  8
0
 62
     0
100
AcDbLine
 10
171.0716965862521
 20
258.9223798499994
 30
0.0
 11
174.9144988438518
 21
262.7651821075992
 31
0.0
  0
LINE
  5
15A3
330
1552
100
AcDbEntity
  8
0
 62
     0
100
AcDbLine
 10
227.7143550022919
 20
318.3934653907855
 30
0.0
 11
228.5556171980589
 21
319.2347275865524
 31
0.0
  0
LINE
  5
15A4
330
1552
100
AcDbEntity
  8
0
 62
     0
100
AcDbLine
 10
171.071696586252
 20
261.7508069747456
 30
0.0
 11
174.8900290786838
 21
265.5691394671774
 31
0.0
  0
LINE
  5
15A5
330
1552
100
AcDbEntity
  8
0
 62
     0
100
AcDbLine
 10
171.071696586252
 20
264.5792340994918
 30
0.0
 11
174.8655593135159
 21
268.3730968267556
 31
0.0
  0
LINE
  5
15A6
330
1552
100
AcDbEntity
  8
0
 62
     0
100
AcDbLine
 10
171.071696586252
 20
267.4076612242379
 30
0.0
 11
174.8410895483478
 21
271.1770541863338
 31
0.0
  0
LINE
  5
15A7
330
1552
100
AcDbEntity
  8
0
 62
     0
100
AcDbLine
 10
171.071696586252
 20
270.2360883489841
 30
0.0
 11
174.8166197831799
 21
273.981011545912
 31
0.0
  0
LINE
  5
15A8
330
1552
100
AcDbEntity
  8
0
 62
     0
100
AcDbLine
 10
171.071696586252
 20
273.0645154737304
 30
0.0
 11
174.7921500180119
 21
276.7849689054902
 31
0.0
  0
LINE
  5
15A9
330
1552
100
AcDbEntity
  8
0
 62
     0
100
AcDbLine
 10
171.071696586252
 20
275.8929425984765
 30
0.0
 11
174.7676802528439
 21
279.5889262650685
 31
0.0
  0
LINE
  5
15AA
330
1552
100
AcDbEntity
  8
0
 62
     0
100
AcDbLine
 10
171.071696586252
 20
278.7213697232227
 30
0.0
 11
174.7432104876759
 21
282.3928836246466
 31
0.0
  0
LINE
  5
15AB
330
1552
100
AcDbEntity
  8
0
 62
     0
100
AcDbLine
 10
171.071696586252
 20
281.5497968479689
 30
0.0
 11
174.718740722508
 21
285.1968409842248
 31
0.0
  0
LINE
  5
15AC
330
1552
100
AcDbEntity
  8
0
 62
     0
100
AcDbLine
 10
172.1937874946504
 20
285.5003148811134
 30
0.0
 11
174.69427095734
 21
288.000798343803
 31
0.0
  0
LINE
  5
15AD
330
1552
100
AcDbEntity
  8
0
 62
     0
100
AcDbLine
 10
172.2440349462883
 20
288.3789894574976
 30
0.0
 11
174.669801192172
 21
290.8047557033813
 31
0.0
  0
LINE
  5
15AE
330
1552
100
AcDbEntity
  8
0
 62
     0
100
AcDbLine
 10
172.2942823979263
 20
291.2576640338818
 30
0.0
 11
174.645331427004
 21
293.6087130629595
 31
0.0
  0
LINE
  5
15AF
330
1552
100
AcDbEntity
  8
0
 62
     0
100
AcDbLine
 10
172.3445298495643
 20
294.1363386102659
 30
0.0
 11
174.620861661836
 21
296.4126704225376
 31
0.0
  0
LINE
  5
15B0
330
1552
100
AcDbEntity
  8
0
 62
     0
100
AcDbLine
 10
172.3947773012023
 20
297.0150131866501
 30
0.0
 11
174.596391896668
 21
299.2166277821159
 31
0.0
  0
LINE
  5
15B1
330
1552
100
AcDbEntity
  8
0
 62
     0
100
AcDbLine
 10
172.4450247528402
 20
299.8936877630342
 30
0.0
 11
174.5719221315001
 21
302.0205851416941
 31
0.0
  0
LINE
  5
15B2
330
1552
100
AcDbEntity
  8
0
 62
     0
100
AcDbLine
 10
172.4952722044782
 20
302.7723623394184
 30
0.0
 11
174.5474523663321
 21
304.8245425012723
 31
0.0
  0
LINE
  5
15B3
330
1552
100
AcDbEntity
  8
0
 62
     0
100
AcDbLine
 10
172.5455196561162
 20
305.6510369158026
 30
0.0
 11
174.5229826011641
 21
307.6284998608505
 31
0.0
  0
LINE
  5
15B4
330
1552
100
AcDbEntity
  8
0
 62
     0
100
AcDbLine
 10
172.5957671077542
 20
308.5297114921868
 30
0.0
 11
174.4985128359962
 21
310.4324572204287
 31
0.0
  0
LINE
  5
15B5
330
1552
100
AcDbEntity
  8
0
 62
     0
100
AcDbLine
 10
172.6460145593921
 20
311.4083860685709
 30
0.0
 11
174.4740430708281
 21
313.2364145800069
 31
0.0
  0
LINE
  5
15B6
330
1552
100
AcDbEntity
  8
0
 62
     0
100
AcDbLine
 10
172.6962620110302
 20
314.2870606449551
 30
0.0
 11
174.4495733056601
 21
316.0403719395851
 31
0.0
  0
LINE
  5
15B7
330
1552
100
AcDbEntity
  8
0
 62
     0
100
AcDbLine
 10
172.851966816323
 20
317.2711925749942
 30
0.0
 11
174.4251035404922
 21
318.8443292991633
 31
0.0
  0
ENDBLK
  5
15B9
330
1552
100
AcDbEntity
  8
0
100
AcDbBlockEnd
  0
BLOCK
  5
185B
330
1850
100
AcDbEntity
  8
0
100
AcDbBlockBegin
  2
*D3
 70
     1
 10
0.0
 20
0.0
 30
0.0
  3
*D3
  1

  0
ARC
  5
28F6
330
1850
100
AcDbEntity
  8
SUNPOU
100
AcDbCircle
 10
201.1938963406825
 20
102.7434855631876
 30
0.0
 40
20.432885101449
100
AcDbArc
 50
11.41986347478461
 51
81.58013652521601
  0
INSERT
  5
28F7
330
1850
100
AcDbEntity
  8
SUNPOU
100
AcDbBlockReference
  2
_OPEN
 10
221.5987788832361
 20
103.8128601437743
 30
0.0
 41
3.0
 42
3.0
 43
3.0
 50
277.2099317373926
  0
INSERT
  5
28F8
330
1850
100
AcDbEntity
  8
SUNPOU
100
AcDbBlockReference
  2
_OPEN
 10
201.1938963406824
 20
123.1763706646366
 30
0.0
 41
3.0
 42
3.0
 43
3.0
 50
175.790068262608
  0
MTEXT
  5
28F9
330
1850
100
AcDbEntity
  8
SUNPOU
100
AcDbMText
 10
211.512954821267
 20
123.2235795852017
 30
0.0
 40
3.0
 41
0.0
 71
     5
 72
     5
  1
\A1;87°
 11
0.8930448101673892
 21
-0.4499677399915376
 31
0.0
 73
     1
 44
1.0
  0
POINT
  5
28FA
330
1850
100
AcDbEntity
  8
DEFPOINTS
 62
     0
100
AcDbPoint
 10
218.5219656499492
 20
113.5712650023092
 30
0.0
  0
POINT
  5
28FB
330
1850
100
AcDbEntity
  8
DEFPOINTS
 62
     0
100
AcDbPoint
 10
201.1938963406825
 20
180.3327200414508
 30
0.0
  0
POINT
  5
28FC
330
1850
100
AcDbEntity
  8
DEFPOINTS
 62
     0
100
AcDbPoint
 10
195.2416293866332
 20
102.431540470426
 30
0.0
  0
POINT
  5
28FD
330
1850
100
AcDbEntity
  8
DEFPOINTS
 62
     0
100
AcDbPoint
 10
274.7054248298606
 20
106.5960615230081
 30
0.0
  0
POINT
  5
28FE
330
1850
100
AcDbEntity
  8
DEFPOINTS
 62
     0
100
AcDbPoint
 10
201.1938963406825
 20
28.4198363815898
 30
0.0
  0
ENDBLK
  5
185C
330
1850
100
AcDbEntity
  8
0
100
AcDbBlockEnd
  0
BLOCK
  5
1868
330
185D
100
AcDbEntity
  8
0
100
AcDbBlockBegin
  2
*D4
 70
     1
 10
0.0
 20
0.0
 30
0.0
  3
*D4
  1

  0
LINE
  5
20FB
330
185D
100
AcDbEntity
  8
SUNPOU
100
AcDbLine
 10
171.1938963406824
 20
138.6068893216155
 30
0.0
 11
171.1938963406824
 21
191.1368796100225
 31
0.0
  0
LINE
  5
20FC
330
185D
100
AcDbEntity
  8
SUNPOU
100
AcDbLine
 10
231.1938963406825
 20
138.6068893216155
 30
0.0
 11
231.1938963406825
 21
191.1368796100225
 31
0.0
  0
LINE
  5
20FD
330
185D
100
AcDbEntity
  8
SUNPOU
100
AcDbLine
 10
174.1938963406824
 20
189.6368796100225
 30
0.0
 11
228.1938963406825
 21
189.6368796100225
 31
0.0
  0
INSERT
  5
20FE
330
185D
100
AcDbEntity
  8
SUNPOU
100
AcDbBlockReference
  2
_OPEN
 10
171.1938963406824
 20
189.6368796100225
 30
0.0
 41
3.0
 42
3.0
 43
3.0
 50
180.0
  0
INSERT
  5
20FF
330
185D
100
AcDbEntity
  8
SUNPOU
100
AcDbBlockReference
  2
_OPEN
 10
231.1938963406825
 20
189.6368796100225
 30
0.0
 41
3.0
 42
3.0
 43
3.0
  0
MTEXT
  5
2100
330
185D
100
AcDbEntity
  8
SUNPOU
100
AcDbMText
 10
201.1938963406825
 20
192.1368796100225
 30
0.0
 40
3.0
 41
0.0
 71
     5
 72
     5
  1
\A1;φ60
 73
     1
 44
1.0
1001
ACAD
1000
MTEXTBEGIN
1070
    73
1070
     1
1070
    44
1040
1.0
1070
    74
1070
     0
1000
MTEXTEND
1000
MTEXTBEGIN
1070
    73
1070
     1
1070
    44
1040
1.0
1070
    74
1070
     0
1000
MTEXTEND
1000
MTEXTBEGIN
1070
    73
1070
     1
1070
    44
1040
1.0
1070
    74
1070
     0
1000
MTEXTEND
  0
POINT
  5
2101
330
185D
100
AcDbEntity
  8
DEFPOINTS
 62
     0
100
AcDbPoint
 10
171.1938963406824
 20
135.6068893216155
 30
0.0
  0
POINT
  5
2102
330
185D
100
AcDbEntity
  8
DEFPOINTS
 62
     0
100
AcDbPoint
 10
231.1938963406825
 20
135.6068893216155
 30
0.0
  0
POINT
  5
2103
330
185D
100
AcDbEntity
  8
DEFPOINTS
 62
     0
100
AcDbPoint
 10
231.1938963406825
 20
189.6368796100225
 30
0.0
  0
ENDBLK
  5
1869
330
185D
100
AcDbEntity
  8
0
100
AcDbBlockEnd
  0
BLOCK
  5
1875
330
186A
100
AcDbEntity
  8
0
100
AcDbBlockBegin
  2
*D5
 70
     1
 10
0.0
 20
0.0
 30
0.0
  3
*D5
  1

  0
LINE
  5
2104
330
186A
100
AcDbEntity
  8
SUNPOU
100
AcDbLine
 10
172.8524663938575
 20
170.6073462361467
 30
0.0
 11
172.8524663938575
 21
183.8846599533866
 31
0.0
  0
LINE
  5
2105
330
186A
100
AcDbEntity
  8
SUNPOU
100
AcDbLine
 10
229.5353262875074
 20
170.6073462361467
 30
0.0
 11
229.5353262875074
 21
183.8846599533866
 31
0.0
  0
LINE
  5
2106
330
186A
100
AcDbEntity
  8
SUNPOU
100
AcDbLine
 10
175.8524663938575
 20
182.3846599533866
 30
0.0
 11
226.5353262875074
 21
182.3846599533866
 31
0.0
  0
INSERT
  5
2107
330
186A
100
AcDbEntity
  8
SUNPOU
100
AcDbBlockReference
  2
_OPEN
 10
172.8524663938575
 20
182.3846599533866
 30
0.0
 41
3.0
 42
3.0
 43
3.0
 50
180.0
  0
INSERT
  5
2108
330
186A
100
AcDbEntity
  8
SUNPOU
100
AcDbBlockReference
  2
_OPEN
 10
229.5353262875074
 20
182.3846599533866
 30
0.0
 41
3.0
 42
3.0
 43
3.0
  0
MTEXT
  5
2109
330
186A
100
AcDbEntity
  8
SUNPOU
100
AcDbMText
 10
201.1938963406825
 20
184.8846599533866
 30
0.0
 40
3.0
 41
0.0
 71
     5
 72
     5
  1
\A1;φ57
 73
     1
 44
1.0
1001
ACAD
1000
MTEXTBEGIN
1070
    73
1070
     1
1070
    44
1040
1.0
1070
    74
1070
     0
1000
MTEXTEND
1000
MTEXTBEGIN
1070
    73
1070
     1
1070
    44
1040
1.0
1070
    74
1070
     0
1000
MTEXTEND
1000
MTEXTBEGIN
1070
    73
1070
     1
1070
    44
1040
1.0
1070
    74
1070
     0
1000
MTEXTEND
  0
POINT
  5
210A
330
186A
100
AcDbEntity
  8
DEFPOINTS
 62
     0
100
AcDbPoint
 10
172.8524663938575
 20
167.6073462361467
 30
0.0
  0
POINT
  5
210B
330
186A
100
AcDbEntity
  8
DEFPOINTS
 62
     0
100
AcDbPoint
 10
229.5353262875074
 20
167.6073462361467
 30
0.0
  0
POINT
  5
210C
330
186A
100
AcDbEntity
  8
DEFPOINTS
 62
     0
100
AcDbPoint
 10
229.5353262875074
 20
182.3846599533866
 30
0.0
  0
ENDBLK
  5
1876
330
186A
100
AcDbEntity
  8
0
100
AcDbBlockEnd
  0
BLOCK
  5
1882
330
1877
100
AcDbEntity
  8
0
100
AcDbBlockBegin
  2
*D6
 70
     1
 10
0.0
 20
0.0
 30
0.0
  3
*D6
  1

  0
LINE
  5
210D
330
1877
100
AcDbEntity
  8
SUNPOU
100
AcDbLine
 10
172.765191069218
 20
39.60643240708613
 30
0.0
 11
172.765191069218
 21
26.36399104220517
 31
0.0
  0
LINE
  5
210E
330
1877
100
AcDbEntity
  8
SUNPOU
100
AcDbLine
 10
229.6226016121469
 20
39.60643240708613
 30
0.0
 11
229.6226016121469
 21
26.36399104220517
 31
0.0
  0
LINE
  5
210F
330
1877
100
AcDbEntity
  8
SUNPOU
100
AcDbLine
 10
175.765191069218
 20
27.86399104220517
 30
0.0
 11
226.6226016121469
 21
27.86399104220517
 31
0.0
  0
INSERT
  5
2110
330
1877
100
AcDbEntity
  8
SUNPOU
100
AcDbBlockReference
  2
_OPEN
 10
172.765191069218
 20
27.86399104220517
 30
0.0
 41
3.0
 42
3.0
 43
3.0
 50
180.0
  0
INSERT
  5
2111
330
1877
100
AcDbEntity
  8
SUNPOU
100
AcDbBlockReference
  2
_OPEN
 10
229.6226016121469
 20
27.86399104220517
 30
0.0
 41
3.0
 42
3.0
 43
3.0
  0
MTEXT
  5
2112
330
1877
100
AcDbEntity
  8
SUNPOU
100
AcDbMText
 10
201.1938963406825
 20
30.36399104220517
 30
0.0
 40
3.0
 41
0.0
 71
     5
 72
     5
  1
\A1;φ57
 73
     1
 44
1.0
1001
ACAD
1000
MTEXTBEGIN
1070
    73
1070
     1
1070
    44
1040
1.0
1070
    74
1070
     0
1000
MTEXTEND
1000
MTEXTBEGIN
1070
    73
1070
     1
1070
    44
1040
1.0
1070
    74
1070
     0
1000
MTEXTEND
1000
MTEXTBEGIN
1070
    73
1070
     1
1070
    44
1040
1.0
1070
    74
1070
     0
1000
MTEXTEND
  0
POINT
  5
2113
330
1877
100
AcDbEntity
  8
DEFPOINTS
 62
     0
100
AcDbPoint
 10
172.765191069218
 20
42.60643240708612
 30
0.0
  0
POINT
  5
2114
330
1877
100
AcDbEntity
  8
DEFPOINTS
 62
     0
100
AcDbPoint
 10
229.6226016121469
 20
42.60643240708612
 30
0.0
  0
POINT
  5
2115
330
1877
100
AcDbEntity
  8
DEFPOINTS
 62
     0
100
AcDbPoint
 10
229.6226016121469
 20
27.86399104220517
 30
0.0
  0
ENDBLK
  5
1883
330
1877
100
AcDbEntity
  8
0
100
AcDbBlockEnd
  0
BLOCK
  5
18A9
330
189E
100
AcDbEntity
  8
0
100
AcDbBlockBegin
  2
*D9
 70
     1
 10
0.0
 20
0.0
 30
0.0
  3
*D9
  1

  0
LINE
  5
2888
330
189E
100
AcDbEntity
  8
SUNPOU
100
AcDbLine
 10
170.2048236131701
 20
170.6068893216155
 30
0.0
 11
138.9591077092963
 21
170.6068893216155
 31
0.0
  0
LINE
  5
2889
330
189E
100
AcDbEntity
  8
SUNPOU
100
AcDbLine
 10
170.2048236131701
 20
39.60688932161555
 30
0.0
 11
138.9591077092962
 21
39.60688932161556
 31
0.0
  0
LINE
  5
288A
330
189E
100
AcDbEntity
  8
SUNPOU
100
AcDbLine
 10
140.4591077092963
 20
167.6068893216155
 30
0.0
 11
140.4591077092962
 21
42.60688932161555
 31
0.0
  0
INSERT
  5
288B
330
189E
100
AcDbEntity
  8
SUNPOU
100
AcDbBlockReference
  2
_OPEN
 10
140.4591077092963
 20
170.6068893216155
 30
0.0
 41
3.0
 42
3.0
 43
3.0
 50
90.0
  0
INSERT
  5
288C
330
189E
100
AcDbEntity
  8
SUNPOU
100
AcDbBlockReference
  2
_OPEN
 10
140.4591077092962
 20
39.60688932161556
 30
0.0
 41
3.0
 42
3.0
 43
3.0
 50
270.0
  0
MTEXT
  5
288D
330
189E
100
AcDbEntity
  8
SUNPOU
100
AcDbMText
 10
137.9591077092962
 20
105.1068893216155
 30
0.0
 40
3.0
 41
0.0
 71
     5
 72
     5
  1
\A1;131
 11
0.0000000000000001
 21
1.0
 31
0.0
 73
     1
 44
1.0
1001
ACAD
1000
MTEXTBEGIN
1070
    73
1070
     1
1070
    44
1040
1.0
1070
    74
1070
     0
1000
MTEXTEND
  0
POINT
  5
288E
330
189E
100
AcDbEntity
  8
DEFPOINTS
 62
     0
100
AcDbPoint
 10
173.2048236131701
 20
170.6068893216155
 30
0.0
  0
POINT
  5
288F
330
189E
100
AcDbEntity
  8
DEFPOINTS
 62
     0
100
AcDbPoint
 10
173.2048236131701
 20
39.60688932161555
 30
0.0
  0
POINT
  5
2890
330
189E
100
AcDbEntity
  8
DEFPOINTS
 62
     0
100
AcDbPoint
 10
140.4591077092962
 20
39.60688932161556
 30
0.0
  0
ENDBLK
  5
18AA
330
189E
100
AcDbEntity
  8
0
100
AcDbBlockEnd
  0
BLOCK
  5
18D0
330
18C5
100
AcDbEntity
  8
0
100
AcDbBlockBegin
  2
*D12
 70
     1
 10
0.0
 20
0.0
 30
0.0
  3
*D12
  1

  0
LINE
  5
2160
330
18C5
100
AcDbEntity
  8
SUNPOU
100
AcDbLine
 10
168.1938963406825
 20
69.60688932161556
 30
0.0
 11
154.5653220792893
 21
69.60688932161557
 31
0.0
  0
LINE
  5
2161
330
18C5
100
AcDbEntity
  8
SUNPOU
100
AcDbLine
 10
170.1175482885297
 20
39.60688932161555
 30
0.0
 11
154.5653220792893
 21
39.60688932161555
 31
0.0
  0
LINE
  5
2162
330
18C5
100
AcDbEntity
  8
SUNPOU
100
AcDbLine
 10
156.0653220792893
 20
66.60688932161557
 30
0.0
 11
156.0653220792893
 21
42.60688932161555
 31
0.0
  0
INSERT
  5
2163
330
18C5
100
AcDbEntity
  8
SUNPOU
100
AcDbBlockReference
  2
_OPEN
 10
156.0653220792893
 20
69.60688932161557
 30
0.0
 41
3.0
 42
3.0
 43
3.0
 50
90.0
  0
INSERT
  5
2164
330
18C5
100
AcDbEntity
  8
SUNPOU
100
AcDbBlockReference
  2
_OPEN
 10
156.0653220792893
 20
39.60688932161555
 30
0.0
 41
3.0
 42
3.0
 43
3.0
 50
270.0
  0
MTEXT
  5
2165
330
18C5
100
AcDbEntity
  8
SUNPOU
100
AcDbMText
 10
153.5653220792893
 20
54.60688932161559
 30
0.0
 40
3.0
 41
0.0
 71
     5
 72
     5
  1
\A1;※30
 11
0.0000000000000001
 21
1.0
 31
0.0
 73
     1
 44
1.0
1001
ACAD
1000
MTEXTBEGIN
1070
    73
1070
     1
1070
    44
1040
1.0
1070
    74
1070
     0
1000
MTEXTEND
1000
MTEXTBEGIN
1070
    73
1070
     1
1070
    44
1040
1.0
1070
    74
1070
     0
1000
MTEXTEND
1000
MTEXTBEGIN
1070
    73
1070
     1
1070
    44
1040
1.0
1070
    74
1070
     0
1000
MTEXTEND
  0
POINT
  5
2166
330
18C5
100
AcDbEntity
  8
DEFPOINTS
 62
     0
100
AcDbPoint
 10
171.1938963406824
 20
69.60688932161556
 30
0.0
  0
POINT
  5
2167
330
18C5
100
AcDbEntity
  8
DEFPOINTS
 62
     0
100
AcDbPoint
 10
173.1175482885297
 20
39.60688932161555
 30
0.0
  0
POINT
  5
2168
330
18C5
100
AcDbEntity
  8
DEFPOINTS
 62
     0
100
AcDbPoint
 10
156.0653220792893
 20
39.60688932161555
 30
0.0
  0
ENDBLK
  5
18D1
330
18C5
100
AcDbEntity
  8
0
100
AcDbBlockEnd
  0
BLOCK
  5
18DD
330
18D2
100
AcDbEntity
  8
0
100
AcDbBlockBegin
  2
*D13
 70
     1
 10
0.0
 20
0.0
 30
0.0
  3
*D13
  1

  0
LINE
  5
2169
330
18D2
100
AcDbEntity
  8
SUNPOU
100
AcDbLine
 10
170.2048236131701
 20
170.6068893216155
 30
0.0
 11
154.5653220792893
 21
170.6068893216155
 31
0.0
  0
LINE
  5
216A
330
18D2
100
AcDbEntity
  8
SUNPOU
100
AcDbLine
 10
168.1938963406825
 20
135.6068893216155
 30
0.0
 11
154.5653220792893
 21
135.6068893216155
 31
0.0
  0
LINE
  5
216B
330
18D2
100
AcDbEntity
  8
SUNPOU
100
AcDbLine
 10
156.0653220792893
 20
167.6068893216155
 30
0.0
 11
156.0653220792893
 21
138.6068893216155
 31
0.0
  0
INSERT
  5
216C
330
18D2
100
AcDbEntity
  8
SUNPOU
100
AcDbBlockReference
  2
_OPEN
 10
156.0653220792893
 20
170.6068893216155
 30
0.0
 41
3.0
 42
3.0
 43
3.0
 50
90.0
  0
INSERT
  5
216D
330
18D2
100
AcDbEntity
  8
SUNPOU
100
AcDbBlockReference
  2
_OPEN
 10
156.0653220792893
 20
135.6068893216155
 30
0.0
 41
3.0
 42
3.0
 43
3.0
 50
270.0
  0
MTEXT
  5
216E
330
18D2
100
AcDbEntity
  8
SUNPOU
100
AcDbMText
 10
153.5653220792893
 20
153.1068893216155
 30
0.0
 40
3.0
 41
0.0
 71
     5
 72
     5
  1
\A1;※35
 11
0.0000000000000001
 21
1.0
 31
0.0
 73
     1
 44
1.0
1001
ACAD
1000
MTEXTBEGIN
1070
    73
1070
     1
1070
    44
1040
1.0
1070
    74
1070
     0
1000
MTEXTEND
1000
MTEXTBEGIN
1070
    73
1070
     1
1070
    44
1040
1.0
1070
    74
1070
     0
1000
MTEXTEND
1000
MTEXTBEGIN
1070
    73
1070
     1
1070
    44
1040
1.0
1070
    74
1070
     0
1000
MTEXTEND
  0
POINT
  5
216F
330
18D2
100
AcDbEntity
  8
DEFPOINTS
 62
     0
100
AcDbPoint
 10
173.2048236131701
 20
170.6068893216155
 30
0.0
  0
POINT
  5
2170
330
18D2
100
AcDbEntity
  8
DEFPOINTS
 62
     0
100
AcDbPoint
 10
171.1938963406824
 20
135.6068893216155
 30
0.0
  0
POINT
  5
2171
330
18D2
100
AcDbEntity
  8
DEFPOINTS
 62
     0
100
AcDbPoint
 10
156.0653220792893
 20
135.6068893216155
 30
0.0
  0
ENDBLK
  5
18DE
330
18D2
100
AcDbEntity
  8
0
100
AcDbBlockEnd
  0
BLOCK
  5
18EA
330
18DF
100
AcDbEntity
  8
0
100
AcDbBlockBegin
  2
*D14
 70
     1
 10
0.0
 20
0.0
 30
0.0
  3
*D14
  1

  0
LINE
  5
2172
330
18DF
100
AcDbEntity
  8
SUNPOU
100
AcDbLine
 10
235.4380718633893
 20
134.5793171356516
 30
0.0
 11
286.0192356357064
 21
137.2301636025385
 31
0.0
  0
LINE
  5
2173
330
18DF
100
AcDbEntity
  8
SUNPOU
100
AcDbLine
 10
238.5782292379991
 20
74.66154505037673
 30
0.0
 11
289.1593930103161
 21
77.31239151726362
 31
0.0
  0
LINE
  5
2174
330
18DF
100
AcDbEntity
  8
SUNPOU
100
AcDbLine
 10
284.678299202305
 20
134.1557710639096
 30
0.0
 11
287.5044408394537
 21
80.229776187162
 31
0.0
  0
INSERT
  5
2175
330
18DF
100
AcDbEntity
  8
SUNPOU
100
AcDbBlockReference
  2
_OPEN
 10
284.5212913335745
 20
137.1516596681732
 30
0.0
 41
3.0
 42
3.0
 43
3.0
 50
93.00000000003157
  0
INSERT
  5
2176
330
18DF
100
AcDbEntity
  8
SUNPOU
100
AcDbBlockReference
  2
_OPEN
 10
287.6614487081842
 20
77.23388758289837
 30
0.0
 41
3.0
 42
3.0
 43
3.0
 50
273.0000000000315
  0
MTEXT
  5
2177
330
18DF
100
AcDbEntity
  8
SUNPOU
100
AcDbMText
 10
288.5879438577656
 20
107.3236135161446
 30
0.0
 40
3.0
 41
0.0
 71
     5
 72
     5
  1
\A1;φ60
 11
0.0523359562434941
 21
-0.998629534754545
 31
0.0
 73
     1
 44
1.0
1001
ACAD
1000
MTEXTBEGIN
1070
    73
1070
     1
1070
    44
1040
1.0
1070
    74
1070
     0
1000
MTEXTEND
1000
MTEXTBEGIN
1070
    73
1070
     1
1070
    44
1040
1.0
1070
    74
1070
     0
1000
MTEXTEND
1000
MTEXTBEGIN
1070
    73
1070
     1
1070
    44
1040
1.0
1070
    74
1070
     0
1000
MTEXTEND
  0
POINT
  5
2178
330
18DF
100
AcDbEntity
  8
DEFPOINTS
 62
     0
100
AcDbPoint
 10
232.4421832591257
 20
134.4223092669211
 30
0.0
  0
POINT
  5
2179
330
18DF
100
AcDbEntity
  8
DEFPOINTS
 62
     0
100
AcDbPoint
 10
235.5823406337355
 20
74.50453718164625
 30
0.0
  0
POINT
  5
217A
330
18DF
100
AcDbEntity
  8
DEFPOINTS
 62
     0
100
AcDbPoint
 10
287.6614487081842
 20
77.23388758289837
 30
0.0
  0
ENDBLK
  5
18EB
330
18DF
100
AcDbEntity
  8
0
100
AcDbBlockEnd
  0
BLOCK
  5
18F7
330
18EC
100
AcDbEntity
  8
0
100
AcDbBlockBegin
  2
*D15
 70
     1
 10
0.0
 20
0.0
 30
0.0
  3
*D15
  1

  0
LINE
  5
217B
330
18EC
100
AcDbEntity
  8
SUNPOU
100
AcDbLine
 10
267.4814761136096
 20
134.5977946079211
 30
0.0
 11
278.2905960037167
 21
135.1642765773658
 31
0.0
  0
LINE
  5
217C
330
18EC
100
AcDbEntity
  8
SUNPOU
100
AcDbLine
 10
270.4480277887288
 20
77.99261660377041
 30
0.0
 11
281.257147678836
 21
78.55909857321518
 31
0.0
  0
LINE
  5
217D
330
18EC
100
AcDbEntity
  8
SUNPOU
100
AcDbLine
 10
276.9496595703137
 20
132.0898840387377
 30
0.0
 11
279.6021955079753
 21
81.47648324311445
 31
0.0
  0
INSERT
  5
217E
330
18EC
100
AcDbEntity
  8
SUNPOU
100
AcDbBlockReference
  2
_OPEN
 10
276.7926517015849
 20
135.0857726430014
 30
0.0
 41
3.0
 42
3.0
 43
3.0
 50
93.00000000000046
  0
INSERT
  5
217F
330
18EC
100
AcDbEntity
  8
SUNPOU
100
AcDbBlockReference
  2
_OPEN
 10
279.7592033767041
 20
78.48059463885075
 30
0.0
 41
3.0
 42
3.0
 43
3.0
 50
273.0000000000004
  0
MTEXT
  5
2180
330
18EC
100
AcDbEntity
  8
SUNPOU
100
AcDbMText
 10
280.7725013760309
 20
106.9140235315334
 30
0.0
 40
3.0
 41
0.0
 71
     5
 72
     5
  1
\A1;φ57
 11
0.0523359562429522
 21
-0.9986295347545736
 31
0.0
 73
     1
 44
1.0
1001
ACAD
1000
MTEXTBEGIN
1070
    73
1070
     1
1070
    44
1040
1.0
1070
    74
1070
     0
1000
MTEXTEND
1000
MTEXTBEGIN
1070
    73
1070
     1
1070
    44
1040
1.0
1070
    74
1070
     0
1000
MTEXTEND
1000
MTEXTBEGIN
1070
    73
1070
     1
1070
    44
1040
1.0
1070
    74
1070
     0
1000
MTEXTEND
  0
POINT
  5
2181
330
18EC
100
AcDbEntity
  8
DEFPOINTS
 62
     0
100
AcDbPoint
 10
264.4855875093459
 20
134.4407867391922
 30
0.0
  0
POINT
  5
2182
330
18EC
100
AcDbEntity
  8
DEFPOINTS
 62
     0
100
AcDbPoint
 10
267.4521391844651
 20
77.83560873504156
 30
0.0
  0
POINT
  5
2183
330
18EC
100
AcDbEntity
  8
DEFPOINTS
 62
     0
100
AcDbPoint
 10
279.7592033767041
 20
78.48059463885075
 30
0.0
  0
ENDBLK
  5
18F8
330
18EC
100
AcDbEntity
  8
0
100
AcDbBlockEnd
  0
BLOCK
  5
1904
330
18F9
100
AcDbEntity
  8
0
100
AcDbBlockBegin
  2
*D16
 70
     1
 10
0.0
 20
0.0
 30
0.0
  3
*D16
  1

  0
LINE
  5
2184
330
18F9
100
AcDbEntity
  8
SUNPOU
100
AcDbLine
 10
235.7393485024241
 20
71.50864857738081
 30
0.0
 11
236.5189204226694
 21
56.63353020942205
 31
0.0
  0
LINE
  5
2185
330
18F9
100
AcDbEntity
  8
SUNPOU
100
AcDbLine
 10
270.6913822188435
 20
73.34040704590361
 30
0.0
 11
271.4709541390888
 21
58.46528867794487
 31
0.0
  0
LINE
  5
2186
330
18F9
100
AcDbEntity
  8
SUNPOU
100
AcDbLine
 10
239.4363050925678
 20
58.28848238028434
 30
0.0
 11
268.3965616004599
 21
59.80622511134621
 31
0.0
  0
INSERT
  5
2187
330
18F9
100
AcDbEntity
  8
SUNPOU
100
AcDbBlockReference
  2
_OPEN
 10
236.4404164883042
 20
58.13147451155387
 30
0.0
 41
3.0
 42
3.0
 43
3.0
 50
183.0000000000315
  0
INSERT
  5
2188
330
18F9
100
AcDbEntity
  8
SUNPOU
100
AcDbBlockReference
  2
_OPEN
 10
271.3924502047236
 20
59.96323298007669
 30
0.0
 41
3.0
 42
3.0
 43
3.0
 50
3.000000000031543
  0
MTEXT
  5
2189
330
18F9
100
AcDbEntity
  8
SUNPOU
100
AcDbMText
 10
253.3983905448588
 20
61.52363513800156
 30
0.0
 40
3.0
 41
0.0
 71
     5
 72
     5
  1
\A1;※35
 11
0.998629534754545
 21
0.0523359562434936
 31
0.0
 73
     1
 44
1.0
1001
ACAD
1000
MTEXTBEGIN
1070
    73
1070
     1
1070
    44
1040
1.0
1070
    74
1070
     0
1000
MTEXTEND
1000
MTEXTBEGIN
1070
    73
1070
     1
1070
    44
1040
1.0
1070
    74
1070
     0
1000
MTEXTEND
1000
MTEXTBEGIN
1070
    73
1070
     1
1070
    44
1040
1.0
1070
    74
1070
     0
1000
MTEXTEND
  0
POINT
  5
218A
330
18F9
100
AcDbEntity
  8
DEFPOINTS
 62
     0
100
AcDbPoint
 10
235.5823406336936
 20
74.50453718164445
 30
0.0
  0
POINT
  5
218B
330
18F9
100
AcDbEntity
  8
DEFPOINTS
 62
     0
100
AcDbPoint
 10
270.534374350113
 20
76.33629565016725
 30
0.0
  0
POINT
  5
218C
330
18F9
100
AcDbEntity
  8
DEFPOINTS
 62
     0
100
AcDbPoint
 10
271.3924502047236
 20
59.96323298007669
 30
0.0
  0
ENDBLK
  5
1905
330
18F9
100
AcDbEntity
  8
0
100
AcDbBlockEnd
  0
BLOCK
  5
287D
330
2873
100
AcDbEntity
  8
0
100
AcDbBlockBegin
  2
*D17
 70
     1
 10
0.0
 20
0.0
 30
0.0
  3
*D17
  1

  0
LINE
  5
2A1A
330
2873
100
AcDbEntity
  8
SUNPOU
100
AcDbLine
 10
269.1213035315529
 20
103.2992930885229
 30
0.0
 11
269.7647272757761
 21
91.02203667687446
 31
0.0
  0
LINE
  5
2A1B
330
2873
100
AcDbEntity
  8
SUNPOU
100
AcDbLine
 10
201.3509042094113
 20
99.74759695892396
 30
0.0
 11
201.9943279536344
 21
87.47034054727548
 31
0.0
  0
LINE
  5
2A1C
330
2873
100
AcDbEntity
  8
SUNPOU
100
AcDbLine
 10
266.6903347371479
 20
92.36297311027746
 30
0.0
 11
204.9117126235337
 21
89.12529271813619
 31
0.0
  0
MTEXT
  5
2A1D
330
2873
100
AcDbEntity
  8
SUNPOU
100
AcDbMText
 10
242.8369207518625
 20
94.15632658574919
 30
0.0
 40
3.0
 41
0.0
 71
     5
 72
     5
  1
\A1;68
 11
0.9986295347545736
 21
0.052335956242953
 31
0.0
 73
     1
 44
1.0
  0
INSERT
  5
2A1E
330
2873
100
AcDbEntity
  8
SUNPOU
100
AcDbBlockReference
  2
_OPEN
 10
269.6862233414116
 20
92.51998097900631
 30
0.0
 41
3.0
 42
3.0
 43
3.0
 50
3.000000000000548
  0
INSERT
  5
2A1F
330
2873
100
AcDbEntity
  8
SUNPOU
100
AcDbBlockReference
  2
_OPEN
 10
201.91582401927
 20
88.96828484940732
 30
0.0
 41
3.0
 42
3.0
 43
3.0
 50
183.0000000000005
  0
POINT
  5
2A20
330
2873
100
AcDbEntity
  8
DEFPOINTS
 62
     0
100
AcDbPoint
 10
268.9642956628241
 20
106.2951816927866
 30
0.0
  0
POINT
  5
2A21
330
2873
100
AcDbEntity
  8
DEFPOINTS
 62
     0
100
AcDbPoint
 10
201.1938963406825
 20
102.7434855631876
 30
0.0
  0
POINT
  5
2A22
330
2873
100
AcDbEntity
  8
DEFPOINTS
 62
     0
100
AcDbPoint
 10
201.91582401927
 20
88.96828484940732
 30
0.0
  0
ENDBLK
  5
287E
330
2873
100
AcDbEntity
  8
0
100
AcDbBlockEnd
  0
BLOCK
  5
289C
330
2892
100
AcDbEntity
  8
0
100
AcDbBlockBegin
  2
*D18
 70
     1
 10
0.0
 20
0.0
 30
0.0
  3
*D18
  1

  0
LINE
  5
2A23
330
2892
100
AcDbEntity
  8
SUNPOU
100
AcDbLine
 10
170.2048236131701
 20
170.6068893216155
 30
0.0
 11
146.748858836427
 21
170.6068893216155
 31
0.0
  0
LINE
  5
2A24
330
2892
100
AcDbEntity
  8
SUNPOU
100
AcDbLine
 10
198.1938963406824
 20
102.7434855631876
 30
0.0
 11
146.748858836427
 21
102.7434855631877
 31
0.0
  0
LINE
  5
2A25
330
2892
100
AcDbEntity
  8
SUNPOU
100
AcDbLine
 10
148.248858836427
 20
167.6068893216155
 30
0.0
 11
148.248858836427
 21
105.7434855631877
 31
0.0
  0
INSERT
  5
2A26
330
2892
100
AcDbEntity
  8
SUNPOU
100
AcDbBlockReference
  2
_OPEN
 10
148.248858836427
 20
170.6068893216155
 30
0.0
 41
3.0
 42
3.0
 43
3.0
 50
90.0
  0
INSERT
  5
2A27
330
2892
100
AcDbEntity
  8
SUNPOU
100
AcDbBlockReference
  2
_OPEN
 10
148.248858836427
 20
102.7434855631877
 30
0.0
 41
3.0
 42
3.0
 43
3.0
 50
270.0
  0
MTEXT
  5
2A28
330
2892
100
AcDbEntity
  8
SUNPOU
100
AcDbMText
 10
145.748858836427
 20
136.6751874424016
 30
0.0
 40
3.0
 41
0.0
 71
     5
 72
     5
  1
\A1;68
 11
0.0000000000000001
 21
1.0
 31
0.0
 73
     1
 44
1.0
  0
POINT
  5
2A29
330
2892
100
AcDbEntity
  8
DEFPOINTS
 62
     0
100
AcDbPoint
 10
173.2048236131701
 20
170.6068893216155
 30
0.0
  0
POINT
  5
2A2A
330
2892
100
AcDbEntity
  8
DEFPOINTS
 62
     0
100
AcDbPoint
 10
201.1938963406825
 20
102.7434855631876
 30
0.0
  0
POINT
  5
2A2B
330
2892
100
AcDbEntity
  8
DEFPOINTS
 62
     0
100
AcDbPoint
 10
148.248858836427
 20
102.7434855631877
 30
0.0
  0
ENDBLK
  5
289D
330
2892
100
AcDbEntity
  8
0
100
AcDbBlockEnd
  0
BLOCK
  5
28A9
330
289F
100
AcDbEntity
  8
0
100
AcDbBlockBegin
  2
*D19
 70
     1
 10
0.0
 20
0.0
 30
0.0
  3
*D19
  1

  0
LINE
  5
2A2C
330
289F
100
AcDbEntity
  8
SUNPOU
100
AcDbLine
 10
198.1938963406824
 20
102.7434855631876
 30
0.0
 11
146.748858836427
 21
102.7434855631877
 31
0.0
  0
LINE
  5
2A2D
330
289F
100
AcDbEntity
  8
SUNPOU
100
AcDbLine
 10
169.765191069218
 20
39.60643240708613
 30
0.0
 11
146.748858836427
 21
39.60643240708613
 31
0.0
  0
LINE
  5
2A2E
330
289F
100
AcDbEntity
  8
SUNPOU
100
AcDbLine
 10
148.248858836427
 20
99.74348556318771
 30
0.0
 11
148.248858836427
 21
42.60643240708612
 31
0.0
  0
INSERT
  5
2A2F
330
289F
100
AcDbEntity
  8
SUNPOU
100
AcDbBlockReference
  2
_OPEN
 10
148.248858836427
 20
102.7434855631877
 30
0.0
 41
3.0
 42
3.0
 43
3.0
 50
90.0
  0
INSERT
  5
2A30
330
289F
100
AcDbEntity
  8
SUNPOU
100
AcDbBlockReference
  2
_OPEN
 10
148.248858836427
 20
39.60643240708613
 30
0.0
 41
3.0
 42
3.0
 43
3.0
 50
270.0
  0
MTEXT
  5
2A31
330
289F
100
AcDbEntity
  8
SUNPOU
100
AcDbMText
 10
145.748858836427
 20
71.17495898513694
 30
0.0
 40
3.0
 41
0.0
 71
     5
 72
     5
  1
\A1;63
 11
0.0000000000000001
 21
1.0
 31
0.0
 73
     1
 44
1.0
  0
POINT
  5
2A32
330
289F
100
AcDbEntity
  8
DEFPOINTS
 62
     0
100
AcDbPoint
 10
201.1938963406825
 20
102.7434855631876
 30
0.0
  0
POINT
  5
2A33
330
289F
100
AcDbEntity
  8
DEFPOINTS
 62
     0
100
AcDbPoint
 10
172.765191069218
 20
39.60643240708613
 30
0.0
  0
POINT
  5
2A34
330
289F
100
AcDbEntity
  8
DEFPOINTS
 62
     0
100
AcDbPoint
 10
148.248858836427
 20
39.60643240708613
 30
0.0
  0
ENDBLK
  5
28AA
330
289F
100
AcDbEntity
  8
0
100
AcDbBlockEnd
  0
ENDSEC
  0
SECTION
  2
ENTITIES
  0
LINE
  5
693
330
1A
100
AcDbEntity
  8
ZUWAKU
100
AcDbLine
 10
104.3233009104422
 20
7.599999547552665
 30
0.0
 11
223.7121822509039
 21
7.599999547552661
 31
0.0
  0
LINE
  5
694
330
1A
100
AcDbEntity
  8
ZUWAKU
100
AcDbLine
 10
104.3233009104422
 20
7.799999547552661
 30
0.0
 11
223.7121822509039
 21
7.799999547552666
 31
0.0
  0
LINE
  5
695
330
1A
100
AcDbEntity
  8
ZUWAKU
100
AcDbLine
 10
104.3233009104422
 20
7.699999547552661
 30
0.0
 11
223.7121822509039
 21
7.699999547552661
 31
0.0
  0
LINE
  5
696
330
1A
100
AcDbEntity
  8
ZUWAKU
100
AcDbLine
 10
0.0000002654082891
 20
15.39999954755265
 30
0.0
 11
398.7000002654082
 21
15.39999954755265
 31
0.0
  0
LINE
  5
697
330
1A
100
AcDbEntity
  8
ZUWAKU
100
AcDbLine
 10
0.0000002654082891
 20
15.29999954755265
 30
0.0
 11
398.7000002654082
 21
15.29999954755265
 31
0.0
  0
LINE
  5
698
330
1A
100
AcDbEntity
  8
ZUWAKU
100
AcDbLine
 10
0.0000002654082891
 20
15.19999954755265
 30
0.0
 11
398.7000002654082
 21
15.19999954755265
 31
0.0
  0
LINE
  5
699
330
1A
100
AcDbEntity
  8
ZUWAKU
100
AcDbLine
 10
0.0000002654082891
 20
15.09999954755264
 30
0.0
 11
398.7000002654082
 21
15.09999954755264
 31
0.0
  0
LINE
  5
69A
330
1A
100
AcDbEntity
  8
ZUWAKU
100
AcDbLine
 10
0.0000002654082891
 20
14.99999954755264
 30
0.0
 11
398.7000002654082
 21
14.99999954755264
 31
0.0
  0
LWPOLYLINE
  5
69B
330
1A
100
AcDbEntity
  8
ZUWAKU
100
AcDbPolyline
 90
        4
 70
     1
 43
0.0
 10
0.100000265408255
 20
275.6999995475526
 10
0.100000265408255
 20
0.0999995475526703
 10
398.7000002654082
 20
0.0999995475526818
 10
398.7000002654083
 20
275.6999995475526
  0
LWPOLYLINE
  5
69C
330
1A
100
AcDbEntity
  8
ZUWAKU
100
AcDbPolyline
 90
        4
 70
     1
 43
0.0
 10
0.3000002654082436
 20
275.4999995475527
 10
0.3000002654082436
 20
0.2999995475526589
 10
398.5000002654084
 20
0.299999547552682
 10
398.5000002654082
 20
275.4999995475527
  0
LWPOLYLINE
  5
69D
330
1A
100
AcDbEntity
  8
ZUWAKU
100
AcDbPolyline
 90
        4
 70
     1
 43
0.0
 10
0.0000002654082891
 20
275.7999995475526
 10
0.0000002654082891
 20
-0.0000004524473525
 10
398.8000002654083
 20
-0.0000004524473187
 10
398.8000002654083
 20
275.7999995475527
  0
LWPOLYLINE
  5
69E
330
1A
100
AcDbEntity
  8
ZUWAKU
100
AcDbPolyline
 90
        4
 70
     1
 43
0.0
 10
0.2000002654082777
 20
275.5999995475526
 10
0.2000002654082777
 20
0.199999547552693
 10
398.6000002654083
 20
0.1999995475526814
 10
398.6000002654083
 20
275.5999995475526
  0
LWPOLYLINE
  5
69F
330
1A
100
AcDbEntity
  8
ZUWAKU
100
AcDbPolyline
 90
        4
 70
     1
 43
0.0
 10
0.4000002654082664
 20
275.3999995475526
 10
0.4000002654082664
 20
0.3999995475526816
 10
398.4000002654082
 20
0.3999995475526816
 10
398.4000002654082
 20
275.3999995475526
  0
INSERT
  5
6A2
330
1A
100
AcDbEntity
  8
ZUWAKU
  6
Continuous
100
AcDbBlockReference
  2
*X1
 10
0.0
 20
0.0
 30
0.0
1001
ACAD
1000
HATCH
1002
{
1070
    19
1000
ANSI37
1040
0.1
1040
0.0
1000
R14_HATCH_DATA
1000
6A2
1011
1.0
1021
0.0
1031
0.0
1011
0.0
1021
1.0
1031
0.0
1011
0.0
1021
0.0
1031
1.0
1040
0.0
1010
0.0
1020
0.0
1030
1.0
1000
ANSI37
1070
     0
1070
     0
1071
        8
1071
        7
1070
     1
1070
     1
1071
       24
1040
7.251131595968215
1040
8.822423788044437
1040
-0.1989123673796348
1040
7.046106342798849
1040
9.317398534874961
1040
0.0
1040
7.046106342798849
1040
9.962499547552651
1040
-0.4142135623730912
1040
7.308606342798834
1040
10.22499954755264
1040
0.0
1040
8.796106342798788
1040
10.22499954755264
1040
0.4142135623731546
1040
9.058606342798841
1040
10.48749954755264
1040
0.0
1040
9.058606342798841
1040
11.36249954755265
1040
0.4142135623731586
1040
8.796106342798788
1040
11.62499954755264
1040
0.0
1040
7.046106342798849
1040
11.62499954755264
1040
0.4142135623730928
1040
5.646106342798869
1040
10.22499954755266
1040
0.0
1040
5.646106342798869
1040
9.317398534875026
1040
0.1989123673796619
1040
6.261182102307084
1040
7.832474294383221
1040
0.0
1040
7.716081089629423
1040
6.377575307060895
1040
-0.1989123673796613
1040
7.921106342798849
1040
5.882600560230301
1040
0.0
1040
7.921106342798849
1040
5.237499547552641
1040
-0.4142135623730911
1040
7.658606342798859
1040
4.974999547552648
1040
0.0
1040
6.171106342798904
1040
4.974999547552648
1040
0.4142135623731526
1040
5.908606342798859
1040
4.712499547552654
1040
0.0
1040
5.908606342798859
1040
3.837499547552643
1040
0.4142135623731526
1040
6.171106342798904
1040
3.574999547552649
1040
0.0
1040
7.921106342798849
1040
3.574999547552649
1040
0.4142135623731045
1040
9.321106342798886
1040
4.974999547552638
1040
0.0
1040
9.321106342798886
1040
5.882600560230271
1040
0.1989123673796604
1040
8.706030583290608
1040
7.367524800722041
1040
0.0
1071
        0
1071
        7
1070
     1
1070
     1
1071
       16
1040
11.77110634279886
1040
9.524999547552651
1040
-0.4142135623730935
1040
12.47110634279886
1040
10.22499954755264
1040
0.0
1040
13.43360634279884
1040
10.22499954755264
1040
0.4142135623731546
1040
13.69610634279888
1040
10.48749954755264
1040
0.0
1040
13.69610634279888
1040
11.36249954755265
1040
0.4142135623730951
1040
13.43360634279889
1040
11.62499954755264
1040
0.0
1040
12.4711063427988
1040
11.62499954755262
1040
0.4142135623730893
1040
10.37110634279883
1040
9.524999547552617
1040
0.0
1040
10.37110634279883
1040
5.674999547552661
1040
0.4142135623730969
1040
12.47110634279886
1040
3.574999547552649
1040
0.0
1040
13.43360634279884
1040
3.574999547552649
1040
0.4142135623731526
1040
13.69610634279888
1040
3.837499547552643
1040
0.0
1040
13.69610634279888
1040
4.712499547552654
1040
0.4142135623730891
1040
13.43360634279889
1040
4.974999547552648
1040
0.0
1040
12.47110634279886
1040
4.974999547552648
1040
-0.4142135623730928
1040
11.77110634279886
1040
5.674999547552641
1040
0.0
1071
        0
1071
        7
1070
     1
1070
     1
1071
        2
1040
12.12110634279884
1040
7.599999547552645
1040
1.0
1040
13.87110634279884
1040
7.599999547552645
1040
1.0
1071
        0
1071
        7
1070
     1
1070
     1
1071
       26
1040
18.65742958388784
1040
9.602523144334361
1040
0.0
1040
19.18824940045675
1040
11.28345256346915
1040
0.5069206636600134
1040
18.93793395085907
1040
11.62499954755264
1040
0.0
1040
18.08848926105445
1040
11.62499954755264
1040
0.3272098845218764
1040
17.83817381145678
1040
11.44154653163613
1040
0.0
1040
16.90403887414088
1040
8.483452563469185
1040
-0.3272098845219541
1040
16.65372342454315
1040
8.299999547552646
1040
0.0
1040
16.58360634279893
1040
8.299999547552646
1040
-0.4142135623731526
1040
16.32110634279888
1040
8.56249954755264
1040
0.0
1040
16.32110634279888
1040
11.36249954755265
1040
0.4142135623730951
1040
16.05860634279889
1040
11.62499954755264
1040
0.0
1040
15.18360634279883
1040
11.62499954755264
1040
0.4142135623730871
1040
14.92110634279885
1040
11.36249954755265
1040
0.0
1040
14.92110634279885
1040
3.837499547552643
1040
0.4142135623730891
1040
15.18360634279883
1040
3.574999547552649
1040
0.0
1040
16.05860634279884
1040
3.574999547552649
1040
0.4142135623731526
1040
16.32110634279888
1040
3.837499547552643
1040
0.0
1040
16.32110634279888
1040
6.63749954755265
1040
-0.4142135623731526
1040
16.58360634279893
1040
6.899999547552646
1040
0.0
1040
16.65372342454321
1040
6.899999547552646
1040
-0.3272098845218915
1040
16.90403887414088
1040
6.716546531636111
1040
0.0
1040
17.83817381145678
1040
3.758452563469185
1040
0.3272098845218902
1040
18.08848926105445
1040
3.574999547552649
1040
0.0
1040
18.93793395085907
1040
3.574999547552649
1040
0.5069206636600336
1040
19.18824940045675
1040
3.916546531636154
1040
0.0
1040
18.02505371121992
1040
7.599999547552716
1040
0.0
1071
        0
1071
        7
1070
     1
1070
     1
1071
        8
1040
21.74610634279883
1040
11.36249954755265
1040
0.4142135623731546
1040
21.48360634279879
1040
11.62499954755264
1040
0.0
1040
20.60860634279891
1040
11.62499954755264
1040
0.4142135623731507
1040
20.34610634279885
1040
11.36249954755265
1040
0.0
1040
20.34610634279885
1040
3.837499547552643
1040
0.4142135623731526
1040
20.60860634279891
1040
3.574999547552649
1040
0.0
1040
21.48360634279879
1040
3.574999547552649
1040
0.4142135623731526
1040
21.74610634279883
1040
3.837499547552643
1040
0.0
1071
        0
1071
        7
1070
     1
1070
     1
1071
       24
1040
24.19610634279888
1040
9.962499547552651
1040
-0.4142135623731546
1040
24.45860634279893
1040
10.22499954755264
1040
0.0
1040
25.94610634279888
1040
10.22499954755264
1040
0.4142135623730911
1040
26.20860634279887
1040
10.48749954755264
1040
0.0
1040
26.20860634279887
1040
11.36249954755265
1040
0.4142135623730952
1040
25.94610634279888
1040
11.62499954755264
1040
0.0
1040
24.19610634279888
1040
11.62499954755264
1040
0.4142135623731048
1040
22.79610634279884
1040
10.22499954755266
1040
0.0
1040
22.79610634279884
1040
9.317398534875026
1040
0.1989123673796613
1040
23.41118210230712
1040
7.832474294383251
1040
0.0
1040
24.86608108962945
1040
6.377575307060917
1040
-0.1989123673796402
1040
25.07110634279888
1040
5.882600560230381
1040
0.0
1040
25.07110634279888
1040
5.237499547552641
1040
-0.4142135623730911
1040
24.80860634279889
1040
4.974999547552648
1040
0.0
1040
23.32110634279888
1040
4.974999547552648
1040
0.4142135623731526
1040
23.05860634279884
1040
4.712499547552654
1040
0.0
1040
23.05860634279884
1040
3.837499547552643
1040
0.4142135623730891
1040
23.32110634279882
1040
3.574999547552649
1040
0.0
1040
25.07110634279888
1040
3.574999547552649
1040
0.4142135623730925
1040
26.47110634279886
1040
4.974999547552638
1040
0.0
1040
26.47110634279886
1040
5.882600560230271
1040
0.1989123673796675
1040
25.85603058329059
1040
7.367524800722101
1040
0.0
1040
24.4011315959683
1040
8.822423788044357
1040
-0.1989123673796652
1040
24.19610634279888
1040
9.317398534874939
1040
0.0
1071
        0
1071
        7
1070
     1
1070
     1
1071
       16
1040
28.92110634279885
1040
11.36249954755264
1040
0.414213562373103
1040
28.65860634279886
1040
11.62499954755264
1040
0.0
1040
27.78360634279886
1040
11.62499954755264
1040
0.4142135623730871
1040
27.52110634279887
1040
11.36249954755265
1040
0.0
1040
27.52110634279887
1040
4.974999547552638
1040
0.4142135623730927
1040
28.92110634279885
1040
3.574999547552649
1040
0.0
1040
30.67110634279885
1040
3.574999547552649
1040
0.4142135623731045
1040
32.07110634279888
1040
4.974999547552638
1040
0.0
1040
32.07110634279888
1040
11.36249954755265
1040
0.4142135623730951
1040
31.80860634279889
1040
11.62499954755264
1040
0.0
1040
30.93360634279884
1040
11.62499954755264
1040
0.4142135623730871
1040
30.67110634279885
1040
11.36249954755265
1040
0.0
1040
30.67110634279885
1040
5.499999547552635
1040
-0.4142135623730879
1040
30.14610634279887
1040
4.974999547552648
1040
0.0
1040
29.44610634279888
1040
4.974999547552648
1040
-0.4142135623731197
1040
28.92110634279885
1040
5.499999547552635
1040
0.0
1071
        0
1071
        7
1070
     1
1070
     1
1071
        8
1040
34.52110634279887
1040
11.36249954755265
1040
0.4142135623730871
1040
34.25860634279888
1040
11.62499954755264
1040
0.0
1040
33.38360634279888
1040
11.62499954755264
1040
0.4142135623731507
1040
33.12110634279884
1040
11.36249954755265
1040
0.0
1040
33.12110634279884
1040
3.837499547552643
1040
0.4142135623730891
1040
33.38360634279883
1040
3.574999547552649
1040
0.0
1040
34.25860634279888
1040
3.574999547552649
1040
0.4142135623730891
1040
34.52110634279887
1040
3.837499547552643
1040
0.0
1071
        0
1070
     0
1070
     1
1040
0.0
1040
0.1
1070
     0
1070
     2
1040
0.7853981633974483
1040
-450.4711519019312
1040
-6.600000452447313
1040
-0.2245064030267288
1040
0.2245064030267288
1070
     0
1040
2.356194490192344
1040
-450.4711519019312
1040
-6.600000452447313
1040
-0.2245064030267288
1040
-0.2245064030267288
1070
     0
1040
0.057451373970553
1071
        8
1040
8.039927746919939
1040
7.583586370495421
1040
0.0
1040
11.20225776862787
1040
9.422030638778151
1040
0.0
1040
12.58218420823811
1040
7.755940370588006
1040
0.0
1040
15.45703025622685
1040
8.100648370773395
1040
0.0
1040
20.91923627488665
1040
8.330454504544206
1040
0.0
1040
23.44910071297306
1040
9.709287705756251
1040
0.0
1040
28.27884325160846
1040
9.364578505100151
1040
0.0
1040
33.91354007521965
1040
9.594384638870961
1040
0.0
1002
}
  0
LINE
  5
6A3
330
1A
100
AcDbEntity
  8
ZUWAKU
100
AcDbLine
 10
12.47110634279886
 20
11.62499954755262
 30
0.0
 11
13.43360634279884
 21
11.62499954755264
 31
0.0
  0
LINE
  5
6A4
330
1A
100
AcDbEntity
  8
ZUWAKU
100
AcDbLine
 10
13.43360634279884
 20
10.22499954755264
 30
0.0
 11
12.47110634279886
 21
10.22499954755264
 31
0.0
  0
LINE
  5
6A5
330
1A
100
AcDbEntity
  8
ZUWAKU
100
AcDbLine
 10
12.47110634279886
 20
4.974999547552648
 30
0.0
 11
13.43360634279884
 21
4.974999547552648
 31
0.0
  0
LINE
  5
6A6
330
1A
100
AcDbEntity
  8
ZUWAKU
100
AcDbLine
 10
13.43360634279884
 20
3.574999547552649
 30
0.0
 11
12.47110634279886
 21
3.574999547552649
 31
0.0
  0
CIRCLE
  5
6A7
330
1A
100
AcDbEntity
  8
ZUWAKU
100
AcDbCircle
 10
12.99610634279883
 20
7.599999547552645
 30
0.0
 40
0.875
  0
ARC
  5
6A8
330
1A
100
AcDbEntity
  8
ZUWAKU
100
AcDbCircle
 10
7.746106342798839
 20
9.317398534874994
 30
0.0
 40
0.6999999999999995
100
AcDbArc
 50
180.0000000000015
 51
224.9999999999988
  0
LINE
  5
6A9
330
1A
100
AcDbEntity
  8
ZUWAKU
100
AcDbLine
 10
11.77110634279886
 20
9.524999547552646
 30
0.0
 11
11.77110634279886
 21
5.67499954755265
 31
0.0
  0
LINE
  5
6AA
330
1A
100
AcDbEntity
  8
ZUWAKU
100
AcDbLine
 10
10.37110634279883
 20
5.67499954755265
 30
0.0
 11
10.37110634279883
 21
9.524999547552626
 31
0.0
  0
ARC
  5
6AB
330
1A
100
AcDbEntity
  8
ZUWAKU
100
AcDbCircle
 10
7.746106342798839
 20
9.317398534874994
 30
0.0
 40
2.099999999999999
100
AcDbArc
 50
180.0
 51
225.0
  0
ARC
  5
6AC
330
1A
100
AcDbEntity
  8
ZUWAKU
100
AcDbCircle
 10
7.921106342798849
 20
4.974999547552648
 30
0.0
 40
1.399999999999999
100
AcDbArc
 50
270.0
 51
0.0
  0
ARC
  5
6AD
330
1A
100
AcDbEntity
  8
ZUWAKU
100
AcDbCircle
 10
12.47110634279886
 20
5.67499954755265
 30
0.0
 40
2.099999999999999
100
AcDbArc
 50
180.0
 51
270.0
  0
ARC
  5
6AE
330
1A
100
AcDbEntity
  8
ZUWAKU
100
AcDbCircle
 10
7.221106342798859
 20
5.882600560230301
 30
0.0
 40
2.099999999999999
100
AcDbArc
 50
0.0
 51
45.0
  0
LINE
  5
6AF
330
1A
100
AcDbEntity
  8
ZUWAKU
100
AcDbLine
 10
8.706030583290608
 20
7.36752480072206
 30
0.0
 11
7.251131595968269
 21
8.822423788044396
 31
0.0
  0
LINE
  5
6B0
330
1A
100
AcDbEntity
  8
ZUWAKU
100
AcDbLine
 10
7.921106342798849
 20
5.23749954755265
 30
0.0
 11
7.921106342798849
 21
5.88260056023032
 31
0.0
  0
ARC
  5
6B1
330
1A
100
AcDbEntity
  8
ZUWAKU
100
AcDbCircle
 10
7.658606342798859
 20
5.23749954755265
 30
0.0
 40
0.2625
100
AcDbArc
 50
270.0
 51
0.0
  0
ARC
  5
6B2
330
1A
100
AcDbEntity
  8
ZUWAKU
100
AcDbCircle
 10
7.221106342798859
 20
5.88260056023032
 30
0.0
 40
0.6999999999999995
100
AcDbArc
 50
0.0
 51
45.0
  0
LINE
  5
6B3
330
1A
100
AcDbEntity
  8
ZUWAKU
100
AcDbLine
 10
5.908606342798859
 20
3.837499547552649
 30
0.0
 11
5.908606342798859
 21
4.712499547552648
 31
0.0
  0
ARC
  5
6B4
330
1A
100
AcDbEntity
  8
ZUWAKU
100
AcDbCircle
 10
6.171106342798849
 20
3.837499547552649
 30
0.0
 40
0.2625
100
AcDbArc
 50
180.0
 51
270.0
  0
ARC
  5
6B5
330
1A
100
AcDbEntity
  8
ZUWAKU
100
AcDbCircle
 10
6.171106342798849
 20
4.712499547552648
 30
0.0
 40
0.2625
100
AcDbArc
 50
90.0
 51
180.0
  0
LINE
  5
6B6
330
1A
100
AcDbEntity
  8
ZUWAKU
100
AcDbLine
 10
6.171106342798849
 20
3.574999547552649
 30
0.0
 11
7.921106342798849
 21
3.574999547552649
 31
0.0
  0
LINE
  5
6B7
330
1A
100
AcDbEntity
  8
ZUWAKU
100
AcDbLine
 10
6.171106342798849
 20
4.974999547552648
 30
0.0
 11
7.658606342798859
 21
4.974999547552648
 31
0.0
  0
LINE
  5
6B8
330
1A
100
AcDbEntity
  8
ZUWAKU
100
AcDbLine
 10
6.261182102307084
 20
7.832474294383235
 30
0.0
 11
7.716081089629423
 21
6.377575307060906
 31
0.0
  0
LINE
  5
6B9
330
1A
100
AcDbEntity
  8
ZUWAKU
100
AcDbLine
 10
9.321106342798886
 20
4.974999547552648
 30
0.0
 11
9.321106342798886
 21
5.88260056023032
 31
0.0
  0
ARC
  5
6BA
330
1A
100
AcDbEntity
  8
ZUWAKU
100
AcDbCircle
 10
12.47110634279886
 20
5.67499954755265
 30
0.0
 40
0.6999999999999995
100
AcDbArc
 50
180.0
 51
270.0
  0
ARC
  5
6BB
330
1A
100
AcDbEntity
  8
ZUWAKU
100
AcDbCircle
 10
8.79610634279885
 20
11.36249954755264
 30
0.0
 40
0.2625
100
AcDbArc
 50
0.0
 51
90.0
  0
ARC
  5
6BC
330
1A
100
AcDbEntity
  8
ZUWAKU
100
AcDbCircle
 10
8.79610634279885
 20
10.48749954755264
 30
0.0
 40
0.2625
100
AcDbArc
 50
270.0
 51
0.0
  0
LINE
  5
6BD
330
1A
100
AcDbEntity
  8
ZUWAKU
100
AcDbLine
 10
7.046106342798849
 20
11.62499954755264
 30
0.0
 11
8.79610634279885
 21
11.62499954755264
 31
0.0
  0
ARC
  5
6BE
330
1A
100
AcDbEntity
  8
ZUWAKU
100
AcDbCircle
 10
7.308606342798834
 20
9.962499547552646
 30
0.0
 40
0.2625
100
AcDbArc
 50
90.0
 51
180.0
  0
LINE
  5
6BF
330
1A
100
AcDbEntity
  8
ZUWAKU
100
AcDbLine
 10
7.046106342798849
 20
9.962499547552646
 30
0.0
 11
7.046106342798849
 21
9.317398534874977
 31
0.0
  0
LINE
  5
6C0
330
1A
100
AcDbEntity
  8
ZUWAKU
100
AcDbLine
 10
8.79610634279885
 20
10.22499954755264
 30
0.0
 11
7.308606342798834
 21
10.22499954755264
 31
0.0
  0
LINE
  5
6C1
330
1A
100
AcDbEntity
  8
ZUWAKU
100
AcDbLine
 10
5.646106342798869
 20
10.22499954755264
 30
0.0
 11
5.646106342798869
 21
9.317398534874977
 31
0.0
  0
ARC
  5
6C2
330
1A
100
AcDbEntity
  8
ZUWAKU
100
AcDbCircle
 10
7.046106342798849
 20
10.22499954755264
 30
0.0
 40
1.399999999999999
100
AcDbArc
 50
90.0
 51
180.0
  0
LINE
  5
6C3
330
1A
100
AcDbEntity
  8
ZUWAKU
100
AcDbLine
 10
9.058606342798841
 20
11.36249954755264
 30
0.0
 11
9.058606342798841
 21
10.48749954755264
 31
0.0
  0
ARC
  5
6C4
330
1A
100
AcDbEntity
  8
ZUWAKU
100
AcDbCircle
 10
12.47110634279886
 20
9.524999547552646
 30
0.0
 40
0.6999999999999995
100
AcDbArc
 50
90.0
 51
180.0
  0
ARC
  5
6C5
330
1A
100
AcDbEntity
  8
ZUWAKU
100
AcDbCircle
 10
12.47110634279886
 20
9.524999547552626
 30
0.0
 40
2.099999999999999
100
AcDbArc
 50
90.0
 51
180.0
  0
LINE
  5
6C6
330
1A
100
AcDbEntity
  8
ZUWAKU
100
AcDbLine
 10
39.66331503940239
 20
14.99999954755264
 30
0.0
 11
39.6633150394025
 21
0.3999995475526816
 31
0.0
  0
LINE
  5
6C7
330
1A
100
AcDbEntity
  8
ZUWAKU
100
AcDbLine
 10
39.76331503940241
 20
14.99999954755264
 30
0.0
 11
39.76331503940252
 21
0.3999995475526816
 31
0.0
  0
LINE
  5
6C8
330
1A
100
AcDbEntity
  8
ZUWAKU
100
AcDbLine
 10
39.56331503940248
 20
14.99999954755264
 30
0.0
 11
39.56331503940248
 21
0.3999995475526816
 31
0.0
  0
LINE
  5
6C9
330
1A
100
AcDbEntity
  8
ZUWAKU
100
AcDbLine
 10
32.07110634279888
 20
4.974999547552648
 30
0.0
 11
32.07110634279888
 21
11.36249954755264
 31
0.0
  0
LINE
  5
6CA
330
1A
100
AcDbEntity
  8
ZUWAKU
100
AcDbLine
 10
30.67110634279885
 20
11.36249954755264
 30
0.0
 11
30.67110634279885
 21
5.499999547552645
 31
0.0
  0
LINE
  5
6CB
330
1A
100
AcDbEntity
  8
ZUWAKU
100
AcDbLine
 10
34.52110634279887
 20
3.837499547552649
 30
0.0
 11
34.52110634279887
 21
11.36249954755264
 31
0.0
  0
LINE
  5
6CC
330
1A
100
AcDbEntity
  8
ZUWAKU
100
AcDbLine
 10
33.12110634279884
 20
11.36249954755264
 30
0.0
 11
33.12110634279884
 21
3.837499547552649
 31
0.0
  0
ARC
  5
6CD
330
1A
100
AcDbEntity
  8
ZUWAKU
100
AcDbCircle
 10
24.89610634279887
 20
9.317398534874994
 30
0.0
 40
0.6999999999999995
100
AcDbArc
 50
180.0000000000015
 51
224.9999999999988
  0
ARC
  5
6CE
330
1A
100
AcDbEntity
  8
ZUWAKU
100
AcDbCircle
 10
24.89610634279887
 20
9.317398534874994
 30
0.0
 40
2.099999999999999
100
AcDbArc
 50
180.0
 51
225.0
  0
LINE
  5
6CF
330
1A
100
AcDbEntity
  8
ZUWAKU
100
AcDbLine
 10
18.65742958388784
 20
9.602523144334361
 30
0.0
 11
18.02505371121992
 21
7.599999547552655
 31
0.0
  0
LINE
  5
6D0
330
1A
100
AcDbEntity
  8
ZUWAKU
100
AcDbLine
 10
20.34610634279885
 20
11.36249954755264
 30
0.0
 11
20.34610634279885
 21
3.837499547552649
 31
0.0
  0
LINE
  5
6D1
330
1A
100
AcDbEntity
  8
ZUWAKU
100
AcDbLine
 10
21.74610634279883
 20
3.837499547552649
 30
0.0
 11
21.74610634279883
 21
11.36249954755264
 31
0.0
  0
LINE
  5
6D2
330
1A
100
AcDbEntity
  8
ZUWAKU
100
AcDbLine
 10
27.52110634279887
 20
11.36249954755264
 30
0.0
 11
27.52110634279887
 21
4.974999547552648
 31
0.0
  0
LINE
  5
6D3
330
1A
100
AcDbEntity
  8
ZUWAKU
100
AcDbLine
 10
28.92110634279885
 20
5.499999547552645
 30
0.0
 11
28.92110634279885
 21
11.36249954755264
 31
0.0
  0
LINE
  5
6D4
330
1A
100
AcDbEntity
  8
ZUWAKU
100
AcDbLine
 10
16.32110634279888
 20
8.562499547552651
 30
0.0
 11
16.32110634279888
 21
11.36249954755264
 31
0.0
  0
LINE
  5
6D5
330
1A
100
AcDbEntity
  8
ZUWAKU
100
AcDbLine
 10
14.92110634279885
 20
11.36249954755264
 30
0.0
 11
14.92110634279885
 21
3.837499547552649
 31
0.0
  0
LINE
  5
6D6
330
1A
100
AcDbEntity
  8
ZUWAKU
100
AcDbLine
 10
17.83817381145678
 20
11.44154653163613
 30
0.0
 11
16.90403887414088
 21
8.48345256346916
 31
0.0
  0
LINE
  5
6D7
330
1A
100
AcDbEntity
  8
ZUWAKU
100
AcDbLine
 10
30.14610634279887
 20
4.974999547552648
 30
0.0
 11
29.44610634279888
 21
4.974999547552648
 31
0.0
  0
LINE
  5
6D8
330
1A
100
AcDbEntity
  8
ZUWAKU
100
AcDbLine
 10
28.92110634279885
 20
3.574999547552649
 30
0.0
 11
30.67110634279885
 21
3.574999547552649
 31
0.0
  0
LINE
  5
6D9
330
1A
100
AcDbEntity
  8
ZUWAKU
100
AcDbLine
 10
20.60860634279884
 20
3.574999547552649
 30
0.0
 11
21.48360634279885
 21
3.574999547552649
 31
0.0
  0
LINE
  5
6DA
330
1A
100
AcDbEntity
  8
ZUWAKU
100
AcDbLine
 10
17.83817381145678
 20
3.758452563469162
 30
0.0
 11
16.90403887414088
 21
6.716546531636131
 31
0.0
  0
ARC
  5
6DB
330
1A
100
AcDbEntity
  8
ZUWAKU
100
AcDbCircle
 10
16.65372342454321
 20
8.562499547552651
 30
0.0
 40
0.2625
100
AcDbArc
 50
270.0
 51
342.4744316262769
  0
LINE
  5
6DC
330
1A
100
AcDbEntity
  8
ZUWAKU
100
AcDbLine
 10
16.65372342454321
 20
8.299999547552646
 30
0.0
 11
16.58360634279887
 21
8.299999547552646
 31
0.0
  0
LINE
  5
6DD
330
1A
100
AcDbEntity
  8
ZUWAKU
100
AcDbLine
 10
16.58360634279887
 20
6.899999547552646
 30
0.0
 11
16.65372342454321
 21
6.899999547552646
 31
0.0
  0
ARC
  5
6DE
330
1A
100
AcDbEntity
  8
ZUWAKU
100
AcDbCircle
 10
16.58360634279887
 20
8.562499547552651
 30
0.0
 40
0.2625
100
AcDbArc
 50
180.0
 51
270.0
  0
LINE
  5
6DF
330
1A
100
AcDbEntity
  8
ZUWAKU
100
AcDbLine
 10
15.18360634279883
 20
3.574999547552649
 30
0.0
 11
16.05860634279884
 21
3.574999547552649
 31
0.0
  0
ARC
  5
6E0
330
1A
100
AcDbEntity
  8
ZUWAKU
100
AcDbCircle
 10
16.05860634279884
 20
3.837499547552649
 30
0.0
 40
0.2625
100
AcDbArc
 50
270.0
 51
0.0
  0
LINE
  5
6E1
330
1A
100
AcDbEntity
  8
ZUWAKU
100
AcDbLine
 10
16.32110634279888
 20
3.837499547552649
 30
0.0
 11
16.32110634279888
 21
6.637499547552645
 31
0.0
  0
LINE
  5
6E2
330
1A
100
AcDbEntity
  8
ZUWAKU
100
AcDbLine
 10
13.69610634279888
 20
4.712499547552648
 30
0.0
 11
13.69610634279888
 21
3.837499547552649
 31
0.0
  0
ARC
  5
6E3
330
1A
100
AcDbEntity
  8
ZUWAKU
100
AcDbCircle
 10
13.43360634279884
 20
3.837499547552649
 30
0.0
 40
0.2625
100
AcDbArc
 50
270.0
 51
0.0
  0
ARC
  5
6E4
330
1A
100
AcDbEntity
  8
ZUWAKU
100
AcDbCircle
 10
13.43360634279884
 20
4.712499547552648
 30
0.0
 40
0.2625
100
AcDbArc
 50
0.0
 51
90.0
  0
ARC
  5
6E5
330
1A
100
AcDbEntity
  8
ZUWAKU
100
AcDbCircle
 10
15.18360634279883
 20
3.837499547552649
 30
0.0
 40
0.2625
100
AcDbArc
 50
180.0
 51
270.0
  0
ARC
  5
6E6
330
1A
100
AcDbEntity
  8
ZUWAKU
100
AcDbCircle
 10
16.65372342454321
 20
6.637499547552645
 30
0.0
 40
0.2625
100
AcDbArc
 50
17.52556837372303
 51
90.0
  0
ARC
  5
6E7
330
1A
100
AcDbEntity
  8
ZUWAKU
100
AcDbCircle
 10
16.58360634279887
 20
6.637499547552645
 30
0.0
 40
0.2625
100
AcDbArc
 50
90.0
 51
180.0
  0
ARC
  5
6E8
330
1A
100
AcDbEntity
  8
ZUWAKU
100
AcDbCircle
 10
20.60860634279884
 20
3.837499547552649
 30
0.0
 40
0.2625
100
AcDbArc
 50
180.0
 51
270.0
  0
LINE
  5
6E9
330
1A
100
AcDbEntity
  8
ZUWAKU
100
AcDbLine
 10
18.08848926105451
 20
3.574999547552649
 30
0.0
 11
18.93793395085902
 21
3.574999547552649
 31
0.0
  0
ARC
  5
6EA
330
1A
100
AcDbEntity
  8
ZUWAKU
100
AcDbCircle
 10
18.93793395085902
 20
3.837499547552649
 30
0.0
 40
0.2625
100
AcDbArc
 50
270.0
 51
17.52556837372303
  0
LINE
  5
6EB
330
1A
100
AcDbEntity
  8
ZUWAKU
100
AcDbLine
 10
19.18824940045675
 20
3.916546531636136
 30
0.0
 11
18.02505371121992
 21
7.599999547552655
 31
0.0
  0
ARC
  5
6EC
330
1A
100
AcDbEntity
  8
ZUWAKU
100
AcDbCircle
 10
18.08848926105451
 20
3.837499547552649
 30
0.0
 40
0.2625
100
AcDbArc
 50
197.5255683737229
 51
270.0
  0
ARC
  5
6ED
330
1A
100
AcDbEntity
  8
ZUWAKU
100
AcDbCircle
 10
28.92110634279885
 20
4.974999547552648
 30
0.0
 40
1.399999999999999
100
AcDbArc
 50
180.0
 51
270.0
  0
ARC
  5
6EE
330
1A
100
AcDbEntity
  8
ZUWAKU
100
AcDbCircle
 10
25.07110634279888
 20
4.974999547552648
 30
0.0
 40
1.399999999999999
100
AcDbArc
 50
270.0
 51
0.0
  0
LINE
  5
6EF
330
1A
100
AcDbEntity
  8
ZUWAKU
100
AcDbLine
 10
25.85603058329064
 20
7.36752480072206
 30
0.0
 11
24.40113159596825
 21
8.822423788044396
 31
0.0
  0
LINE
  5
6F0
330
1A
100
AcDbEntity
  8
ZUWAKU
100
AcDbLine
 10
25.07110634279888
 20
5.23749954755265
 30
0.0
 11
25.07110634279888
 21
5.88260056023032
 31
0.0
  0
ARC
  5
6F1
330
1A
100
AcDbEntity
  8
ZUWAKU
100
AcDbCircle
 10
24.37110634279884
 20
5.88260056023032
 30
0.0
 40
0.6999999999999995
100
AcDbArc
 50
0.0
 51
45.0
  0
ARC
  5
6F2
330
1A
100
AcDbEntity
  8
ZUWAKU
100
AcDbCircle
 10
24.80860634279884
 20
5.23749954755265
 30
0.0
 40
0.2625
100
AcDbArc
 50
270.0
 51
0.0
  0
LINE
  5
6F3
330
1A
100
AcDbEntity
  8
ZUWAKU
100
AcDbLine
 10
23.05860634279884
 20
3.837499547552649
 30
0.0
 11
23.05860634279884
 21
4.712499547552648
 31
0.0
  0
ARC
  5
6F4
330
1A
100
AcDbEntity
  8
ZUWAKU
100
AcDbCircle
 10
23.32110634279888
 20
3.837499547552649
 30
0.0
 40
0.2625
100
AcDbArc
 50
180.0
 51
270.0
  0
ARC
  5
6F5
330
1A
100
AcDbEntity
  8
ZUWAKU
100
AcDbCircle
 10
21.48360634279885
 20
3.837499547552649
 30
0.0
 40
0.2625
100
AcDbArc
 50
270.0
 51
0.0
  0
ARC
  5
6F6
330
1A
100
AcDbEntity
  8
ZUWAKU
100
AcDbCircle
 10
23.32110634279888
 20
4.712499547552648
 30
0.0
 40
0.2625
100
AcDbArc
 50
90.0
 51
180.0
  0
LINE
  5
6F7
330
1A
100
AcDbEntity
  8
ZUWAKU
100
AcDbLine
 10
23.32110634279888
 20
4.974999547552648
 30
0.0
 11
24.80860634279884
 21
4.974999547552648
 31
0.0
  0
LINE
  5
6F8
330
1A
100
AcDbEntity
  8
ZUWAKU
100
AcDbLine
 10
23.32110634279888
 20
3.574999547552649
 30
0.0
 11
25.07110634279888
 21
3.574999547552649
 31
0.0
  0
LINE
  5
6F9
330
1A
100
AcDbEntity
  8
ZUWAKU
100
AcDbLine
 10
23.41118210230712
 20
7.832474294383235
 30
0.0
 11
24.86608108962945
 21
6.377575307060906
 31
0.0
  0
LINE
  5
6FA
330
1A
100
AcDbEntity
  8
ZUWAKU
100
AcDbLine
 10
26.47110634279886
 20
4.974999547552648
 30
0.0
 11
26.47110634279886
 21
5.88260056023032
 31
0.0
  0
ARC
  5
6FB
330
1A
100
AcDbEntity
  8
ZUWAKU
100
AcDbCircle
 10
24.37110634279884
 20
5.882600560230301
 30
0.0
 40
2.099999999999999
100
AcDbArc
 50
0.0
 51
45.0
  0
ARC
  5
6FC
330
1A
100
AcDbEntity
  8
ZUWAKU
100
AcDbCircle
 10
29.44610634279888
 20
5.499999547552645
 30
0.0
 40
0.5249999999999995
100
AcDbArc
 50
180.0
 51
270.0
  0
ARC
  5
6FD
330
1A
100
AcDbEntity
  8
ZUWAKU
100
AcDbCircle
 10
30.67110634279885
 20
4.974999547552648
 30
0.0
 40
1.399999999999999
100
AcDbArc
 50
270.0
 51
0.0
  0
LINE
  5
6FE
330
1A
100
AcDbEntity
  8
ZUWAKU
100
AcDbLine
 10
33.38360634279888
 20
3.574999547552649
 30
0.0
 11
34.25860634279888
 21
3.574999547552649
 31
0.0
  0
ARC
  5
6FF
330
1A
100
AcDbEntity
  8
ZUWAKU
100
AcDbCircle
 10
33.38360634279888
 20
3.837499547552649
 30
0.0
 40
0.2625
100
AcDbArc
 50
180.0
 51
270.0
  0
ARC
  5
700
330
1A
100
AcDbEntity
  8
ZUWAKU
100
AcDbCircle
 10
30.14610634279887
 20
5.499999547552645
 30
0.0
 40
0.5249999999999995
100
AcDbArc
 50
270.0
 51
0.0
  0
ARC
  5
701
330
1A
100
AcDbEntity
  8
ZUWAKU
100
AcDbCircle
 10
34.25860634279888
 20
3.837499547552649
 30
0.0
 40
0.2625
100
AcDbArc
 50
270.0
 51
0.0
  0
LINE
  5
702
330
1A
100
AcDbEntity
  8
ZUWAKU
100
AcDbLine
 10
21.48360634279885
 20
11.62499954755264
 30
0.0
 11
20.60860634279884
 21
11.62499954755264
 31
0.0
  0
ARC
  5
703
330
1A
100
AcDbEntity
  8
ZUWAKU
100
AcDbCircle
 10
16.05860634279884
 20
11.36249954755264
 30
0.0
 40
0.2625
100
AcDbArc
 50
0.0
 51
90.0
  0
LINE
  5
704
330
1A
100
AcDbEntity
  8
ZUWAKU
100
AcDbLine
 10
16.05860634279884
 20
11.62499954755264
 30
0.0
 11
15.18360634279883
 21
11.62499954755264
 31
0.0
  0
ARC
  5
705
330
1A
100
AcDbEntity
  8
ZUWAKU
100
AcDbCircle
 10
13.43360634279884
 20
11.36249954755264
 30
0.0
 40
0.2625
100
AcDbArc
 50
0.0
 51
90.0
  0
ARC
  5
706
330
1A
100
AcDbEntity
  8
ZUWAKU
100
AcDbCircle
 10
15.18360634279883
 20
11.36249954755264
 30
0.0
 40
0.2625
100
AcDbArc
 50
90.0
 51
180.0
  0
ARC
  5
707
330
1A
100
AcDbEntity
  8
ZUWAKU
100
AcDbCircle
 10
13.43360634279884
 20
10.48749954755264
 30
0.0
 40
0.2625
100
AcDbArc
 50
270.0
 51
0.0
  0
LINE
  5
708
330
1A
100
AcDbEntity
  8
ZUWAKU
100
AcDbLine
 10
13.69610634279888
 20
11.36249954755264
 30
0.0
 11
13.69610634279888
 21
10.48749954755264
 31
0.0
  0
ARC
  5
709
330
1A
100
AcDbEntity
  8
ZUWAKU
100
AcDbCircle
 10
20.60860634279884
 20
11.36249954755264
 30
0.0
 40
0.2625
100
AcDbArc
 50
90.0
 51
180.0
  0
LINE
  5
70A
330
1A
100
AcDbEntity
  8
ZUWAKU
100
AcDbLine
 10
18.08848926105451
 20
11.62499954755264
 30
0.0
 11
18.93793395085902
 21
11.62499954755264
 31
0.0
  0
ARC
  5
70B
330
1A
100
AcDbEntity
  8
ZUWAKU
100
AcDbCircle
 10
18.93793395085902
 20
11.36249954755264
 30
0.0
 40
0.2625
100
AcDbArc
 50
342.4744316262769
 51
90.0
  0
LINE
  5
70C
330
1A
100
AcDbEntity
  8
ZUWAKU
100
AcDbLine
 10
19.18824940045675
 20
11.28345256346916
 30
0.0
 11
18.65742958388784
 21
9.602523144334361
 31
0.0
  0
ARC
  5
70D
330
1A
100
AcDbEntity
  8
ZUWAKU
100
AcDbCircle
 10
18.08848926105451
 20
11.36249954755264
 30
0.0
 40
0.2625
100
AcDbArc
 50
90.0
 51
162.4744316262769
  0
LINE
  5
70E
330
1A
100
AcDbEntity
  8
ZUWAKU
100
AcDbLine
 10
24.19610634279888
 20
11.62499954755264
 30
0.0
 11
25.94610634279888
 21
11.62499954755264
 31
0.0
  0
LINE
  5
70F
330
1A
100
AcDbEntity
  8
ZUWAKU
100
AcDbLine
 10
25.94610634279888
 20
10.22499954755264
 30
0.0
 11
24.45860634279886
 21
10.22499954755264
 31
0.0
  0
ARC
  5
710
330
1A
100
AcDbEntity
  8
ZUWAKU
100
AcDbCircle
 10
24.45860634279886
 20
9.962499547552646
 30
0.0
 40
0.2625
100
AcDbArc
 50
90.0
 51
180.0
  0
LINE
  5
711
330
1A
100
AcDbEntity
  8
ZUWAKU
100
AcDbLine
 10
24.19610634279888
 20
9.962499547552646
 30
0.0
 11
24.19610634279888
 21
9.317398534874977
 31
0.0
  0
ARC
  5
712
330
1A
100
AcDbEntity
  8
ZUWAKU
100
AcDbCircle
 10
21.48360634279885
 20
11.36249954755264
 30
0.0
 40
0.2625
100
AcDbArc
 50
0.0
 51
90.0
  0
LINE
  5
713
330
1A
100
AcDbEntity
  8
ZUWAKU
100
AcDbLine
 10
22.79610634279884
 20
10.22499954755264
 30
0.0
 11
22.79610634279884
 21
9.317398534874977
 31
0.0
  0
ARC
  5
714
330
1A
100
AcDbEntity
  8
ZUWAKU
100
AcDbCircle
 10
24.19610634279888
 20
10.22499954755264
 30
0.0
 40
1.399999999999999
100
AcDbArc
 50
90.0
 51
180.0
  0
ARC
  5
715
330
1A
100
AcDbEntity
  8
ZUWAKU
100
AcDbCircle
 10
28.65860634279886
 20
11.36249954755264
 30
0.0
 40
0.2625
100
AcDbArc
 50
0.0
 51
90.0
  0
ARC
  5
716
330
1A
100
AcDbEntity
  8
ZUWAKU
100
AcDbCircle
 10
27.78360634279886
 20
11.36249954755264
 30
0.0
 40
0.2625
100
AcDbArc
 50
90.0
 51
180.0
  0
LINE
  5
717
330
1A
100
AcDbEntity
  8
ZUWAKU
100
AcDbLine
 10
28.65860634279886
 20
11.62499954755264
 30
0.0
 11
27.78360634279886
 21
11.62499954755264
 31
0.0
  0
ARC
  5
718
330
1A
100
AcDbEntity
  8
ZUWAKU
100
AcDbCircle
 10
25.94610634279888
 20
11.36249954755264
 30
0.0
 40
0.2625
100
AcDbArc
 50
0.0
 51
90.0
  0
ARC
  5
719
330
1A
100
AcDbEntity
  8
ZUWAKU
100
AcDbCircle
 10
25.94610634279888
 20
10.48749954755264
 30
0.0
 40
0.2625
100
AcDbArc
 50
270.0
 51
0.0
  0
LINE
  5
71A
330
1A
100
AcDbEntity
  8
ZUWAKU
100
AcDbLine
 10
26.20860634279887
 20
11.36249954755264
 30
0.0
 11
26.20860634279887
 21
10.48749954755264
 31
0.0
  0
LINE
  5
71B
330
1A
100
AcDbEntity
  8
ZUWAKU
100
AcDbLine
 10
34.25860634279888
 20
11.62499954755264
 30
0.0
 11
33.38360634279888
 21
11.62499954755264
 31
0.0
  0
ARC
  5
71C
330
1A
100
AcDbEntity
  8
ZUWAKU
100
AcDbCircle
 10
33.38360634279888
 20
11.36249954755264
 30
0.0
 40
0.2625
100
AcDbArc
 50
90.0
 51
180.0
  0
ARC
  5
71D
330
1A
100
AcDbEntity
  8
ZUWAKU
100
AcDbCircle
 10
31.80860634279884
 20
11.36249954755264
 30
0.0
 40
0.2625
100
AcDbArc
 50
0.0
 51
90.0
  0
LINE
  5
71E
330
1A
100
AcDbEntity
  8
ZUWAKU
100
AcDbLine
 10
31.80860634279884
 20
11.62499954755264
 30
0.0
 11
30.93360634279884
 21
11.62499954755264
 31
0.0
  0
ARC
  5
71F
330
1A
100
AcDbEntity
  8
ZUWAKU
100
AcDbCircle
 10
30.93360634279884
 20
11.36249954755264
 30
0.0
 40
0.2625
100
AcDbArc
 50
90.0
 51
180.0
  0
ARC
  5
720
330
1A
100
AcDbEntity
  8
ZUWAKU
100
AcDbCircle
 10
34.25860634279888
 20
11.36249954755264
 30
0.0
 40
0.2625
100
AcDbArc
 50
0.0
 51
90.0
  0
LINE
  5
722
330
1A
100
AcDbEntity
  8
ZUWAKU
100
AcDbLine
 10
104.1233009104422
 20
14.99999954755264
 30
0.0
 11
104.1233009104422
 21
0.3999995475526816
 31
0.0
  0
LINE
  5
723
330
1A
100
AcDbEntity
  8
ZUWAKU
100
AcDbLine
 10
104.3233009104421
 20
14.99999954755264
 30
0.0
 11
104.3233009104422
 21
0.3999995475526816
 31
0.0
  0
LINE
  5
724
330
1A
100
AcDbEntity
  8
ZUWAKU
100
AcDbLine
 10
104.2233009104421
 20
14.99999954755264
 30
0.0
 11
104.2233009104422
 21
0.3999995475526816
 31
0.0
  0
TEXT
  5
725
330
1A
100
AcDbEntity
  8
ZUWAKU
100
AcDbText
 10
104.862023421547
 20
4.827677816745456
 30
0.0
 40
2.0
  1
サイズ
 41
0.9
  7
ｽﾀｲﾙ1
100
AcDbText
  0
TEXT
  5
727
330
1A
100
AcDbEntity
  8
ZUWAKU
100
AcDbText
 10
104.8620234215469
 20
12.02767781674543
 30
0.0
 40
2.0
  1
品名
 41
0.9
  7
ｽﾀｲﾙ1
100
AcDbText
  0
LINE
  5
728
330
1A
100
AcDbEntity
  8
ZUWAKU
100
AcDbLine
 10
324.4086015205104
 20
7.599999547552661
 30
0.0
 11
348.6245055396789
 21
7.599999547552661
 31
0.0
  0
LINE
  5
729
330
1A
100
AcDbEntity
  8
ZUWAKU
100
AcDbLine
 10
324.4086015205104
 20
7.699999547552666
 30
0.0
 11
348.6245055396789
 21
7.699999547552661
 31
0.0
  0
LINE
  5
72A
330
1A
100
AcDbEntity
  8
ZUWAKU
100
AcDbLine
 10
324.4086015205104
 20
7.799999547552661
 30
0.0
 11
348.6245055396789
 21
7.799999547552661
 31
0.0
  0
TEXT
  5
72B
330
1A
100
AcDbEntity
  8
ZUWAKU
100
AcDbText
 10
329.1019691090594
 20
9.00246007625634
 30
0.0
 40
2.799999999999999
  1
　　．　　．　　
 41
0.9
  7
ｽﾀｲﾙ1
100
AcDbText
  0
LINE
  5
72C
330
1A
100
AcDbEntity
  8
ZUWAKU
100
AcDbLine
 10
252.5995900144786
 20
7.599999547552665
 30
0.0
 11
276.2634781484645
 21
7.599999547552665
 31
0.0
  0
LINE
  5
72D
330
1A
100
AcDbEntity
  8
ZUWAKU
100
AcDbLine
 10
252.5995900144786
 20
7.699999547552661
 30
0.0
 11
276.2634781484645
 21
7.699999547552661
 31
0.0
  0
LINE
  5
72E
330
1A
100
AcDbEntity
  8
ZUWAKU
100
AcDbLine
 10
252.5995900144786
 20
7.799999547552661
 30
0.0
 11
276.2634781484645
 21
7.799999547552661
 31
0.0
  0
LINE
  5
730
330
1A
100
AcDbEntity
  8
ZUWAKU
100
AcDbLine
 10
223.8121822509038
 20
14.99999954755264
 30
0.0
 11
223.8121822509039
 21
0.3999995475526816
 31
0.0
  0
LINE
  5
731
330
1A
100
AcDbEntity
  8
ZUWAKU
100
AcDbLine
 10
223.9121822509038
 20
14.99999954755264
 30
0.0
 11
223.912182250904
 21
0.3999995475526816
 31
0.0
  0
LINE
  5
732
330
1A
100
AcDbEntity
  8
ZUWAKU
100
AcDbLine
 10
223.7121822509039
 20
14.99999954755264
 30
0.0
 11
223.7121822509039
 21
0.3999995475526816
 31
0.0
  0
TEXT
  5
733
330
1A
100
AcDbEntity
  8
MOJI
100
AcDbText
 10
264.0204542515647
 20
9.00246007625634
 30
0.0
 40
2.799999999999999
  1
Ａ３
 41
0.9
  7
ｽﾀｲﾙ1
100
AcDbText
  0
LINE
  5
734
330
1A
100
AcDbEntity
  8
ZUWAKU
100
AcDbLine
 10
252.4995900144787
 20
14.99999954755264
 30
0.0
 11
252.4995900144787
 21
0.3999995475526816
 31
0.0
  0
LINE
  5
735
330
1A
100
AcDbEntity
  8
ZUWAKU
100
AcDbLine
 10
252.5995900144786
 20
14.99999954755264
 30
0.0
 11
252.5995900144788
 21
0.3999995475526816
 31
0.0
  0
LINE
  5
736
330
1A
100
AcDbEntity
  8
ZUWAKU
100
AcDbLine
 10
252.3995900144787
 20
14.99999954755264
 30
0.0
 11
252.3995900144787
 21
0.3999995475526816
 31
0.0
  0
TEXT
  5
737
330
1A
100
AcDbEntity
  8
ZUWAKU
100
AcDbText
 10
253.3383125255836
 20
4.827677816745456
 30
0.0
 40
2.0
  1
縮尺
 41
0.9
  7
ｽﾀｲﾙ1
100
AcDbText
  0
TEXT
  5
738
330
1A
100
AcDbEntity
  8
MOJI
100
AcDbText
 10
264.0204542515647
 20
1.602460076256358
 30
0.0
 40
2.799999999999999
  1
１/１
 41
0.9
  7
ｽﾀｲﾙ1
100
AcDbText
  0
TEXT
  5
739
330
1A
100
AcDbEntity
  8
ZUWAKU
100
AcDbText
 10
224.6509047620087
 20
12.02767781674543
 30
0.0
 40
2.0
  1
品番
 41
0.9
  7
ｽﾀｲﾙ1
100
AcDbText
  0
TEXT
  5
73A
330
1A
100
AcDbEntity
  8
ZUWAKU
100
AcDbText
 10
253.3383125255835
 20
12.02767781674543
 30
0.0
 40
2.0
  1
用紙
 41
0.9
  7
ｽﾀｲﾙ1
100
AcDbText
  0
LINE
  5
73B
330
1A
100
AcDbEntity
  8
ZUWAKU
100
AcDbLine
 10
324.3086015205103
 20
14.99999954755264
 30
0.0
 11
324.3086015205105
 21
0.3999995475526816
 31
0.0
  0
LINE
  5
73C
330
1A
100
AcDbEntity
  8
ZUWAKU
100
AcDbLine
 10
324.4086015205104
 20
14.99999954755264
 30
0.0
 11
324.4086015205106
 21
0.3999995475526816
 31
0.0
  0
LINE
  5
73D
330
1A
100
AcDbEntity
  8
ZUWAKU
100
AcDbLine
 10
324.2086015205105
 20
14.99999954755264
 30
0.0
 11
324.2086015205105
 21
0.3999995475526816
 31
0.0
  0
LINE
  5
73E
330
1A
100
AcDbEntity
  8
ZUWAKU
100
AcDbLine
 10
276.3634781484644
 20
14.99999954755264
 30
0.0
 11
276.3634781484644
 21
0.3999995475526816
 31
0.0
  0
LINE
  5
73F
330
1A
100
AcDbEntity
  8
ZUWAKU
100
AcDbLine
 10
276.4634781484644
 20
14.99999954755264
 30
0.0
 11
276.4634781484645
 21
0.3999995475526816
 31
0.0
  0
LINE
  5
740
330
1A
100
AcDbEntity
  8
ZUWAKU
100
AcDbLine
 10
276.2634781484645
 20
14.99999954755264
 30
0.0
 11
276.2634781484645
 21
0.3999995475526816
 31
0.0
  0
TEXT
  5
741
330
1A
100
AcDbEntity
  8
ZUWAKU
100
AcDbText
 10
325.1473240316152
 20
12.02767781674543
 30
0.0
 40
2.0
  1
DATE
 41
0.9
  7
ｽﾀｲﾙ1
100
AcDbText
  0
LINE
  5
742
330
1A
100
AcDbEntity
  8
ZUWAKU
100
AcDbLine
 10
348.6245055396789
 20
14.99999954755264
 30
0.0
 11
348.6245055396789
 21
0.3999995475526816
 31
0.0
  0
LINE
  5
743
330
1A
100
AcDbEntity
  8
ZUWAKU
100
AcDbLine
 10
348.7245055396789
 20
14.99999954755264
 30
0.0
 11
348.7245055396789
 21
0.3999995475526816
 31
0.0
  0
LINE
  5
744
330
1A
100
AcDbEntity
  8
ZUWAKU
100
AcDbLine
 10
348.8245055396788
 20
14.99999954755264
 30
0.0
 11
348.8245055396789
 21
0.3999995475526816
 31
0.0
  0
LINE
  5
745
330
1A
100
AcDbEntity
  8
ZUWAKU
100
AcDbLine
 10
348.9245055396789
 20
14.99999954755264
 30
0.0
 11
348.9245055396789
 21
0.3999995475526816
 31
0.0
  0
TEXT
  5
746
330
1A
100
AcDbEntity
  8
ZUWAKU
100
AcDbText
 10
354.2640423615301
 20
8.776919215396045
 30
0.0
 40
3.0
  1
積水化学工業株式会社
 41
0.9
  7
ｽﾀｲﾙ1
100
AcDbText
  0
TEXT
  5
747
330
1A
100
AcDbEntity
  8
ZUWAKU
100
AcDbText
 10
354.2640423615301
 20
3.32441970447968
 30
0.0
 40
3.0
  1
建材事業部
 41
0.9
  7
ｽﾀｲﾙ1
100
AcDbText
  0
TEXT
  5
74D
330
1A
100
AcDbEntity
  8
ZUWAKU
100
AcDbText
 10
230.9795720347352
 20
1.468216205049543
 30
0.0
 40
1.5
  1
□には色品番が入ります
 41
0.9
  7
ｽﾀｲﾙ1
100
AcDbText
  0
TEXT
  5
C4A
330
1A
100
AcDbEntity
  8
MOJI
100
AcDbText
 10
113.6475992358673
 20
2.421792381708655
 30
0.0
 40
2.799999999999999
  1
ＵＲＴ６０－ＵＲＴ６０－ＵＲＴ６０・８７°
 41
0.9
  7
ｽﾀｲﾙ1
100
AcDbText
  0
DIMENSION
  5
1707
330
1A
100
AcDbEntity
  8
SUNPOU
100
AcDbDimension
  2
*D3
 10
201.1938963406825
 20
28.4198363815898
 30
0.0
 11
210.3880354712882
 21
120.9909675597832
 31
0.0
 70
   162
 71
     5
 42
-1.0
  3
STANDARD
100
AcDb2LineAngularDimension
 13
195.2416293866332
 23
102.431540470426
 33
0.0
 14
274.7054248298606
 24
106.5960615230082
 34
0.0
 15
201.1938963406825
 25
180.3327200414509
 35
0.0
 16
218.5219656499492
 26
113.5712650023092
 36
0.0
1001
ACAD
1000
DSTYLE
1002
{
1070
   271
1070
     0
1070
   271
1070
     0
1070
   271
1070
     0
1070
   271
1070
     0
1070
    41
1040
3.0
1070
    42
1040
3.0
1070
    43
1040
7.0
1070
    44
1040
1.5
1070
    73
1070
     0
1070
    74
1070
     0
1070
    77
1070
     3
1070
   140
1040
3.0
1070
   141
1040
150.0
1070
   147
1040
1.0
1070
   172
1070
     1
1070
   173
1070
     1
1070
   176
1070
   256
1070
   177
1070
   256
1070
   178
1070
   256
1070
   271
1070
     0
1070
   272
1070
     0
1070
   341
1005
B2
1070
     6
1000
OPEN
1070
     7
1000
OPEN
1070
   371
1070
    -1
1070
   372
1070
    -1
1002
}
  0
LINE
  5
1708
330
1A
100
AcDbEntity
  8
SEIHIN
100
AcDbLine
 10
201.1938963406825
 20
102.7434855631876
 30
0.0
 11
230.1857547103103
 21
75.23123924713518
 31
0.0
  0
LINE
  5
1709
330
1A
100
AcDbEntity
  8
SEIHIN
100
AcDbLine
 10
229.9356187046567
 20
133.0309413567352
 30
0.0
 11
201.1938963406825
 21
102.7434855631876
 31
0.0
  0
LINE
  5
170A
330
1A
100
AcDbEntity
  8
CENTER L
 48
5.0
100
AcDbLine
 10
283.2971860321618
 20
234.0247337863083
 30
0.0
 11
164.1938963406825
 21
234.0247337863083
 31
0.0
  0
LINE
  5
170B
330
1A
100
AcDbEntity
  8
SEIHIN
100
AcDbLine
 10
234.0122619463569
 20
264.0247337863083
 30
0.0
 11
201.1938963406251
 21
264.0247337863083
 31
0.0
  0
LINE
  5
170C
330
1A
100
AcDbEntity
  8
SEIHIN
100
AcDbLine
 10
201.1938963406251
 20
204.0247337863084
 30
0.0
 11
234.0122619463569
 21
204.0247337863084
 31
0.0
  0
CIRCLE
  5
170D
330
1A
100
AcDbEntity
  8
SEIHIN
100
AcDbCircle
 10
201.1938963406825
 20
234.0247337863083
 30
0.0
 40
27.98907272751296
  0
CIRCLE
  5
170E
330
1A
100
AcDbEntity
  8
SEIHIN
100
AcDbCircle
 10
201.1938963406825
 20
234.0247337863083
 30
0.0
 40
26.64999999999997
  0
CIRCLE
  5
170F
330
1A
100
AcDbEntity
  8
SEIHIN
100
AcDbCircle
 10
201.1938963406825
 20
234.0247337863083
 30
0.0
 40
28.34142994682486
  0
CIRCLE
  5
1710
330
1A
100
AcDbEntity
  8
SEIHIN
100
AcDbCircle
 10
201.1938963406825
 20
234.0247337863083
 30
0.0
 40
30.0
  0
LINE
  5
1711
330
1A
100
AcDbEntity
  8
SEIHIN
100
AcDbLine
 10
201.1938963406825
 20
135.6068893216155
 30
0.0
 11
231.1938963406825
 21
135.6068893216155
 31
0.0
  0
LINE
  5
1712
330
1A
100
AcDbEntity
  8
SEIHIN
100
AcDbLine
 10
229.5353262875074
 20
167.6073462361467
 30
0.0
 11
201.1938963406825
 21
167.6073462361467
 31
0.0
  0
LINE
  5
1713
330
1A
100
AcDbEntity
  8
SEIHIN
100
AcDbLine
 10
201.1938963406825
 20
170.6068893216155
 30
0.0
 11
229.1829690681958
 21
170.6068893216155
 31
0.0
  0
DIMENSION
  5
1714
330
1A
100
AcDbEntity
  8
SUNPOU
100
AcDbDimension
  2
*D4
 10
231.1938963406825
 20
189.6368796100225
 30
0.0
 11
201.1938963406825
 21
192.1368796100225
 31
0.0
 70
    32
  1
φ<>
 71
     5
 42
-1.0
  3
STANDARD
100
AcDbAlignedDimension
 13
171.1938963406824
 23
135.6068893216155
 33
0.0
 14
231.1938963406825
 24
135.6068893216155
 34
0.0
100
AcDbRotatedDimension
1001
ACAD
1000
DSTYLE
1002
{
1070
    41
1040
3.0
1070
    42
1040
3.0
1070
    43
1040
7.0
1070
    44
1040
1.5
1070
    73
1070
     0
1070
    74
1070
     0
1070
    77
1070
     3
1070
   140
1040
3.0
1070
   141
1040
150.0
1070
   147
1040
1.0
1070
   172
1070
     1
1070
   173
1070
     1
1070
   176
1070
   256
1070
   177
1070
   256
1070
   178
1070
   256
1070
   271
1070
     0
1070
   272
1070
     0
1070
   341
1005
B2
1070
     6
1000
OPEN
1070
     7
1000
OPEN
1070
   371
1070
    -1
1070
   372
1070
    -1
1002
}
  0
DIMENSION
  5
1715
330
1A
100
AcDbEntity
  8
SUNPOU
100
AcDbDimension
  2
*D5
 10
229.5353262875074
 20
182.3846599533866
 30
0.0
 11
201.1938963406825
 21
184.8846599533866
 31
0.0
 70
    32
  1
φ<>
 71
     5
 42
-1.0
  3
STANDARD
100
AcDbAlignedDimension
 13
172.8524663938575
 23
167.6073462361467
 33
0.0
 14
229.5353262875074
 24
167.6073462361467
 34
0.0
100
AcDbRotatedDimension
1001
ACAD
1000
DSTYLE
1002
{
1070
    41
1040
3.0
1070
    42
1040
3.0
1070
    43
1040
7.0
1070
    44
1040
1.5
1070
    73
1070
     0
1070
    74
1070
     0
1070
    77
1070
     3
1070
   140
1040
3.0
1070
   141
1040
150.0
1070
   147
1040
1.0
1070
   172
1070
     1
1070
   173
1070
     1
1070
   176
1070
   256
1070
   177
1070
   256
1070
   178
1070
   256
1070
   271
1070
     0
1070
   272
1070
     0
1070
   341
1005
B2
1070
     6
1000
OPEN
1070
     7
1000
OPEN
1070
   371
1070
    -1
1070
   372
1070
    -1
1002
}
  0
LINE
  5
1716
330
1A
100
AcDbEntity
  8
SEIHIN
100
AcDbLine
 10
201.1938963406825
 20
69.60688932161556
 30
0.0
 11
231.1938963406825
 21
69.60688932161556
 31
0.0
  0
LINE
  5
1717
330
1A
100
AcDbEntity
  8
SEIHIN
100
AcDbLine
 10
172.765191069218
 20
42.60643240708612
 30
0.0
 11
229.6226016121469
 21
42.60643240708612
 31
0.0
  0
LINE
  5
1718
330
1A
100
AcDbEntity
  8
SEIHIN
100
AcDbLine
 10
229.2702443928352
 20
39.60688932161555
 30
0.0
 11
173.1175482885297
 21
39.60688932161555
 31
0.0
  0
LINE
  5
1719
330
1A
100
AcDbEntity
  8
CENTER L
 48
5.0
100
AcDbLine
 10
195.2416293866332
 20
102.431540470426
 30
0.0
 11
274.7054248298606
 21
106.5960615230082
 31
0.0
  0
DIMENSION
  5
171A
330
1A
100
AcDbEntity
  8
SUNPOU
100
AcDbDimension
  2
*D6
 10
229.6226016121469
 20
27.86399104220517
 30
0.0
 11
201.1938963406825
 21
30.36399104220517
 31
0.0
 70
    32
  1
φ<>
 71
     5
 42
-1.0
  3
STANDARD
100
AcDbAlignedDimension
 13
172.765191069218
 23
42.60643240708612
 33
0.0
 14
229.6226016121469
 24
42.60643240708612
 34
0.0
100
AcDbRotatedDimension
1001
ACAD
1000
DSTYLE
1002
{
1070
    41
1040
3.0
1070
    42
1040
3.0
1070
    43
1040
7.0
1070
    44
1040
1.5
1070
    73
1070
     0
1070
    74
1070
     0
1070
    77
1070
     3
1070
   140
1040
3.0
1070
   141
1040
150.0
1070
   147
1040
1.0
1070
   172
1070
     1
1070
   173
1070
     1
1070
   176
1070
   256
1070
   177
1070
   256
1070
   178
1070
   256
1070
   271
1070
     0
1070
   272
1070
     0
1070
   341
1005
B2
1070
     6
1000
OPEN
1070
     7
1000
OPEN
1070
   371
1070
    -1
1070
   372
1070
    -1
1002
}
  0
LINE
  5
1729
330
1A
100
AcDbEntity
  8
SEIHIN
100
AcDbLine
 10
116.937179763763
 20
132.3637032944029
 30
0.0
 11
76.86115529907318
 21
129.9125486329271
 31
0.0
  0
LINE
  5
172A
330
1A
100
AcDbEntity
  8
SEIHIN
100
AcDbLine
 10
76.86115529907318
 20
129.9125486329271
 30
0.0
 11
77.21153367549584
 21
170.0619338220226
 31
0.0
  0
INSERT
  5
172B
330
1A
100
AcDbEntity
  8
ﾊｯﾁﾝｸﾞ
  6
Continuous
100
AcDbBlockReference
  2
*X2
 10
-150.5101629107558
 20
-149.1727937645298
 30
0.0
1001
ACAD
1000
HATCH
1002
{
1070
    19
1000
_USER
1040
2.0
1040
0.7853981633974483
1002
}
  0
LINE
  5
172C
330
1A
100
AcDbEntity
  8
SEIHIN
100
AcDbLine
 10
23.91153367549657
 20
170.0619338220226
 30
0.0
 11
24.44564351579163
 21
108.8590082018731
 31
0.0
  0
LINE
  5
172D
330
1A
100
AcDbEntity
  8
SEIHIN
100
AcDbLine
 10
20.5615336754962
 20
135.0619338220226
 30
0.0
 11
20.5615336754962
 21
69.06193382202264
 31
0.0
  0
LINE
  5
172F
330
1A
100
AcDbEntity
  8
CENTER L
 48
5.0
100
AcDbLine
 10
50.56153367549621
 20
179.787764541858
 30
0.0
 11
50.56153367549621
 21
27.87488088199689
 31
0.0
  0
LINE
  5
1730
330
1A
100
AcDbEntity
  8
SEIHIN
100
AcDbLine
 10
119.7266862315126
 20
79.13674909198427
 30
0.0
 11
116.937179763763
 21
132.3637032944029
 31
0.0
  0
LINE
  5
1731
330
1A
100
AcDbEntity
  8
SEIHIN
100
AcDbLine
 10
171.1938963406824
 20
135.6068893216155
 30
0.0
 11
171.1938963406824
 21
69.60688932161556
 31
0.0
  0
LINE
  5
1732
330
1A
100
AcDbEntity
  8
CENTER L
 48
5.0
100
AcDbLine
 10
201.1938963406825
 20
180.3327200414509
 30
0.0
 11
201.1938963406825
 21
33.54375729747279
 31
0.0
  0
DIMENSION
  5
1733
330
1A
100
AcDbEntity
  8
SUNPOU
100
AcDbDimension
  2
*D9
 10
140.4591077092962
 20
39.60688932161556
 30
0.0
 11
137.9591077092962
 21
105.1068893216155
 31
0.0
 70
    32
 71
     5
 42
-1.0
  3
STANDARD
100
AcDbAlignedDimension
 13
173.2048236131701
 23
170.6068893216155
 33
0.0
 14
173.2048236131701
 24
39.60688932161555
 34
0.0
 50
90.0
100
AcDbRotatedDimension
1001
ACAD
1000
DSTYLE
1002
{
1070
    41
1040
3.0
1070
    42
1040
3.0
1070
    43
1040
7.0
1070
    44
1040
1.5
1070
    73
1070
     0
1070
    74
1070
     0
1070
    77
1070
     3
1070
   140
1040
3.0
1070
   141
1040
150.0
1070
   147
1040
1.0
1070
   172
1070
     1
1070
   173
1070
     1
1070
   176
1070
   256
1070
   177
1070
   256
1070
   178
1070
   256
1070
   271
1070
     0
1070
   272
1070
     0
1070
   341
1005
B2
1070
     6
1000
OPEN
1070
     7
1000
OPEN
1070
   371
1070
    -1
1070
   372
1070
    -1
1002
}
  0
LINE
  5
17BC
330
1A
100
AcDbEntity
  8
SEIHIN
100
AcDbLine
 10
78.99023894696063
 20
42.0614769074914
 30
0.0
 11
79.46153367549584
 21
69.06193382202264
 31
0.0
  0
LINE
  5
17BD
330
1A
100
AcDbEntity
  8
SEIHIN
100
AcDbLine
 10
77.28653367549657
 20
39.06193382202264
 30
0.0
 11
76.9531037914229
 21
77.26921415107473
 31
0.0
  0
LINE
  5
17BE
330
1A
100
AcDbEntity
  8
SEIHIN
100
AcDbLine
 10
21.66153367549747
 20
69.06193382202264
 30
0.0
 11
22.13282840403178
 21
42.0614769074914
 31
0.0
  0
LINE
  5
17BF
330
1A
100
AcDbEntity
  8
SEIHIN
100
AcDbLine
 10
24.44564351579163
 20
108.8590082018731
 30
0.0
 11
23.83653367549584
 21
39.06193382202264
 31
0.0
  0
LINE
  5
17C0
330
1A
100
AcDbEntity
  8
SEIHIN
100
AcDbLine
 10
23.83653367549584
 20
39.06193382202264
 30
0.0
 11
77.28653367549657
 21
39.06193382202264
 31
0.0
  0
LINE
  5
17C1
330
1A
100
AcDbEntity
  8
SEIHIN
100
AcDbLine
 10
22.48518562334345
 20
39.06193382202264
 30
0.0
 11
23.83653367549584
 21
39.06193382202264
 31
0.0
  0
LINE
  5
17C2
330
1A
100
AcDbEntity
  8
SEIHIN
100
AcDbLine
 10
22.13282840403178
 20
42.0614769074914
 30
0.0
 11
22.48518562334345
 21
39.06193382202264
 31
0.0
  0
LINE
  5
17C3
330
1A
100
AcDbEntity
  8
SEIHIN
100
AcDbLine
 10
78.63788172764896
 20
39.06193382202264
 30
0.0
 11
78.99023894696063
 21
42.0614769074914
 31
0.0
  0
LINE
  5
17C4
330
1A
100
AcDbEntity
  8
SEIHIN
100
AcDbLine
 10
78.06571485567463
 20
39.06193382202264
 30
0.0
 11
78.71404076527767
 21
39.71025973162477
 31
0.0
  0
LINE
  5
17C5
330
1A
100
AcDbEntity
  8
SEIHIN
100
AcDbLine
 10
77.28653367549657
 20
39.06193382202264
 30
0.0
 11
78.63788172764896
 21
39.06193382202264
 31
0.0
  0
LINE
  5
17C6
330
1A
100
AcDbEntity
  8
CENTER L
 48
5.0
100
AcDbLine
 10
44.60926672144694
 20
101.8865849708331
 30
0.0
 11
124.0730621646743
 21
106.0511060234152
 31
0.0
  0
LWPOLYLINE
  5
17C8
330
1A
100
AcDbEntity
  8
SEIHIN
100
AcDbPolyline
 90
       28
 70
     0
 43
0.0
 10
56.88209142610128
 20
108.8590082018731
 10
54.72632518840498
 20
106.3135522227298
 10
53.7114951347047
 20
104.9355455937716
 10
53.26324796886172
 20
104.1897397217494
 10
52.91603999319693
 20
103.3756052584271
 10
52.7868272763261
 20
102.4852984125996
 10
52.96742889570021
 20
101.6009440188086
 10
53.40478464048999
 20
100.733024744512
 10
53.97654354298708
 20
99.9155677723743
 10
55.36131316529633
 20
98.28898308414183
 10
56.83014064784754
 20
96.73591102205548
 10
59.84368148555393
 20
93.71582890857872
 10
62.23761150572307
 20
91.37719458100811
 10
64.59060520415175
 20
89.10104530953187
 10
66.91051359759865
 20
86.86915199512306
 10
69.12886016680556
 20
84.74208371467332
 10
70.40502322492455
 20
83.52065421972703
 10
71.61517352650469
 20
82.36356981063591
 10
72.75925899812489
 20
81.27052406865415
 10
73.80739580972101
 20
80.26978051485867
 10
74.55209641680074
 20
79.5590760190794
 10
75.21570215118834
 20
78.92596805278528
 10
75.7947767307304
 20
78.37365087390255
 10
76.26870071192468
 20
77.9217190904733
 10
76.6141399142133
 20
77.5923600050378
 10
76.84291792155443
 20
77.37425392783781
 10
76.94781554227109
 20
77.2742553283356
 10
76.9531037914229
 20
77.26921415107473
  0
LINE
  5
17C9
330
1A
100
AcDbEntity
  8
SEIHIN
100
AcDbLine
 10
76.86115529907318
 20
129.9125486329271
 30
0.0
 11
56.88209142610128
 21
108.8590082018731
 31
0.0
  0
LINE
  5
17CA
330
1A
100
AcDbEntity
  8
SEIHIN
100
AcDbLine
 10
21.66153367549747
 20
69.06193382202264
 30
0.0
 11
20.5615336754962
 21
69.06193382202264
 31
0.0
  0
LINE
  5
17CB
330
1A
100
AcDbEntity
  8
SEIHIN
100
AcDbLine
 10
76.9531037914229
 20
77.26921415107473
 30
0.0
 11
119.7266862315126
 21
79.13674909198427
 31
0.0
  0
LINE
  5
17CC
330
1A
100
AcDbEntity
  8
SEIHIN
100
AcDbLine
 10
84.89240841664912
 20
75.058074170282
 30
0.0
 11
116.8197765192788
 21
77.29065323544865
 31
0.0
  0
LINE
  5
17CD
330
1A
100
AcDbEntity
  8
SEIHIN
100
AcDbLine
 10
81.0353656973192
 20
73.75442554615847
 30
0.0
 11
84.94997796853192
 21
73.95958168205152
 31
0.0
  0
ARC
  5
17CE
330
1A
100
AcDbEntity
  8
SEIHIN
100
AcDbCircle
 10
81.06153367543981
 20
73.25511077878264
 30
0.0
 40
0.5
100
AcDbArc
 50
92.99999999990125
 51
180.0
  0
LINE
  5
17CF
330
1A
100
AcDbEntity
  8
SEIHIN
100
AcDbLine
 10
80.56153367549621
 20
69.06193382202264
 30
0.0
 11
79.46153367549584
 21
69.06193382202264
 31
0.0
  0
LINE
  5
17D0
330
1A
100
AcDbEntity
  8
SEIHIN
100
AcDbLine
 10
80.56153367549621
 20
69.06193382202264
 30
0.0
 11
80.56153367543982
 21
73.25511077878264
 31
0.0
  0
LINE
  5
17D1
330
1A
100
AcDbEntity
  8
SEIHIN
100
AcDbLine
 10
84.89240841664912
 20
75.058074170282
 30
0.0
 11
84.94997796853192
 21
73.95958168205152
 31
0.0
  0
LINE
  5
17D2
330
1A
100
AcDbEntity
  8
SEIHIN
100
AcDbLine
 10
116.8197765192788
 20
77.29065323544865
 30
0.0
 11
119.7967678831863
 21
77.79951151710749
 31
0.0
  0
LINE
  5
17D3
330
1A
100
AcDbEntity
  8
SEIHIN
100
AcDbLine
 10
119.7967678831863
 20
77.79951151710749
 30
0.0
 11
119.7266862315126
 21
79.13674909198427
 31
0.0
  0
LINE
  5
17D4
330
1A
100
AcDbEntity
  8
SEIHIN
100
AcDbLine
 10
172.2938963406837
 20
69.60688932161556
 30
0.0
 11
172.765191069218
 21
42.60643240708612
 31
0.0
  0
DIMENSION
  5
17D5
330
1A
100
AcDbEntity
  8
SUNPOU
100
AcDbDimension
  2
*D12
 10
156.0653220792893
 20
39.60688932161555
 30
0.0
 11
153.5653220792893
 21
54.60688932161559
 31
0.0
 70
    32
  1
※<>
 71
     5
 42
-1.0
  3
STANDARD
100
AcDbAlignedDimension
 13
171.1938963406824
 23
69.60688932161556
 33
0.0
 14
173.1175482885297
 24
39.60688932161555
 34
0.0
 50
90.0
100
AcDbRotatedDimension
1001
ACAD
1000
DSTYLE
1002
{
1070
    41
1040
3.0
1070
    42
1040
3.0
1070
    43
1040
7.0
1070
    44
1040
1.5
1070
    73
1070
     0
1070
    74
1070
     0
1070
    77
1070
     3
1070
   140
1040
3.0
1070
   141
1040
150.0
1070
   147
1040
1.0
1070
   172
1070
     1
1070
   173
1070
     1
1070
   176
1070
   256
1070
   177
1070
   256
1070
   178
1070
   256
1070
   271
1070
     0
1070
   272
1070
     0
1070
   341
1005
B2
1070
     6
1000
OPEN
1070
     7
1000
OPEN
1070
   371
1070
    -1
1070
   372
1070
    -1
1002
}
  0
LINE
  5
17D6
330
1A
100
AcDbEntity
  8
SEIHIN
100
AcDbLine
 10
172.765191069218
 20
42.60643240708612
 30
0.0
 11
173.1175482885297
 21
39.60688932161555
 31
0.0
  0
LINE
  5
17D7
330
1A
100
AcDbEntity
  8
SEIHIN
100
AcDbLine
 10
171.1938963406824
 20
69.60688932161556
 30
0.0
 11
201.1938963406825
 21
69.60688932161556
 31
0.0
  0
LINE
  5
17D8
330
1A
100
AcDbEntity
  8
CENTER L
 48
5.0
100
AcDbLine
 10
201.1938963406825
 20
197.0247337863083
 30
0.0
 11
201.1938963406825
 21
271.0247337863084
 31
0.0
  0
LINE
  5
17D9
330
1A
100
AcDbEntity
  8
SEIHIN
100
AcDbLine
 10
77.21153367549584
 20
170.0619338220226
 30
0.0
 11
23.91153367549657
 21
170.0619338220226
 31
0.0
  0
LINE
  5
17DA
330
1A
100
AcDbEntity
  8
SEIHIN
100
AcDbLine
 10
22.22010372867123
 20
167.0623907365538
 30
0.0
 11
21.66153367549566
 21
135.0619338220226
 31
0.0
  0
LINE
  5
17DB
330
1A
100
AcDbEntity
  8
SEIHIN
100
AcDbLine
 10
21.66153367549566
 20
135.0619338220226
 30
0.0
 11
20.5615336754962
 21
135.0619338220226
 31
0.0
  0
LINE
  5
17DC
330
1A
100
AcDbEntity
  8
SEIHIN
100
AcDbLine
 10
23.91153367549657
 20
170.0619338220226
 30
0.0
 11
22.57246094798381
 21
170.0619338220226
 31
0.0
  0
LINE
  5
17DD
330
1A
100
AcDbEntity
  8
SEIHIN
100
AcDbLine
 10
22.57246094798381
 20
170.0619338220226
 30
0.0
 11
22.22010372867123
 21
167.0623907365538
 31
0.0
  0
LINE
  5
17DE
330
1A
100
AcDbEntity
  8
SEIHIN
100
AcDbLine
 10
113.8532248441596
 20
133.8958312395993
 30
0.0
 11
81.86739014580679
 21
132.7788612790977
 31
0.0
  0
LINE
  5
17DF
330
1A
100
AcDbEntity
  8
SEIHIN
100
AcDbLine
 10
79.46153367549584
 20
135.0619338220226
 30
0.0
 11
78.90296362232118
 21
167.0623907365538
 31
0.0
  0
LINE
  5
17E0
330
1A
100
AcDbEntity
  8
SEIHIN
100
AcDbLine
 10
81.80982059391487
 20
133.8773537673264
 30
0.0
 11
81.08770165356043
 21
133.8395091172792
 31
0.0
  0
LINE
  5
17E1
330
1A
100
AcDbEntity
  8
SEIHIN
100
AcDbLine
 10
80.56153367549621
 20
135.0619338220226
 30
0.0
 11
79.46153367549584
 21
135.0619338220226
 31
0.0
  0
LINE
  5
17E2
330
1A
100
AcDbEntity
  8
SEIHIN
100
AcDbLine
 10
80.56153367543982
 20
134.338823884655
 30
0.0
 11
80.56153367549621
 21
135.0619338220226
 31
0.0
  0
ARC
  5
17E3
330
1A
100
AcDbEntity
  8
SEIHIN
100
AcDbCircle
 10
81.06153367543981
 20
134.338823884655
 30
0.0
 40
0.4999999999999432
100
AcDbArc
 50
179.9999999999739
 51
272.9999999999012
  0
LINE
  5
17E4
330
1A
100
AcDbEntity
  8
SEIHIN
100
AcDbLine
 10
81.80982059391487
 20
133.8773537673264
 30
0.0
 11
81.86739014580679
 21
132.7788612790977
 31
0.0
  0
LINE
  5
17E5
330
1A
100
AcDbEntity
  8
SEIHIN
100
AcDbLine
 10
78.55060640300951
 20
170.0619338220226
 30
0.0
 11
77.21153367549584
 21
170.0619338220226
 31
0.0
  0
LINE
  5
17E6
330
1A
100
AcDbEntity
  8
SEIHIN
100
AcDbLine
 10
78.90296362232118
 20
167.0623907365538
 30
0.0
 11
78.55060640300951
 21
170.0619338220226
 31
0.0
  0
LINE
  5
17E7
330
1A
100
AcDbEntity
  8
SEIHIN
100
AcDbLine
 10
116.8670981120902
 20
133.7009408692797
 30
0.0
 11
113.8532248441596
 21
133.8958312395993
 31
0.0
  0
LINE
  5
17E8
330
1A
100
AcDbEntity
  8
SEIHIN
100
AcDbLine
 10
116.937179763763
 20
132.3637032944029
 30
0.0
 11
116.8670981120902
 21
133.7009408692797
 31
0.0
  0
DIMENSION
  5
17E9
330
1A
100
AcDbEntity
  8
SUNPOU
100
AcDbDimension
  2
*D13
 10
156.0653220792893
 20
135.6068893216155
 30
0.0
 11
153.5653220792893
 21
153.1068893216155
 31
0.0
 70
    32
  1
※<>
 71
     5
 42
-1.0
  3
STANDARD
100
AcDbAlignedDimension
 13
173.2048236131701
 23
170.6068893216155
 33
0.0
 14
171.1938963406824
 24
135.6068893216155
 34
0.0
 50
90.0
100
AcDbRotatedDimension
1001
ACAD
1000
DSTYLE
1002
{
1070
    41
1040
3.0
1070
    42
1040
3.0
1070
    43
1040
7.0
1070
    44
1040
1.5
1070
    73
1070
     0
1070
    74
1070
     0
1070
    77
1070
     3
1070
   140
1040
3.0
1070
   141
1040
150.0
1070
   147
1040
1.0
1070
   172
1070
     1
1070
   173
1070
     1
1070
   176
1070
   256
1070
   177
1070
   256
1070
   178
1070
   256
1070
   271
1070
     0
1070
   272
1070
     0
1070
   341
1005
B2
1070
     6
1000
OPEN
1070
     7
1000
OPEN
1070
   371
1070
    -1
1070
   372
1070
    -1
1002
}
  0
LINE
  5
17EA
330
1A
100
AcDbEntity
  8
SEIHIN
100
AcDbLine
 10
172.8524663938575
 20
167.6073462361467
 30
0.0
 11
172.2938963406819
 21
135.6068893216155
 31
0.0
  0
LINE
  5
17EB
330
1A
100
AcDbEntity
  8
SEIHIN
100
AcDbLine
 10
171.1938963406824
 20
135.6068893216155
 30
0.0
 11
201.1938963406825
 21
135.6068893216155
 31
0.0
  0
LINE
  5
17EC
330
1A
100
AcDbEntity
  8
SEIHIN
100
AcDbLine
 10
201.1938963406825
 20
167.6073462361467
 30
0.0
 11
172.8524663938575
 21
167.6073462361467
 31
0.0
  0
LINE
  5
17ED
330
1A
100
AcDbEntity
  8
SEIHIN
100
AcDbLine
 10
173.2048236131691
 20
170.6068893216155
 30
0.0
 11
201.1938963406825
 21
170.6068893216155
 31
0.0
  0
LINE
  5
17EE
330
1A
100
AcDbEntity
  8
SEIHIN
100
AcDbLine
 10
173.2048236131691
 20
170.6068893216155
 30
0.0
 11
172.8524663938575
 21
167.6073462361467
 31
0.0
  0
LINE
  5
17EF
330
1A
100
AcDbEntity
  8
SEIHIN
100
AcDbLine
 10
372.1954286172473
 20
104.4634232242819
 30
0.0
 11
372.1954286172473
 21
135.6068893216155
 31
0.0
  0
LINE
  5
17F0
330
1A
100
AcDbEntity
  8
SEIHIN
100
AcDbLine
 10
312.1954286172473
 20
135.6068893216155
 30
0.0
 11
312.1954286172473
 21
104.4634232242819
 31
0.0
  0
LINE
  5
17F1
330
1A
100
AcDbEntity
  8
CENTER L
 48
5.0
100
AcDbLine
 10
342.1954286172473
 20
180.3327200414509
 30
0.0
 11
342.1954286172473
 21
28.4198363815898
 31
0.0
  0
LINE
  5
17F2
330
1A
100
AcDbEntity
  8
SEIHIN
100
AcDbLine
 10
232.4421832591257
 20
134.4223092669211
 30
0.0
 11
235.5823406336936
 21
74.50453718164443
 31
0.0
  0
LINE
  5
17F3
330
1A
100
AcDbEntity
  8
SEIHIN
100
AcDbLine
 10
267.4521391844651
 20
77.83560873504156
 30
0.0
 11
264.4855875093459
 21
134.4407867391922
 31
0.0
  0
LINE
  5
17F4
330
1A
100
AcDbEntity
  8
SEIHIN
100
AcDbLine
 10
267.4994607772765
 20
134.2458963688744
 30
0.0
 11
270.4291305483717
 21
78.34446701670039
 31
0.0
  0
DIMENSION
  5
17F5
330
1A
100
AcDbEntity
  8
SUNPOU
100
AcDbDimension
  2
*D14
 10
287.6614487081842
 20
77.23388758289837
 30
0.0
 11
288.5879438577656
 21
107.3236135161446
 31
0.0
 70
    33
  1
φ<>
 71
     5
 42
-1.0
  3
STANDARD
100
AcDbAlignedDimension
 13
232.4421832591257
 23
134.4223092669211
 33
0.0
 14
235.5823406337354
 24
74.50453718164625
 34
0.0
1001
ACAD
1000
DSTYLE
1002
{
1070
    41
1040
3.0
1070
    42
1040
3.0
1070
    43
1040
7.0
1070
    44
1040
1.5
1070
    73
1070
     0
1070
    74
1070
     0
1070
    77
1070
     3
1070
   140
1040
3.0
1070
   141
1040
150.0
1070
   147
1040
1.0
1070
   172
1070
     1
1070
   173
1070
     1
1070
   176
1070
   256
1070
   177
1070
   256
1070
   178
1070
   256
1070
   271
1070
     0
1070
   272
1070
     0
1070
   341
1005
B2
1070
     6
1000
OPEN
1070
     7
1000
OPEN
1070
   371
1070
    -1
1070
   372
1070
    -1
1002
}
  0
DIMENSION
  5
17F6
330
1A
100
AcDbEntity
  8
SUNPOU
100
AcDbDimension
  2
*D15
 10
279.7592033767041
 20
78.48059463885075
 30
0.0
 11
280.7725013760309
 21
106.9140235315334
 31
0.0
 70
    33
  1
φ<>
 71
     5
 42
-1.0
  3
STANDARD
100
AcDbAlignedDimension
 13
264.4855875093459
 23
134.4407867391922
 33
0.0
 14
267.4521391844651
 24
77.83560873504156
 34
0.0
1001
ACAD
1000
DSTYLE
1002
{
1070
    41
1040
3.0
1070
    42
1040
3.0
1070
    43
1040
7.0
1070
    44
1040
1.5
1070
    73
1070
     0
1070
    74
1070
     0
1070
    77
1070
     3
1070
   140
1040
3.0
1070
   141
1040
150.0
1070
   147
1040
1.0
1070
   172
1070
     1
1070
   173
1070
     1
1070
   176
1070
   256
1070
   177
1070
   256
1070
   178
1070
   256
1070
   271
1070
     0
1070
   272
1070
     0
1070
   341
1005
B2
1070
     6
1000
OPEN
1070
     7
1000
OPEN
1070
   371
1070
    -1
1070
   372
1070
    -1
1002
}
  0
CIRCLE
  5
17F7
330
1A
100
AcDbEntity
  8
SEIHIN
100
AcDbCircle
 10
342.198152927334
 20
106.2708929882077
 30
0.0
 40
26.63776594509876
  0
CIRCLE
  5
17F8
330
1A
100
AcDbEntity
  8
SEIHIN
100
AcDbCircle
 10
342.1982021619384
 20
106.2689862022265
 30
0.0
 40
27.97691030412657
  0
CIRCLE
  5
17F9
330
1A
100
AcDbEntity
  8
SEIHIN
100
AcDbCircle
 10
342.1927066382874
 20
106.1109632329547
 30
0.0
 40
28.32982363700376
  0
ARC
  5
17FA
330
1A
100
AcDbEntity
  8
SEIHIN
100
AcDbCircle
 10
342.1954286172118
 20
104.4371345042867
 30
0.0
 40
29.98575322639495
100
AcDbArc
 50
98.28219759916965
 51
81.7178024740796
  0
LINE
  5
180D
330
1A
100
AcDbEntity
  8
SEIHIN
100
AcDbLine
 10
229.6226016121469
 20
42.60643240708612
 30
0.0
 11
230.0938963406812
 21
69.60688932161556
 31
0.0
  0
LINE
  5
180E
330
1A
100
AcDbEntity
  8
SEIHIN
100
AcDbLine
 10
229.2702443928352
 20
39.60688932161555
 30
0.0
 11
229.6226016121469
 21
42.60643240708612
 31
0.0
  0
LINE
  5
180F
330
1A
100
AcDbEntity
  8
SEIHIN
100
AcDbLine
 10
235.5247710818354
 20
75.60302966987855
 30
0.0
 11
267.4521391844651
 21
77.83560873504156
 31
0.0
  0
DIMENSION
  5
1810
330
1A
100
AcDbEntity
  8
SUNPOU
100
AcDbDimension
  2
*D16
 10
271.3924502047236
 20
59.96323298007669
 30
0.0
 11
253.5292304354675
 21
59.0270613011152
 31
0.0
 70
   161
  1
※<>
 71
     5
 42
-1.0
  3
STANDARD
100
AcDbAlignedDimension
 13
235.5823406336936
 23
74.50453718164443
 33
0.0
 14
270.5343743501131
 24
76.33629565016725
 34
0.0
1001
ACAD
1000
DSTYLE
1002
{
1070
    41
1040
3.0
1070
    42
1040
3.0
1070
    43
1040
7.0
1070
    44
1040
1.5
1070
    73
1070
     0
1070
    74
1070
     0
1070
    77
1070
     3
1070
   140
1040
3.0
1070
   141
1040
150.0
1070
   147
1040
1.0
1070
   172
1070
     1
1070
   173
1070
     1
1070
   176
1070
   256
1070
   177
1070
   256
1070
   178
1070
   256
1070
   271
1070
     0
1070
   272
1070
     0
1070
   341
1005
B2
1070
     6
1000
OPEN
1070
     7
1000
OPEN
1070
   371
1070
    -1
1070
   372
1070
    -1
1002
}
  0
LINE
  5
1811
330
1A
100
AcDbEntity
  8
SEIHIN
100
AcDbLine
 10
231.6677283625509
 20
74.29938104575684
 30
0.0
 11
235.5823406336936
 21
74.50453718164443
 31
0.0
  0
LINE
  5
1812
330
1A
100
AcDbEntity
  8
SEIHIN
100
AcDbLine
 10
231.1938963406825
 20
69.60688932161556
 30
0.0
 11
231.1938963406825
 21
73.80006627832099
 31
0.0
  0
ARC
  5
1813
330
1A
100
AcDbEntity
  8
SEIHIN
100
AcDbCircle
 10
231.6938963406252
 20
73.80006627837556
 30
0.0
 40
0.5000000000002616
100
AcDbArc
 50
99.55658216627643
 51
172.8358132671651
  0
LINE
  5
1814
330
1A
100
AcDbEntity
  8
SEIHIN
100
AcDbLine
 10
267.4521391844651
 20
77.83560873504156
 30
0.0
 11
270.4291305483717
 21
78.34446701670039
 31
0.0
  0
LINE
  5
1815
330
1A
100
AcDbEntity
  8
SEIHIN
100
AcDbLine
 10
370.6241338887117
 20
42.60643240708431
 30
0.0
 11
371.095428617246
 21
69.60688932161556
 31
0.0
  0
LINE
  5
1816
330
1A
100
AcDbEntity
  8
SEIHIN
100
AcDbLine
 10
313.2954286172477
 20
69.60688932161556
 30
0.0
 11
313.7667233457829
 21
42.60643240708431
 31
0.0
  0
LINE
  5
1817
330
1A
100
AcDbEntity
  8
SEIHIN
100
AcDbLine
 10
313.7667233457829
 20
42.60643240708431
 30
0.0
 11
370.6241338887117
 21
42.60643240708431
 31
0.0
  0
LINE
  5
1818
330
1A
100
AcDbEntity
  8
SEIHIN
100
AcDbLine
 10
370.2717766694
 20
39.60688932161555
 30
0.0
 11
314.1190805650945
 21
39.60688932161555
 31
0.0
  0
LINE
  5
1819
330
1A
100
AcDbEntity
  8
SEIHIN
100
AcDbLine
 10
313.7667233457829
 20
42.60643240708431
 30
0.0
 11
314.1190805650945
 21
39.60688932161555
 31
0.0
  0
LINE
  5
181A
330
1A
100
AcDbEntity
  8
SEIHIN
100
AcDbLine
 10
370.2717766694
 20
39.60688932161555
 30
0.0
 11
370.6241338887117
 21
42.60643240708431
 31
0.0
  0
LWPOLYLINE
  5
181B
330
1A
100
AcDbEntity
  8
SEIHIN
100
AcDbPolyline
 90
       30
 70
     0
 43
0.0
 10
316.8559284533709
 20
109.4039637014642
 10
317.5135971003034
 20
111.8048754836776
 10
318.3951138362459
 20
114.1789671128602
 10
319.5244995051658
 20
116.5364856967329
 10
320.9092275173985
 20
118.8371603863246
 10
322.1137239338764
 20
120.4968056750816
 10
323.4839208509698
 20
122.1090492210272
 10
325.0231807816732
 20
123.6514867136005
 10
326.7510937101775
 20
125.1147266998936
 10
328.0281558320999
 20
126.0445225855868
 10
331.0053670652902
 20
127.7966902883121
 10
333.0714669095592
 20
128.7192348741058
 10
334.9770709848741
 20
129.3829186423366
 10
339.5302286172469
 20
130.313497445822
 10
341.1286026858039
 20
130.4344816551014
 10
344.3787135046492
 20
130.36095067863
 10
346.0044122602518
 20
130.1625601321733
 10
347.5575958889181
 20
129.8698314184506
 10
350.5699971772579
 20
129.0007636566928
 10
352.0107498303119
 20
128.4350146154878
 10
355.431563747035
 20
126.651263955276
 10
358.4713001149299
 20
124.442344493634
 10
360.3605910411057
 20
122.6856750120054
 10
362.0382259183203
 20
120.7968677993843
 10
363.5270836582891
 20
118.7691120634639
 10
364.8042251116727
 20
116.6513693695918
 10
365.680988039228
 20
114.8950583908384
 10
366.4279266238569
 20
113.0957469218132
 10
367.044809300543
 20
111.2652157710867
 10
367.5349287811228
 20
109.4039637014642
  0
LINE
  5
181C
330
1A
100
AcDbEntity
  8
SEIHIN
100
AcDbLine
 10
312.1954286172473
 20
69.60688932161556
 30
0.0
 11
372.1954286172473
 21
69.60688932161556
 31
0.0
  0
ARC
  5
181D
330
1A
100
AcDbEntity
  8
SEIHIN
100
AcDbCircle
 10
342.2243674904726
 20
104.4693591744047
 30
0.0
 40
28.86634401032541
100
AcDbArc
 50
269.9425602502033
 51
19.43809475207961
  0
LINE
  5
181E
330
1A
100
AcDbEntity
  8
CENTER L
 48
5.0
100
AcDbLine
 10
306.624596176012
 20
106.2708929882077
 30
0.0
 11
378.9827175458427
 21
106.2708929882077
 31
0.0
  0
LINE
  5
181F
330
1A
100
AcDbEntity
  8
SEIHIN
100
AcDbLine
 10
312.1954286172473
 20
102.743485563123
 30
0.0
 11
312.1954286172473
 21
69.60688932161556
 31
0.0
  0
ARC
  5
1820
330
1A
100
AcDbEntity
  8
SEIHIN
100
AcDbCircle
 10
342.1664897440201
 20
104.4693591744047
 30
0.0
 40
28.86634401032499
100
AcDbArc
 50
160.5619052479203
 51
270.0574397497966
  0
ARC
  5
1821
330
1A
100
AcDbEntity
  8
SEIHIN
100
AcDbCircle
 10
344.4619187780523
 20
102.976306413458
 30
0.0
 40
28.34440826721273
100
AcDbArc
 50
166.8930262753203
 51
185.2257899641732
  0
LINE
  5
1822
330
1A
100
AcDbEntity
  8
SEIHIN
100
AcDbLine
 10
312.1954286172473
 20
104.4634232242746
 30
0.0
 11
312.1954286172473
 21
102.7434855631776
 31
0.0
  0
LINE
  5
1823
330
1A
100
AcDbEntity
  8
SEIHIN
100
AcDbLine
 10
315.4721594433354
 20
115.5647282145777
 30
0.0
 11
314.9454810819585
 21
114.0757374691796
 31
0.0
  0
LINE
  5
1824
330
1A
100
AcDbEntity
  8
SEIHIN
100
AcDbLine
 10
372.1954286172473
 20
69.60688932161556
 30
0.0
 11
372.1954286172473
 21
102.7434855632394
 31
0.0
  0
ARC
  5
1825
330
1A
100
AcDbEntity
  8
SEIHIN
100
AcDbCircle
 10
339.4257122461437
 20
102.9247889759457
 30
0.0
 40
28.84627808460176
100
AcDbArc
 50
356.4071713834623
 51
12.97997070510523
  0
LINE
  5
1826
330
1A
100
AcDbEntity
  8
SEIHIN
100
AcDbLine
 10
372.1954286172473
 20
102.7434855631849
 30
0.0
 11
372.1954286172473
 21
104.4634232242819
 31
0.0
  0
LINE
  5
1827
330
1A
100
AcDbEntity
  8
SEIHIN
100
AcDbLine
 10
369.4453761525343
 20
114.0757374691833
 30
0.0
 11
368.9186977911564
 21
115.5647282145813
 31
0.0
  0
TEXT
  5
1831
330
1A
100
AcDbEntity
  8
SUNPOU
100
AcDbText
 10
282.0979454971756
 20
21.79984840997577
 30
0.0
 40
4.0
  1
※　たてといの差込み寸法を示す。
100
AcDbText
  0
LINE
  5
1837
330
1A
100
AcDbEntity
  8
SEIHIN
100
AcDbLine
 10
267.4994607772765
 20
134.2458963688744
 30
0.0
 11
264.4855875093459
 21
134.4407867391922
 31
0.0
  0
LINE
  5
1838
330
1A
100
AcDbEntity
  8
SEIHIN
100
AcDbLine
 10
264.4855875093459
 20
134.4407867391922
 30
0.0
 11
232.499752810993
 21
133.3238167786888
 31
0.0
  0
LINE
  5
1839
330
1A
100
AcDbEntity
  8
SEIHIN
100
AcDbLine
 10
230.093896340683
 20
135.6068893216155
 30
0.0
 11
229.5353262875074
 21
167.6073462361467
 31
0.0
  0
LINE
  5
183A
330
1A
100
AcDbEntity
  8
SEIHIN
100
AcDbLine
 10
231.1938963406825
 20
134.8837793843098
 30
0.0
 11
231.1938963406825
 21
135.6068893216155
 31
0.0
  0
ARC
  5
183B
330
1A
100
AcDbEntity
  8
SEIHIN
100
AcDbCircle
 10
231.6938963406252
 20
134.8837793842479
 30
0.0
 40
0.5000000000000215
100
AcDbArc
 50
182.1015572684127
 51
271.2029159945763
  0
LINE
  5
183C
330
1A
100
AcDbEntity
  8
SEIHIN
100
AcDbLine
 10
232.4421832590775
 20
134.4223092669175
 30
0.0
 11
231.7200643187922
 21
134.3844646168812
 31
0.0
  0
LINE
  5
183D
330
1A
100
AcDbEntity
  8
SEIHIN
100
AcDbLine
 10
229.5353262875074
 20
167.6073462361467
 30
0.0
 11
229.1829690681958
 21
170.6068893216155
 31
0.0
  0
LINE
  5
183E
330
1A
100
AcDbEntity
  8
SEIHIN
100
AcDbLine
 10
265.970220219741
 20
262.3661518747258
 30
0.0
 11
234.0136455613215
 21
262.9247216941885
 31
0.0
  0
LINE
  5
183F
330
1A
100
AcDbEntity
  8
SEIHIN
100
AcDbLine
 10
234.0136455613215
 20
205.1247458784282
 30
0.0
 11
265.970220219741
 21
205.683315697891
 31
0.0
  0
LWPOLYLINE
  5
1840
330
1A
100
AcDbEntity
  8
SEIHIN
100
AcDbPolyline
 90
       16
 70
     0
 43
0.0
 10
265.970220219741
 20
205.683315697891
 10
265.8885604119283
 20
205.7248689880843
 10
265.7288960204665
 20
206.0566590280314
 10
265.5720450265022
 20
206.7163491730634
 10
265.4198463645303
 20
207.69620515939
 10
265.274084424706
 20
208.9847390714667
 10
265.1364681325018
 20
210.5668440272884
 10
265.0086109131212
 20
212.4239712927819
 10
264.8920117755593
 20
214.5343477487467
 10
264.7880377380957
 20
216.87323116077
 10
264.697907801256
 20
219.4132002593114
 10
264.6226786561443
 20
222.1244762290034
 10
264.5632322957031
 20
224.9752718380468
 10
264.5202656741572
 20
227.9321641144297
 10
264.4942825358581
 20
230.9604861997277
 10
264.4855875093459
 20
234.0247337863083
  0
LWPOLYLINE
  5
1841
330
1A
100
AcDbEntity
  8
SEIHIN
100
AcDbPolyline
 90
       16
 70
     0
 43
0.0
 10
264.4855875093459
 20
234.0247337863083
 10
264.4942825358581
 20
237.088981372889
 10
264.5202656741572
 20
240.117303458187
 10
264.5632322957031
 20
243.0741957345698
 10
264.6226786561443
 20
245.9249913436133
 10
264.697907801256
 20
248.6362673133053
 10
264.7880377380957
 20
251.1762364118467
 10
264.8920117755593
 20
253.51511982387
 10
265.0086109131212
 20
255.6254962798348
 10
265.1364681325018
 20
257.4826235453283
 10
265.274084424706
 20
259.06472850115
 10
265.4198463645303
 20
260.3532624132248
 10
265.5720450265022
 20
261.3331183995533
 10
265.7288960204665
 20
261.9928085445853
 10
265.8885604119283
 20
262.3245985845323
 10
265.970220219741
 20
262.3661518747258
  0
LWPOLYLINE
  5
1842
330
1A
100
AcDbEntity
  8
SEIHIN
100
AcDbPolyline
 90
       19
 70
     0
 43
0.0
 10
232.4421832591257
 20
234.0247337863083
 10
232.4510780685747
 20
230.835929216887
 10
232.477661715177
 20
227.6832550774188
 10
232.5216329955952
 20
224.6024324256495
 10
232.582493697651
 20
221.6283682132571
 10
232.6595542452711
 20
218.794759776144
 10
232.7519415116609
 20
216.1337130301535
 10
232.8586087121735
 20
213.6753786982199
 10
232.9783472648074
 20
211.4476106906249
 10
233.1098004839156
 20
209.4756505090635
 10
233.2514789519979
 20
207.7818412503502
 10
233.4017773954006
 20
206.3853744501966
 10
233.5589928727046
 20
205.302072635447
 10
233.7213440697301
 20
204.5442100485333
 10
233.8869914825433
 20
204.1203735753851
 10
234.0540582597683
 20
204.0353654526052
 10
234.2206514680616
 20
204.2901488561883
 10
234.3848835398063
 20
204.8818369883674
 10
234.4349091973496
 20
205.1321091567397
  0
LWPOLYLINE
  5
1843
330
1A
100
AcDbEntity
  8
SEIHIN
100
AcDbPolyline
 90
       31
 70
     0
 43
0.0
 10
234.0136455613215
 20
262.9247216941885
 10
233.9303763525973
 20
262.8823494466059
 10
233.7675651986816
 20
262.5440202877571
 10
233.6076228904045
 20
261.8713285701133
 10
233.4524246050938
 20
260.8721609890135
 10
233.3037899007473
 20
259.5582318707993
 10
233.1634613833727
 20
257.9449458330427
 10
233.0330842765348
 20
256.0512171794971
 10
232.9141871326052
 20
253.8992481471714
 10
232.8081639118887
 20
251.5142686054086
 10
232.71625763971
 20
248.9242402587233
 10
232.6395458330777
 20
246.1595288214002
 10
232.5789278677899
 20
243.2525480072372
 10
232.5351144340626
 20
240.2373795084067
 10
232.5086192043496
 20
237.1493734187597
 10
232.499752810993
 20
234.0247337863083
 10
232.5086192043496
 20
230.900094153857
 10
232.5351144340626
 20
227.81208806421
 10
232.5789278677899
 20
224.7969195653777
 10
232.6395458330777
 20
221.8899387512164
 10
232.71625763971
 20
219.1252273138916
 10
232.8081639118887
 20
216.535198967208
 10
232.9141871326052
 20
214.1502194254435
 10
233.0330842765348
 20
211.9982503931196
 10
233.1634613833727
 20
210.104521739574
 10
233.3037899007473
 20
208.4912357018174
 10
233.4524246050938
 20
207.1773065836032
 10
233.6076228904045
 20
206.1781390025016
 10
233.7675651986816
 20
205.5054472848578
 10
233.9303763525973
 20
205.1671181260108
 10
234.0136455613215
 20
205.1247458784282
  0
LWPOLYLINE
  5
1844
330
1A
100
AcDbEntity
  8
SEIHIN
100
AcDbPolyline
 90
       19
 70
     0
 43
0.0
 10
234.4349091973496
 20
262.917358415877
 10
234.3848835398063
 20
263.1676305842493
 10
234.2206514680616
 20
263.7593187164284
 10
234.0540582597683
 20
264.0141021200115
 10
233.8869914825433
 20
263.9290939972297
 10
233.7213440697301
 20
263.5052575240834
 10
233.5589928727046
 20
262.7473949371678
 10
233.4017773954006
 20
261.6640931224201
 10
233.2514789519979
 20
260.2676263222665
 10
233.1098004839156
 20
258.5738170635532
 10
232.9783472648074
 20
256.6018568819917
 10
232.8586087121735
 20
254.3740888743968
 10
232.7519415116609
 20
251.9157545424632
 10
232.6595542452711
 20
249.2547077964727
 10
232.582493697651
 20
246.4210993593596
 10
232.5216329955952
 20
243.4470351469672
 10
232.477661715177
 20
240.3662124951961
 10
232.4510780685747
 20
237.2135383557278
 10
232.4421832591257
 20
234.0247337863083
  0
LWPOLYLINE
  5
1845
330
1A
100
AcDbEntity
  8
SEIHIN
100
AcDbPolyline
 90
       58
 70
     0
 43
0.0
 10
267.4994607772765
 20
234.0247337863083
 10
267.5083513328723
 20
230.9457056882811
 10
267.53491508036
 20
227.9040528204013
 10
267.578829571829
 20
224.9366967281539
 10
267.6395617448394
 20
222.0796570948105
 10
267.7163743930819
 20
219.367614511274
 10
267.8083351150613
 20
216.8334895006746
 10
267.9143276321843
 20
214.508042907827
 10
268.0330653388752
 20
212.4195025042345
 10
268.16310692022
 20
210.5932203411839
 10
268.3028738475819
 20
209.0513650101884
 10
268.4506695397946
 20
207.8126525463112
 10
268.6046999573651
 20
206.8921192408625
 10
268.7630953796784
 20
206.3009391211826
 10
268.9239331008745
 20
206.0462883130885
 10
269.0852607688981
 20
206.1312579324339
 10
269.2451200843958
 20
206.5548165631416
 10
269.4015705718326
 20
207.3118227772019
 10
269.5527131342211
 20
208.3930875446449
 10
269.6967131055977
 20
209.785485775913
 10
269.8318225213794
 20
211.4721156426721
 10
269.9564013362802
 20
213.432503743109
 10
270.0689373322481
 20
215.6428536212961
 10
270.1680644747353
 20
218.0763346239318
 10
270.2525794945146
 20
220.7034075881247
 10
270.321456493734
 20
223.4921834068163
 10
270.3738593989243
 20
226.4088101193438
 10
270.4091521098022
 20
229.4178838283869
 10
270.42690622067
 20
232.4828784553128
 10
270.42690622067
 20
235.5665891173039
 10
270.4091521098022
 20
238.6315837442298
 10
270.3738593989243
 20
241.6406574532729
 10
270.321456493734
 20
244.5572841658004
 10
270.2525794945146
 20
247.346059984492
 10
270.1680644747353
 20
249.9731329486849
 10
270.0689373322481
 20
252.4066139513206
 10
269.9564013362802
 20
254.6169638295077
 10
269.8318225213794
 20
256.5773519299446
 10
269.6967131055977
 20
258.2639817967038
 10
269.5527131342211
 20
259.6563800279718
 10
269.4015705718326
 20
260.7376447954147
 10
269.2451200843958
 20
261.4946510094751
 10
269.0852607688981
 20
261.9182096401809
 10
268.9239331008745
 20
262.0031792595264
 10
268.7630953796784
 20
261.7485284514323
 10
268.6046999573651
 20
261.1573483317524
 10
268.4506695397946
 20
260.2368150263055
 10
268.3028738475819
 20
258.9981025624283
 10
268.16310692022
 20
257.4562472314328
 10
268.0330653388752
 20
255.6299650683822
 10
267.9143276321843
 20
253.5414246647878
 10
267.8083351150613
 20
251.2159780719402
 10
267.7163743930819
 20
248.6818530613427
 10
267.6395617448394
 20
245.9698104778044
 10
267.578829571829
 20
243.112770844461
 10
267.53491508036
 20
240.1454147522154
 10
267.5083513328723
 20
237.1037618843356
 10
267.4994607772765
 20
234.0247337863083
  0
LWPOLYLINE
  5
1846
330
1A
100
AcDbEntity
  8
SEIHIN
100
AcDbPolyline
 90
       57
 70
     0
 43
0.0
 10
267.5695424289502
 20
234.0247337863083
 10
267.5783123445349
 20
231.0408804981552
 10
267.6045118045136
 20
228.0945508963732
 10
267.6478113354757
 20
225.222796785204
 10
267.7076664206966
 20
222.4617321388241
 10
267.7833243477513
 20
219.8460789471746
 10
267.8738336743068
 20
217.4087305667735
 10
267.9780561930698
 20
215.1803380676856
 10
268.0946812453936
 20
213.1889247785356
 10
268.2222422035798
 20
211.4595338768731
 10
268.359134914565
 20
210.0139134567098
 10
268.5036378730807
 20
208.8702430335897
 10
268.6539338705839
 20
208.0429049266631
 10
268.8081328477006
 20
207.5423033926536
 10
268.9642956628237
 20
207.3747337863087
 10
269.1204584779485
 20
207.5423033926536
 10
269.2746574550643
 20
208.0429049266631
 10
269.4249534525666
 20
208.8702430335897
 10
269.5694564110841
 20
210.0139134567098
 10
269.7063491220693
 20
211.4595338768749
 10
269.8339100802546
 20
213.1889247785356
 10
269.9505351325793
 20
215.1803380676874
 10
270.0547576513423
 20
217.4087305667735
 10
270.1452669778979
 20
219.8460789471746
 10
270.2209249049516
 20
222.4617321388259
 10
270.2807799901717
 20
225.222796785204
 10
270.3240795211337
 20
228.0945508963732
 10
270.3502789811142
 20
231.0408804981552
 10
270.3590488966989
 20
234.0247337863083
 10
270.3502789811142
 20
237.0085870744615
 10
270.3240795211337
 20
239.9549166762435
 10
270.2807799901717
 20
242.8266707874127
 10
270.2209249049516
 20
245.5877354337908
 10
270.1452669778979
 20
248.2033886254421
 10
270.0547576513423
 20
250.6407370058432
 10
269.9505351325793
 20
252.8691295049311
 10
269.8339100802546
 20
254.8605427940811
 10
269.7063491220693
 20
256.5899336957418
 10
269.5694564110841
 20
258.0355541159069
 10
269.4249534525666
 20
259.179224539027
 10
269.2746574550643
 20
260.0065626459536
 10
269.1204584779485
 20
260.5071641799631
 10
268.9642956628237
 20
260.674733786308
 10
268.8081328477006
 20
260.5071641799631
 10
268.6539338705839
 20
260.0065626459536
 10
268.5036378730807
 20
259.179224539027
 10
268.359134914565
 20
258.0355541159069
 10
268.2222422035798
 20
256.5899336957418
 10
268.0946812453936
 20
254.8605427940811
 10
267.9780561930698
 20
252.8691295049293
 10
267.8738336743068
 20
250.6407370058432
 10
267.7833243477513
 20
248.2033886254421
 10
267.7076664206966
 20
245.5877354337908
 10
267.6478113354757
 20
242.8266707874127
 10
267.6045118045136
 20
239.9549166762435
 10
267.5783123445349
 20
237.0085870744615
 10
267.5695424289502
 20
234.0247337863083
  0
LINE
  5
1847
330
1A
100
AcDbEntity
  8
SEIHIN
100
AcDbLine
 10
265.9779949231375
 20
205.6838409251131
 30
0.0
 11
268.9733137099643
 21
206.0361914670638
 31
0.0
  0
LINE
  5
1848
330
1A
100
AcDbEntity
  8
SEIHIN
100
AcDbLine
 10
268.9733137099643
 20
262.0132761055529
 30
0.0
 11
265.9779949231375
 21
262.3656266475036
 31
0.0
  0
LINE
  5
1849
330
1A
100
AcDbEntity
  8
SEIHIN
100
AcDbLine
 10
370.5368585640723
 20
167.6073462361467
 30
0.0
 11
313.8539986704223
 21
167.6073462361467
 31
0.0
  0
LINE
  5
184A
330
1A
100
AcDbEntity
  8
SEIHIN
100
AcDbLine
 10
314.206355889734
 20
170.6068893216155
 30
0.0
 11
370.1845013447597
 21
170.6068893216155
 31
0.0
  0
LINE
  5
184B
330
1A
100
AcDbEntity
  8
SEIHIN
100
AcDbLine
 10
312.1954286172473
 20
135.6068893216155
 30
0.0
 11
372.1954286172473
 21
135.6068893216155
 31
0.0
  0
LINE
  5
184C
330
1A
100
AcDbEntity
  8
SEIHIN
100
AcDbLine
 10
313.8539986704223
 20
167.6073462361467
 30
0.0
 11
313.2954286172467
 21
135.6068893216155
 31
0.0
  0
LINE
  5
184D
330
1A
100
AcDbEntity
  8
SEIHIN
100
AcDbLine
 10
314.206355889734
 20
170.6068893216155
 30
0.0
 11
313.8539986704223
 21
167.6073462361467
 31
0.0
  0
LINE
  5
184E
330
1A
100
AcDbEntity
  8
SEIHIN
100
AcDbLine
 10
371.0954286172478
 20
135.6068893216155
 30
0.0
 11
370.5368585640723
 21
167.6073462361467
 31
0.0
  0
LINE
  5
184F
330
1A
100
AcDbEntity
  8
SEIHIN
100
AcDbLine
 10
370.5368585640723
 20
167.6073462361467
 30
0.0
 11
370.1845013447597
 21
170.6068893216155
 31
0.0
  0
TEXT
  5
1999
330
1A
100
AcDbEntity
  8
MOJI
100
AcDbText
 10
113.9823822887733
 20
10.04659166584281
 30
0.0
 40
2.799999999999999
  1
インサイドＹ管エルボ
 41
0.9
  7
ｽﾀｲﾙ1
100
AcDbText
  0
TEXT
  5
2656
330
1A
100
AcDbEntity
  8
MOJI
100
AcDbText
 10
44.44138808139745
 20
6.242677182400996
 30
0.0
 40
2.799999999999999
  1
ユニシェイプＵＲＴ６０ＢＬ
 41
0.9
  7
ｽﾀｲﾙ1
100
AcDbText
  0
TEXT
  5
26E4
330
1A
100
AcDbEntity
  8
MOJI
100
AcDbText
 10
227.707177370123
 20
6.73799520856798
 30
0.0
 40
2.799999999999999
  1
ＰＨ１０□
 41
0.9
  7
ｽﾀｲﾙ1
100
AcDbText
  0
DIMENSION
  5
2872
330
1A
100
AcDbEntity
  8
SUNPOU
100
AcDbDimension
  2
*D17
 10
201.91582401927
 20
88.96828484940732
 30
0.0
 11
242.8369207518625
 21
94.15632658574919
 31
0.0
 70
   161
 71
     5
 42
-1.0
  3
STANDARD
100
AcDbAlignedDimension
 13
268.9642956628241
 23
106.2951816927866
 33
0.0
 14
201.1938963406825
 24
102.7434855631876
 34
0.0
1001
ACAD
1000
DSTYLE
1002
{
1070
   287
1070
     5
1070
    41
1040
3.0
1070
    42
1040
3.0
1070
    43
1040
7.0
1070
    44
1040
1.5
1070
    73
1070
     0
1070
    74
1070
     0
1070
    77
1070
     3
1070
   140
1040
3.0
1070
   141
1040
150.0
1070
   147
1040
1.0
1070
   172
1070
     1
1070
   173
1070
     1
1070
   176
1070
   256
1070
   177
1070
   256
1070
   178
1070
   256
1070
   271
1070
     0
1070
   272
1070
     0
1070
   279
1070
     2
1070
   341
1005
B2
1070
     6
1000
OPEN
1070
     7
1000
OPEN
1070
   371
1070
    -1
1070
   372
1070
    -1
1002
}
  0
DIMENSION
  5
2891
330
1A
100
AcDbEntity
  8
SUNPOU
100
AcDbDimension
  2
*D18
 10
148.248858836427
 20
102.7434855631877
 30
0.0
 11
145.748858836427
 21
136.6751874424016
 31
0.0
 70
    32
 71
     5
 42
-1.0
  3
STANDARD
100
AcDbAlignedDimension
 13
173.2048236131701
 23
170.6068893216155
 33
0.0
 14
201.1938963406825
 24
102.7434855631876
 34
0.0
 50
90.0
100
AcDbRotatedDimension
1001
ACAD
1000
DSTYLE
1002
{
1070
    41
1040
3.0
1070
    42
1040
3.0
1070
    43
1040
7.0
1070
    44
1040
1.5
1070
    73
1070
     0
1070
    74
1070
     0
1070
    77
1070
     3
1070
   140
1040
3.0
1070
   141
1040
150.0
1070
   147
1040
1.0
1070
   172
1070
     1
1070
   173
1070
     1
1070
   176
1070
   256
1070
   177
1070
   256
1070
   178
1070
   256
1070
   271
1070
     0
1070
   272
1070
     0
1070
   341
1005
B2
1070
     6
1000
OPEN
1070
     7
1000
OPEN
1070
   371
1070
    -1
1070
   372
1070
    -1
1002
}
  0
DIMENSION
  5
289E
330
1A
100
AcDbEntity
  8
SUNPOU
100
AcDbDimension
  2
*D19
 10
148.248858836427
 20
39.60643240708613
 30
0.0
 11
145.748858836427
 21
71.17495898513694
 31
0.0
 70
    32
 71
     5
 42
-1.0
  3
STANDARD
100
AcDbAlignedDimension
 13
201.1938963406825
 23
102.7434855631876
 33
0.0
 14
172.765191069218
 24
39.60643240708613
 34
0.0
 50
90.0
100
AcDbRotatedDimension
1001
ACAD
1000
DSTYLE
1002
{
1070
   287
1070
     4
1070
   279
1070
     1
1070
    41
1040
3.0
1070
    42
1040
3.0
1070
    43
1040
7.0
1070
    44
1040
1.5
1070
    73
1070
     0
1070
    74
1070
     0
1070
    77
1070
     3
1070
   140
1040
3.0
1070
   141
1040
150.0
1070
   147
1040
1.0
1070
   172
1070
     1
1070
   173
1070
     1
1070
   176
1070
   256
1070
   177
1070
   256
1070
   178
1070
   256
1070
   271
1070
     0
1070
   272
1070
     0
1070
   341
1005
B2
1070
     6
1000
OPEN
1070
     7
1000
OPEN
1070
   371
1070
    -1
1070
   372
1070
    -1
1002
}
  0
VIEWPORT
  5
22
330
17
100
AcDbEntity
 67
     1
  8
0
100
AcDbViewport
 10
313.6808219178082
 20
148.5
 30
0.0
 40
627.3616438356165
 41
297.0
 68
     2
 69
     1
 12
313.6808219178082
 22
148.5
 13
0.0
 23
0.0
 14
1.0
 24
1.0
 15
10.0
 25
10.0
 16
0.0
 26
0.0
 36
1.0
 17
0.0
 27
0.0
 37
0.0
 42
50.0
 43
0.0
 44
0.0
 45
297.0
 50
0.0
 51
0.0
 72
   100
 90
    32768
  1

281
     0
 71
     1
 74
     0
110
0.0
120
0.0
130
0.0
111
1.0
121
0.0
131
0.0
112
0.0
122
1.0
132
0.0
 79
     0
146
0.0
  0
VIEWPORT
  5
64
330
17
100
AcDbEntity
 67
     1
  8
VIEWPORT
100
AcDbViewport
 10
210.0
 20
148.5
 30
0.0
 40
420.0
 41
297.0
 68
     1
 69
     2
 12
210.0
 22
148.5
 13
0.0
 23
0.0
 14
5.0
 24
5.0
 15
0.0
 25
0.0
 16
0.0
 26
0.0
 36
1.0
 17
0.0
 27
0.0
 37
0.0
 42
50.0
 43
0.0
 44
0.0
 45
302.9399999999998
 50
0.0
 51
0.0
 72
   100
 90
    32768
  1

281
     0
 71
     1
 74
     0
110
0.0
120
0.0
130
0.0
111
1.0
121
0.0
131
0.0
112
0.0
122
1.0
132
0.0
 79
     0
146
0.0
  0
ENDSEC
  0
SECTION
  2
OBJECTS
  0
DICTIONARY
  5
C
330
0
100
AcDbDictionary
281
     1
  3
ACAD_GROUP
350
D
  3
ACAD_LAYOUT
350
33B
  3
ACAD_MLINESTYLE
350
E
  3
ACAD_PLOTSETTINGS
350
33C
  3
ACAD_PLOTSTYLENAME
350
339
  0
DICTIONARY
  5
36A
330
1A
100
AcDbDictionary
280
     1
281
     1
  3
ACAD_LAYOUTSELFREF
360
28D4
  0
DICTIONARY
  5
368
330
17
100
AcDbDictionary
280
     1
281
     1
  3
ACAD_LAYOUTSELFREF
360
28D3
  0
DICTIONARY
  5
D
102
{ACAD_REACTORS
330
C
102
}
330
C
100
AcDbDictionary
281
     1
  0
DICTIONARY
  5
33B
102
{ACAD_REACTORS
330
C
102
}
330
C
100
AcDbDictionary
281
     1
  3
Model
350
33D
  3
ﾚｲｱｳﾄ1
350
33E
  0
DICTIONARY
  5
E
102
{ACAD_REACTORS
330
C
102
}
330
C
100
AcDbDictionary
281
     1
  3
STANDARD
350
13
  0
DICTIONARY
  5
33C
102
{ACAD_REACTORS
330
C
102
}
330
C
100
AcDbDictionary
281
     1
  0
ACDBDICTIONARYWDFLT
  5
339
102
{ACAD_REACTORS
330
C
102
}
330
C
100
AcDbDictionary
281
     1
  3
Normal
350
33A
100
AcDbDictionaryWithDefault
340
33A
1001
ACAD
1000
TREAT_AS_HARD
1070
     0
1000
TREAT_AS_HARD
1070
     0
1000
TREAT_AS_HARD
1070
     0
1000
TREAT_AS_HARD
1070
     0
1000
TREAT_AS_HARD
1070
     0
1000
TREAT_AS_HARD
1070
     0
1000
TREAT_AS_HARD
1070
     0
1000
TREAT_AS_HARD
1070
     0
  0
XRECORD
  5
28D4
102
{ACAD_REACTORS
330
36A
102
}
330
36A
100
AcDbXrecord
280
     1
340
1A
  0
XRECORD
  5
28D3
102
{ACAD_REACTORS
330
368
102
}
330
368
100
AcDbXrecord
280
     1
340
17
  0
LAYOUT
  5
33D
102
{ACAD_REACTORS
330
33B
102
}
330
33B
100
AcDbPlotSettings
  1

  2
Acrobat PDFWriter
  4
A3
  6

 40
7.143749713897705
 41
7.143756389617919
 42
7.143768310546875
 43
7.14373779296875
 44
297.1270751953125
 45
420.1583251953125
 46
0.0
 47
0.0
 48
0.0
 49
0.0
140
0.0
141
0.0
142
1.0
143
1.0
 70
 28336
 72
     1
 73
     1
 74
     2
  7
print.ctb
 75
    16
147
1.0
148
0.0
149
0.0
100
AcDbLayout
  1
Model
 70
     1
 71
     0
 10
0.0
 20
0.0
 11
12.0
 21
9.0
 12
0.0
 22
0.0
 32
0.0
 14
0.0
 24
0.0
 34
0.0
 15
0.0
 25
0.0
 35
0.0
146
0.0
 13
0.0
 23
0.0
 33
0.0
 16
1.0
 26
0.0
 36
0.0
 17
0.0
 27
1.0
 37
0.0
 76
     0
330
1A
  0
LAYOUT
  5
33E
102
{ACAD_REACTORS
330
33B
102
}
330
33B
100
AcDbPlotSettings
  1

  2
C:\PROGRAM FILES\ACAD LT 2000\plotters\DWF ePlot.pc3
  4

  6

 40
0.0
 41
0.0
 42
0.0
 43
0.0
 44
0.0
 45
0.0
 46
0.0
 47
0.0
 48
0.0
 49
0.0
140
0.0
141
0.0
142
1.0
143
1.0
 70
   688
 72
     0
 73
     0
 74
     5
  7
print.ctb
 75
    16
147
1.0
148
0.0
149
0.0
100
AcDbLayout
  1
ﾚｲｱｳﾄ1
 70
     1
 71
     1
 10
0.0
 20
0.0
 11
420.0
 21
297.0
 12
0.0
 22
0.0
 32
0.0
 14
0.0
 24
0.0
 34
0.0
 15
420.0
 25
297.0
 35
0.0
146
0.0
 13
0.0
 23
0.0
 33
0.0
 16
1.0
 26
0.0
 36
0.0
 17
0.0
 27
1.0
 37
0.0
 76
     0
330
17
331
64
  0
MLINESTYLE
  5
13
102
{ACAD_REACTORS
330
E
102
}
330
E
100
AcDbMlineStyle
  2
STANDARD
 70
     0
  3

 62
     0
 51
90.0
 52
90.0
 71
     2
 49
0.5
 62
   256
  6
BYLAYER
 49
-0.5
 62
   256
  6
BYLAYER
  0
ACDBPLACEHOLDER
  5
33A
102
{ACAD_REACTORS
330
339
102
}
330
339
  0
ENDSEC
  0
EOF
