  0
SECTION
  2
HEADER
  9
$ACADVER
  1
AC1015
  9
$ACADMAINTVER
 70
     6
  9
$DWGCODEPAGE
  3
ANSI_932
  9
$INSBASE
 10
0.0
 20
0.0
 30
0.0
  9
$EXTMIN
 10
0.0000002654082891
 20
-0.0000004524473525
 30
0.0
  9
$EXTMAX
 10
398.8000002654083
 20
275.7999995475527
 30
0.0
  9
$LIMMIN
 10
0.0
 20
0.0
  9
$LIMMAX
 10
420.0
 20
297.0
  9
$ORTHOMODE
 70
     1
  9
$REGENMODE
 70
     1
  9
$FILLMODE
 70
     1
  9
$QTEXTMODE
 70
     0
  9
$MIRRTEXT
 70
     1
  9
$LTSCALE
 40
1.0
  9
$ATTMODE
 70
     1
  9
$TEXTSIZE
 40
2.5
  9
$TRACEWID
 40
1.0
  9
$TEXTSTYLE
  7
STANDARD
  9
$CLAYER
  8
0
  9
$CELTYPE
  6
BYLAYER
  9
$CECOLOR
 62
   256
  9
$CELTSCALE
 40
1.0
  9
$DISPSILH
 70
     0
  9
$DIMSCALE
 40
1.0
  9
$DIMASZ
 40
3.0
  9
$DIMEXO
 40
3.0
  9
$DIMDLI
 40
7.0
  9
$DIMRND
 40
0.0
  9
$DIMDLE
 40
0.0
  9
$DIMEXE
 40
1.5
  9
$DIMTP
 40
0.0
  9
$DIMTM
 40
0.0
  9
$DIMTXT
 40
3.0
  9
$DIMCEN
 40
150.0
  9
$DIMTSZ
 40
0.0
  9
$DIMTOL
 70
     0
  9
$DIMLIM
 70
     0
  9
$DIMTIH
 70
     0
  9
$DIMTOH
 70
     0
  9
$DIMSE1
 70
     0
  9
$DIMSE2
 70
     0
  9
$DIMTAD
 70
     3
  9
$DIMZIN
 70
     0
  9
$DIMBLK
  1

  9
$DIMASO
 70
     1
  9
$DIMSHO
 70
     1
  9
$DIMPOST
  1

  9
$DIMAPOST
  1

  9
$DIMALT
 70
     0
  9
$DIMALTD
 70
     2
  9
$DIMALTF
 40
25.4
  9
$DIMLFAC
 40
1.0
  9
$DIMTOFL
 70
     1
  9
$DIMTVP
 40
0.0
  9
$DIMTIX
 70
     0
  9
$DIMSOXD
 70
     0
  9
$DIMSAH
 70
     1
  9
$DIMBLK1
  1
OPEN
  9
$DIMBLK2
  1
OPEN
  9
$DIMSTYLE
  2
STANDARD
  9
$DIMCLRD
 70
   256
  9
$DIMCLRE
 70
   256
  9
$DIMCLRT
 70
   256
  9
$DIMTFAC
 40
1.0
  9
$DIMGAP
 40
1.0
  9
$DIMJUST
 70
     0
  9
$DIMSD1
 70
     0
  9
$DIMSD2
 70
     0
  9
$DIMTOLJ
 70
     1
  9
$DIMTZIN
 70
     0
  9
$DIMALTZ
 70
     0
  9
$DIMALTTZ
 70
     0
  9
$DIMUPT
 70
     0
  9
$DIMDEC
 70
     0
  9
$DIMTDEC
 70
     0
  9
$DIMALTU
 70
     2
  9
$DIMALTTD
 70
     2
  9
$DIMTXSTY
  7
STANDARD
  9
$DIMAUNIT
 70
     0
  9
$DIMADEC
 70
     0
  9
$DIMALTRND
 40
0.0
  9
$DIMAZIN
 70
     0
  9
$DIMDSEP
 70
    46
  9
$DIMATFIT
 70
     3
  9
$DIMFRAC
 70
     0
  9
$DIMLDRBLK
  1
OPEN
  9
$DIMLUNIT
 70
     2
  9
$DIMLWD
 70
    -1
  9
$DIMLWE
 70
    -1
  9
$DIMTMOVE
 70
     0
  9
$LUNITS
 70
     2
  9
$LUPREC
 70
     4
  9
$SKETCHINC
 40
1.0
  9
$FILLETRAD
 40
55.0
  9
$AUNITS
 70
     0
  9
$AUPREC
 70
     0
  9
$MENU
  1
.
  9
$ELEVATION
 40
0.0
  9
$PELEVATION
 40
0.0
  9
$THICKNESS
 40
0.0
  9
$LIMCHECK
 70
     0
  9
$CHAMFERA
 40
10.0
  9
$CHAMFERB
 40
10.0
  9
$CHAMFERC
 40
20.0
  9
$CHAMFERD
 40
0.0
  9
$SKPOLY
 70
     0
  9
$TDCREATE
 40
2451074.584006712
  9
$TDUCREATE
 40
2451074.209006713
  9
$TDUPDATE
 40
2455838.542437604
  9
$TDUUPDATE
 40
2455838.167437604
  9
$TDINDWG
 40
0.0940503009
  9
$TDUSRTIMER
 40
0.0940503009
  9
$USRTIMER
 70
     1
  9
$ANGBASE
 50
0.0
  9
$ANGDIR
 70
     0
  9
$PDMODE
 70
     0
  9
$PDSIZE
 40
0.0
  9
$PLINEWID
 40
0.0
  9
$SPLFRAME
 70
     0
  9
$SPLINETYPE
 70
     6
  9
$SPLINESEGS
 70
     8
  9
$HANDSEED
  5
A3E7
  9
$SURFTAB1
 70
     6
  9
$SURFTAB2
 70
     6
  9
$SURFTYPE
 70
     6
  9
$SURFU
 70
     6
  9
$SURFV
 70
     6
  9
$UCSBASE
  2

  9
$UCSNAME
  2

  9
$UCSORG
 10
0.0
 20
0.0
 30
0.0
  9
$UCSXDIR
 10
1.0
 20
0.0
 30
0.0
  9
$UCSYDIR
 10
0.0
 20
1.0
 30
0.0
  9
$UCSORTHOREF
  2

  9
$UCSORTHOVIEW
 70
     0
  9
$UCSORGTOP
 10
0.0
 20
0.0
 30
0.0
  9
$UCSORGBOTTOM
 10
0.0
 20
0.0
 30
0.0
  9
$UCSORGLEFT
 10
0.0
 20
0.0
 30
0.0
  9
$UCSORGRIGHT
 10
0.0
 20
0.0
 30
0.0
  9
$UCSORGFRONT
 10
0.0
 20
0.0
 30
0.0
  9
$UCSORGBACK
 10
0.0
 20
0.0
 30
0.0
  9
$PUCSBASE
  2

  9
$PUCSNAME
  2

  9
$PUCSORG
 10
0.0
 20
0.0
 30
0.0
  9
$PUCSXDIR
 10
1.0
 20
0.0
 30
0.0
  9
$PUCSYDIR
 10
0.0
 20
1.0
 30
0.0
  9
$PUCSORTHOREF
  2

  9
$PUCSORTHOVIEW
 70
     0
  9
$PUCSORGTOP
 10
0.0
 20
0.0
 30
0.0
  9
$PUCSORGBOTTOM
 10
0.0
 20
0.0
 30
0.0
  9
$PUCSORGLEFT
 10
0.0
 20
0.0
 30
0.0
  9
$PUCSORGRIGHT
 10
0.0
 20
0.0
 30
0.0
  9
$PUCSORGFRONT
 10
0.0
 20
0.0
 30
0.0
  9
$PUCSORGBACK
 10
0.0
 20
0.0
 30
0.0
  9
$USERI1
 70
     0
  9
$USERI2
 70
     0
  9
$USERI3
 70
     0
  9
$USERI4
 70
     0
  9
$USERI5
 70
     0
  9
$USERR1
 40
0.0
  9
$USERR2
 40
0.0
  9
$USERR3
 40
0.0
  9
$USERR4
 40
0.0
  9
$USERR5
 40
0.0
  9
$WORLDVIEW
 70
     1
  9
$SHADEDGE
 70
     3
  9
$SHADEDIF
 70
    70
  9
$TILEMODE
 70
     1
  9
$MAXACTVP
 70
    16
  9
$PINSBASE
 10
0.0
 20
0.0
 30
0.0
  9
$PLIMCHECK
 70
     0
  9
$PEXTMIN
 10
0.0
 20
0.0
 30
0.0
  9
$PEXTMAX
 10
420.0
 20
297.0
 30
0.0
  9
$PLIMMIN
 10
0.0
 20
0.0
  9
$PLIMMAX
 10
420.0
 20
297.0
  9
$UNITMODE
 70
     0
  9
$VISRETAIN
 70
     0
  9
$PLINEGEN
 70
     0
  9
$PSLTSCALE
 70
     1
  9
$TREEDEPTH
 70
  3020
  9
$CMLSTYLE
  2
STANDARD
  9
$CMLJUST
 70
     0
  9
$CMLSCALE
 40
1.0
  9
$PROXYGRAPHICS
 70
     1
  9
$MEASUREMENT
 70
     1
  9
$CELWEIGHT
370
    -1
  9
$ENDCAPS
280
     0
  9
$JOINSTYLE
280
     0
  9
$LWDISPLAY
290
     0
  9
$INSUNITS
 70
     0
  9
$HYPERLINKBASE
  1

  9
$STYLESHEET
  1
print.ctb
  9
$XEDIT
290
     1
  9
$CEPSNTYPE
380
     0
  9
$PSTYLEMODE
290
     1
  9
$FINGERPRINTGUID
  2
{D4F8574C-2E33-4D51-A6AD-99326D707132}
  9
$VERSIONGUID
  2
{D85061BD-EA08-4BAE-95DD-A8DCE59AD76D}
  9
$EXTNAMES
290
     1
  9
$PSVPSCALE
 40
0.0
  9
$OLESTARTUP
290
     0
  0
ENDSEC
  0
SECTION
  2
CLASSES
  0
CLASS
  1
ACDBDICTIONARYWDFLT
  2
AcDbDictionaryWithDefault
  3
AutoCAD 2000
 90
        0
280
     0
281
     0
  0
CLASS
  1
ACDBPLACEHOLDER
  2
AcDbPlaceHolder
  3
AutoCAD 2000
 90
        0
280
     0
281
     0
  0
CLASS
  1
LAYOUT
  2
AcDbLayout
  3
AutoCAD 2000
 90
        0
280
     0
281
     0
  0
CLASS
  1
LONG_TRANSACTION
  2
AcDbLongTransaction
  3
AutoCAD 2000
 90
    32768
280
     0
281
     0
  0
CLASS
  1
LWPOLYLINE
  2
AcDbPolyline
  3
AutoCAD 2000
 90
    32768
280
     0
281
     1
  0
CLASS
  1
HATCH
  2
AcDbHatch
  3
AutoCAD 2000
 90
    32768
280
     0
281
     1
  0
CLASS
  1
XRECORD
  2
AcDbXrecord
  3
AutoCAD 2000
 90
    32768
280
     0
281
     0
  0
CLASS
  1
LONG_TRANSACTION
  2
AcDbLongTransaction
  3
AutoCAD 2000
 90
    32768
280
     0
281
     0
  0
CLASS
  1
LWPOLYLINE
  2
AcDbPolyline
  3
AutoCAD 2000
 90
    32768
280
     0
281
     1
  0
CLASS
  1
HATCH
  2
AcDbHatch
  3
AutoCAD 2000
 90
    32768
280
     0
281
     1
  0
CLASS
  1
XRECORD
  2
AcDbXrecord
  3
AutoCAD 2000
 90
    32768
280
     0
281
     0
  0
CLASS
  1
LONG_TRANSACTION
  2
AcDbLongTransaction
  3
AutoCAD 2000
 90
    32768
280
     0
281
     0
  0
CLASS
  1
LWPOLYLINE
  2
AcDbPolyline
  3
AutoCAD 2000
 90
    32768
280
     0
281
     1
  0
CLASS
  1
HATCH
  2
AcDbHatch
  3
AutoCAD 2000
 90
    32768
280
     0
281
     1
  0
CLASS
  1
XRECORD
  2
AcDbXrecord
  3
AutoCAD 2000
 90
    32768
280
     0
281
     0
  0
CLASS
  1
LONG_TRANSACTION
  2
AcDbLongTransaction
  3
AutoCAD 2000
 90
    32768
280
     0
281
     0
  0
CLASS
  1
LWPOLYLINE
  2
AcDbPolyline
  3
AutoCAD 2000
 90
    32768
280
     0
281
     1
  0
CLASS
  1
HATCH
  2
AcDbHatch
  3
AutoCAD 2000
 90
    32768
280
     0
281
     1
  0
CLASS
  1
XRECORD
  2
AcDbXrecord
  3
AutoCAD 2000
 90
    32768
280
     0
281
     0
  0
CLASS
  1
LONG_TRANSACTION
  2
AcDbLongTransaction
  3
AutoCAD 2000
 90
    32768
280
     0
281
     0
  0
CLASS
  1
LWPOLYLINE
  2
AcDbPolyline
  3
AutoCAD 2000
 90
    32768
280
     0
281
     1
  0
CLASS
  1
HATCH
  2
AcDbHatch
  3
AutoCAD 2000
 90
    32768
280
     0
281
     1
  0
CLASS
  1
XRECORD
  2
AcDbXrecord
  3
AutoCAD 2000
 90
    32768
280
     0
281
     0
  0
CLASS
  1
LONG_TRANSACTION
  2
AcDbLongTransaction
  3
AutoCAD 2000
 90
    32768
280
     0
281
     0
  0
CLASS
  1
LWPOLYLINE
  2
AcDbPolyline
  3
AutoCAD 2000
 90
    32768
280
     0
281
     1
  0
CLASS
  1
HATCH
  2
AcDbHatch
  3
AutoCAD 2000
 90
    32768
280
     0
281
     1
  0
CLASS
  1
XRECORD
  2
AcDbXrecord
  3
AutoCAD 2000
 90
    32768
280
     0
281
     0
  0
CLASS
  1
LONG_TRANSACTION
  2
AcDbLongTransaction
  3
AutoCAD 2000
 90
    32768
280
     0
281
     0
  0
CLASS
  1
LWPOLYLINE
  2
AcDbPolyline
  3
AutoCAD 2000
 90
    32768
280
     0
281
     1
  0
CLASS
  1
HATCH
  2
AcDbHatch
  3
AutoCAD 2000
 90
    32768
280
     0
281
     1
  0
CLASS
  1
XRECORD
  2
AcDbXrecord
  3
AutoCAD 2000
 90
    32768
280
     0
281
     0
  0
CLASS
  1
LONG_TRANSACTION
  2
AcDbLongTransaction
  3
AutoCAD 2000
 90
    32768
280
     0
281
     0
  0
CLASS
  1
LWPOLYLINE
  2
AcDbPolyline
  3
AutoCAD 2000
 90
    32768
280
     0
281
     1
  0
CLASS
  1
HATCH
  2
AcDbHatch
  3
AutoCAD 2000
 90
    32768
280
     0
281
     1
  0
CLASS
  1
XRECORD
  2
AcDbXrecord
  3
AutoCAD 2000
 90
    32768
280
     0
281
     0
  0
CLASS
  1
LONG_TRANSACTION
  2
AcDbLongTransaction
  3
AutoCAD 2000
 90
    32768
280
     0
281
     0
  0
CLASS
  1
LWPOLYLINE
  2
AcDbPolyline
  3
AutoCAD 2000
 90
    32768
280
     0
281
     1
  0
CLASS
  1
HATCH
  2
AcDbHatch
  3
AutoCAD 2000
 90
    32768
280
     0
281
     1
  0
CLASS
  1
XRECORD
  2
AcDbXrecord
  3
AutoCAD 2000
 90
    32768
280
     0
281
     0
  0
CLASS
  1
LONG_TRANSACTION
  2
AcDbLongTransaction
  3
AutoCAD 2000
 90
    32768
280
     0
281
     0
  0
CLASS
  1
LWPOLYLINE
  2
AcDbPolyline
  3
AutoCAD 2000
 90
    32768
280
     0
281
     1
  0
CLASS
  1
HATCH
  2
AcDbHatch
  3
AutoCAD 2000
 90
    32768
280
     0
281
     1
  0
CLASS
  1
XRECORD
  2
AcDbXrecord
  3
AutoCAD 2000
 90
    32768
280
     0
281
     0
  0
ENDSEC
  0
SECTION
  2
TABLES
  0
TABLE
  2
VPORT
  5
8
330
0
100
AcDbSymbolTable
 70
     2
  0
VPORT
  5
A3E6
330
8
100
AcDbSymbolTableRecord
100
AcDbViewportTableRecord
  2
*Active
 70
     0
 10
0.0
 20
0.0
 11
1.0
 21
1.0
 12
209.9871865778531
 22
153.236233589264
 13
0.0
 23
0.0
 14
5.0
 24
5.0
 15
0.0
 25
0.0
 16
0.0
 26
0.0
 36
1.0
 17
0.0
 27
0.0
 37
0.0
 40
308.9566633206192
 41
1.527918781725888
 42
50.0
 43
0.0
 44
0.0
 50
0.0
 51
0.0
 71
     0
 72
   100
 73
     1
 74
     0
 75
     0
 76
     0
 77
     0
 78
     0
281
     0
 65
     1
110
0.0
120
0.0
130
0.0
111
1.0
121
0.0
131
0.0
112
0.0
122
1.0
132
0.0
 79
     0
146
0.0
  0
ENDTAB
  0
TABLE
  2
LTYPE
  5
5
330
0
100
AcDbSymbolTable
 70
     2
  0
LTYPE
  5
14
330
5
100
AcDbSymbolTableRecord
100
AcDbLinetypeTableRecord
  2
BYBLOCK
 70
     0
  3

 72
    65
 73
     0
 40
0.0
  0
LTYPE
  5
15
330
5
100
AcDbSymbolTableRecord
100
AcDbLinetypeTableRecord
  2
BYLAYER
 70
     0
  3

 72
    65
 73
     0
 40
0.0
  0
LTYPE
  5
16
330
5
100
AcDbSymbolTableRecord
100
AcDbLinetypeTableRecord
  2
CONTINUOUS
 70
     0
  3
Solid line
 72
    65
 73
     0
 40
0.0
  0
LTYPE
  5
120
330
5
100
AcDbSymbolTableRecord
100
AcDbLinetypeTableRecord
  2
CENTER
 70
     0
  3
____ _ ____ _ ____ _ ____ _ ____ _ ____ _ ____ 
 72
    65
 73
     4
 40
2.0
 49
1.25
 74
     0
 49
-0.25
 74
     0
 49
0.25
 74
     0
 49
-0.25
 74
     0
  0
ENDTAB
  0
TABLE
  2
LAYER
  5
2
330
0
100
AcDbSymbolTable
 70
     9
  0
LAYER
  5
F
330
2
100
AcDbSymbolTableRecord
100
AcDbLayerTableRecord
  2
0
 70
     0
 62
     7
  6
CONTINUOUS
370
    -3
390
33A
  0
LAYER
  5
62
330
2
100
AcDbSymbolTableRecord
100
AcDbLayerTableRecord
  2
VIEWPORT
 70
     0
 62
     7
  6
CONTINUOUS
370
    -3
390
33A
  0
LAYER
  5
6B
330
2
100
AcDbSymbolTableRecord
100
AcDbLayerTableRecord
  2
ZUWAKU
 70
     0
 62
     7
  6
CONTINUOUS
370
    -3
390
33A
  0
LAYER
  5
140
330
2
100
AcDbSymbolTableRecord
100
AcDbLayerTableRecord
  2
SEIHIN
 70
     0
 62
     3
  6
CONTINUOUS
370
    -3
390
33A
  0
LAYER
  5
141
330
2
100
AcDbSymbolTableRecord
100
AcDbLayerTableRecord
  2
SUNPOU
 70
     0
 62
     4
  6
CONTINUOUS
370
    -3
390
33A
  0
LAYER
  5
142
330
2
100
AcDbSymbolTableRecord
100
AcDbLayerTableRecord
  2
CENTER L
 70
     0
 62
     1
  6
CENTER
370
    -3
390
33A
  0
LAYER
  5
143
330
2
100
AcDbSymbolTableRecord
100
AcDbLayerTableRecord
  2
DEFPOINTS
 70
     0
 62
     7
  6
CONTINUOUS
290
     0
370
    -3
390
33A
  0
LAYER
  5
5D7
330
2
100
AcDbSymbolTableRecord
100
AcDbLayerTableRecord
  2
MOJI
 70
     0
 62
     2
  6
CONTINUOUS
370
    -3
390
33A
  0
LAYER
  5
A31
330
2
100
AcDbSymbolTableRecord
100
AcDbLayerTableRecord
  2
ﾊｯﾁﾝｸﾞ
 70
     0
 62
     7
  6
CONTINUOUS
370
    -3
390
33A
  0
ENDTAB
  0
TABLE
  2
STYLE
  5
3
330
0
100
AcDbSymbolTable
 70
     2
  0
STYLE
  5
10
330
3
100
AcDbSymbolTableRecord
100
AcDbTextStyleTableRecord
  2
STANDARD
 70
     0
 40
0.0
 41
1.0
 50
0.0
 71
     0
 42
2.5
  3
TXT
  4
bigfont.shx
  0
STYLE
  5
5D8
330
3
100
AcDbSymbolTableRecord
100
AcDbTextStyleTableRecord
  2
ｽﾀｲﾙ1
 70
     0
 40
0.0
 41
1.0
 50
0.0
 71
     0
 42
2.5
  3
MS PGothic.ttf
  4

1001
ACAD
1000
MS PGothic
1071
    32818
  0
ENDTAB
  0
TABLE
  2
VIEW
  5
6
330
0
100
AcDbSymbolTable
 70
     0
  0
ENDTAB
  0
TABLE
  2
UCS
  5
7
330
0
100
AcDbSymbolTable
 70
     0
  0
ENDTAB
  0
TABLE
  2
APPID
  5
9
330
0
100
AcDbSymbolTable
 70
     1
  0
APPID
  5
11
330
9
100
AcDbSymbolTableRecord
100
AcDbRegAppTableRecord
  2
ACAD
 70
     0
  0
ENDTAB
  0
TABLE
  2
DIMSTYLE
  5
A
330
0
100
AcDbSymbolTable
 70
     1
100
AcDbDimStyleTable
 71
     0
  0
DIMSTYLE
105
1D
102
{ACAD_REACTORS
330
93DA
330
93FB
330
9435
330
9436
330
9437
330
93FE
330
92C1
330
92BD
330
947F
330
947D
330
947E
330
92BB
330
94BF
330
9535
102
}
330
A
100
AcDbSymbolTableRecord
100
AcDbDimStyleTableRecord
  2
STANDARD
 70
     0
340
10
  0
ENDTAB
  0
TABLE
  2
BLOCK_RECORD
  5
1
330
0
100
AcDbSymbolTable
 70
    19
  0
BLOCK_RECORD
  5
1A
102
{ACAD_XDICTIONARY
360
36A
102
}
330
1
100
AcDbSymbolTableRecord
100
AcDbBlockTableRecord
  2
*MODEL_SPACE
340
33D
  0
BLOCK_RECORD
  5
17
102
{ACAD_XDICTIONARY
360
368
102
}
330
1
100
AcDbSymbolTableRecord
100
AcDbBlockTableRecord
  2
*PAPER_SPACE
340
33E
  0
BLOCK_RECORD
  5
B2
330
1
100
AcDbSymbolTableRecord
100
AcDbBlockTableRecord
  2
_OPEN
340
0
102
{BLKREFS
331
A019
331
A01A
331
9FFE
331
9FFF
331
9FF5
331
9FF6
331
A058
331
A059
331
9FD0
331
9FD1
331
9FC7
331
9FC8
331
9FE2
331
9FE3
331
9FD9
331
9FDA
331
9FEC
331
9FED
331
A010
331
A011
331
A024
331
A025
331
A007
331
A008
331
A073
331
A074
331
A3CF
331
A3D0
102
}
  0
BLOCK_RECORD
  5
10FA
330
1
100
AcDbSymbolTableRecord
100
AcDbBlockTableRecord
  2
*X1
340
0
102
{BLKREFS
331
6A2
102
}
  0
BLOCK_RECORD
  5
8EEF
330
1
100
AcDbSymbolTableRecord
100
AcDbBlockTableRecord
  2
*X2
340
0
102
{BLKREFS
331
94C0
102
}
  0
BLOCK_RECORD
  5
8F12
330
1
100
AcDbSymbolTableRecord
100
AcDbBlockTableRecord
  2
*X3
340
0
102
{BLKREFS
331
92D0
102
}
  0
BLOCK_RECORD
  5
8F4F
330
1
100
AcDbSymbolTableRecord
100
AcDbBlockTableRecord
  2
*X4
340
0
102
{BLKREFS
331
92CF
102
}
  0
BLOCK_RECORD
  5
95C9
330
1
100
AcDbSymbolTableRecord
100
AcDbBlockTableRecord
  2
*D5
340
0
  0
BLOCK_RECORD
  5
95D6
330
1
100
AcDbSymbolTableRecord
100
AcDbBlockTableRecord
  2
*D6
340
0
  0
BLOCK_RECORD
  5
95E3
330
1
100
AcDbSymbolTableRecord
100
AcDbBlockTableRecord
  2
*D7
340
0
  0
BLOCK_RECORD
  5
95F0
330
1
100
AcDbSymbolTableRecord
100
AcDbBlockTableRecord
  2
*D8
340
0
  0
BLOCK_RECORD
  5
95FD
330
1
100
AcDbSymbolTableRecord
100
AcDbBlockTableRecord
  2
*D9
340
0
  0
BLOCK_RECORD
  5
960A
330
1
100
AcDbSymbolTableRecord
100
AcDbBlockTableRecord
  2
*D10
340
0
  0
BLOCK_RECORD
  5
9632
330
1
100
AcDbSymbolTableRecord
100
AcDbBlockTableRecord
  2
*D11
340
0
  0
BLOCK_RECORD
  5
963F
330
1
100
AcDbSymbolTableRecord
100
AcDbBlockTableRecord
  2
*D12
340
0
  0
BLOCK_RECORD
  5
964C
330
1
100
AcDbSymbolTableRecord
100
AcDbBlockTableRecord
  2
*D13
340
0
  0
BLOCK_RECORD
  5
965A
330
1
100
AcDbSymbolTableRecord
100
AcDbBlockTableRecord
  2
*D14
340
0
  0
BLOCK_RECORD
  5
9667
330
1
100
AcDbSymbolTableRecord
100
AcDbBlockTableRecord
  2
*D15
340
0
  0
BLOCK_RECORD
  5
9674
330
1
100
AcDbSymbolTableRecord
100
AcDbBlockTableRecord
  2
*D16
340
0
  0
BLOCK_RECORD
  5
9681
330
1
100
AcDbSymbolTableRecord
100
AcDbBlockTableRecord
  2
*D17
340
0
  0
BLOCK_RECORD
  5
968E
330
1
100
AcDbSymbolTableRecord
100
AcDbBlockTableRecord
  2
*D18
340
0
  0
ENDTAB
  0
ENDSEC
  0
SECTION
  2
BLOCKS
  0
BLOCK
  5
1B
330
1A
100
AcDbEntity
  8
0
100
AcDbBlockBegin
  2
*MODEL_SPACE
 70
     0
 10
0.0
 20
0.0
 30
0.0
  3
*MODEL_SPACE
  1

  0
ENDBLK
  5
1C
330
1A
100
AcDbEntity
  8
0
100
AcDbBlockEnd
  0
BLOCK
  5
18
330
17
100
AcDbEntity
 67
     1
  8
0
100
AcDbBlockBegin
  2
*PAPER_SPACE
 70
     0
 10
0.0
 20
0.0
 30
0.0
  3
*PAPER_SPACE
  1

  0
ENDBLK
  5
19
330
17
100
AcDbEntity
 67
     1
  8
0
100
AcDbBlockEnd
  0
BLOCK
  5
B3
330
B2
100
AcDbEntity
  8
0
100
AcDbBlockBegin
  2
_OPEN
 70
     0
 10
0.0
 20
0.0
 30
0.0
  3
_OPEN
  1

  0
LINE
  5
B4
330
B2
100
AcDbEntity
  8
0
  6
ByBlock
 62
     0
100
AcDbLine
 10
-1.0
 20
0.1666666666666666
 30
0.0
 11
0.0
 21
0.0
 31
0.0
  0
LINE
  5
B5
330
B2
100
AcDbEntity
  8
0
  6
ByBlock
 62
     0
100
AcDbLine
 10
0.0
 20
0.0
 30
0.0
 11
-1.0
 21
-0.1666666666666666
 31
0.0
  0
LINE
  5
B6
330
B2
100
AcDbEntity
  8
0
  6
ByBlock
 62
     0
100
AcDbLine
 10
0.0
 20
0.0
 30
0.0
 11
-1.0
 21
0.0
 31
0.0
  0
ENDBLK
  5
B7
330
B2
100
AcDbEntity
  8
0
100
AcDbBlockEnd
  0
BLOCK
  5
128E
330
10FA
100
AcDbEntity
  8
0
100
AcDbBlockBegin
  2
*X1
 70
     1
 10
0.0
 20
0.0
 30
0.0
  3
*X1
  1

  0
LINE
  5
10FB
330
10FA
100
AcDbEntity
  8
0
 62
     0
100
AcDbLine
 10
34.52110634279887
 20
11.30208408269516
 30
0.0
 11
34.19819087794135
 21
11.62499954755267
 31
0.0
  0
LINE
  5
10FC
330
10FA
100
AcDbEntity
  8
0
 62
     0
100
AcDbLine
 10
34.52110634279884
 20
10.85307127664168
 30
0.0
 11
33.74917807188788
 21
11.62499954755267
 31
0.0
  0
LINE
  5
10FD
330
10FA
100
AcDbEntity
  8
0
 62
     0
100
AcDbLine
 10
34.52110634279884
 20
10.40405847058823
 30
0.0
 11
33.3105393697914
 21
11.61462544359568
 31
0.0
  0
LINE
  5
10FE
330
10FA
100
AcDbEntity
  8
0
 62
     0
100
AcDbLine
 10
34.52110634279884
 20
9.955045664534793
 30
0.0
 11
33.12110634279884
 21
11.35504566453482
 31
0.0
  0
LINE
  5
10FF
330
10FA
100
AcDbEntity
  8
0
 62
     0
100
AcDbLine
 10
34.52110634279884
 20
9.506032858481347
 30
0.0
 11
33.12110634279881
 21
10.90603285848135
 31
0.0
  0
LINE
  5
1100
330
10FA
100
AcDbEntity
  8
0
 62
     0
100
AcDbLine
 10
34.52110634279884
 20
9.057020052427873
 30
0.0
 11
33.12110634279881
 21
10.4570200524279
 31
0.0
  0
LINE
  5
1101
330
10FA
100
AcDbEntity
  8
0
 62
     0
100
AcDbLine
 10
32.07110634279885
 20
11.05800724637441
 30
0.0
 11
31.50411404162062
 21
11.62499954755267
 31
0.0
  0
LINE
  5
1102
330
10FA
100
AcDbEntity
  8
0
 62
     0
100
AcDbLine
 10
34.52110634279884
 20
8.608007246374427
 30
0.0
 11
33.12110634279881
 21
10.00800724637446
 31
0.0
  0
LINE
  5
1103
330
10FA
100
AcDbEntity
  8
0
 62
     0
100
AcDbLine
 10
32.07110634279885
 20
10.60899444032097
 30
0.0
 11
31.05510123556721
 21
11.62499954755261
 31
0.0
  0
LINE
  5
1104
330
10FA
100
AcDbEntity
  8
0
 62
     0
100
AcDbLine
 10
34.52110634279884
 20
8.158994440320981
 30
0.0
 11
33.12110634279881
 21
9.558994440321015
 31
0.0
  0
LINE
  5
1105
330
10FA
100
AcDbEntity
  8
0
 62
     0
100
AcDbLine
 10
32.07110634279888
 20
10.15998163426746
 30
0.0
 11
30.71835086023028
 21
11.51273711683603
 31
0.0
  0
LINE
  5
1106
330
10FA
100
AcDbEntity
  8
0
 62
     0
100
AcDbLine
 10
34.52110634279881
 20
7.709981634267506
 30
0.0
 11
33.12110634279881
 21
9.109981634267541
 31
0.0
  0
LINE
  5
1107
330
10FA
100
AcDbEntity
  8
0
 62
     0
100
AcDbLine
 10
32.07110634279888
 20
9.710968828213992
 30
0.0
 11
30.67110634279888
 21
11.11096882821402
 31
0.0
  0
LINE
  5
1108
330
10FA
100
AcDbEntity
  8
0
 62
     0
100
AcDbLine
 10
34.52110634279884
 20
7.26096882821406
 30
0.0
 11
33.12110634279881
 21
8.660968828214066
 31
0.0
  0
LINE
  5
1109
330
10FA
100
AcDbEntity
  8
0
 62
     0
100
AcDbLine
 10
32.07110634279888
 20
9.261956022160575
 30
0.0
 11
30.67110634279885
 21
10.66195602216058
 31
0.0
  0
LINE
  5
110A
330
10FA
100
AcDbEntity
  8
0
 62
     0
100
AcDbLine
 10
34.52110634279884
 20
6.811956022160615
 30
0.0
 11
33.12110634279881
 21
8.211956022160649
 31
0.0
  0
LINE
  5
110B
330
10FA
100
AcDbEntity
  8
0
 62
     0
100
AcDbLine
 10
32.07110634279888
 20
8.8129432161071
 30
0.0
 11
30.67110634279885
 21
10.21294321610713
 31
0.0
  0
LINE
  5
110C
330
10FA
100
AcDbEntity
  8
0
 62
     0
100
AcDbLine
 10
34.52110634279881
 20
6.36294321610714
 30
0.0
 11
33.12110634279878
 21
7.762943216107174
 31
0.0
  0
LINE
  5
110D
330
10FA
100
AcDbEntity
  8
0
 62
     0
100
AcDbLine
 10
32.07110634279885
 20
8.363930410053626
 30
0.0
 11
30.67110634279882
 21
9.76393041005366
 31
0.0
  0
LINE
  5
110E
330
10FA
100
AcDbEntity
  8
0
 62
     0
100
AcDbLine
 10
34.52110634279884
 20
5.913930410053637
 30
0.0
 11
33.12110634279878
 21
7.313930410053728
 31
0.0
  0
LINE
  5
110F
330
10FA
100
AcDbEntity
  8
0
 62
     0
100
AcDbLine
 10
32.07110634279888
 20
7.914917604000208
 30
0.0
 11
30.67110634279885
 21
9.314917604000243
 31
0.0
  0
LINE
  5
1110
330
10FA
100
AcDbEntity
  8
0
 62
     0
100
AcDbLine
 10
28.92110634279887
 20
11.06491760400021
 30
0.0
 11
28.36102439924639
 21
11.62499954755267
 31
0.0
  0
LINE
  5
1111
330
10FA
100
AcDbEntity
  8
0
 62
     0
100
AcDbLine
 10
34.52110634279887
 20
5.46491760400022
 30
0.0
 11
33.12110634279881
 21
6.864917604000282
 31
0.0
  0
LINE
  5
1112
330
10FA
100
AcDbEntity
  8
0
 62
     0
100
AcDbLine
 10
32.07110634279885
 20
7.465904797946734
 30
0.0
 11
30.67110634279885
 21
8.865904797946768
 31
0.0
  0
LINE
  5
1113
330
10FA
100
AcDbEntity
  8
0
 62
     0
100
AcDbLine
 10
28.92110634279887
 20
10.61590479794674
 30
0.0
 11
27.91201159319294
 21
11.62499954755267
 31
0.0
  0
LINE
  5
1114
330
10FA
100
AcDbEntity
  8
0
 62
     0
100
AcDbLine
 10
34.52110634279884
 20
5.015904797946745
 30
0.0
 11
33.12110634279884
 21
6.41590479794678
 31
0.0
  0
LINE
  5
1115
330
10FA
100
AcDbEntity
  8
0
 62
     0
100
AcDbLine
 10
32.07110634279885
 20
7.016891991893288
 30
0.0
 11
30.67110634279882
 21
8.416891991893294
 31
0.0
  0
LINE
  5
1116
330
10FA
100
AcDbEntity
  8
0
 62
     0
100
AcDbLine
 10
28.92110634279885
 20
10.16689199189329
 30
0.0
 11
27.57122498113676
 21
11.51677335355538
 31
0.0
  0
LINE
  5
1117
330
10FA
100
AcDbEntity
  8
0
 62
     0
100
AcDbLine
 10
34.52110634279884
 20
4.566891991893299
 30
0.0
 11
33.12110634279881
 21
5.966891991893305
 31
0.0
  0
LINE
  5
1118
330
10FA
100
AcDbEntity
  8
0
 62
     0
100
AcDbLine
 10
32.07110634279888
 20
6.567879185839814
 30
0.0
 11
30.67110634279885
 21
7.967879185839848
 31
0.0
  0
LINE
  5
1119
330
10FA
100
AcDbEntity
  8
0
 62
     0
100
AcDbLine
 10
28.92110634279887
 20
9.717879185839819
 30
0.0
 11
27.52110634279887
 21
11.11787918583979
 31
0.0
  0
LINE
  5
111A
330
10FA
100
AcDbEntity
  8
0
 62
     0
100
AcDbLine
 10
34.52110634279887
 20
4.117879185839825
 30
0.0
 11
33.12110634279884
 21
5.517879185839859
 31
0.0
  0
LINE
  5
111B
330
10FA
100
AcDbEntity
  8
0
 62
     0
100
AcDbLine
 10
32.07110634279885
 20
6.118866379786368
 30
0.0
 11
30.67110634279882
 21
7.518866379786402
 31
0.0
  0
LINE
  5
111C
330
10FA
100
AcDbEntity
  8
0
 62
     0
100
AcDbLine
 10
28.92110634279885
 20
9.268866379786373
 30
0.0
 11
27.52110634279887
 21
10.66886637978637
 31
0.0
  0
LINE
  5
111D
330
10FA
100
AcDbEntity
  8
0
 62
     0
100
AcDbLine
 10
34.48512366535388
 20
3.704849057231371
 30
0.0
 11
33.12110634279881
 21
5.068866379786413
 31
0.0
  0
LINE
  5
111E
330
10FA
100
AcDbEntity
  8
0
 62
     0
100
AcDbLine
 10
32.07110634279885
 20
5.669853573732922
 30
0.0
 11
30.67110634279882
 21
7.069853573732956
 31
0.0
  0
LINE
  5
111F
330
10FA
100
AcDbEntity
  8
0
 62
     0
100
AcDbLine
 10
28.92110634279885
 20
8.819853573732927
 30
0.0
 11
27.52110634279887
 21
10.2198535737329
 31
0.0
  0
LINE
  5
1120
330
10FA
100
AcDbEntity
  8
0
 62
     0
100
AcDbLine
 10
34.16596036897917
 20
3.574999547552607
 30
0.0
 11
33.12110634279881
 21
4.619853573732967
 31
0.0
  0
LINE
  5
1121
330
10FA
100
AcDbEntity
  8
0
 62
     0
100
AcDbLine
 10
28.92110634279885
 20
8.370840767679453
 30
0.0
 11
27.52110634279884
 21
9.770840767679459
 31
0.0
  0
LINE
  5
1122
330
10FA
100
AcDbEntity
  8
0
 62
     0
100
AcDbLine
 10
32.07110634279882
 20
5.220840767679447
 30
0.0
 11
30.67110634279882
 21
6.620840767679482
 31
0.0
  0
LINE
  5
1123
330
10FA
100
AcDbEntity
  8
0
 62
     0
100
AcDbLine
 10
26.20860634279881
 20
11.08334076767945
 30
0.0
 11
25.66694756292565
 21
11.62499954755264
 31
0.0
  0
LINE
  5
1124
330
10FA
100
AcDbEntity
  8
0
 62
     0
100
AcDbLine
 10
33.71694756292569
 20
3.574999547552579
 30
0.0
 11
33.12110634279881
 21
4.170840767679493
 31
0.0
  0
LINE
  5
1125
330
10FA
100
AcDbEntity
  8
0
 62
     0
100
AcDbLine
 10
28.92110634279885
 20
7.921827961626036
 30
0.0
 11
27.52110634279887
 21
9.321827961626013
 31
0.0
  0
LINE
  5
1126
330
10FA
100
AcDbEntity
  8
0
 62
     0
100
AcDbLine
 10
26.20860634279884
 20
10.63432796162604
 30
0.0
 11
25.21793475687221
 21
11.62499954755264
 31
0.0
  0
LINE
  5
1127
330
10FA
100
AcDbEntity
  8
0
 62
     0
100
AcDbLine
 10
32.05812719247609
 20
4.784807111948794
 30
0.0
 11
30.67110634279882
 21
6.171827961626036
 31
0.0
  0
LINE
  5
1128
330
10FA
100
AcDbEntity
  8
0
 62
     0
100
AcDbLine
 10
28.92110634279885
 20
7.472815155572561
 30
0.0
 11
27.52110634279884
 21
8.872815155572538
 31
0.0
  0
LINE
  5
1129
330
10FA
100
AcDbEntity
  8
0
 62
     0
100
AcDbLine
 10
26.1108160697419
 20
10.28310542862951
 30
0.0
 11
24.76892195081876
 21
11.62499954755264
 31
0.0
  0
LINE
  5
112A
330
10FA
100
AcDbEntity
  8
0
 62
     0
100
AcDbLine
 10
31.96163454484747
 20
4.432286953523913
 30
0.0
 11
30.67110634279882
 21
5.72281515557259
 31
0.0
  0
LINE
  5
112B
330
10FA
100
AcDbEntity
  8
0
 62
     0
100
AcDbLine
 10
28.92110634279882
 20
7.023802349519087
 30
0.0
 11
27.52110634279884
 21
8.423802349519093
 31
0.0
  0
LINE
  5
112C
330
10FA
100
AcDbEntity
  8
0
 62
     0
100
AcDbLine
 10
25.71990914476526
 20
10.22499954755264
 30
0.0
 11
24.31990914476529
 21
11.62499954755264
 31
0.0
  0
LINE
  5
112D
330
10FA
100
AcDbEntity
  8
0
 62
     0
100
AcDbLine
 10
31.79911860688565
 20
4.145790085432281
 30
0.0
 11
30.63534847321907
 21
5.309560219098869
 31
0.0
  0
LINE
  5
112E
330
10FA
100
AcDbEntity
  8
0
 62
     0
100
AcDbLine
 10
28.92110634279885
 20
6.574789543465669
 30
0.0
 11
27.52110634279887
 21
7.974789543465647
 31
0.0
  0
LINE
  5
112F
330
10FA
100
AcDbEntity
  8
0
 62
     0
100
AcDbLine
 10
25.27089633871185
 20
10.22499954755267
 30
0.0
 11
23.90211297412315
 21
11.59378291214136
 31
0.0
  0
LINE
  5
1130
330
10FA
100
AcDbEntity
  8
0
 62
     0
100
AcDbLine
 10
31.58309770822313
 20
3.912798178041384
 30
0.0
 11
30.43455565398522
 21
5.061340232279263
 31
0.0
  0
LINE
  5
1131
330
10FA
100
AcDbEntity
  8
0
 62
     0
100
AcDbLine
 10
28.92110634279885
 20
6.125776737412195
 30
0.0
 11
27.52110634279884
 21
7.525776737412201
 31
0.0
  0
LINE
  5
1132
330
10FA
100
AcDbEntity
  8
0
 62
     0
100
AcDbLine
 10
24.82188353265843
 20
10.22499954755261
 30
0.0
 11
23.56979276185652
 21
11.47709031835452
 31
0.0
  0
LINE
  5
1133
330
10FA
100
AcDbEntity
  8
0
 62
     0
100
AcDbLine
 10
31.31501653576012
 20
3.731866544450923
 30
0.0
 11
30.07188353265843
 21
4.974999547552613
 31
0.0
  0
LINE
  5
1134
330
10FA
100
AcDbEntity
  8
0
 62
     0
100
AcDbLine
 10
28.92110634279882
 20
5.676763931358749
 30
0.0
 11
27.52110634279884
 21
7.076763931358726
 31
0.0
  0
LINE
  5
1135
330
10FA
100
AcDbEntity
  8
0
 62
     0
100
AcDbLine
 10
24.38376564061403
 20
10.21410463354354
 30
0.0
 11
23.29849229325142
 21
11.29937798090614
 31
0.0
  0
LINE
  5
1136
330
10FA
100
AcDbEntity
  8
0
 62
     0
100
AcDbLine
 10
30.98681025580441
 20
3.611060018353157
 30
0.0
 11
29.62287072660492
 21
4.974999547552641
 31
0.0
  0
LINE
  5
1137
330
10FA
100
AcDbEntity
  8
0
 62
     0
100
AcDbLine
 10
24.19610634279885
 20
9.95275112530524
 30
0.0
 11
23.07943626372915
 21
11.06942120437494
 31
0.0
  0
LINE
  5
1138
330
10FA
100
AcDbEntity
  8
0
 62
     0
100
AcDbLine
 10
30.57385792055149
 20
3.574999547552607
 30
0.0
 11
27.52110634279882
 21
6.627751125305252
 31
0.0
  0
LINE
  5
1139
330
10FA
100
AcDbEntity
  8
0
 62
     0
100
AcDbLine
 10
24.19610634279885
 20
9.503738319251795
 30
0.0
 11
22.91355080755266
 21
10.78629385449801
 31
0.0
  0
LINE
  5
113A
330
10FA
100
AcDbEntity
  8
0
 62
     0
100
AcDbLine
 10
30.12484511449804
 20
3.574999547552607
 30
0.0
 11
27.52110634279884
 21
6.178738319251834
 31
0.0
  0
LINE
  5
113B
330
10FA
100
AcDbEntity
  8
0
 62
     0
100
AcDbLine
 10
24.29937848335072
 20
8.951453372646483
 30
0.0
 11
22.81246154787061
 21
10.43837030812659
 31
0.0
  0
LINE
  5
113C
330
10FA
100
AcDbEntity
  8
0
 62
     0
100
AcDbLine
 10
29.67583230844454
 20
3.574999547552636
 30
0.0
 11
27.52110634279884
 21
5.72972551319836
 31
0.0
  0
LINE
  5
113D
330
10FA
100
AcDbEntity
  8
0
 62
     0
100
AcDbLine
 10
26.40790819414448
 20
6.393910855799248
 30
0.0
 11
22.79610634279882
 21
10.0057127071449
 31
0.0
  0
LINE
  5
113E
330
10FA
100
AcDbEntity
  8
0
 62
     0
100
AcDbLine
 10
21.7461063427988
 20
11.05571270714489
 30
0.0
 11
21.17681950239108
 21
11.62499954755264
 31
0.0
  0
LINE
  5
113F
330
10FA
100
AcDbEntity
  8
0
 62
     0
100
AcDbLine
 10
29.22681950239112
 20
3.574999547552607
 30
0.0
 11
27.52110634279882
 21
5.280712707144914
 31
0.0
  0
LINE
  5
1140
330
10FA
100
AcDbEntity
  8
0
 62
     0
100
AcDbLine
 10
26.47110634279883
 20
5.881699901091479
 30
0.0
 11
22.79610634279882
 21
9.556699901091462
 31
0.0
  0
LINE
  5
1141
330
10FA
100
AcDbEntity
  8
0
 62
     0
100
AcDbLine
 10
21.74610634279884
 20
10.60669990109147
 30
0.0
 11
20.72780669633766
 21
11.62499954755261
 31
0.0
  0
LINE
  5
1142
330
10FA
100
AcDbEntity
  8
0
 62
     0
100
AcDbLine
 10
28.76958275696526
 20
3.583223486925049
 30
0.0
 11
27.52933028217126
 21
4.823475961719026
 31
0.0
  0
LINE
  5
1143
330
10FA
100
AcDbEntity
  8
0
 62
     0
100
AcDbLine
 10
21.7461063427988
 20
10.15768709503799
 30
0.0
 11
20.3924113989112
 21
11.51138203892563
 31
0.0
  0
LINE
  5
1144
330
10FA
100
AcDbEntity
  8
0
 62
     0
100
AcDbLine
 10
26.47110634279883
 20
5.432687095038005
 30
0.0
 11
22.80781167674007
 21
9.095981761096737
 31
0.0
  0
LINE
  5
1145
330
10FA
100
AcDbEntity
  8
0
 62
     0
100
AcDbLine
 10
21.7461063427988
 20
9.708674288984553
 30
0.0
 11
20.34610634279883
 21
11.10867428898453
 31
0.0
  0
LINE
  5
1146
330
10FA
100
AcDbEntity
  8
0
 62
     0
100
AcDbLine
 10
26.47110634279886
 20
4.983674288984502
 30
0.0
 11
22.96687138566017
 21
8.487909246123194
 31
0.0
  0
LINE
  5
1147
330
10FA
100
AcDbEntity
  8
0
 62
     0
100
AcDbLine
 10
21.74610634279884
 20
9.259661482931079
 30
0.0
 11
20.34610634279883
 21
10.65966148293105
 31
0.0
  0
LINE
  5
1148
330
10FA
100
AcDbEntity
  8
0
 62
     0
100
AcDbLine
 10
26.41682543400432
 20
4.588942391725595
 30
0.0
 11
25.06900803948511
 21
5.936759786244806
 31
0.0
  0
LINE
  5
1149
330
10FA
100
AcDbEntity
  8
0
 62
     0
100
AcDbLine
 10
21.7461063427988
 20
8.810648676877661
 30
0.0
 11
20.34610634279883
 21
10.21064867687764
 31
0.0
  0
LINE
  5
114A
330
10FA
100
AcDbEntity
  8
0
 62
     0
100
AcDbLine
 10
19.20036289251032
 20
11.35639212716614
 30
0.0
 11
18.93175547212382
 21
11.62499954755264
 31
0.0
  0
LINE
  5
114B
330
10FA
100
AcDbEntity
  8
0
 62
     0
100
AcDbLine
 10
26.28288758012348
 20
4.273867439552986
 30
0.0
 11
25.07110634279888
 21
5.485648676877588
 31
0.0
  0
LINE
  5
114C
330
10FA
100
AcDbEntity
  8
0
 62
     0
100
AcDbLine
 10
21.7461063427988
 20
8.361635870824187
 30
0.0
 11
20.3461063427988
 21
9.761635870824164
 31
0.0
  0
LINE
  5
114D
330
10FA
100
AcDbEntity
  8
0
 62
     0
100
AcDbLine
 10
19.10089906038402
 20
11.00684315323897
 30
0.0
 11
18.48274266607032
 21
11.62499954755267
 31
0.0
  0
LINE
  5
114E
330
10FA
100
AcDbEntity
  8
0
 62
     0
100
AcDbLine
 10
26.09139418103584
 20
4.016348032587131
 30
0.0
 11
25.02246375135559
 21
5.085278462267382
 31
0.0
  0
LINE
  5
114F
330
10FA
100
AcDbEntity
  8
0
 62
     0
100
AcDbLine
 10
21.74610634279878
 20
7.912623064770713
 30
0.0
 11
20.3461063427988
 21
9.312623064770718
 31
0.0
  0
LINE
  5
1150
330
10FA
100
AcDbEntity
  8
0
 62
     0
100
AcDbLine
 10
18.9931359869312
 20
10.66559342063831
 30
0.0
 11
18.03852820519585
 21
11.62020120237363
 31
0.0
  0
LINE
  5
1151
330
10FA
100
AcDbEntity
  8
0
 62
     0
100
AcDbLine
 10
25.84823469847799
 20
3.8104947090915
 30
0.0
 11
24.68372986001691
 21
4.974999547552613
 31
0.0
  0
LINE
  5
1152
330
10FA
100
AcDbEntity
  8
0
 62
     0
100
AcDbLine
 10
21.7461063427988
 20
7.463610258717295
 30
0.0
 11
20.34610634279886
 21
8.863610258717244
 31
0.0
  0
LINE
  5
1153
330
10FA
100
AcDbEntity
  8
0
 62
     0
100
AcDbLine
 10
18.88537291347839
 20
10.32434368803768
 30
0.0
 11
17.82137291347837
 21
11.38834368803773
 31
0.0
  0
LINE
  5
1154
330
10FA
100
AcDbEntity
  8
0
 62
     0
100
AcDbLine
 10
25.55019272424781
 20
3.65952387726827
 30
0.0
 11
24.23471705396349
 21
4.974999547552613
 31
0.0
  0
LINE
  5
1155
330
10FA
100
AcDbEntity
  8
0
 62
     0
100
AcDbLine
 10
21.7461063427988
 20
7.014597452663821
 30
0.0
 11
20.34610634279886
 21
8.41459745266377
 31
0.0
  0
LINE
  5
1156
330
10FA
100
AcDbEntity
  8
0
 62
     0
100
AcDbLine
 10
18.77760984002551
 20
9.983093955437112
 30
0.0
 11
17.71360984002549
 21
11.04709395543713
 31
0.0
  0
LINE
  5
1157
330
10FA
100
AcDbEntity
  8
0
 62
     0
100
AcDbLine
 10
25.18135639842407
 20
3.57934739703856
 30
0.0
 11
23.78570424790999
 21
4.974999547552641
 31
0.0
  0
LINE
  5
1158
330
10FA
100
AcDbEntity
  8
0
 62
     0
100
AcDbLine
 10
21.74610634279878
 20
6.565584646610375
 30
0.0
 11
20.34610634279883
 21
7.965584646610295
 31
0.0
  0
LINE
  5
1159
330
10FA
100
AcDbEntity
  8
0
 62
     0
100
AcDbLine
 10
18.6698467665727
 20
9.641844222836425
 30
0.0
 11
17.60584676657268
 21
10.70584422283647
 31
0.0
  0
LINE
  5
115A
330
10FA
100
AcDbEntity
  8
0
 62
     0
100
AcDbLine
 10
24.73669144185655
 20
3.574999547552607
 30
0.0
 11
23.33669144185648
 21
4.97499954755267
 31
0.0
  0
LINE
  5
115B
330
10FA
100
AcDbEntity
  8
0
 62
     0
100
AcDbLine
 10
21.7461063427988
 20
6.116571840556929
 30
0.0
 11
20.34610634279886
 21
7.516571840556878
 31
0.0
  0
LINE
  5
115C
330
10FA
100
AcDbEntity
  8
0
 62
     0
100
AcDbLine
 10
18.56208369311985
 20
9.30059449023588
 30
0.0
 11
17.49808369311983
 21
10.3645944902359
 31
0.0
  0
LINE
  5
115D
330
10FA
100
AcDbEntity
  8
0
 62
     0
100
AcDbLine
 10
24.2876786358031
 20
3.574999547552636
 30
0.0
 11
23.07087278715493
 21
4.7918053962008
 31
0.0
  0
LINE
  5
115E
330
10FA
100
AcDbEntity
  8
0
 62
     0
100
AcDbLine
 10
18.45432061966707
 20
8.959344757635193
 30
0.0
 11
17.39032061966702
 21
10.02334475763521
 31
0.0
  0
LINE
  5
115F
330
10FA
100
AcDbEntity
  8
0
 62
     0
100
AcDbLine
 10
21.74610634279878
 20
5.667559034503454
 30
0.0
 11
20.34610634279883
 21
7.067559034503403
 31
0.0
  0
LINE
  5
1160
330
10FA
100
AcDbEntity
  8
0
 62
     0
100
AcDbLine
 10
16.32110634279885
 20
11.09255903450341
 30
0.0
 11
15.78866582974959
 21
11.62499954755267
 31
0.0
  0
LINE
  5
1161
330
10FA
100
AcDbEntity
  8
0
 62
     0
100
AcDbLine
 10
23.83866582974965
 20
3.574999547552607
 30
0.0
 11
23.05860634279886
 21
4.355059034503398
 31
0.0
  0
LINE
  5
1162
330
10FA
100
AcDbEntity
  8
0
 62
     0
100
AcDbLine
 10
18.34655754621417
 20
8.618095025034591
 30
0.0
 11
17.28255754621415
 21
9.682095025034641
 31
0.0
  0
LINE
  5
1163
330
10FA
100
AcDbEntity
  8
0
 62
     0
100
AcDbLine
 10
21.7461063427988
 20
5.218546228449952
 30
0.0
 11
20.34610634279883
 21
6.618546228449957
 31
0.0
  0
LINE
  5
1164
330
10FA
100
AcDbEntity
  8
0
 62
     0
100
AcDbLine
 10
16.32110634279885
 20
10.64354622844993
 30
0.0
 11
15.33965302369617
 21
11.62499954755261
 31
0.0
  0
LINE
  5
1165
330
10FA
100
AcDbEntity
  8
0
 62
     0
100
AcDbLine
 10
23.38965302369618
 20
3.574999547552607
 30
0.0
 11
23.05860634279884
 21
3.906046228449952
 31
0.0
  0
LINE
  5
1166
330
10FA
100
AcDbEntity
  8
0
 62
     0
100
AcDbLine
 10
18.23879447276138
 20
8.276845292433932
 30
0.0
 11
17.17479447276136
 21
9.340845292433954
 31
0.0
  0
LINE
  5
1167
330
10FA
100
AcDbEntity
  8
0
 62
     0
100
AcDbLine
 10
16.32110634279888
 20
10.19453342239643
 30
0.0
 11
14.98338387834999
 21
11.53225588684531
 31
0.0
  0
LINE
  5
1168
330
10FA
100
AcDbEntity
  8
0
 62
     0
100
AcDbLine
 10
21.7461063427988
 20
4.769533422396506
 30
0.0
 11
20.34610634279883
 21
6.169533422396483
 31
0.0
  0
LINE
  5
1169
330
10FA
100
AcDbEntity
  8
0
 62
     0
100
AcDbLine
 10
18.13103139930854
 20
7.935595559833359
 30
0.0
 11
17.06703139930849
 21
8.999595559833409
 31
0.0
  0
LINE
  5
116A
330
10FA
100
AcDbEntity
  8
0
 62
     0
100
AcDbLine
 10
16.32110634279888
 20
9.745520616342986
 30
0.0
 11
14.92110634279882
 21
11.14552061634307
 31
0.0
  0
LINE
  5
116B
330
10FA
100
AcDbEntity
  8
0
 62
     0
100
AcDbLine
 10
21.74610634279884
 20
4.32052061634306
 30
0.0
 11
20.34610634279883
 21
5.720520616343065
 31
0.0
  0
LINE
  5
116C
330
10FA
100
AcDbEntity
  8
0
 62
     0
100
AcDbLine
 10
18.02848714461257
 20
7.589127008475855
 30
0.0
 11
16.9592683258557
 21
8.658345827232722
 31
0.0
  0
LINE
  5
116D
330
10FA
100
AcDbEntity
  8
0
 62
     0
100
AcDbLine
 10
16.32110634279888
 20
9.29650781028954
 30
0.0
 11
14.92110634279882
 21
10.6965078102896
 31
0.0
  0
LINE
  5
116E
330
10FA
100
AcDbEntity
  8
0
 62
     0
100
AcDbLine
 10
21.7461063427988
 20
3.871507810289614
 30
0.0
 11
20.34610634279886
 21
5.271507810289534
 31
0.0
  0
LINE
  5
116F
330
10FA
100
AcDbEntity
  8
0
 62
     0
100
AcDbLine
 10
18.23572382432962
 20
6.932877522705325
 30
0.0
 11
16.8139945780133
 21
8.354606769021643
 31
0.0
  0
LINE
  5
1170
330
10FA
100
AcDbEntity
  8
0
 62
     0
100
AcDbLine
 10
16.32110634279885
 20
8.847495004236066
 30
0.0
 11
14.92110634279879
 21
10.24749500423612
 31
0.0
  0
LINE
  5
1171
330
10FA
100
AcDbEntity
  8
0
 62
     0
100
AcDbLine
 10
21.57658384413261
 20
3.592017502902336
 30
0.0
 11
20.34610634279886
 21
4.822495004236088
 31
0.0
  0
LINE
  5
1172
330
10FA
100
AcDbEntity
  8
0
 62
     0
100
AcDbLine
 10
18.44296050404659
 20
6.276628036934937
 30
0.0
 11
14.92110634279882
 21
9.798482198182711
 31
0.0
  0
LINE
  5
1173
330
10FA
100
AcDbEntity
  8
0
 62
     0
100
AcDbLine
 10
13.69610634279888
 20
11.02348219818264
 30
0.0
 11
13.09458899342885
 21
11.62499954755264
 31
0.0
  0
LINE
  5
1174
330
10FA
100
AcDbEntity
  8
0
 62
     0
100
AcDbLine
 10
21.14458899342889
 20
3.574999547552636
 30
0.0
 11
20.34610634279886
 21
4.373482198182642
 31
0.0
  0
LINE
  5
1175
330
10FA
100
AcDbEntity
  8
0
 62
     0
100
AcDbLine
 10
18.65019718376359
 20
5.620378551164463
 30
0.0
 11
14.92110634279879
 21
9.349469392129236
 31
0.0
  0
LINE
  5
1176
330
10FA
100
AcDbEntity
  8
0
 62
     0
100
AcDbLine
 10
13.69610634279888
 20
10.57446939212917
 30
0.0
 11
12.64557618737544
 21
11.62499954755261
 31
0.0
  0
LINE
  5
1177
330
10FA
100
AcDbEntity
  8
0
 62
     0
100
AcDbLine
 10
20.69557618737542
 20
3.574999547552636
 30
0.0
 11
20.34610634279886
 21
3.924469392129196
 31
0.0
  0
LINE
  5
1178
330
10FA
100
AcDbEntity
  8
0
 62
     0
100
AcDbLine
 10
13.56265299510374
 20
10.25890993377083
 30
0.0
 11
12.21254213599803
 21
11.60902079287652
 31
0.0
  0
LINE
  5
1179
330
10FA
100
AcDbEntity
  8
0
 62
     0
100
AcDbLine
 10
18.85743386348056
 20
4.964129065394018
 30
0.0
 11
14.92110634279879
 21
8.90045658607579
 31
0.0
  0
LINE
  5
117A
330
10FA
100
AcDbEntity
  8
0
 62
     0
100
AcDbLine
 10
16.48986080396957
 20
6.882689318851561
 30
0.0
 11
14.92110634279885
 21
8.451443780022287
 31
0.0
  0
LINE
  5
117B
330
10FA
100
AcDbEntity
  8
0
 62
     0
100
AcDbLine
 10
13.14755057526849
 20
10.22499954755264
 30
0.0
 11
11.8435206012044
 21
11.52902952161673
 31
0.0
  0
LINE
  5
117C
330
10FA
100
AcDbEntity
  8
0
 62
     0
100
AcDbLine
 10
19.06467054319759
 20
4.307879579623545
 30
0.0
 11
17.01851669704359
 21
6.354033425777544
 31
0.0
  0
LINE
  5
117D
330
10FA
100
AcDbEntity
  8
0
 62
     0
100
AcDbLine
 10
16.32110634279891
 20
6.602430973968779
 30
0.0
 11
14.92110634279885
 21
8.002430973968841
 31
0.0
  0
LINE
  5
117E
330
10FA
100
AcDbEntity
  8
0
 62
     0
100
AcDbLine
 10
12.69853776921502
 20
10.22499954755264
 30
0.0
 11
11.52415989328903
 21
11.39937742347862
 31
0.0
  0
LINE
  5
117F
330
10FA
100
AcDbEntity
  8
0
 62
     0
100
AcDbLine
 10
19.18218997205284
 20
3.741347344714853
 30
0.0
 11
17.22575337676056
 21
5.697783940007127
 31
0.0
  0
LINE
  5
1180
330
10FA
100
AcDbEntity
  8
0
 62
     0
100
AcDbLine
 10
16.32110634279885
 20
6.153418167915361
 30
0.0
 11
14.92110634279882
 21
7.553418167915395
 31
0.0
  0
LINE
  5
1181
330
10FA
100
AcDbEntity
  8
0
 62
     0
100
AcDbLine
 10
12.27698101794325
 20
10.19754349277096
 30
0.0
 11
11.24478540562176
 21
11.22973910509244
 31
0.0
  0
LINE
  5
1182
330
10FA
100
AcDbEntity
  8
0
 62
     0
100
AcDbLine
 10
18.89952496316155
 20
3.574999547552664
 30
0.0
 11
17.43299005647756
 21
5.041534454236654
 31
0.0
  0
LINE
  5
1183
330
10FA
100
AcDbEntity
  8
0
 62
     0
100
AcDbLine
 10
16.32110634279885
 20
5.704405361861887
 30
0.0
 11
14.92110634279882
 21
7.104405361861921
 31
0.0
  0
LINE
  5
1184
330
10FA
100
AcDbEntity
  8
0
 62
     0
100
AcDbLine
 10
11.99105292152376
 20
10.03445878313698
 30
0.0
 11
11.00095780131587
 21
11.02455390334486
 31
0.0
  0
LINE
  5
1185
330
10FA
100
AcDbEntity
  8
0
 62
     0
100
AcDbLine
 10
18.4505121571081
 20
3.574999547552636
 30
0.0
 11
17.6402267361945
 21
4.385284968466237
 31
0.0
  0
LINE
  5
1186
330
10FA
100
AcDbEntity
  8
0
 62
     0
100
AcDbLine
 10
13.86382090919767
 20
7.712677989409655
 30
0.0
 11
13.10878478465579
 21
8.467714113951501
 31
0.0
  0
LINE
  5
1187
330
10FA
100
AcDbEntity
  8
0
 62
     0
100
AcDbLine
 10
16.32110634279885
 20
5.255392555808469
 30
0.0
 11
14.92110634279882
 21
6.655392555808475
 31
0.0
  0
LINE
  5
1188
330
10FA
100
AcDbEntity
  8
0
 62
     0
100
AcDbLine
 10
11.81299213645928
 20
9.76350676214804
 30
0.0
 11
10.79127478831026
 21
10.78522411029706
 31
0.0
  0
LINE
  5
1189
330
10FA
100
AcDbEntity
  8
0
 62
     0
100
AcDbLine
 10
17.97633284895226
 20
3.600166049655058
 30
0.0
 11
17.85115576315692
 21
3.725343135450401
 31
0.0
  0
LINE
  5
118A
330
10FA
100
AcDbEntity
  8
0
 62
     0
100
AcDbLine
 10
13.82056407912671
 20
7.30692201342714
 30
0.0
 11
12.70302880867328
 21
8.424457283880542
 31
0.0
  0
LINE
  5
118B
330
10FA
100
AcDbEntity
  8
0
 62
     0
100
AcDbLine
 10
11.77110634279887
 20
9.356379749754978
 30
0.0
 11
10.61680527782942
 21
10.51068081472442
 31
0.0
  0
LINE
  5
118C
330
10FA
100
AcDbEntity
  8
0
 62
     0
100
AcDbLine
 10
16.32110634279885
 20
4.806379749754995
 30
0.0
 11
14.92110634279882
 21
6.206379749755029
 31
0.0
  0
LINE
  5
118D
330
10FA
100
AcDbEntity
  8
0
 62
     0
100
AcDbLine
 10
13.65463629947771
 20
7.023836987022662
 30
0.0
 11
12.41994378226883
 21
8.258529504231546
 31
0.0
  0
LINE
  5
118E
330
10FA
100
AcDbEntity
  8
0
 62
     0
100
AcDbLine
 10
11.77110634279884
 20
8.907366943701532
 30
0.0
 11
10.48151542422434
 21
10.19695786227603
 31
0.0
  0
LINE
  5
118F
330
10FA
100
AcDbEntity
  8
0
 62
     0
100
AcDbLine
 10
16.32110634279882
 20
4.357366943701521
 30
0.0
 11
14.92110634279882
 21
5.757366943701555
 31
0.0
  0
LINE
  5
1190
330
10FA
100
AcDbEntity
  8
0
 62
     0
100
AcDbLine
 10
11.77110634279887
 20
8.458354137648086
 30
0.0
 11
10.39415848776141
 21
9.835301992685543
 31
0.0
  0
LINE
  5
1191
330
10FA
100
AcDbEntity
  8
0
 62
     0
100
AcDbLine
 10
13.40371957840946
 20
6.825740902037495
 30
0.0
 11
12.22184769728366
 21
8.007612783163295
 31
0.0
  0
LINE
  5
1192
330
10FA
100
AcDbEntity
  8
0
 62
     0
100
AcDbLine
 10
9.05860634279881
 20
11.17085413764812
 30
0.0
 11
8.604460932894284
 21
11.62499954755267
 31
0.0
  0
LINE
  5
1193
330
10FA
100
AcDbEntity
  8
0
 62
     0
100
AcDbLine
 10
16.32110634279885
 20
3.908354137648103
 30
0.0
 11
14.92110634279882
 21
5.308354137648137
 31
0.0
  0
LINE
  5
1194
330
10FA
100
AcDbEntity
  8
0
 62
     0
100
AcDbLine
 10
11.77110634279884
 20
8.009341331594612
 30
0.0
 11
10.37110634279878
 21
9.409341331594703
 31
0.0
  0
LINE
  5
1195
330
10FA
100
AcDbEntity
  8
0
 62
     0
100
AcDbLine
 10
13.05355985719575
 20
6.726887817197734
 30
0.0
 11
12.12299461244387
 21
7.657453061949581
 31
0.0
  0
LINE
  5
1196
330
10FA
100
AcDbEntity
  8
0
 62
     0
100
AcDbLine
 10
9.05860634279881
 20
10.72184133159467
 30
0.0
 11
8.155448126840809
 21
11.62499954755264
 31
0.0
  0
LINE
  5
1197
330
10FA
100
AcDbEntity
  8
0
 62
     0
100
AcDbLine
 10
16.17715444216349
 20
3.603293232229987
 30
0.0
 11
14.92110634279882
 21
4.859341331594663
 31
0.0
  0
LINE
  5
1198
330
10FA
100
AcDbEntity
  8
0
 62
     0
100
AcDbLine
 10
11.77110634279884
 20
7.560328525541166
 30
0.0
 11
10.37110634279878
 21
8.960328525541228
 31
0.0
  0
LINE
  5
1199
330
10FA
100
AcDbEntity
  8
0
 62
     0
100
AcDbLine
 10
9.004089357663644
 20
10.32734551067636
 30
0.0
 11
7.706435320787363
 21
11.62499954755264
 31
0.0
  0
LINE
  5
119A
330
10FA
100
AcDbEntity
  8
0
 62
     0
100
AcDbLine
 10
15.7564353207874
 20
3.574999547552579
 30
0.0
 11
14.92110634279879
 21
4.410328525541189
 31
0.0
  0
LINE
  5
119B
330
10FA
100
AcDbEntity
  8
0
 62
     0
100
AcDbLine
 10
11.77110634279884
 20
7.111315719487691
 30
0.0
 11
10.37110634279875
 21
8.511315719487754
 31
0.0
  0
LINE
  5
119C
330
10FA
100
AcDbEntity
  8
0
 62
     0
100
AcDbLine
 10
8.657422514733895
 20
10.22499954755264
 30
0.0
 11
7.257422514733889
 21
11.62499954755261
 31
0.0
  0
LINE
  5
119D
330
10FA
100
AcDbEntity
  8
0
 62
     0
100
AcDbLine
 10
15.3074225147339
 20
3.574999547552607
 30
0.0
 11
14.92110634279879
 21
3.961315719487743
 31
0.0
  0
LINE
  5
119E
330
10FA
100
AcDbEntity
  8
0
 62
     0
100
AcDbLine
 10
11.77110634279884
 20
6.662302913434274
 30
0.0
 11
10.37110634279878
 21
8.062302913434336
 31
0.0
  0
LINE
  5
119F
330
10FA
100
AcDbEntity
  8
0
 62
     0
100
AcDbLine
 10
8.208409708680477
 20
10.22499954755261
 30
0.0
 11
6.825845072628055
 21
11.60756418360506
 31
0.0
  0
LINE
  5
11A0
330
10FA
100
AcDbEntity
  8
0
 62
     0
100
AcDbLine
 10
13.69480511838031
 20
4.738604137852775
 30
0.0
 11
13.45971093309896
 21
4.973698323134158
 31
0.0
  0
LINE
  5
11A1
330
10FA
100
AcDbEntity
  8
0
 62
     0
100
AcDbLine
 10
11.77110634279884
 20
6.2132901073808
 30
0.0
 11
10.37110634279881
 21
7.613290107380834
 31
0.0
  0
LINE
  5
11A2
330
10FA
100
AcDbEntity
  8
0
 62
     0
100
AcDbLine
 10
7.759396902626974
 20
10.22499954755264
 30
0.0
 11
6.479277668388817
 21
11.50511878179082
 31
0.0
  0
LINE
  5
11A3
330
10FA
100
AcDbEntity
  8
0
 62
     0
100
AcDbLine
 10
13.69610634279885
 20
4.28829010738076
 30
0.0
 11
13.009396902627
 21
4.974999547552641
 31
0.0
  0
LINE
  5
11A4
330
10FA
100
AcDbEntity
  8
0
 62
     0
100
AcDbLine
 10
11.77110634279881
 20
5.764277301327325
 30
0.0
 11
10.37110634279881
 21
7.164277301327359
 31
0.0
  0
LINE
  5
11A5
330
10FA
100
AcDbEntity
  8
0
 62
     0
100
AcDbLine
 10
7.310384096573528
 20
10.22499954755264
 30
0.0
 11
6.197154338465225
 21
11.33822930566094
 31
0.0
  0
LINE
  5
11A6
330
10FA
100
AcDbEntity
  8
0
 62
     0
100
AcDbLine
 10
13.69610634279885
 20
3.839277301327314
 30
0.0
 11
12.56038409657352
 21
4.974999547552641
 31
0.0
  0
LINE
  5
11A7
330
10FA
100
AcDbEntity
  8
0
 62
     0
100
AcDbLine
 10
7.055237682766289
 20
10.03113315530643
 30
0.0
 11
5.968107932344821
 21
11.1182629057279
 31
0.0
  0
LINE
  5
11A8
330
10FA
100
AcDbEntity
  8
0
 62
     0
100
AcDbLine
 10
13.50223995055262
 20
3.584130887520132
 30
0.0
 11
10.37110634279881
 21
6.715264495273942
 31
0.0
  0
LINE
  5
11A9
330
10FA
100
AcDbEntity
  8
0
 62
     0
100
AcDbLine
 10
7.046106342798879
 20
9.591251689220399
 30
0.0
 11
5.791367331110308
 21
10.84599070090897
 31
0.0
  0
LINE
  5
11AA
330
10FA
100
AcDbEntity
  8
0
 62
     0
100
AcDbLine
 10
13.06235848446667
 20
3.574999547552607
 30
0.0
 11
10.37110634279881
 21
6.266251689220467
 31
0.0
  0
LINE
  5
11AB
330
10FA
100
AcDbEntity
  8
0
 62
     0
100
AcDbLine
 10
7.077174196866678
 20
9.111171029099125
 30
0.0
 11
5.675927279963417
 21
10.51241794600238
 31
0.0
  0
LINE
  5
11AC
330
10FA
100
AcDbEntity
  8
0
 62
     0
100
AcDbLine
 10
12.61334567841319
 20
3.574999547552607
 30
0.0
 11
10.37110634279878
 21
5.817238883166993
 31
0.0
  0
LINE
  5
11AD
330
10FA
100
AcDbEntity
  8
0
 62
     0
100
AcDbLine
 10
9.223294388410153
 20
6.516038031502176
 30
0.0
 11
5.646106342798844
 21
10.09322607711351
 31
0.0
  0
LINE
  5
11AE
330
10FA
100
AcDbEntity
  8
0
 62
     0
100
AcDbLine
 10
12.13769682883139
 20
3.601635591080963
 30
0.0
 11
10.39774238632711
 21
5.341590033585248
 31
0.0
  0
LINE
  5
11AF
330
10FA
100
AcDbEntity
  8
0
 62
     0
100
AcDbLine
 10
9.319241645452763
 20
5.971077968406149
 30
0.0
 11
5.646106342798844
 21
9.644213271060067
 31
0.0
  0
LINE
  5
11B0
330
10FA
100
AcDbEntity
  8
0
 62
     0
100
AcDbLine
 10
11.45079287253059
 20
3.839526741328285
 30
0.0
 11
10.6356335365744
 21
4.654686077284509
 31
0.0
  0
LINE
  5
11B1
330
10FA
100
AcDbEntity
  8
0
 62
     0
100
AcDbLine
 10
9.321106342798856
 20
5.520200465006553
 30
0.0
 11
5.649888566509957
 21
9.191418241295451
 31
0.0
  0
LINE
  5
11B2
330
10FA
100
AcDbEntity
  8
0
 62
     0
100
AcDbLine
 10
9.321106342798884
 20
5.07118765895305
 30
0.0
 11
5.761533945671885
 21
8.630760056080049
 31
0.0
  0
LINE
  5
11B3
330
10FA
100
AcDbEntity
  8
0
 62
     0
100
AcDbLine
 10
9.284846344732812
 20
4.658434850965733
 30
0.0
 11
7.903150522923311
 21
6.040130672775234
 31
0.0
  0
LINE
  5
11B4
330
10FA
100
AcDbEntity
  8
0
 62
     0
100
AcDbLine
 10
9.16387737521839
 20
4.33039101442668
 30
0.0
 11
7.921106342798879
 21
5.573162046846192
 31
0.0
  0
LINE
  5
11B5
330
10FA
100
AcDbEntity
  8
0
 62
     0
100
AcDbLine
 10
8.982817751527505
 20
4.062437832064091
 30
0.0
 11
7.903156826648455
 21
5.142098756943113
 31
0.0
  0
LINE
  5
11B6
330
10FA
100
AcDbEntity
  8
0
 62
     0
100
AcDbLine
 10
8.749704565394068
 20
3.846538212144082
 30
0.0
 11
7.621243229985509
 21
4.97499954755267
 31
0.0
  0
LINE
  5
11B7
330
10FA
100
AcDbEntity
  8
0
 62
     0
100
AcDbLine
 10
8.463072341527663
 20
3.684157629957041
 30
0.0
 11
7.172230423932035
 21
4.974999547552641
 31
0.0
  0
LINE
  5
11B8
330
10FA
100
AcDbEntity
  8
0
 62
     0
100
AcDbLine
 10
8.110366046984694
 20
3.587851118446536
 30
0.0
 11
6.723217617878589
 21
4.974999547552641
 31
0.0
  0
LINE
  5
11B9
330
10FA
100
AcDbEntity
  8
0
 62
     0
100
AcDbLine
 10
7.674204811825148
 20
3.574999547552607
 30
0.0
 11
6.274204811825171
 21
4.974999547552584
 31
0.0
  0
LINE
  5
11BA
330
10FA
100
AcDbEntity
  8
0
 62
     0
100
AcDbLine
 10
7.225192005771702
 20
3.574999547552607
 30
0.0
 11
5.948530058362763
 21
4.851661494961575
 31
0.0
  0
LINE
  5
11BB
330
10FA
100
AcDbEntity
  8
0
 62
     0
100
AcDbLine
 10
6.7761791997182
 20
3.574999547552636
 30
0.0
 11
5.908606342798805
 21
4.442572404472031
 31
0.0
  0
LINE
  5
11BC
330
10FA
100
AcDbEntity
  8
0
 62
     0
100
AcDbLine
 10
6.327166393664754
 20
3.574999547552636
 30
0.0
 11
5.908606342798805
 21
3.993559598418585
 31
0.0
  0
LINE
  5
11BD
330
10FA
100
AcDbEntity
  8
0
 62
     0
100
AcDbLine
 10
34.31694998513225
 20
3.581565436111389
 30
0.0
 11
34.51454045424014
 21
3.779155905219283
 31
0.0
  0
LINE
  5
11BE
330
10FA
100
AcDbEntity
  8
0
 62
     0
100
AcDbLine
 10
33.86137129052002
 20
3.574999547552579
 30
0.0
 11
34.5211063427989
 21
4.234734599831455
 31
0.0
  0
LINE
  5
11BF
330
10FA
100
AcDbEntity
  8
0
 62
     0
100
AcDbLine
 10
33.41235848446661
 20
3.574999547552636
 30
0.0
 11
34.5211063427989
 21
4.683747405884929
 31
0.0
  0
LINE
  5
11C0
330
10FA
100
AcDbEntity
  8
0
 62
     0
100
AcDbLine
 10
33.1367051244247
 20
3.748358993564181
 30
0.0
 11
34.5211063427989
 21
5.132760211938375
 31
0.0
  0
LINE
  5
11C1
330
10FA
100
AcDbEntity
  8
0
 62
     0
100
AcDbLine
 10
33.12110634279884
 20
4.181773017991787
 30
0.0
 11
34.52110634279887
 21
5.581773017991821
 31
0.0
  0
LINE
  5
11C2
330
10FA
100
AcDbEntity
  8
0
 62
     0
100
AcDbLine
 10
33.12110634279886
 20
4.630785824045261
 30
0.0
 11
34.5211063427989
 21
6.030785824045267
 31
0.0
  0
LINE
  5
11C3
330
10FA
100
AcDbEntity
  8
0
 62
     0
100
AcDbLine
 10
33.12110634279886
 20
5.079798630098707
 30
0.0
 11
34.52110634279887
 21
6.479798630098741
 31
0.0
  0
LINE
  5
11C4
330
10FA
100
AcDbEntity
  8
0
 62
     0
100
AcDbLine
 10
33.12110634279884
 20
5.528811436152182
 30
0.0
 11
34.52110634279887
 21
6.928811436152216
 31
0.0
  0
LINE
  5
11C5
330
10FA
100
AcDbEntity
  8
0
 62
     0
100
AcDbLine
 10
31.3343887738313
 20
3.742093867184649
 30
0.0
 11
31.90401202316692
 21
4.31171711652027
 31
0.0
  0
LINE
  5
11C6
330
10FA
100
AcDbEntity
  8
0
 62
     0
100
AcDbLine
 10
33.12110634279886
 20
5.977824242205599
 30
0.0
 11
34.5211063427989
 21
7.377824242205633
 31
0.0
  0
LINE
  5
11C7
330
10FA
100
AcDbEntity
  8
0
 62
     0
100
AcDbLine
 10
30.71910469057005
 20
3.575822589976809
 30
0.0
 11
32.07028330037479
 21
4.927001199781528
 31
0.0
  0
LINE
  5
11C8
330
10FA
100
AcDbEntity
  8
0
 62
     0
100
AcDbLine
 10
33.12110634279884
 20
6.426837048259073
 30
0.0
 11
34.52110634279887
 21
7.826837048259108
 31
0.0
  0
LINE
  5
11C9
330
10FA
100
AcDbEntity
  8
0
 62
     0
100
AcDbLine
 10
30.2692688420924
 20
3.574999547552607
 30
0.0
 11
32.07110634279894
 21
5.376837048259147
 31
0.0
  0
LINE
  5
11CA
330
10FA
100
AcDbEntity
  8
0
 62
     0
100
AcDbLine
 10
33.12110634279884
 20
6.875849854312548
 30
0.0
 11
34.52110634279887
 21
8.275849854312554
 31
0.0
  0
LINE
  5
11CB
330
10FA
100
AcDbEntity
  8
0
 62
     0
100
AcDbLine
 10
29.82025603603892
 20
3.574999547552636
 30
0.0
 11
32.07110634279891
 21
5.825849854312622
 31
0.0
  0
LINE
  5
11CC
330
10FA
100
AcDbEntity
  8
0
 62
     0
100
AcDbLine
 10
33.12110634279886
 20
7.324862660365965
 30
0.0
 11
34.52110634279887
 21
8.724862660366
 31
0.0
  0
LINE
  5
11CD
330
10FA
100
AcDbEntity
  8
0
 62
     0
100
AcDbLine
 10
29.37124322998548
 20
3.574999547552607
 30
0.0
 11
32.07110634279894
 21
6.274862660366039
 31
0.0
  0
LINE
  5
11CE
330
10FA
100
AcDbEntity
  8
0
 62
     0
100
AcDbLine
 10
30.61881074175846
 20
5.271579865379067
 30
0.0
 11
32.07110634279891
 21
6.723875466419514
 31
0.0
  0
LINE
  5
11CF
330
10FA
100
AcDbEntity
  8
0
 62
     0
100
AcDbLine
 10
33.12110634279884
 20
7.77387546641944
 30
0.0
 11
34.52110634279887
 21
9.173875466419474
 31
0.0
  0
LINE
  5
11D0
330
10FA
100
AcDbEntity
  8
0
 62
     0
100
AcDbLine
 10
28.92223042393203
 20
3.574999547552607
 30
0.0
 11
30.37452602497245
 21
5.027295148593054
 31
0.0
  0
LINE
  5
11D1
330
10FA
100
AcDbEntity
  8
0
 62
     0
100
AcDbLine
 10
30.67110634279885
 20
5.772888272472897
 30
0.0
 11
32.07110634279891
 21
7.172888272472988
 31
0.0
  0
LINE
  5
11D2
330
10FA
100
AcDbEntity
  8
0
 62
     0
100
AcDbLine
 10
33.12110634279884
 20
8.222888272472886
 30
0.0
 11
34.52110634279887
 21
9.62288827247292
 31
0.0
  0
LINE
  5
11D3
330
10FA
100
AcDbEntity
  8
0
 62
     0
100
AcDbLine
 10
28.52919249356713
 20
3.630974423241184
 30
0.0
 11
29.87321761787856
 21
4.974999547552613
 31
0.0
  0
LINE
  5
11D4
330
10FA
100
AcDbEntity
  8
0
 62
     0
100
AcDbLine
 10
30.67110634279882
 20
6.221901078526371
 30
0.0
 11
32.07110634279891
 21
7.621901078526434
 31
0.0
  0
LINE
  5
11D5
330
10FA
100
AcDbEntity
  8
0
 62
     0
100
AcDbLine
 10
33.12110634279881
 20
8.67190107852636
 30
0.0
 11
34.52110634279884
 21
10.07190107852639
 31
0.0
  0
LINE
  5
11D6
330
10FA
100
AcDbEntity
  8
0
 62
     0
100
AcDbLine
 10
28.21519905996206
 20
3.76599379568961
 30
0.0
 11
29.42464370464728
 21
4.97543844037483
 31
0.0
  0
LINE
  5
11D7
330
10FA
100
AcDbEntity
  8
0
 62
     0
100
AcDbLine
 10
30.67110634279888
 20
6.670913884579846
 30
0.0
 11
32.07110634279891
 21
8.07091388457988
 31
0.0
  0
LINE
  5
11D8
330
10FA
100
AcDbEntity
  8
0
 62
     0
100
AcDbLine
 10
33.12110634279884
 20
9.120913884579806
 30
0.0
 11
34.52110634279887
 21
10.52091388457981
 31
0.0
  0
LINE
  5
11D9
330
10FA
100
AcDbEntity
  8
0
 62
     0
100
AcDbLine
 10
27.95856911927953
 20
3.958376661060469
 30
0.0
 11
29.10290441029093
 21
5.102711952071899
 31
0.0
  0
LINE
  5
11DA
330
10FA
100
AcDbEntity
  8
0
 62
     0
100
AcDbLine
 10
30.67110634279888
 20
7.11992669063332
 30
0.0
 11
32.07110634279891
 21
8.519926690633326
 31
0.0
  0
LINE
  5
11DB
330
10FA
100
AcDbEntity
  8
0
 62
     0
100
AcDbLine
 10
33.12110634279884
 20
9.569926690633252
 30
0.0
 11
34.5211063427989
 21
10.96992669063331
 31
0.0
  0
LINE
  5
11DC
330
10FA
100
AcDbEntity
  8
0
 62
     0
100
AcDbLine
 10
27.75358703166699
 20
4.202407379501437
 30
0.0
 11
28.9342852710863
 21
5.383105618920723
 31
0.0
  0
LINE
  5
11DD
330
10FA
100
AcDbEntity
  8
0
 62
     0
100
AcDbLine
 10
30.67110634279888
 20
7.568939496686766
 30
0.0
 11
32.07110634279888
 21
8.9689394966868
 31
0.0
  0
LINE
  5
11DE
330
10FA
100
AcDbEntity
  8
0
 62
     0
100
AcDbLine
 10
33.12110634279886
 20
10.01893949668675
 30
0.0
 11
34.51603176602358
 21
11.4138649199115
 31
0.0
  0
LINE
  5
11DF
330
10FA
100
AcDbEntity
  8
0
 62
     0
100
AcDbLine
 10
27.60362459245004
 20
4.501457746337933
 30
0.0
 11
28.92110634279885
 21
5.818939496686766
 31
0.0
  0
LINE
  5
11E0
330
10FA
100
AcDbEntity
  8
0
 62
     0
100
AcDbLine
 10
30.67110634279888
 20
8.017952302740212
 30
0.0
 11
32.07110634279891
 21
9.417952302740246
 31
0.0
  0
LINE
  5
11E1
330
10FA
100
AcDbEntity
  8
0
 62
     0
100
AcDbLine
 10
33.12110634279886
 20
10.4679523027402
 30
0.0
 11
34.27747459348376
 21
11.62432055342509
 31
0.0
  0
LINE
  5
11E2
330
10FA
100
AcDbEntity
  8
0
 62
     0
100
AcDbLine
 10
27.52491782497182
 20
4.871763784913156
 30
0.0
 11
28.92110634279891
 21
6.267952302740241
 31
0.0
  0
LINE
  5
11E3
330
10FA
100
AcDbEntity
  8
0
 62
     0
100
AcDbLine
 10
30.67110634279888
 20
8.466965108793658
 30
0.0
 11
32.07110634279891
 21
9.866965108793692
 31
0.0
  0
LINE
  5
11E4
330
10FA
100
AcDbEntity
  8
0
 62
     0
100
AcDbLine
 10
33.12110634279886
 20
10.91696510879364
 30
0.0
 11
33.82914078155781
 21
11.62499954755261
 31
0.0
  0
LINE
  5
11E5
330
10FA
100
AcDbEntity
  8
0
 62
     0
100
AcDbLine
 10
27.52110634279887
 20
5.316965108793681
 30
0.0
 11
28.92110634279891
 21
6.716965108793687
 31
0.0
  0
LINE
  5
11E6
330
10FA
100
AcDbEntity
  8
0
 62
     0
100
AcDbLine
 10
30.67110634279885
 20
8.915977914847132
 30
0.0
 11
32.07110634279888
 21
10.31597791484716
 31
0.0
  0
LINE
  5
11E7
330
10FA
100
AcDbEntity
  8
0
 62
     0
100
AcDbLine
 10
27.52110634279887
 20
5.765977914847127
 30
0.0
 11
28.92110634279887
 21
7.165977914847161
 31
0.0
  0
LINE
  5
11E8
330
10FA
100
AcDbEntity
  8
0
 62
     0
100
AcDbLine
 10
33.12112970017258
 20
11.36600127222087
 30
0.0
 11
33.38010461813055
 21
11.62497619017881
 31
0.0
  0
LINE
  5
11E9
330
10FA
100
AcDbEntity
  8
0
 62
     0
100
AcDbLine
 10
25.36032852744276
 20
3.605200099491042
 30
0.0
 11
26.44090579086051
 21
4.685777362908794
 31
0.0
  0
LINE
  5
11EA
330
10FA
100
AcDbEntity
  8
0
 62
     0
100
AcDbLine
 10
27.52110634279884
 20
6.214990720900601
 30
0.0
 11
28.92110634279887
 21
7.614990720900635
 31
0.0
  0
LINE
  5
11EB
330
10FA
100
AcDbEntity
  8
0
 62
     0
100
AcDbLine
 10
30.67110634279885
 20
9.364990720900607
 30
0.0
 11
32.07110634279888
 21
10.76499072090061
 31
0.0
  0
LINE
  5
11EC
330
10FA
100
AcDbEntity
  8
0
 62
     0
100
AcDbLine
 10
24.88111516945088
 20
3.574999547552636
 30
0.0
 11
26.47110634279886
 21
5.16499072090059
 31
0.0
  0
LINE
  5
11ED
330
10FA
100
AcDbEntity
  8
0
 62
     0
100
AcDbLine
 10
27.52110634279887
 20
6.664003526954019
 30
0.0
 11
28.92110634279891
 21
8.064003526954053
 31
0.0
  0
LINE
  5
11EE
330
10FA
100
AcDbEntity
  8
0
 62
     0
100
AcDbLine
 10
30.67110634279888
 20
9.814003526954024
 30
0.0
 11
32.07110634279888
 21
11.21400352695405
 31
0.0
  0
LINE
  5
11EF
330
10FA
100
AcDbEntity
  8
0
 62
     0
100
AcDbLine
 10
24.43210236339743
 20
3.574999547552607
 30
0.0
 11
26.47110634279892
 21
5.614003526954064
 31
0.0
  0
LINE
  5
11F0
330
10FA
100
AcDbEntity
  8
0
 62
     0
100
AcDbLine
 10
27.52110634279884
 20
7.113016333007493
 30
0.0
 11
28.92110634279887
 21
8.513016333007527
 31
0.0
  0
LINE
  5
11F1
330
10FA
100
AcDbEntity
  8
0
 62
     0
100
AcDbLine
 10
30.67110634279885
 20
10.26301633300749
 30
0.0
 11
31.97423761538178
 21
11.56614760559043
 31
0.0
  0
LINE
  5
11F2
330
10FA
100
AcDbEntity
  8
0
 62
     0
100
AcDbLine
 10
23.98308955734393
 20
3.574999547552579
 30
0.0
 11
26.46394704259239
 21
6.055857032801014
 31
0.0
  0
LINE
  5
11F3
330
10FA
100
AcDbEntity
  8
0
 62
     0
100
AcDbLine
 10
27.52110634279887
 20
7.562029139060996
 30
0.0
 11
28.92110634279887
 21
8.962029139060973
 31
0.0
  0
LINE
  5
11F4
330
10FA
100
AcDbEntity
  8
0
 62
     0
100
AcDbLine
 10
30.67110634279885
 20
10.71202913906094
 30
0.0
 11
31.58407675129052
 21
11.62499954755264
 31
0.0
  0
LINE
  5
11F5
330
10FA
100
AcDbEntity
  8
0
 62
     0
100
AcDbLine
 10
23.53407675129051
 20
3.574999547552636
 30
0.0
 11
26.39649085727799
 21
6.437413653540119
 31
0.0
  0
LINE
  5
11F6
330
10FA
100
AcDbEntity
  8
0
 62
     0
100
AcDbLine
 10
27.5211063427989
 20
8.011041945114442
 30
0.0
 11
28.92110634279893
 21
9.411041945114448
 31
0.0
  0
LINE
  5
11F7
330
10FA
100
AcDbEntity
  8
0
 62
     0
100
AcDbLine
 10
25.07110634279891
 20
5.561041945114453
 30
0.0
 11
26.27619712881872
 21
6.766132731134263
 31
0.0
  0
LINE
  5
11F8
330
10FA
100
AcDbEntity
  8
0
 62
     0
100
AcDbLine
 10
30.67110634279885
 20
11.16104194511439
 30
0.0
 11
31.1350639452371
 21
11.62499954755264
 31
0.0
  0
LINE
  5
11F9
330
10FA
100
AcDbEntity
  8
0
 62
     0
100
AcDbLine
 10
23.14919162180268
 20
3.639127224118198
 30
0.0
 11
24.48506394523707
 21
4.974999547552613
 31
0.0
  0
LINE
  5
11FA
330
10FA
100
AcDbEntity
  8
0
 62
     0
100
AcDbLine
 10
25.06117105523518
 20
6.000119463604164
 30
0.0
 11
26.11444747638842
 21
7.053395884757406
 31
0.0
  0
LINE
  5
11FB
330
10FA
100
AcDbEntity
  8
0
 62
     0
100
AcDbLine
 10
27.5211063427989
 20
8.460054751167888
 30
0.0
 11
28.92110634279891
 21
9.860054751167922
 31
0.0
  0
LINE
  5
11FC
330
10FA
100
AcDbEntity
  8
0
 62
     0
100
AcDbLine
 10
23.05860634279884
 20
3.997554751167825
 30
0.0
 11
24.03605113918357
 21
4.974999547552584
 31
0.0
  0
LINE
  5
11FD
330
10FA
100
AcDbEntity
  8
0
 62
     0
100
AcDbLine
 10
24.92397863666573
 20
6.311939851088226
 30
0.0
 11
25.91651191742451
 21
7.304473131847004
 31
0.0
  0
LINE
  5
11FE
330
10FA
100
AcDbEntity
  8
0
 62
     0
100
AcDbLine
 10
27.52110634279887
 20
8.909067557221362
 30
0.0
 11
28.92110634279891
 21
10.30906755722139
 31
0.0
  0
LINE
  5
11FF
330
10FA
100
AcDbEntity
  8
0
 62
     0
100
AcDbLine
 10
23.05860634279881
 20
4.4465675572213
 30
0.0
 11
23.58703833313015
 21
4.974999547552641
 31
0.0
  0
LINE
  5
1200
330
10FA
100
AcDbEntity
  8
0
 62
     0
100
AcDbLine
 10
27.5211063427989
 20
9.35808036327478
 30
0.0
 11
28.92110634279891
 21
10.75808036327481
 31
0.0
  0
LINE
  5
1201
330
10FA
100
AcDbEntity
  8
0
 62
     0
100
AcDbLine
 10
24.70334118810723
 20
6.540315208583137
 30
0.0
 11
25.69329068176839
 21
7.530264702244295
 31
0.0
  0
LINE
  5
1202
330
10FA
100
AcDbEntity
  8
0
 62
     0
100
AcDbLine
 10
24.47883478508049
 20
6.764821611609875
 30
0.0
 11
25.46878427874165
 21
7.754771105271032
 31
0.0
  0
LINE
  5
1203
330
10FA
100
AcDbEntity
  8
0
 62
     0
100
AcDbLine
 10
27.52110634279887
 20
9.807093169328254
 30
0.0
 11
28.92110634279891
 21
11.20709316932828
 31
0.0
  0
LINE
  5
1204
330
10FA
100
AcDbEntity
  8
0
 62
     0
100
AcDbLine
 10
21.28901272102325
 20
3.574999547552636
 30
0.0
 11
21.74610634279886
 21
4.032093169328248
 31
0.0
  0
LINE
  5
1205
330
10FA
100
AcDbEntity
  8
0
 62
     0
100
AcDbLine
 10
24.25432838205381
 20
6.98932801463664
 30
0.0
 11
25.24427787571491
 21
7.979277508297769
 31
0.0
  0
LINE
  5
1206
330
10FA
100
AcDbEntity
  8
0
 62
     0
100
AcDbLine
 10
27.52110634279887
 20
10.25610597538172
 30
0.0
 11
28.82801588874943
 21
11.56301552133228
 31
0.0
  0
LINE
  5
1207
330
10FA
100
AcDbEntity
  8
0
 62
     0
100
AcDbLine
 10
20.83999991496975
 20
3.574999547552607
 30
0.0
 11
21.74610634279886
 21
4.481105975381723
 31
0.0
  0
LINE
  5
1208
330
10FA
100
AcDbEntity
  8
0
 62
     0
100
AcDbLine
 10
24.02982197902701
 20
7.213834417663349
 30
0.0
 11
25.01977147268817
 21
8.203783911324507
 31
0.0
  0
LINE
  5
1209
330
10FA
100
AcDbEntity
  8
0
 62
     0
100
AcDbLine
 10
27.52110634279887
 20
10.70511878143517
 30
0.0
 11
28.44098710891632
 21
11.62499954755264
 31
0.0
  0
LINE
  5
120A
330
10FA
100
AcDbEntity
  8
0
 62
     0
100
AcDbLine
 10
20.44679267784732
 20
3.630805116483657
 30
0.0
 11
21.74610634279886
 21
4.930118781435169
 31
0.0
  0
LINE
  5
120B
330
10FA
100
AcDbEntity
  8
0
 62
     0
100
AcDbLine
 10
23.8053155760003
 20
7.438340820690058
 30
0.0
 11
24.79526506966147
 21
8.428290314351215
 31
0.0
  0
LINE
  5
120C
330
10FA
100
AcDbEntity
  8
0
 62
     0
100
AcDbLine
 10
27.52110634279887
 20
11.15413158748862
 30
0.0
 11
27.99197430286287
 21
11.62499954755261
 31
0.0
  0
LINE
  5
120D
330
10FA
100
AcDbEntity
  8
0
 62
     0
100
AcDbLine
 10
20.34610634279889
 20
3.979131587488637
 30
0.0
 11
21.74610634279886
 21
5.379131587488615
 31
0.0
  0
LINE
  5
120E
330
10FA
100
AcDbEntity
  8
0
 62
     0
100
AcDbLine
 10
23.58080917297357
 20
7.662847223716795
 30
0.0
 11
24.57075866663473
 21
8.652796717377952
 31
0.0
  0
LINE
  5
120F
330
10FA
100
AcDbEntity
  8
0
 62
     0
100
AcDbLine
 10
20.34610634279886
 20
4.428144393542083
 30
0.0
 11
21.74610634279886
 21
5.828144393542061
 31
0.0
  0
LINE
  5
1210
330
10FA
100
AcDbEntity
  8
0
 62
     0
100
AcDbLine
 10
23.35731722245293
 20
7.88836807924963
 30
0.0
 11
24.34930398914392
 21
8.880354845940615
 31
0.0
  0
LINE
  5
1211
330
10FA
100
AcDbEntity
  8
0
 62
     0
100
AcDbLine
 10
20.34610634279886
 20
4.877157199595558
 30
0.0
 11
21.74610634279884
 21
6.277157199595535
 31
0.0
  0
LINE
  5
1212
330
10FA
100
AcDbEntity
  8
0
 62
     0
100
AcDbLine
 10
25.69394869075591
 20
10.22499954755261
 30
0.0
 11
26.20860634279887
 21
10.73965719959556
 31
0.0
  0
LINE
  5
1213
330
10FA
100
AcDbEntity
  8
0
 62
     0
100
AcDbLine
 10
19.09977823044334
 20
3.630829087240044
 30
0.0
 11
19.14460441117165
 21
3.675655267968352
 31
0.0
  0
LINE
  5
1214
330
10FA
100
AcDbEntity
  8
0
 62
     0
100
AcDbLine
 10
23.15831613304195
 20
8.138379795892063
 30
0.0
 11
24.20813327175128
 21
9.188196934601393
 31
0.0
  0
LINE
  5
1215
330
10FA
100
AcDbEntity
  8
0
 62
     0
100
AcDbLine
 10
20.34610634279889
 20
5.326170005648975
 30
0.0
 11
21.74610634279886
 21
6.726170005648981
 31
0.0
  0
LINE
  5
1216
330
10FA
100
AcDbEntity
  8
0
 62
     0
100
AcDbLine
 10
25.24493588470249
 20
10.22499954755258
 30
0.0
 11
26.2086063427989
 21
11.18867000564898
 31
0.0
  0
LINE
  5
1217
330
10FA
100
AcDbEntity
  8
0
 62
     0
100
AcDbLine
 10
18.59493588470249
 20
3.574999547552607
 30
0.0
 11
19.12782543285581
 21
4.1078890957059
 31
0.0
  0
LINE
  5
1218
330
10FA
100
AcDbEntity
  8
0
 62
     0
100
AcDbLine
 10
22.99539900084357
 20
8.424475469747164
 30
0.0
 11
24.19610634279888
 21
9.625182811702472
 31
0.0
  0
LINE
  5
1219
330
10FA
100
AcDbEntity
  8
0
 62
     0
100
AcDbLine
 10
20.34610634279886
 20
5.77518281170245
 30
0.0
 11
21.74610634279886
 21
7.175182811702427
 31
0.0
  0
LINE
  5
121A
330
10FA
100
AcDbEntity
  8
0
 62
     0
100
AcDbLine
 10
24.79592307864902
 20
10.22499954755261
 30
0.0
 11
26.12527187689988
 21
11.55434834580347
 31
0.0
  0
LINE
  5
121B
330
10FA
100
AcDbEntity
  8
0
 62
     0
100
AcDbLine
 10
18.14592307864899
 20
3.574999547552579
 30
0.0
 11
19.02006235940297
 21
4.44913882830653
 31
0.0
  0
LINE
  5
121C
330
10FA
100
AcDbEntity
  8
0
 62
     0
100
AcDbLine
 10
20.34610634279886
 20
6.224195617755896
 30
0.0
 11
21.74610634279884
 21
7.624195617755901
 31
0.0
  0
LINE
  5
121D
330
10FA
100
AcDbEntity
  8
0
 62
     0
100
AcDbLine
 10
22.87370796950858
 20
8.751797244465649
 30
0.0
 11
25.74691027259558
 21
11.62499954755264
 31
0.0
  0
LINE
  5
121E
330
10FA
100
AcDbEntity
  8
0
 62
     0
100
AcDbLine
 10
17.84991592332159
 20
3.728005198278623
 30
0.0
 11
18.91229928595012
 21
4.79038856090716
 31
0.0
  0
LINE
  5
121F
330
10FA
100
AcDbEntity
  8
0
 62
     0
100
AcDbLine
 10
20.34610634279883
 20
6.67320842380937
 30
0.0
 11
21.74610634279884
 21
8.073208423809347
 31
0.0
  0
LINE
  5
1220
330
10FA
100
AcDbEntity
  8
0
 62
     0
100
AcDbLine
 10
22.80435453996574
 20
9.13145662097628
 30
0.0
 11
25.29789746654214
 21
11.62499954755264
 31
0.0
  0
LINE
  5
1221
330
10FA
100
AcDbEntity
  8
0
 62
     0
100
AcDbLine
 10
17.74053621249726
 20
4.067638293507769
 30
0.0
 11
18.80453621249728
 21
5.131638293507819
 31
0.0
  0
LINE
  5
1222
330
10FA
100
AcDbEntity
  8
0
 62
     0
100
AcDbLine
 10
20.34610634279889
 20
7.122221229862844
 30
0.0
 11
21.74610634279884
 21
8.522221229862793
 31
0.0
  0
LINE
  5
1223
330
10FA
100
AcDbEntity
  8
0
 62
     0
100
AcDbLine
 10
22.79610634279884
 20
9.572221229862805
 30
0.0
 11
24.84888466048869
 21
11.62499954755264
 31
0.0
  0
LINE
  5
1224
330
10FA
100
AcDbEntity
  8
0
 62
     0
100
AcDbLine
 10
17.63277313904438
 20
4.408888026108343
 30
0.0
 11
18.69677313904449
 21
5.472888026108449
 31
0.0
  0
LINE
  5
1225
330
10FA
100
AcDbEntity
  8
0
 62
     0
100
AcDbLine
 10
20.34610634279889
 20
7.571234035916319
 30
0.0
 11
21.74610634279884
 21
8.971234035916268
 31
0.0
  0
LINE
  5
1226
330
10FA
100
AcDbEntity
  8
0
 62
     0
100
AcDbLine
 10
22.79610634279884
 20
10.02123403591625
 30
0.0
 11
24.39987185443524
 21
11.62499954755264
 31
0.0
  0
LINE
  5
1227
330
10FA
100
AcDbEntity
  8
0
 62
     0
100
AcDbLine
 10
17.5250100655916
 20
4.750137758709001
 30
0.0
 11
18.58901006559162
 21
5.814137758709051
 31
0.0
  0
LINE
  5
1228
330
10FA
100
AcDbEntity
  8
0
 62
     0
100
AcDbLine
 10
20.34610634279889
 20
8.020246841969765
 30
0.0
 11
21.74610634279884
 21
9.420246841969714
 31
0.0
  0
LINE
  5
1229
330
10FA
100
AcDbEntity
  8
0
 62
     0
100
AcDbLine
 10
17.41724699213875
 20
5.09138749130966
 30
0.0
 11
18.48124699213883
 21
6.15538749130971
 31
0.0
  0
LINE
  5
122A
330
10FA
100
AcDbEntity
  8
0
 62
     0
100
AcDbLine
 10
22.82276467785956
 20
10.49690517703044
 30
0.0
 11
23.92420071332105
 21
11.59834121249193
 31
0.0
  0
LINE
  5
122B
330
10FA
100
AcDbEntity
  8
0
 62
     0
100
AcDbLine
 10
15.9008590483817
 20
3.574999547552607
 30
0.0
 11
16.32110634279888
 21
3.995246841969787
 31
0.0
  0
LINE
  5
122C
330
10FA
100
AcDbEntity
  8
0
 62
     0
100
AcDbLine
 10
17.30948391868594
 20
5.432637223910262
 30
0.0
 11
18.37348391868596
 21
6.496637223910283
 31
0.0
  0
LINE
  5
122D
330
10FA
100
AcDbEntity
  8
0
 62
     0
100
AcDbLine
 10
20.34610634279889
 20
8.469259648023211
 30
0.0
 11
21.74610634279884
 21
9.86925964802316
 31
0.0
  0
LINE
  5
122E
330
10FA
100
AcDbEntity
  8
0
 62
     0
100
AcDbLine
 10
15.45184624232828
 20
3.574999547552579
 30
0.0
 11
16.32110634279891
 21
4.444259648023205
 31
0.0
  0
LINE
  5
122F
330
10FA
100
AcDbEntity
  8
0
 62
     0
100
AcDbLine
 10
17.20172084523307
 20
5.773886956510835
 30
0.0
 11
18.26572084523317
 21
6.837886956510942
 31
0.0
  0
LINE
  5
1230
330
10FA
100
AcDbEntity
  8
0
 62
     0
100
AcDbLine
 10
20.34610634279889
 20
8.918272454076657
 30
0.0
 11
21.74610634279884
 21
10.3182724540766
 31
0.0
  0
LINE
  5
1231
330
10FA
100
AcDbEntity
  8
0
 62
     0
100
AcDbLine
 10
15.04340831010051
 20
3.615574421378283
 30
0.0
 11
16.32110634279888
 21
4.893272454076679
 31
0.0
  0
LINE
  5
1232
330
10FA
100
AcDbEntity
  8
0
 62
     0
100
AcDbLine
 10
17.09395777178025
 20
6.115136689111523
 30
0.0
 11
18.15795777178027
 21
7.179136689111544
 31
0.0
  0
LINE
  5
1233
330
10FA
100
AcDbEntity
  8
0
 62
     0
100
AcDbLine
 10
20.34610634279886
 20
9.367285260130131
 30
0.0
 11
21.7461063427988
 21
10.76728526013008
 31
0.0
  0
LINE
  5
1234
330
10FA
100
AcDbEntity
  8
0
 62
     0
100
AcDbLine
 10
14.92110634279885
 20
3.94228526013012
 30
0.0
 11
16.32110634279888
 21
5.342285260130154
 31
0.0
  0
LINE
  5
1235
330
10FA
100
AcDbEntity
  8
0
 62
     0
100
AcDbLine
 10
16.98619469832743
 20
6.456386421712124
 30
0.0
 11
18.05019469832751
 21
7.520386421712203
 31
0.0
  0
LINE
  5
1236
330
10FA
100
AcDbEntity
  8
0
 62
     0
100
AcDbLine
 10
20.34610634279889
 20
9.816298066183577
 30
0.0
 11
21.74610634279884
 21
11.21629806618352
 31
0.0
  0
LINE
  5
1237
330
10FA
100
AcDbEntity
  8
0
 62
     0
100
AcDbLine
 10
14.92110634279887
 20
4.391298066183537
 30
0.0
 11
16.32110634279894
 21
5.791298066183628
 31
0.0
  0
LINE
  5
1238
330
10FA
100
AcDbEntity
  8
0
 62
     0
100
AcDbLine
 10
16.86879530484151
 20
6.787999834279673
 30
0.0
 11
18.18394233880707
 21
8.103146868245232
 31
0.0
  0
LINE
  5
1239
330
10FA
100
AcDbEntity
  8
0
 62
     0
100
AcDbLine
 10
20.34610634279891
 20
10.26531087223708
 30
0.0
 11
21.64796863154961
 21
11.56717316098774
 31
0.0
  0
LINE
  5
123A
330
10FA
100
AcDbEntity
  8
0
 62
     0
100
AcDbLine
 10
14.92110634279885
 20
4.840310872237012
 30
0.0
 11
16.32110634279894
 21
6.240310872237074
 31
0.0
  0
LINE
  5
123B
330
10FA
100
AcDbEntity
  8
0
 62
     0
100
AcDbLine
 10
16.52520261990778
 20
6.893419955399423
 30
0.0
 11
18.39117901852407
 21
8.759396354015706
 31
0.0
  0
LINE
  5
123C
330
10FA
100
AcDbEntity
  8
0
 62
     0
100
AcDbLine
 10
14.92110634279885
 20
5.289323678290486
 30
0.0
 11
16.32768593495208
 21
6.695903270443722
 31
0.0
  0
LINE
  5
123D
330
10FA
100
AcDbEntity
  8
0
 62
     0
100
AcDbLine
 10
20.34610634279891
 20
10.71432367829052
 30
0.0
 11
21.25678221206101
 21
11.62499954755264
 31
0.0
  0
LINE
  5
123E
330
10FA
100
AcDbEntity
  8
0
 62
     0
100
AcDbLine
 10
13.206782212061
 20
3.574999547552607
 30
0.0
 11
13.69610634279891
 21
4.064323678290548
 31
0.0
  0
LINE
  5
123F
330
10FA
100
AcDbEntity
  8
0
 62
     0
100
AcDbLine
 10
14.92110634279885
 20
5.738336484343932
 30
0.0
 11
18.59841569824107
 21
9.415645839786179
 31
0.0
  0
LINE
  5
1240
330
10FA
100
AcDbEntity
  8
0
 62
     0
100
AcDbLine
 10
20.34610634279889
 20
11.163336484344
 30
0.0
 11
20.80776940600753
 21
11.62499954755264
 31
0.0
  0
LINE
  5
1241
330
10FA
100
AcDbEntity
  8
0
 62
     0
100
AcDbLine
 10
12.75776940600752
 20
3.574999547552636
 30
0.0
 11
13.69610634279891
 21
4.513336484343994
 31
0.0
  0
LINE
  5
1242
330
10FA
100
AcDbEntity
  8
0
 62
     0
100
AcDbLine
 10
14.9211063427989
 20
6.187349290397406
 30
0.0
 11
18.80565237795809
 21
10.07189532555662
 31
0.0
  0
LINE
  5
1243
330
10FA
100
AcDbEntity
  8
0
 62
     0
100
AcDbLine
 10
12.31459691212913
 20
3.58083985972766
 30
0.0
 11
13.62543920099574
 21
4.891682148594242
 31
0.0
  0
LINE
  5
1244
330
10FA
100
AcDbEntity
  8
0
 62
     0
100
AcDbLine
 10
14.92110634279887
 20
6.636362096450881
 30
0.0
 11
16.58474379390062
 21
8.29999954755263
 31
0.0
  0
LINE
  5
1245
330
10FA
100
AcDbEntity
  8
0
 62
     0
100
AcDbLine
 10
16.96673521152115
 20
8.681990965173127
 30
0.0
 11
19.01288905767506
 21
10.72814481132706
 31
0.0
  0
LINE
  5
1246
330
10FA
100
AcDbEntity
  8
0
 62
     0
100
AcDbLine
 10
11.93051665340564
 20
3.64577240705762
 30
0.0
 11
13.25974379390061
 21
4.974999547552613
 31
0.0
  0
LINE
  5
1247
330
10FA
100
AcDbEntity
  8
0
 62
     0
100
AcDbLine
 10
14.92110634279887
 20
7.085374902504327
 30
0.0
 11
16.33010162815301
 21
8.494370187858493
 31
0.0
  0
LINE
  5
1248
330
10FA
100
AcDbEntity
  8
0
 62
     0
100
AcDbLine
 10
17.17397189123809
 20
9.338240450943573
 30
0.0
 11
19.20042478357572
 21
11.3646933432812
 31
0.0
  0
LINE
  5
1249
330
10FA
100
AcDbEntity
  8
0
 62
     0
100
AcDbLine
 10
11.59994952499243
 20
3.764218084697915
 30
0.0
 11
12.81073098784716
 21
4.974999547552613
 31
0.0
  0
LINE
  5
124A
330
10FA
100
AcDbEntity
  8
0
 62
     0
100
AcDbLine
 10
14.92110634279887
 20
7.534387708557773
 30
0.0
 11
16.32110634279891
 21
8.934387708557807
 31
0.0
  0
LINE
  5
124B
330
10FA
100
AcDbEntity
  8
0
 62
     0
100
AcDbLine
 10
17.38120857095509
 20
9.994489936713989
 30
0.0
 11
19.00341884729104
 21
11.61670021304993
 31
0.0
  0
LINE
  5
124C
330
10FA
100
AcDbEntity
  8
0
 62
     0
100
AcDbLine
 10
11.31114788291029
 20
3.924429248669156
 30
0.0
 11
12.36917881215672
 21
4.982460177915612
 31
0.0
  0
LINE
  5
124D
330
10FA
100
AcDbEntity
  8
0
 62
     0
100
AcDbLine
 10
14.92110634279887
 20
7.983400514611247
 30
0.0
 11
16.32110634279891
 21
9.383400514611253
 31
0.0
  0
LINE
  5
124E
330
10FA
100
AcDbEntity
  8
0
 62
     0
100
AcDbLine
 10
17.58844525067206
 20
10.6507394224844
 30
0.0
 11
18.56270537574025
 21
11.62499954755261
 31
0.0
  0
LINE
  5
124F
330
10FA
100
AcDbEntity
  8
0
 62
     0
100
AcDbLine
 10
11.05867039971926
 20
4.120964571531601
 30
0.0
 11
12.05202074164756
 21
5.114314913459907
 31
0.0
  0
LINE
  5
1250
330
10FA
100
AcDbEntity
  8
0
 62
     0
100
AcDbLine
 10
14.92110634279887
 20
8.432413320664693
 30
0.0
 11
16.32110634279888
 21
9.832413320664727
 31
0.0
  0
LINE
  5
1251
330
10FA
100
AcDbEntity
  8
0
 62
     0
100
AcDbLine
 10
13.25192340868696
 20
6.763230386552805
 30
0.0
 11
13.83287550379867
 21
7.344182481664518
 31
0.0
  0
LINE
  5
1252
330
10FA
100
AcDbEntity
  8
0
 62
     0
100
AcDbLine
 10
17.795681930389
 20
11.30698890825485
 30
0.0
 11
18.11369256968677
 21
11.62499954755261
 31
0.0
  0
LINE
  5
1253
330
10FA
100
AcDbEntity
  8
0
 62
     0
100
AcDbLine
 10
10.84045186305434
 20
4.351758840920183
 30
0.0
 11
11.84689526601147
 21
5.358202243877315
 31
0.0
  0
LINE
  5
1254
330
10FA
100
AcDbEntity
  8
0
 62
     0
100
AcDbLine
 10
12.7894369878721
 20
6.749756771791425
 30
0.0
 11
13.84634911856005
 21
7.806668902479373
 31
0.0
  0
LINE
  5
1255
330
10FA
100
AcDbEntity
  8
0
 62
     0
100
AcDbLine
 10
14.92110634279885
 20
8.881426126718167
 30
0.0
 11
16.32110634279888
 21
10.2814261267182
 31
0.0
  0
LINE
  5
1256
330
10FA
100
AcDbEntity
  8
0
 62
     0
100
AcDbLine
 10
10.65694225058285
 20
4.617262034502147
 30
0.0
 11
11.7711063427989
 21
5.73142612671819
 31
0.0
  0
LINE
  5
1257
330
10FA
100
AcDbEntity
  8
0
 62
     0
100
AcDbLine
 10
12.48236370316203
 20
6.891696293134742
 30
0.0
 11
13.70440959721671
 21
8.113742187189444
 31
0.0
  0
LINE
  5
1258
330
10FA
100
AcDbEntity
  8
0
 62
     0
100
AcDbLine
 10
14.92110634279887
 20
9.330438932771585
 30
0.0
 11
16.32110634279891
 21
10.73043893277161
 31
0.0
  0
LINE
  5
1259
330
10FA
100
AcDbEntity
  8
0
 62
     0
100
AcDbLine
 10
10.51128349562048
 20
4.920616085593223
 30
0.0
 11
11.7711063427989
 21
6.180438932771636
 31
0.0
  0
LINE
  5
125A
330
10FA
100
AcDbEntity
  8
0
 62
     0
100
AcDbLine
 10
12.26338373966717
 20
7.121729135693385
 30
0.0
 11
13.47437675465809
 21
8.332722150684276
 31
0.0
  0
LINE
  5
125B
330
10FA
100
AcDbEntity
  8
0
 62
     0
100
AcDbLine
 10
14.92110634279885
 20
9.779451738825059
 30
0.0
 11
16.32110634279894
 21
11.17945173882512
 31
0.0
  0
LINE
  5
125C
330
10FA
100
AcDbEntity
  8
0
 62
     0
100
AcDbLine
 10
10.41071481353316
 20
5.26906020955937
 30
0.0
 11
11.7711063427989
 21
6.62945173882511
 31
0.0
  0
LINE
  5
125D
330
10FA
100
AcDbEntity
  8
0
 62
     0
100
AcDbLine
 10
12.13535837346302
 20
7.442716575542704
 30
0.0
 11
13.15338931480877
 21
8.46074751688846
 31
0.0
  0
LINE
  5
125E
330
10FA
100
AcDbEntity
  8
0
 62
     0
100
AcDbLine
 10
10.37110634279881
 20
5.678464544878494
 30
0.0
 11
11.77110634279887
 21
7.078464544878556
 31
0.0
  0
LINE
  5
125F
330
10FA
100
AcDbEntity
  8
0
 62
     0
100
AcDbLine
 10
14.92110634279885
 20
10.22846454487853
 30
0.0
 11
16.24248128862126
 21
11.54983949070094
 31
0.0
  0
LINE
  5
1260
330
10FA
100
AcDbEntity
  8
0
 62
     0
100
AcDbLine
 10
8.328107963860986
 20
3.63546616594067
 30
0.0
 11
9.26063972441085
 21
4.567997926490534
 31
0.0
  0
LINE
  5
1261
330
10FA
100
AcDbEntity
  8
0
 62
     0
100
AcDbLine
 10
12.19456491520344
 20
7.950935923336515
 30
0.0
 11
12.64516996701493
 21
8.401540975148037
 31
0.0
  0
LINE
  5
1262
330
10FA
100
AcDbEntity
  8
0
 62
     0
100
AcDbLine
 10
10.37110634279886
 20
6.127477350931968
 30
0.0
 11
11.7711063427989
 21
7.527477350932002
 31
0.0
  0
LINE
  5
1263
330
10FA
100
AcDbEntity
  8
0
 62
     0
100
AcDbLine
 10
14.92110634279887
 20
10.67747735093195
 30
0.0
 11
15.86862853941951
 21
11.62499954755261
 31
0.0
  0
LINE
  5
1264
330
10FA
100
AcDbEntity
  8
0
 62
     0
100
AcDbLine
 10
7.818628539419506
 20
3.574999547552607
 30
0.0
 11
9.321106342798913
 21
5.077477350932014
 31
0.0
  0
LINE
  5
1265
330
10FA
100
AcDbEntity
  8
0
 62
     0
100
AcDbLine
 10
10.37110634279886
 20
6.576490156985443
 30
0.0
 11
11.7711063427989
 21
7.976490156985448
 31
0.0
  0
LINE
  5
1266
330
10FA
100
AcDbEntity
  8
0
 62
     0
100
AcDbLine
 10
14.9211063427989
 20
11.12649015698545
 30
0.0
 11
15.41961573336607
 21
11.62499954755264
 31
0.0
  0
LINE
  5
1267
330
10FA
100
AcDbEntity
  8
0
 62
     0
100
AcDbLine
 10
7.369615733366003
 20
3.574999547552579
 30
0.0
 11
9.321106342798941
 21
5.526490156985516
 31
0.0
  0
LINE
  5
1268
330
10FA
100
AcDbEntity
  8
0
 62
     0
100
AcDbLine
 10
10.37110634279886
 20
7.025502963038888
 30
0.0
 11
11.77110634279887
 21
8.425502963038923
 31
0.0
  0
LINE
  5
1269
330
10FA
100
AcDbEntity
  8
0
 62
     0
100
AcDbLine
 10
6.920602927312586
 20
3.574999547552636
 30
0.0
 11
9.319136666518289
 21
5.973533286758339
 31
0.0
  0
LINE
  5
126A
330
10FA
100
AcDbEntity
  8
0
 62
     0
100
AcDbLine
 10
10.37110634279886
 20
7.474515769092363
 30
0.0
 11
11.7711063427989
 21
8.874515769092397
 31
0.0
  0
LINE
  5
126B
330
10FA
100
AcDbEntity
  8
0
 62
     0
100
AcDbLine
 10
13.12159012125917
 20
10.22499954755267
 30
0.0
 11
13.69610634279891
 21
10.7995157690924
 31
0.0
  0
LINE
  5
126C
330
10FA
100
AcDbEntity
  8
0
 62
     0
100
AcDbLine
 10
6.471590121259112
 20
3.574999547552607
 30
0.0
 11
9.264305748357571
 21
6.367715174651067
 31
0.0
  0
LINE
  5
126D
330
10FA
100
AcDbEntity
  8
0
 62
     0
100
AcDbLine
 10
10.37110634279886
 20
7.92352857514578
 30
0.0
 11
11.77110634279887
 21
9.323528575145815
 31
0.0
  0
LINE
  5
126E
330
10FA
100
AcDbEntity
  8
0
 62
     0
100
AcDbLine
 10
7.921106342798879
 20
5.473528575145792
 30
0.0
 11
9.153136376335567
 21
6.70555860868248
 31
0.0
  0
LINE
  5
126F
330
10FA
100
AcDbEntity
  8
0
 62
     0
100
AcDbLine
 10
12.67257731520567
 20
10.22499954755261
 30
0.0
 11
13.69610634279891
 21
11.24852857514585
 31
0.0
  0
LINE
  5
1270
330
10FA
100
AcDbEntity
  8
0
 62
     0
100
AcDbLine
 10
6.051440252835647
 20
3.603862485182588
 30
0.0
 11
7.422577315205671
 21
4.974999547552613
 31
0.0
  0
LINE
  5
1271
330
10FA
100
AcDbEntity
  8
0
 62
     0
100
AcDbLine
 10
10.37110634279883
 20
8.372541381199255
 30
0.0
 11
11.85401369568864
 21
9.855448734089065
 31
0.0
  0
LINE
  5
1272
330
10FA
100
AcDbEntity
  8
0
 62
     0
100
AcDbLine
 10
7.920026796994193
 20
5.92146183539458
 30
0.0
 11
8.998920608999497
 21
7.000355647399914
 31
0.0
  0
LINE
  5
1273
330
10FA
100
AcDbEntity
  8
0
 62
     0
100
AcDbLine
 10
12.14065715626242
 20
10.14209219466283
 30
0.0
 11
13.57937263533887
 21
11.58080767373928
 31
0.0
  0
LINE
  5
1274
330
10FA
100
AcDbEntity
  8
0
 62
     0
100
AcDbLine
 10
5.908606342798861
 20
3.910041381199278
 30
0.0
 11
6.973564509152225
 21
4.974999547552613
 31
0.0
  0
LINE
  5
1275
330
10FA
100
AcDbEntity
  8
0
 62
     0
100
AcDbLine
 10
7.810225287243838
 20
6.260673131697728
 30
0.0
 11
8.807799626580049
 21
7.258247471033939
 31
0.0
  0
LINE
  5
1276
330
10FA
100
AcDbEntity
  8
0
 62
     0
100
AcDbLine
 10
10.37110634279883
 20
8.821554187252729
 30
0.0
 11
13.17455170309878
 21
11.62499954755267
 31
0.0
  0
LINE
  5
1277
330
10FA
100
AcDbEntity
  8
0
 62
     0
100
AcDbLine
 10
5.908606342798861
 20
4.359054187252723
 30
0.0
 11
6.524551703098751
 21
4.974999547552641
 31
0.0
  0
LINE
  5
1278
330
10FA
100
AcDbEntity
  8
0
 62
     0
100
AcDbLine
 10
7.597097873091513
 20
6.496558523598821
 30
0.0
 11
8.58704736675267
 21
7.486508017259978
 31
0.0
  0
LINE
  5
1279
330
10FA
100
AcDbEntity
  8
0
 62
     0
100
AcDbLine
 10
10.37110634279883
 20
9.270566993306147
 30
0.0
 11
12.72553889704525
 21
11.62499954755256
 31
0.0
  0
LINE
  5
127A
330
10FA
100
AcDbEntity
  8
0
 62
     0
100
AcDbLine
 10
5.943082303808694
 20
4.842542954316002
 30
0.0
 11
6.041062936035501
 21
4.940523586542809
 31
0.0
  0
LINE
  5
127B
330
10FA
100
AcDbEntity
  8
0
 62
     0
100
AcDbLine
 10
10.38109389987707
 20
9.729567356437826
 30
0.0
 11
12.26653853391357
 21
11.61501199047435
 31
0.0
  0
LINE
  5
127C
330
10FA
100
AcDbEntity
  8
0
 62
     0
100
AcDbLine
 10
7.372591470064776
 20
6.721064926625558
 30
0.0
 11
8.362540963725933
 21
7.711014420286716
 31
0.0
  0
LINE
  5
127D
330
10FA
100
AcDbEntity
  8
0
 62
     0
100
AcDbLine
 10
10.53082561600996
 20
10.32831187862422
 30
0.0
 11
11.66779401172721
 21
11.46528027434146
 31
0.0
  0
LINE
  5
127E
330
10FA
100
AcDbEntity
  8
0
 62
     0
100
AcDbLine
 10
7.148085067038039
 20
6.945571329652295
 30
0.0
 11
8.138034560699196
 21
7.935520823313453
 31
0.0
  0
LINE
  5
127F
330
10FA
100
AcDbEntity
  8
0
 62
     0
100
AcDbLine
 10
6.92357866401133
 20
7.170077732679004
 30
0.0
 11
7.913528157672487
 21
8.160027226340162
 31
0.0
  0
LINE
  5
1280
330
10FA
100
AcDbEntity
  8
0
 62
     0
100
AcDbLine
 10
6.699072260984593
 20
7.394584135705741
 30
0.0
 11
7.68902175464575
 21
8.384533629366899
 31
0.0
  0
LINE
  5
1281
330
10FA
100
AcDbEntity
  8
0
 62
     0
100
AcDbLine
 10
6.474565857957827
 20
7.61909053873245
 30
0.0
 11
7.464515351619013
 21
8.609040032393636
 31
0.0
  0
LINE
  5
1282
330
10FA
100
AcDbEntity
  8
0
 62
     0
100
AcDbLine
 10
8.631462060724544
 20
10.22499954755261
 30
0.0
 11
9.058606342798867
 21
10.65214382962696
 31
0.0
  0
LINE
  5
1283
330
10FA
100
AcDbEntity
  8
0
 62
     0
100
AcDbLine
 10
6.250101111945156
 20
7.843638598773253
 30
0.0
 11
7.240133933661439
 21
8.833671420489537
 31
0.0
  0
LINE
  5
1284
330
10FA
100
AcDbEntity
  8
0
 62
     0
100
AcDbLine
 10
8.182449254671098
 20
10.22499954755261
 30
0.0
 11
9.058606342798896
 21
11.10115663568038
 31
0.0
  0
LINE
  5
1285
330
10FA
100
AcDbEntity
  8
0
 62
     0
100
AcDbLine
 10
6.044367149669369
 20
8.086917442550856
 30
0.0
 11
7.075185493017499
 21
9.117735785899014
 31
0.0
  0
LINE
  5
1286
330
10FA
100
AcDbEntity
  8
0
 62
     0
100
AcDbLine
 10
7.733436448617624
 20
10.22499954755261
 30
0.0
 11
9.015326892918295
 21
11.50688999185328
 31
0.0
  0
LINE
  5
1287
330
10FA
100
AcDbEntity
  8
0
 62
     0
100
AcDbLine
 10
5.874136846538135
 20
8.365699945473096
 30
0.0
 11
7.04610634279885
 21
9.537669441733811
 31
0.0
  0
LINE
  5
1288
330
10FA
100
AcDbEntity
  8
0
 62
     0
100
AcDbLine
 10
7.283190317979148
 20
10.22376622296761
 30
0.0
 11
8.684423642564155
 21
11.62499954755261
 31
0.0
  0
LINE
  5
1289
330
10FA
100
AcDbEntity
  8
0
 62
     0
100
AcDbLine
 10
5.743790198672087
 20
8.684366103660522
 30
0.0
 11
7.047339667383937
 21
9.987915572372401
 31
0.0
  0
LINE
  5
128A
330
10FA
100
AcDbEntity
  8
0
 62
     0
100
AcDbLine
 10
5.662884217548054
 20
9.052472928589935
 30
0.0
 11
8.235410836510766
 21
11.62499954755264
 31
0.0
  0
LINE
  5
128B
330
10FA
100
AcDbEntity
  8
0
 62
     0
100
AcDbLine
 10
5.646106342798901
 20
9.484707859894228
 30
0.0
 11
7.786398030457263
 21
11.62499954755261
 31
0.0
  0
LINE
  5
128C
330
10FA
100
AcDbEntity
  8
0
 62
     0
100
AcDbLine
 10
5.646106342798873
 20
9.933720665947703
 30
0.0
 11
7.337385224403789
 21
11.62499954755261
 31
0.0
  0
LINE
  5
128D
330
10FA
100
AcDbEntity
  8
0
 62
     0
100
AcDbLine
 10
5.656202348018041
 20
10.39282947722031
 30
0.0
 11
6.878276413131175
 21
11.61490354233345
 31
0.0
  0
ENDBLK
  5
128F
330
10FA
100
AcDbEntity
  8
0
100
AcDbBlockEnd
  0
BLOCK
  5
8F10
330
8EEF
100
AcDbEntity
  8
0
100
AcDbBlockBegin
  2
*X2
 70
     1
 10
0.0
 20
0.0
 30
0.0
  3
*X2
  1

  0
LINE
  5
8EF0
330
8EEF
100
AcDbEntity
  8
0
 62
     0
100
AcDbLine
 10
584.6550768530203
 20
274.6901865052718
 30
0.0
 11
582.669997636158
 21
276.6752657221341
 31
0.0
  0
LINE
  5
8EF1
330
8EEF
100
AcDbEntity
  8
0
 62
     0
100
AcDbLine
 10
584.0154220545355
 20
272.5014141790105
 30
0.0
 11
580.4812253098966
 21
276.0356109236492
 31
0.0
  0
LINE
  5
8EF2
330
8EEF
100
AcDbEntity
  8
0
 62
     0
100
AcDbLine
 10
581.9566690005273
 20
271.7317401082726
 30
0.0
 11
579.7115512391587
 21
273.976857869641
 31
0.0
  0
LINE
  5
8EF3
330
8EEF
100
AcDbEntity
  8
0
 62
     0
100
AcDbLine
 10
606.1427931010367
 20
244.7171888830169
 30
0.0
 11
604.4969217623057
 21
246.363060221748
 31
0.0
  0
LINE
  5
8EF4
330
8EEF
100
AcDbEntity
  8
0
 62
     0
100
AcDbLine
 10
603.3143659762906
 20
244.7171888830169
 30
0.0
 11
601.3143659762904
 21
246.7171888830169
 31
0.0
  0
LINE
  5
8EF5
330
8EEF
100
AcDbEntity
  8
0
 62
     0
100
AcDbLine
 10
600.4859388515443
 20
244.7171888830169
 30
0.0
 11
598.4859388515443
 21
246.7171888830169
 31
0.0
  0
LINE
  5
8EF6
330
8EEF
100
AcDbEntity
  8
0
 62
     0
100
AcDbLine
 10
597.6575117267981
 20
244.7171888830169
 30
0.0
 11
595.7268896097189
 21
246.6478110000962
 31
0.0
  0
LINE
  5
8EF7
330
8EEF
100
AcDbEntity
  8
0
 62
     0
100
AcDbLine
 10
596.4704071172291
 20
243.0758663678397
 30
0.0
 11
594.4394440945711
 21
245.1068293904979
 31
0.0
  0
LINE
  5
8EF8
330
8EEF
100
AcDbEntity
  8
0
 62
     0
100
AcDbLine
 10
598.4289221172282
 20
241.1173513678406
 30
0.0
 11
597.8491916233869
 21
241.697081861682
 31
0.0
  0
LINE
  5
8EF9
330
8EEF
100
AcDbEntity
  8
0
 62
     0
100
AcDbLine
 10
563.0927752847958
 20
273.6250710755268
 30
0.0
 11
560.0717901482286
 21
276.646056212094
 31
0.0
  0
LINE
  5
8EFA
330
8EEF
100
AcDbEntity
  8
0
 62
     0
100
AcDbLine
 10
597.9466093135799
 20
238.7712370467427
 30
0.0
 11
594.4304071172282
 21
242.2874392430944
 31
0.0
  0
LINE
  5
8EFB
330
8EEF
100
AcDbEntity
  8
0
 62
     0
100
AcDbLine
 10
596.9304221172283
 20
236.9589971183482
 30
0.0
 11
594.4304071172282
 21
239.4590121183482
 31
0.0
  0
LINE
  5
8EFC
330
8EEF
100
AcDbEntity
  8
0
 62
     0
100
AcDbLine
 10
561.8648731742878
 20
272.0245460612886
 30
0.0
 11
558.4712651339905
 21
275.418154101586
 31
0.0
  0
LINE
  5
8EFD
330
8EEF
100
AcDbEntity
  8
0
 62
     0
100
AcDbLine
 10
598.4289221172282
 20
235.4604971183482
 30
0.0
 11
597.4549964667781
 21
236.4344227687983
 31
0.0
  0
LINE
  5
8EFE
330
8EEF
100
AcDbEntity
  8
0
 62
     0
100
AcDbLine
 10
597.7561223306373
 20
233.3048697801931
 30
0.0
 11
594.4304071172282
 21
236.630584993602
 31
0.0
  0
LINE
  5
8EFF
330
8EEF
100
AcDbEntity
  8
0
 62
     0
100
AcDbLine
 10
596.9304221172283
 20
231.3021428688558
 30
0.0
 11
594.4304071172282
 21
233.8021578688559
 31
0.0
  0
LINE
  5
8F00
330
8EEF
100
AcDbEntity
  8
0
 62
     0
100
AcDbLine
 10
598.4289221172282
 20
229.8036428688559
 30
0.0
 11
597.0608013101694
 21
231.1717636759147
 31
0.0
  0
LINE
  5
8F01
330
8EEF
100
AcDbEntity
  8
0
 62
     0
100
AcDbLine
 10
596.8869464096459
 20
228.517191451692
 30
0.0
 11
594.4304071172282
 21
230.9737307441097
 31
0.0
  0
LINE
  5
8F02
330
8EEF
100
AcDbEntity
  8
0
 62
     0
100
AcDbLine
 10
596.4704071172291
 20
226.1053036193626
 30
0.0
 11
594.4304071172282
 21
228.1453036193635
 31
0.0
  0
LINE
  5
8F03
330
8EEF
100
AcDbEntity
  8
0
 62
     0
100
AcDbLine
 10
595.0300947288288
 20
224.7171888830168
 30
0.0
 11
594.4304071172282
 21
225.3168764946173
 31
0.0
  0
LINE
  5
8F04
330
8EEF
100
AcDbEntity
  8
0
 62
     0
100
AcDbLine
 10
548.4304071172282
 20
243.0326052471553
 30
0.0
 11
544.7458234813667
 21
246.7171888830169
 31
0.0
  0
LINE
  5
8F05
330
8EEF
100
AcDbEntity
  8
0
 62
     0
100
AcDbLine
 10
543.9173963566205
 20
244.7171888830169
 30
0.0
 11
541.9173963566205
 21
246.7171888830169
 31
0.0
  0
LINE
  5
8F06
330
8EEF
100
AcDbEntity
  8
0
 62
     0
100
AcDbLine
 10
548.4304071172282
 20
240.2041781224091
 30
0.0
 11
546.3904071172292
 21
242.2441781224082
 31
0.0
  0
LINE
  5
8F07
330
8EEF
100
AcDbEntity
  8
0
 62
     0
100
AcDbLine
 10
541.0889692318743
 20
244.7171888830169
 30
0.0
 11
539.2272568089452
 21
246.5789013059461
 31
0.0
  0
LINE
  5
8F08
330
8EEF
100
AcDbEntity
  8
0
 62
     0
100
AcDbLine
 10
548.4304071172282
 20
237.375750997663
 30
0.0
 11
544.4720353893377
 21
241.3341227255535
 31
0.0
  0
LINE
  5
8F09
330
8EEF
100
AcDbEntity
  8
0
 62
     0
100
AcDbLine
 10
538.2605421071282
 20
244.7171888830169
 30
0.0
 11
536.9645151091483
 21
246.0132158809968
 31
0.0
  0
LINE
  5
8F0A
330
8EEF
100
AcDbEntity
  8
0
 62
     0
100
AcDbLine
 10
548.4304071172282
 20
234.5473238729168
 30
0.0
 11
545.9004221172281
 21
237.077308872917
 31
0.0
  0
LINE
  5
8F0B
330
8EEF
100
AcDbEntity
  8
0
 62
     0
100
AcDbLine
 10
548.4304071172282
 20
231.7188967481706
 30
0.0
 11
544.4019221172282
 21
235.7473817481707
 31
0.0
  0
LINE
  5
8F0C
330
8EEF
100
AcDbEntity
  8
0
 62
     0
100
AcDbLine
 10
548.4304071172282
 20
228.8904696234244
 30
0.0
 11
545.9004221172281
 21
231.4204546234245
 31
0.0
  0
LINE
  5
8F0D
330
8EEF
100
AcDbEntity
  8
0
 62
     0
100
AcDbLine
 10
545.9751733536647
 20
228.5172762622418
 30
0.0
 11
544.4019221172282
 21
230.0905274986783
 31
0.0
  0
LINE
  5
8F0E
330
8EEF
100
AcDbEntity
  8
0
 62
     0
100
AcDbLine
 10
548.4304071172282
 20
226.0620424986782
 30
0.0
 11
546.3904071172292
 21
228.1020424986773
 31
0.0
  0
LINE
  5
8F0F
330
8EEF
100
AcDbEntity
  8
0
 62
     0
100
AcDbLine
 10
546.9468336081433
 20
224.7171888830169
 30
0.0
 11
546.3904071172292
 21
225.2736153739312
 31
0.0
  0
ENDBLK
  5
8F11
330
8EEF
100
AcDbEntity
  8
0
100
AcDbBlockEnd
  0
BLOCK
  5
8F4D
330
8F12
100
AcDbEntity
  8
0
100
AcDbBlockBegin
  2
*X3
 70
     1
 10
0.0
 20
0.0
 30
0.0
  3
*X3
  1

  0
LINE
  5
8F13
330
8F12
100
AcDbEntity
  8
0
 62
     0
100
AcDbLine
 10
157.2552506955007
 20
241.552973893712
 30
0.0
 11
156.5173626797968
 21
242.2908619094159
 31
0.0
  0
LINE
  5
8F14
330
8F12
100
AcDbEntity
  8
0
 62
     0
100
AcDbLine
 10
155.7678840080898
 20
240.9190202375632
 30
0.0
 11
154.3960423362371
 21
242.2908619094159
 31
0.0
  0
LINE
  5
8F15
330
8F12
100
AcDbEntity
  8
0
 62
     0
100
AcDbLine
 10
154.0708277332422
 20
240.4947561688513
 30
0.0
 11
152.2747219926775
 21
242.2908619094159
 31
0.0
  0
LINE
  5
8F16
330
8F12
100
AcDbEntity
  8
0
 62
     0
100
AcDbLine
 10
152.1534016491179
 20
240.2908619094159
 30
0.0
 11
150.1534016491179
 21
242.2908619094159
 31
0.0
  0
LINE
  5
8F17
330
8F12
100
AcDbEntity
  8
0
 62
     0
100
AcDbLine
 10
150.8292917818211
 20
239.4936514331531
 30
0.0
 11
148.8085141309648
 21
241.5144290840094
 31
0.0
  0
LINE
  5
8F18
330
8F12
100
AcDbEntity
  8
0
 62
     0
100
AcDbLine
 10
150.8085141309647
 20
237.3931087404498
 30
0.0
 11
147.9004840966992
 21
240.3011387747153
 31
0.0
  0
LINE
  5
8F19
330
8F12
100
AcDbEntity
  8
0
 62
     0
100
AcDbLine
 10
150.8085141309647
 20
235.2717883968901
 30
0.0
 11
146.6600526825064
 21
239.4202498453484
 31
0.0
  0
LINE
  5
8F1A
330
8F12
100
AcDbEntity
  8
0
 62
     0
100
AcDbLine
 10
150.8085141309647
 20
233.1504680533305
 30
0.0
 11
148.8085141309648
 21
235.1504680533305
 31
0.0
  0
LINE
  5
8F1B
330
8F12
100
AcDbEntity
  8
0
 62
     0
100
AcDbLine
 10
155.7085141309644
 20
228.2504680533308
 30
0.0
 11
153.5681202748789
 21
230.3908619094163
 31
0.0
  0
LINE
  5
8F1C
330
8F12
100
AcDbEntity
  8
0
 62
     0
100
AcDbLine
 10
150.9367811300416
 20
230.900880710694
 30
0.0
 11
147.1402292311497
 21
234.6974326095859
 31
0.0
  0
LINE
  5
8F1D
330
8F12
100
AcDbEntity
  8
0
 62
     0
100
AcDbLine
 10
154.4467999313193
 20
227.3908619094163
 30
0.0
 11
151.3185329322426
 21
230.5191289084931
 31
0.0
  0
LINE
  5
8F1E
330
8F12
100
AcDbEntity
  8
0
 62
     0
100
AcDbLine
 10
152.3254795877596
 20
227.3908619094163
 30
0.0
 11
148.8085141309648
 21
230.9078273662112
 31
0.0
  0
LINE
  5
8F1F
330
8F12
100
AcDbEntity
  8
0
 62
     0
100
AcDbLine
 10
148.0852684058165
 20
231.6310730913595
 30
0.0
 11
146.6600526825064
 21
233.0562888146695
 31
0.0
  0
LINE
  5
8F20
330
8F12
100
AcDbEntity
  8
0
 62
     0
100
AcDbLine
 10
155.5594320258547
 20
224.1569094713212
 30
0.0
 11
154.6254795877753
 21
225.0908619094007
 31
0.0
  0
LINE
  5
8F21
330
8F12
100
AcDbEntity
  8
0
 62
     0
100
AcDbLine
 10
150.989631817568
 20
226.6053893360483
 30
0.0
 11
148.0530130686736
 21
229.5420080849428
 31
0.0
  0
LINE
  5
8F22
330
8F12
100
AcDbEntity
  8
0
 62
     0
100
AcDbLine
 10
154.7251948164098
 20
222.8698263372065
 30
0.0
 11
152.5041592442157
 21
225.0908619094007
 31
0.0
  0
LINE
  5
8F23
330
8F12
100
AcDbEntity
  8
0
 62
     0
100
AcDbLine
 10
154.3085526825079
 20
221.1651481275487
 30
0.0
 11
146.6600526825064
 21
228.8136481275502
 31
0.0
  0
LINE
  5
8F24
330
8F12
100
AcDbEntity
  8
0
 62
     0
100
AcDbLine
 10
146.7684814593719
 20
226.5838990071251
 30
0.0
 11
146.6600526825064
 21
226.6923277839905
 31
0.0
  0
LINE
  5
8F25
330
8F12
100
AcDbEntity
  8
0
 62
     0
100
AcDbLine
 10
153.9917512258006
 20
219.3606292406964
 30
0.0
 11
148.8085141309648
 21
224.5438663355323
 31
0.0
  0
LINE
  5
8F26
330
8F12
100
AcDbEntity
  8
0
 62
     0
100
AcDbLine
 10
147.8401982135215
 20
223.3908619094159
 30
0.0
 11
147.2927582031241
 21
223.9383019198133
 31
0.0
  0
LINE
  5
8F27
330
8F12
100
AcDbEntity
  8
0
 62
     0
100
AcDbLine
 10
152.1401982135367
 20
219.0908619094007
 30
0.0
 11
148.8085141309648
 21
222.4225459919726
 31
0.0
  0
LINE
  5
8F28
330
8F12
100
AcDbEntity
  8
0
 62
     0
100
AcDbLine
 10
150.8271119838774
 20
218.2826277955003
 30
0.0
 11
148.8085141309648
 21
220.301225648413
 31
0.0
  0
LINE
  5
8F29
330
8F12
100
AcDbEntity
  8
0
 62
     0
100
AcDbLine
 10
150.8085526825079
 20
216.1798667533101
 30
0.0
 11
148.8085141309648
 21
218.1799053048533
 31
0.0
  0
LINE
  5
8F2A
330
8F12
100
AcDbEntity
  8
0
 62
     0
100
AcDbLine
 10
150.8085526825079
 20
214.0585464097505
 30
0.0
 11
148.8085141309648
 21
216.0585849612937
 31
0.0
  0
LINE
  5
8F2B
330
8F12
100
AcDbEntity
  8
0
 62
     0
100
AcDbLine
 10
150.8085526825079
 20
211.9372260661909
 30
0.0
 11
148.8085141309648
 21
213.937264617734
 31
0.0
  0
LINE
  5
8F2C
330
8F12
100
AcDbEntity
  8
0
 62
     0
100
AcDbLine
 10
150.808552682508
 20
209.8159057226312
 30
0.0
 11
148.8085141309648
 21
211.8159442741744
 31
0.0
  0
LINE
  5
8F2D
330
8F12
100
AcDbEntity
  8
0
 62
     0
100
AcDbLine
 10
150.808552682508
 20
207.6945853790716
 30
0.0
 11
148.8085141309648
 21
209.6946239306148
 31
0.0
  0
LINE
  5
8F2E
330
8F12
100
AcDbEntity
  8
0
 62
     0
100
AcDbLine
 10
150.8085526825079
 20
205.5732650355119
 30
0.0
 11
148.8085141309648
 21
207.5733035870551
 31
0.0
  0
LINE
  5
8F2F
330
8F12
100
AcDbEntity
  8
0
 62
     0
100
AcDbLine
 10
150.7854034459147
 20
203.4750939285455
 30
0.0
 11
148.8085141309648
 21
205.4519832434954
 31
0.0
  0
LINE
  5
8F30
330
8F12
100
AcDbEntity
  8
0
 62
     0
100
AcDbLine
 10
150.4318500553215
 20
201.7073269755791
 30
0.0
 11
148.8085141309648
 21
203.3306628999358
 31
0.0
  0
LINE
  5
8F31
330
8F12
100
AcDbEntity
  8
0
 62
     0
100
AcDbLine
 10
150.0782966647283
 20
199.9395600226126
 30
0.0
 11
148.8085141309648
 21
201.2093425563762
 31
0.0
  0
LINE
  5
8F32
330
8F12
100
AcDbEntity
  8
0
 62
     0
100
AcDbLine
 10
149.3056962322711
 20
198.5908401115102
 30
0.0
 11
148.8085141309648
 21
199.0880222128165
 31
0.0
  0
LINE
  5
8F33
330
8F12
100
AcDbEntity
  8
0
 62
     0
100
AcDbLine
 10
94.40859123404788
 20
240.7600230483756
 30
0.0
 11
92.87775237300756
 21
242.2908619094159
 31
0.0
  0
LINE
  5
8F34
330
8F12
100
AcDbEntity
  8
0
 62
     0
100
AcDbLine
 10
94.4085912340479
 20
238.638702704816
 30
0.0
 11
90.75643202944792
 21
242.2908619094159
 31
0.0
  0
LINE
  5
8F35
330
8F12
100
AcDbEntity
  8
0
 62
     0
100
AcDbLine
 10
90.6351116858883
 20
240.2908619094159
 30
0.0
 11
88.63511168588829
 21
242.2908619094159
 31
0.0
  0
LINE
  5
8F36
330
8F12
100
AcDbEntity
  8
0
 62
     0
100
AcDbLine
 10
94.4085912340479
 20
236.5173823612563
 30
0.0
 11
92.4085912340479
 21
238.5173823612563
 31
0.0
  0
LINE
  5
8F37
330
8F12
100
AcDbEntity
  8
0
 62
     0
100
AcDbLine
 10
88.0311035666009
 20
240.7735496851437
 30
0.0
 11
86.51379134232865
 21
242.2908619094159
 31
0.0
  0
LINE
  5
8F38
330
8F12
100
AcDbEntity
  8
0
 62
     0
100
AcDbLine
 10
94.4085912340479
 20
234.3960620176967
 30
0.0
 11
92.40859123404788
 21
236.3960620176967
 31
0.0
  0
LINE
  5
8F39
330
8F12
100
AcDbEntity
  8
0
 62
     0
100
AcDbLine
 10
94.40859123404788
 20
232.274741674137
 30
0.0
 11
92.4085912340479
 21
234.274741674137
 31
0.0
  0
LINE
  5
8F3A
330
8F12
100
AcDbEntity
  8
0
 62
     0
100
AcDbLine
 10
94.4085912340479
 20
230.1534213305774
 30
0.0
 11
92.40859123404792
 21
232.1534213305774
 31
0.0
  0
LINE
  5
8F3B
330
8F12
100
AcDbEntity
  8
0
 62
     0
100
AcDbLine
 10
94.4085912340479
 20
228.0321009870177
 30
0.0
 11
91.91318639386265
 21
230.527505827203
 31
0.0
  0
LINE
  5
8F3C
330
8F12
100
AcDbEntity
  8
0
 62
     0
100
AcDbLine
 10
94.4085912340479
 20
225.9107806434581
 30
0.0
 11
89.92850996809153
 21
230.3908619094145
 31
0.0
  0
LINE
  5
8F3D
330
8F12
100
AcDbEntity
  8
0
 62
     0
100
AcDbLine
 10
90.80718962453188
 20
227.3908619094145
 30
0.0
 11
87.9667249279084
 21
230.2313266060379
 31
0.0
  0
LINE
  5
8F3E
330
8F12
100
AcDbEntity
  8
0
 62
     0
100
AcDbLine
 10
94.4085912340479
 20
223.7894602998985
 30
0.0
 11
92.40859123404787
 21
225.7894602998985
 31
0.0
  0
LINE
  5
8F3F
330
8F12
100
AcDbEntity
  8
0
 62
     0
100
AcDbLine
 10
88.68586928097226
 20
227.3908619094145
 30
0.0
 11
87.50859123404826
 21
228.5681399563385
 31
0.0
  0
LINE
  5
8F40
330
8F12
100
AcDbEntity
  8
0
 62
     0
100
AcDbLine
 10
94.4085912340479
 20
221.6681399563388
 30
0.0
 11
90.98586928098606
 21
225.0908619094007
 31
0.0
  0
LINE
  5
8F41
330
8F12
100
AcDbEntity
  8
0
 62
     0
100
AcDbLine
 10
94.4085912340479
 20
219.5468196127792
 30
0.0
 11
88.86454893742643
 21
225.0908619094007
 31
0.0
  0
LINE
  5
8F42
330
8F12
100
AcDbEntity
  8
0
 62
     0
100
AcDbLine
 10
89.60341236765351
 20
222.2306781356139
 30
0.0
 11
87.6484074602615
 21
224.1856830430059
 31
0.0
  0
LINE
  5
8F43
330
8F12
100
AcDbEntity
  8
0
 62
     0
100
AcDbLine
 10
94.4085912340479
 20
217.4254992692195
 30
0.0
 11
92.4085526825047
 21
219.4255378207627
 31
0.0
  0
LINE
  5
8F44
330
8F12
100
AcDbEntity
  8
0
 62
     0
100
AcDbLine
 10
94.4085912340479
 20
215.3041789256599
 30
0.0
 11
92.40855268250472
 21
217.3042174772031
 31
0.0
  0
LINE
  5
8F45
330
8F12
100
AcDbEntity
  8
0
 62
     0
100
AcDbLine
 10
94.4085912340479
 20
213.1828585821002
 30
0.0
 11
92.40855268250468
 21
215.1828971336434
 31
0.0
  0
LINE
  5
8F46
330
8F12
100
AcDbEntity
  8
0
 62
     0
100
AcDbLine
 10
94.4085912340479
 20
211.0615382385406
 30
0.0
 11
92.4085526825047
 21
213.0615767900838
 31
0.0
  0
LINE
  5
8F47
330
8F12
100
AcDbEntity
  8
0
 62
     0
100
AcDbLine
 10
94.40859123404791
 20
208.9402178949809
 30
0.0
 11
92.4085526825047
 21
210.9402564465241
 31
0.0
  0
LINE
  5
8F48
330
8F12
100
AcDbEntity
  8
0
 62
     0
100
AcDbLine
 10
94.4085912340479
 20
206.8188975514213
 30
0.0
 11
92.4085526825047
 21
208.8189361029646
 31
0.0
  0
LINE
  5
8F49
330
8F12
100
AcDbEntity
  8
0
 62
     0
100
AcDbLine
 10
94.40859123404791
 20
204.6975772078616
 30
0.0
 11
92.4085526825047
 21
206.6976157594048
 31
0.0
  0
LINE
  5
8F4A
330
8F12
100
AcDbEntity
  8
0
 62
     0
100
AcDbLine
 10
94.4085912340479
 20
202.576256864302
 30
0.0
 11
92.40855268250468
 21
204.5762954158452
 31
0.0
  0
LINE
  5
8F4B
330
8F12
100
AcDbEntity
  8
0
 62
     0
100
AcDbLine
 10
94.4085912340479
 20
200.4549365207424
 30
0.0
 11
92.69251894231087
 21
202.1710088124795
 31
0.0
  0
LINE
  5
8F4C
330
8F12
100
AcDbEntity
  8
0
 62
     0
100
AcDbLine
 10
94.15136729972042
 20
198.5908401115102
 30
0.0
 11
93.22284902820078
 21
199.5193583830299
 31
0.0
  0
ENDBLK
  5
8F4E
330
8F12
100
AcDbEntity
  8
0
100
AcDbBlockEnd
  0
BLOCK
  5
8F7A
330
8F4F
100
AcDbEntity
  8
0
100
AcDbBlockBegin
  2
*X4
 70
     1
 10
0.0
 20
0.0
 30
0.0
  3
*X4
  1

  0
LINE
  5
8F50
330
8F4F
100
AcDbEntity
  8
0
 62
     0
100
AcDbLine
 10
156.1004940075445
 20
204.8908619094163
 30
0.0
 11
156.7341023687672
 21
205.524470270639
 31
0.0
  0
LINE
  5
8F51
330
8F4F
100
AcDbEntity
  8
0
 62
     0
100
AcDbLine
 10
153.9791736639849
 20
204.8908619094163
 30
0.0
 11
157.2034420955277
 21
208.1151303409591
 31
0.0
  0
LINE
  5
8F52
330
8F4F
100
AcDbEntity
  8
0
 62
     0
100
AcDbLine
 10
153.780383972376
 20
206.813392561367
 30
0.0
 11
157.5913015776138
 21
210.6243101666049
 31
0.0
  0
LINE
  5
8F53
330
8F4F
100
AcDbEntity
  8
0
 62
     0
100
AcDbLine
 10
153.647801450903
 20
208.8021303834537
 30
0.0
 11
157.9057524184327
 21
213.0600813509833
 31
0.0
  0
LINE
  5
8F54
330
8F4F
100
AcDbEntity
  8
0
 62
     0
100
AcDbLine
 10
155.9063525004185
 20
213.1820017765289
 30
0.0
 11
158.1534980521168
 21
215.4291473282272
 31
0.0
  0
LINE
  5
8F55
330
8F4F
100
AcDbEntity
  8
0
 62
     0
100
AcDbLine
 10
156.1564319523701
 20
215.5534015720401
 30
0.0
 11
158.3401785038165
 21
217.7371481234865
 31
0.0
  0
LINE
  5
8F56
330
8F4F
100
AcDbEntity
  8
0
 62
     0
100
AcDbLine
 10
154.8725719461867
 20
216.3908619094163
 30
0.0
 11
158.4768465430191
 21
219.9951365062487
 31
0.0
  0
LINE
  5
8F57
330
8F4F
100
AcDbEntity
  8
0
 62
     0
100
AcDbLine
 10
152.7512516026271
 20
216.3908619094163
 30
0.0
 11
158.6062320391512
 21
222.2458423459404
 31
0.0
  0
LINE
  5
8F58
330
8F4F
100
AcDbEntity
  8
0
 62
     0
100
AcDbLine
 10
156.6101283349281
 20
222.371058985277
 30
0.0
 11
158.7356175352833
 21
224.4965481856322
 31
0.0
  0
LINE
  5
8F59
330
8F4F
100
AcDbEntity
  8
0
 62
     0
100
AcDbLine
 10
152.1085526825054
 20
217.8694833328543
 30
0.0
 11
155.6299312590674
 21
221.3908619094163
 31
0.0
  0
LINE
  5
8F5A
330
8F4F
100
AcDbEntity
  8
0
 62
     0
100
AcDbLine
 10
156.7050958504648
 20
224.5873468443733
 30
0.0
 11
158.8650030314154
 21
226.7472540253239
 31
0.0
  0
LINE
  5
8F5B
330
8F4F
100
AcDbEntity
  8
0
 62
     0
100
AcDbLine
 10
152.1085526825054
 20
219.9908036764139
 30
0.0
 11
153.5086109155078
 21
221.3908619094163
 31
0.0
  0
LINE
  5
8F5C
330
8F4F
100
AcDbEntity
  8
0
 62
     0
100
AcDbLine
 10
155.3872905719481
 20
225.3908619094163
 30
0.0
 11
158.9943885275475
 21
228.9979598650156
 31
0.0
  0
LINE
  5
8F5D
330
8F4F
100
AcDbEntity
  8
0
 62
     0
100
AcDbLine
 10
155.2827266535245
 20
227.4076183345523
 30
0.0
 11
159.1237740236796
 21
231.2486657047074
 31
0.0
  0
LINE
  5
8F5E
330
8F4F
100
AcDbEntity
  8
0
 62
     0
100
AcDbLine
 10
154.8390602901906
 20
226.9639519712185
 30
0.0
 11
155.0854626207043
 21
227.2103543017321
 31
0.0
  0
LINE
  5
8F5F
330
8F4F
100
AcDbEntity
  8
0
 62
     0
100
AcDbLine
 10
157.1276703194559
 20
231.3738823440433
 30
0.0
 11
159.2531595198117
 21
233.4993715443991
 31
0.0
  0
LINE
  5
8F60
330
8F4F
100
AcDbEntity
  8
0
 62
     0
100
AcDbLine
 10
157.257055815588
 20
233.6245881837351
 30
0.0
 11
159.3825450159438
 21
235.7500773840909
 31
0.0
  0
LINE
  5
8F61
330
8F4F
100
AcDbEntity
  8
0
 62
     0
100
AcDbLine
 10
157.3864413117201
 20
235.8752940234269
 30
0.0
 11
159.5119305120759
 21
238.0007832237827
 31
0.0
  0
LINE
  5
8F62
330
8F4F
100
AcDbEntity
  8
0
 62
     0
100
AcDbLine
 10
157.5158268078522
 20
238.1259998631187
 30
0.0
 11
159.641316008208
 21
240.2514890634744
 31
0.0
  0
LINE
  5
8F63
330
8F4F
100
AcDbEntity
  8
0
 62
     0
100
AcDbLine
 10
157.6452123039844
 20
240.3767057028105
 30
0.0
 11
159.5593685105899
 21
242.2908619094159
 31
0.0
  0
LINE
  5
8F64
330
8F4F
100
AcDbEntity
  8
0
 62
     0
100
AcDbLine
 10
88.2182430136342
 20
204.8908619094145
 30
0.0
 11
89.38643194456824
 21
206.0590508403485
 31
0.0
  0
LINE
  5
8F65
330
8F4F
100
AcDbEntity
  8
0
 62
     0
100
AcDbLine
 10
86.52354889398162
 20
205.3174881333216
 30
0.0
 11
89.53795482625066
 21
208.3318940655906
 31
0.0
  0
LINE
  5
8F66
330
8F4F
100
AcDbEntity
  8
0
 62
     0
100
AcDbLine
 10
86.18850911179185
 20
207.1037686946914
 30
0.0
 11
89.6085526825054
 21
210.5238122654049
 31
0.0
  0
LINE
  5
8F67
330
8F4F
100
AcDbEntity
  8
0
 62
     0
100
AcDbLine
 10
85.88231430921203
 20
208.9188942356712
 30
0.0
 11
87.75428198295674
 21
210.790861909416
 31
0.0
  0
LINE
  5
8F68
330
8F4F
100
AcDbEntity
  8
0
 62
     0
100
AcDbLine
 10
85.60612090171009
 20
210.7640211717289
 30
0.0
 11
87.38780309490351
 21
212.5457033649224
 31
0.0
  0
LINE
  5
8F69
330
8F4F
100
AcDbEntity
  8
0
 62
     0
100
AcDbLine
 10
89.111641295836
 20
216.3908619094145
 30
0.0
 11
91.10855268250544
 21
218.3877732960839
 31
0.0
  0
LINE
  5
8F6A
330
8F4F
100
AcDbEntity
  8
0
 62
     0
100
AcDbLine
 10
85.36119782825997
 20
212.6404184418384
 30
0.0
 11
87.16987182578776
 21
214.4490924393663
 31
0.0
  0
LINE
  5
8F6B
330
8F4F
100
AcDbEntity
  8
0
 62
     0
100
AcDbLine
 10
85.14894171444014
 20
214.5494826715783
 30
0.0
 11
88.99032095227635
 21
218.3908619094145
 31
0.0
  0
LINE
  5
8F6C
330
8F4F
100
AcDbEntity
  8
0
 62
     0
100
AcDbLine
 10
84.97089483153827
 20
216.4927561322361
 30
0.0
 11
86.98626322653026
 21
218.508124527228
 31
0.0
  0
LINE
  5
8F6D
330
8F4F
100
AcDbEntity
  8
0
 62
     0
100
AcDbLine
 10
84.82876650887893
 20
218.4719481531363
 30
0.0
 11
86.72227249578629
 21
220.3654541400437
 31
0.0
  0
LINE
  5
8F6E
330
8F4F
100
AcDbEntity
  8
0
 62
     0
100
AcDbLine
 10
84.71255484594657
 20
220.4770568337636
 30
0.0
 11
86.60695419645243
 21
222.3714561842695
 31
0.0
  0
LINE
  5
8F6F
330
8F4F
100
AcDbEntity
  8
0
 62
     0
100
AcDbLine
 10
87.50503957803781
 20
225.3908619094145
 30
0.0
 11
88.55719182795775
 21
226.4430141593344
 31
0.0
  0
LINE
  5
8F70
330
8F4F
100
AcDbEntity
  8
0
 62
     0
100
AcDbLine
 10
84.59723654661264
 20
222.4830588779894
 30
0.0
 11
86.4925938097159
 21
224.3784161410926
 31
0.0
  0
LINE
  5
8F71
330
8F4F
100
AcDbEntity
  8
0
 62
     0
100
AcDbLine
 10
84.48191824727874
 20
224.4890609222151
 30
0.0
 11
87.73427087388469
 21
227.741413548821
 31
0.0
  0
LINE
  5
8F72
330
8F4F
100
AcDbEntity
  8
0
 62
     0
100
AcDbLine
 10
84.36659994794483
 20
226.4950629664408
 30
0.0
 11
86.93919614013795
 21
229.0676591586339
 31
0.0
  0
LINE
  5
8F73
330
8F4F
100
AcDbEntity
  8
0
 62
     0
100
AcDbLine
 10
84.25128164861089
 20
228.5010650106665
 30
0.0
 11
86.14568099911741
 21
230.3954643611731
 31
0.0
  0
LINE
  5
8F74
330
8F4F
100
AcDbEntity
  8
0
 62
     0
100
AcDbLine
 10
84.13596334927701
 20
230.5070670548923
 30
0.0
 11
86.0303626997835
 21
232.4014664053988
 31
0.0
  0
LINE
  5
8F75
330
8F4F
100
AcDbEntity
  8
0
 62
     0
100
AcDbLine
 10
84.0206450499431
 20
232.513069099118
 30
0.0
 11
85.91504440044959
 21
234.4074684496245
 31
0.0
  0
LINE
  5
8F76
330
8F4F
100
AcDbEntity
  8
0
 62
     0
100
AcDbLine
 10
83.90532675060917
 20
234.5190711433438
 30
0.0
 11
85.79972610111564
 21
236.4134704938502
 31
0.0
  0
LINE
  5
8F77
330
8F4F
100
AcDbEntity
  8
0
 62
     0
100
AcDbLine
 10
83.79000845127526
 20
236.5250731875694
 30
0.0
 11
85.68440780178173
 21
238.4194725380759
 31
0.0
  0
LINE
  5
8F78
330
8F4F
100
AcDbEntity
  8
0
 62
     0
100
AcDbLine
 10
83.67469015194135
 20
238.5310752317952
 30
0.0
 11
85.5690895024478
 21
240.4254745823017
 31
0.0
  0
LINE
  5
8F79
330
8F4F
100
AcDbEntity
  8
0
 62
     0
100
AcDbLine
 10
83.55937185260748
 20
240.537077276021
 30
0.0
 11
85.31315648600246
 21
242.2908619094159
 31
0.0
  0
ENDBLK
  5
8F7B
330
8F4F
100
AcDbEntity
  8
0
100
AcDbBlockEnd
  0
BLOCK
  5
95D4
330
95C9
100
AcDbEntity
  8
0
100
AcDbBlockBegin
  2
*D5
 70
     1
 10
0.0
 20
0.0
 30
0.0
  3
*D5
  1

  0
LINE
  5
A016
330
95C9
100
AcDbEntity
  8
SUNPOU
 62
     4
370
    -2
100
AcDbLine
 10
173.2557846640629
 20
84.86052256527022
 30
0.0
 11
173.2557846640629
 21
65.85345592068756
 31
0.0
  0
LINE
  5
A017
330
95C9
100
AcDbEntity
  8
SUNPOU
 62
     4
370
    -2
100
AcDbLine
 10
227.6557846640625
 20
84.86052256527022
 30
0.0
 11
227.6557846640625
 21
65.85345592068756
 31
0.0
  0
LINE
  5
A018
330
95C9
100
AcDbEntity
  8
SUNPOU
 62
     4
370
    -2
100
AcDbLine
 10
176.2557846640629
 20
67.35345592068757
 30
0.0
 11
224.6557846640626
 21
67.35345592068757
 31
0.0
  0
INSERT
  5
A019
330
95C9
100
AcDbEntity
  8
SUNPOU
 62
     4
370
    -2
100
AcDbBlockReference
  2
_OPEN
 10
173.2557846640629
 20
67.35345592068757
 30
0.0
 41
3.0
 42
3.0
 43
3.0
 50
180.0
  0
INSERT
  5
A01A
330
95C9
100
AcDbEntity
  8
SUNPOU
 62
     4
370
    -2
100
AcDbBlockReference
  2
_OPEN
 10
227.6557846640625
 20
67.35345592068757
 30
0.0
 41
3.0
 42
3.0
 43
3.0
  0
MTEXT
  5
A01B
330
95C9
100
AcDbEntity
  8
SUNPOU
 62
     4
100
AcDbMText
 10
200.4557846640618
 20
69.85345592068757
 30
0.0
 40
3.0
 41
0.0
 71
     5
 72
     5
  1
\A1;%%c54
 73
     1
 44
1.0
1001
ACAD
1000
MTEXTBEGIN
1070
    73
1070
     1
1070
    44
1040
1.0
1070
    74
1070
     0
1000
MTEXTEND
  0
POINT
  5
A01C
330
95C9
100
AcDbEntity
  8
DEFPOINTS
 62
     0
100
AcDbPoint
 10
173.2557846640629
 20
87.86052256527023
 30
0.0
  0
POINT
  5
A01D
330
95C9
100
AcDbEntity
  8
DEFPOINTS
 62
     0
100
AcDbPoint
 10
227.6557846640625
 20
87.86052256527023
 30
0.0
  0
POINT
  5
A01E
330
95C9
100
AcDbEntity
  8
DEFPOINTS
 62
     0
100
AcDbPoint
 10
227.6557846640625
 20
67.35345592068757
 30
0.0
  0
ENDBLK
  5
95D5
330
95C9
100
AcDbEntity
  8
0
100
AcDbBlockEnd
  0
BLOCK
  5
95E1
330
95D6
100
AcDbEntity
  8
0
100
AcDbBlockBegin
  2
*D6
 70
     1
 10
0.0
 20
0.0
 30
0.0
  3
*D6
  1

  0
LINE
  5
9FFB
330
95D6
100
AcDbEntity
  8
SUNPOU
 62
     4
370
    -2
100
AcDbLine
 10
175.6657846640628
 20
126.0584336159702
 30
0.0
 11
175.6657846640628
 21
154.3507740466213
 31
0.0
  0
LINE
  5
9FFC
330
95D6
100
AcDbEntity
  8
SUNPOU
 62
     4
370
    -2
100
AcDbLine
 10
224.8057846640622
 20
126.0584336159702
 30
0.0
 11
224.8057846640622
 21
154.3507740466213
 31
0.0
  0
LINE
  5
9FFD
330
95D6
100
AcDbEntity
  8
SUNPOU
 62
     4
370
    -2
100
AcDbLine
 10
178.6657846640628
 20
152.8507740466213
 30
0.0
 11
221.8057846640622
 21
152.8507740466213
 31
0.0
  0
INSERT
  5
9FFE
330
95D6
100
AcDbEntity
  8
SUNPOU
 62
     4
370
    -2
100
AcDbBlockReference
  2
_OPEN
 10
175.6657846640628
 20
152.8507740466213
 30
0.0
 41
3.0
 42
3.0
 43
3.0
 50
180.0
  0
INSERT
  5
9FFF
330
95D6
100
AcDbEntity
  8
SUNPOU
 62
     4
370
    -2
100
AcDbBlockReference
  2
_OPEN
 10
224.8057846640622
 20
152.8507740466213
 30
0.0
 41
3.0
 42
3.0
 43
3.0
  0
MTEXT
  5
A000
330
95D6
100
AcDbEntity
  8
SUNPOU
 62
     4
100
AcDbMText
 10
200.2357846640625
 20
155.3507740466213
 30
0.0
 40
3.0
 41
0.0
 71
     5
 72
     5
  1
\A1;φ49
 73
     1
 44
1.0
1001
ACAD
1000
MTEXTBEGIN
1070
    73
1070
     1
1070
    44
1040
1.0
1070
    74
1070
     0
1000
MTEXTEND
  0
POINT
  5
A001
330
95D6
100
AcDbEntity
  8
DEFPOINTS
 62
     0
100
AcDbPoint
 10
175.6657846640628
 20
123.0584336159702
 30
0.0
  0
POINT
  5
A002
330
95D6
100
AcDbEntity
  8
DEFPOINTS
 62
     0
100
AcDbPoint
 10
224.8057846640622
 20
123.0584336159702
 30
0.0
  0
POINT
  5
A003
330
95D6
100
AcDbEntity
  8
DEFPOINTS
 62
     0
100
AcDbPoint
 10
224.8057846640622
 20
152.8507740466213
 30
0.0
  0
ENDBLK
  5
95E2
330
95D6
100
AcDbEntity
  8
0
100
AcDbBlockEnd
  0
BLOCK
  5
95EE
330
95E3
100
AcDbEntity
  8
0
100
AcDbBlockBegin
  2
*D7
 70
     1
 10
0.0
 20
0.0
 30
0.0
  3
*D7
  1

  0
LINE
  5
9FF2
330
95E3
100
AcDbEntity
  8
SUNPOU
 62
     4
370
    -2
100
AcDbLine
 10
164.8057846640622
 20
110.8605225652702
 30
0.0
 11
164.8057846640622
 21
160.637262561935
 31
0.0
  0
LINE
  5
9FF3
330
95E3
100
AcDbEntity
  8
SUNPOU
 62
     4
370
    -2
100
AcDbLine
 10
236.1057846640633
 20
110.8605225652702
 30
0.0
 11
236.1057846640633
 21
160.637262561935
 31
0.0
  0
LINE
  5
9FF4
330
95E3
100
AcDbEntity
  8
SUNPOU
 62
     4
370
    -2
100
AcDbLine
 10
167.8057846640622
 20
159.137262561935
 30
0.0
 11
233.1057846640633
 21
159.137262561935
 31
0.0
  0
INSERT
  5
9FF5
330
95E3
100
AcDbEntity
  8
SUNPOU
 62
     4
370
    -2
100
AcDbBlockReference
  2
_OPEN
 10
164.8057846640622
 20
159.137262561935
 30
0.0
 41
3.0
 42
3.0
 43
3.0
 50
180.0
  0
INSERT
  5
9FF6
330
95E3
100
AcDbEntity
  8
SUNPOU
 62
     4
370
    -2
100
AcDbBlockReference
  2
_OPEN
 10
236.1057846640633
 20
159.137262561935
 30
0.0
 41
3.0
 42
3.0
 43
3.0
  0
MTEXT
  5
9FF7
330
95E3
100
AcDbEntity
  8
SUNPOU
 62
     4
100
AcDbMText
 10
200.4557846640627
 20
161.637262561935
 30
0.0
 40
3.0
 41
0.0
 71
     5
 72
     5
  1
\A1;φ71
 73
     1
 44
1.0
1001
ACAD
1000
MTEXTBEGIN
1070
    73
1070
     1
1070
    44
1040
1.0
1070
    74
1070
     0
1000
MTEXTEND
  0
POINT
  5
9FF8
330
95E3
100
AcDbEntity
  8
DEFPOINTS
 62
     0
100
AcDbPoint
 10
164.8057846640622
 20
107.8605225652702
 30
0.0
  0
POINT
  5
9FF9
330
95E3
100
AcDbEntity
  8
DEFPOINTS
 62
     0
100
AcDbPoint
 10
236.1057846640633
 20
107.8605225652702
 30
0.0
  0
POINT
  5
9FFA
330
95E3
100
AcDbEntity
  8
DEFPOINTS
 62
     0
100
AcDbPoint
 10
236.1057846640633
 20
159.137262561935
 30
0.0
  0
ENDBLK
  5
95EF
330
95E3
100
AcDbEntity
  8
0
100
AcDbBlockEnd
  0
BLOCK
  5
95FB
330
95F0
100
AcDbEntity
  8
0
100
AcDbBlockBegin
  2
*D8
 70
     1
 10
0.0
 20
0.0
 30
0.0
  3
*D8
  1

  0
LINE
  5
A055
330
95F0
100
AcDbEntity
  8
SUNPOU
 62
     4
370
    -2
100
AcDbLine
 10
316.5572559360598
 20
115.0152899039611
 30
0.0
 11
316.5572559360598
 21
133.8067052477748
 31
0.0
  0
LINE
  5
A056
330
95F0
100
AcDbEntity
  8
SUNPOU
 62
     4
370
    -2
100
AcDbLine
 10
370.2025174394921
 20
115.0152899039611
 30
0.0
 11
370.2025174394921
 21
133.8067052477748
 31
0.0
  0
LINE
  5
A057
330
95F0
100
AcDbEntity
  8
SUNPOU
 62
     4
370
    -2
100
AcDbLine
 10
319.5572559360598
 20
132.3067052477748
 30
0.0
 11
367.2025174394921
 21
132.3067052477748
 31
0.0
  0
INSERT
  5
A058
330
95F0
100
AcDbEntity
  8
SUNPOU
 62
     4
370
    -2
100
AcDbBlockReference
  2
_OPEN
 10
316.5572559360598
 20
132.3067052477748
 30
0.0
 41
3.0
 42
3.0
 43
3.0
 50
180.0
  0
INSERT
  5
A059
330
95F0
100
AcDbEntity
  8
SUNPOU
 62
     4
370
    -2
100
AcDbBlockReference
  2
_OPEN
 10
370.2025174394921
 20
132.3067052477748
 30
0.0
 41
3.0
 42
3.0
 43
3.0
  0
MTEXT
  5
A05A
330
95F0
100
AcDbEntity
  8
SUNPOU
 62
     4
100
AcDbMText
 10
343.3798866877759
 20
134.8067052477748
 30
0.0
 40
3.0
 41
0.0
 71
     5
 72
     5
  1
\A1;φ54
 73
     1
 44
1.0
1001
ACAD
1000
MTEXTBEGIN
1070
    73
1070
     1
1070
    44
1040
1.0
1070
    74
1070
     0
1000
MTEXTEND
  0
POINT
  5
A05B
330
95F0
100
AcDbEntity
  8
DEFPOINTS
 62
     0
100
AcDbPoint
 10
316.5572559360598
 20
112.0152899039611
 30
0.0
  0
POINT
  5
A05C
330
95F0
100
AcDbEntity
  8
DEFPOINTS
 62
     0
100
AcDbPoint
 10
370.2025174394921
 20
112.0152899039611
 30
0.0
  0
POINT
  5
A05D
330
95F0
100
AcDbEntity
  8
DEFPOINTS
 62
     0
100
AcDbPoint
 10
370.2025174394921
 20
132.3067052477748
 30
0.0
  0
ENDBLK
  5
95FC
330
95F0
100
AcDbEntity
  8
0
100
AcDbBlockEnd
  0
BLOCK
  5
9608
330
95FD
100
AcDbEntity
  8
0
100
AcDbBlockBegin
  2
*D9
 70
     1
 10
0.0
 20
0.0
 30
0.0
  3
*D9
  1

  0
LINE
  5
9FCD
330
95FD
100
AcDbEntity
  8
SUNPOU
 62
     4
370
    -2
100
AcDbLine
 10
44.6027952344616
 20
109.8605225652702
 30
0.0
 11
44.6027952344616
 21
121.5963551087902
 31
0.0
  0
LINE
  5
9FCE
330
95FD
100
AcDbEntity
  8
SUNPOU
 62
     4
370
    -2
100
AcDbLine
 10
120.9027952344627
 20
109.8605225652702
 30
0.0
 11
120.9027952344627
 21
121.5963551087902
 31
0.0
  0
LINE
  5
9FCF
330
95FD
100
AcDbEntity
  8
SUNPOU
 62
     4
370
    -2
100
AcDbLine
 10
47.6027952344616
 20
120.0963551087902
 30
0.0
 11
117.9027952344626
 21
120.0963551087902
 31
0.0
  0
INSERT
  5
9FD0
330
95FD
100
AcDbEntity
  8
SUNPOU
 62
     4
370
    -2
100
AcDbBlockReference
  2
_OPEN
 10
44.6027952344616
 20
120.0963551087902
 30
0.0
 41
3.0
 42
3.0
 43
3.0
 50
180.0
  0
INSERT
  5
9FD1
330
95FD
100
AcDbEntity
  8
SUNPOU
 62
     4
370
    -2
100
AcDbBlockReference
  2
_OPEN
 10
120.9027952344627
 20
120.0963551087902
 30
0.0
 41
3.0
 42
3.0
 43
3.0
  0
MTEXT
  5
9FD2
330
95FD
100
AcDbEntity
  8
SUNPOU
 62
     4
100
AcDbMText
 10
82.75279523446215
 20
122.5963551087902
 30
0.0
 40
3.0
 41
0.0
 71
     5
 72
     5
  1
\A1;φ76
 73
     1
 44
1.0
1001
ACAD
1000
MTEXTBEGIN
1070
    73
1070
     1
1070
    44
1040
1.0
1070
    74
1070
     0
1000
MTEXTEND
  0
POINT
  5
9FD3
330
95FD
100
AcDbEntity
  8
DEFPOINTS
 62
     0
100
AcDbPoint
 10
44.6027952344616
 20
106.8605225652702
 30
0.0
  0
POINT
  5
9FD4
330
95FD
100
AcDbEntity
  8
DEFPOINTS
 62
     0
100
AcDbPoint
 10
120.9027952344627
 20
106.8605225652702
 30
0.0
  0
POINT
  5
9FD5
330
95FD
100
AcDbEntity
  8
DEFPOINTS
 62
     0
100
AcDbPoint
 10
120.9027952344627
 20
120.0963551087902
 30
0.0
  0
ENDBLK
  5
9609
330
95FD
100
AcDbEntity
  8
0
100
AcDbBlockEnd
  0
BLOCK
  5
9615
330
960A
100
AcDbEntity
  8
0
100
AcDbBlockBegin
  2
*D10
 70
     1
 10
0.0
 20
0.0
 30
0.0
  3
*D10
  1

  0
LINE
  5
9FC4
330
960A
100
AcDbEntity
  8
SUNPOU
 62
     4
370
    -2
100
AcDbLine
 10
53.55279523446052
 20
65.16050076736632
 30
0.0
 11
53.55279523446052
 21
41.8564489977532
 31
0.0
  0
LINE
  5
9FC5
330
960A
100
AcDbEntity
  8
SUNPOU
 62
     4
370
    -2
100
AcDbLine
 10
111.9527952344619
 20
65.16050076736632
 30
0.0
 11
111.9527952344619
 21
41.8564489977532
 31
0.0
  0
LINE
  5
9FC6
330
960A
100
AcDbEntity
  8
SUNPOU
 62
     4
370
    -2
100
AcDbLine
 10
56.55279523446052
 20
43.3564489977532
 30
0.0
 11
108.9527952344619
 21
43.3564489977532
 31
0.0
  0
INSERT
  5
9FC7
330
960A
100
AcDbEntity
  8
SUNPOU
 62
     4
370
    -2
100
AcDbBlockReference
  2
_OPEN
 10
53.55279523446052
 20
43.3564489977532
 30
0.0
 41
3.0
 42
3.0
 43
3.0
 50
180.0
  0
INSERT
  5
9FC8
330
960A
100
AcDbEntity
  8
SUNPOU
 62
     4
370
    -2
100
AcDbBlockReference
  2
_OPEN
 10
111.9527952344619
 20
43.3564489977532
 30
0.0
 41
3.0
 42
3.0
 43
3.0
  0
MTEXT
  5
9FC9
330
960A
100
AcDbEntity
  8
SUNPOU
 62
     4
100
AcDbMText
 10
82.75279523446124
 20
45.8564489977532
 30
0.0
 40
3.0
 41
0.0
 71
     5
 72
     5
  1
\A1;φ58
 73
     1
 44
1.0
1001
ACAD
1000
MTEXTBEGIN
1070
    73
1070
     1
1070
    44
1040
1.0
1070
    74
1070
     0
1000
MTEXTEND
  0
POINT
  5
9FCA
330
960A
100
AcDbEntity
  8
DEFPOINTS
 62
     0
100
AcDbPoint
 10
53.55279523446052
 20
68.16050076736633
 30
0.0
  0
POINT
  5
9FCB
330
960A
100
AcDbEntity
  8
DEFPOINTS
 62
     0
100
AcDbPoint
 10
111.9527952344619
 20
68.16050076736633
 30
0.0
  0
POINT
  5
9FCC
330
960A
100
AcDbEntity
  8
DEFPOINTS
 62
     0
100
AcDbPoint
 10
111.9527952344619
 20
43.3564489977532
 30
0.0
  0
ENDBLK
  5
9616
330
960A
100
AcDbEntity
  8
0
100
AcDbBlockEnd
  0
BLOCK
  5
963D
330
9632
100
AcDbEntity
  8
0
100
AcDbBlockBegin
  2
*D11
 70
     1
 10
0.0
 20
0.0
 30
0.0
  3
*D11
  1

  0
LINE
  5
9FDF
330
9632
100
AcDbEntity
  8
SUNPOU
 62
     4
370
    -2
100
AcDbLine
 10
123.9027952344627
 20
106.8605225652702
 30
0.0
 11
148.4125740397837
 21
106.8605225652702
 31
0.0
  0
LINE
  5
9FE0
330
9632
100
AcDbEntity
  8
SUNPOU
 62
     4
370
    -2
100
AcDbLine
 10
113.9527952344619
 20
63.1605007673645
 30
0.0
 11
148.4125740397837
 21
63.16050076736449
 31
0.0
  0
LINE
  5
9FE1
330
9632
100
AcDbEntity
  8
SUNPOU
 62
     4
370
    -2
100
AcDbLine
 10
146.9125740397837
 20
103.8605225652702
 30
0.0
 11
146.9125740397837
 21
66.16050076736451
 31
0.0
  0
INSERT
  5
9FE2
330
9632
100
AcDbEntity
  8
SUNPOU
 62
     4
370
    -2
100
AcDbBlockReference
  2
_OPEN
 10
146.9125740397837
 20
106.8605225652702
 30
0.0
 41
3.0
 42
3.0
 43
3.0
 50
90.0
  0
INSERT
  5
9FE3
330
9632
100
AcDbEntity
  8
SUNPOU
 62
     4
370
    -2
100
AcDbBlockReference
  2
_OPEN
 10
146.9125740397837
 20
63.16050076736449
 30
0.0
 41
3.0
 42
3.0
 43
3.0
 50
270.0
  0
MTEXT
  5
9FE4
330
9632
100
AcDbEntity
  8
SUNPOU
 62
     4
100
AcDbMText
 10
144.4125740397837
 20
85.01051166631738
 30
0.0
 40
3.0
 41
0.0
 71
     5
 72
     5
  1
\A1;44
 11
0.0000000000000001
 21
1.0
 31
0.0
 73
     1
 44
1.0
1001
ACAD
1000
MTEXTBEGIN
1070
    73
1070
     1
1070
    44
1040
1.0
1070
    74
1070
     0
1000
MTEXTEND
  0
POINT
  5
9FE5
330
9632
100
AcDbEntity
  8
DEFPOINTS
 62
     0
100
AcDbPoint
 10
120.9027952344627
 20
106.8605225652702
 30
0.0
  0
POINT
  5
9FE6
330
9632
100
AcDbEntity
  8
DEFPOINTS
 62
     0
100
AcDbPoint
 10
110.9527952344619
 20
63.16050076736451
 30
0.0
  0
POINT
  5
9FE7
330
9632
100
AcDbEntity
  8
DEFPOINTS
 62
     0
100
AcDbPoint
 10
146.9125740397837
 20
63.16050076736449
 30
0.0
  0
ENDBLK
  5
963E
330
9632
100
AcDbEntity
  8
0
100
AcDbBlockEnd
  0
BLOCK
  5
964A
330
963F
100
AcDbEntity
  8
0
100
AcDbBlockBegin
  2
*D12
 70
     1
 10
0.0
 20
0.0
 30
0.0
  3
*D12
  1

  0
LINE
  5
9FD6
330
963F
100
AcDbEntity
  8
SUNPOU
 62
     4
370
    -2
100
AcDbLine
 10
120.7527952344604
 20
69.46052256526963
 30
0.0
 11
140.3008385013506
 21
69.46052256526963
 31
0.0
  0
LINE
  5
9FD7
330
963F
100
AcDbEntity
  8
SUNPOU
 62
     4
370
    -2
100
AcDbLine
 10
123.9027952344627
 20
106.8605225652702
 30
0.0
 11
140.3008385013506
 21
106.8605225652702
 31
0.0
  0
LINE
  5
9FD8
330
963F
100
AcDbEntity
  8
SUNPOU
 62
     4
370
    -2
100
AcDbLine
 10
138.8008385013506
 20
72.46052256526962
 30
0.0
 11
138.8008385013506
 21
103.8605225652702
 31
0.0
  0
INSERT
  5
9FD9
330
963F
100
AcDbEntity
  8
SUNPOU
 62
     4
370
    -2
100
AcDbBlockReference
  2
_OPEN
 10
138.8008385013506
 20
69.46052256526963
 30
0.0
 41
3.0
 42
3.0
 43
3.0
 50
270.0
  0
INSERT
  5
9FDA
330
963F
100
AcDbEntity
  8
SUNPOU
 62
     4
370
    -2
100
AcDbBlockReference
  2
_OPEN
 10
138.8008385013506
 20
106.8605225652702
 30
0.0
 41
3.0
 42
3.0
 43
3.0
 50
90.0
  0
MTEXT
  5
9FDB
330
963F
100
AcDbEntity
  8
SUNPOU
 62
     4
100
AcDbMText
 10
136.3008385013506
 20
88.16052256526994
 30
0.0
 40
3.0
 41
0.0
 71
     5
 72
     5
  1
\A1;37
 11
0.0000000000000001
 21
1.0
 31
0.0
 73
     1
 44
1.0
1001
ACAD
1000
MTEXTBEGIN
1070
    73
1070
     1
1070
    44
1040
1.0
1070
    74
1070
     0
1000
MTEXTEND
  0
POINT
  5
9FDC
330
963F
100
AcDbEntity
  8
DEFPOINTS
 62
     0
100
AcDbPoint
 10
117.7527952344604
 20
69.46052256526963
 30
0.0
  0
POINT
  5
9FDD
330
963F
100
AcDbEntity
  8
DEFPOINTS
 62
     0
100
AcDbPoint
 10
120.9027952344627
 20
106.8605225652702
 30
0.0
  0
POINT
  5
9FDE
330
963F
100
AcDbEntity
  8
DEFPOINTS
 62
     0
100
AcDbPoint
 10
138.8008385013506
 20
106.8605225652702
 30
0.0
  0
ENDBLK
  5
964B
330
963F
100
AcDbEntity
  8
0
100
AcDbBlockEnd
  0
BLOCK
  5
9658
330
964C
100
AcDbEntity
  8
0
100
AcDbBlockBegin
  2
*D13
 70
     1
 10
0.0
 20
0.0
 30
0.0
  3
*D13
  1

  0
LINE
  5
9FE8
330
964C
100
AcDbEntity
  8
SUNPOU
 62
     4
370
    -2
100
AcDbLine
 10
120.9628339919687
 20
79.46852298001175
 30
0.0
 11
133.612330888938
 21
79.46852298001175
 31
0.0
  0
LINE
  5
9FE9
330
964C
100
AcDbEntity
  8
SUNPOU
 62
     4
370
    -2
100
AcDbLine
 10
118.7781538724426
 20
69.46052256526963
 30
0.0
 11
133.612330888938
 21
69.46052256526963
 31
0.0
  0
LINE
  5
9FEA
330
964C
100
AcDbEntity
  8
SUNPOU
 62
     4
370
    -2
100
AcDbLine
 10
132.112330888938
 20
72.46052256526962
 30
0.0
 11
132.112330888938
 21
76.46852298001175
 31
0.0
  0
LINE
  5
9FEB
330
964C
100
AcDbEntity
  8
SUNPOU
 62
     4
370
    -2
100
AcDbLine
 10
132.112330888938
 20
79.46852298001175
 30
0.0
 11
132.112330888938
 21
98.51852298001176
 31
0.0
  0
INSERT
  5
9FEC
330
964C
100
AcDbEntity
  8
SUNPOU
 62
     4
370
    -2
100
AcDbBlockReference
  2
_OPEN
 10
132.112330888938
 20
69.46052256526963
 30
0.0
 41
3.0
 42
3.0
 43
3.0
 50
270.0
  0
INSERT
  5
9FED
330
964C
100
AcDbEntity
  8
SUNPOU
 62
     4
370
    -2
100
AcDbBlockReference
  2
_OPEN
 10
132.112330888938
 20
79.46852298001175
 30
0.0
 41
3.0
 42
3.0
 43
3.0
 50
90.0
  0
MTEXT
  5
9FEE
330
964C
100
AcDbEntity
  8
SUNPOU
 62
     4
100
AcDbMText
 10
129.6123308889379
 20
94.06852298001178
 30
0.0
 40
3.0
 41
0.0
 71
     5
 72
     5
  1
\A1;※10
 11
0.0000000000000001
 21
1.0
 31
0.0
 73
     1
 44
1.0
1001
ACAD
1000
MTEXTBEGIN
1070
    73
1070
     1
1070
    44
1040
1.0
1070
    74
1070
     0
1000
MTEXTEND
  0
POINT
  5
9FEF
330
964C
100
AcDbEntity
  8
DEFPOINTS
 62
     0
100
AcDbPoint
 10
117.9628339919687
 20
79.46852298001175
 30
0.0
  0
POINT
  5
9FF0
330
964C
100
AcDbEntity
  8
DEFPOINTS
 62
     0
100
AcDbPoint
 10
115.7781538724426
 20
69.46052256526963
 30
0.0
  0
POINT
  5
9FF1
330
964C
100
AcDbEntity
  8
DEFPOINTS
 62
     0
100
AcDbPoint
 10
132.112330888938
 20
69.46052256526963
 30
0.0
  0
ENDBLK
  5
9659
330
964C
100
AcDbEntity
  8
0
100
AcDbBlockEnd
  0
BLOCK
  5
9665
330
965A
100
AcDbEntity
  8
0
100
AcDbBlockBegin
  2
*D14
 70
     1
 10
0.0
 20
0.0
 30
0.0
  3
*D14
  1

  0
LINE
  5
A00D
330
965A
100
AcDbEntity
  8
SUNPOU
 62
     4
370
    -2
100
AcDbLine
 10
239.1057846640633
 20
106.8605225652702
 30
0.0
 11
254.0712472410323
 21
106.8605225652702
 31
0.0
  0
LINE
  5
A00E
330
965A
100
AcDbEntity
  8
SUNPOU
 62
     4
370
    -2
100
AcDbLine
 10
221.1572464999626
 20
138.8605225652702
 30
0.0
 11
254.0712472410323
 21
138.8605225652702
 31
0.0
  0
LINE
  5
A00F
330
965A
100
AcDbEntity
  8
SUNPOU
 62
     4
370
    -2
100
AcDbLine
 10
252.5712472410323
 20
109.8605225652702
 30
0.0
 11
252.5712472410323
 21
135.8605225652702
 31
0.0
  0
INSERT
  5
A010
330
965A
100
AcDbEntity
  8
SUNPOU
 62
     4
370
    -2
100
AcDbBlockReference
  2
_OPEN
 10
252.5712472410323
 20
106.8605225652702
 30
0.0
 41
3.0
 42
3.0
 43
3.0
 50
270.0
  0
INSERT
  5
A011
330
965A
100
AcDbEntity
  8
SUNPOU
 62
     4
370
    -2
100
AcDbBlockReference
  2
_OPEN
 10
252.5712472410323
 20
138.8605225652702
 30
0.0
 41
3.0
 42
3.0
 43
3.0
 50
90.0
  0
MTEXT
  5
A012
330
965A
100
AcDbEntity
  8
SUNPOU
 62
     4
100
AcDbMText
 10
250.0712472410322
 20
122.8605225652702
 30
0.0
 40
3.0
 41
0.0
 71
     5
 72
     5
  1
\A1;32
 11
0.0000000000000001
 21
1.0
 31
0.0
 73
     1
 44
1.0
1001
ACAD
1000
MTEXTBEGIN
1070
    73
1070
     1
1070
    44
1040
1.0
1070
    74
1070
     0
1000
MTEXTEND
  0
POINT
  5
A013
330
965A
100
AcDbEntity
  8
DEFPOINTS
 62
     0
100
AcDbPoint
 10
236.1057846640633
 20
106.8605225652702
 30
0.0
  0
POINT
  5
A014
330
965A
100
AcDbEntity
  8
DEFPOINTS
 62
     0
100
AcDbPoint
 10
218.1572464999626
 20
138.8605225652702
 30
0.0
  0
POINT
  5
A015
330
965A
100
AcDbEntity
  8
DEFPOINTS
 62
     0
100
AcDbPoint
 10
252.5712472410323
 20
138.8605225652702
 30
0.0
  0
ENDBLK
  5
9666
330
965A
100
AcDbEntity
  8
0
100
AcDbBlockEnd
  0
BLOCK
  5
9672
330
9667
100
AcDbEntity
  8
0
100
AcDbBlockBegin
  2
*D15
 70
     1
 10
0.0
 20
0.0
 30
0.0
  3
*D15
  1

  0
LINE
  5
A01F
330
9667
100
AcDbEntity
  8
SUNPOU
 62
     4
370
    -2
100
AcDbLine
 10
239.1057846640633
 20
106.8605225652702
 30
0.0
 11
247.3766421745454
 21
106.8605225652702
 31
0.0
  0
LINE
  5
A020
330
9667
100
AcDbEntity
  8
SUNPOU
 62
     4
370
    -2
100
AcDbLine
 10
235.1057846640633
 20
108.8605225652702
 30
0.0
 11
247.3766421745454
 21
108.8605225652702
 31
0.0
  0
LINE
  5
A021
330
9667
100
AcDbEntity
  8
SUNPOU
 62
     4
370
    -2
100
AcDbLine
 10
245.8766421745454
 20
103.8605225652702
 30
0.0
 11
245.8766421745454
 21
100.8605225652702
 31
0.0
  0
LINE
  5
A022
330
9667
100
AcDbEntity
  8
SUNPOU
 62
     4
370
    -2
100
AcDbLine
 10
245.8766421745454
 20
111.8605225652702
 30
0.0
 11
245.8766421745454
 21
118.8605225652702
 31
0.0
  0
LINE
  5
A023
330
9667
100
AcDbEntity
  8
SUNPOU
 62
     4
370
    -2
100
AcDbLine
 10
245.8766421745454
 20
106.8605225652702
 30
0.0
 11
245.8766421745454
 21
108.8605225652702
 31
0.0
  0
INSERT
  5
A024
330
9667
100
AcDbEntity
  8
SUNPOU
 62
     4
370
    -2
100
AcDbBlockReference
  2
_OPEN
 10
245.8766421745454
 20
106.8605225652702
 30
0.0
 41
3.0
 42
3.0
 43
3.0
 50
90.0
  0
INSERT
  5
A025
330
9667
100
AcDbEntity
  8
SUNPOU
 62
     4
370
    -2
100
AcDbBlockReference
  2
_OPEN
 10
245.8766421745454
 20
108.8605225652702
 30
0.0
 41
3.0
 42
3.0
 43
3.0
 50
270.0
  0
MTEXT
  5
A026
330
9667
100
AcDbEntity
  8
SUNPOU
 62
     4
100
AcDbMText
 10
243.3766421745453
 20
116.8605225652702
 30
0.0
 40
3.0
 41
0.0
 71
     5
 72
     5
  1
\A1;2
 11
0.0000000000000001
 21
1.0
 31
0.0
 73
     1
 44
1.0
1001
ACAD
1000
MTEXTBEGIN
1070
    73
1070
     1
1070
    44
1040
1.0
1070
    74
1070
     0
1000
MTEXTEND
  0
POINT
  5
A027
330
9667
100
AcDbEntity
  8
DEFPOINTS
 62
     0
100
AcDbPoint
 10
236.1057846640633
 20
106.8605225652702
 30
0.0
  0
POINT
  5
A028
330
9667
100
AcDbEntity
  8
DEFPOINTS
 62
     0
100
AcDbPoint
 10
232.1057846640633
 20
108.8605225652702
 30
0.0
  0
POINT
  5
A029
330
9667
100
AcDbEntity
  8
DEFPOINTS
 62
     0
100
AcDbPoint
 10
245.8766421745454
 20
108.8605225652702
 30
0.0
  0
ENDBLK
  5
9673
330
9667
100
AcDbEntity
  8
0
100
AcDbBlockEnd
  0
BLOCK
  5
967F
330
9674
100
AcDbEntity
  8
0
100
AcDbBlockBegin
  2
*D16
 70
     1
 10
0.0
 20
0.0
 30
0.0
  3
*D16
  1

  0
LINE
  5
A004
330
9674
100
AcDbEntity
  8
SUNPOU
 62
     4
370
    -2
100
AcDbLine
 10
221.1572464999626
 20
138.8605225652702
 30
0.0
 11
262.2260377357786
 21
138.8605225652702
 31
0.0
  0
LINE
  5
A005
330
9674
100
AcDbEntity
  8
SUNPOU
 62
     4
370
    -2
100
AcDbLine
 10
228.4957846640627
 20
86.86052256527023
 30
0.0
 11
262.2260377357786
 21
86.86052256527023
 31
0.0
  0
LINE
  5
A006
330
9674
100
AcDbEntity
  8
SUNPOU
 62
     4
370
    -2
100
AcDbLine
 10
260.7260377357786
 20
135.8605225652702
 30
0.0
 11
260.7260377357786
 21
89.86052256527022
 31
0.0
  0
INSERT
  5
A007
330
9674
100
AcDbEntity
  8
SUNPOU
 62
     4
370
    -2
100
AcDbBlockReference
  2
_OPEN
 10
260.7260377357786
 20
138.8605225652702
 30
0.0
 41
3.0
 42
3.0
 43
3.0
 50
90.0
  0
INSERT
  5
A008
330
9674
100
AcDbEntity
  8
SUNPOU
 62
     4
370
    -2
100
AcDbBlockReference
  2
_OPEN
 10
260.7260377357786
 20
86.86052256527023
 30
0.0
 41
3.0
 42
3.0
 43
3.0
 50
270.0
  0
MTEXT
  5
A009
330
9674
100
AcDbEntity
  8
SUNPOU
 62
     4
100
AcDbMText
 10
258.2260377357786
 20
112.8605225652702
 30
0.0
 40
3.0
 41
0.0
 71
     5
 72
     5
  1
\A1;52
 11
0.0000000000000001
 21
1.0
 31
0.0
 73
     1
 44
1.0
1001
ACAD
1000
MTEXTBEGIN
1070
    73
1070
     1
1070
    44
1040
1.0
1070
    74
1070
     0
1000
MTEXTEND
  0
POINT
  5
A00A
330
9674
100
AcDbEntity
  8
DEFPOINTS
 62
     0
100
AcDbPoint
 10
218.1572464999626
 20
138.8605225652702
 30
0.0
  0
POINT
  5
A00B
330
9674
100
AcDbEntity
  8
DEFPOINTS
 62
     0
100
AcDbPoint
 10
225.4957846640627
 20
86.86052256527023
 30
0.0
  0
POINT
  5
A00C
330
9674
100
AcDbEntity
  8
DEFPOINTS
 62
     0
100
AcDbPoint
 10
260.7260377357786
 20
86.86052256527023
 30
0.0
  0
ENDBLK
  5
9680
330
9674
100
AcDbEntity
  8
0
100
AcDbBlockEnd
  0
BLOCK
  5
968C
330
9681
100
AcDbEntity
  8
0
100
AcDbBlockBegin
  2
*D17
 70
     1
 10
0.0
 20
0.0
 30
0.0
  3
*D17
  1

  0
LINE
  5
A070
330
9681
100
AcDbEntity
  8
SUNPOU
 62
     4
370
    -2
100
AcDbLine
 10
320.0025559910327
 20
160.6306116851292
 30
0.0
 11
320.0025559910327
 21
147.3127075350497
 31
0.0
  0
LINE
  5
A071
330
9681
100
AcDbEntity
  8
SUNPOU
 62
     4
370
    -2
100
AcDbLine
 10
366.0025559910327
 20
160.6306116851292
 30
0.0
 11
366.0025559910327
 21
147.3127075350497
 31
0.0
  0
LINE
  5
A072
330
9681
100
AcDbEntity
  8
SUNPOU
 62
     4
370
    -2
100
AcDbLine
 10
323.0025559910327
 20
148.8127075350497
 30
0.0
 11
363.0025559910327
 21
148.8127075350497
 31
0.0
  0
INSERT
  5
A073
330
9681
100
AcDbEntity
  8
SUNPOU
 62
     4
370
    -2
100
AcDbBlockReference
  2
_OPEN
 10
320.0025559910327
 20
148.8127075350497
 30
0.0
 41
3.0
 42
3.0
 43
3.0
 50
180.0
  0
INSERT
  5
A074
330
9681
100
AcDbEntity
  8
SUNPOU
 62
     4
370
    -2
100
AcDbBlockReference
  2
_OPEN
 10
366.0025559910327
 20
148.8127075350497
 30
0.0
 41
3.0
 42
3.0
 43
3.0
  0
MTEXT
  5
A075
330
9681
100
AcDbEntity
  8
SUNPOU
 62
     4
100
AcDbMText
 10
343.0025559910327
 20
151.3127075350497
 30
0.0
 40
3.0
 41
0.0
 71
     5
 72
     5
  1
\A1;φ46
 73
     1
 44
1.0
1001
ACAD
1000
MTEXTBEGIN
1070
    73
1070
     1
1070
    44
1040
1.0
1070
    74
1070
     0
1000
MTEXTEND
  0
POINT
  5
A076
330
9681
100
AcDbEntity
  8
DEFPOINTS
 62
     0
100
AcDbPoint
 10
320.0025559910327
 20
163.6306116851292
 30
0.0
  0
POINT
  5
A077
330
9681
100
AcDbEntity
  8
DEFPOINTS
 62
     0
100
AcDbPoint
 10
366.0025559910327
 20
163.6306116851292
 30
0.0
  0
POINT
  5
A078
330
9681
100
AcDbEntity
  8
DEFPOINTS
 62
     0
100
AcDbPoint
 10
366.0025559910327
 20
148.8127075350497
 30
0.0
  0
ENDBLK
  5
968D
330
9681
100
AcDbEntity
  8
0
100
AcDbBlockEnd
  0
BLOCK
  5
9695
330
968E
100
AcDbEntity
  8
0
100
AcDbBlockBegin
  2
*D18
 70
     1
 10
0.0
 20
0.0
 30
0.0
  3
*D18
  1

  0
LINE
  5
A3CD
330
968E
100
AcDbEntity
  8
SUNPOU
 62
     4
100
AcDbLine
 10
183.5801048735285
 20
204.9688799630332
 30
0.0
 11
217.3314644545951
 21
226.5848954707437
 31
0.0
  0
MTEXT
  5
A3CE
330
968E
100
AcDbEntity
  8
SUNPOU
 62
     4
100
AcDbMText
 10
213.791588517248
 20
228.1496442913803
 30
0.0
 40
3.0
 41
0.0
 71
     5
 72
     5
  1
\A1;\U+220546
 11
0.8420997899467622
 21
0.5393217442043473
 31
0.0
 73
     1
 44
1.0
  0
INSERT
  5
A3CF
330
968E
100
AcDbEntity
  8
SUNPOU
 62
     4
100
AcDbBlockReference
  2
_OPEN
 10
181.0538055036881
 20
203.3509147304201
 30
0.0
 41
3.0
 42
3.0
 43
3.0
 50
212.6374789642239
  0
INSERT
  5
A3D0
330
968E
100
AcDbEntity
  8
SUNPOU
 62
     4
100
AcDbBlockReference
  2
_OPEN
 10
219.8577638244354
 20
228.2028607033568
 30
0.0
 41
3.0
 42
3.0
 43
3.0
 50
32.63747896422398
  0
POINT
  5
A3D1
330
968E
100
AcDbEntity
  8
DEFPOINTS
 62
     0
100
AcDbPoint
 10
219.8577638244354
 20
228.2028607033568
 30
0.0
  0
POINT
  5
A3D2
330
968E
100
AcDbEntity
  8
DEFPOINTS
 62
     0
100
AcDbPoint
 10
181.0538055036881
 20
203.3509147304201
 30
0.0
  0
ENDBLK
  5
9696
330
968E
100
AcDbEntity
  8
0
100
AcDbBlockEnd
  0
ENDSEC
  0
SECTION
  2
ENTITIES
  0
LINE
  5
693
330
1A
100
AcDbEntity
  8
ZUWAKU
100
AcDbLine
 10
104.3233009104422
 20
7.599999547552665
 30
0.0
 11
223.7121822509039
 21
7.599999547552661
 31
0.0
  0
LINE
  5
694
330
1A
100
AcDbEntity
  8
ZUWAKU
100
AcDbLine
 10
104.3233009104422
 20
7.799999547552661
 30
0.0
 11
223.7121822509039
 21
7.799999547552666
 31
0.0
  0
LINE
  5
695
330
1A
100
AcDbEntity
  8
ZUWAKU
100
AcDbLine
 10
104.3233009104422
 20
7.699999547552661
 30
0.0
 11
223.7121822509039
 21
7.699999547552661
 31
0.0
  0
LINE
  5
696
330
1A
100
AcDbEntity
  8
ZUWAKU
100
AcDbLine
 10
0.0000002654082891
 20
15.39999954755265
 30
0.0
 11
398.7000002654082
 21
15.39999954755265
 31
0.0
  0
LINE
  5
697
330
1A
100
AcDbEntity
  8
ZUWAKU
100
AcDbLine
 10
0.0000002654082891
 20
15.29999954755265
 30
0.0
 11
398.7000002654082
 21
15.29999954755265
 31
0.0
  0
LINE
  5
698
330
1A
100
AcDbEntity
  8
ZUWAKU
100
AcDbLine
 10
0.0000002654082891
 20
15.19999954755265
 30
0.0
 11
398.7000002654082
 21
15.19999954755265
 31
0.0
  0
LINE
  5
699
330
1A
100
AcDbEntity
  8
ZUWAKU
100
AcDbLine
 10
0.0000002654082891
 20
15.09999954755264
 30
0.0
 11
398.7000002654082
 21
15.09999954755264
 31
0.0
  0
LINE
  5
69A
330
1A
100
AcDbEntity
  8
ZUWAKU
100
AcDbLine
 10
0.0000002654082891
 20
14.99999954755264
 30
0.0
 11
398.7000002654082
 21
14.99999954755264
 31
0.0
  0
LWPOLYLINE
  5
69B
330
1A
100
AcDbEntity
  8
ZUWAKU
100
AcDbPolyline
 90
        4
 70
     1
 43
0.0
 10
0.100000265408255
 20
275.6999995475526
 10
0.100000265408255
 20
0.0999995475526703
 10
398.7000002654082
 20
0.0999995475526818
 10
398.7000002654083
 20
275.6999995475526
  0
LWPOLYLINE
  5
69C
330
1A
100
AcDbEntity
  8
ZUWAKU
100
AcDbPolyline
 90
        4
 70
     1
 43
0.0
 10
0.3000002654082436
 20
275.4999995475527
 10
0.3000002654082436
 20
0.2999995475526589
 10
398.5000002654084
 20
0.299999547552682
 10
398.5000002654082
 20
275.4999995475527
  0
LWPOLYLINE
  5
69D
330
1A
100
AcDbEntity
  8
ZUWAKU
100
AcDbPolyline
 90
        4
 70
     1
 43
0.0
 10
0.0000002654082891
 20
275.7999995475526
 10
0.0000002654082891
 20
-0.0000004524473525
 10
398.8000002654083
 20
-0.0000004524473187
 10
398.8000002654083
 20
275.7999995475527
  0
LWPOLYLINE
  5
69E
330
1A
100
AcDbEntity
  8
ZUWAKU
100
AcDbPolyline
 90
        4
 70
     1
 43
0.0
 10
0.2000002654082777
 20
275.5999995475526
 10
0.2000002654082777
 20
0.199999547552693
 10
398.6000002654083
 20
0.1999995475526814
 10
398.6000002654083
 20
275.5999995475526
  0
LWPOLYLINE
  5
69F
330
1A
100
AcDbEntity
  8
ZUWAKU
100
AcDbPolyline
 90
        4
 70
     1
 43
0.0
 10
0.4000002654082664
 20
275.3999995475526
 10
0.4000002654082664
 20
0.3999995475526816
 10
398.4000002654082
 20
0.3999995475526816
 10
398.4000002654082
 20
275.3999995475526
  0
INSERT
  5
6A2
330
1A
100
AcDbEntity
  8
ZUWAKU
  6
Continuous
100
AcDbBlockReference
  2
*X1
 10
0.0
 20
0.0
 30
0.0
1001
ACAD
1000
HATCH
1002
{
1070
    19
1000
ANSI37
1040
0.1
1040
0.0
1000
R14_HATCH_DATA
1000
6A2
1011
1.0
1021
0.0
1031
0.0
1011
0.0
1021
1.0
1031
0.0
1011
0.0
1021
0.0
1031
1.0
1040
0.0
1010
0.0
1020
0.0
1030
1.0
1000
ANSI37
1070
     0
1070
     0
1071
        8
1071
        7
1070
     1
1070
     1
1071
       24
1040
7.251131595968215
1040
8.822423788044437
1040
-0.1989123673796348
1040
7.046106342798849
1040
9.317398534874961
1040
0.0
1040
7.046106342798849
1040
9.962499547552651
1040
-0.4142135623730912
1040
7.308606342798834
1040
10.22499954755264
1040
0.0
1040
8.796106342798788
1040
10.22499954755264
1040
0.4142135623731546
1040
9.058606342798841
1040
10.48749954755264
1040
0.0
1040
9.058606342798841
1040
11.36249954755265
1040
0.4142135623731586
1040
8.796106342798788
1040
11.62499954755264
1040
0.0
1040
7.046106342798849
1040
11.62499954755264
1040
0.4142135623730928
1040
5.646106342798869
1040
10.22499954755266
1040
0.0
1040
5.646106342798869
1040
9.317398534875026
1040
0.1989123673796619
1040
6.261182102307084
1040
7.832474294383221
1040
0.0
1040
7.716081089629423
1040
6.377575307060895
1040
-0.1989123673796613
1040
7.921106342798849
1040
5.882600560230301
1040
0.0
1040
7.921106342798849
1040
5.237499547552641
1040
-0.4142135623730911
1040
7.658606342798859
1040
4.974999547552648
1040
0.0
1040
6.171106342798904
1040
4.974999547552648
1040
0.4142135623731526
1040
5.908606342798859
1040
4.712499547552654
1040
0.0
1040
5.908606342798859
1040
3.837499547552643
1040
0.4142135623731526
1040
6.171106342798904
1040
3.574999547552649
1040
0.0
1040
7.921106342798849
1040
3.574999547552649
1040
0.4142135623731045
1040
9.321106342798886
1040
4.974999547552638
1040
0.0
1040
9.321106342798886
1040
5.882600560230271
1040
0.1989123673796604
1040
8.706030583290608
1040
7.367524800722041
1040
0.0
1071
        0
1071
        7
1070
     1
1070
     1
1071
       16
1040
11.77110634279886
1040
9.524999547552651
1040
-0.4142135623730935
1040
12.47110634279886
1040
10.22499954755264
1040
0.0
1040
13.43360634279884
1040
10.22499954755264
1040
0.4142135623731546
1040
13.69610634279888
1040
10.48749954755264
1040
0.0
1040
13.69610634279888
1040
11.36249954755265
1040
0.4142135623730951
1040
13.43360634279889
1040
11.62499954755264
1040
0.0
1040
12.4711063427988
1040
11.62499954755262
1040
0.4142135623730893
1040
10.37110634279883
1040
9.524999547552617
1040
0.0
1040
10.37110634279883
1040
5.674999547552661
1040
0.4142135623730969
1040
12.47110634279886
1040
3.574999547552649
1040
0.0
1040
13.43360634279884
1040
3.574999547552649
1040
0.4142135623731526
1040
13.69610634279888
1040
3.837499547552643
1040
0.0
1040
13.69610634279888
1040
4.712499547552654
1040
0.4142135623730891
1040
13.43360634279889
1040
4.974999547552648
1040
0.0
1040
12.47110634279886
1040
4.974999547552648
1040
-0.4142135623730928
1040
11.77110634279886
1040
5.674999547552641
1040
0.0
1071
        0
1071
        7
1070
     1
1070
     1
1071
        2
1040
12.12110634279884
1040
7.599999547552645
1040
1.0
1040
13.87110634279884
1040
7.599999547552645
1040
1.0
1071
        0
1071
        7
1070
     1
1070
     1
1071
       26
1040
18.65742958388784
1040
9.602523144334361
1040
0.0
1040
19.18824940045675
1040
11.28345256346915
1040
0.5069206636600134
1040
18.93793395085907
1040
11.62499954755264
1040
0.0
1040
18.08848926105445
1040
11.62499954755264
1040
0.3272098845218764
1040
17.83817381145678
1040
11.44154653163613
1040
0.0
1040
16.90403887414088
1040
8.483452563469185
1040
-0.3272098845219541
1040
16.65372342454315
1040
8.299999547552646
1040
0.0
1040
16.58360634279893
1040
8.299999547552646
1040
-0.4142135623731526
1040
16.32110634279888
1040
8.56249954755264
1040
0.0
1040
16.32110634279888
1040
11.36249954755265
1040
0.4142135623730951
1040
16.05860634279889
1040
11.62499954755264
1040
0.0
1040
15.18360634279883
1040
11.62499954755264
1040
0.4142135623730871
1040
14.92110634279885
1040
11.36249954755265
1040
0.0
1040
14.92110634279885
1040
3.837499547552643
1040
0.4142135623730891
1040
15.18360634279883
1040
3.574999547552649
1040
0.0
1040
16.05860634279884
1040
3.574999547552649
1040
0.4142135623731526
1040
16.32110634279888
1040
3.837499547552643
1040
0.0
1040
16.32110634279888
1040
6.63749954755265
1040
-0.4142135623731526
1040
16.58360634279893
1040
6.899999547552646
1040
0.0
1040
16.65372342454321
1040
6.899999547552646
1040
-0.3272098845218915
1040
16.90403887414088
1040
6.716546531636111
1040
0.0
1040
17.83817381145678
1040
3.758452563469185
1040
0.3272098845218902
1040
18.08848926105445
1040
3.574999547552649
1040
0.0
1040
18.93793395085907
1040
3.574999547552649
1040
0.5069206636600336
1040
19.18824940045675
1040
3.916546531636154
1040
0.0
1040
18.02505371121992
1040
7.599999547552716
1040
0.0
1071
        0
1071
        7
1070
     1
1070
     1
1071
        8
1040
21.74610634279883
1040
11.36249954755265
1040
0.4142135623731546
1040
21.48360634279879
1040
11.62499954755264
1040
0.0
1040
20.60860634279891
1040
11.62499954755264
1040
0.4142135623731507
1040
20.34610634279885
1040
11.36249954755265
1040
0.0
1040
20.34610634279885
1040
3.837499547552643
1040
0.4142135623731526
1040
20.60860634279891
1040
3.574999547552649
1040
0.0
1040
21.48360634279879
1040
3.574999547552649
1040
0.4142135623731526
1040
21.74610634279883
1040
3.837499547552643
1040
0.0
1071
        0
1071
        7
1070
     1
1070
     1
1071
       24
1040
24.19610634279888
1040
9.962499547552651
1040
-0.4142135623731546
1040
24.45860634279893
1040
10.22499954755264
1040
0.0
1040
25.94610634279888
1040
10.22499954755264
1040
0.4142135623730911
1040
26.20860634279887
1040
10.48749954755264
1040
0.0
1040
26.20860634279887
1040
11.36249954755265
1040
0.4142135623730952
1040
25.94610634279888
1040
11.62499954755264
1040
0.0
1040
24.19610634279888
1040
11.62499954755264
1040
0.4142135623731048
1040
22.79610634279884
1040
10.22499954755266
1040
0.0
1040
22.79610634279884
1040
9.317398534875026
1040
0.1989123673796613
1040
23.41118210230712
1040
7.832474294383251
1040
0.0
1040
24.86608108962945
1040
6.377575307060917
1040
-0.1989123673796402
1040
25.07110634279888
1040
5.882600560230381
1040
0.0
1040
25.07110634279888
1040
5.237499547552641
1040
-0.4142135623730911
1040
24.80860634279889
1040
4.974999547552648
1040
0.0
1040
23.32110634279888
1040
4.974999547552648
1040
0.4142135623731526
1040
23.05860634279884
1040
4.712499547552654
1040
0.0
1040
23.05860634279884
1040
3.837499547552643
1040
0.4142135623730891
1040
23.32110634279882
1040
3.574999547552649
1040
0.0
1040
25.07110634279888
1040
3.574999547552649
1040
0.4142135623730925
1040
26.47110634279886
1040
4.974999547552638
1040
0.0
1040
26.47110634279886
1040
5.882600560230271
1040
0.1989123673796675
1040
25.85603058329059
1040
7.367524800722101
1040
0.0
1040
24.4011315959683
1040
8.822423788044357
1040
-0.1989123673796652
1040
24.19610634279888
1040
9.317398534874939
1040
0.0
1071
        0
1071
        7
1070
     1
1070
     1
1071
       16
1040
28.92110634279885
1040
11.36249954755264
1040
0.414213562373103
1040
28.65860634279886
1040
11.62499954755264
1040
0.0
1040
27.78360634279886
1040
11.62499954755264
1040
0.4142135623730871
1040
27.52110634279887
1040
11.36249954755265
1040
0.0
1040
27.52110634279887
1040
4.974999547552638
1040
0.4142135623730927
1040
28.92110634279885
1040
3.574999547552649
1040
0.0
1040
30.67110634279885
1040
3.574999547552649
1040
0.4142135623731045
1040
32.07110634279888
1040
4.974999547552638
1040
0.0
1040
32.07110634279888
1040
11.36249954755265
1040
0.4142135623730951
1040
31.80860634279889
1040
11.62499954755264
1040
0.0
1040
30.93360634279884
1040
11.62499954755264
1040
0.4142135623730871
1040
30.67110634279885
1040
11.36249954755265
1040
0.0
1040
30.67110634279885
1040
5.499999547552635
1040
-0.4142135623730879
1040
30.14610634279887
1040
4.974999547552648
1040
0.0
1040
29.44610634279888
1040
4.974999547552648
1040
-0.4142135623731197
1040
28.92110634279885
1040
5.499999547552635
1040
0.0
1071
        0
1071
        7
1070
     1
1070
     1
1071
        8
1040
34.52110634279887
1040
11.36249954755265
1040
0.4142135623730871
1040
34.25860634279888
1040
11.62499954755264
1040
0.0
1040
33.38360634279888
1040
11.62499954755264
1040
0.4142135623731507
1040
33.12110634279884
1040
11.36249954755265
1040
0.0
1040
33.12110634279884
1040
3.837499547552643
1040
0.4142135623730891
1040
33.38360634279883
1040
3.574999547552649
1040
0.0
1040
34.25860634279888
1040
3.574999547552649
1040
0.4142135623730891
1040
34.52110634279887
1040
3.837499547552643
1040
0.0
1071
        0
1070
     0
1070
     1
1040
0.0
1040
0.1
1070
     0
1070
     2
1040
0.7853981633974483
1040
-450.4711519019312
1040
-6.600000452447313
1040
-0.2245064030267288
1040
0.2245064030267288
1070
     0
1040
2.356194490192344
1040
-450.4711519019312
1040
-6.600000452447313
1040
-0.2245064030267288
1040
-0.2245064030267288
1070
     0
1040
0.057451373970553
1071
        8
1040
8.039927746919939
1040
7.583586370495421
1040
0.0
1040
11.20225776862787
1040
9.422030638778151
1040
0.0
1040
12.58218420823811
1040
7.755940370588006
1040
0.0
1040
15.45703025622685
1040
8.100648370773395
1040
0.0
1040
20.91923627488665
1040
8.330454504544206
1040
0.0
1040
23.44910071297306
1040
9.709287705756251
1040
0.0
1040
28.27884325160846
1040
9.364578505100151
1040
0.0
1040
33.91354007521965
1040
9.594384638870961
1040
0.0
1002
}
  0
LINE
  5
6A3
330
1A
100
AcDbEntity
  8
ZUWAKU
100
AcDbLine
 10
12.47110634279886
 20
11.62499954755262
 30
0.0
 11
13.43360634279884
 21
11.62499954755264
 31
0.0
  0
LINE
  5
6A4
330
1A
100
AcDbEntity
  8
ZUWAKU
100
AcDbLine
 10
13.43360634279884
 20
10.22499954755264
 30
0.0
 11
12.47110634279886
 21
10.22499954755264
 31
0.0
  0
LINE
  5
6A5
330
1A
100
AcDbEntity
  8
ZUWAKU
100
AcDbLine
 10
12.47110634279886
 20
4.974999547552648
 30
0.0
 11
13.43360634279884
 21
4.974999547552648
 31
0.0
  0
LINE
  5
6A6
330
1A
100
AcDbEntity
  8
ZUWAKU
100
AcDbLine
 10
13.43360634279884
 20
3.574999547552649
 30
0.0
 11
12.47110634279886
 21
3.574999547552649
 31
0.0
  0
CIRCLE
  5
6A7
330
1A
100
AcDbEntity
  8
ZUWAKU
100
AcDbCircle
 10
12.99610634279883
 20
7.599999547552645
 30
0.0
 40
0.875
  0
ARC
  5
6A8
330
1A
100
AcDbEntity
  8
ZUWAKU
100
AcDbCircle
 10
7.746106342798839
 20
9.317398534874994
 30
0.0
 40
0.6999999999999995
100
AcDbArc
 50
180.0000000000015
 51
224.9999999999988
  0
LINE
  5
6A9
330
1A
100
AcDbEntity
  8
ZUWAKU
100
AcDbLine
 10
11.77110634279886
 20
9.524999547552646
 30
0.0
 11
11.77110634279886
 21
5.67499954755265
 31
0.0
  0
LINE
  5
6AA
330
1A
100
AcDbEntity
  8
ZUWAKU
100
AcDbLine
 10
10.37110634279883
 20
5.67499954755265
 30
0.0
 11
10.37110634279883
 21
9.524999547552626
 31
0.0
  0
ARC
  5
6AB
330
1A
100
AcDbEntity
  8
ZUWAKU
100
AcDbCircle
 10
7.746106342798839
 20
9.317398534874994
 30
0.0
 40
2.099999999999999
100
AcDbArc
 50
180.0
 51
225.0
  0
ARC
  5
6AC
330
1A
100
AcDbEntity
  8
ZUWAKU
100
AcDbCircle
 10
7.921106342798849
 20
4.974999547552648
 30
0.0
 40
1.399999999999999
100
AcDbArc
 50
270.0
 51
0.0
  0
ARC
  5
6AD
330
1A
100
AcDbEntity
  8
ZUWAKU
100
AcDbCircle
 10
12.47110634279886
 20
5.67499954755265
 30
0.0
 40
2.099999999999999
100
AcDbArc
 50
180.0
 51
270.0
  0
ARC
  5
6AE
330
1A
100
AcDbEntity
  8
ZUWAKU
100
AcDbCircle
 10
7.221106342798859
 20
5.882600560230301
 30
0.0
 40
2.099999999999999
100
AcDbArc
 50
0.0
 51
45.0
  0
LINE
  5
6AF
330
1A
100
AcDbEntity
  8
ZUWAKU
100
AcDbLine
 10
8.706030583290608
 20
7.36752480072206
 30
0.0
 11
7.251131595968269
 21
8.822423788044396
 31
0.0
  0
LINE
  5
6B0
330
1A
100
AcDbEntity
  8
ZUWAKU
100
AcDbLine
 10
7.921106342798849
 20
5.23749954755265
 30
0.0
 11
7.921106342798849
 21
5.88260056023032
 31
0.0
  0
ARC
  5
6B1
330
1A
100
AcDbEntity
  8
ZUWAKU
100
AcDbCircle
 10
7.658606342798859
 20
5.23749954755265
 30
0.0
 40
0.2625
100
AcDbArc
 50
270.0
 51
0.0
  0
ARC
  5
6B2
330
1A
100
AcDbEntity
  8
ZUWAKU
100
AcDbCircle
 10
7.221106342798859
 20
5.88260056023032
 30
0.0
 40
0.6999999999999995
100
AcDbArc
 50
0.0
 51
45.0
  0
LINE
  5
6B3
330
1A
100
AcDbEntity
  8
ZUWAKU
100
AcDbLine
 10
5.908606342798859
 20
3.837499547552649
 30
0.0
 11
5.908606342798859
 21
4.712499547552648
 31
0.0
  0
ARC
  5
6B4
330
1A
100
AcDbEntity
  8
ZUWAKU
100
AcDbCircle
 10
6.171106342798849
 20
3.837499547552649
 30
0.0
 40
0.2625
100
AcDbArc
 50
180.0
 51
270.0
  0
ARC
  5
6B5
330
1A
100
AcDbEntity
  8
ZUWAKU
100
AcDbCircle
 10
6.171106342798849
 20
4.712499547552648
 30
0.0
 40
0.2625
100
AcDbArc
 50
90.0
 51
180.0
  0
LINE
  5
6B6
330
1A
100
AcDbEntity
  8
ZUWAKU
100
AcDbLine
 10
6.171106342798849
 20
3.574999547552649
 30
0.0
 11
7.921106342798849
 21
3.574999547552649
 31
0.0
  0
LINE
  5
6B7
330
1A
100
AcDbEntity
  8
ZUWAKU
100
AcDbLine
 10
6.171106342798849
 20
4.974999547552648
 30
0.0
 11
7.658606342798859
 21
4.974999547552648
 31
0.0
  0
LINE
  5
6B8
330
1A
100
AcDbEntity
  8
ZUWAKU
100
AcDbLine
 10
6.261182102307084
 20
7.832474294383235
 30
0.0
 11
7.716081089629423
 21
6.377575307060906
 31
0.0
  0
LINE
  5
6B9
330
1A
100
AcDbEntity
  8
ZUWAKU
100
AcDbLine
 10
9.321106342798886
 20
4.974999547552648
 30
0.0
 11
9.321106342798886
 21
5.88260056023032
 31
0.0
  0
ARC
  5
6BA
330
1A
100
AcDbEntity
  8
ZUWAKU
100
AcDbCircle
 10
12.47110634279886
 20
5.67499954755265
 30
0.0
 40
0.6999999999999995
100
AcDbArc
 50
180.0
 51
270.0
  0
ARC
  5
6BB
330
1A
100
AcDbEntity
  8
ZUWAKU
100
AcDbCircle
 10
8.79610634279885
 20
11.36249954755264
 30
0.0
 40
0.2625
100
AcDbArc
 50
0.0
 51
90.0
  0
ARC
  5
6BC
330
1A
100
AcDbEntity
  8
ZUWAKU
100
AcDbCircle
 10
8.79610634279885
 20
10.48749954755264
 30
0.0
 40
0.2625
100
AcDbArc
 50
270.0
 51
0.0
  0
LINE
  5
6BD
330
1A
100
AcDbEntity
  8
ZUWAKU
100
AcDbLine
 10
7.046106342798849
 20
11.62499954755264
 30
0.0
 11
8.79610634279885
 21
11.62499954755264
 31
0.0
  0
ARC
  5
6BE
330
1A
100
AcDbEntity
  8
ZUWAKU
100
AcDbCircle
 10
7.308606342798834
 20
9.962499547552646
 30
0.0
 40
0.2625
100
AcDbArc
 50
90.0
 51
180.0
  0
LINE
  5
6BF
330
1A
100
AcDbEntity
  8
ZUWAKU
100
AcDbLine
 10
7.046106342798849
 20
9.962499547552646
 30
0.0
 11
7.046106342798849
 21
9.317398534874977
 31
0.0
  0
LINE
  5
6C0
330
1A
100
AcDbEntity
  8
ZUWAKU
100
AcDbLine
 10
8.79610634279885
 20
10.22499954755264
 30
0.0
 11
7.308606342798834
 21
10.22499954755264
 31
0.0
  0
LINE
  5
6C1
330
1A
100
AcDbEntity
  8
ZUWAKU
100
AcDbLine
 10
5.646106342798869
 20
10.22499954755264
 30
0.0
 11
5.646106342798869
 21
9.317398534874977
 31
0.0
  0
ARC
  5
6C2
330
1A
100
AcDbEntity
  8
ZUWAKU
100
AcDbCircle
 10
7.046106342798849
 20
10.22499954755264
 30
0.0
 40
1.399999999999999
100
AcDbArc
 50
90.0
 51
180.0
  0
LINE
  5
6C3
330
1A
100
AcDbEntity
  8
ZUWAKU
100
AcDbLine
 10
9.058606342798841
 20
11.36249954755264
 30
0.0
 11
9.058606342798841
 21
10.48749954755264
 31
0.0
  0
ARC
  5
6C4
330
1A
100
AcDbEntity
  8
ZUWAKU
100
AcDbCircle
 10
12.47110634279886
 20
9.524999547552646
 30
0.0
 40
0.6999999999999995
100
AcDbArc
 50
90.0
 51
180.0
  0
ARC
  5
6C5
330
1A
100
AcDbEntity
  8
ZUWAKU
100
AcDbCircle
 10
12.47110634279886
 20
9.524999547552626
 30
0.0
 40
2.099999999999999
100
AcDbArc
 50
90.0
 51
180.0
  0
LINE
  5
6C6
330
1A
100
AcDbEntity
  8
ZUWAKU
100
AcDbLine
 10
39.66331503940239
 20
14.99999954755264
 30
0.0
 11
39.6633150394025
 21
0.3999995475526816
 31
0.0
  0
LINE
  5
6C7
330
1A
100
AcDbEntity
  8
ZUWAKU
100
AcDbLine
 10
39.76331503940241
 20
14.99999954755264
 30
0.0
 11
39.76331503940252
 21
0.3999995475526816
 31
0.0
  0
LINE
  5
6C8
330
1A
100
AcDbEntity
  8
ZUWAKU
100
AcDbLine
 10
39.56331503940248
 20
14.99999954755264
 30
0.0
 11
39.56331503940248
 21
0.3999995475526816
 31
0.0
  0
LINE
  5
6C9
330
1A
100
AcDbEntity
  8
ZUWAKU
100
AcDbLine
 10
32.07110634279888
 20
4.974999547552648
 30
0.0
 11
32.07110634279888
 21
11.36249954755264
 31
0.0
  0
LINE
  5
6CA
330
1A
100
AcDbEntity
  8
ZUWAKU
100
AcDbLine
 10
30.67110634279885
 20
11.36249954755264
 30
0.0
 11
30.67110634279885
 21
5.499999547552645
 31
0.0
  0
LINE
  5
6CB
330
1A
100
AcDbEntity
  8
ZUWAKU
100
AcDbLine
 10
34.52110634279887
 20
3.837499547552649
 30
0.0
 11
34.52110634279887
 21
11.36249954755264
 31
0.0
  0
LINE
  5
6CC
330
1A
100
AcDbEntity
  8
ZUWAKU
100
AcDbLine
 10
33.12110634279884
 20
11.36249954755264
 30
0.0
 11
33.12110634279884
 21
3.837499547552649
 31
0.0
  0
ARC
  5
6CD
330
1A
100
AcDbEntity
  8
ZUWAKU
100
AcDbCircle
 10
24.89610634279887
 20
9.317398534874994
 30
0.0
 40
0.6999999999999995
100
AcDbArc
 50
180.0000000000015
 51
224.9999999999988
  0
ARC
  5
6CE
330
1A
100
AcDbEntity
  8
ZUWAKU
100
AcDbCircle
 10
24.89610634279887
 20
9.317398534874994
 30
0.0
 40
2.099999999999999
100
AcDbArc
 50
180.0
 51
225.0
  0
LINE
  5
6CF
330
1A
100
AcDbEntity
  8
ZUWAKU
100
AcDbLine
 10
18.65742958388784
 20
9.602523144334361
 30
0.0
 11
18.02505371121992
 21
7.599999547552655
 31
0.0
  0
LINE
  5
6D0
330
1A
100
AcDbEntity
  8
ZUWAKU
100
AcDbLine
 10
20.34610634279885
 20
11.36249954755264
 30
0.0
 11
20.34610634279885
 21
3.837499547552649
 31
0.0
  0
LINE
  5
6D1
330
1A
100
AcDbEntity
  8
ZUWAKU
100
AcDbLine
 10
21.74610634279883
 20
3.837499547552649
 30
0.0
 11
21.74610634279883
 21
11.36249954755264
 31
0.0
  0
LINE
  5
6D2
330
1A
100
AcDbEntity
  8
ZUWAKU
100
AcDbLine
 10
27.52110634279887
 20
11.36249954755264
 30
0.0
 11
27.52110634279887
 21
4.974999547552648
 31
0.0
  0
LINE
  5
6D3
330
1A
100
AcDbEntity
  8
ZUWAKU
100
AcDbLine
 10
28.92110634279885
 20
5.499999547552645
 30
0.0
 11
28.92110634279885
 21
11.36249954755264
 31
0.0
  0
LINE
  5
6D4
330
1A
100
AcDbEntity
  8
ZUWAKU
100
AcDbLine
 10
16.32110634279888
 20
8.562499547552651
 30
0.0
 11
16.32110634279888
 21
11.36249954755264
 31
0.0
  0
LINE
  5
6D5
330
1A
100
AcDbEntity
  8
ZUWAKU
100
AcDbLine
 10
14.92110634279885
 20
11.36249954755264
 30
0.0
 11
14.92110634279885
 21
3.837499547552649
 31
0.0
  0
LINE
  5
6D6
330
1A
100
AcDbEntity
  8
ZUWAKU
100
AcDbLine
 10
17.83817381145678
 20
11.44154653163613
 30
0.0
 11
16.90403887414088
 21
8.48345256346916
 31
0.0
  0
LINE
  5
6D7
330
1A
100
AcDbEntity
  8
ZUWAKU
100
AcDbLine
 10
30.14610634279887
 20
4.974999547552648
 30
0.0
 11
29.44610634279888
 21
4.974999547552648
 31
0.0
  0
LINE
  5
6D8
330
1A
100
AcDbEntity
  8
ZUWAKU
100
AcDbLine
 10
28.92110634279885
 20
3.574999547552649
 30
0.0
 11
30.67110634279885
 21
3.574999547552649
 31
0.0
  0
LINE
  5
6D9
330
1A
100
AcDbEntity
  8
ZUWAKU
100
AcDbLine
 10
20.60860634279884
 20
3.574999547552649
 30
0.0
 11
21.48360634279885
 21
3.574999547552649
 31
0.0
  0
LINE
  5
6DA
330
1A
100
AcDbEntity
  8
ZUWAKU
100
AcDbLine
 10
17.83817381145678
 20
3.758452563469162
 30
0.0
 11
16.90403887414088
 21
6.716546531636131
 31
0.0
  0
ARC
  5
6DB
330
1A
100
AcDbEntity
  8
ZUWAKU
100
AcDbCircle
 10
16.65372342454321
 20
8.562499547552651
 30
0.0
 40
0.2625
100
AcDbArc
 50
270.0
 51
342.4744316262769
  0
LINE
  5
6DC
330
1A
100
AcDbEntity
  8
ZUWAKU
100
AcDbLine
 10
16.65372342454321
 20
8.299999547552646
 30
0.0
 11
16.58360634279887
 21
8.299999547552646
 31
0.0
  0
LINE
  5
6DD
330
1A
100
AcDbEntity
  8
ZUWAKU
100
AcDbLine
 10
16.58360634279887
 20
6.899999547552646
 30
0.0
 11
16.65372342454321
 21
6.899999547552646
 31
0.0
  0
ARC
  5
6DE
330
1A
100
AcDbEntity
  8
ZUWAKU
100
AcDbCircle
 10
16.58360634279887
 20
8.562499547552651
 30
0.0
 40
0.2625
100
AcDbArc
 50
180.0
 51
270.0
  0
LINE
  5
6DF
330
1A
100
AcDbEntity
  8
ZUWAKU
100
AcDbLine
 10
15.18360634279883
 20
3.574999547552649
 30
0.0
 11
16.05860634279884
 21
3.574999547552649
 31
0.0
  0
ARC
  5
6E0
330
1A
100
AcDbEntity
  8
ZUWAKU
100
AcDbCircle
 10
16.05860634279884
 20
3.837499547552649
 30
0.0
 40
0.2625
100
AcDbArc
 50
270.0
 51
0.0
  0
LINE
  5
6E1
330
1A
100
AcDbEntity
  8
ZUWAKU
100
AcDbLine
 10
16.32110634279888
 20
3.837499547552649
 30
0.0
 11
16.32110634279888
 21
6.637499547552645
 31
0.0
  0
LINE
  5
6E2
330
1A
100
AcDbEntity
  8
ZUWAKU
100
AcDbLine
 10
13.69610634279888
 20
4.712499547552648
 30
0.0
 11
13.69610634279888
 21
3.837499547552649
 31
0.0
  0
ARC
  5
6E3
330
1A
100
AcDbEntity
  8
ZUWAKU
100
AcDbCircle
 10
13.43360634279884
 20
3.837499547552649
 30
0.0
 40
0.2625
100
AcDbArc
 50
270.0
 51
0.0
  0
ARC
  5
6E4
330
1A
100
AcDbEntity
  8
ZUWAKU
100
AcDbCircle
 10
13.43360634279884
 20
4.712499547552648
 30
0.0
 40
0.2625
100
AcDbArc
 50
0.0
 51
90.0
  0
ARC
  5
6E5
330
1A
100
AcDbEntity
  8
ZUWAKU
100
AcDbCircle
 10
15.18360634279883
 20
3.837499547552649
 30
0.0
 40
0.2625
100
AcDbArc
 50
180.0
 51
270.0
  0
ARC
  5
6E6
330
1A
100
AcDbEntity
  8
ZUWAKU
100
AcDbCircle
 10
16.65372342454321
 20
6.637499547552645
 30
0.0
 40
0.2625
100
AcDbArc
 50
17.52556837372303
 51
90.0
  0
ARC
  5
6E7
330
1A
100
AcDbEntity
  8
ZUWAKU
100
AcDbCircle
 10
16.58360634279887
 20
6.637499547552645
 30
0.0
 40
0.2625
100
AcDbArc
 50
90.0
 51
180.0
  0
ARC
  5
6E8
330
1A
100
AcDbEntity
  8
ZUWAKU
100
AcDbCircle
 10
20.60860634279884
 20
3.837499547552649
 30
0.0
 40
0.2625
100
AcDbArc
 50
180.0
 51
270.0
  0
LINE
  5
6E9
330
1A
100
AcDbEntity
  8
ZUWAKU
100
AcDbLine
 10
18.08848926105451
 20
3.574999547552649
 30
0.0
 11
18.93793395085902
 21
3.574999547552649
 31
0.0
  0
ARC
  5
6EA
330
1A
100
AcDbEntity
  8
ZUWAKU
100
AcDbCircle
 10
18.93793395085902
 20
3.837499547552649
 30
0.0
 40
0.2625
100
AcDbArc
 50
270.0
 51
17.52556837372303
  0
LINE
  5
6EB
330
1A
100
AcDbEntity
  8
ZUWAKU
100
AcDbLine
 10
19.18824940045675
 20
3.916546531636136
 30
0.0
 11
18.02505371121992
 21
7.599999547552655
 31
0.0
  0
ARC
  5
6EC
330
1A
100
AcDbEntity
  8
ZUWAKU
100
AcDbCircle
 10
18.08848926105451
 20
3.837499547552649
 30
0.0
 40
0.2625
100
AcDbArc
 50
197.5255683737229
 51
270.0
  0
ARC
  5
6ED
330
1A
100
AcDbEntity
  8
ZUWAKU
100
AcDbCircle
 10
28.92110634279885
 20
4.974999547552648
 30
0.0
 40
1.399999999999999
100
AcDbArc
 50
180.0
 51
270.0
  0
ARC
  5
6EE
330
1A
100
AcDbEntity
  8
ZUWAKU
100
AcDbCircle
 10
25.07110634279888
 20
4.974999547552648
 30
0.0
 40
1.399999999999999
100
AcDbArc
 50
270.0
 51
0.0
  0
LINE
  5
6EF
330
1A
100
AcDbEntity
  8
ZUWAKU
100
AcDbLine
 10
25.85603058329064
 20
7.36752480072206
 30
0.0
 11
24.40113159596825
 21
8.822423788044396
 31
0.0
  0
LINE
  5
6F0
330
1A
100
AcDbEntity
  8
ZUWAKU
100
AcDbLine
 10
25.07110634279888
 20
5.23749954755265
 30
0.0
 11
25.07110634279888
 21
5.88260056023032
 31
0.0
  0
ARC
  5
6F1
330
1A
100
AcDbEntity
  8
ZUWAKU
100
AcDbCircle
 10
24.37110634279884
 20
5.88260056023032
 30
0.0
 40
0.6999999999999995
100
AcDbArc
 50
0.0
 51
45.0
  0
ARC
  5
6F2
330
1A
100
AcDbEntity
  8
ZUWAKU
100
AcDbCircle
 10
24.80860634279884
 20
5.23749954755265
 30
0.0
 40
0.2625
100
AcDbArc
 50
270.0
 51
0.0
  0
LINE
  5
6F3
330
1A
100
AcDbEntity
  8
ZUWAKU
100
AcDbLine
 10
23.05860634279884
 20
3.837499547552649
 30
0.0
 11
23.05860634279884
 21
4.712499547552648
 31
0.0
  0
ARC
  5
6F4
330
1A
100
AcDbEntity
  8
ZUWAKU
100
AcDbCircle
 10
23.32110634279888
 20
3.837499547552649
 30
0.0
 40
0.2625
100
AcDbArc
 50
180.0
 51
270.0
  0
ARC
  5
6F5
330
1A
100
AcDbEntity
  8
ZUWAKU
100
AcDbCircle
 10
21.48360634279885
 20
3.837499547552649
 30
0.0
 40
0.2625
100
AcDbArc
 50
270.0
 51
0.0
  0
ARC
  5
6F6
330
1A
100
AcDbEntity
  8
ZUWAKU
100
AcDbCircle
 10
23.32110634279888
 20
4.712499547552648
 30
0.0
 40
0.2625
100
AcDbArc
 50
90.0
 51
180.0
  0
LINE
  5
6F7
330
1A
100
AcDbEntity
  8
ZUWAKU
100
AcDbLine
 10
23.32110634279888
 20
4.974999547552648
 30
0.0
 11
24.80860634279884
 21
4.974999547552648
 31
0.0
  0
LINE
  5
6F8
330
1A
100
AcDbEntity
  8
ZUWAKU
100
AcDbLine
 10
23.32110634279888
 20
3.574999547552649
 30
0.0
 11
25.07110634279888
 21
3.574999547552649
 31
0.0
  0
LINE
  5
6F9
330
1A
100
AcDbEntity
  8
ZUWAKU
100
AcDbLine
 10
23.41118210230712
 20
7.832474294383235
 30
0.0
 11
24.86608108962945
 21
6.377575307060906
 31
0.0
  0
LINE
  5
6FA
330
1A
100
AcDbEntity
  8
ZUWAKU
100
AcDbLine
 10
26.47110634279886
 20
4.974999547552648
 30
0.0
 11
26.47110634279886
 21
5.88260056023032
 31
0.0
  0
ARC
  5
6FB
330
1A
100
AcDbEntity
  8
ZUWAKU
100
AcDbCircle
 10
24.37110634279884
 20
5.882600560230301
 30
0.0
 40
2.099999999999999
100
AcDbArc
 50
0.0
 51
45.0
  0
ARC
  5
6FC
330
1A
100
AcDbEntity
  8
ZUWAKU
100
AcDbCircle
 10
29.44610634279888
 20
5.499999547552645
 30
0.0
 40
0.5249999999999995
100
AcDbArc
 50
180.0
 51
270.0
  0
ARC
  5
6FD
330
1A
100
AcDbEntity
  8
ZUWAKU
100
AcDbCircle
 10
30.67110634279885
 20
4.974999547552648
 30
0.0
 40
1.399999999999999
100
AcDbArc
 50
270.0
 51
0.0
  0
LINE
  5
6FE
330
1A
100
AcDbEntity
  8
ZUWAKU
100
AcDbLine
 10
33.38360634279888
 20
3.574999547552649
 30
0.0
 11
34.25860634279888
 21
3.574999547552649
 31
0.0
  0
ARC
  5
6FF
330
1A
100
AcDbEntity
  8
ZUWAKU
100
AcDbCircle
 10
33.38360634279888
 20
3.837499547552649
 30
0.0
 40
0.2625
100
AcDbArc
 50
180.0
 51
270.0
  0
ARC
  5
700
330
1A
100
AcDbEntity
  8
ZUWAKU
100
AcDbCircle
 10
30.14610634279887
 20
5.499999547552645
 30
0.0
 40
0.5249999999999995
100
AcDbArc
 50
270.0
 51
0.0
  0
ARC
  5
701
330
1A
100
AcDbEntity
  8
ZUWAKU
100
AcDbCircle
 10
34.25860634279888
 20
3.837499547552649
 30
0.0
 40
0.2625
100
AcDbArc
 50
270.0
 51
0.0
  0
LINE
  5
702
330
1A
100
AcDbEntity
  8
ZUWAKU
100
AcDbLine
 10
21.48360634279885
 20
11.62499954755264
 30
0.0
 11
20.60860634279884
 21
11.62499954755264
 31
0.0
  0
ARC
  5
703
330
1A
100
AcDbEntity
  8
ZUWAKU
100
AcDbCircle
 10
16.05860634279884
 20
11.36249954755264
 30
0.0
 40
0.2625
100
AcDbArc
 50
0.0
 51
90.0
  0
LINE
  5
704
330
1A
100
AcDbEntity
  8
ZUWAKU
100
AcDbLine
 10
16.05860634279884
 20
11.62499954755264
 30
0.0
 11
15.18360634279883
 21
11.62499954755264
 31
0.0
  0
ARC
  5
705
330
1A
100
AcDbEntity
  8
ZUWAKU
100
AcDbCircle
 10
13.43360634279884
 20
11.36249954755264
 30
0.0
 40
0.2625
100
AcDbArc
 50
0.0
 51
90.0
  0
ARC
  5
706
330
1A
100
AcDbEntity
  8
ZUWAKU
100
AcDbCircle
 10
15.18360634279883
 20
11.36249954755264
 30
0.0
 40
0.2625
100
AcDbArc
 50
90.0
 51
180.0
  0
ARC
  5
707
330
1A
100
AcDbEntity
  8
ZUWAKU
100
AcDbCircle
 10
13.43360634279884
 20
10.48749954755264
 30
0.0
 40
0.2625
100
AcDbArc
 50
270.0
 51
0.0
  0
LINE
  5
708
330
1A
100
AcDbEntity
  8
ZUWAKU
100
AcDbLine
 10
13.69610634279888
 20
11.36249954755264
 30
0.0
 11
13.69610634279888
 21
10.48749954755264
 31
0.0
  0
ARC
  5
709
330
1A
100
AcDbEntity
  8
ZUWAKU
100
AcDbCircle
 10
20.60860634279884
 20
11.36249954755264
 30
0.0
 40
0.2625
100
AcDbArc
 50
90.0
 51
180.0
  0
LINE
  5
70A
330
1A
100
AcDbEntity
  8
ZUWAKU
100
AcDbLine
 10
18.08848926105451
 20
11.62499954755264
 30
0.0
 11
18.93793395085902
 21
11.62499954755264
 31
0.0
  0
ARC
  5
70B
330
1A
100
AcDbEntity
  8
ZUWAKU
100
AcDbCircle
 10
18.93793395085902
 20
11.36249954755264
 30
0.0
 40
0.2625
100
AcDbArc
 50
342.4744316262769
 51
90.0
  0
LINE
  5
70C
330
1A
100
AcDbEntity
  8
ZUWAKU
100
AcDbLine
 10
19.18824940045675
 20
11.28345256346916
 30
0.0
 11
18.65742958388784
 21
9.602523144334361
 31
0.0
  0
ARC
  5
70D
330
1A
100
AcDbEntity
  8
ZUWAKU
100
AcDbCircle
 10
18.08848926105451
 20
11.36249954755264
 30
0.0
 40
0.2625
100
AcDbArc
 50
90.0
 51
162.4744316262769
  0
LINE
  5
70E
330
1A
100
AcDbEntity
  8
ZUWAKU
100
AcDbLine
 10
24.19610634279888
 20
11.62499954755264
 30
0.0
 11
25.94610634279888
 21
11.62499954755264
 31
0.0
  0
LINE
  5
70F
330
1A
100
AcDbEntity
  8
ZUWAKU
100
AcDbLine
 10
25.94610634279888
 20
10.22499954755264
 30
0.0
 11
24.45860634279886
 21
10.22499954755264
 31
0.0
  0
ARC
  5
710
330
1A
100
AcDbEntity
  8
ZUWAKU
100
AcDbCircle
 10
24.45860634279886
 20
9.962499547552646
 30
0.0
 40
0.2625
100
AcDbArc
 50
90.0
 51
180.0
  0
LINE
  5
711
330
1A
100
AcDbEntity
  8
ZUWAKU
100
AcDbLine
 10
24.19610634279888
 20
9.962499547552646
 30
0.0
 11
24.19610634279888
 21
9.317398534874977
 31
0.0
  0
ARC
  5
712
330
1A
100
AcDbEntity
  8
ZUWAKU
100
AcDbCircle
 10
21.48360634279885
 20
11.36249954755264
 30
0.0
 40
0.2625
100
AcDbArc
 50
0.0
 51
90.0
  0
LINE
  5
713
330
1A
100
AcDbEntity
  8
ZUWAKU
100
AcDbLine
 10
22.79610634279884
 20
10.22499954755264
 30
0.0
 11
22.79610634279884
 21
9.317398534874977
 31
0.0
  0
ARC
  5
714
330
1A
100
AcDbEntity
  8
ZUWAKU
100
AcDbCircle
 10
24.19610634279888
 20
10.22499954755264
 30
0.0
 40
1.399999999999999
100
AcDbArc
 50
90.0
 51
180.0
  0
ARC
  5
715
330
1A
100
AcDbEntity
  8
ZUWAKU
100
AcDbCircle
 10
28.65860634279886
 20
11.36249954755264
 30
0.0
 40
0.2625
100
AcDbArc
 50
0.0
 51
90.0
  0
ARC
  5
716
330
1A
100
AcDbEntity
  8
ZUWAKU
100
AcDbCircle
 10
27.78360634279886
 20
11.36249954755264
 30
0.0
 40
0.2625
100
AcDbArc
 50
90.0
 51
180.0
  0
LINE
  5
717
330
1A
100
AcDbEntity
  8
ZUWAKU
100
AcDbLine
 10
28.65860634279886
 20
11.62499954755264
 30
0.0
 11
27.78360634279886
 21
11.62499954755264
 31
0.0
  0
ARC
  5
718
330
1A
100
AcDbEntity
  8
ZUWAKU
100
AcDbCircle
 10
25.94610634279888
 20
11.36249954755264
 30
0.0
 40
0.2625
100
AcDbArc
 50
0.0
 51
90.0
  0
ARC
  5
719
330
1A
100
AcDbEntity
  8
ZUWAKU
100
AcDbCircle
 10
25.94610634279888
 20
10.48749954755264
 30
0.0
 40
0.2625
100
AcDbArc
 50
270.0
 51
0.0
  0
LINE
  5
71A
330
1A
100
AcDbEntity
  8
ZUWAKU
100
AcDbLine
 10
26.20860634279887
 20
11.36249954755264
 30
0.0
 11
26.20860634279887
 21
10.48749954755264
 31
0.0
  0
LINE
  5
71B
330
1A
100
AcDbEntity
  8
ZUWAKU
100
AcDbLine
 10
34.25860634279888
 20
11.62499954755264
 30
0.0
 11
33.38360634279888
 21
11.62499954755264
 31
0.0
  0
ARC
  5
71C
330
1A
100
AcDbEntity
  8
ZUWAKU
100
AcDbCircle
 10
33.38360634279888
 20
11.36249954755264
 30
0.0
 40
0.2625
100
AcDbArc
 50
90.0
 51
180.0
  0
ARC
  5
71D
330
1A
100
AcDbEntity
  8
ZUWAKU
100
AcDbCircle
 10
31.80860634279884
 20
11.36249954755264
 30
0.0
 40
0.2625
100
AcDbArc
 50
0.0
 51
90.0
  0
LINE
  5
71E
330
1A
100
AcDbEntity
  8
ZUWAKU
100
AcDbLine
 10
31.80860634279884
 20
11.62499954755264
 30
0.0
 11
30.93360634279884
 21
11.62499954755264
 31
0.0
  0
ARC
  5
71F
330
1A
100
AcDbEntity
  8
ZUWAKU
100
AcDbCircle
 10
30.93360634279884
 20
11.36249954755264
 30
0.0
 40
0.2625
100
AcDbArc
 50
90.0
 51
180.0
  0
ARC
  5
720
330
1A
100
AcDbEntity
  8
ZUWAKU
100
AcDbCircle
 10
34.25860634279888
 20
11.36249954755264
 30
0.0
 40
0.2625
100
AcDbArc
 50
0.0
 51
90.0
  0
LINE
  5
722
330
1A
100
AcDbEntity
  8
ZUWAKU
100
AcDbLine
 10
104.1233009104422
 20
14.99999954755264
 30
0.0
 11
104.1233009104422
 21
0.3999995475526816
 31
0.0
  0
LINE
  5
723
330
1A
100
AcDbEntity
  8
ZUWAKU
100
AcDbLine
 10
104.3233009104421
 20
14.99999954755264
 30
0.0
 11
104.3233009104422
 21
0.3999995475526816
 31
0.0
  0
LINE
  5
724
330
1A
100
AcDbEntity
  8
ZUWAKU
100
AcDbLine
 10
104.2233009104421
 20
14.99999954755264
 30
0.0
 11
104.2233009104422
 21
0.3999995475526816
 31
0.0
  0
TEXT
  5
725
330
1A
100
AcDbEntity
  8
ZUWAKU
100
AcDbText
 10
104.862023421547
 20
4.827677816745456
 30
0.0
 40
2.0
  1
サイズ
 41
0.9
  7
ｽﾀｲﾙ1
100
AcDbText
  0
TEXT
  5
727
330
1A
100
AcDbEntity
  8
ZUWAKU
100
AcDbText
 10
104.8620234215469
 20
12.02767781674543
 30
0.0
 40
2.0
  1
品名
 41
0.9
  7
ｽﾀｲﾙ1
100
AcDbText
  0
LINE
  5
728
330
1A
100
AcDbEntity
  8
ZUWAKU
100
AcDbLine
 10
324.4086015205104
 20
7.599999547552661
 30
0.0
 11
348.6245055396789
 21
7.599999547552661
 31
0.0
  0
LINE
  5
729
330
1A
100
AcDbEntity
  8
ZUWAKU
100
AcDbLine
 10
324.4086015205104
 20
7.699999547552666
 30
0.0
 11
348.6245055396789
 21
7.699999547552661
 31
0.0
  0
LINE
  5
72A
330
1A
100
AcDbEntity
  8
ZUWAKU
100
AcDbLine
 10
324.4086015205104
 20
7.799999547552661
 30
0.0
 11
348.6245055396789
 21
7.799999547552661
 31
0.0
  0
TEXT
  5
72B
330
1A
100
AcDbEntity
  8
ZUWAKU
100
AcDbText
 10
329.1019691090594
 20
9.00246007625634
 30
0.0
 40
2.799999999999999
  1
　　．　　．　　
 41
0.9
  7
ｽﾀｲﾙ1
100
AcDbText
  0
LINE
  5
72C
330
1A
100
AcDbEntity
  8
ZUWAKU
100
AcDbLine
 10
252.5995900144786
 20
7.599999547552665
 30
0.0
 11
276.2634781484645
 21
7.599999547552665
 31
0.0
  0
LINE
  5
72D
330
1A
100
AcDbEntity
  8
ZUWAKU
100
AcDbLine
 10
252.5995900144786
 20
7.699999547552661
 30
0.0
 11
276.2634781484645
 21
7.699999547552661
 31
0.0
  0
LINE
  5
72E
330
1A
100
AcDbEntity
  8
ZUWAKU
100
AcDbLine
 10
252.5995900144786
 20
7.799999547552661
 30
0.0
 11
276.2634781484645
 21
7.799999547552661
 31
0.0
  0
LINE
  5
730
330
1A
100
AcDbEntity
  8
ZUWAKU
100
AcDbLine
 10
223.8121822509038
 20
14.99999954755264
 30
0.0
 11
223.8121822509039
 21
0.3999995475526816
 31
0.0
  0
LINE
  5
731
330
1A
100
AcDbEntity
  8
ZUWAKU
100
AcDbLine
 10
223.9121822509038
 20
14.99999954755264
 30
0.0
 11
223.912182250904
 21
0.3999995475526816
 31
0.0
  0
LINE
  5
732
330
1A
100
AcDbEntity
  8
ZUWAKU
100
AcDbLine
 10
223.7121822509039
 20
14.99999954755264
 30
0.0
 11
223.7121822509039
 21
0.3999995475526816
 31
0.0
  0
TEXT
  5
733
330
1A
100
AcDbEntity
  8
MOJI
100
AcDbText
 10
264.0204542515647
 20
9.00246007625634
 30
0.0
 40
2.799999999999999
  1
Ａ３
 41
0.9
  7
ｽﾀｲﾙ1
100
AcDbText
  0
LINE
  5
734
330
1A
100
AcDbEntity
  8
ZUWAKU
100
AcDbLine
 10
252.4995900144787
 20
14.99999954755264
 30
0.0
 11
252.4995900144787
 21
0.3999995475526816
 31
0.0
  0
LINE
  5
735
330
1A
100
AcDbEntity
  8
ZUWAKU
100
AcDbLine
 10
252.5995900144786
 20
14.99999954755264
 30
0.0
 11
252.5995900144788
 21
0.3999995475526816
 31
0.0
  0
LINE
  5
736
330
1A
100
AcDbEntity
  8
ZUWAKU
100
AcDbLine
 10
252.3995900144787
 20
14.99999954755264
 30
0.0
 11
252.3995900144787
 21
0.3999995475526816
 31
0.0
  0
TEXT
  5
737
330
1A
100
AcDbEntity
  8
ZUWAKU
100
AcDbText
 10
253.3383125255836
 20
4.827677816745456
 30
0.0
 40
2.0
  1
縮尺
 41
0.9
  7
ｽﾀｲﾙ1
100
AcDbText
  0
TEXT
  5
738
330
1A
100
AcDbEntity
  8
MOJI
100
AcDbText
 10
264.0204542515647
 20
1.602460076256358
 30
0.0
 40
2.799999999999999
  1
１/１
 41
0.9
  7
ｽﾀｲﾙ1
100
AcDbText
  0
TEXT
  5
739
330
1A
100
AcDbEntity
  8
ZUWAKU
100
AcDbText
 10
224.6509047620087
 20
12.02767781674543
 30
0.0
 40
2.0
  1
品番
 41
0.9
  7
ｽﾀｲﾙ1
100
AcDbText
  0
TEXT
  5
73A
330
1A
100
AcDbEntity
  8
ZUWAKU
100
AcDbText
 10
253.3383125255835
 20
12.02767781674543
 30
0.0
 40
2.0
  1
用紙
 41
0.9
  7
ｽﾀｲﾙ1
100
AcDbText
  0
LINE
  5
73B
330
1A
100
AcDbEntity
  8
ZUWAKU
100
AcDbLine
 10
324.3086015205103
 20
14.99999954755264
 30
0.0
 11
324.3086015205105
 21
0.3999995475526816
 31
0.0
  0
LINE
  5
73C
330
1A
100
AcDbEntity
  8
ZUWAKU
100
AcDbLine
 10
324.4086015205104
 20
14.99999954755264
 30
0.0
 11
324.4086015205106
 21
0.3999995475526816
 31
0.0
  0
LINE
  5
73D
330
1A
100
AcDbEntity
  8
ZUWAKU
100
AcDbLine
 10
324.2086015205105
 20
14.99999954755264
 30
0.0
 11
324.2086015205105
 21
0.3999995475526816
 31
0.0
  0
LINE
  5
73E
330
1A
100
AcDbEntity
  8
ZUWAKU
100
AcDbLine
 10
276.3634781484644
 20
14.99999954755264
 30
0.0
 11
276.3634781484644
 21
0.3999995475526816
 31
0.0
  0
LINE
  5
73F
330
1A
100
AcDbEntity
  8
ZUWAKU
100
AcDbLine
 10
276.4634781484644
 20
14.99999954755264
 30
0.0
 11
276.4634781484645
 21
0.3999995475526816
 31
0.0
  0
LINE
  5
740
330
1A
100
AcDbEntity
  8
ZUWAKU
100
AcDbLine
 10
276.2634781484645
 20
14.99999954755264
 30
0.0
 11
276.2634781484645
 21
0.3999995475526816
 31
0.0
  0
TEXT
  5
741
330
1A
100
AcDbEntity
  8
ZUWAKU
100
AcDbText
 10
325.1473240316152
 20
12.02767781674543
 30
0.0
 40
2.0
  1
DATE
 41
0.9
  7
ｽﾀｲﾙ1
100
AcDbText
  0
LINE
  5
742
330
1A
100
AcDbEntity
  8
ZUWAKU
100
AcDbLine
 10
348.6245055396789
 20
14.99999954755264
 30
0.0
 11
348.6245055396789
 21
0.3999995475526816
 31
0.0
  0
LINE
  5
743
330
1A
100
AcDbEntity
  8
ZUWAKU
100
AcDbLine
 10
348.7245055396789
 20
14.99999954755264
 30
0.0
 11
348.7245055396789
 21
0.3999995475526816
 31
0.0
  0
LINE
  5
744
330
1A
100
AcDbEntity
  8
ZUWAKU
100
AcDbLine
 10
348.8245055396788
 20
14.99999954755264
 30
0.0
 11
348.8245055396789
 21
0.3999995475526816
 31
0.0
  0
LINE
  5
745
330
1A
100
AcDbEntity
  8
ZUWAKU
100
AcDbLine
 10
348.9245055396789
 20
14.99999954755264
 30
0.0
 11
348.9245055396789
 21
0.3999995475526816
 31
0.0
  0
TEXT
  5
746
330
1A
100
AcDbEntity
  8
ZUWAKU
100
AcDbText
 10
354.2640423615301
 20
8.776919215396045
 30
0.0
 40
3.0
  1
積水化学工業株式会社
 41
0.9
  7
ｽﾀｲﾙ1
100
AcDbText
  0
TEXT
  5
747
330
1A
100
AcDbEntity
  8
ZUWAKU
100
AcDbText
 10
354.2640423615301
 20
3.32441970447968
 30
0.0
 40
3.0
  1
建材事業部
 41
0.9
  7
ｽﾀｲﾙ1
100
AcDbText
  0
TEXT
  5
74D
330
1A
100
AcDbEntity
  8
ZUWAKU
100
AcDbText
 10
230.9795720347352
 20
1.468216205049543
 30
0.0
 40
1.5
  1
□には色品番が入ります
 41
0.9
  7
ｽﾀｲﾙ1
100
AcDbText
  0
TEXT
  5
68E6
330
1A
100
AcDbEntity
  8
MOJI
100
AcDbText
 10
113.9192909360088
 20
2.576091575721818
 30
0.0
 40
2.799999999999999
  1
ＵＲＴ６０
 41
0.9
  7
ｽﾀｲﾙ1
100
AcDbText
  0
TEXT
  5
7E90
330
1A
100
AcDbEntity
  8
SUNPOU
100
AcDbText
 10
277.7015905458139
 20
22.88658705611101
 30
0.0
 40
4.0
  1
※　エルボ・ソケット等の差込み寸法を示す。
100
AcDbText
  0
LINE
  5
92A5
330
1A
100
AcDbEntity
  8
SEIHIN
  6
Continuous
 62
     3
 48
5.0
100
AcDbLine
 10
175.7876326059237
 20
104.1606110452826
 30
0.0
 11
192.5102156038774
 21
104.1605815521909
 31
0.0
  0
LINE
  5
92A6
330
1A
100
AcDbEntity
  8
SEIHIN
  6
Continuous
 62
     3
 48
5.0
100
AcDbLine
 10
189.2942096640617
 20
104.1606125652701
 30
0.0
 11
173.4272996640618
 21
100.8972125652702
 31
0.0
  0
LINE
  5
92A7
330
1A
100
AcDbEntity
  8
SEIHIN
  6
Continuous
 62
     3
 48
5.0
100
AcDbLine
 10
192.5103596640617
 20
104.1606125652701
 30
0.0
 11
174.9257996640617
 21
100.3750325652702
 31
0.0
  0
LINE
  5
92A8
330
1A
100
AcDbEntity
  8
SEIHIN
  6
Continuous
 62
     3
 48
5.0
100
AcDbLine
 10
174.9257996640617
 20
98.57503256527023
 30
0.0
 11
200.8717196640618
 21
104.1605225652702
 31
0.0
  0
LINE
  5
92A9
330
1A
100
AcDbEntity
  8
SEIHIN
  6
Continuous
 62
     3
 48
5.0
100
AcDbLine
 10
203.5149296640617
 20
104.1605225652702
 30
0.0
 11
173.4272996640618
 21
98.0530325652702
 31
0.0
  0
LINE
  5
92AA
330
1A
100
AcDbEntity
  8
SEIHIN
  6
Continuous
 62
     3
 48
5.0
100
AcDbLine
 10
227.4542996640618
 20
101.0826125652701
 30
0.0
 11
175.7942096640617
 21
90.66061256527019
 31
0.0
  0
LINE
  5
92AB
330
1A
100
AcDbEntity
  8
SEIHIN
  6
Continuous
 62
     3
 48
5.0
100
AcDbLine
 10
227.4542996640618
 20
103.6384325652701
 30
0.0
 11
173.4272996640618
 21
92.65303256527017
 31
0.0
  0
LINE
  5
92AC
330
1A
100
AcDbEntity
  8
SEIHIN
  6
Continuous
 62
     3
 48
5.0
100
AcDbLine
 10
225.9557996640619
 20
100.5605225652702
 30
0.0
 11
179.9682296640618
 21
90.66061256527019
 31
0.0
  0
LINE
  5
92AD
330
1A
100
AcDbEntity
  8
SEIHIN
  6
Continuous
 62
     3
 48
5.0
100
AcDbLine
 10
174.9257996640617
 20
93.17503256527022
 30
0.0
 11
225.9557996640619
 21
104.1605225652702
 31
0.0
  0
LINE
  5
92AE
330
1A
100
AcDbEntity
  8
SEIHIN
  6
Continuous
 62
     3
 48
5.0
100
AcDbLine
 10
216.2940296640617
 20
104.1605225652702
 30
0.0
 11
173.4272996640618
 21
95.49721256527021
 31
0.0
  0
LINE
  5
92AF
330
1A
100
AcDbEntity
  8
SEIHIN
  6
Continuous
 62
     3
 48
5.0
100
AcDbLine
 10
217.5944396640618
 20
104.1605225652702
 30
0.0
 11
174.9257996640617
 21
94.97503256527023
 31
0.0
  0
LINE
  5
92B0
330
1A
100
AcDbEntity
  8
CENTER L
  6
CENTER
 62
     1
 48
5.0
100
AcDbLine
 10
241.2270882531586
 20
215.7768877168886
 30
0.0
 11
159.6844810749651
 21
215.7768877168886
 31
0.0
  0
ARC
  5
92B1
330
1A
100
AcDbEntity
  8
SEIHIN
  6
Continuous
 62
     3
100
AcDbCircle
 10
182.8172735476236
 20
215.8367479787496
 30
0.0
 40
2.440951604339957
100
AcDbArc
 50
91.4777886078518
 51
181.4052241850271
  0
ARC
  5
92B2
330
1A
100
AcDbEntity
  8
SEIHIN
  6
Continuous
 62
     3
100
AcDbCircle
 10
182.8172735476236
 20
215.7170274550293
 30
0.0
 40
2.440951604340076
100
AcDbArc
 50
178.5947758149728
 51
268.5222113921482
  0
LINE
  5
92B3
330
1A
100
AcDbEntity
  8
SEIHIN
  6
Continuous
 62
     3
100
AcDbLine
 10
177.5518199417692
 20
218.2768877168886
 30
0.0
 11
187.1892855026417
 21
218.2768877168886
 31
0.0
  0
LINE
  5
92B4
330
1A
100
AcDbEntity
  8
SEIHIN
  6
Continuous
 62
     3
100
AcDbLine
 10
187.1892855026395
 20
213.2768877168885
 30
0.0
 11
177.5518199417692
 21
213.2768877168885
 31
0.0
  0
ARC
  5
92B5
330
1A
100
AcDbEntity
  8
SEIHIN
  6
Continuous
 62
     3
100
AcDbCircle
 10
200.4557846640618
 20
215.7768877168886
 30
0.0
 40
23.03999999999994
100
AcDbArc
 50
96.22925461162543
 51
173.829667741601
  0
ARC
  5
92B6
330
1A
100
AcDbEntity
  8
SEIHIN
  6
Continuous
 62
     3
100
AcDbCircle
 10
200.4557846640618
 20
215.7768877168886
 30
0.0
 40
23.04000000000005
100
AcDbArc
 50
186.1703322583989
 51
263.829667741601
  0
ARC
  5
92B7
330
1A
100
AcDbEntity
  8
SEIHIN
  6
Continuous
 62
     3
100
AcDbCircle
 10
182.3143228281623
 20
136.3605225652702
 30
0.0
 40
2.500000000000023
100
AcDbArc
 50
90.0
 51
161.9722456128032
  0
LINE
  5
92B8
330
1A
100
AcDbEntity
  8
SEIHIN
  6
Continuous
 62
     3
100
AcDbLine
 10
168.8057846640622
 20
108.8605225652702
 30
0.0
 11
200.4557846640618
 21
108.8605225652702
 31
0.0
  0
ARC
  5
92B9
330
1A
100
AcDbEntity
  8
SEIHIN
  6
Continuous
 62
     3
100
AcDbCircle
 10
180.3657846640617
 20
109.1605225652695
 30
0.0
 40
0.3000000000000114
100
AcDbArc
 50
270.0
 51
0.0
  0
LINE
  5
92BA
330
1A
100
AcDbEntity
  8
SEIHIN
  6
Continuous
 62
     3
100
AcDbLine
 10
225.4957846640627
 20
86.86052256527023
 30
0.0
 11
175.4157846640628
 21
86.86052256527023
 31
0.0
  0
DIMENSION
  5
92BB
330
1A
100
AcDbEntity
  8
SUNPOU
100
AcDbDimension
  2
*D5
 10
227.6557846640625
 20
67.35345592068757
 30
0.0
 11
200.4557846640618
 21
67.35345592068757
 31
0.0
 70
   160
  1
%%c<>
 71
     5
 42
-1.0
  3
STANDARD
100
AcDbAlignedDimension
 13
173.2557846640629
 23
87.86052256527023
 33
0.0
 14
227.6557846640625
 24
87.86052256527023
 34
0.0
100
AcDbRotatedDimension
1001
ACAD
1000
DSTYLE
1002
{
1070
    41
1040
3.0
1070
    42
1040
3.0
1070
    43
1040
7.0
1070
    44
1040
1.5
1070
    73
1070
     0
1070
    74
1070
     0
1070
    77
1070
     3
1070
   140
1040
3.0
1070
   141
1040
150.0
1070
   147
1040
1.0
1070
   172
1070
     1
1070
   173
1070
     1
1070
   176
1070
     4
1070
   177
1070
     4
1070
   178
1070
     4
1070
   271
1070
     0
1070
   272
1070
     2
1070
     6
1000
OPEN
1070
     7
1000
OPEN
1002
}
  0
CIRCLE
  5
92BC
330
1A
100
AcDbEntity
  8
SEIHIN
  6
Continuous
 62
     3
100
AcDbCircle
 10
200.4557846640618
 20
215.7768877168886
 30
0.0
 40
31.64999999999986
  0
DIMENSION
  5
92BD
330
1A
100
AcDbEntity
  8
SUNPOU
100
AcDbDimension
  2
*D6
 10
224.8057846640622
 20
152.8507740466213
 30
0.0
 11
200.2357846640625
 21
155.3507740466213
 31
0.0
 70
    32
  1
φ<>
 71
     5
 42
-1.0
  3
STANDARD
100
AcDbAlignedDimension
 13
175.6657846640628
 23
123.0584336159702
 33
0.0
 14
224.8057846640622
 24
123.0584336159702
 34
0.0
100
AcDbRotatedDimension
1001
ACAD
1000
DSTYLE
1002
{
1070
    41
1040
3.0
1070
    42
1040
3.0
1070
    43
1040
7.0
1070
    44
1040
1.5
1070
    73
1070
     0
1070
    74
1070
     0
1070
    77
1070
     3
1070
   140
1040
3.0
1070
   141
1040
150.0
1070
   147
1040
1.0
1070
   172
1070
     1
1070
   173
1070
     1
1070
   176
1070
     4
1070
   177
1070
     4
1070
   178
1070
     4
1070
   271
1070
     0
1070
   272
1070
     2
1070
     6
1000
OPEN
1070
     7
1000
OPEN
1002
}
  0
CIRCLE
  5
92BE
330
1A
100
AcDbEntity
  8
SEIHIN
  6
Continuous
 62
     3
100
AcDbCircle
 10
200.4557846640618
 20
215.7768877168886
 30
0.0
 40
35.64999999999986
  0
LINE
  5
92BF
330
1A
100
AcDbEntity
  8
SEIHIN
  6
Continuous
 62
     3
100
AcDbLine
 10
200.4557846640618
 20
107.8605225652702
 30
0.0
 11
164.8057846640622
 21
107.8605225652702
 31
0.0
  0
LINE
  5
92C0
330
1A
100
AcDbEntity
  8
SEIHIN
  6
Continuous
 62
     3
100
AcDbLine
 10
164.8057846640622
 20
106.8605225652702
 30
0.0
 11
200.4557846640618
 21
106.8605225652702
 31
0.0
  0
DIMENSION
  5
92C1
330
1A
100
AcDbEntity
  8
SUNPOU
100
AcDbDimension
  2
*D7
 10
236.1057846640633
 20
159.137262561935
 30
0.0
 11
200.4557846640627
 21
161.637262561935
 31
0.0
 70
    32
  1
φ<>
 71
     5
 42
-1.0
  3
STANDARD
100
AcDbAlignedDimension
 13
164.8057846640622
 23
107.8605225652702
 33
0.0
 14
236.1057846640633
 24
107.8605225652702
 34
0.0
100
AcDbRotatedDimension
1001
ACAD
1000
DSTYLE
1002
{
1070
    41
1040
3.0
1070
    42
1040
3.0
1070
    43
1040
7.0
1070
    44
1040
1.5
1070
    73
1070
     0
1070
    74
1070
     0
1070
    77
1070
     3
1070
   140
1040
3.0
1070
   141
1040
150.0
1070
   147
1040
1.0
1070
   172
1070
     1
1070
   173
1070
     1
1070
   176
1070
     4
1070
   177
1070
     4
1070
   178
1070
     4
1070
   271
1070
     0
1070
   272
1070
     2
1070
     6
1000
OPEN
1070
     7
1000
OPEN
1002
}
  0
INSERT
  5
92CF
330
1A
100
AcDbEntity
  8
ﾊｯﾁﾝｸﾞ
  6
Continuous
100
AcDbBlockReference
  2
*X4
 10
221.3940033085273
 20
-130.2755720054548
 30
0.0
1001
ACAD
1000
HATCH
1002
{
1070
    19
1000
_USER
1040
1.5
1040
0.7853981633974483
1000
R14_HATCH_DATA
1000
212F
1011
222.3940033085273
1021
-130.2755720054548
1031
0.0
1011
221.3940033085273
1021
-129.2755720054548
1031
0.0
1011
221.3940033085273
1021
-130.2755720054548
1031
1.0
1040
0.0
1010
0.0
1020
0.0
1030
1.0
1000
_USER
1070
     0
1070
     0
1071
        3
1071
        1
1071
       20
1070
     1
1040
159.7585526825068
1040
242.2908619094159
1040
157.7552506955407
1040
242.2908619094159
1070
     1
1040
157.7552506955407
1040
242.2908619094159
1040
157.0711597864492
1040
230.3908619094163
1070
     1
1040
157.0711597864492
1040
230.3908619094163
1040
155.2085526825058
1040
227.2838904643904
1070
     2
1040
155.6585526825065
1040
226.3908619094163
1040
0.9999999999999726
1040
2.037561665842867
1040
3.141592653589793
1070
     1
1070
     1
1040
154.6585526825065
1040
226.3908619094163
1040
154.6585526825065
1040
225.3908619094163
1070
     1
1040
154.6585526825065
1040
225.3908619094163
1040
155.7245890068706
1040
225.3908619094163
1070
     2
1040
155.7245890068706
1040
224.3908619094163
1040
1.000000000000045
1040
4.712388980384689
1040
6.340608737862807
1070
     0
1070
     1
1040
156.722940734674
1040
224.3334700320156
1040
156.553780107305
1040
221.3908619094163
1070
     1
1040
156.553780107305
1040
221.3908619094163
1040
153.1085526825054
1040
221.3908619094163
1070
     2
1040
153.1085526825054
1040
220.3908619094163
1040
1.0
1040
1.570796326794896
1040
3.141592653589793
1070
     1
1070
     1
1040
152.1085526825054
1040
220.3908619094163
1040
152.1085526825054
1040
216.3908619094163
1070
     1
1040
152.1085526825054
1040
216.3908619094163
1040
155.685267609143
1040
216.3908619094163
1070
     2
1040
155.685267609143
1040
215.8908619094163
1040
0.5000000000000031
1040
4.712388980384689
1040
6.373089153663915
1070
     0
1070
     2
1040
58.5790339808691
1040
224.644683390974
1040
97.9999999999999
1040
0.0899038464843294
1040
0.1418406570899142
1070
     0
1070
     1
1040
155.5948658350416
1040
210.790861909416
1040
153.6085526825054
1040
210.790861909416
1070
     1
1040
153.6085526825054
1040
210.790861909416
1040
153.6085526825054
1040
209.3908619094163
1070
     1
1040
153.6085526825054
1040
209.3908619094163
1040
153.9085526825065
1040
204.8908619094163
1070
     1
1040
153.9085526825065
1040
204.8908619094163
1040
156.6085526825054
1040
204.8908619094163
1070
     2
1040
58.5790339808691
1040
224.644683390974
1040
100.0
1040
6.084339294034675
1040
6.225761876496364
1070
     1
1070
     1
1040
158.4142067612292
1040
218.905495650928
1040
159.7585526825068
1040
242.2908619094159
1071
        0
1071
        1
1071
       21
1070
     1
1040
88.55855268250616
1040
225.3908619094145
1040
88.55855268250616
1040
226.3908619094145
1070
     2
1040
87.55855268250616
1040
226.3908619094145
1040
1.000000000000023
1040
0.0
1040
1.104030987746926
1070
     1
1070
     1
1040
88.00855268250689
1040
227.2838904643904
1040
86.14594557856344
1040
230.3908619094145
1070
     1
1040
86.14594557856344
1040
230.3908619094145
1040
85.46185466947191
1040
242.2908619094159
1070
     1
1040
85.46185466947191
1040
242.2908619094159
1040
83.45855268250579
1040
242.2908619094159
1070
     1
1040
83.45855268250579
1040
242.2908619094159
1040
84.80289860378343
1040
218.905495650928
1070
     2
1040
184.6380713841435
1040
224.6446833909758
1040
99.99999999999996
1040
3.199016084273014
1040
3.340438666734703
1070
     1
1070
     1
1040
86.60855268250543
1040
204.8908619094145
1040
89.30855268250615
1040
204.8908619094145
1070
     1
1040
89.30855268250615
1040
204.8908619094145
1040
89.60855268250544
1040
209.3908619094145
1070
     1
1040
89.60855268250544
1040
209.3908619094145
1040
89.60855268250544
1040
210.790861909416
1070
     1
1040
89.60855268250544
1040
210.790861909416
1040
87.62223952997102
1040
210.790861909416
1070
     2
1040
184.6380713841435
1040
224.6446833909758
1040
98.00000000000007
1040
2.999751996499412
1040
3.051688807105011
1070
     0
1070
     2
1040
87.53183775586967
1040
215.8908619094163
1040
0.5000000000000134
1040
3.051688807105011
1040
4.712388980384689
1070
     0
1070
     1
1040
87.53183775586967
1040
216.3908619094145
1040
91.10855268250544
1040
216.3908619094145
1070
     1
1040
91.10855268250544
1040
216.3908619094145
1040
91.10855268250544
1040
218.3908619094145
1070
     1
1040
91.10855268250544
1040
218.3908619094145
1040
87.30799618455149
1040
218.3908619094145
1070
     2
1040
87.30799618455149
1040
218.8908619094145
1040
0.5
1040
1.570796326794896
1040
3.082544792711197
1070
     0
1070
     2
1040
184.6380713841435
1040
224.6446833909758
1040
98.0
1040
3.082544792711197
1040
3.084169222906572
1070
     0
1070
     1
1040
86.79960205939005
1040
219.0202794057277
1040
86.49416463033867
1040
224.3334700320156
1070
     2
1040
87.49251635814198
1040
224.3908619094145
1040
1.0
1040
3.084169222906111
1040
4.712388980384689
1070
     0
1070
     1
1040
87.49251635814198
1040
225.3908619094145
1040
88.55855268250616
1040
225.3908619094145
1071
        0
1071
       33
1071
        3
1070
     1
1040
152.1026504720784
1040
219.0908619094007
1040
152.1026504720784
1040
218.3908619094163
1070
     1
1040
91.10855268250544
1040
216.4483975764851
1040
91.0510170154348
1040
216.3908619094145
1070
     1
1040
85.95855268250579
1040
242.2908619094159
1040
85.46185466947191
1040
242.2908619094159
1071
        0
1070
     0
1070
     0
1040
0.7853981633974483
1040
1.5
1070
     0
1070
     1
1040
0.7853981633974483
1040
0.0
1040
0.0
1040
-1.060660171779821
1040
1.060660171779821
1070
     0
1071
        1
1040
0.0
1040
82.8946951512994
1040
0.0
1002
}
  0
INSERT
  5
92D0
330
1A
100
AcDbEntity
  8
ﾊｯﾁﾝｸﾞ
  6
Continuous
100
AcDbBlockReference
  2
*X3
 10
221.3940033085273
 20
-130.2755720054548
 30
0.0
1001
ACAD
1000
HATCH
1002
{
1070
    19
1000
_USER
1040
1.5
1040
2.356194490192344
1000
R14_HATCH_DATA
1000
212E
1011
222.3940033085273
1021
-130.2755720054548
1031
0.0
1011
221.3940033085273
1021
-129.2755720054548
1031
0.0
1011
221.3940033085273
1021
-130.2755720054548
1031
1.0
1040
0.0
1010
0.0
1020
0.0
1030
1.0
1000
_USER
1070
     0
1070
     0
1071
        3
1071
        1
1071
       41
1070
     1
1040
148.8085141309648
1040
240.5444404942893
1040
148.8085141309648
1040
242.2908619094159
1070
     1
1040
148.8085141309648
1040
242.2908619094159
1040
157.2552506955007
1040
242.2908619094159
1070
     1
1040
157.2552506955007
1040
242.2908619094159
1040
157.2552506955007
1040
241.2908619094159
1070
     1
1040
157.2552506955007
1040
241.2908619094159
1040
153.2552506955007
1040
240.2908619094159
1070
     1
1040
153.2552506955007
1040
240.2908619094159
1040
151.8085141309647
1040
240.2908619094159
1070
     2
1040
151.8085141309647
1040
239.2908619094159
1040
1.0
1040
1.570796326794896
1040
3.141592653589793
1070
     1
1070
     1
1040
150.8085141309647
1040
239.2908619094159
1040
150.8085141309647
1040
231.3908619094163
1070
     2
1040
151.8085141309647
1040
231.3908619094163
1040
1.0
1040
3.141592653589793
1040
4.712388980384689
1070
     1
1070
     1
1040
151.8085141309647
1040
230.3908619094163
1040
154.7085141309644
1040
230.3908619094163
1070
     2
1040
154.7085141309644
1040
229.3908619094163
1040
1.000000000000113
1040
4.712388980384689
1040
6.283185307179586
1070
     0
1070
     1
1040
155.7085141309644
1040
229.3908619094163
1040
155.7085141309644
1040
227.8908619094163
1070
     2
1040
155.2085141309644
1040
227.8908619094163
1040
0.5000000000001137
1040
6.283185307179586
1040
7.853981633974482
1070
     0
1070
     1
1040
155.2085141309644
1040
227.3908619094163
1040
152.3085141309648
1040
227.3908619094163
1070
     2
1040
152.3085141309648
1040
225.8908619094163
1040
1.5
1040
1.570796326794896
1040
3.141592653589793
1070
     1
1070
     1
1040
150.8085141309647
1040
225.8908619094163
1040
150.8085141309647
1040
225.5908619094006
1070
     2
1040
151.3085141309647
1040
225.5908619094006
1040
0.5
1040
3.141592653589793
1040
4.712388980384689
1070
     1
1070
     1
1040
151.3085141309647
1040
225.0908619094007
1040
155.7085141309644
1040
225.0908619094007
1070
     2
1040
152.7085141309644
1040
225.0908619094007
1040
3.000000000000099
1040
6.283185307179586
1040
7.291430197922144
1070
     0
1070
     1
1040
154.3085526825079
1040
222.553170708019
1040
154.3085526825079
1040
220.0908619094007
1070
     2
1040
153.3085526825079
1040
220.0908619094007
1040
1.0
1040
6.283185307179586
1040
7.853981633974482
1070
     0
1070
     1
1040
153.3085526825079
1040
219.0908619094007
1040
151.8085526825079
1040
219.0908619094007
1070
     2
1040
151.8085526825079
1040
218.0908619094007
1040
1.0
1040
1.570796326794896
1040
3.141592653589793
1070
     1
1070
     1
1040
150.8085526825079
1040
218.0908619094007
1040
150.8085526825079
1040
203.590840111512
1070
     1
1040
150.8085526825079
1040
203.590840111512
1040
149.8085526825079
1040
198.5908401115102
1070
     1
1040
149.8085526825079
1040
198.5908401115102
1040
148.8085141309648
1040
198.5908401115102
1070
     1
1040
148.8085141309648
1040
198.5908401115102
1040
148.8085141309648
1040
223.3908619094159
1070
     1
1040
148.8085141309647
1040
223.3908619094159
1040
146.6600526825064
1040
223.3908619094159
1070
     1
1040
146.6600526825064
1040
223.3908619094159
1040
146.6600526825064
1040
223.7687719094159
1070
     1
1040
146.6600526825064
1040
223.7687719094159
1040
148.8085141309647
1040
224.3444404942893
1070
     1
1040
148.8085141309648
1040
224.3444404942893
1040
148.8085141309648
1040
226.0372833245426
1070
     1
1040
148.8085141309647
1040
226.0372833245426
1040
146.6600526825064
1040
226.6129519094159
1070
     1
1040
146.6600526825064
1040
226.6129519094159
1040
146.6600526825064
1040
229.1687719094159
1070
     1
1040
146.6600526825064
1040
229.1687719094159
1040
148.8085141309647
1040
229.7444404942893
1070
     1
1040
148.8085141309648
1040
229.7444404942893
1040
148.8085141309648
1040
231.4372833245426
1070
     1
1040
148.8085141309647
1040
231.4372833245426
1040
146.6600526825064
1040
232.0129519094159
1070
     1
1040
146.6600526825064
1040
232.0129519094159
1040
146.6600526825064
1040
234.568771909416
1070
     1
1040
146.6600526825064
1040
234.568771909416
1040
148.8085141309647
1040
235.1444404942893
1070
     1
1040
148.8085141309648
1040
235.1444404942893
1040
148.8085141309648
1040
236.8372833245426
1070
     1
1040
148.8085141309647
1040
236.8372833245426
1040
146.6600526825064
1040
237.412951909416
1070
     1
1040
146.6600526825064
1040
237.412951909416
1040
146.6600526825064
1040
239.9687719094159
1070
     1
1040
146.6600526825064
1040
239.9687719094159
1040
148.8085141309647
1040
240.5444404942893
1071
        0
1071
        1
1071
       23
1070
     1
1040
92.40859123404788
1040
231.3908619094145
1040
92.40859123404788
1040
239.2908619094159
1070
     2
1040
91.40859123404789
1040
239.2908619094159
1040
1.0
1040
0.0
1040
1.570796326794896
1070
     1
1070
     1
1040
91.40859123404789
1040
240.2908619094159
1040
89.96185466951192
1040
240.2908619094159
1070
     1
1040
89.96185466951192
1040
240.2908619094159
1040
85.96185466951192
1040
241.2908619094159
1070
     1
1040
85.96185466951192
1040
241.2908619094159
1040
85.96185466951192
1040
242.2908619094159
1070
     1
1040
85.96185466951192
1040
242.2908619094159
1040
94.4085912340479
1040
242.2908619094159
1070
     1
1040
94.4085912340479
1040
242.2908619094159
1040
94.4085912340479
1040
198.5908401115102
1070
     1
1040
94.4085912340479
1040
198.5908401115102
1040
93.4085526825047
1040
198.5908401115102
1070
     1
1040
93.4085526825047
1040
198.5908401115102
1040
92.4085526825047
1040
203.5908401115102
1070
     1
1040
92.4085526825047
1040
203.5908401115102
1040
92.4085526825047
1040
221.0908619094007
1070
     2
1040
91.4085526825047
1040
221.0908619094007
1040
0.9999999999998863
1040
0.0
1040
1.570796326794896
1070
     1
1070
     1
1040
91.4085526825047
1040
222.0908619094007
1040
90.50859123404825
1040
222.0908619094007
1070
     2
1040
90.50859123404825
1040
225.0908619094007
1040
3.000000000000113
1040
1.570796326794896
1040
3.141592653589793
1070
     0
1070
     1
1040
87.50859123404826
1040
225.0908619094007
1040
91.9085912340479
1040
225.0908619094007
1070
     2
1040
91.9085912340479
1040
225.5908619094006
1040
0.5
1040
4.712388980384689
1040
6.283185307179586
1070
     1
1070
     1
1040
92.40859123404788
1040
225.5908619094006
1040
92.40859123404788
1040
225.8908619094163
1070
     2
1040
90.90859123404788
1040
225.8908619094163
1040
1.5
1040
0.0
1040
1.570796326794896
1070
     1
1070
     1
1040
90.90859123404788
1040
227.3908619094145
1040
88.00859123404825
1040
227.3908619094145
1070
     2
1040
88.00859123404825
1040
227.8908619094145
1040
0.5000000000001137
1040
1.570796326794896
1040
3.141592653589793
1070
     0
1070
     1
1040
87.50859123404826
1040
227.8908619094145
1040
87.50859123404826
1040
229.3908619094145
1070
     2
1040
88.50859123404825
1040
229.3908619094145
1040
1.0
1040
3.141592653589793
1040
4.712388980384689
1070
     0
1070
     1
1040
88.50859123404825
1040
230.3908619094145
1040
91.40859123404789
1040
230.3908619094145
1070
     2
1040
91.40859123404789
1040
231.3908619094145
1040
1.0
1040
4.712388980384689
1040
6.283185307179586
1070
     1
1071
        0
1071
       33
1071
        3
1070
     1
1040
155.2726812968003
1040
227.3908619094163
1040
155.2085141309644
1040
227.3908619094163
1070
     1
1040
149.864897791479
1040
198.8725656563692
1040
149.5831722465855
1040
198.590840111492
1070
     1
1040
87.94442406821053
1040
227.3908619094145
1040
88.00859123404825
1040
227.3908619094145
1071
        0
1070
     0
1070
     0
1040
2.356194490192344
1040
1.5
1070
     0
1070
     1
1040
2.356194490192344
1040
0.0
1040
0.0
1040
-1.060660171779821
1040
-1.060660171779821
1070
     0
1071
        1
1040
0.0
1040
137.4879371147503
1040
0.0
1002
}
  0
ARC
  5
92D1
330
1A
100
AcDbEntity
  8
SEIHIN
  6
Continuous
 62
     3
100
AcDbCircle
 10
373.2025174394921
 20
109.0152899039611
 30
0.0
 40
1.0
100
AcDbArc
 50
90.0
 51
180.0
  0
LINE
  5
92D2
330
1A
100
AcDbEntity
  8
SEIHIN
  6
Continuous
 62
     3
100
AcDbLine
 10
381.1525559910342
 20
112.0152899039611
 30
0.0
 11
304.8525559910331
 21
112.0152899039611
 31
0.0
  0
ARC
  5
92D3
330
1A
100
AcDbEntity
  8
SEIHIN
  6
Continuous
 62
     3
100
AcDbCircle
 10
373.2025174394921
 20
101.1152899039615
 30
0.0
 40
1.0
100
AcDbArc
 50
180.0
 51
270.0
  0
ARC
  5
92D4
330
1A
100
AcDbEntity
  8
SEIHIN
  6
Continuous
 62
     3
100
AcDbCircle
 10
373.7025174394921
 20
95.61528990396153
 30
0.0
 40
1.5
100
AcDbArc
 50
90.0
 51
180.0
  0
ARC
  5
92D5
330
1A
100
AcDbEntity
  8
SEIHIN
  6
Continuous
 62
     3
100
AcDbCircle
 10
372.702517439492
 20
95.31528990394589
 30
0.0
 40
0.5
100
AcDbArc
 50
180.0
 51
270.0
  0
ARC
  5
92D6
330
1A
100
AcDbEntity
  8
SEIHIN
  6
Continuous
 62
     3
100
AcDbCircle
 10
373.2025559910352
 20
87.81528990394589
 30
0.0
 40
1.0
100
AcDbArc
 50
90.0
 51
180.0
  0
LINE
  5
92D7
330
1A
100
AcDbEntity
  8
SEIHIN
  6
Continuous
 62
     3
100
AcDbLine
 10
372.2025559910353
 20
74.61528990396153
 30
0.0
 11
375.3025559910338
 21
74.61528990396153
 31
0.0
  0
LINE
  5
92D8
330
1A
100
AcDbEntity
  8
SEIHIN
  6
Continuous
 62
     3
100
AcDbLine
 10
375.0025559910327
 20
80.51528990396116
 30
0.0
 11
372.2025559910353
 21
80.51528990396116
 31
0.0
  0
LINE
  5
9359
330
1A
100
AcDbEntity
  8
SEIHIN
  6
Continuous
 62
     3
100
AcDbLine
 10
311.3558579780392
 20
110.0152899039611
 30
0.0
 11
307.3558579780392
 21
111.0152899039611
 31
0.0
  0
ARC
  5
935A
330
1A
100
AcDbEntity
  8
SEIHIN
  6
Continuous
 62
     3
100
AcDbCircle
 10
309.4025945425755
 20
97.61528990395971
 30
0.0
 40
0.5000000000001137
100
AcDbArc
 50
180.0
 51
270.0
  0
ARC
  5
935B
330
1A
100
AcDbEntity
  8
SEIHIN
  6
Continuous
 62
     3
100
AcDbCircle
 10
309.9025945425755
 20
99.11528990395972
 30
0.0
 40
1.0
100
AcDbArc
 50
90.0
 51
180.0
  0
LINE
  5
935C
330
1A
100
AcDbEntity
  8
SEIHIN
  6
Continuous
 62
     3
100
AcDbLine
 10
307.5399488870907
 20
100.1152899039597
 30
0.0
 11
309.4025559910342
 21
97.0083184589356
 31
0.0
  0
LINE
  5
935D
330
1A
100
AcDbEntity
  8
SEIHIN
  6
Continuous
 62
     3
100
AcDbLine
 10
308.8865196666692
 20
95.11528990395971
 30
0.0
 11
309.9525559910334
 21
95.11528990395971
 31
0.0
  0
LINE
  5
935E
330
1A
100
AcDbEntity
  8
SEIHIN
  6
Continuous
 62
     3
100
AcDbLine
 10
309.3384273767378
 20
97.1152899039597
 30
0.0
 11
309.4025945425755
 21
97.1152899039597
 31
0.0
  0
ARC
  5
935F
330
1A
100
AcDbEntity
  8
SEIHIN
  6
Continuous
 62
     3
100
AcDbCircle
 10
309.6688331038976
 20
94.23852315275224
 30
0.0
 40
0.8783245013039756
100
AcDbArc
 50
86.58710260302267
 51
138.9538249861698
  0
ARC
  5
9360
330
1A
100
AcDbEntity
  8
SEIHIN
  6
Continuous
 62
     3
100
AcDbCircle
 10
309.4540214839335
 20
85.61201449537373
 30
0.0
 40
0.5032929182231975
100
AcDbArc
 50
89.52206698456349
 51
184.743054508702
  0
ARC
  5
9361
330
1A
100
AcDbEntity
  8
SEIHIN
  6
Continuous
 62
     3
100
AcDbCircle
 10
311.9025945425755
 20
94.81528990394588
 30
0.0
 40
3.000000000000113
100
AcDbArc
 50
180.0
 51
270.0
  0
LINE
  5
9362
330
1A
100
AcDbEntity
  8
SEIHIN
  6
Continuous
 62
     3
100
AcDbLine
 10
308.9025945425755
 20
94.81528990394588
 30
0.0
 11
313.3025945425752
 21
94.81528990394588
 31
0.0
  0
LINE
  5
9363
330
1A
100
AcDbEntity
  8
SEIHIN
  6
Continuous
 62
     3
100
AcDbLine
 10
308.9258410643969
 20
86.11528990395971
 30
0.0
 11
312.5025559910327
 21
86.11528990395971
 31
0.0
  0
LINE
  5
9364
330
1A
100
AcDbEntity
  8
SEIHIN
  6
Continuous
 62
     3
100
AcDbLine
 10
312.5025559910327
 20
88.1152899039597
 30
0.0
 11
308.7019994930788
 21
88.1152899039597
 31
0.0
  0
LINE
  5
9365
330
1A
100
AcDbEntity
  8
SEIHIN
  6
Continuous
 62
     3
100
AcDbLine
 10
313.802555991032
 20
88.74470740027289
 30
0.0
 11
308.1936053679173
 21
88.74470740027289
 31
0.0
  0
LINE
  5
9366
330
1A
100
AcDbEntity
  8
SEIHIN
  6
Continuous
 62
     3
100
AcDbLine
 10
309.0162428384983
 20
80.51528990396116
 30
0.0
 11
311.0025559910327
 21
80.51528990396116
 31
0.0
  0
LINE
  5
9367
330
1A
100
AcDbEntity
  8
SEIHIN
  6
Continuous
 62
     3
100
AcDbLine
 10
308.0025559910327
 20
74.6152899039597
 30
0.0
 11
310.7025559910334
 21
74.6152899039597
 31
0.0
  0
LINE
  5
9368
330
1A
100
AcDbEntity
  8
SEIHIN
  6
Continuous
 62
     3
100
AcDbLine
 10
304.8525559910331
 20
112.0152899039611
 30
0.0
 11
306.1969019123107
 21
88.62992364547324
 31
0.0
  0
LINE
  5
9369
330
1A
100
AcDbEntity
  8
SEIHIN
  6
Continuous
 62
     3
100
AcDbLine
 10
307.5399488870907
 20
100.1152899039597
 30
0.0
 11
306.8558579779992
 21
112.0152899039611
 31
0.0
  0
ARC
  5
936A
330
1A
100
AcDbEntity
  8
SEIHIN
  6
Continuous
 62
     3
100
AcDbCircle
 10
406.0320746926708
 20
94.36911138552103
 30
0.0
 40
99.99999999999996
100
AcDbArc
 50
183.2901202233107
 51
191.3930373262058
  0
ARC
  5
936B
330
1A
100
AcDbEntity
  8
SEIHIN
  6
Continuous
 62
     3
100
AcDbCircle
 10
406.0320746926708
 20
94.36911138552103
 30
0.0
 40
98.00000000000007
100
AcDbArc
 50
185.15111096557
 51
188.1268710146411
  0
ARC
  5
936C
330
1A
100
AcDbEntity
  8
SEIHIN
  6
Continuous
 62
     3
100
AcDbCircle
 10
308.8865196666692
 20
94.1152899039597
 30
0.0
 40
1.0
100
AcDbArc
 50
90.0
 51
183.2901202233367
  0
ARC
  5
936D
330
1A
100
AcDbEntity
  8
SEIHIN
  6
Continuous
 62
     3
100
AcDbCircle
 10
309.5239426909911
 20
94.14691952867803
 30
0.0
 40
0.8302580138061983
100
AcDbArc
 50
136.9756653179848
 51
186.1551713175618
  0
LINE
  5
936E
330
1A
100
AcDbEntity
  8
SEIHIN
  6
Continuous
 62
     3
100
AcDbLine
 10
308.1936053679173
 20
88.74470740027289
 30
0.0
 11
307.8881679388659
 21
94.05789802656078
 31
0.0
  0
LINE
  5
936F
330
1A
100
AcDbEntity
  8
SEIHIN
  6
Continuous
 62
     3
100
AcDbLine
 10
308.69847098242
 20
94.05789802656078
 30
0.0
 11
307.8881679388659
 21
94.05789802656078
 31
0.0
  0
LINE
  5
9370
330
1A
100
AcDbEntity
  8
SEIHIN
  6
Continuous
 62
     3
100
AcDbLine
 10
308.9524520755357
 20
85.57039851174783
 30
0.0
 11
308.4278603791235
 21
85.57039851174783
 31
0.0
  0
LINE
  5
9371
330
1A
100
AcDbEntity
  8
SEIHIN
  6
Continuous
 62
     3
100
AcDbLine
 10
308.2028709023115
 20
88.58578312713223
 30
0.0
 11
308.7240192329654
 21
88.58578312713223
 31
0.0
  0
ARC
  5
9372
330
1A
100
AcDbEntity
  8
SEIHIN
  6
Continuous
 62
     3
100
AcDbCircle
 10
406.0320746926708
 20
94.36911138552103
 30
0.0
 40
98.0
100
AcDbArc
 50
183.2901202233107
 51
183.3831932176189
  0
ARC
  5
9373
330
1A
100
AcDbEntity
  8
SEIHIN
  6
Continuous
 62
     3
100
AcDbCircle
 10
308.7019994930788
 20
88.61528990395971
 30
0.0
 40
0.5
100
AcDbArc
 50
183.3831932176189
 51
270.0
  0
ARC
  5
9374
330
1A
100
AcDbEntity
  8
SEIHIN
  6
Continuous
 62
     3
100
AcDbCircle
 10
308.9258410643969
 20
85.61528990396153
 30
0.0
 40
0.5000000000000134
100
AcDbArc
 50
90.0
 51
185.15111096557
  0
ARC
  5
9375
330
1A
100
AcDbEntity
  8
SEIHIN
  6
Continuous
 62
     3
100
AcDbCircle
 10
309.2273980155487
 20
88.6198053118286
 30
0.0
 40
0.5045272121577184
100
AcDbArc
 50
183.8666060928097
 51
270.3919368833448
  0
LINE
  5
9376
330
1A
100
AcDbEntity
  8
SEIHIN
  6
Continuous
 62
     3
100
AcDbLine
 10
308.9025945425755
 20
97.61528990395971
 30
0.0
 11
308.9025945425755
 21
99.11528990395972
 31
0.0
  0
LINE
  5
9377
330
1A
100
AcDbEntity
  8
SEIHIN
  6
Continuous
 62
     3
100
AcDbLine
 10
307.3558579780392
 20
111.0152899039611
 30
0.0
 11
307.3558579780392
 21
112.0152899039611
 31
0.0
  0
LINE
  5
9378
330
1A
100
AcDbEntity
  8
SEIHIN
  6
Continuous
 62
     3
100
AcDbLine
 10
370.2025174394921
 20
104.8688684888345
 30
0.0
 11
370.2025174394921
 21
106.5617113190878
 31
0.0
  0
LINE
  5
9379
330
1A
100
AcDbEntity
  8
SEIHIN
 48
5.0
100
AcDbLine
 10
365.3859159910337
 20
105.6919799039611
 30
0.0
 11
365.3859159910337
 21
103.7595899039611
 31
0.0
  0
LINE
  5
937A
330
1A
100
AcDbEntity
  8
SEIHIN
 48
5.0
100
AcDbLine
 10
322.0681059910337
 20
107.0975999039611
 30
0.0
 11
322.0681059910337
 21
103.4975999039611
 31
0.0
  0
LINE
  5
937B
330
1A
100
AcDbEntity
  8
SEIHIN
 48
5.0
100
AcDbLine
 10
324.0166059910337
 20
106.575509903961
 30
0.0
 11
324.0166059910337
 21
104.0196899039611
 31
0.0
  0
LINE
  5
937C
330
1A
100
AcDbEntity
  8
SEIHIN
 48
5.0
100
AcDbLine
 10
340.7751459910337
 20
107.1373799039611
 30
0.0
 11
324.0166059910337
 21
104.0196899039611
 31
0.0
  0
LINE
  5
937D
330
1A
100
AcDbEntity
  8
SEIHIN
 48
5.0
100
AcDbLine
 10
322.0681059910337
 20
103.4975999039611
 30
0.0
 11
341.5536459910337
 21
106.6152899039611
 31
0.0
  0
LINE
  5
937E
330
1A
100
AcDbEntity
  8
SEIHIN
  6
Continuous
 62
     3
100
AcDbLine
 10
372.2025174394921
 20
109.0152899039611
 30
0.0
 11
372.2025174394921
 21
101.1152899039615
 31
0.0
  0
LINE
  5
937F
330
1A
100
AcDbEntity
  8
SEIHIN
  6
Continuous
 62
     3
100
AcDbLine
 10
313.8025945425752
 20
101.1152899039597
 30
0.0
 11
313.8025945425752
 21
109.0152899039611
 31
0.0
  0
LINE
  5
9380
330
1A
100
AcDbEntity
  8
SEIHIN
  6
Continuous
 62
     3
100
AcDbLine
 10
315.8025945425752
 20
112.0152899039611
 30
0.0
 11
315.8025945425752
 21
68.31526810605544
 31
0.0
  0
LINE
  5
9381
330
1A
100
AcDbEntity
  8
CENTER L
  6
CENTER
 62
     1
 48
5.0
100
AcDbLine
 10
343.0025559910327
 20
118.6801901347761
 30
0.0
 11
343.0025559910327
 21
62.09326142956422
 31
0.0
  0
LINE
  5
9382
330
1A
100
AcDbEntity
  8
SEIHIN
 48
5.0
100
AcDbLine
 10
341.5536459910337
 20
104.8152899039611
 30
0.0
 11
340.7751459910337
 21
104.2931999039611
 31
0.0
  0
LINE
  5
9383
330
1A
100
AcDbEntity
  8
SEIHIN
 48
5.0
100
AcDbLine
 10
341.5536459910337
 20
94.01528990396116
 30
0.0
 11
340.7751459910337
 21
93.49319990396116
 31
0.0
  0
LINE
  5
9384
330
1A
100
AcDbEntity
  8
SEIHIN
 48
5.0
100
AcDbLine
 10
341.5535559910338
 20
94.01528990396116
 30
0.0
 11
335.9285559910338
 21
93.11528990396116
 31
0.0
  0
LINE
  5
9385
330
1A
100
AcDbEntity
  8
SEIHIN
 48
5.0
100
AcDbLine
 10
341.5536459910337
 20
93.11528990396116
 30
0.0
 11
335.9285559910338
 21
93.11528990396116
 31
0.0
  0
LINE
  5
9386
330
1A
100
AcDbEntity
  8
SEIHIN
 48
5.0
100
AcDbLine
 10
341.5536459910337
 20
99.41528990396117
 30
0.0
 11
340.7751459910337
 21
98.89319990396117
 31
0.0
  0
LINE
  5
9387
330
1A
100
AcDbEntity
  8
SEIHIN
 48
5.0
100
AcDbLine
 10
341.5536459910337
 20
101.2152899039611
 30
0.0
 11
340.7751459910337
 21
101.7373799039611
 31
0.0
  0
LINE
  5
9388
330
1A
100
AcDbEntity
  8
SEIHIN
 48
5.0
100
AcDbLine
 10
341.5536459910337
 20
95.81528990396117
 30
0.0
 11
340.7751459910337
 21
96.33737990396117
 31
0.0
  0
LINE
  5
9389
330
1A
100
AcDbEntity
  8
SEIHIN
 48
5.0
100
AcDbLine
 10
324.6786459910337
 20
93.11528990396116
 30
0.0
 11
341.5535559910338
 21
95.81519990396117
 31
0.0
  0
LINE
  5
938A
330
1A
100
AcDbEntity
  8
SEIHIN
 48
5.0
100
AcDbLine
 10
322.0681059910337
 20
98.09759990396116
 30
0.0
 11
341.5536459910337
 21
101.2152899039611
 31
0.0
  0
LINE
  5
938B
330
1A
100
AcDbEntity
  8
SEIHIN
 48
5.0
100
AcDbLine
 10
341.5536459910337
 20
99.41528990396117
 30
0.0
 11
322.0681059910337
 21
96.29759990396117
 31
0.0
  0
LINE
  5
938C
330
1A
100
AcDbEntity
  8
SEIHIN
 48
5.0
100
AcDbLine
 10
341.5536459910337
 20
104.8152899039611
 30
0.0
 11
322.0681059910337
 21
101.6975999039611
 31
0.0
  0
LINE
  5
938D
330
1A
100
AcDbEntity
  8
SEIHIN
  6
Continuous
 62
     3
100
AcDbLine
 10
371.2025559910352
 20
68.31526810605544
 30
0.0
 11
314.802555991032
 21
68.31526810605538
 31
0.0
  0
LINE
  5
938E
330
1A
100
AcDbEntity
  8
SEIHIN
  6
Continuous
 62
     3
100
AcDbLine
 10
313.802555991032
 20
73.31526810605544
 30
0.0
 11
313.802555991032
 21
90.81528990394588
 31
0.0
  0
LINE
  5
938F
330
1A
100
AcDbEntity
  8
SEIHIN
  6
Continuous
 62
     3
100
AcDbLine
 10
314.802555991032
 20
68.31526810605544
 30
0.0
 11
313.802555991032
 21
73.31526810605544
 31
0.0
  0
LINE
  5
9390
330
1A
100
AcDbEntity
  8
SEIHIN
  6
Continuous
 62
     3
100
AcDbLine
 10
310.7025559910334
 20
74.6152899039597
 30
0.0
 11
311.0025559910327
 21
79.11528990395971
 31
0.0
  0
LINE
  5
9391
330
1A
100
AcDbEntity
  8
SEIHIN
  6
Continuous
 62
     3
100
AcDbLine
 10
313.802555991032
 20
74.6152899039597
 30
0.0
 11
310.7025559910334
 21
74.6152899039597
 31
0.0
  0
LINE
  5
9392
330
1A
100
AcDbEntity
  8
SEIHIN
  6
Continuous
 62
     3
100
AcDbLine
 10
311.0025559910327
 20
80.51528990396116
 30
0.0
 11
313.802555991032
 21
80.51528990396116
 31
0.0
  0
LINE
  5
9393
330
1A
100
AcDbEntity
  8
SEIHIN
  6
Continuous
 62
     3
100
AcDbLine
 10
311.0025559910327
 20
79.11528990395971
 30
0.0
 11
311.0025559910327
 21
80.51528990396116
 31
0.0
  0
LINE
  5
9394
330
1A
100
AcDbEntity
  8
SEIHIN
 48
5.0
100
AcDbLine
 10
340.7751459910337
 20
101.7373799039611
 30
0.0
 11
324.0164259910336
 21
98.61959990396115
 31
0.0
  0
LINE
  5
9395
330
1A
100
AcDbEntity
  8
SEIHIN
 48
5.0
100
AcDbLine
 10
340.7751459910337
 20
96.33737990396117
 30
0.0
 11
324.0163359910336
 21
93.21959990396118
 31
0.0
  0
LINE
  5
9396
330
1A
100
AcDbEntity
  8
SEIHIN
 48
5.0
100
AcDbLine
 10
340.7751459910337
 20
98.89319990396117
 30
0.0
 11
324.0163359910336
 21
95.77541990396117
 31
0.0
  0
LINE
  5
9397
330
1A
100
AcDbEntity
  8
SEIHIN
 48
5.0
100
AcDbLine
 10
340.7751459910337
 20
104.2931999039611
 30
0.0
 11
324.0165159910337
 21
101.1754199039611
 31
0.0
  0
LINE
  5
9398
330
1A
100
AcDbEntity
  8
SEIHIN
 48
5.0
100
AcDbLine
 10
322.0681059910337
 20
96.29759990396117
 30
0.0
 11
322.0680159910337
 21
93.11537990396116
 31
0.0
  0
LINE
  5
9399
330
1A
100
AcDbEntity
  8
SEIHIN
 48
5.0
100
AcDbLine
 10
324.0166059910337
 20
95.77550990396117
 30
0.0
 11
324.0166059910337
 21
93.21968990396118
 31
0.0
  0
LINE
  5
939A
330
1A
100
AcDbEntity
  8
SEIHIN
  6
Continuous
 62
     3
100
AcDbLine
 10
312.5025559910327
 20
86.17282557103033
 30
0.0
 11
312.4450203239621
 21
86.11528990395971
 31
0.0
  0
ARC
  5
939B
330
1A
100
AcDbEntity
  8
SEIHIN
  6
Continuous
 62
     3
100
AcDbCircle
 10
312.802555991032
 20
90.81528990394588
 30
0.0
 40
0.9999999999998863
100
AcDbArc
 50
0.0
 51
90.0
  0
LINE
  5
939C
330
1A
100
AcDbEntity
  8
SEIHIN
  6
Continuous
 62
     3
100
AcDbLine
 10
312.802555991032
 20
91.81528990394587
 30
0.0
 11
311.9025945425755
 21
91.81528990394587
 31
0.0
  0
LINE
  5
939D
330
1A
100
AcDbEntity
  8
SEIHIN
  6
Continuous
 62
     3
100
AcDbLine
 10
313.0985428824215
 20
86.11528990395971
 30
0.0
 11
313.0985428824215
 21
88.1152899039597
 31
0.0
  0
LINE
  5
939E
330
1A
100
AcDbEntity
  8
SEIHIN
  6
Continuous
 62
     3
100
AcDbLine
 10
313.0985428824215
 20
86.11528990395971
 30
0.0
 11
312.5025559910327
 21
86.11528990395971
 31
0.0
  0
LINE
  5
939F
330
1A
100
AcDbEntity
  8
SEIHIN
  6
Continuous
 62
     3
100
AcDbLine
 10
312.5025559910327
 20
86.11528990395971
 30
0.0
 11
312.5025559910327
 21
88.1152899039597
 31
0.0
  0
LINE
  5
93A0
330
1A
100
AcDbEntity
  8
SEIHIN
  6
Continuous
 62
     3
100
AcDbLine
 10
313.0985428824215
 20
88.1152899039597
 30
0.0
 11
312.5025559910327
 21
88.1152899039597
 31
0.0
  0
LINE
  5
93A1
330
1A
100
AcDbEntity
  8
SEIHIN
 48
5.0
100
AcDbLine
 10
323.6269959910337
 20
93.11528990396116
 30
0.0
 11
324.0166059910337
 21
93.21968990396118
 31
0.0
  0
LINE
  5
93A2
330
1A
100
AcDbEntity
  8
SEIHIN
 48
5.0
100
AcDbLine
 10
324.6786459910337
 20
93.11528990396116
 30
0.0
 11
322.0681059910337
 21
93.11528990396116
 31
0.0
  0
ARC
  5
93A3
330
1A
100
AcDbEntity
  8
SEIHIN
  6
Continuous
 62
     3
100
AcDbCircle
 10
312.3025945425752
 20
95.61528990396153
 30
0.0
 40
1.5
100
AcDbArc
 50
0.0
 51
90.0
  0
ARC
  5
93A4
330
1A
100
AcDbEntity
  8
SEIHIN
  6
Continuous
 62
     3
100
AcDbCircle
 10
312.8025945425751
 20
101.1152899039597
 30
0.0
 40
1.0
100
AcDbArc
 50
270.0
 51
0.0
  0
ARC
  5
93A5
330
1A
100
AcDbEntity
  8
SEIHIN
  6
Continuous
 62
     3
100
AcDbCircle
 10
313.3025945425752
 20
95.31528990394589
 30
0.0
 40
0.5
100
AcDbArc
 50
270.0
 51
0.0
  0
LINE
  5
93A6
330
1A
100
AcDbEntity
  8
SEIHIN
  6
Continuous
 62
     3
100
AcDbLine
 10
313.8025945425752
 20
95.31528990394589
 30
0.0
 11
313.8025945425752
 21
95.61528990396153
 31
0.0
  0
LINE
  5
93A7
330
1A
100
AcDbEntity
  8
SEIHIN
  6
Continuous
 62
     3
100
AcDbLine
 10
310.8147865746841
 20
95.11528990395971
 30
0.0
 11
310.8147865746841
 21
96.11528990395971
 31
0.0
  0
ARC
  5
93A8
330
1A
100
AcDbEntity
  8
SEIHIN
  6
Continuous
 62
     3
100
AcDbCircle
 10
308.9525559910335
 20
96.11528990395971
 30
0.0
 40
1.000000000000023
100
AcDbArc
 50
0.0
 51
63.25631604955781
  0
LINE
  5
93A9
330
1A
100
AcDbEntity
  8
SEIHIN
  6
Continuous
 62
     3
100
AcDbLine
 10
309.9525559910334
 20
95.11528990395971
 30
0.0
 11
309.9525559910334
 21
96.11528990395971
 31
0.0
  0
LINE
  5
93AA
330
1A
100
AcDbEntity
  8
SEIHIN
  6
Continuous
 62
     3
100
AcDbLine
 10
309.9025945425755
 20
100.1152899039597
 30
0.0
 11
312.8025945425751
 21
100.1152899039597
 31
0.0
  0
LINE
  5
93AB
330
1A
100
AcDbEntity
  8
SEIHIN
  6
Continuous
 62
     3
100
AcDbLine
 10
312.3025945425752
 20
97.1152899039597
 30
0.0
 11
309.4025945425755
 21
97.1152899039597
 31
0.0
  0
LINE
  5
93AC
330
1A
100
AcDbEntity
  8
SEIHIN
  6
Continuous
 62
     3
100
AcDbLine
 10
310.8147865746841
 20
95.11528990395971
 30
0.0
 11
309.9525559910334
 21
95.11528990395971
 31
0.0
  0
ARC
  5
93AD
330
1A
100
AcDbEntity
  8
SEIHIN
  6
Continuous
 62
     3
100
AcDbCircle
 10
309.8037411484374
 20
96.10429485158682
 30
0.0
 40
1.011105209714617
100
AcDbArc
 50
0.6230632647410502
 51
90.84576579722947
  0
LINE
  5
93AE
330
1A
100
AcDbEntity
  8
SEIHIN
 48
5.0
100
AcDbLine
 10
322.0681059910337
 20
103.4975999039611
 30
0.0
 11
324.0166059910337
 21
104.0196899039611
 31
0.0
  0
LINE
  5
93AF
330
1A
100
AcDbEntity
  8
SEIHIN
 48
5.0
100
AcDbLine
 10
324.0166059910337
 20
101.175509903961
 30
0.0
 11
324.0166059910337
 21
98.61968990396116
 31
0.0
  0
LINE
  5
93B0
330
1A
100
AcDbEntity
  8
SEIHIN
 48
5.0
100
AcDbLine
 10
322.0681059910337
 20
101.6975999039611
 30
0.0
 11
324.0166059910337
 21
101.175509903961
 31
0.0
  0
LINE
  5
93B1
330
1A
100
AcDbEntity
  8
SEIHIN
 48
5.0
100
AcDbLine
 10
322.0681059910337
 20
96.29759990396117
 30
0.0
 11
324.0166059910337
 21
95.77550990396117
 31
0.0
  0
LINE
  5
93B2
330
1A
100
AcDbEntity
  8
SEIHIN
 48
5.0
100
AcDbLine
 10
322.0681059910337
 20
101.6975999039611
 30
0.0
 11
322.0681059910337
 21
98.09759990396116
 31
0.0
  0
LINE
  5
93B3
330
1A
100
AcDbEntity
  8
SEIHIN
 48
5.0
100
AcDbLine
 10
322.0681059910337
 20
98.09759990396116
 30
0.0
 11
324.0166059910337
 21
98.61968990396116
 31
0.0
  0
LINE
  5
93B4
330
1A
100
AcDbEntity
  8
SEIHIN
 48
5.0
100
AcDbLine
 10
340.7751459910337
 20
93.49319990396116
 30
0.0
 11
340.7751459910337
 21
93.11528990396116
 31
0.0
  0
LINE
  5
93B5
330
1A
100
AcDbEntity
  8
SEIHIN
 48
5.0
100
AcDbLine
 10
340.7751459910337
 20
93.49319990396116
 30
0.0
 11
337.7155959910337
 21
93.11528990396116
 31
0.0
  0
LINE
  5
93B6
330
1A
100
AcDbEntity
  8
SEIHIN
 48
5.0
100
AcDbLine
 10
340.7751459910337
 20
98.89319990396117
 30
0.0
 11
340.7751459910337
 21
96.33737990396117
 31
0.0
  0
LINE
  5
93B7
330
1A
100
AcDbEntity
  8
SEIHIN
 48
5.0
100
AcDbLine
 10
340.7751459910337
 20
104.2931999039611
 30
0.0
 11
340.7751459910337
 21
101.7373799039611
 31
0.0
  0
LINE
  5
93B8
330
1A
100
AcDbEntity
  8
SEIHIN
  6
Continuous
 62
     3
100
AcDbLine
 10
372.2025559910353
 20
87.81528990394589
 30
0.0
 11
372.2025559910353
 21
73.31526810605726
 31
0.0
  0
LINE
  5
93B9
330
1A
100
AcDbEntity
  8
SEIHIN
  6
Continuous
 62
     3
100
AcDbLine
 10
370.2025174394921
 20
68.31526810605544
 30
0.0
 11
370.2025174394921
 21
93.11528990396116
 31
0.0
  0
LINE
  5
93BA
330
1A
100
AcDbEntity
  8
SEIHIN
  6
Continuous
 62
     3
100
AcDbLine
 10
372.2025559910353
 20
73.31526810605726
 30
0.0
 11
371.2025559910352
 21
68.31526810605544
 31
0.0
  0
LINE
  5
93BB
330
1A
100
AcDbEntity
  8
SEIHIN
 48
5.0
100
AcDbLine
 10
341.5536459910337
 20
94.01528990396116
 30
0.0
 11
341.5536459910337
 21
93.11528990396116
 31
0.0
  0
LINE
  5
93BC
330
1A
100
AcDbEntity
  8
SEIHIN
 48
5.0
100
AcDbLine
 10
341.5536459910337
 20
99.41528990396117
 30
0.0
 11
341.5536459910337
 21
95.81528990396117
 31
0.0
  0
LINE
  5
93BD
330
1A
100
AcDbEntity
  8
SEIHIN
 48
5.0
100
AcDbLine
 10
341.5536459910337
 20
104.8152899039611
 30
0.0
 11
341.5536459910337
 21
101.2152899039611
 31
0.0
  0
LINE
  5
93BE
330
1A
100
AcDbEntity
  8
SEIHIN
  6
Continuous
 62
     3
100
AcDbLine
 10
370.2025174394921
 20
94.0688684888345
 30
0.0
 11
370.2025174394921
 21
95.76171131908784
 31
0.0
  0
LINE
  5
93BF
330
1A
100
AcDbEntity
  8
SEIHIN
 48
5.0
100
AcDbLine
 10
365.3859159910337
 20
94.89188990396119
 30
0.0
 11
365.3859159910337
 21
93.11528990396116
 31
0.0
  0
LINE
  5
93C0
330
1A
100
AcDbEntity
  8
SEIHIN
 48
5.0
100
AcDbLine
 10
368.0540559910338
 20
93.49319990396116
 30
0.0
 11
366.1645059910338
 21
93.11528990396116
 31
0.0
  0
LINE
  5
93C1
330
1A
100
AcDbEntity
  8
SEIHIN
 48
5.0
100
AcDbLine
 10
368.0540559910338
 20
93.49319990396116
 30
0.0
 11
368.0540559910338
 21
93.11528990396116
 31
0.0
  0
LINE
  5
93C2
330
1A
100
AcDbEntity
  8
SEIHIN
 48
5.0
100
AcDbLine
 10
370.2025174394921
 20
94.0688684888345
 30
0.0
 11
368.0540559910338
 21
93.49319990396116
 31
0.0
  0
LINE
  5
93C3
330
1A
100
AcDbEntity
  8
SEIHIN
 48
5.0
100
AcDbLine
 10
370.0025559910336
 20
93.11528990396116
 30
0.0
 11
365.3860059910337
 21
93.11528990396116
 31
0.0
  0
LINE
  5
93C4
330
1A
100
AcDbEntity
  8
SEIHIN
  6
Continuous
 62
     3
100
AcDbLine
 10
370.2025174394921
 20
99.46886848883451
 30
0.0
 11
370.2025174394921
 21
101.1617113190878
 31
0.0
  0
LINE
  5
93C5
330
1A
100
AcDbEntity
  8
SEIHIN
 48
5.0
100
AcDbLine
 10
370.2025174394921
 20
104.8688684888344
 30
0.0
 11
368.0540559910338
 21
104.2931999039611
 31
0.0
  0
LINE
  5
93C6
330
1A
100
AcDbEntity
  8
SEIHIN
 48
5.0
100
AcDbLine
 10
370.0025559910336
 20
101.2152899039611
 30
0.0
 11
365.3859159910337
 21
100.2918899039611
 31
0.0
  0
LINE
  5
93C7
330
1A
100
AcDbEntity
  8
SEIHIN
 48
5.0
100
AcDbLine
 10
370.2025174394921
 20
99.46886848883449
 30
0.0
 11
368.0540559910338
 21
98.89319990396117
 31
0.0
  0
LINE
  5
93C8
330
1A
100
AcDbEntity
  8
SEIHIN
 48
5.0
100
AcDbLine
 10
370.2025174394921
 20
101.1617113190878
 30
0.0
 11
368.0540559910338
 21
101.7373799039611
 31
0.0
  0
LINE
  5
93C9
330
1A
100
AcDbEntity
  8
SEIHIN
 48
5.0
100
AcDbLine
 10
370.2025174394921
 20
95.76171131908782
 30
0.0
 11
368.0540559910338
 21
96.33737990396117
 31
0.0
  0
LINE
  5
93CA
330
1A
100
AcDbEntity
  8
SEIHIN
 48
5.0
100
AcDbLine
 10
370.0025559910336
 20
95.81528990396122
 30
0.0
 11
365.3859159910337
 21
94.89188990396119
 31
0.0
  0
LINE
  5
93CB
330
1A
100
AcDbEntity
  8
SEIHIN
 48
5.0
100
AcDbLine
 10
368.0540559910338
 20
98.89319990396117
 30
0.0
 11
368.0540559910338
 21
96.33737990396117
 31
0.0
  0
LINE
  5
93CC
330
1A
100
AcDbEntity
  8
SEIHIN
 48
5.0
100
AcDbLine
 10
365.3859159910337
 20
100.2918899039611
 30
0.0
 11
365.3859159910337
 21
98.3594999039612
 31
0.0
  0
LINE
  5
93CD
330
1A
100
AcDbEntity
  8
SEIHIN
 48
5.0
100
AcDbLine
 10
368.0540559910338
 20
104.2931999039611
 30
0.0
 11
368.0540559910338
 21
101.7373799039611
 31
0.0
  0
LINE
  5
93CE
330
1A
100
AcDbEntity
  8
SEIHIN
 48
5.0
100
AcDbLine
 10
364.4859159910335
 20
98.17949990396115
 30
0.0
 11
364.4859159910335
 21
95.62376990396117
 31
0.0
  0
LINE
  5
93CF
330
1A
100
AcDbEntity
  8
SEIHIN
 48
5.0
100
AcDbLine
 10
364.4859159910335
 20
103.5794999039611
 30
0.0
 11
364.4859159910335
 21
101.0237699039611
 31
0.0
  0
LINE
  5
93D0
330
1A
100
AcDbEntity
  8
SEIHIN
 48
5.0
100
AcDbLine
 10
368.0540559910338
 20
104.2931999039611
 30
0.0
 11
364.4859159910335
 21
103.5794999039611
 31
0.0
  0
LINE
  5
93D1
330
1A
100
AcDbEntity
  8
SEIHIN
 48
5.0
100
AcDbLine
 10
364.4859159910335
 20
101.0237699039611
 30
0.0
 11
365.3859159910337
 21
100.2918899039611
 31
0.0
  0
LINE
  5
93D2
330
1A
100
AcDbEntity
  8
SEIHIN
 48
5.0
100
AcDbLine
 10
368.0540559910338
 20
101.7373799039611
 30
0.0
 11
364.4859159910335
 21
101.0237699039611
 31
0.0
  0
LINE
  5
93D3
330
1A
100
AcDbEntity
  8
SEIHIN
 48
5.0
100
AcDbLine
 10
368.0540559910338
 20
96.33737990396117
 30
0.0
 11
364.4859159910335
 21
95.62376990396117
 31
0.0
  0
LINE
  5
93D4
330
1A
100
AcDbEntity
  8
SEIHIN
 48
5.0
100
AcDbLine
 10
364.4859159910335
 20
95.62376990396117
 30
0.0
 11
365.3859159910337
 21
94.89197990396119
 31
0.0
  0
LINE
  5
93D5
330
1A
100
AcDbEntity
  8
SEIHIN
 48
5.0
100
AcDbLine
 10
368.0540559910338
 20
98.89319990396117
 30
0.0
 11
364.4859159910335
 21
98.17949990396115
 31
0.0
  0
LINE
  5
93D6
330
1A
100
AcDbEntity
  8
SEIHIN
  6
Continuous
 62
     3
100
AcDbLine
 10
372.2025174394921
 20
95.61528990396153
 30
0.0
 11
372.2025174394921
 21
95.31528990394589
 31
0.0
  0
LINE
  5
93D7
330
1A
100
AcDbEntity
  8
SEIHIN
 48
5.0
100
AcDbLine
 10
341.5536459910337
 20
110.2152899039611
 30
0.0
 11
340.7751459910337
 21
109.6931999039611
 31
0.0
  0
LINE
  5
93D8
330
1A
100
AcDbEntity
  8
SEIHIN
 48
5.0
100
AcDbLine
 10
341.5536459910337
 20
106.6152899039611
 30
0.0
 11
340.7751459910337
 21
107.1373799039611
 31
0.0
  0
LINE
  5
93D9
330
1A
100
AcDbEntity
  8
SEIHIN
 48
5.0
100
AcDbLine
 10
341.5536459910337
 20
110.2152899039611
 30
0.0
 11
322.0681059910337
 21
107.0975999039611
 31
0.0
  0
DIMENSION
  5
93DA
330
1A
100
AcDbEntity
  8
SUNPOU
100
AcDbDimension
  2
*D8
 10
370.2025174394921
 20
132.3067052477748
 30
0.0
 11
343.3798866877759
 21
134.8067052477748
 31
0.0
 70
    32
  1
φ<>
 71
     5
 42
-1.0
  3
STANDARD
100
AcDbAlignedDimension
 13
316.5572559360598
 23
112.0152899039611
 33
0.0
 14
370.2025174394921
 24
112.0152899039611
 34
0.0
100
AcDbRotatedDimension
1001
ACAD
1000
DSTYLE
1002
{
1070
    41
1040
3.0
1070
    42
1040
3.0
1070
    43
1040
7.0
1070
    44
1040
1.5
1070
    73
1070
     0
1070
    74
1070
     0
1070
    77
1070
     3
1070
   140
1040
3.0
1070
   141
1040
150.0
1070
   147
1040
1.0
1070
   172
1070
     1
1070
   173
1070
     1
1070
   176
1070
     4
1070
   177
1070
     4
1070
   178
1070
     4
1070
   271
1070
     0
1070
   272
1070
     2
1070
     6
1000
OPEN
1070
     7
1000
OPEN
1002
}
  0
LINE
  5
93DB
330
1A
100
AcDbEntity
  8
SEIHIN
 48
5.0
100
AcDbLine
 10
328.2932259910337
 20
110.2152899039611
 30
0.0
 11
324.0166059910337
 21
109.4196899039611
 31
0.0
  0
LINE
  5
93DC
330
1A
100
AcDbEntity
  8
SEIHIN
 48
5.0
100
AcDbLine
 10
330.3035559910338
 20
110.2152899039611
 30
0.0
 11
322.0681059910337
 21
110.2152899039611
 31
0.0
  0
LINE
  5
93DD
330
1A
100
AcDbEntity
  8
SEIHIN
 48
5.0
100
AcDbLine
 10
322.0681059910337
 20
108.8975999039611
 30
0.0
 11
330.3035559910338
 21
110.2152899039611
 31
0.0
  0
LINE
  5
93DE
330
1A
100
AcDbEntity
  8
SEIHIN
 48
5.0
100
AcDbLine
 10
340.7751459910337
 20
109.6931999039611
 30
0.0
 11
324.0166059910337
 21
106.575509903961
 31
0.0
  0
ARC
  5
93DF
330
1A
100
AcDbEntity
  8
SEIHIN
  6
Continuous
 62
     3
100
AcDbCircle
 10
312.8025945425751
 20
109.0152899039611
 30
0.0
 40
1.0
100
AcDbArc
 50
0.0
 51
90.0
  0
LINE
  5
93E0
330
1A
100
AcDbEntity
  8
SEIHIN
  6
Continuous
 62
     3
100
AcDbLine
 10
312.8025945425751
 20
110.0152899039611
 30
0.0
 11
311.3558579780392
 21
110.0152899039611
 31
0.0
  0
LINE
  5
93E1
330
1A
100
AcDbEntity
  8
SEIHIN
 48
5.0
100
AcDbLine
 10
324.0166059910337
 20
110.2156499039611
 30
0.0
 11
324.0166059910337
 21
109.4196899039611
 31
0.0
  0
LINE
  5
93E2
330
1A
100
AcDbEntity
  8
SEIHIN
 48
5.0
100
AcDbLine
 10
322.0681059910337
 20
107.0975999039611
 30
0.0
 11
324.0166059910337
 21
106.575509903961
 31
0.0
  0
LINE
  5
93E3
330
1A
100
AcDbEntity
  8
SEIHIN
 48
5.0
100
AcDbLine
 10
322.0681059910337
 20
110.2153799039611
 30
0.0
 11
322.0681059910337
 21
108.8975999039611
 31
0.0
  0
LINE
  5
93E4
330
1A
100
AcDbEntity
  8
SEIHIN
 48
5.0
100
AcDbLine
 10
322.0681059910337
 20
108.8975999039611
 30
0.0
 11
324.0166059910337
 21
109.4196899039611
 31
0.0
  0
LINE
  5
93E5
330
1A
100
AcDbEntity
  8
SEIHIN
 48
5.0
100
AcDbLine
 10
340.7751459910337
 20
109.6931999039611
 30
0.0
 11
340.7751459910337
 21
107.1373799039611
 31
0.0
  0
LINE
  5
93E6
330
1A
100
AcDbEntity
  8
SEIHIN
 48
5.0
100
AcDbLine
 10
341.5536459910337
 20
110.2152899039611
 30
0.0
 11
341.5536459910337
 21
106.6152899039611
 31
0.0
  0
LINE
  5
93E7
330
1A
100
AcDbEntity
  8
SEIHIN
  6
Continuous
 62
     3
100
AcDbLine
 10
370.2025174394921
 20
110.2688684888344
 30
0.0
 11
370.2025174394921
 21
112.0152899039611
 31
0.0
  0
LINE
  5
93E8
330
1A
100
AcDbEntity
  8
SEIHIN
 48
5.0
100
AcDbLine
 10
365.3859159910337
 20
110.2152899039611
 30
0.0
 11
365.3859159910337
 21
109.1595899039611
 31
0.0
  0
LINE
  5
93E9
330
1A
100
AcDbEntity
  8
SEIHIN
 48
5.0
100
AcDbLine
 10
370.2025174394921
 20
110.2688684888344
 30
0.0
 11
368.0540559910338
 21
109.6931999039611
 31
0.0
  0
LINE
  5
93EA
330
1A
100
AcDbEntity
  8
SEIHIN
 48
5.0
100
AcDbLine
 10
370.0025559910339
 20
110.2152899039611
 30
0.0
 11
365.3859159910337
 21
110.2152899039611
 31
0.0
  0
LINE
  5
93EB
330
1A
100
AcDbEntity
  8
SEIHIN
 48
5.0
100
AcDbLine
 10
370.0025559910336
 20
110.2152899039611
 30
0.0
 11
365.3860059910337
 21
110.2152899039611
 31
0.0
  0
LINE
  5
93EC
330
1A
100
AcDbEntity
  8
SEIHIN
 48
5.0
100
AcDbLine
 10
370.2025174394921
 20
106.5617113190878
 30
0.0
 11
368.0540559910338
 21
107.1373799039611
 31
0.0
  0
LINE
  5
93ED
330
1A
100
AcDbEntity
  8
SEIHIN
 48
5.0
100
AcDbLine
 10
370.0025559910334
 20
106.6152899039611
 30
0.0
 11
365.3859159910337
 21
105.6919799039611
 31
0.0
  0
LINE
  5
93EE
330
1A
100
AcDbEntity
  8
SEIHIN
 48
5.0
100
AcDbLine
 10
368.0540559910338
 20
109.6931999039611
 30
0.0
 11
368.0540559910338
 21
107.1373799039611
 31
0.0
  0
LINE
  5
93EF
330
1A
100
AcDbEntity
  8
SEIHIN
 48
5.0
100
AcDbLine
 10
364.4859159910335
 20
108.9794999039611
 30
0.0
 11
364.4859159910335
 21
106.4237699039611
 31
0.0
  0
LINE
  5
93F0
330
1A
100
AcDbEntity
  8
SEIHIN
 48
5.0
100
AcDbLine
 10
368.0540559910338
 20
107.1373799039611
 30
0.0
 11
364.4859159910335
 21
106.4237699039611
 31
0.0
  0
LINE
  5
93F1
330
1A
100
AcDbEntity
  8
SEIHIN
 48
5.0
100
AcDbLine
 10
364.4859159910335
 20
106.4237699039611
 30
0.0
 11
365.3859159910337
 21
105.6919799039611
 31
0.0
  0
LINE
  5
93F2
330
1A
100
AcDbEntity
  8
SEIHIN
 48
5.0
100
AcDbLine
 10
368.0540559910338
 20
109.6931999039611
 30
0.0
 11
364.4859159910335
 21
108.9794999039611
 31
0.0
  0
TEXT
  5
93F8
330
1A
100
AcDbEntity
  8
MOJI
100
AcDbText
 10
113.9571487248856
 20
9.943700510076666
 30
0.0
 40
2.799999999999999
  1
自在ドレン
 41
0.9
  7
ｽﾀｲﾙ1
100
AcDbText
  0
LINE
  5
93FA
330
1A
100
AcDbEntity
  8
SEIHIN
  6
Continuous
 62
     3
100
AcDbLine
 10
44.6027952344616
 20
106.8605225652702
 30
0.0
 11
120.9027952344627
 21
106.8605225652702
 31
0.0
  0
DIMENSION
  5
93FB
330
1A
100
AcDbEntity
  8
SUNPOU
100
AcDbDimension
  2
*D9
 10
120.9027952344627
 20
120.0963551087902
 30
0.0
 11
82.75279523446215
 21
122.5963551087902
 31
0.0
 70
    32
  1
φ<>
 71
     5
 42
-1.0
  3
STANDARD
100
AcDbAlignedDimension
 13
44.6027952344616
 23
106.8605225652702
 33
0.0
 14
120.9027952344627
 24
106.8605225652702
 34
0.0
100
AcDbRotatedDimension
1001
ACAD
1000
DSTYLE
1002
{
1070
    41
1040
3.0
1070
    42
1040
3.0
1070
    43
1040
7.0
1070
    44
1040
1.5
1070
    73
1070
     0
1070
    74
1070
     0
1070
    77
1070
     3
1070
   140
1040
3.0
1070
   141
1040
150.0
1070
   147
1040
1.0
1070
   172
1070
     1
1070
   173
1070
     1
1070
   176
1070
     4
1070
   177
1070
     4
1070
   178
1070
     4
1070
   271
1070
     0
1070
   272
1070
     2
1070
     6
1000
OPEN
1070
     7
1000
OPEN
1002
}
  0
LINE
  5
93FC
330
1A
100
AcDbEntity
  8
SEIHIN
  6
Continuous
 62
     3
100
AcDbLine
 10
53.55279523446052
 20
68.16050076736633
 30
0.0
 11
111.9527952344619
 21
68.16050076736633
 31
0.0
  0
LINE
  5
93FD
330
1A
100
AcDbEntity
  8
SEIHIN
  6
Continuous
 62
     3
100
AcDbLine
 10
110.9527952344619
 20
63.16050076736451
 30
0.0
 11
54.55279523446051
 21
63.16050076736451
 31
0.0
  0
DIMENSION
  5
93FE
330
1A
100
AcDbEntity
  8
SUNPOU
100
AcDbDimension
  2
*D10
 10
111.9527952344619
 20
43.3564489977532
 30
0.0
 11
82.75279523446124
 21
45.8564489977532
 31
0.0
 70
    32
  1
φ<>
 71
     5
 42
-1.0
  3
STANDARD
100
AcDbAlignedDimension
 13
53.55279523446052
 23
68.16050076736633
 33
0.0
 14
111.9527952344619
 24
68.16050076736633
 34
0.0
100
AcDbRotatedDimension
1001
ACAD
1000
DSTYLE
1002
{
1070
    41
1040
3.0
1070
    42
1040
3.0
1070
    43
1040
7.0
1070
    44
1040
1.5
1070
    73
1070
     0
1070
    74
1070
     0
1070
    77
1070
     3
1070
   140
1040
3.0
1070
   141
1040
150.0
1070
   147
1040
1.0
1070
   172
1070
     1
1070
   173
1070
     1
1070
   176
1070
     4
1070
   177
1070
     4
1070
   178
1070
     4
1070
   271
1070
     0
1070
   272
1070
     2
1070
     6
1000
OPEN
1070
     7
1000
OPEN
1002
}
  0
LINE
  5
93FF
330
1A
100
AcDbEntity
  8
SEIHIN
  6
Continuous
 62
     3
100
AcDbLine
 10
47.75279523446124
 20
69.46052256527059
 30
0.0
 11
117.7527952344612
 21
69.46052256527059
 31
0.0
  0
LINE
  5
9401
330
1A
100
AcDbEntity
  8
SEIHIN
  6
Continuous
 62
     3
100
AcDbLine
 10
379.149254004068
 20
112.0152899039611
 30
0.0
 11
378.4651630949765
 21
100.1152899039615
 31
0.0
  0
LINE
  5
9402
330
1A
100
AcDbEntity
  8
SEIHIN
  6
Continuous
 62
     3
100
AcDbLine
 10
379.8082100697565
 20
88.62992364547324
 30
0.0
 11
381.1525559910342
 21
112.0152899039611
 31
0.0
  0
ARC
  5
9404
330
1A
100
AcDbEntity
  8
SEIHIN
  6
Continuous
 62
     3
100
AcDbCircle
 10
279.9730372893964
 20
94.3691113855192
 30
0.0
 40
100.0
100
AcDbArc
 50
348.6069626737941
 51
356.7098797766892
  0
ARC
  5
9405
330
1A
100
AcDbEntity
  8
SEIHIN
  6
Continuous
 62
     3
100
AcDbCircle
 10
279.9730372893964
 20
94.3691113855192
 30
0.0
 40
97.9999999999999
100
AcDbArc
 50
351.8731289853858
 51
354.8488890344558
  0
LINE
  5
9406
330
1A
100
AcDbEntity
  8
SEIHIN
  6
Continuous
 62
     3
100
AcDbLine
 10
375.3025559910338
 20
74.61528990396153
 30
0.0
 11
378.0025559910327
 21
74.61528990396153
 31
0.0
  0
LINE
  5
9407
330
1A
100
AcDbEntity
  8
SEIHIN
  6
Continuous
 62
     3
100
AcDbLine
 10
375.0025559910327
 20
79.11528990396153
 30
0.0
 11
375.3025559910338
 21
74.61528990396153
 31
0.0
  0
LINE
  5
9408
330
1A
100
AcDbEntity
  8
SEIHIN
  6
Continuous
 62
     3
100
AcDbLine
 10
375.0025559910327
 20
80.51528990396116
 30
0.0
 11
375.0025559910327
 21
79.11528990396153
 31
0.0
  0
LINE
  5
9409
330
1A
100
AcDbEntity
  8
SEIHIN
  6
Continuous
 62
     3
100
AcDbLine
 10
375.0025559910327
 20
80.51528990396116
 30
0.0
 11
376.9888691435689
 21
80.51528990396116
 31
0.0
  0
ARC
  5
940A
330
1A
100
AcDbEntity
  8
SEIHIN
  6
Continuous
 62
     3
100
AcDbCircle
 10
374.1025174394917
 20
94.81528990394588
 30
0.0
 40
3.000000000000099
100
AcDbArc
 50
302.231823044823
 51
0.0
  0
ARC
  5
940B
330
1A
100
AcDbEntity
  8
SEIHIN
  6
Continuous
 62
     3
100
AcDbCircle
 10
377.118592315398
 20
94.11528990396153
 30
0.0
 40
1.000000000000045
100
AcDbArc
 50
356.7098797766892
 51
90.0
  0
ARC
  5
940C
330
1A
100
AcDbEntity
  8
SEIHIN
  6
Continuous
 62
     3
100
AcDbCircle
 10
376.4797267517069
 20
94.14655017800113
 30
0.0
 40
0.8316527985894049
100
AcDbArc
 50
353.8807838890361
 51
43.16891211362682
  0
LINE
  5
940D
330
1A
100
AcDbEntity
  8
SEIHIN
  6
Continuous
 62
     3
100
AcDbLine
 10
375.7025559910353
 20
92.2775987025642
 30
0.0
 11
375.7025559910353
 21
89.81528990394588
 31
0.0
  0
ARC
  5
940E
330
1A
100
AcDbEntity
  8
SEIHIN
  6
Continuous
 62
     3
100
AcDbCircle
 10
374.7025559910353
 20
89.81528990394588
 30
0.0
 40
1.0
100
AcDbArc
 50
270.0
 51
0.0
  0
LINE
  5
940F
330
1A
100
AcDbEntity
  8
SEIHIN
  6
Continuous
 62
     3
100
AcDbLine
 10
374.7025559910353
 20
88.81528990394588
 30
0.0
 11
373.2025559910352
 21
88.81528990394588
 31
0.0
  0
ARC
  5
9410
330
1A
100
AcDbEntity
  8
SEIHIN
  6
Continuous
 62
     3
100
AcDbCircle
 10
377.0792709176703
 20
85.61528990396153
 30
0.0
 40
0.5000000000000031
100
AcDbArc
 50
354.8488890344558
 51
90.0
  0
LINE
  5
9411
330
1A
100
AcDbEntity
  8
SEIHIN
  6
Continuous
 62
     3
100
AcDbLine
 10
373.5025559910327
 20
86.11528990396152
 30
0.0
 11
377.0792709176703
 21
86.11528990396152
 31
0.0
  0
LINE
  5
9412
330
1A
100
AcDbEntity
  8
SEIHIN
  6
Continuous
 62
     3
100
AcDbLine
 10
373.5025559910327
 20
90.11528990396152
 30
0.0
 11
373.5025559910327
 21
86.11528990396152
 31
0.0
  0
ARC
  5
9413
330
1A
100
AcDbEntity
  8
SEIHIN
  6
Continuous
 62
     3
100
AcDbCircle
 10
374.5025559910327
 20
90.11528990396152
 30
0.0
 40
1.0
100
AcDbArc
 50
90.0
 51
180.0
  0
LINE
  5
9414
330
1A
100
AcDbEntity
  8
SEIHIN
  6
Continuous
 62
     3
100
AcDbLine
 10
374.5025559910327
 20
91.11528990396152
 30
0.0
 11
377.9477834158324
 21
91.11528990396152
 31
0.0
  0
LINE
  5
9415
330
1A
100
AcDbEntity
  8
SEIHIN
  6
Continuous
 62
     3
100
AcDbLine
 10
378.1169440432013
 20
94.05789802656078
 30
0.0
 11
377.9477834158324
 21
91.11528990396152
 31
0.0
  0
LINE
  5
9416
330
1A
100
AcDbEntity
  8
SEIHIN
  6
Continuous
 62
     3
100
AcDbLine
 10
377.3066409996472
 20
94.05789802656078
 30
0.0
 11
378.1169440432013
 21
94.05789802656078
 31
0.0
  0
LINE
  5
9417
330
1A
100
AcDbEntity
  8
SEIHIN
  6
Continuous
 62
     3
100
AcDbLine
 10
377.0526599065315
 20
85.57039851174783
 30
0.0
 11
377.5772516029437
 21
85.57039851174783
 31
0.0
  0
ARC
  5
9418
330
1A
100
AcDbEntity
  8
SEIHIN
  6
Continuous
 62
     3
100
AcDbCircle
 10
376.5510904981338
 20
85.61201449537373
 30
0.0
 40
0.5032929182231975
100
AcDbArc
 50
355.2569454913245
 51
90.47793301543652
  0
LINE
  5
9419
330
1A
100
AcDbEntity
  8
SEIHIN
  6
Continuous
 62
     3
100
AcDbLine
 10
372.9065690996439
 20
86.11528990396152
 30
0.0
 11
372.9065690996439
 21
88.11528990396153
 31
0.0
  0
LINE
  5
941A
330
1A
100
AcDbEntity
  8
SEIHIN
  6
Continuous
 62
     3
100
AcDbLine
 10
372.9065690996439
 20
88.11528990396153
 30
0.0
 11
373.4966537806058
 21
88.11528990396153
 31
0.0
  0
LINE
  5
941B
330
1A
100
AcDbEntity
  8
SEIHIN
  6
Continuous
 62
     3
100
AcDbLine
 10
373.4966537806058
 20
88.81528990394588
 30
0.0
 11
373.4966537806058
 21
88.11528990396153
 31
0.0
  0
LINE
  5
941C
330
1A
100
AcDbEntity
  8
SEIHIN
  6
Continuous
 62
     3
100
AcDbLine
 10
372.9065690996439
 20
86.11528990396152
 30
0.0
 11
373.5025559910327
 21
86.11528990396152
 31
0.0
  0
LINE
  5
941D
330
1A
100
AcDbEntity
  8
SEIHIN
  6
Continuous
 62
     3
100
AcDbLine
 10
373.4966537806058
 20
88.74470740027289
 30
0.0
 11
372.8335260227095
 21
88.74470740027289
 31
0.0
  0
LINE
  5
941E
330
1A
100
AcDbEntity
  8
SEIHIN
  6
Continuous
 62
     3
100
AcDbLine
 10
373.2025174394921
 20
100.1152899039615
 30
0.0
 11
376.1025174394917
 21
100.1152899039615
 31
0.0
  0
ARC
  5
941F
330
1A
100
AcDbEntity
  8
SEIHIN
  6
Continuous
 62
     3
100
AcDbCircle
 10
376.1025174394917
 20
99.11528990396153
 30
0.0
 40
1.000000000000113
100
AcDbArc
 50
0.0
 51
90.0
  0
LINE
  5
9420
330
1A
100
AcDbEntity
  8
SEIHIN
  6
Continuous
 62
     3
100
AcDbLine
 10
377.1025174394917
 20
99.11528990396153
 30
0.0
 11
377.1025174394917
 21
97.61528990396152
 31
0.0
  0
ARC
  5
9421
330
1A
100
AcDbEntity
  8
SEIHIN
  6
Continuous
 62
     3
100
AcDbCircle
 10
376.6025174394917
 20
97.61528990396152
 30
0.0
 40
0.5000000000001137
100
AcDbArc
 50
270.0
 51
0.0
  0
LINE
  5
9422
330
1A
100
AcDbEntity
  8
SEIHIN
  6
Continuous
 62
     3
100
AcDbLine
 10
376.6025174394917
 20
97.11528990396153
 30
0.0
 11
373.7025174394921
 21
97.11528990396153
 31
0.0
  0
LINE
  5
9423
330
1A
100
AcDbEntity
  8
SEIHIN
  6
Continuous
 62
     3
100
AcDbLine
 10
372.702517439492
 20
94.81528990394588
 30
0.0
 11
377.1025174394917
 21
94.81528990394588
 31
0.0
  0
LINE
  5
9424
330
1A
100
AcDbEntity
  8
SEIHIN
  6
Continuous
 62
     3
100
AcDbLine
 10
376.0525559910338
 20
95.11528990396152
 30
0.0
 11
377.118592315398
 21
95.11528990396152
 31
0.0
  0
LINE
  5
9425
330
1A
100
AcDbEntity
  8
SEIHIN
  6
Continuous
 62
     3
100
AcDbLine
 10
376.0525559910338
 20
96.11528990396152
 30
0.0
 11
376.0525559910338
 21
95.11528990396152
 31
0.0
  0
ARC
  5
9426
330
1A
100
AcDbEntity
  8
SEIHIN
  6
Continuous
 62
     3
100
AcDbCircle
 10
377.0525559910338
 20
96.11528990396152
 30
0.0
 40
0.9999999999999726
100
AcDbArc
 50
116.7436839504421
 51
180.0
  0
LINE
  5
9427
330
1A
100
AcDbEntity
  8
SEIHIN
  6
Continuous
 62
     3
100
AcDbLine
 10
376.6025559910331
 20
97.0083184589356
 30
0.0
 11
378.4651630949765
 21
100.1152899039615
 31
0.0
  0
ARC
  5
9428
330
1A
100
AcDbEntity
  8
SEIHIN
  6
Continuous
 62
     3
100
AcDbCircle
 10
376.3362788781714
 20
94.23852315275224
 30
0.0
 40
0.8783245013039824
100
AcDbArc
 50
41.04617501383012
 51
93.41289739708173
  0
ARC
  5
9429
330
1A
100
AcDbEntity
  8
SEIHIN
  6
Continuous
 62
     3
100
AcDbCircle
 10
376.2024236474253
 20
96.1032146959941
 30
0.0
 40
1.012170271321301
100
AcDbArc
 50
89.2147267442022
 51
179.3164441938045
  0
LINE
  5
942A
330
1A
100
AcDbEntity
  8
SEIHIN
  6
Continuous
 62
     3
100
AcDbLine
 10
376.6666846053276
 20
97.11528990396153
 30
0.0
 11
376.6025174394917
 21
97.11528990396153
 31
0.0
  0
LINE
  5
942B
330
1A
100
AcDbEntity
  8
SEIHIN
  6
Continuous
 62
     3
100
AcDbLine
 10
375.1903254073813
 20
95.11528990396152
 30
0.0
 11
375.1903254073813
 21
96.11528990396152
 31
0.0
  0
LINE
  5
942C
330
1A
100
AcDbEntity
  8
SEIHIN
  6
Continuous
 62
     3
100
AcDbLine
 10
375.1903254073813
 20
95.11528990396152
 30
0.0
 11
376.0525559910338
 21
95.11528990396152
 31
0.0
  0
LINE
  5
942D
330
1A
100
AcDbEntity
  8
SEIHIN
  6
Continuous
 62
     3
100
AcDbLine
 10
378.649254004028
 20
112.0152899039611
 30
0.0
 11
378.649254004028
 21
111.0152899039611
 31
0.0
  0
LINE
  5
942E
330
1A
100
AcDbEntity
  8
SEIHIN
  6
Continuous
 62
     3
100
AcDbLine
 10
378.649254004028
 20
111.0152899039611
 30
0.0
 11
374.649254004028
 21
110.0152899039611
 31
0.0
  0
LINE
  5
942F
330
1A
100
AcDbEntity
  8
SEIHIN
  6
Continuous
 62
     3
100
AcDbLine
 10
374.649254004028
 20
110.0152899039611
 30
0.0
 11
373.2025174394921
 21
110.0152899039611
 31
0.0
  0
LINE
  5
9430
330
1A
100
AcDbEntity
  8
SEIHIN
  6
Continuous
 62
     3
100
AcDbLine
 10
44.6027952344616
 20
106.8605225652702
 30
0.0
 11
45.94714115573924
 21
83.4751563067823
 31
0.0
  0
LINE
  5
9431
330
1A
100
AcDbEntity
  8
CENTER L
  6
CENTER
 62
     1
 48
5.0
100
AcDbLine
 10
82.75279523446124
 20
112.339419899692
 30
0.0
 11
82.75279523446124
 21
57.5565796848698
 31
0.0
  0
ARC
  5
9432
330
1A
100
AcDbEntity
  8
SEIHIN
  6
Continuous
 62
     3
100
AcDbCircle
 10
145.7823139360993
 20
89.2143440468301
 30
0.0
 40
100.0
100
AcDbArc
 50
183.2901202233107
 51
191.3930373262058
  0
LINE
  5
9433
330
1A
100
AcDbEntity
  8
SEIHIN
  6
Continuous
 62
     3
100
AcDbLine
 10
53.55279523446052
 20
68.16050076736633
 30
0.0
 11
54.55279523446051
 21
63.16050076736451
 31
0.0
  0
LINE
  5
9434
330
1A
100
AcDbEntity
  8
SEIHIN
  6
Continuous
 62
     3
100
AcDbLine
 10
53.55279523446052
 20
69.46052256526877
 30
0.0
 11
53.55279523446052
 21
68.16050076736633
 31
0.0
  0
DIMENSION
  5
9435
330
1A
100
AcDbEntity
  8
SUNPOU
100
AcDbDimension
  2
*D11
 10
146.9125740397837
 20
63.16050076736449
 30
0.0
 11
144.4125740397837
 21
85.01051166631738
 31
0.0
 70
    32
 71
     5
 42
-1.0
  3
STANDARD
100
AcDbAlignedDimension
 13
120.9027952344627
 23
106.8605225652702
 33
0.0
 14
110.9527952344619
 24
63.16050076736451
 34
0.0
 50
90.0
100
AcDbRotatedDimension
1001
ACAD
1000
DSTYLE
1002
{
1070
    41
1040
3.0
1070
    42
1040
3.0
1070
    43
1040
7.0
1070
    44
1040
1.5
1070
    73
1070
     0
1070
    74
1070
     0
1070
    77
1070
     3
1070
   140
1040
3.0
1070
   141
1040
150.0
1070
   147
1040
1.0
1070
   172
1070
     1
1070
   173
1070
     1
1070
   176
1070
     4
1070
   177
1070
     4
1070
   178
1070
     4
1070
   271
1070
     0
1070
   272
1070
     2
1070
     6
1000
OPEN
1070
     7
1000
OPEN
1002
}
  0
DIMENSION
  5
9436
330
1A
100
AcDbEntity
  8
SUNPOU
100
AcDbDimension
  2
*D12
 10
138.8008385013506
 20
106.8605225652702
 30
0.0
 11
136.3008385013506
 21
88.16052256526994
 31
0.0
 70
    32
 71
     5
 42
-1.0
  3
STANDARD
100
AcDbAlignedDimension
 13
117.7527952344604
 23
69.46052256526963
 33
0.0
 14
120.9027952344627
 24
106.8605225652702
 34
0.0
 50
90.0
100
AcDbRotatedDimension
1001
ACAD
1000
DSTYLE
1002
{
1070
    41
1040
3.0
1070
    42
1040
3.0
1070
    43
1040
7.0
1070
    44
1040
1.5
1070
    73
1070
     0
1070
    74
1070
     0
1070
    77
1070
     3
1070
   140
1040
3.0
1070
   141
1040
150.0
1070
   147
1040
1.0
1070
   172
1070
     1
1070
   173
1070
     1
1070
   176
1070
     4
1070
   177
1070
     4
1070
   178
1070
     4
1070
   271
1070
     0
1070
   272
1070
     2
1070
     6
1000
OPEN
1070
     7
1000
OPEN
1002
}
  0
DIMENSION
  5
9437
330
1A
100
AcDbEntity
  8
SUNPOU
100
AcDbDimension
  2
*D13
 10
132.112330888938
 20
69.46052256526963
 30
0.0
 11
132.112330888938
 21
94.06852298001178
 31
0.0
 70
   160
  1
※<>
 71
     5
 42
-1.0
  3
STANDARD
100
AcDbAlignedDimension
 13
117.9628339919687
 23
79.46852298001175
 33
0.0
 14
115.7781538724426
 24
69.46052256526963
 34
0.0
 50
90.0
100
AcDbRotatedDimension
1001
ACAD
1000
DSTYLE
1002
{
1070
    41
1040
3.0
1070
    42
1040
3.0
1070
    43
1040
7.0
1070
    44
1040
1.5
1070
    73
1070
     0
1070
    74
1070
     0
1070
    77
1070
     3
1070
   140
1040
3.0
1070
   141
1040
150.0
1070
   147
1040
1.0
1070
   172
1070
     1
1070
   173
1070
     1
1070
   176
1070
     4
1070
   177
1070
     4
1070
   178
1070
     4
1070
   271
1070
     0
1070
   272
1070
     2
1070
     6
1000
OPEN
1070
     7
1000
OPEN
1002
}
  0
LINE
  5
9438
330
1A
100
AcDbEntity
  8
SEIHIN
  6
Continuous
 62
     3
100
AcDbLine
 10
119.558449313185
 20
83.4751563067823
 30
0.0
 11
120.9027952344627
 21
106.8605225652702
 31
0.0
  0
ARC
  5
9439
330
1A
100
AcDbEntity
  8
SEIHIN
  6
Continuous
 62
     3
100
AcDbCircle
 10
19.72327653282309
 20
89.2143440468301
 30
0.0
 40
100.0000000000001
100
AcDbArc
 50
348.6069626737941
 51
356.7098797766892
  0
LINE
  5
943A
330
1A
100
AcDbEntity
  8
SEIHIN
  6
Continuous
 62
     3
100
AcDbLine
 10
110.9527952344619
 20
63.16050076736451
 30
0.0
 11
111.9527952344619
 21
68.16050076736633
 31
0.0
  0
LINE
  5
943B
330
1A
100
AcDbEntity
  8
SEIHIN
  6
Continuous
 62
     3
100
AcDbLine
 10
111.9527952344619
 20
68.16050076736633
 30
0.0
 11
111.9527952344619
 21
69.46052256526877
 31
0.0
  0
LINE
  5
943C
330
1A
100
AcDbEntity
  8
SEIHIN
  6
Continuous
 62
     3
 48
5.0
100
AcDbLine
 10
173.4272996640618
 20
98.0530325652702
 30
0.0
 11
173.4272996640618
 21
95.49721256527021
 31
0.0
  0
LINE
  5
943D
330
1A
100
AcDbEntity
  8
SEIHIN
  6
Continuous
 62
     3
100
AcDbLine
 10
175.4157846640628
 20
90.66060925278478
 30
0.0
 11
175.4157846640628
 21
86.86052256527023
 31
0.0
  0
LINE
  5
943E
330
1A
100
AcDbEntity
  8
SEIHIN
  6
Continuous
 62
     3
 48
5.0
100
AcDbLine
 10
179.9681790493215
 20
90.66060166925252
 30
0.0
 11
173.4272996640618
 21
90.66061256527019
 31
0.0
  0
LINE
  5
943F
330
1A
100
AcDbEntity
  8
SEIHIN
  6
Continuous
 62
     3
 48
5.0
100
AcDbLine
 10
174.9257996640617
 20
94.97503256527023
 30
0.0
 11
173.4272996640618
 21
95.49721256527021
 31
0.0
  0
LINE
  5
9440
330
1A
100
AcDbEntity
  8
SEIHIN
  6
Continuous
 62
     3
 48
5.0
100
AcDbLine
 10
174.9257996640617
 20
93.17503256527022
 30
0.0
 11
173.4272996640618
 21
92.65303256527017
 31
0.0
  0
LINE
  5
9441
330
1A
100
AcDbEntity
  8
SEIHIN
  6
Continuous
 62
     3
 48
5.0
100
AcDbLine
 10
173.4272996640618
 20
92.65303256527017
 30
0.0
 11
173.4272996640618
 21
90.6605225652702
 31
0.0
  0
LINE
  5
9442
330
1A
100
AcDbEntity
  8
SEIHIN
  6
Continuous
 62
     3
 48
5.0
100
AcDbLine
 10
174.9257996640617
 20
93.17503256527022
 30
0.0
 11
174.9257996640617
 21
94.97503256527023
 31
0.0
  0
LINE
  5
9443
330
1A
100
AcDbEntity
  8
SEIHIN
  6
Continuous
 62
     3
100
AcDbLine
 10
175.6657846640628
 20
123.0584336159702
 30
0.0
 11
175.6657846640628
 21
109.8605225652702
 31
0.0
  0
LINE
  5
9444
330
1A
100
AcDbEntity
  8
SEIHIN
  6
Continuous
 62
     3
100
AcDbLine
 10
168.8057846640622
 20
108.8605225652702
 30
0.0
 11
164.8057846640622
 21
107.8605225652702
 31
0.0
  0
LINE
  5
9445
330
1A
100
AcDbEntity
  8
SEIHIN
  6
Continuous
 62
     3
100
AcDbLine
 10
164.8057846640622
 20
107.8605225652702
 30
0.0
 11
164.8057846640622
 21
106.8605225652702
 31
0.0
  0
ARC
  5
9446
330
1A
100
AcDbEntity
  8
SEIHIN
  6
Continuous
 62
     3
100
AcDbCircle
 10
174.6657846640628
 20
109.8605225652702
 30
0.0
 40
1.0
100
AcDbArc
 50
270.0
 51
0.0
  0
LINE
  5
9447
330
1A
100
AcDbEntity
  8
SEIHIN
  6
Continuous
 62
     3
 48
5.0
100
AcDbLine
 10
174.9257996640617
 20
98.57503256527023
 30
0.0
 11
173.4272996640618
 21
98.0530325652702
 31
0.0
  0
LINE
  5
9448
330
1A
100
AcDbEntity
  8
SEIHIN
  6
Continuous
 62
     3
 48
5.0
100
AcDbLine
 10
176.5151996640618
 20
104.1606125652701
 30
0.0
 11
173.4272996640618
 21
103.4530325652701
 31
0.0
  0
LINE
  5
9449
330
1A
100
AcDbEntity
  8
SEIHIN
  6
Continuous
 62
     3
 48
5.0
100
AcDbLine
 10
174.9257996640617
 20
100.3750325652702
 30
0.0
 11
173.4272996640618
 21
100.8972125652702
 31
0.0
  0
LINE
  5
944A
330
1A
100
AcDbEntity
  8
SEIHIN
  6
Continuous
 62
     3
 48
5.0
100
AcDbLine
 10
173.4272996640618
 20
103.4530325652701
 30
0.0
 11
173.4272996640618
 21
100.8972125652702
 31
0.0
  0
LINE
  5
944B
330
1A
100
AcDbEntity
  8
SEIHIN
  6
Continuous
 62
     3
 48
5.0
100
AcDbLine
 10
174.9257996640617
 20
103.9750325652702
 30
0.0
 11
173.4272996640618
 21
103.4530325652701
 31
0.0
  0
LINE
  5
944C
330
1A
100
AcDbEntity
  8
SEIHIN
  6
Continuous
 62
     3
 48
5.0
100
AcDbLine
 10
174.9258896640618
 20
103.9750325652702
 30
0.0
 11
175.7876396640618
 21
104.1606125652701
 31
0.0
  0
LINE
  5
944D
330
1A
100
AcDbEntity
  8
SEIHIN
  6
Continuous
 62
     3
 48
5.0
100
AcDbLine
 10
174.9257996640617
 20
98.57503256527023
 30
0.0
 11
174.9257996640617
 21
100.3750325652702
 31
0.0
  0
LINE
  5
944E
330
1A
100
AcDbEntity
  8
SEIHIN
  6
Continuous
 62
     3
100
AcDbLine
 10
175.4157846640628
 20
105.8605225652702
 30
0.0
 11
175.4157846640628
 21
104.160611701099
 31
0.0
  0
ARC
  5
944F
330
1A
100
AcDbEntity
  8
SEIHIN
  6
Continuous
 62
     3
100
AcDbCircle
 10
174.4157846640628
 20
105.8605225652702
 30
0.0
 40
1.0
100
AcDbArc
 50
0.0
 51
90.0
  0
LINE
  5
9450
330
1A
100
AcDbEntity
  8
SEIHIN
  6
Continuous
 62
     3
100
AcDbLine
 10
179.9370560401639
 20
137.134216702869
 30
0.0
 11
175.9603443727628
 21
124.9152995462702
 31
0.0
  0
ARC
  5
9451
330
1A
100
AcDbEntity
  8
SEIHIN
  6
Continuous
 62
     3
100
AcDbCircle
 10
181.6657846640628
 20
123.0584336159702
 30
0.0
 40
6.000000000000013
100
AcDbArc
 50
161.9722456128032
 51
180.0
  0
CIRCLE
  5
9452
330
1A
100
AcDbEntity
  8
SEIHIN
100
AcDbCircle
 10
82.75279523446215
 20
182.899569578015
 30
0.0
 40
38.15000000000054
  0
CIRCLE
  5
9453
330
1A
100
AcDbEntity
  8
SEIHIN
100
AcDbCircle
 10
82.75279523446124
 20
182.899569578015
 30
0.0
 40
27.20011631173163
  0
CIRCLE
  5
9454
330
1A
100
AcDbEntity
  8
SEIHIN
100
AcDbCircle
 10
82.75279523446034
 20
182.899569578015
 30
0.0
 40
35.64669801299351
  0
CIRCLE
  5
9455
330
1A
100
AcDbEntity
  8
SEIHIN
100
AcDbCircle
 10
82.75279523446124
 20
182.899569578015
 30
0.0
 40
36.14669801303444
  0
LINE
  5
9456
330
1A
100
AcDbEntity
  8
CENTER L
  6
CENTER
 62
     1
 48
5.0
100
AcDbLine
 10
127.1526863355929
 20
182.899569578015
 30
0.0
 11
38.35290413332774
 21
182.899569578015
 31
0.0
  0
LINE
  5
9457
330
1A
100
AcDbEntity
  8
CENTER L
  6
CENTER
 62
     1
 48
5.0
100
AcDbLine
 10
82.75279523446124
 20
138.4996784768824
 30
0.0
 11
82.75279523446124
 21
227.2994606791476
 31
0.0
  0
ARC
  5
9458
330
1A
100
AcDbEntity
  8
SEIHIN
 48
5.0
100
AcDbCircle
 10
82.75279523446124
 20
182.899569578015
 30
0.0
 40
25.72946386615309
100
AcDbArc
 50
213.0769974420886
 51
260.8367874296596
  0
LINE
  5
9459
330
1A
100
AcDbEntity
  8
SEIHIN
 48
5.0
100
AcDbLine
 10
60.12812325701713
 20
168.1636712121636
 30
0.0
 11
61.19310249801799
 21
168.8573133508331
 31
0.0
  0
LINE
  5
945A
330
1A
100
AcDbEntity
  8
SEIHIN
 48
5.0
100
AcDbLine
 10
78.45305042012876
 20
156.2437132371043
 30
0.0
 11
78.65544623711253
 21
157.4984467281566
 31
0.0
  0
ARC
  5
945B
330
1A
100
AcDbEntity
  8
SEIHIN
 48
5.0
100
AcDbCircle
 10
82.75279523446124
 20
182.899569578015
 30
0.0
 40
25.72946386615309
100
AcDbArc
 50
93.0769974420891
 51
140.8367874296557
  0
LINE
  5
945C
330
1A
100
AcDbEntity
  8
SEIHIN
 48
5.0
100
AcDbLine
 10
61.81801889077042
 20
199.9511859874727
 30
0.0
 11
62.80345206050879
 21
199.1485393228189
 31
0.0
  0
LINE
  5
945D
330
1A
100
AcDbEntity
  8
SEIHIN
 48
5.0
100
AcDbLine
 10
81.30346889077044
 20
209.8610594456971
 30
0.0
 11
81.37169098349307
 21
208.5919392991527
 31
0.0
  0
ARC
  5
945E
330
1A
100
AcDbEntity
  8
SEIHIN
 48
5.0
100
AcDbCircle
 10
82.75279523446124
 20
182.899569578015
 30
0.0
 40
25.72946386615309
100
AcDbArc
 50
333.0769974420902
 51
20.83678742965669
  0
LINE
  5
945F
330
1A
100
AcDbEntity
  8
SEIHIN
 48
5.0
100
AcDbLine
 10
106.8267935555962
 20
170.6739780761843
 30
0.0
 11
105.6935922218728
 21
171.2494560840593
 31
0.0
  0
LINE
  5
9460
330
1A
100
AcDbEntity
  8
SEIHIN
 48
5.0
100
AcDbLine
 10
107.9873163924846
 20
192.503809509468
 30
0.0
 11
106.7994874057624
 21
192.0517226830696
 31
0.0
  0
ARC
  5
9461
330
1A
100
AcDbEntity
  8
SEIHIN
  6
Continuous
 62
     3
100
AcDbCircle
 10
178.5460021715368
 20
215.7170274550271
 30
0.0
 40
2.440951604340076
100
AcDbArc
 50
178.5947758149728
 51
268.5222113921482
  0
ARC
  5
9462
330
1A
100
AcDbEntity
  8
SEIHIN
  6
Continuous
 62
     3
100
AcDbCircle
 10
178.5460021715368
 20
215.8367479787463
 30
0.0
 40
2.440951604339957
100
AcDbArc
 50
91.4777886078518
 51
181.4052241850271
  0
LINE
  5
9463
330
1A
100
AcDbEntity
  8
SEIHIN
  6
Continuous
 62
     3
100
AcDbLine
 10
178.6057846640633
 20
218.2768877168886
 30
0.0
 11
178.77761116084
 21
218.2768877168886
 31
0.0
  0
LINE
  5
9464
330
1A
100
AcDbEntity
  8
SEIHIN
  6
Continuous
 62
     3
100
AcDbLine
 10
178.77761116084
 20
213.2768877168885
 30
0.0
 11
178.6057846640633
 21
213.2768877168885
 31
0.0
  0
LWPOLYLINE
  5
9465
330
1A
100
AcDbEntity
  8
SEIHIN
  6
Continuous
 62
     3
100
AcDbPolyline
 90
        6
 70
     0
 43
0.0
 10
177.5492610809906
 20
218.2533322121702
 10
177.4949974154897
 20
218.2101784503205
 10
177.3491648340896
 20
218.129572841973
 10
177.1368899017161
 20
218.0043654275681
 10
176.8676624402251
 20
217.8208695278311
 10
176.4783354666633
 20
217.509957244108
  0
ARC
  5
9466
330
1A
100
AcDbEntity
  8
SEIHIN
  6
Continuous
 62
     3
100
AcDbCircle
 10
182.1092826352196
 20
211.640328967925
 30
0.0
 40
8.133886040241614
100
AcDbArc
 50
133.8110632155144
 51
149.4321249713492
  0
ARC
  5
9467
330
1A
100
AcDbEntity
  8
SEIHIN
  6
Continuous
 62
     3
100
AcDbCircle
 10
182.0072496904831
 20
220.8658287123465
 30
0.0
 40
8.781157102902133
100
AcDbArc
 50
230.9768822386328
 51
239.4908024613353
  0
ARC
  5
9468
330
1A
100
AcDbEntity
  8
SEIHIN
  6
Continuous
 62
     3
100
AcDbCircle
 10
182.4143642819508
 20
220.1550640423568
 30
0.0
 40
8.519610552596418
100
AcDbArc
 50
210.923553732851
 51
225.8332580802754
  0
LINE
  5
9469
330
1A
100
AcDbEntity
  8
CENTER L
  6
CENTER
 62
     1
 48
5.0
100
AcDbLine
 10
343.0025559910327
 20
224.2723905230295
 30
0.0
 11
343.0025559910327
 21
158.7223676633315
 31
0.0
  0
LINE
  5
946A
330
1A
100
AcDbEntity
  8
CENTER L
  6
CENTER
 62
     1
 48
5.0
100
AcDbLine
 10
200.4557846640618
 20
147.5023014031705
 30
0.0
 11
200.4557846640618
 21
77.26311604896932
 31
0.0
  0
DIMENSION
  5
947D
330
1A
100
AcDbEntity
  8
SUNPOU
100
AcDbDimension
  2
*D14
 10
252.5712472410323
 20
138.8605225652702
 30
0.0
 11
250.0712472410322
 21
122.8605225652702
 31
0.0
 70
    32
 71
     5
 42
-1.0
  3
STANDARD
100
AcDbAlignedDimension
 13
236.1057846640633
 23
106.8605225652702
 33
0.0
 14
218.1572464999626
 24
138.8605225652702
 34
0.0
 50
90.0
100
AcDbRotatedDimension
1001
ACAD
1000
DSTYLE
1002
{
1070
    41
1040
3.0
1070
    42
1040
3.0
1070
    43
1040
7.0
1070
    44
1040
1.5
1070
    73
1070
     0
1070
    74
1070
     0
1070
    77
1070
     3
1070
   140
1040
3.0
1070
   141
1040
150.0
1070
   147
1040
1.0
1070
   172
1070
     1
1070
   173
1070
     1
1070
   176
1070
     4
1070
   177
1070
     4
1070
   178
1070
     4
1070
   271
1070
     0
1070
   272
1070
     2
1070
     6
1000
OPEN
1070
     7
1000
OPEN
1002
}
  0
DIMENSION
  5
947E
330
1A
100
AcDbEntity
  8
SUNPOU
100
AcDbDimension
  2
*D15
 10
245.8766421745454
 20
108.8605225652702
 30
0.0
 11
245.8766421745453
 21
116.8605225652702
 31
0.0
 70
   160
 71
     5
 42
-1.0
  3
STANDARD
100
AcDbAlignedDimension
 13
236.1057846640633
 23
106.8605225652702
 33
0.0
 14
232.1057846640633
 24
108.8605225652702
 34
0.0
 50
90.0
100
AcDbRotatedDimension
1001
ACAD
1000
DSTYLE
1002
{
1070
    41
1040
3.0
1070
    42
1040
3.0
1070
    43
1040
7.0
1070
    44
1040
1.5
1070
    73
1070
     0
1070
    74
1070
     0
1070
    77
1070
     3
1070
   140
1040
3.0
1070
   141
1040
150.0
1070
   147
1040
1.0
1070
   172
1070
     1
1070
   173
1070
     1
1070
   176
1070
     4
1070
   177
1070
     4
1070
   178
1070
     4
1070
   271
1070
     0
1070
   272
1070
     2
1070
     6
1000
OPEN
1070
     7
1000
OPEN
1002
}
  0
DIMENSION
  5
947F
330
1A
100
AcDbEntity
  8
SUNPOU
100
AcDbDimension
  2
*D16
 10
260.7260377357786
 20
86.86052256527023
 30
0.0
 11
258.2260377357786
 21
112.8605225652702
 31
0.0
 70
    32
 71
     5
 42
-1.0
  3
STANDARD
100
AcDbAlignedDimension
 13
218.1572464999626
 23
138.8605225652702
 33
0.0
 14
225.4957846640627
 24
86.86052256527023
 34
0.0
 50
90.0
100
AcDbRotatedDimension
1001
ACAD
1000
DSTYLE
1002
{
1070
    41
1040
3.0
1070
    42
1040
3.0
1070
    43
1040
7.0
1070
    44
1040
1.5
1070
    73
1070
     0
1070
    74
1070
     0
1070
    77
1070
     3
1070
   140
1040
3.0
1070
   141
1040
150.0
1070
   147
1040
1.0
1070
   172
1070
     1
1070
   173
1070
     1
1070
   176
1070
     4
1070
   177
1070
     4
1070
   178
1070
     4
1070
   271
1070
     0
1070
   272
1070
     2
1070
     6
1000
OPEN
1070
     7
1000
OPEN
1002
}
  0
LINE
  5
9480
330
1A
100
AcDbEntity
  8
SEIHIN
  6
Continuous
 62
     3
 48
5.0
100
AcDbLine
 10
227.4542996640618
 20
98.23843256527021
 30
0.0
 11
227.4542996640618
 21
95.68261256527017
 31
0.0
  0
LINE
  5
9481
330
1A
100
AcDbEntity
  8
SEIHIN
  6
Continuous
 62
     3
 48
5.0
100
AcDbLine
 10
227.4542996640618
 20
98.23843256527021
 30
0.0
 11
190.0149296640618
 21
90.6605225652702
 31
0.0
  0
LINE
  5
9482
330
1A
100
AcDbEntity
  8
SEIHIN
  6
Continuous
 62
     3
 48
5.0
100
AcDbLine
 10
188.3295896640619
 20
90.6605225652702
 30
0.0
 11
225.9557996640619
 21
98.76052256527021
 31
0.0
  0
LINE
  5
9483
330
1A
100
AcDbEntity
  8
SEIHIN
  6
Continuous
 62
     3
 48
5.0
100
AcDbLine
 10
225.9557996640619
 20
95.16052256527022
 30
0.0
 11
203.4557096640617
 21
90.6605225652702
 31
0.0
  0
LINE
  5
9484
330
1A
100
AcDbEntity
  8
SEIHIN
  6
Continuous
 62
     3
 48
5.0
100
AcDbLine
 10
227.4542996640618
 20
95.68261256527017
 30
0.0
 11
202.7940296640617
 21
90.6605225652702
 31
0.0
  0
LINE
  5
9485
330
1A
100
AcDbEntity
  8
SEIHIN
  6
Continuous
 62
     3
 48
5.0
100
AcDbLine
 10
203.4559095515023
 20
90.66056254259837
 30
0.0
 11
188.3298924145717
 21
90.66058774002824
 31
0.0
  0
LINE
  5
9486
330
1A
100
AcDbEntity
  8
SEIHIN
  6
Continuous
 62
     3
100
AcDbLine
 10
225.4957846640627
 20
86.86052256527023
 30
0.0
 11
225.4957846640627
 21
90.66052582783029
 31
0.0
  0
LINE
  5
9487
330
1A
100
AcDbEntity
  8
SEIHIN
  6
Continuous
 62
     3
 48
5.0
100
AcDbLine
 10
213.4136696640619
 20
90.6605225652702
 30
0.0
 11
225.9557996640619
 21
93.36052256527024
 31
0.0
  0
LINE
  5
9488
330
1A
100
AcDbEntity
  8
SEIHIN
  6
Continuous
 62
     3
 48
5.0
100
AcDbLine
 10
227.4542996640618
 20
90.6605225652702
 30
0.0
 11
213.4137783122341
 21
90.66054595444454
 31
0.0
  0
LINE
  5
9489
330
1A
100
AcDbEntity
  8
SEIHIN
  6
Continuous
 62
     3
 48
5.0
100
AcDbLine
 10
227.4542996640618
 20
92.83843256527019
 30
0.0
 11
217.0147496640618
 21
90.6605225652702
 31
0.0
  0
LINE
  5
948A
330
1A
100
AcDbEntity
  8
SEIHIN
  6
Continuous
 62
     3
 48
5.0
100
AcDbLine
 10
227.4542996640618
 20
92.83843256527019
 30
0.0
 11
227.4542996640618
 21
90.6605225652702
 31
0.0
  0
LINE
  5
948B
330
1A
100
AcDbEntity
  8
SEIHIN
  6
Continuous
 62
     3
 48
5.0
100
AcDbLine
 10
225.9557996640619
 20
93.36052256527024
 30
0.0
 11
225.9557996640619
 21
95.16052256527022
 31
0.0
  0
LINE
  5
948C
330
1A
100
AcDbEntity
  8
SEIHIN
  6
Continuous
 62
     3
 48
5.0
100
AcDbLine
 10
225.9557996640619
 20
93.36052256527024
 30
0.0
 11
227.4542996640618
 21
92.83843256527019
 31
0.0
  0
LINE
  5
948D
330
1A
100
AcDbEntity
  8
SEIHIN
  6
Continuous
 62
     3
 48
5.0
100
AcDbLine
 10
225.9557996640619
 20
95.16052256527022
 30
0.0
 11
227.4542996640618
 21
95.68261256527017
 31
0.0
  0
LINE
  5
948E
330
1A
100
AcDbEntity
  8
SEIHIN
  6
Continuous
 62
     3
 48
5.0
100
AcDbLine
 10
200.8719251676247
 20
104.1605668049077
 30
0.0
 11
217.5945081650406
 21
104.160537311816
 31
0.0
  0
LINE
  5
948F
330
1A
100
AcDbEntity
  8
SEIHIN
  6
Continuous
 62
     3
100
AcDbLine
 10
218.1572464999626
 20
138.8605225652702
 30
0.0
 11
211.4557846640618
 21
138.8605225652702
 31
0.0
  0
ARC
  5
9490
330
1A
100
AcDbEntity
  8
SEIHIN
  6
Continuous
 62
     3
100
AcDbCircle
 10
211.4137614703631
 20
136.1760244682684
 30
0.0
 40
2.315883203386766
100
AcDbArc
 50
271.0397259179713
 51
4.569391140902575
  0
LINE
  5
9491
330
1A
100
AcDbEntity
  8
SEIHIN
  6
Continuous
 62
     3
100
AcDbLine
 10
211.4557846640618
 20
133.8605225652702
 30
0.0
 11
215.6156426089637
 21
133.8605225652702
 31
0.0
  0
ARC
  5
9492
330
1A
100
AcDbEntity
  8
SEIHIN
  6
Continuous
 62
     3
100
AcDbCircle
 10
211.4111523015617
 20
136.5426551907696
 30
0.0
 40
2.318297050381744
100
AcDbArc
 50
355.4940219864088
 51
88.89686095398166
  0
LINE
  5
9493
330
1A
100
AcDbEntity
  8
SEIHIN
  6
Continuous
 62
     3
100
AcDbLine
 10
200.4557846640618
 20
108.8605225652702
 30
0.0
 11
232.1057846640633
 21
108.8605225652702
 31
0.0
  0
LINE
  5
9494
330
1A
100
AcDbEntity
  8
SEIHIN
  6
Continuous
 62
     3
100
AcDbLine
 10
236.1057846640633
 20
107.8605225652702
 30
0.0
 11
200.4557846640618
 21
107.8605225652702
 31
0.0
  0
LINE
  5
9495
330
1A
100
AcDbEntity
  8
SEIHIN
  6
Continuous
 62
     3
100
AcDbLine
 10
200.4557846640618
 20
106.8605225652702
 30
0.0
 11
236.1057846640633
 21
106.8605225652702
 31
0.0
  0
LINE
  5
9496
330
1A
100
AcDbEntity
  8
SEIHIN
  6
Continuous
 62
     3
100
AcDbLine
 10
180.6657846640628
 20
109.1605225652695
 30
0.0
 11
180.6657846640628
 21
123.0584336159702
 31
0.0
  0
LINE
  5
9497
330
1A
100
AcDbEntity
  8
SEIHIN
  6
Continuous
 62
     3
100
AcDbLine
 10
197.9557846640618
 20
109.8605225652702
 30
0.0
 11
197.9557846640618
 21
123.0584336159702
 31
0.0
  0
LINE
  5
9498
330
1A
100
AcDbEntity
  8
SEIHIN
  6
Continuous
 62
     3
100
AcDbLine
 10
202.9557846640618
 20
123.0584336159702
 30
0.0
 11
202.9557846640618
 21
109.8605225652702
 31
0.0
  0
LINE
  5
9499
330
1A
100
AcDbEntity
  8
SEIHIN
  6
Continuous
 62
     3
100
AcDbLine
 10
200.4568718972623
 20
138.8605225652702
 30
0.0
 11
189.4557846640618
 21
138.8605225652702
 31
0.0
  0
LINE
  5
949A
330
1A
100
AcDbEntity
  8
SEIHIN
  6
Continuous
 62
     3
100
AcDbLine
 10
189.4557846640618
 20
133.8605225652702
 30
0.0
 11
197.9557846640618
 21
133.8605225652702
 31
0.0
  0
LINE
  5
949B
330
1A
100
AcDbEntity
  8
SEIHIN
  6
Continuous
 62
     3
100
AcDbLine
 10
180.7148779488615
 20
123.3679112709689
 30
0.0
 11
183.9050200038636
 21
133.170000220369
 31
0.0
  0
ARC
  5
949C
330
1A
100
AcDbEntity
  8
SEIHIN
  6
Continuous
 62
     3
100
AcDbCircle
 10
181.6657846640628
 20
123.0584336159702
 30
0.0
 40
1.0
100
AcDbArc
 50
161.9722456128032
 51
180.0
  0
LINE
  5
949D
330
1A
100
AcDbEntity
  8
SEIHIN
  6
Continuous
 62
     3
100
AcDbLine
 10
189.4557846640618
 20
138.8605225652702
 30
0.0
 11
182.3143228281623
 21
138.8605225652702
 31
0.0
  0
ARC
  5
949E
330
1A
100
AcDbEntity
  8
SEIHIN
  6
Continuous
 62
     3
100
AcDbCircle
 10
189.5004170264637
 20
136.178389939869
 30
0.0
 40
2.318297050383143
100
AcDbArc
 50
175.4940219864089
 51
268.8968609539816
  0
LINE
  5
949F
330
1A
100
AcDbEntity
  8
SEIHIN
  6
Continuous
 62
     3
100
AcDbLine
 10
184.8559267191631
 20
133.8605225652702
 30
0.0
 11
189.4557846640618
 21
133.8605225652702
 31
0.0
  0
ARC
  5
94A0
330
1A
100
AcDbEntity
  8
SEIHIN
  6
Continuous
 62
     3
100
AcDbCircle
 10
189.4978078576623
 20
136.5450206622701
 30
0.0
 40
2.315883203386824
100
AcDbArc
 50
91.03972591797132
 51
184.5693911409025
  0
ARC
  5
94A1
330
1A
100
AcDbEntity
  8
SEIHIN
  6
Continuous
 62
     3
100
AcDbCircle
 10
184.8559267191631
 20
132.8605225652702
 30
0.0
 40
1.000000000000027
100
AcDbArc
 50
90.0
 51
161.9722456128032
  0
LINE
  5
94A2
330
1A
100
AcDbEntity
  8
SEIHIN
  6
Continuous
 62
     3
100
AcDbLine
 10
197.9557846640618
 20
124.1416054086696
 30
0.0
 11
197.9557846640618
 21
133.9436943579696
 31
0.0
  0
LINE
  5
94A3
330
1A
100
AcDbEntity
  8
SEIHIN
  6
Continuous
 62
     3
100
AcDbLine
 10
202.9557846640618
 20
133.9436943579696
 30
0.0
 11
202.9557846640618
 21
124.1416054086696
 31
0.0
  0
LINE
  5
94A4
330
1A
100
AcDbEntity
  8
SEIHIN
  6
Continuous
 62
     3
100
AcDbLine
 10
197.9557846640618
 20
123.0584336159702
 30
0.0
 11
197.9557846640618
 21
124.1416054086696
 31
0.0
  0
LINE
  5
94A5
330
1A
100
AcDbEntity
  8
SEIHIN
  6
Continuous
 62
     3
100
AcDbLine
 10
202.9557846640618
 20
124.1416054086696
 30
0.0
 11
202.9557846640618
 21
123.0584336159702
 31
0.0
  0
LINE
  5
94A6
330
1A
100
AcDbEntity
  8
SEIHIN
  6
Continuous
 62
     3
100
AcDbLine
 10
202.9557846640618
 20
133.8605225652702
 30
0.0
 11
211.4557846640618
 21
133.8605225652702
 31
0.0
  0
LINE
  5
94A7
330
1A
100
AcDbEntity
  8
SEIHIN
  6
Continuous
 62
     3
100
AcDbLine
 10
211.4557846640618
 20
138.8605225652702
 30
0.0
 11
200.4568718972623
 21
138.8605225652702
 31
0.0
  0
ARC
  5
94A8
330
1A
100
AcDbEntity
  8
SEIHIN
  6
Continuous
 62
     3
100
AcDbCircle
 10
200.4557846640618
 20
136.3605225652702
 30
0.0
 40
2.5
100
AcDbArc
 50
90.0
 51
180.0
  0
LINE
  5
94A9
330
1A
100
AcDbEntity
  8
SEIHIN
  6
Continuous
 62
     3
100
AcDbLine
 10
197.9557846640618
 20
133.9436943579696
 30
0.0
 11
197.9557846640618
 21
136.3605225652702
 31
0.0
  0
LINE
  5
94AA
330
1A
100
AcDbEntity
  8
SEIHIN
  6
Continuous
 62
     3
100
AcDbLine
 10
202.9557846640618
 20
136.3605225652702
 30
0.0
 11
202.9557846640618
 21
133.9436943579696
 31
0.0
  0
ARC
  5
94AB
330
1A
100
AcDbEntity
  8
SEIHIN
  6
Continuous
 62
     3
100
AcDbCircle
 10
200.4557846640618
 20
136.3605225652702
 30
0.0
 40
2.5
100
AcDbArc
 50
0.0
 51
90.0
  0
LINE
  5
94AC
330
1A
100
AcDbEntity
  8
SEIHIN
  6
Continuous
 62
     3
100
AcDbLine
 10
219.8057846640622
 20
123.0584336159702
 30
0.0
 11
219.8057846640622
 21
109.1605225652695
 31
0.0
  0
LINE
  5
94AD
330
1A
100
AcDbEntity
  8
SEIHIN
  6
Continuous
 62
     3
100
AcDbLine
 10
224.8057846640622
 20
109.8605225652702
 30
0.0
 11
224.8057846640622
 21
123.0584336159702
 31
0.0
  0
ARC
  5
94AE
330
1A
100
AcDbEntity
  8
SEIHIN
  6
Continuous
 62
     3
100
AcDbCircle
 10
225.8057846640622
 20
109.8605225652702
 30
0.0
 40
1.0
100
AcDbArc
 50
180.0
 51
270.0
  0
LINE
  5
94AF
330
1A
100
AcDbEntity
  8
SEIHIN
  6
Continuous
 62
     3
100
AcDbLine
 10
225.4957846640627
 20
104.1605233765841
 30
0.0
 11
225.4957846640627
 21
105.8605225652702
 31
0.0
  0
LINE
  5
94B0
330
1A
100
AcDbEntity
  8
SEIHIN
  6
Continuous
 62
     3
 48
5.0
100
AcDbLine
 10
227.4542996640618
 20
103.6384325652701
 30
0.0
 11
227.4542996640618
 21
101.0826125652701
 31
0.0
  0
LINE
  5
94B1
330
1A
100
AcDbEntity
  8
SEIHIN
  6
Continuous
 62
     3
 48
5.0
100
AcDbLine
 10
225.9557996640619
 20
98.76052256527021
 30
0.0
 11
225.9557996640619
 21
100.5605225652702
 31
0.0
  0
LINE
  5
94B2
330
1A
100
AcDbEntity
  8
SEIHIN
  6
Continuous
 62
     3
 48
5.0
100
AcDbLine
 10
225.9557996640619
 20
104.1605225652702
 30
0.0
 11
227.4542996640618
 21
103.6384325652701
 31
0.0
  0
LINE
  5
94B3
330
1A
100
AcDbEntity
  8
SEIHIN
  6
Continuous
 62
     3
 48
5.0
100
AcDbLine
 10
225.9557996640619
 20
100.5605225652702
 30
0.0
 11
227.4542996640618
 21
101.0826125652701
 31
0.0
  0
LINE
  5
94B4
330
1A
100
AcDbEntity
  8
SEIHIN
  6
Continuous
 62
     3
 48
5.0
100
AcDbLine
 10
225.9557996640619
 20
98.76052256527021
 30
0.0
 11
227.4542996640618
 21
98.23843256527021
 31
0.0
  0
ARC
  5
94B5
330
1A
100
AcDbEntity
  8
SEIHIN
  6
Continuous
 62
     3
100
AcDbCircle
 10
226.4957846640627
 20
105.8605225652702
 30
0.0
 40
1.0
100
AcDbArc
 50
90.0
 51
180.0
  0
ARC
  5
94B6
330
1A
100
AcDbEntity
  8
SEIHIN
  6
Continuous
 62
     3
100
AcDbCircle
 10
220.1057846640633
 20
109.1605225652695
 30
0.0
 40
0.2999999999999829
100
AcDbArc
 50
180.0
 51
270.0
  0
LINE
  5
94B7
330
1A
100
AcDbEntity
  8
SEIHIN
  6
Continuous
 62
     3
100
AcDbLine
 10
236.1057846640633
 20
107.8605225652702
 30
0.0
 11
232.1057846640633
 21
108.8605225652702
 31
0.0
  0
LINE
  5
94B8
330
1A
100
AcDbEntity
  8
SEIHIN
  6
Continuous
 62
     3
100
AcDbLine
 10
236.1057846640633
 20
106.8605225652702
 30
0.0
 11
236.1057846640633
 21
107.8605225652702
 31
0.0
  0
LINE
  5
94B9
330
1A
100
AcDbEntity
  8
SEIHIN
  6
Continuous
 62
     3
100
AcDbLine
 10
224.5112249552639
 20
124.9152995462702
 30
0.0
 11
220.5345132879628
 21
137.134216702869
 31
0.0
  0
LINE
  5
94BA
330
1A
100
AcDbEntity
  8
SEIHIN
  6
Continuous
 62
     3
100
AcDbLine
 10
216.5665493241631
 20
133.170000220369
 30
0.0
 11
219.7566913792634
 21
123.3679112709689
 31
0.0
  0
ARC
  5
94BB
330
1A
100
AcDbEntity
  8
SEIHIN
  6
Continuous
 62
     3
100
AcDbCircle
 10
218.8057846640622
 20
123.0584336159702
 30
0.0
 40
1.0
100
AcDbArc
 50
0.0
 51
18.02775438719674
  0
ARC
  5
94BC
330
1A
100
AcDbEntity
  8
SEIHIN
  6
Continuous
 62
     3
100
AcDbCircle
 10
218.8057846640622
 20
123.0584336159702
 30
0.0
 40
5.999999999999986
100
AcDbArc
 50
0.0
 51
18.02775438719674
  0
ARC
  5
94BD
330
1A
100
AcDbEntity
  8
SEIHIN
  6
Continuous
 62
     3
100
AcDbCircle
 10
218.1572464999626
 20
136.3605225652702
 30
0.0
 40
2.5
100
AcDbArc
 50
18.02775438719674
 51
90.0
  0
ARC
  5
94BE
330
1A
100
AcDbEntity
  8
SEIHIN
  6
Continuous
 62
     3
100
AcDbCircle
 10
215.6156426089637
 20
132.8605225652702
 30
0.0
 40
1.000000000000027
100
AcDbArc
 50
18.02775438719674
 51
90.0
  0
DIMENSION
  5
94BF
330
1A
100
AcDbEntity
  8
SUNPOU
100
AcDbDimension
  2
*D17
 10
366.0025559910327
 20
148.8127075350497
 30
0.0
 11
343.0025559910327
 21
151.3127075350497
 31
0.0
 70
    32
  1
φ<>
 71
     5
 42
-1.0
  3
STANDARD
100
AcDbAlignedDimension
 13
320.0025559910327
 23
163.6306116851292
 33
0.0
 14
366.0025559910327
 24
163.6306116851292
 34
0.0
100
AcDbRotatedDimension
1001
ACAD
1000
DSTYLE
1002
{
1070
    41
1040
3.0
1070
    42
1040
3.0
1070
    43
1040
7.0
1070
    44
1040
1.5
1070
    73
1070
     0
1070
    74
1070
     0
1070
    77
1070
     3
1070
   140
1040
3.0
1070
   141
1040
150.0
1070
   147
1040
1.0
1070
   172
1070
     1
1070
   173
1070
     1
1070
   176
1070
     4
1070
   177
1070
     4
1070
   178
1070
     4
1070
   271
1070
     0
1070
   272
1070
     2
1070
     6
1000
OPEN
1070
     7
1000
OPEN
1002
}
  0
INSERT
  5
94C0
330
1A
100
AcDbEntity
  8
ﾊｯﾁﾝｸﾞ
  6
Continuous
100
AcDbBlockReference
  2
*X2
 10
-228.4278511261955
 20
-61.08657719788766
 30
0.0
1001
ACAD
1000
HATCH
1002
{
1070
    19
1000
_USER
1040
2.0
1040
2.356194490192344
1000
R14_HATCH_DATA
1000
1F53
1011
-227.4278511261954
1021
-61.08657719788766
1031
0.0
1011
-228.4278511261955
1021
-60.08657719788766
1031
0.0
1011
-228.4278511261955
1021
-61.08657719788766
1031
1.0
1040
0.0
1010
0.0
1020
0.0
1030
1.0
1000
_USER
1070
     0
1070
     0
1071
        4
1071
        1
1071
        1
1070
     2
1040
582.199709460571
1040
274.2198983296848
1040
2.5
1040
0.0
1040
6.283185307179586
1070
     1
1071
        0
1071
        1
1071
        1
1070
     2
1040
560.6639079557745
1040
274.2171888830728
1040
2.5
1040
0.0
1040
6.283185307179586
1070
     1
1071
        0
1071
        1
1071
       22
1070
     1
1040
607.0804071172297
1040
244.7171888830169
1040
607.0804071172297
1040
245.7171888830168
1070
     1
1040
607.0804071172297
1040
245.7171888830168
1040
603.0804071172297
1040
246.7171888830169
1070
     1
1040
603.0804071172297
1040
246.7171888830169
1040
596.2204071172273
1040
246.7171888830169
1070
     2
1040
596.2204071172273
1040
244.9271888830178
1040
1.789999999999054
1040
1.570796326794896
1040
3.141592653589793
1070
     1
1070
     1
1040
594.4304071172282
1040
244.9271888830178
1040
594.4304071172282
1040
224.7171888830168
1070
     1
1040
594.4304071172282
1040
224.7171888830168
1040
596.4704071172291
1040
224.7171888830168
1070
     1
1040
596.4704071172291
1040
224.7171888830168
1040
596.4704071172291
1040
228.5171921455769
1070
     1
1040
596.4704071172291
1040
228.5171921455772
1040
598.4289221172282
1040
228.5171888830168
1070
     1
1040
598.4289221172282
1040
228.5171888830168
1040
598.4289221172282
1040
230.6950988830168
1070
     1
1040
598.4289221172282
1040
230.6950988830168
1040
596.9304221172283
1040
231.2171888830168
1070
     1
1040
596.9304221172283
1040
231.2171888830168
1040
596.9304221172283
1040
233.0171888830168
1070
     1
1040
596.9304221172283
1040
233.0171888830168
1040
598.4289221172282
1040
233.5392788830168
1070
     1
1040
598.4289221172282
1040
233.5392788830168
1040
598.4289221172282
1040
236.0950988830168
1070
     1
1040
598.4289221172282
1040
236.0950988830168
1040
596.9304221172283
1040
236.6171888830168
1070
     1
1040
596.9304221172283
1040
236.6171888830168
1040
596.9304221172283
1040
238.4171888830168
1070
     1
1040
596.9304221172283
1040
238.4171888830168
1040
598.4289221172282
1040
238.9392788830168
1070
     1
1040
598.4289221172282
1040
238.9392788830168
1040
598.4289221172282
1040
241.4950988830168
1070
     1
1040
598.4289221172282
1040
241.4950988830168
1040
596.9304221172283
1040
242.0171888830168
1070
     1
1040
596.9304221172283
1040
242.0171888830168
1040
596.4704071172291
1040
242.0171888830168
1070
     1
1040
596.4704071172291
1040
242.0171896943307
1040
596.4704071172291
1040
243.7171888830168
1070
     2
1040
597.4704071172291
1040
243.7171888830168
1040
1.0
1040
3.141592653589793
1040
4.712388980384689
1070
     0
1070
     1
1040
597.4704071172291
1040
244.7171888830169
1040
607.0804071172297
1040
244.7171888830169
1071
        0
1071
       33
1071
       22
1070
     1
1040
548.4304071172282
1040
224.7171888830168
1040
546.3904071172292
1040
224.7171888830168
1070
     1
1040
545.9004221172281
1040
236.4316988830168
1040
545.9004221172281
1040
238.2316988830168
1070
     1
1040
545.9004221172281
1040
241.8316988830168
1040
544.4019221172282
1040
241.3096988830168
1070
     1
1040
544.4019221172282
1040
241.3096988830168
1040
544.4019221172282
1040
238.7538788830168
1070
     1
1040
545.9004221172281
1040
238.2316988830168
1040
544.4019221172282
1040
238.7538788830168
1070
     1
1040
545.9004221172281
1040
236.4316988830168
1040
544.4019221172282
1040
235.9096988830168
1070
     1
1040
545.9005121172282
1040
241.8316988830168
1040
546.3904071172292
1040
241.9371989864113
1070
     1
1040
546.3904071172292
1040
243.7171888830168
1040
546.3904071172292
1040
242.0172780188456
1070
     2
1040
545.3904071172291
1040
243.7171888830168
1040
1.0
1040
0.0
1040
1.570796326794896
1070
     1
1070
     2
1040
546.6404071172291
1040
244.9271888830178
1040
1.789999999999054
1040
0.0
1040
1.570796326794896
1070
     1
1070
     1
1040
535.7804071172286
1040
245.7171888830168
1040
535.7804071172286
1040
244.7171888830169
1070
     1
1040
539.7804071172286
1040
246.7171888830169
1040
535.7804071172286
1040
245.7171888830168
1070
     1
1040
539.7804071172286
1040
246.7171888830169
1040
546.6404071172291
1040
246.7171888830169
1070
     1
1040
535.7804071172286
1040
244.7171888830169
1040
545.3904071172291
1040
244.7171888830169
1070
     1
1040
545.9004221172281
1040
231.0316988830168
1040
545.9004221172281
1040
232.8316988830168
1070
     1
1040
544.4019221172282
1040
230.5096988830168
1040
544.4019221172282
1040
228.5171888830168
1070
     1
1040
545.9004221172281
1040
231.0316988830168
1040
544.4019221172282
1040
230.5096988830168
1070
     1
1040
545.9004221172281
1040
232.8316988830168
1040
544.4019221172282
1040
233.3538788830168
1070
     1
1040
546.3904071172292
1040
228.5172755705314
1040
544.4019221172282
1040
228.5172788830168
1070
     1
1040
546.3904071172292
1040
228.5172755705314
1040
546.3904071172292
1040
224.7171888830168
1070
     1
1040
544.4019221172282
1040
235.9096988830168
1040
544.4019221172282
1040
233.3538788830168
1070
     1
1040
548.4304071172282
1040
244.9271888830178
1040
548.4304071172282
1040
224.7171888830168
1071
        0
1070
     0
1070
     0
1040
2.356194490192344
1040
2.0
1070
     0
1070
     1
1040
2.356194490192344
1040
121.9565971765177
1040
100.9925631138817
1040
-1.414213562373095
1040
-1.414213562373094
1070
     0
1071
        1
1040
121.9565971765177
1040
100.9925631138817
1040
0.0
1002
}
  0
ARC
  5
94C1
330
1A
100
AcDbEntity
  8
SEIHIN
  6
Continuous
 62
     3
100
AcDbCircle
 10
366.0025559910327
 20
185.6306116851292
 30
0.0
 40
3.210000000000889
100
AcDbArc
 50
180.0
 51
270.0
  0
ARC
  5
94C2
330
1A
100
AcDbEntity
  8
SEIHIN
  6
Continuous
 62
     3
100
AcDbCircle
 10
360.7040178269335
 20
213.1306116851292
 30
0.0
 40
2.5
100
AcDbArc
 50
18.02775438719674
 51
90.0
  0
ARC
  5
94C3
330
1A
100
AcDbEntity
  8
SEIHIN
  6
Continuous
 62
     3
100
AcDbCircle
 10
362.6525559910342
 20
185.9306116851285
 30
0.0
 40
0.2999999999999829
100
AcDbArc
 50
180.0
 51
270.0
  0
LINE
  5
94C4
330
1A
100
AcDbEntity
  8
SEIHIN
  6
Continuous
 62
     3
100
AcDbLine
 10
343.0025559910327
 20
185.6306116851292
 30
0.0
 11
362.7925559910317
 21
185.6306116851292
 31
0.0
  0
LINE
  5
94C5
330
1A
100
AcDbEntity
  8
SEIHIN
  6
Continuous
 62
     3
100
AcDbLine
 10
368.0425559910336
 20
163.6306116851292
 30
0.0
 11
317.9625559910336
 21
163.6306116851292
 31
0.0
  0
LINE
  5
94C6
330
1A
100
AcDbEntity
  8
SEIHIN
  6
Continuous
 62
     3
100
AcDbLine
 10
320.0025559910327
 20
183.8406116851301
 30
0.0
 11
320.0025559910327
 21
163.6306116851292
 31
0.0
  0
LINE
  5
94C7
330
1A
100
AcDbEntity
  8
SEIHIN
  6
Continuous
 62
     3
 48
5.0
100
AcDbLine
 10
315.9740709910327
 20
174.8231216851291
 30
0.0
 11
315.9740709910327
 21
172.2673016851292
 31
0.0
  0
LINE
  5
94C8
330
1A
100
AcDbEntity
  8
SEIHIN
  6
Continuous
 62
     3
100
AcDbLine
 10
317.9625559910336
 20
167.4306983726437
 30
0.0
 11
317.9625559910336
 21
163.6306116851292
 31
0.0
  0
LINE
  5
94C9
330
1A
100
AcDbEntity
  8
SEIHIN
  6
Continuous
 62
     3
 48
5.0
100
AcDbLine
 10
317.4725709910326
 20
171.7451216851292
 30
0.0
 11
315.9740709910327
 21
172.2673016851292
 31
0.0
  0
LINE
  5
94CA
330
1A
100
AcDbEntity
  8
SEIHIN
  6
Continuous
 62
     3
 48
5.0
100
AcDbLine
 10
317.4725709910326
 20
169.9451216851292
 30
0.0
 11
315.9740709910327
 21
169.4231216851291
 31
0.0
  0
LINE
  5
94CB
330
1A
100
AcDbEntity
  8
SEIHIN
  6
Continuous
 62
     3
 48
5.0
100
AcDbLine
 10
315.9740709910327
 20
169.4231216851291
 30
0.0
 11
315.9740709910327
 21
167.4306116851292
 31
0.0
  0
LINE
  5
94CC
330
1A
100
AcDbEntity
  8
SEIHIN
  6
Continuous
 62
     3
 48
5.0
100
AcDbLine
 10
317.4725709910326
 20
169.9451216851292
 30
0.0
 11
317.4725709910326
 21
171.7451216851292
 31
0.0
  0
LINE
  5
94CD
330
1A
100
AcDbEntity
  8
SEIHIN
  6
Continuous
 62
     3
 48
5.0
100
AcDbLine
 10
317.9625559910336
 20
167.4306983726437
 30
0.0
 11
315.9740709910327
 21
167.4307016851291
 31
0.0
  0
CIRCLE
  5
94CE
330
1A
100
AcDbEntity
  8
SEIHIN
  6
Continuous
 62
     3
100
AcDbCircle
 10
332.236056829579
 20
213.1306116851851
 30
0.0
 40
2.5
  0
LINE
  5
94CF
330
1A
100
AcDbEntity
  8
SEIHIN
  6
Continuous
 62
     3
100
AcDbLine
 10
323.2125559910335
 20
185.6306116851292
 30
0.0
 11
343.0025559910327
 21
185.6306116851292
 31
0.0
  0
LINE
  5
94D0
330
1A
100
AcDbEntity
  8
SEIHIN
  6
Continuous
 62
     3
100
AcDbLine
 10
332.0025559910327
 20
215.6306116851292
 30
0.0
 11
324.8610941551333
 21
215.6306116851292
 31
0.0
  0
LINE
  5
94D1
330
1A
100
AcDbEntity
  8
SEIHIN
  6
Continuous
 62
     3
100
AcDbLine
 10
327.4026980461339
 20
210.6306116851292
 30
0.0
 11
332.0025559910327
 21
210.6306116851292
 31
0.0
  0
LINE
  5
94D2
330
1A
100
AcDbEntity
  8
SEIHIN
  6
Continuous
 62
     3
100
AcDbLine
 10
323.2125559910337
 20
185.6306116851292
 30
0.0
 11
323.2125559910337
 21
199.8285227358292
 31
0.0
  0
LINE
  5
94D3
330
1A
100
AcDbEntity
  8
SEIHIN
  6
Continuous
 62
     3
100
AcDbLine
 10
318.2125559910336
 20
199.8285227358292
 30
0.0
 11
318.2125559910336
 21
186.6306116851292
 31
0.0
  0
LINE
  5
94D4
330
1A
100
AcDbEntity
  8
SEIHIN
  6
Continuous
 62
     3
100
AcDbLine
 10
311.3525559910331
 20
185.6306116851292
 30
0.0
 11
318.2125559910336
 21
185.6306116851292
 31
0.0
  0
LINE
  5
94D5
330
1A
100
AcDbEntity
  8
SEIHIN
  6
Continuous
 62
     3
100
AcDbLine
 10
307.3525559910331
 20
183.6306116851292
 30
0.0
 11
316.9625559910337
 21
183.6306116851292
 31
0.0
  0
LINE
  5
94D6
330
1A
100
AcDbEntity
  8
SEIHIN
  6
Continuous
 62
     3
100
AcDbLine
 10
311.3525559910331
 20
185.6306116851292
 30
0.0
 11
307.3525559910331
 21
184.6306116851292
 31
0.0
  0
LINE
  5
94D7
330
1A
100
AcDbEntity
  8
SEIHIN
  6
Continuous
 62
     3
100
AcDbLine
 10
307.3525559910331
 20
184.6306116851292
 30
0.0
 11
307.3525559910331
 21
183.6306116851292
 31
0.0
  0
ARC
  5
94D8
330
1A
100
AcDbEntity
  8
SEIHIN
  6
Continuous
 62
     3
100
AcDbCircle
 10
320.0025559910327
 20
185.6306116851292
 30
0.0
 40
3.210000000000889
100
AcDbArc
 50
270.0
 51
0.0
  0
ARC
  5
94D9
330
1A
100
AcDbEntity
  8
SEIHIN
  6
Continuous
 62
     3
100
AcDbCircle
 10
318.2125559910336
 20
183.8406116851301
 30
0.0
 40
1.789999999999054
100
AcDbArc
 50
0.0
 51
90.0
  0
ARC
  5
94DA
330
1A
100
AcDbEntity
  8
SEIHIN
  6
Continuous
 62
     3
100
AcDbCircle
 10
317.2125559910337
 20
186.6306116851292
 30
0.0
 40
1.0
100
AcDbArc
 50
270.0
 51
0.0
  0
LINE
  5
94DB
330
1A
100
AcDbEntity
  8
SEIHIN
  6
Continuous
 62
     3
 48
5.0
100
AcDbLine
 10
317.4726609910327
 20
180.7451216851292
 30
0.0
 11
317.9625559910336
 21
180.8506217885236
 31
0.0
  0
ARC
  5
94DC
330
1A
100
AcDbEntity
  8
SEIHIN
  6
Continuous
 62
     3
100
AcDbCircle
 10
316.9625559910337
 20
182.6306116851292
 30
0.0
 40
1.0
100
AcDbArc
 50
0.0
 51
90.0
  0
LINE
  5
94DD
330
1A
100
AcDbEntity
  8
SEIHIN
  6
Continuous
 62
     3
100
AcDbLine
 10
317.9625559910336
 20
182.6306116851292
 30
0.0
 11
317.9625559910336
 21
180.930700820958
 31
0.0
  0
LINE
  5
94DE
330
1A
100
AcDbEntity
  8
SEIHIN
  6
Continuous
 62
     3
 48
5.0
100
AcDbLine
 10
317.4725709910326
 20
175.3451216851292
 30
0.0
 11
315.9740709910327
 21
174.8231216851291
 31
0.0
  0
LINE
  5
94DF
330
1A
100
AcDbEntity
  8
SEIHIN
  6
Continuous
 62
     3
 48
5.0
100
AcDbLine
 10
317.4725709910326
 20
177.1451216851291
 30
0.0
 11
315.9740709910327
 21
177.6673016851291
 31
0.0
  0
LINE
  5
94E0
330
1A
100
AcDbEntity
  8
SEIHIN
  6
Continuous
 62
     3
 48
5.0
100
AcDbLine
 10
315.9740709910327
 20
180.2231216851291
 30
0.0
 11
315.9740709910327
 21
177.6673016851291
 31
0.0
  0
LINE
  5
94E1
330
1A
100
AcDbEntity
  8
SEIHIN
  6
Continuous
 62
     3
 48
5.0
100
AcDbLine
 10
317.4725709910326
 20
180.7451216851292
 30
0.0
 11
315.9740709910327
 21
180.2231216851291
 31
0.0
  0
LINE
  5
94E2
330
1A
100
AcDbEntity
  8
SEIHIN
  6
Continuous
 62
     3
 48
5.0
100
AcDbLine
 10
317.4725709910326
 20
175.3451216851292
 30
0.0
 11
317.4725709910326
 21
177.1451216851291
 31
0.0
  0
LINE
  5
94E3
330
1A
100
AcDbEntity
  8
SEIHIN
  6
Continuous
 62
     3
100
AcDbLine
 10
323.2616492758324
 20
200.138000390828
 30
0.0
 11
326.4517913308345
 21
209.940089340228
 31
0.0
  0
LINE
  5
94E4
330
1A
100
AcDbEntity
  8
SEIHIN
  6
Continuous
 62
     3
100
AcDbLine
 10
322.4838273671348
 20
213.904305822728
 30
0.0
 11
318.5071156997337
 21
201.6853886661292
 31
0.0
  0
ARC
  5
94E5
330
1A
100
AcDbEntity
  8
SEIHIN
  6
Continuous
 62
     3
100
AcDbCircle
 10
324.2125559910336
 20
199.8285227358292
 30
0.0
 40
6.000000000000013
100
AcDbArc
 50
161.9722456128032
 51
180.0
  0
ARC
  5
94E6
330
1A
100
AcDbEntity
  8
SEIHIN
  6
Continuous
 62
     3
100
AcDbCircle
 10
324.2125559910336
 20
199.8285227358292
 30
0.0
 40
1.0
100
AcDbArc
 50
161.9722456128032
 51
180.0
  0
ARC
  5
94E7
330
1A
100
AcDbEntity
  8
SEIHIN
  6
Continuous
 62
     3
100
AcDbCircle
 10
324.8610941551333
 20
213.1306116851292
 30
0.0
 40
2.500000000000023
100
AcDbArc
 50
90.0
 51
161.9722456128032
  0
ARC
  5
94E8
330
1A
100
AcDbEntity
  8
SEIHIN
  6
Continuous
 62
     3
100
AcDbCircle
 10
327.4026980461339
 20
209.6306116851292
 30
0.0
 40
1.000000000000027
100
AcDbArc
 50
90.0
 51
161.9722456128032
  0
LINE
  5
94E9
330
1A
100
AcDbEntity
  8
SEIHIN
  6
Continuous
 62
     3
100
AcDbLine
 10
340.5025559910327
 20
186.6306116851292
 30
0.0
 11
340.5025559910327
 21
199.8285227358292
 31
0.0
  0
LINE
  5
94EA
330
1A
100
AcDbEntity
  8
SEIHIN
  6
Continuous
 62
     3
100
AcDbLine
 10
345.5025559910327
 20
199.8285227358292
 30
0.0
 11
345.5025559910327
 21
186.6306116851292
 31
0.0
  0
LINE
  5
94EB
330
1A
100
AcDbEntity
  8
SEIHIN
  6
Continuous
 62
     3
100
AcDbLine
 10
362.3525559910331
 20
199.8285227358292
 30
0.0
 11
362.3525559910331
 21
185.9306116851285
 31
0.0
  0
LINE
  5
94EC
330
1A
100
AcDbEntity
  8
SEIHIN
  6
Continuous
 62
     3
100
AcDbLine
 10
345.5025559910327
 20
210.6306116851292
 30
0.0
 11
354.0025559910327
 21
210.6306116851292
 31
0.0
  0
LINE
  5
94ED
330
1A
100
AcDbEntity
  8
SEIHIN
  6
Continuous
 62
     3
100
AcDbLine
 10
354.0025559910327
 20
215.6306116851292
 30
0.0
 11
343.0036432242332
 21
215.6306116851292
 31
0.0
  0
LINE
  5
94EE
330
1A
100
AcDbEntity
  8
SEIHIN
  6
Continuous
 62
     3
100
AcDbLine
 10
340.5025559910327
 20
200.9116945285286
 30
0.0
 11
340.5025559910327
 21
210.7137834778286
 31
0.0
  0
LINE
  5
94EF
330
1A
100
AcDbEntity
  8
SEIHIN
  6
Continuous
 62
     3
100
AcDbLine
 10
345.5025559910327
 20
210.7137834778286
 30
0.0
 11
345.5025559910327
 21
200.9116945285286
 31
0.0
  0
LINE
  5
94F0
330
1A
100
AcDbEntity
  8
SEIHIN
  6
Continuous
 62
     3
100
AcDbLine
 10
345.5025559910327
 20
200.9116945285286
 30
0.0
 11
345.5025559910327
 21
199.8285227358292
 31
0.0
  0
LINE
  5
94F1
330
1A
100
AcDbEntity
  8
SEIHIN
  6
Continuous
 62
     3
100
AcDbLine
 10
340.5025559910327
 20
199.8285227358292
 30
0.0
 11
340.5025559910327
 21
200.9116945285286
 31
0.0
  0
LINE
  5
94F2
330
1A
100
AcDbEntity
  8
SEIHIN
  6
Continuous
 62
     3
100
AcDbLine
 10
343.0036432242332
 20
215.6306116851292
 30
0.0
 11
332.0025559910327
 21
215.6306116851292
 31
0.0
  0
LINE
  5
94F3
330
1A
100
AcDbEntity
  8
SEIHIN
  6
Continuous
 62
     3
100
AcDbLine
 10
332.0025559910327
 20
210.6306116851292
 30
0.0
 11
340.5025559910327
 21
210.6306116851292
 31
0.0
  0
LINE
  5
94F4
330
1A
100
AcDbEntity
  8
SEIHIN
  6
Continuous
 62
     3
100
AcDbLine
 10
345.5025559910327
 20
213.1306116851292
 30
0.0
 11
345.5025559910327
 21
210.7137834778286
 31
0.0
  0
ARC
  5
94F5
330
1A
100
AcDbEntity
  8
SEIHIN
  6
Continuous
 62
     3
100
AcDbCircle
 10
343.0025559910327
 20
213.1306116851292
 30
0.0
 40
2.5
100
AcDbArc
 50
90.0
 51
180.0
  0
LINE
  5
94F6
330
1A
100
AcDbEntity
  8
SEIHIN
  6
Continuous
 62
     3
100
AcDbLine
 10
340.5025559910327
 20
210.7137834778286
 30
0.0
 11
340.5025559910327
 21
213.1306116851292
 31
0.0
  0
ARC
  5
94F7
330
1A
100
AcDbEntity
  8
SEIHIN
  6
Continuous
 62
     3
100
AcDbCircle
 10
343.0025559910327
 20
213.1306116851292
 30
0.0
 40
2.5
100
AcDbArc
 50
0.0
 51
90.0
  0
LINE
  5
94F8
330
1A
100
AcDbEntity
  8
SEIHIN
  6
Continuous
 62
     3
100
AcDbLine
 10
359.113320651134
 20
209.940089340228
 30
0.0
 11
362.3034627062343
 21
200.138000390828
 31
0.0
  0
ARC
  5
94F9
330
1A
100
AcDbEntity
  8
SEIHIN
  6
Continuous
 62
     3
100
AcDbCircle
 10
361.3525559910331
 20
199.8285227358292
 30
0.0
 40
1.0
100
AcDbArc
 50
0.0
 51
18.02775438719674
  0
CIRCLE
  5
94FA
330
1A
100
AcDbEntity
  8
SEIHIN
  6
Continuous
 62
     3
100
AcDbCircle
 10
353.7718583343755
 20
213.1333211317972
 30
0.0
 40
2.5
  0
LINE
  5
94FB
330
1A
100
AcDbEntity
  8
SEIHIN
  6
Continuous
 62
     3
100
AcDbLine
 10
354.0025559910327
 20
210.6306116851292
 30
0.0
 11
358.1624139359346
 21
210.6306116851292
 31
0.0
  0
LINE
  5
94FC
330
1A
100
AcDbEntity
  8
SEIHIN
  6
Continuous
 62
     3
100
AcDbLine
 10
360.7040178269335
 20
215.6306116851292
 30
0.0
 11
354.0025559910327
 21
215.6306116851292
 31
0.0
  0
ARC
  5
94FD
330
1A
100
AcDbEntity
  8
SEIHIN
  6
Continuous
 62
     3
100
AcDbCircle
 10
358.1624139359346
 20
209.6306116851292
 30
0.0
 40
1.000000000000027
100
AcDbArc
 50
18.02775438719674
 51
90.0
  0
LINE
  5
94FE
330
1A
100
AcDbEntity
  8
SEIHIN
  6
Continuous
 62
     3
100
AcDbLine
 10
366.0025559910327
 20
183.8406116851301
 30
0.0
 11
366.0025559910327
 21
163.6306116851292
 31
0.0
  0
LINE
  5
94FF
330
1A
100
AcDbEntity
  8
SEIHIN
  6
Continuous
 62
     3
 48
5.0
100
AcDbLine
 10
370.0010709910327
 20
175.0085216851292
 30
0.0
 11
370.0010709910327
 21
172.4527016851291
 31
0.0
  0
LINE
  5
9500
330
1A
100
AcDbEntity
  8
SEIHIN
  6
Continuous
 62
     3
100
AcDbLine
 10
368.0425559910336
 20
163.6306116851292
 30
0.0
 11
368.0425559910336
 21
167.4306149476892
 31
0.0
  0
LINE
  5
9501
330
1A
100
AcDbEntity
  8
SEIHIN
  6
Continuous
 62
     3
 48
5.0
100
AcDbLine
 10
370.0010709910327
 20
169.6085216851291
 30
0.0
 11
370.0010709910327
 21
167.4306116851292
 31
0.0
  0
LINE
  5
9502
330
1A
100
AcDbEntity
  8
SEIHIN
  6
Continuous
 62
     3
 48
5.0
100
AcDbLine
 10
368.5025709910328
 20
170.1306116851292
 30
0.0
 11
368.5025709910328
 21
171.9306116851292
 31
0.0
  0
LINE
  5
9503
330
1A
100
AcDbEntity
  8
SEIHIN
  6
Continuous
 62
     3
 48
5.0
100
AcDbLine
 10
368.5025709910328
 20
170.1306116851292
 30
0.0
 11
370.0010709910327
 21
169.6085216851291
 31
0.0
  0
LINE
  5
9504
330
1A
100
AcDbEntity
  8
SEIHIN
  6
Continuous
 62
     3
 48
5.0
100
AcDbLine
 10
368.5025709910328
 20
171.9306116851292
 30
0.0
 11
370.0010709910327
 21
172.4527016851291
 31
0.0
  0
LINE
  5
9505
330
1A
100
AcDbEntity
  8
SEIHIN
  6
Continuous
 62
     3
 48
5.0
100
AcDbLine
 10
370.0010709910327
 20
167.4306116851292
 30
0.0
 11
368.0425559910336
 21
167.4306149476895
 31
0.0
  0
LINE
  5
9506
330
1A
100
AcDbEntity
  8
SEIHIN
  6
Continuous
 62
     3
100
AcDbLine
 10
367.3525559910331
 20
186.6306116851292
 30
0.0
 11
367.3525559910331
 21
199.8285227358292
 31
0.0
  0
LINE
  5
9507
330
1A
100
AcDbEntity
  8
SEIHIN
  6
Continuous
 62
     3
100
AcDbLine
 10
378.6525559910342
 20
184.6306116851292
 30
0.0
 11
374.6525559910342
 21
185.6306116851292
 31
0.0
  0
LINE
  5
9508
330
1A
100
AcDbEntity
  8
SEIHIN
  6
Continuous
 62
     3
100
AcDbLine
 10
369.0425559910336
 20
183.6306116851292
 30
0.0
 11
378.6525559910342
 21
183.6306116851292
 31
0.0
  0
ARC
  5
9509
330
1A
100
AcDbEntity
  8
SEIHIN
  6
Continuous
 62
     3
100
AcDbCircle
 10
367.7925559910318
 20
183.8406116851301
 30
0.0
 40
1.789999999999054
100
AcDbArc
 50
90.0
 51
180.0
  0
ARC
  5
950A
330
1A
100
AcDbEntity
  8
SEIHIN
  6
Continuous
 62
     3
100
AcDbCircle
 10
368.3525559910331
 20
186.6306116851292
 30
0.0
 40
1.0
100
AcDbArc
 50
180.0
 51
270.0
  0
LINE
  5
950B
330
1A
100
AcDbEntity
  8
SEIHIN
  6
Continuous
 62
     3
100
AcDbLine
 10
368.0425559910336
 20
180.9306116851292
 30
0.0
 11
368.5025709910328
 21
180.9306116851292
 31
0.0
  0
LINE
  5
950C
330
1A
100
AcDbEntity
  8
SEIHIN
  6
Continuous
 62
     3
100
AcDbLine
 10
368.0425559910336
 20
180.9306124964431
 30
0.0
 11
368.0425559910336
 21
182.6306116851292
 31
0.0
  0
LINE
  5
950D
330
1A
100
AcDbEntity
  8
SEIHIN
  6
Continuous
 62
     3
 48
5.0
100
AcDbLine
 10
370.0010709910327
 20
180.4085216851292
 30
0.0
 11
370.0010709910327
 21
177.8527016851291
 31
0.0
  0
LINE
  5
950E
330
1A
100
AcDbEntity
  8
SEIHIN
  6
Continuous
 62
     3
 48
5.0
100
AcDbLine
 10
368.5025709910328
 20
175.5306116851292
 30
0.0
 11
368.5025709910328
 21
177.3306116851292
 31
0.0
  0
LINE
  5
950F
330
1A
100
AcDbEntity
  8
SEIHIN
  6
Continuous
 62
     3
100
AcDbLine
 10
368.5025709910328
 20
180.9306116851292
 30
0.0
 11
370.0010709910327
 21
180.4085216851292
 31
0.0
  0
LINE
  5
9510
330
1A
100
AcDbEntity
  8
SEIHIN
  6
Continuous
 62
     3
 48
5.0
100
AcDbLine
 10
368.5025709910328
 20
177.3306116851292
 30
0.0
 11
370.0010709910327
 21
177.8527016851291
 31
0.0
  0
LINE
  5
9511
330
1A
100
AcDbEntity
  8
SEIHIN
  6
Continuous
 62
     3
 48
5.0
100
AcDbLine
 10
368.5025709910328
 20
175.5306116851292
 30
0.0
 11
370.0010709910327
 21
175.0085216851292
 31
0.0
  0
ARC
  5
9512
330
1A
100
AcDbEntity
  8
SEIHIN
  6
Continuous
 62
     3
100
AcDbCircle
 10
369.0425559910336
 20
182.6306116851292
 30
0.0
 40
1.0
100
AcDbArc
 50
90.0
 51
180.0
  0
LINE
  5
9513
330
1A
100
AcDbEntity
  8
SEIHIN
  6
Continuous
 62
     3
100
AcDbLine
 10
367.7925559910318
 20
185.6306116851292
 30
0.0
 11
374.6525559910342
 21
185.6306116851292
 31
0.0
  0
LINE
  5
9514
330
1A
100
AcDbEntity
  8
SEIHIN
  6
Continuous
 62
     3
100
AcDbLine
 10
378.6525559910342
 20
183.6306116851292
 30
0.0
 11
378.6525559910342
 21
184.6306116851292
 31
0.0
  0
LINE
  5
9515
330
1A
100
AcDbEntity
  8
SEIHIN
  6
Continuous
 62
     3
100
AcDbLine
 10
367.0579962822348
 20
201.6853886661292
 30
0.0
 11
363.0812846149337
 21
213.904305822728
 31
0.0
  0
ARC
  5
9516
330
1A
100
AcDbEntity
  8
SEIHIN
  6
Continuous
 62
     3
100
AcDbCircle
 10
361.3525559910331
 20
199.8285227358292
 30
0.0
 40
5.999999999999986
100
AcDbArc
 50
0.0
 51
18.02775438719674
  0
LINE
  5
9525
330
1A
100
AcDbEntity
  8
SEIHIN
  6
Continuous
 62
     3
100
AcDbLine
 10
202.9557846640618
 20
202.5103885554663
 30
0.0
 11
202.9557846640618
 21
192.872922994596
 31
0.0
  0
LINE
  5
9526
330
1A
100
AcDbEntity
  8
SEIHIN
  6
Continuous
 62
     3
100
AcDbLine
 10
197.9557846640618
 20
192.872922994596
 30
0.0
 11
197.9557846640618
 21
202.5103885554684
 31
0.0
  0
LINE
  5
9527
330
1A
100
AcDbEntity
  8
CENTER L
  6
CENTER
 62
     1
 48
5.0
100
AcDbLine
 10
200.4557846640618
 20
175.0055841277918
 30
0.0
 11
200.4557846640618
 21
256.5481913059853
 31
0.0
  0
ARC
  5
9528
330
1A
100
AcDbEntity
  8
SEIHIN
  6
Continuous
 62
     3
100
AcDbCircle
 10
200.4557846640618
 20
215.7768877168886
 30
0.0
 40
13.50000000000007
100
AcDbArc
 50
280.6701424397735
 51
349.330495067331
  0
ARC
  5
9529
330
1A
100
AcDbEntity
  8
SEIHIN
  6
Continuous
 62
     3
100
AcDbCircle
 10
200.4557846640618
 20
215.7768877168886
 30
0.0
 40
13.49999999999997
100
AcDbArc
 50
190.6734323186981
 51
259.3266717904406
  0
ARC
  5
952A
330
1A
100
AcDbEntity
  8
SEIHIN
  6
Continuous
 62
     3
100
AcDbCircle
 10
200.4557846640618
 20
215.7768877168886
 30
0.0
 40
23.04000000000029
100
AcDbArc
 50
276.1703322583989
 51
353.7707453884302
  0
ARC
  5
952B
330
1A
100
AcDbEntity
  8
SEIHIN
  6
Continuous
 62
     3
100
AcDbCircle
 10
204.5923434130254
 20
197.4303856880463
 30
0.0
 40
8.133886040241614
100
AcDbArc
 50
223.811063215512
 51
239.4321249713488
  0
ARC
  5
952C
330
1A
100
AcDbEntity
  8
SEIHIN
  6
Continuous
 62
     3
100
AcDbCircle
 10
196.0776083385935
 20
197.7354673347775
 30
0.0
 40
8.519610552596418
100
AcDbArc
 50
300.9235537328494
 51
315.8332580802748
  0
ARC
  5
952D
330
1A
100
AcDbEntity
  8
SEIHIN
  6
Continuous
 62
     3
100
AcDbCircle
 10
200.3959244022041
 20
193.8671052243635
 30
0.0
 40
2.440951604339957
100
AcDbArc
 50
181.4777886078518
 51
271.4052241850272
  0
ARC
  5
952E
330
1A
100
AcDbEntity
  8
SEIHIN
  6
Continuous
 62
     3
100
AcDbCircle
 10
200.5156449259234
 20
193.8671052243635
 30
0.0
 40
2.440951604340076
100
AcDbArc
 50
268.5947758149727
 51
358.5222113921481
  0
ARC
  5
952F
330
1A
100
AcDbEntity
  8
SEIHIN
  6
Continuous
 62
     3
100
AcDbCircle
 10
200.3959244022007
 20
198.1383766004504
 30
0.0
 40
2.440951604339957
100
AcDbArc
 50
181.4777886078518
 51
271.4052241850272
  0
ARC
  5
9530
330
1A
100
AcDbEntity
  8
SEIHIN
  6
Continuous
 62
     3
100
AcDbCircle
 10
200.5156449259211
 20
198.1383766004504
 30
0.0
 40
2.440951604340076
100
AcDbArc
 50
268.5947758149727
 51
358.5222113921481
  0
LINE
  5
9531
330
1A
100
AcDbEntity
  8
SEIHIN
  6
Continuous
 62
     3
100
AcDbLine
 10
197.9557846640618
 20
193.92688771689
 30
0.0
 11
197.9557846640618
 21
194.0987142136667
 31
0.0
  0
LINE
  5
9532
330
1A
100
AcDbEntity
  8
SEIHIN
  6
Continuous
 62
     3
100
AcDbLine
 10
202.9557846640618
 20
194.0987142136667
 30
0.0
 11
202.9557846640618
 21
193.92688771689
 31
0.0
  0
LWPOLYLINE
  5
9533
330
1A
100
AcDbEntity
  8
SEIHIN
  6
Continuous
 62
     3
100
AcDbPolyline
 90
        6
 70
     0
 43
0.0
 10
197.9793401687802
 20
192.8703641338173
 10
198.0224939306299
 20
192.8161004683164
 10
198.1030995389773
 20
192.6702678869163
 10
198.2283069533823
 20
192.4579929545428
 10
198.4118028531193
 20
192.1887654930518
 10
198.7227151368424
 20
191.79943851949
  0
ARC
  5
9534
330
1A
100
AcDbEntity
  8
SEIHIN
  6
Continuous
 62
     3
100
AcDbCircle
 10
195.3668436686039
 20
197.3283527433098
 30
0.0
 40
8.781157102902133
100
AcDbArc
 50
320.976882238633
 51
329.4908024613349
  0
DIMENSION
  5
9535
330
1A
100
AcDbEntity
  8
SUNPOU
100
AcDbDimension
  2
*D18
 10
181.0538055036881
 20
203.3509147304201
 30
0.0
 11
213.791588517248
 21
228.1496442913803
 31
0.0
 70
   163
 71
     5
 42
-1.0
  3
STANDARD
100
AcDbDiametricDimension
 15
219.8577638244354
 25
228.2028607033568
 35
0.0
 40
0.0
1001
ACAD
1000
DSTYLE
1002
{
1070
   287
1070
     5
1070
   287
1070
     5
1070
    41
1040
3.0
1070
    42
1040
3.0
1070
    43
1040
7.0
1070
    44
1040
1.5
1070
    73
1070
     0
1070
    74
1070
     0
1070
    77
1070
     3
1070
   140
1040
3.0
1070
   141
1040
150.0
1070
   147
1040
1.0
1070
   172
1070
     1
1070
   173
1070
     1
1070
   176
1070
     4
1070
   177
1070
     4
1070
   178
1070
     4
1070
   271
1070
     0
1070
   272
1070
     2
1070
   279
1070
     2
1070
     6
1000
OPEN
1070
     7
1000
OPEN
1002
}
  0
ARC
  5
9536
330
1A
100
AcDbEntity
  8
SEIHIN
  6
Continuous
 62
     3
100
AcDbCircle
 10
185.4598605385399
 20
241.6221874989836
 30
0.0
 40
36.65743569818128
100
AcDbArc
 50
315.1664720512586
 51
320.4426450079701
  0
ARC
  5
9537
330
1A
100
AcDbEntity
  8
SEIHIN
  6
Continuous
 62
     3
100
AcDbCircle
 10
185.1186338330681
 20
189.6222319180718
 30
0.0
 40
37.11753674274488
100
AcDbArc
 50
39.59007884714064
 51
44.80080409366973
  0
ARC
  5
9538
330
1A
100
AcDbEntity
  8
SEIHIN
  6
Continuous
 62
     3
100
AcDbCircle
 10
200.4557846640618
 20
215.7768877168886
 30
0.0
 40
13.50000000000002
100
AcDbArc
 50
10.67199664963847
 51
79.32720377644255
  0
ARC
  5
9539
330
1A
100
AcDbEntity
  8
SEIHIN
  6
Continuous
 62
     3
100
AcDbCircle
 10
200.4557846640618
 20
215.7768877168886
 30
0.0
 40
23.04000000000026
100
AcDbArc
 50
6.229254611569731
 51
83.77074538837456
  0
CIRCLE
  5
953A
330
1A
100
AcDbEntity
  8
SEIHIN
  6
Continuous
 62
     3
100
AcDbCircle
 10
200.4557846640618
 20
215.7768877168886
 30
0.0
 40
8.500000000000113
  0
ARC
  5
953B
330
1A
100
AcDbEntity
  8
SEIHIN
  6
Continuous
 62
     3
100
AcDbCircle
 10
200.4557846640618
 20
215.7768877168886
 30
0.0
 40
13.49999999999987
100
AcDbArc
 50
100.6698254961449
 51
169.3285906490367
  0
ARC
  5
953C
330
1A
100
AcDbEntity
  8
SEIHIN
  6
Continuous
 62
     3
100
AcDbCircle
 10
215.4517087895837
 20
189.9315879347935
 30
0.0
 40
36.65743569818128
100
AcDbArc
 50
135.1664720512586
 51
140.4426450079701
  0
ARC
  5
953D
330
1A
100
AcDbEntity
  8
SEIHIN
  6
Continuous
 62
     3
100
AcDbCircle
 10
215.7929354950556
 20
241.9315435157053
 30
0.0
 40
37.11753674274488
100
AcDbArc
 50
219.5900788471406
 51
224.8008040936697
  0
ARC
  5
953E
330
1A
100
AcDbEntity
  8
SEIHIN
  6
Continuous
 62
     3
100
AcDbCircle
 10
226.3010844461569
 20
230.7728118424105
 30
0.0
 40
36.65743569818128
100
AcDbArc
 50
225.1664720512609
 51
230.4426450079687
  0
ARC
  5
953F
330
1A
100
AcDbEntity
  8
SEIHIN
  6
Continuous
 62
     3
100
AcDbCircle
 10
174.3011288652451
 20
231.1140385478823
 30
0.0
 40
37.11753674274488
100
AcDbArc
 50
309.5900788471406
 51
314.8008040936691
  0
ARC
  5
9540
330
1A
100
AcDbEntity
  8
SEIHIN
  6
Continuous
 62
     3
100
AcDbCircle
 10
200.5156449259231
 20
233.4153988333269
 30
0.0
 40
2.440951604339957
100
AcDbArc
 50
1.477788607851839
 51
91.40522418502721
  0
ARC
  5
9541
330
1A
100
AcDbEntity
  8
SEIHIN
  6
Continuous
 62
     3
100
AcDbCircle
 10
200.3959244022027
 20
233.4153988333269
 30
0.0
 40
2.440951604340076
100
AcDbArc
 50
88.59477581497278
 51
178.5222113921481
  0
LINE
  5
9542
330
1A
100
AcDbEntity
  8
SEIHIN
  6
Continuous
 62
     3
100
AcDbLine
 10
197.9557846640618
 20
229.0433868783109
 30
0.0
 11
197.9557846640618
 21
238.6808524391812
 31
0.0
  0
LINE
  5
9543
330
1A
100
AcDbEntity
  8
SEIHIN
  6
Continuous
 62
     3
100
AcDbLine
 10
202.9557846640618
 20
238.6808524391812
 30
0.0
 11
202.9557846640618
 21
229.0433868783088
 31
0.0
  0
ARC
  5
9544
330
1A
100
AcDbEntity
  8
SEIHIN
  6
Continuous
 62
     3
100
AcDbCircle
 10
174.6104848819668
 20
200.7809635913667
 30
0.0
 40
36.65743569818128
100
AcDbArc
 50
45.16647205126096
 51
50.4426450079687
  0
ARC
  5
9545
330
1A
100
AcDbEntity
  8
SEIHIN
  6
Continuous
 62
     3
100
AcDbCircle
 10
226.6104404628786
 20
200.4397368858948
 30
0.0
 40
37.11753674274488
100
AcDbArc
 50
129.5900788471404
 51
134.8008040936688
  0
LINE
  5
9546
330
1A
100
AcDbEntity
  8
SEIHIN
  6
Continuous
 62
     3
100
AcDbLine
 10
202.9557846640618
 20
237.6268877168871
 30
0.0
 11
202.9557846640618
 21
237.4550612201104
 31
0.0
  0
LINE
  5
9547
330
1A
100
AcDbEntity
  8
SEIHIN
  6
Continuous
 62
     3
100
AcDbLine
 10
197.9557846640618
 20
237.4550612201104
 30
0.0
 11
197.9557846640618
 21
237.6268877168871
 31
0.0
  0
LWPOLYLINE
  5
9548
330
1A
100
AcDbEntity
  8
SEIHIN
  6
Continuous
 62
     3
100
AcDbPolyline
 90
        6
 70
     0
 43
0.0
 10
202.9322291593434
 20
238.6834112999599
 10
202.8890753974938
 20
238.7376749654608
 10
202.8084697891463
 20
238.8835075468609
 10
202.6832623747413
 20
239.0957824792343
 10
202.4997664750044
 20
239.3650099407254
 10
202.1888541912812
 20
239.7543369142872
  0
ARC
  5
9549
330
1A
100
AcDbEntity
  8
SEIHIN
  6
Continuous
 62
     3
100
AcDbCircle
 10
196.3192259150984
 20
234.1233897457309
 30
0.0
 40
8.133886040241614
100
AcDbArc
 50
43.81106321551213
 51
59.43212497134885
  0
ARC
  5
954A
330
1A
100
AcDbEntity
  8
SEIHIN
  6
Continuous
 62
     3
100
AcDbCircle
 10
205.5447256595199
 20
234.2254226904674
 30
0.0
 40
8.781157102902133
100
AcDbArc
 50
140.9768822386331
 51
149.4908024613349
  0
ARC
  5
954B
330
1A
100
AcDbEntity
  8
SEIHIN
  6
Continuous
 62
     3
100
AcDbCircle
 10
204.8339609895303
 20
233.8183080989997
 30
0.0
 40
8.519610552596418
100
AcDbArc
 50
120.9235537328495
 51
135.8332580802748
  0
ARC
  5
954C
330
1A
100
AcDbEntity
  8
SEIHIN
  6
Continuous
 62
     3
100
AcDbCircle
 10
200.5156449259196
 20
237.6866702094138
 30
0.0
 40
2.440951604339957
100
AcDbArc
 50
1.477788607851839
 51
91.40522418502721
  0
ARC
  5
954D
330
1A
100
AcDbEntity
  8
SEIHIN
  6
Continuous
 62
     3
100
AcDbCircle
 10
200.3959244022004
 20
237.6866702094138
 30
0.0
 40
2.440951604340076
100
AcDbArc
 50
88.59477581497278
 51
178.5222113921481
  0
ARC
  5
954E
330
1A
100
AcDbEntity
  8
SEIHIN
  6
Continuous
 62
     3
100
AcDbCircle
 10
218.0942957805
 20
215.7170274550274
 30
0.0
 40
2.440951604339957
100
AcDbArc
 50
271.4777886078517
 51
1.405224185027181
  0
ARC
  5
954F
330
1A
100
AcDbEntity
  8
SEIHIN
  6
Continuous
 62
     3
100
AcDbCircle
 10
222.3655671565869
 20
215.7170274550308
 30
0.0
 40
2.440951604339957
100
AcDbArc
 50
271.4777886078517
 51
1.405224185027181
  0
ARC
  5
9550
330
1A
100
AcDbEntity
  8
SEIHIN
  6
Continuous
 62
     3
100
AcDbCircle
 10
218.0942957805
 20
215.8367479787478
 30
0.0
 40
2.440951604340076
100
AcDbArc
 50
358.5947758149728
 51
88.52221139214817
  0
LINE
  5
9551
330
1A
100
AcDbEntity
  8
SEIHIN
  6
Continuous
 62
     3
100
AcDbLine
 10
213.7222838254841
 20
218.2768877168886
 30
0.0
 11
223.3597493863544
 21
218.2768877168886
 31
0.0
  0
LINE
  5
9552
330
1A
100
AcDbEntity
  8
SEIHIN
  6
Continuous
 62
     3
100
AcDbLine
 10
223.3597493863544
 20
213.2768877168885
 30
0.0
 11
213.722283825482
 21
213.2768877168885
 31
0.0
  0
LINE
  5
9553
330
1A
100
AcDbEntity
  8
SEIHIN
  6
Continuous
 62
     3
100
AcDbLine
 10
222.3057846640604
 20
213.2768877168885
 30
0.0
 11
222.1339581672836
 21
213.2768877168885
 31
0.0
  0
LINE
  5
9554
330
1A
100
AcDbEntity
  8
SEIHIN
  6
Continuous
 62
     3
100
AcDbLine
 10
222.1339581672836
 20
218.2768877168886
 30
0.0
 11
222.3057846640604
 21
218.2768877168886
 31
0.0
  0
LWPOLYLINE
  5
9555
330
1A
100
AcDbEntity
  8
SEIHIN
  6
Continuous
 62
     3
100
AcDbPolyline
 90
        6
 70
     0
 43
0.0
 10
223.3623082471331
 20
213.300443221607
 10
223.416571912634
 20
213.3435969834566
 10
223.5624044940341
 20
213.4242025918041
 10
223.7746794264075
 20
213.5494100062091
 10
224.0439068878986
 20
213.732905905946
 10
224.4332338614603
 20
214.0438181896691
  0
ARC
  5
9556
330
1A
100
AcDbEntity
  8
SEIHIN
  6
Continuous
 62
     3
100
AcDbCircle
 10
218.8022866929041
 20
219.9134464658521
 30
0.0
 40
8.133886040241614
100
AcDbArc
 50
313.8110632155144
 51
329.4321249713493
  0
ARC
  5
9557
330
1A
100
AcDbEntity
  8
SEIHIN
  6
Continuous
 62
     3
100
AcDbCircle
 10
218.9043196376406
 20
210.6879467214306
 30
0.0
 40
8.781157102902133
100
AcDbArc
 50
50.97688223863287
 51
59.49080246133535
  0
ARC
  5
9558
330
1A
100
AcDbEntity
  8
SEIHIN
  6
Continuous
 62
     3
100
AcDbCircle
 10
218.4972050461729
 20
211.3987113914202
 30
0.0
 40
8.519610552596418
100
AcDbArc
 50
30.92355373285104
 51
45.83325808027546
  0
ARC
  5
9559
330
1A
100
AcDbEntity
  8
SEIHIN
  6
Continuous
 62
     3
100
AcDbCircle
 10
222.3655671565869
 20
215.83674797875
 30
0.0
 40
2.440951604340076
100
AcDbArc
 50
358.5947758149728
 51
88.52221139214817
  0
TEXT
  5
A2CB
330
1A
100
AcDbEntity
  8
MOJI
100
AcDbText
 10
44.44138808139745
 20
6.242677182400996
 30
0.0
 40
2.799999999999999
  1
ユニシェイプＵＲＴ６０ＢＬ
 41
0.9
  7
ｽﾀｲﾙ1
100
AcDbText
  0
TEXT
  5
A373
330
1A
100
AcDbEntity
  8
MOJI
100
AcDbText
 10
227.707177370123
 20
6.73799520856798
 30
0.0
 40
2.799999999999999
  1
ＰＨ１３□
 41
0.9
  7
ｽﾀｲﾙ1
100
AcDbText
  0
VIEWPORT
  5
22
330
17
100
AcDbEntity
 67
     1
  8
0
100
AcDbViewport
 10
313.6808219178082
 20
148.5
 30
0.0
 40
627.3616438356165
 41
297.0
 68
     2
 69
     1
 12
313.6808219178082
 22
148.5
 13
0.0
 23
0.0
 14
1.0
 24
1.0
 15
10.0
 25
10.0
 16
0.0
 26
0.0
 36
1.0
 17
0.0
 27
0.0
 37
0.0
 42
50.0
 43
0.0
 44
0.0
 45
297.0
 50
0.0
 51
0.0
 72
   100
 90
    32768
  1

281
     0
 71
     1
 74
     0
110
0.0
120
0.0
130
0.0
111
1.0
121
0.0
131
0.0
112
0.0
122
1.0
132
0.0
 79
     0
146
0.0
  0
VIEWPORT
  5
64
330
17
100
AcDbEntity
 67
     1
  8
VIEWPORT
100
AcDbViewport
 10
210.0
 20
148.5
 30
0.0
 40
420.0
 41
297.0
 68
     1
 69
     2
 12
210.0
 22
148.5
 13
0.0
 23
0.0
 14
5.0
 24
5.0
 15
0.0
 25
0.0
 16
0.0
 26
0.0
 36
1.0
 17
0.0
 27
0.0
 37
0.0
 42
50.0
 43
0.0
 44
0.0
 45
302.9399999999998
 50
0.0
 51
0.0
 72
   100
 90
    32768
  1

281
     0
 71
     1
 74
     0
110
0.0
120
0.0
130
0.0
111
1.0
121
0.0
131
0.0
112
0.0
122
1.0
132
0.0
 79
     0
146
0.0
  0
ENDSEC
  0
SECTION
  2
OBJECTS
  0
DICTIONARY
  5
C
330
0
100
AcDbDictionary
281
     1
  3
ACAD_GROUP
350
D
  3
ACAD_LAYOUT
350
33B
  3
ACAD_MLINESTYLE
350
E
  3
ACAD_PLOTSETTINGS
350
33C
  3
ACAD_PLOTSTYLENAME
350
339
  0
DICTIONARY
  5
36A
330
1A
100
AcDbDictionary
280
     1
281
     1
  3
ACAD_LAYOUTSELFREF
360
A39D
  0
DICTIONARY
  5
368
330
17
100
AcDbDictionary
280
     1
281
     1
  3
ACAD_LAYOUTSELFREF
360
A39C
  0
DICTIONARY
  5
D
102
{ACAD_REACTORS
330
C
102
}
330
C
100
AcDbDictionary
281
     1
  0
DICTIONARY
  5
33B
102
{ACAD_REACTORS
330
C
102
}
330
C
100
AcDbDictionary
281
     1
  3
Model
350
33D
  3
ﾚｲｱｳﾄ1
350
33E
  0
DICTIONARY
  5
E
102
{ACAD_REACTORS
330
C
102
}
330
C
100
AcDbDictionary
281
     1
  3
STANDARD
350
13
  0
DICTIONARY
  5
33C
102
{ACAD_REACTORS
330
C
102
}
330
C
100
AcDbDictionary
281
     1
  0
ACDBDICTIONARYWDFLT
  5
339
102
{ACAD_REACTORS
330
C
102
}
330
C
100
AcDbDictionary
281
     1
  3
Normal
350
33A
100
AcDbDictionaryWithDefault
340
33A
1001
ACAD
1000
TREAT_AS_HARD
1070
     0
1000
TREAT_AS_HARD
1070
     0
1000
TREAT_AS_HARD
1070
     0
1000
TREAT_AS_HARD
1070
     0
1000
TREAT_AS_HARD
1070
     0
1000
TREAT_AS_HARD
1070
     0
1000
TREAT_AS_HARD
1070
     0
1000
TREAT_AS_HARD
1070
     0
1000
TREAT_AS_HARD
1070
     0
1000
TREAT_AS_HARD
1070
     0
  0
XRECORD
  5
A39D
102
{ACAD_REACTORS
330
36A
102
}
330
36A
100
AcDbXrecord
280
     1
340
1A
  0
XRECORD
  5
A39C
102
{ACAD_REACTORS
330
368
102
}
330
368
100
AcDbXrecord
280
     1
340
17
  0
LAYOUT
  5
33D
102
{ACAD_REACTORS
330
33B
102
}
330
33B
100
AcDbPlotSettings
  1

  2
Acrobat PDFWriter
  4
A3
  6

 40
7.143749713897705
 41
7.143756389617919
 42
7.143768310546875
 43
7.14373779296875
 44
297.1270751953125
 45
420.1583251953125
 46
0.0
 47
0.0
 48
0.0
 49
0.0
140
0.0
141
0.0
142
1.0
143
1.0
 70
 28336
 72
     1
 73
     1
 74
     2
  7
print.ctb
 75
    16
147
1.0
148
0.0
149
0.0
100
AcDbLayout
  1
Model
 70
     1
 71
     0
 10
0.0
 20
0.0
 11
12.0
 21
9.0
 12
0.0
 22
0.0
 32
0.0
 14
0.0
 24
0.0
 34
0.0
 15
0.0
 25
0.0
 35
0.0
146
0.0
 13
0.0
 23
0.0
 33
0.0
 16
1.0
 26
0.0
 36
0.0
 17
0.0
 27
1.0
 37
0.0
 76
     0
330
1A
  0
LAYOUT
  5
33E
102
{ACAD_REACTORS
330
33B
102
}
330
33B
100
AcDbPlotSettings
  1

  2
C:\PROGRAM FILES\ACAD LT 2000\plotters\DWF ePlot.pc3
  4

  6

 40
0.0
 41
0.0
 42
0.0
 43
0.0
 44
0.0
 45
0.0
 46
0.0
 47
0.0
 48
0.0
 49
0.0
140
0.0
141
0.0
142
1.0
143
1.0
 70
   688
 72
     0
 73
     0
 74
     5
  7
print.ctb
 75
    16
147
1.0
148
0.0
149
0.0
100
AcDbLayout
  1
ﾚｲｱｳﾄ1
 70
     1
 71
     1
 10
0.0
 20
0.0
 11
420.0
 21
297.0
 12
0.0
 22
0.0
 32
0.0
 14
0.0
 24
0.0
 34
0.0
 15
420.0
 25
297.0
 35
0.0
146
0.0
 13
0.0
 23
0.0
 33
0.0
 16
1.0
 26
0.0
 36
0.0
 17
0.0
 27
1.0
 37
0.0
 76
     0
330
17
331
64
  0
MLINESTYLE
  5
13
102
{ACAD_REACTORS
330
E
102
}
330
E
100
AcDbMlineStyle
  2
STANDARD
 70
     0
  3

 62
     0
 51
90.0
 52
90.0
 71
     2
 49
0.5
 62
   256
  6
BYLAYER
 49
-0.5
 62
   256
  6
BYLAYER
  0
ACDBPLACEHOLDER
  5
33A
102
{ACAD_REACTORS
330
339
102
}
330
339
  0
ENDSEC
  0
EOF
