  0
SECTION
  2
HEADER
  9
$ACADVER
  1
AC1015
  9
$ACADMAINTVER
 70
    20
  9
$DWGCODEPAGE
  3
ANSI_932
  9
$INSBASE
 10
0.0
 20
0.0
 30
0.0
  9
$EXTMIN
 10
0.0000002654082891
 20
-0.0000004524473525
 30
0.0
  9
$EXTMAX
 10
398.8000002654083
 20
275.7999995475527
 30
0.0
  9
$LIMMIN
 10
0.0
 20
0.0
  9
$LIMMAX
 10
420.0
 20
297.0
  9
$ORTHOMODE
 70
     0
  9
$REGENMODE
 70
     1
  9
$FILLMODE
 70
     1
  9
$QTEXTMODE
 70
     0
  9
$MIRRTEXT
 70
     1
  9
$LTSCALE
 40
1.0
  9
$ATTMODE
 70
     1
  9
$TEXTSIZE
 40
2.5
  9
$TRACEWID
 40
1.0
  9
$TEXTSTYLE
  7
STANDARD
  9
$CLAYER
  8
0
  9
$CELTYPE
  6
BYLAYER
  9
$CECOLOR
 62
   256
  9
$CELTSCALE
 40
1.0
  9
$DISPSILH
 70
     0
  9
$DIMSCALE
 40
1.0
  9
$DIMASZ
 40
3.0
  9
$DIMEXO
 40
3.0
  9
$DIMDLI
 40
7.0
  9
$DIMRND
 40
0.0
  9
$DIMDLE
 40
0.0
  9
$DIMEXE
 40
1.5
  9
$DIMTP
 40
0.0
  9
$DIMTM
 40
0.0
  9
$DIMTXT
 40
3.0
  9
$DIMCEN
 40
150.0
  9
$DIMTSZ
 40
0.0
  9
$DIMTOL
 70
     0
  9
$DIMLIM
 70
     0
  9
$DIMTIH
 70
     0
  9
$DIMTOH
 70
     0
  9
$DIMSE1
 70
     0
  9
$DIMSE2
 70
     0
  9
$DIMTAD
 70
     3
  9
$DIMZIN
 70
     0
  9
$DIMBLK
  1

  9
$DIMASO
 70
     1
  9
$DIMSHO
 70
     1
  9
$DIMPOST
  1

  9
$DIMAPOST
  1

  9
$DIMALT
 70
     0
  9
$DIMALTD
 70
     2
  9
$DIMALTF
 40
25.4
  9
$DIMLFAC
 40
1.0
  9
$DIMTOFL
 70
     1
  9
$DIMTVP
 40
0.0
  9
$DIMTIX
 70
     0
  9
$DIMSOXD
 70
     0
  9
$DIMSAH
 70
     1
  9
$DIMBLK1
  1
OPEN
  9
$DIMBLK2
  1
OPEN
  9
$DIMSTYLE
  2
STANDARD
  9
$DIMCLRD
 70
   256
  9
$DIMCLRE
 70
   256
  9
$DIMCLRT
 70
   256
  9
$DIMTFAC
 40
1.0
  9
$DIMGAP
 40
1.0
  9
$DIMJUST
 70
     0
  9
$DIMSD1
 70
     0
  9
$DIMSD2
 70
     0
  9
$DIMTOLJ
 70
     1
  9
$DIMTZIN
 70
     0
  9
$DIMALTZ
 70
     0
  9
$DIMALTTZ
 70
     0
  9
$DIMUPT
 70
     0
  9
$DIMDEC
 70
     0
  9
$DIMTDEC
 70
     0
  9
$DIMALTU
 70
     2
  9
$DIMALTTD
 70
     2
  9
$DIMTXSTY
  7
STANDARD
  9
$DIMAUNIT
 70
     0
  9
$DIMADEC
 70
     0
  9
$DIMALTRND
 40
0.0
  9
$DIMAZIN
 70
     0
  9
$DIMDSEP
 70
    46
  9
$DIMATFIT
 70
     3
  9
$DIMFRAC
 70
     0
  9
$DIMLDRBLK
  1
OPEN
  9
$DIMLUNIT
 70
     2
  9
$DIMLWD
 70
    -2
  9
$DIMLWE
 70
    -2
  9
$DIMTMOVE
 70
     0
  9
$LUNITS
 70
     2
  9
$LUPREC
 70
     4
  9
$SKETCHINC
 40
1.0
  9
$FILLETRAD
 40
55.0
  9
$AUNITS
 70
     0
  9
$AUPREC
 70
     0
  9
$MENU
  1
.
  9
$ELEVATION
 40
0.0
  9
$PELEVATION
 40
0.0
  9
$THICKNESS
 40
0.0
  9
$LIMCHECK
 70
     0
  9
$CHAMFERA
 40
10.0
  9
$CHAMFERB
 40
10.0
  9
$CHAMFERC
 40
20.0
  9
$CHAMFERD
 40
0.0
  9
$SKPOLY
 70
     0
  9
$TDCREATE
 40
2451074.584006713
  9
$TDUCREATE
 40
2451074.209006713
  9
$TDUPDATE
 40
2456912.675636725
  9
$TDUUPDATE
 40
2456912.300636725
  9
$TDINDWG
 40
0.1426969097
  9
$TDUSRTIMER
 40
0.1426967245
  9
$USRTIMER
 70
     1
  9
$ANGBASE
 50
0.0
  9
$ANGDIR
 70
     0
  9
$PDMODE
 70
     0
  9
$PDSIZE
 40
0.0
  9
$PLINEWID
 40
0.0
  9
$SPLFRAME
 70
     0
  9
$SPLINETYPE
 70
     6
  9
$SPLINESEGS
 70
     8
  9
$HANDSEED
  5
1353
  9
$SURFTAB1
 70
     6
  9
$SURFTAB2
 70
     6
  9
$SURFTYPE
 70
     6
  9
$SURFU
 70
     6
  9
$SURFV
 70
     6
  9
$UCSBASE
  2

  9
$UCSNAME
  2

  9
$UCSORG
 10
0.0
 20
0.0
 30
0.0
  9
$UCSXDIR
 10
1.0
 20
0.0
 30
0.0
  9
$UCSYDIR
 10
0.0
 20
1.0
 30
0.0
  9
$UCSORTHOREF
  2

  9
$UCSORTHOVIEW
 70
     0
  9
$UCSORGTOP
 10
0.0
 20
0.0
 30
0.0
  9
$UCSORGBOTTOM
 10
0.0
 20
0.0
 30
0.0
  9
$UCSORGLEFT
 10
0.0
 20
0.0
 30
0.0
  9
$UCSORGRIGHT
 10
0.0
 20
0.0
 30
0.0
  9
$UCSORGFRONT
 10
0.0
 20
0.0
 30
0.0
  9
$UCSORGBACK
 10
0.0
 20
0.0
 30
0.0
  9
$PUCSBASE
  2

  9
$PUCSNAME
  2

  9
$PUCSORG
 10
0.0
 20
0.0
 30
0.0
  9
$PUCSXDIR
 10
1.0
 20
0.0
 30
0.0
  9
$PUCSYDIR
 10
0.0
 20
1.0
 30
0.0
  9
$PUCSORTHOREF
  2

  9
$PUCSORTHOVIEW
 70
     0
  9
$PUCSORGTOP
 10
0.0
 20
0.0
 30
0.0
  9
$PUCSORGBOTTOM
 10
0.0
 20
0.0
 30
0.0
  9
$PUCSORGLEFT
 10
0.0
 20
0.0
 30
0.0
  9
$PUCSORGRIGHT
 10
0.0
 20
0.0
 30
0.0
  9
$PUCSORGFRONT
 10
0.0
 20
0.0
 30
0.0
  9
$PUCSORGBACK
 10
0.0
 20
0.0
 30
0.0
  9
$USERI1
 70
     0
  9
$USERI2
 70
     0
  9
$USERI3
 70
     0
  9
$USERI4
 70
     0
  9
$USERI5
 70
     0
  9
$USERR1
 40
0.0
  9
$USERR2
 40
0.0
  9
$USERR3
 40
0.0
  9
$USERR4
 40
0.0
  9
$USERR5
 40
0.0
  9
$WORLDVIEW
 70
     1
  9
$SHADEDGE
 70
     3
  9
$SHADEDIF
 70
    70
  9
$TILEMODE
 70
     1
  9
$MAXACTVP
 70
    16
  9
$PINSBASE
 10
0.0
 20
0.0
 30
0.0
  9
$PLIMCHECK
 70
     0
  9
$PEXTMIN
 10
0.0
 20
0.0
 30
0.0
  9
$PEXTMAX
 10
420.0
 20
297.0
 30
0.0
  9
$PLIMMIN
 10
0.0
 20
0.0
  9
$PLIMMAX
 10
420.0
 20
297.0
  9
$UNITMODE
 70
     0
  9
$VISRETAIN
 70
     0
  9
$PLINEGEN
 70
     0
  9
$PSLTSCALE
 70
     1
  9
$TREEDEPTH
 70
  3020
  9
$CMLSTYLE
  2
STANDARD
  9
$CMLJUST
 70
     0
  9
$CMLSCALE
 40
1.0
  9
$PROXYGRAPHICS
 70
     1
  9
$MEASUREMENT
 70
     0
  9
$CELWEIGHT
370
    -1
  9
$ENDCAPS
280
     0
  9
$JOINSTYLE
280
     0
  9
$LWDISPLAY
290
     0
  9
$INSUNITS
 70
     0
  9
$HYPERLINKBASE
  1

  9
$STYLESHEET
  1

  9
$XEDIT
290
     1
  9
$CEPSNTYPE
380
     0
  9
$PSTYLEMODE
290
     1
  9
$FINGERPRINTGUID
  2
{CDADA3E4-1375-432A-96D6-6E8AE5506E68}
  9
$VERSIONGUID
  2
{499DE3DD-9AB2-413A-8E02-4180DDFDFB23}
  9
$EXTNAMES
290
     1
  9
$PSVPSCALE
 40
0.0
  9
$OLESTARTUP
290
     0
  0
ENDSEC
  0
SECTION
  2
CLASSES
  0
CLASS
  1
ACDBDICTIONARYWDFLT
  2
AcDbDictionaryWithDefault
  3
ObjectDBX Classes
 90
        0
280
     0
281
     0
  0
CLASS
  1
ACDBPLACEHOLDER
  2
AcDbPlaceHolder
  3
ObjectDBX Classes
 90
        0
280
     0
281
     0
  0
CLASS
  1
LAYOUT
  2
AcDbLayout
  3
ObjectDBX Classes
 90
        0
280
     0
281
     0
  0
CLASS
  1
DICTIONARYVAR
  2
AcDbDictionaryVar
  3
ObjectDBX Classes
 90
        0
280
     0
281
     0
  0
ENDSEC
  0
SECTION
  2
TABLES
  0
TABLE
  2
VPORT
  5
8
330
0
100
AcDbSymbolTable
 70
     2
  0
VPORT
  5
1347
330
8
100
AcDbSymbolTableRecord
100
AcDbViewportTableRecord
  2
*Active
 70
     0
 10
0.0
 20
0.0
 11
1.0
 21
1.0
 12
237.9511282946352
 22
149.4954589623322
 13
0.0
 23
0.0
 14
5.0
 24
5.0
 15
0.0
 25
0.0
 16
0.0
 26
0.0
 36
1.0
 17
0.0
 27
0.0
 37
0.0
 40
327.2664984139469
 41
2.011264080100125
 42
50.0
 43
0.0
 44
0.0
 50
0.0
 51
0.0
 71
     0
 72
   100
 73
     1
 74
     0
 75
     0
 76
     0
 77
     0
 78
     0
281
     0
 65
     1
110
0.0
120
0.0
130
0.0
111
1.0
121
0.0
131
0.0
112
0.0
122
1.0
132
0.0
 79
     0
146
0.0
  0
ENDTAB
  0
TABLE
  2
LTYPE
  5
5
330
0
100
AcDbSymbolTable
 70
     2
  0
LTYPE
  5
14
330
5
100
AcDbSymbolTableRecord
100
AcDbLinetypeTableRecord
  2
BYBLOCK
 70
     0
  3

 72
    65
 73
     0
 40
0.0
  0
LTYPE
  5
15
330
5
100
AcDbSymbolTableRecord
100
AcDbLinetypeTableRecord
  2
BYLAYER
 70
     0
  3

 72
    65
 73
     0
 40
0.0
  0
LTYPE
  5
16
330
5
100
AcDbSymbolTableRecord
100
AcDbLinetypeTableRecord
  2
CONTINUOUS
 70
     0
  3
Solid line
 72
    65
 73
     0
 40
0.0
  0
LTYPE
  5
120
330
5
100
AcDbSymbolTableRecord
100
AcDbLinetypeTableRecord
  2
CENTER
 70
     0
  3
____ _ ____ _ ____ _ ____ _ ____ _ ____ _ ____ 
 72
    65
 73
     4
 40
2.0
 49
1.25
 74
     0
 49
-0.25
 74
     0
 49
0.25
 74
     0
 49
-0.25
 74
     0
  0
ENDTAB
  0
TABLE
  2
LAYER
  5
2
330
0
100
AcDbSymbolTable
 70
     9
  0
LAYER
  5
F
330
2
100
AcDbSymbolTableRecord
100
AcDbLayerTableRecord
  2
0
 70
     0
 62
     7
  6
CONTINUOUS
370
    -3
390
12D9
  0
LAYER
  5
62
330
2
100
AcDbSymbolTableRecord
100
AcDbLayerTableRecord
  2
VIEWPORT
 70
     0
 62
     7
  6
CONTINUOUS
370
    -3
390
12D9
  0
LAYER
  5
6B
330
2
100
AcDbSymbolTableRecord
100
AcDbLayerTableRecord
  2
ZUWAKU
 70
     0
 62
     7
  6
CONTINUOUS
370
    -3
390
12D9
  0
LAYER
  5
140
330
2
100
AcDbSymbolTableRecord
100
AcDbLayerTableRecord
  2
SEIHIN
 70
     0
 62
     3
  6
CONTINUOUS
370
    -3
390
12D9
  0
LAYER
  5
141
330
2
100
AcDbSymbolTableRecord
100
AcDbLayerTableRecord
  2
SUNPOU
 70
     0
 62
     4
  6
CONTINUOUS
370
    -3
390
12D9
  0
LAYER
  5
142
330
2
100
AcDbSymbolTableRecord
100
AcDbLayerTableRecord
  2
CENTER_L
 70
     0
 62
     1
  6
CENTER
370
    -3
390
12D9
  0
LAYER
  5
143
330
2
100
AcDbSymbolTableRecord
100
AcDbLayerTableRecord
  2
DEFPOINTS
 70
     0
 62
     7
  6
CONTINUOUS
290
     0
370
    -3
390
12D9
  0
LAYER
  5
5D7
330
2
100
AcDbSymbolTableRecord
100
AcDbLayerTableRecord
  2
MOJI
 70
     0
 62
     2
  6
CONTINUOUS
370
    -3
390
12D9
  0
LAYER
  5
10BB
330
2
100
AcDbSymbolTableRecord
100
AcDbLayerTableRecord
  2
ﾊｯﾁﾝｸ_
 70
     0
 62
     7
  6
CONTINUOUS
370
    -3
390
12D9
  0
ENDTAB
  0
TABLE
  2
STYLE
  5
3
330
0
100
AcDbSymbolTable
 70
     2
  0
STYLE
  5
10
330
3
100
AcDbSymbolTableRecord
100
AcDbTextStyleTableRecord
  2
STANDARD
 70
     0
 40
0.0
 41
1.0
 50
0.0
 71
     0
 42
2.5
  3
TXT
  4
bigfont.shx
  0
STYLE
  5
5D8
330
3
100
AcDbSymbolTableRecord
100
AcDbTextStyleTableRecord
  2
ｽﾀｲﾙ1
 70
     0
 40
0.0
 41
1.0
 50
0.0
 71
     0
 42
2.5
  3

  4

1001
ACAD
1000
MS PGothic
1071
    32818
  0
ENDTAB
  0
TABLE
  2
VIEW
  5
6
330
0
100
AcDbSymbolTable
 70
     0
  0
ENDTAB
  0
TABLE
  2
UCS
  5
7
330
0
100
AcDbSymbolTable
 70
     0
  0
ENDTAB
  0
TABLE
  2
APPID
  5
9
330
0
100
AcDbSymbolTable
 70
     1
  0
APPID
  5
11
330
9
100
AcDbSymbolTableRecord
100
AcDbRegAppTableRecord
  2
ACAD
 70
     0
  0
ENDTAB
  0
TABLE
  2
DIMSTYLE
  5
A
330
0
100
AcDbSymbolTable
 70
     1
100
AcDbDimStyleTable
 71
     0
  0
DIMSTYLE
105
1D
102
{ACAD_REACTORS
330
A3F
330
A42
330
A4B
330
A51
330
A54
330
A5A
330
A5D
330
A5E
330
A67
330
10BC
102
}
330
A
100
AcDbSymbolTableRecord
100
AcDbDimStyleTableRecord
  2
STANDARD
 70
     0
340
10
  0
ENDTAB
  0
TABLE
  2
BLOCK_RECORD
  5
1
330
0
100
AcDbSymbolTable
 70
    14
  0
BLOCK_RECORD
  5
1A
102
{ACAD_XDICTIONARY
360
36A
102
}
330
1
100
AcDbSymbolTableRecord
100
AcDbBlockTableRecord
  2
*MODEL_SPACE
340
12DA
  0
BLOCK_RECORD
  5
17
102
{ACAD_XDICTIONARY
360
368
102
}
330
1
100
AcDbSymbolTableRecord
100
AcDbBlockTableRecord
  2
*PAPER_SPACE
340
12DB
  0
BLOCK_RECORD
  5
B2
330
1
100
AcDbSymbolTableRecord
100
AcDbBlockTableRecord
  2
_OPEN
340
0
102
{BLKREFS
331
105E
331
105F
331
1055
331
1056
331
1067
331
1068
331
107B
331
107C
331
1072
331
1073
331
1326
331
1327
331
10B4
331
10B5
331
129F
331
12A0
331
109D
331
109E
331
132E
331
132F
102
}
  0
BLOCK_RECORD
  5
AA0
330
1
100
AcDbSymbolTableRecord
100
AcDbBlockTableRecord
  2
*D1
340
0
  0
BLOCK_RECORD
  5
AAC
330
1
100
AcDbSymbolTableRecord
100
AcDbBlockTableRecord
  2
*D2
340
0
  0
BLOCK_RECORD
  5
AB8
330
1
100
AcDbSymbolTableRecord
100
AcDbBlockTableRecord
  2
*D3
340
0
  0
BLOCK_RECORD
  5
AC4
330
1
100
AcDbSymbolTableRecord
100
AcDbBlockTableRecord
  2
*D4
340
0
  0
BLOCK_RECORD
  5
AD0
330
1
100
AcDbSymbolTableRecord
100
AcDbBlockTableRecord
  2
*D5
340
0
  0
BLOCK_RECORD
  5
ADE
330
1
100
AcDbSymbolTableRecord
100
AcDbBlockTableRecord
  2
*D6
340
0
  0
BLOCK_RECORD
  5
AE7
330
1
100
AcDbSymbolTableRecord
100
AcDbBlockTableRecord
  2
*D7
340
0
  0
BLOCK_RECORD
  5
AF4
330
1
100
AcDbSymbolTableRecord
100
AcDbBlockTableRecord
  2
*D8
340
0
  0
BLOCK_RECORD
  5
B00
330
1
100
AcDbSymbolTableRecord
100
AcDbBlockTableRecord
  2
*D9
340
0
  0
BLOCK_RECORD
  5
E6E
330
1
100
AcDbSymbolTableRecord
100
AcDbBlockTableRecord
  2
*X10
340
0
102
{BLKREFS
331
6A2
102
}
  0
BLOCK_RECORD
  5
100A
330
1
100
AcDbSymbolTableRecord
100
AcDbBlockTableRecord
  2
*X11
340
0
102
{BLKREFS
331
E21
102
}
  0
BLOCK_RECORD
  5
1022
330
1
100
AcDbSymbolTableRecord
100
AcDbBlockTableRecord
  2
*X12
340
0
102
{BLKREFS
331
E22
102
}
  0
BLOCK_RECORD
  5
10BD
330
1
100
AcDbSymbolTableRecord
100
AcDbBlockTableRecord
  2
*D13
340
0
  0
ENDTAB
  0
ENDSEC
  0
SECTION
  2
BLOCKS
  0
BLOCK
  5
1B
330
1A
100
AcDbEntity
  8
0
100
AcDbBlockBegin
  2
*MODEL_SPACE
 70
     0
 10
0.0
 20
0.0
 30
0.0
  3
*MODEL_SPACE
  1

  0
ENDBLK
  5
1C
330
1A
100
AcDbEntity
  8
0
100
AcDbBlockEnd
  0
BLOCK
  5
18
330
17
100
AcDbEntity
 67
     1
  8
0
100
AcDbBlockBegin
  2
*PAPER_SPACE
 70
     0
 10
0.0
 20
0.0
 30
0.0
  3
*PAPER_SPACE
  1

  0
ENDBLK
  5
19
330
17
100
AcDbEntity
 67
     1
  8
0
100
AcDbBlockEnd
  0
BLOCK
  5
B3
330
B2
100
AcDbEntity
  8
0
100
AcDbBlockBegin
  2
_OPEN
 70
     0
 10
0.0
 20
0.0
 30
0.0
  3
_OPEN
  1

  0
LINE
  5
B4
330
B2
100
AcDbEntity
  8
0
  6
ByBlock
 62
     0
100
AcDbLine
 10
-1.0
 20
0.1666666666666666
 30
0.0
 11
0.0
 21
0.0
 31
0.0
  0
LINE
  5
B5
330
B2
100
AcDbEntity
  8
0
  6
ByBlock
 62
     0
100
AcDbLine
 10
0.0
 20
0.0
 30
0.0
 11
-1.0
 21
-0.1666666666666666
 31
0.0
  0
LINE
  5
B6
330
B2
100
AcDbEntity
  8
0
  6
ByBlock
 62
     0
100
AcDbLine
 10
0.0
 20
0.0
 30
0.0
 11
-1.0
 21
0.0
 31
0.0
  0
ENDBLK
  5
B7
330
B2
100
AcDbEntity
  8
0
100
AcDbBlockEnd
  0
BLOCK
  5
AAA
330
AA0
100
AcDbEntity
  8
0
100
AcDbBlockBegin
  2
*D1
 70
     1
 10
0.0
 20
0.0
 30
0.0
  3
*D1
  1

  0
LINE
  5
105B
330
AA0
100
AcDbEntity
  8
SUNPOU
100
AcDbLine
 10
72.406106793415
 20
73.39235020910919
 30
0.0
 11
72.406106793415
 21
48.28197215027216
 31
0.0
  0
LINE
  5
105C
330
AA0
100
AcDbEntity
  8
SUNPOU
100
AcDbLine
 10
146.6747165581756
 20
73.39235020910919
 30
0.0
 11
146.6747165581756
 21
48.28197215027216
 31
0.0
  0
LINE
  5
105D
330
AA0
100
AcDbEntity
  8
SUNPOU
100
AcDbLine
 10
75.40610679341501
 20
49.78197215027217
 30
0.0
 11
143.6747165581756
 21
49.78197215027217
 31
0.0
  0
INSERT
  5
105E
330
AA0
100
AcDbEntity
  8
SUNPOU
100
AcDbBlockReference
  2
_OPEN
 10
72.406106793415
 20
49.78197215027217
 30
0.0
 41
3.0
 42
3.0
 43
3.0
 50
180.0
  0
INSERT
  5
105F
330
AA0
100
AcDbEntity
  8
SUNPOU
100
AcDbBlockReference
  2
_OPEN
 10
146.6747165581756
 20
49.78197215027217
 30
0.0
 41
3.0
 42
3.0
 43
3.0
  0
MTEXT
  5
1060
330
AA0
100
AcDbEntity
  8
SUNPOU
100
AcDbMText
 10
109.5404116757953
 20
52.28197215027217
 30
0.0
 40
3.0
 41
0.0
 71
     5
 72
     5
  1
\A1;\U+03c674
 73
     1
 44
1.0
1001
ACAD
1000
MTEXTBEGIN
1070
    73
1070
     1
1070
    44
1040
1.0
1070
    74
1070
     0
1000
MTEXTEND
  0
POINT
  5
1061
330
AA0
100
AcDbEntity
  8
DEFPOINTS
 62
     0
100
AcDbPoint
 10
72.406106793415
 20
76.3923502091092
 30
0.0
  0
POINT
  5
1062
330
AA0
100
AcDbEntity
  8
DEFPOINTS
 62
     0
100
AcDbPoint
 10
146.6747165581756
 20
76.3923502091092
 30
0.0
  0
POINT
  5
1063
330
AA0
100
AcDbEntity
  8
DEFPOINTS
 62
     0
100
AcDbPoint
 10
146.6747165581756
 20
49.78197215027217
 30
0.0
  0
ENDBLK
  5
AAB
330
AA0
100
AcDbEntity
  8
0
100
AcDbBlockEnd
  0
BLOCK
  5
AB6
330
AAC
100
AcDbEntity
  8
0
100
AcDbBlockBegin
  2
*D2
 70
     1
 10
0.0
 20
0.0
 30
0.0
  3
*D2
  1

  0
LINE
  5
1052
330
AAC
100
AcDbEntity
  8
SUNPOU
 62
     4
100
AcDbLine
 10
59.54042027059535
 20
120.7925502090748
 30
0.0
 11
59.54042027059535
 21
135.8992724906592
 31
0.0
  0
LINE
  5
1053
330
AAC
100
AcDbEntity
  8
SUNPOU
 62
     4
100
AcDbLine
 10
159.5404202705951
 20
120.7923502090749
 30
0.0
 11
159.5404202705951
 21
135.8992724906592
 31
0.0
  0
LINE
  5
1054
330
AAC
100
AcDbEntity
  8
SUNPOU
 62
     4
100
AcDbLine
 10
62.54042027059535
 20
134.3992724906591
 30
0.0
 11
156.5404202705951
 21
134.3992724906591
 31
0.0
  0
INSERT
  5
1055
330
AAC
100
AcDbEntity
  8
SUNPOU
 62
     4
100
AcDbBlockReference
  2
_OPEN
 10
59.54042027059535
 20
134.3992724906591
 30
0.0
 41
3.0
 42
3.0
 43
3.0
 50
180.0
  0
INSERT
  5
1056
330
AAC
100
AcDbEntity
  8
SUNPOU
 62
     4
100
AcDbBlockReference
  2
_OPEN
 10
159.5404202705951
 20
134.3992724906591
 30
0.0
 41
3.0
 42
3.0
 43
3.0
  0
MTEXT
  5
1057
330
AAC
100
AcDbEntity
  8
SUNPOU
 62
     4
100
AcDbMText
 10
109.5404202705952
 20
136.8992724906592
 30
0.0
 40
3.0
 41
0.0
 71
     5
 72
     5
  1
\A1;\U+03c6100
 73
     1
 44
1.0
1001
ACAD
1000
MTEXTBEGIN
1070
    73
1070
     1
1070
    44
1040
1.0
1070
    74
1070
     0
1000
MTEXTEND
  0
POINT
  5
1058
330
AAC
100
AcDbEntity
  8
DEFPOINTS
 62
     0
100
AcDbPoint
 10
59.54042027059535
 20
117.7925502090748
 30
0.0
  0
POINT
  5
1059
330
AAC
100
AcDbEntity
  8
DEFPOINTS
 62
     0
100
AcDbPoint
 10
159.5404202705951
 20
117.7923502090749
 30
0.0
  0
POINT
  5
105A
330
AAC
100
AcDbEntity
  8
DEFPOINTS
 62
     0
100
AcDbPoint
 10
159.5404202705951
 20
134.3992724906591
 30
0.0
  0
ENDBLK
  5
AB7
330
AAC
100
AcDbEntity
  8
0
100
AcDbBlockEnd
  0
BLOCK
  5
AC2
330
AB8
100
AcDbEntity
  8
0
100
AcDbBlockBegin
  2
*D3
 70
     1
 10
0.0
 20
0.0
 30
0.0
  3
*D3
  1

  0
LINE
  5
1064
330
AB8
100
AcDbEntity
  8
SUNPOU
100
AcDbLine
 10
162.5404202705951
 20
117.7923502090748
 30
0.0
 11
181.1638753643367
 21
117.7923502090748
 31
0.0
  0
LINE
  5
1065
330
AB8
100
AcDbEntity
  8
SUNPOU
100
AcDbLine
 10
141.740411675776
 20
67.79235020910928
 30
0.0
 11
181.1638753643367
 21
67.79235020910926
 31
0.0
  0
LINE
  5
1066
330
AB8
100
AcDbEntity
  8
SUNPOU
100
AcDbLine
 10
179.6638753643367
 20
114.7923502090748
 30
0.0
 11
179.6638753643367
 21
70.79235020910927
 31
0.0
  0
INSERT
  5
1067
330
AB8
100
AcDbEntity
  8
SUNPOU
100
AcDbBlockReference
  2
_OPEN
 10
179.6638753643367
 20
117.7923502090748
 30
0.0
 41
3.0
 42
3.0
 43
3.0
 50
90.0
  0
INSERT
  5
1068
330
AB8
100
AcDbEntity
  8
SUNPOU
100
AcDbBlockReference
  2
_OPEN
 10
179.6638753643367
 20
67.79235020910926
 30
0.0
 41
3.0
 42
3.0
 43
3.0
 50
270.0
  0
MTEXT
  5
1069
330
AB8
100
AcDbEntity
  8
SUNPOU
100
AcDbMText
 10
177.1638753643365
 20
92.7923502090921
 30
0.0
 40
3.0
 41
0.0
 71
     5
 72
     5
  1
\A1;50
 11
0.0000000000000001
 21
1.0
 31
0.0
 73
     1
 44
1.0
1001
ACAD
1000
MTEXTBEGIN
1070
    73
1070
     1
1070
    44
1040
1.0
1070
    74
1070
     0
1000
MTEXTEND
  0
POINT
  5
106A
330
AB8
100
AcDbEntity
  8
DEFPOINTS
 62
     0
100
AcDbPoint
 10
159.5404202705951
 20
117.7923502090749
 30
0.0
  0
POINT
  5
106B
330
AB8
100
AcDbEntity
  8
DEFPOINTS
 62
     0
100
AcDbPoint
 10
138.740411675776
 20
67.79235020910928
 30
0.0
  0
POINT
  5
106C
330
AB8
100
AcDbEntity
  8
DEFPOINTS
 62
     0
100
AcDbPoint
 10
179.6638753643367
 20
67.79235020910926
 30
0.0
  0
ENDBLK
  5
AC3
330
AB8
100
AcDbEntity
  8
0
100
AcDbBlockEnd
  0
BLOCK
  5
ACE
330
AC4
100
AcDbEntity
  8
0
100
AcDbBlockBegin
  2
*D4
 70
     1
 10
0.0
 20
0.0
 30
0.0
  3
*D4
  1

  0
LINE
  5
1078
330
AC4
100
AcDbEntity
  8
SUNPOU
100
AcDbLine
 10
162.5404202705951
 20
114.7923502090748
 30
0.0
 11
171.2694944112347
 21
114.7923502090748
 31
0.0
  0
LINE
  5
1079
330
AC4
100
AcDbEntity
  8
SUNPOU
100
AcDbLine
 10
149.6747165582189
 20
76.39235020901873
 30
0.0
 11
171.2694944112347
 21
76.3923502090187
 31
0.0
  0
LINE
  5
107A
330
AC4
100
AcDbEntity
  8
SUNPOU
100
AcDbLine
 10
169.7694944112347
 20
111.7923502090748
 30
0.0
 11
169.7694944112347
 21
79.39235020901872
 31
0.0
  0
INSERT
  5
107B
330
AC4
100
AcDbEntity
  8
SUNPOU
100
AcDbBlockReference
  2
_OPEN
 10
169.7694944112347
 20
114.7923502090748
 30
0.0
 41
3.0
 42
3.0
 43
3.0
 50
90.0
  0
INSERT
  5
107C
330
AC4
100
AcDbEntity
  8
SUNPOU
100
AcDbBlockReference
  2
_OPEN
 10
169.7694944112347
 20
76.3923502090187
 30
0.0
 41
3.0
 42
3.0
 43
3.0
 50
270.0
  0
MTEXT
  5
107D
330
AC4
100
AcDbEntity
  8
SUNPOU
100
AcDbMText
 10
167.2694944112347
 20
95.59235020904685
 30
0.0
 40
3.0
 41
0.0
 71
     5
 72
     5
  1
\A1;38
 11
0.0000000000000001
 21
1.0
 31
0.0
 73
     1
 44
1.0
1001
ACAD
1000
MTEXTBEGIN
1070
    73
1070
     1
1070
    44
1040
1.0
1070
    74
1070
     0
1000
MTEXTEND
  0
POINT
  5
107E
330
AC4
100
AcDbEntity
  8
DEFPOINTS
 62
     0
100
AcDbPoint
 10
159.5404202705951
 20
114.7923502090749
 30
0.0
  0
POINT
  5
107F
330
AC4
100
AcDbEntity
  8
DEFPOINTS
 62
     0
100
AcDbPoint
 10
146.6747165582189
 20
76.39235020901873
 30
0.0
  0
POINT
  5
1080
330
AC4
100
AcDbEntity
  8
DEFPOINTS
 62
     0
100
AcDbPoint
 10
169.7694944112347
 20
76.3923502090187
 30
0.0
  0
ENDBLK
  5
ACF
330
AC4
100
AcDbEntity
  8
0
100
AcDbBlockEnd
  0
BLOCK
  5
ADC
330
AD0
100
AcDbEntity
  8
0
100
AcDbBlockBegin
  2
*D5
 70
     1
 10
0.0
 20
0.0
 30
0.0
  3
*D5
  1

  0
LINE
  5
106D
330
AD0
100
AcDbEntity
  8
SUNPOU
100
AcDbLine
 10
162.5404202705951
 20
114.7923502090748
 30
0.0
 11
171.2694944112347
 21
114.7923502090748
 31
0.0
  0
LINE
  5
106E
330
AD0
100
AcDbEntity
  8
SUNPOU
100
AcDbLine
 10
162.5404202705951
 20
117.7922502090748
 30
0.0
 11
171.2694944112347
 21
117.7922502090748
 31
0.0
  0
LINE
  5
106F
330
AD0
100
AcDbEntity
  8
SUNPOU
100
AcDbLine
 10
169.7694944112347
 20
111.7923502090748
 30
0.0
 11
169.7694944112347
 21
108.7923502090748
 31
0.0
  0
LINE
  5
1070
330
AD0
100
AcDbEntity
  8
SUNPOU
100
AcDbLine
 10
169.7694944112347
 20
120.7922502090748
 30
0.0
 11
169.7694944112347
 21
127.7922502090747
 31
0.0
  0
LINE
  5
1071
330
AD0
100
AcDbEntity
  8
SUNPOU
100
AcDbLine
 10
169.7694944112347
 20
114.7923502090748
 30
0.0
 11
169.7694944112347
 21
117.7922502090748
 31
0.0
  0
INSERT
  5
1072
330
AD0
100
AcDbEntity
  8
SUNPOU
100
AcDbBlockReference
  2
_OPEN
 10
169.7694944112347
 20
114.7923502090748
 30
0.0
 41
3.0
 42
3.0
 43
3.0
 50
90.0
  0
INSERT
  5
1073
330
AD0
100
AcDbEntity
  8
SUNPOU
100
AcDbBlockReference
  2
_OPEN
 10
169.7694944112347
 20
117.7922502090748
 30
0.0
 41
3.0
 42
3.0
 43
3.0
 50
270.0
  0
MTEXT
  5
1074
330
AD0
100
AcDbEntity
  8
SUNPOU
100
AcDbMText
 10
167.2694944112347
 20
125.7922502090748
 30
0.0
 40
3.0
 41
0.0
 71
     5
 72
     5
  1
\A1;3
 11
0.0000000000000001
 21
1.0
 31
0.0
 73
     1
 44
1.0
1001
ACAD
1000
MTEXTBEGIN
1070
    73
1070
     1
1070
    44
1040
1.0
1070
    74
1070
     0
1000
MTEXTEND
  0
POINT
  5
1075
330
AD0
100
AcDbEntity
  8
DEFPOINTS
 62
     0
100
AcDbPoint
 10
159.5404202705951
 20
114.7923502090749
 30
0.0
  0
POINT
  5
1076
330
AD0
100
AcDbEntity
  8
DEFPOINTS
 62
     0
100
AcDbPoint
 10
159.5404202705951
 20
117.7922502090748
 30
0.0
  0
POINT
  5
1077
330
AD0
100
AcDbEntity
  8
DEFPOINTS
 62
     0
100
AcDbPoint
 10
169.7694944112347
 20
117.7922502090748
 30
0.0
  0
ENDBLK
  5
ADD
330
AD0
100
AcDbEntity
  8
0
100
AcDbBlockEnd
  0
BLOCK
  5
AE5
330
ADE
100
AcDbEntity
  8
0
100
AcDbBlockBegin
  2
*D6
 70
     1
 10
0.0
 20
0.0
 30
0.0
  3
*D6
  1

  0
LINE
  5
1324
330
ADE
100
AcDbEntity
  8
SUNPOU
 62
     4
100
AcDbLine
 10
88.35704751369666
 20
186.2980394453639
 30
0.0
 11
130.7237929806537
 21
219.7802568690326
 31
0.0
  0
MTEXT
  5
1325
330
ADE
100
AcDbEntity
  8
SUNPOU
 62
     4
100
AcDbMText
 10
114.2480702542294
 20
210.4669560067054
 30
0.0
 40
3.0
 41
0.0
 71
     5
 72
     5
  1
\A1;\U+220560
 11
0.7845693598174486
 21
0.6200410628624841
 31
0.0
 73
     1
 44
1.0
1001
ACAD
1000
MTEXTBEGIN
1070
    73
1070
     1
1070
    44
1040
1.0
1070
    74
1070
     0
1000
MTEXTEND
  0
INSERT
  5
1326
330
ADE
100
AcDbEntity
  8
SUNPOU
 62
     4
100
AcDbBlockReference
  2
_OPEN
 10
86.00333943424432
 20
184.4379162567765
 30
0.0
 41
3.0
 42
3.0
 43
3.0
 50
218.319133163369
  0
INSERT
  5
1327
330
ADE
100
AcDbEntity
  8
SUNPOU
 62
     4
100
AcDbBlockReference
  2
_OPEN
 10
133.077501060106
 20
221.6403800576201
 30
0.0
 41
3.0
 42
3.0
 43
3.0
 50
38.31913316336898
  0
POINT
  5
1328
330
ADE
100
AcDbEntity
  8
DEFPOINTS
 62
     0
100
AcDbPoint
 10
133.077501060106
 20
221.6403800576201
 30
0.0
  0
POINT
  5
1329
330
ADE
100
AcDbEntity
  8
DEFPOINTS
 62
     0
100
AcDbPoint
 10
86.00333943424432
 20
184.4379162567765
 30
0.0
  0
ENDBLK
  5
AE6
330
ADE
100
AcDbEntity
  8
0
100
AcDbBlockEnd
  0
BLOCK
  5
AF2
330
AE7
100
AcDbEntity
  8
0
100
AcDbBlockBegin
  2
*D7
 70
     1
 10
0.0
 20
0.0
 30
0.0
  3
*D7
  1

  0
LINE
  5
10B0
330
AE7
100
AcDbEntity
  8
SUNPOU
 62
     4
100
AcDbLine
 10
327.8634231819141
 20
85.39235020919919
 30
0.0
 11
360.697968122807
 21
85.39235020919919
 31
0.0
  0
LINE
  5
10B1
330
AE7
100
AcDbEntity
  8
SUNPOU
 62
     4
100
AcDbLine
 10
328.6613085208351
 20
75.39235020919919
 30
0.0
 11
360.697968122807
 21
75.39235020919919
 31
0.0
  0
LINE
  5
10B2
330
AE7
100
AcDbEntity
  8
SUNPOU
 62
     4
100
AcDbLine
 10
359.1979681228071
 20
82.39235020919918
 30
0.0
 11
359.1979681228071
 21
78.39235020919919
 31
0.0
  0
LINE
  5
10B3
330
AE7
100
AcDbEntity
  8
SUNPOU
 62
     4
100
AcDbLine
 10
359.1979681228071
 20
75.39235020919919
 30
0.0
 11
359.1979681228071
 21
60.29235020919919
 31
0.0
  0
INSERT
  5
10B4
330
AE7
100
AcDbEntity
  8
SUNPOU
 62
     4
100
AcDbBlockReference
  2
_OPEN
 10
359.1979681228071
 20
85.39235020919919
 30
0.0
 41
3.0
 42
3.0
 43
3.0
 50
90.0
  0
INSERT
  5
10B5
330
AE7
100
AcDbEntity
  8
SUNPOU
 62
     4
100
AcDbBlockReference
  2
_OPEN
 10
359.1979681228071
 20
75.39235020919919
 30
0.0
 41
3.0
 42
3.0
 43
3.0
 50
270.0
  0
MTEXT
  5
10B6
330
AE7
100
AcDbEntity
  8
SUNPOU
 62
     4
100
AcDbMText
 10
356.697968122807
 20
66.34235020919925
 30
0.0
 40
3.0
 41
0.0
 71
     5
 72
     5
  1
\A1;\U+203bb10
 11
0.0000000000000001
 21
1.0
 31
0.0
 73
     1
 44
1.0
1001
ACAD
1000
MTEXTBEGIN
1070
    73
1070
     1
1070
    44
1040
1.0
1070
    74
1070
     0
1000
MTEXTEND
  0
POINT
  5
10B7
330
AE7
100
AcDbEntity
  8
DEFPOINTS
 62
     0
100
AcDbPoint
 10
324.8634231819142
 20
85.39235020919919
 30
0.0
  0
POINT
  5
10B8
330
AE7
100
AcDbEntity
  8
DEFPOINTS
 62
     0
100
AcDbPoint
 10
325.6613085208351
 20
75.39235020919919
 30
0.0
  0
POINT
  5
10B9
330
AE7
100
AcDbEntity
  8
DEFPOINTS
 62
     0
100
AcDbPoint
 10
359.1979681228071
 20
75.39235020919919
 30
0.0
  0
ENDBLK
  5
AF3
330
AE7
100
AcDbEntity
  8
0
100
AcDbBlockEnd
  0
BLOCK
  5
AFE
330
AF4
100
AcDbEntity
  8
0
100
AcDbBlockBegin
  2
*D8
 70
     1
 10
0.0
 20
0.0
 30
0.0
  3
*D8
  1

  0
LINE
  5
129C
330
AF4
100
AcDbEntity
  8
SUNPOU
 62
     4
100
AcDbLine
 10
343.8677103739231
 20
117.7923502090748
 30
0.0
 11
364.0303616444871
 21
117.7923502090748
 31
0.0
  0
LINE
  5
129D
330
AF4
100
AcDbEntity
  8
SUNPOU
 62
     4
100
AcDbLine
 10
322.8676103739231
 20
93.7923502090749
 30
0.0
 11
364.0303616444871
 21
93.79235020907488
 31
0.0
  0
LINE
  5
129E
330
AF4
100
AcDbEntity
  8
SUNPOU
 62
     4
100
AcDbLine
 10
362.5303616444871
 20
114.7923502090748
 30
0.0
 11
362.5303616444871
 21
96.79235020907489
 31
0.0
  0
INSERT
  5
129F
330
AF4
100
AcDbEntity
  8
SUNPOU
 62
     4
100
AcDbBlockReference
  2
_OPEN
 10
362.5303616444871
 20
117.7923502090748
 30
0.0
 41
3.0
 42
3.0
 43
3.0
 50
90.0
  0
INSERT
  5
12A0
330
AF4
100
AcDbEntity
  8
SUNPOU
 62
     4
100
AcDbBlockReference
  2
_OPEN
 10
362.5303616444871
 20
93.79235020907488
 30
0.0
 41
3.0
 42
3.0
 43
3.0
 50
270.0
  0
MTEXT
  5
12A1
330
AF4
100
AcDbEntity
  8
SUNPOU
 62
     4
100
AcDbMText
 10
360.0303616444871
 20
105.7923502090749
 30
0.0
 40
3.0
 41
0.0
 71
     5
 72
     5
  1
\A1;\U+203ba24
 11
0.0000000000000001
 21
1.0
 31
0.0
 73
     1
 44
1.0
1001
ACAD
1000
MTEXTBEGIN
1070
    73
1070
     1
1070
    44
1040
1.0
1070
    74
1070
     0
1000
MTEXTEND
  0
POINT
  5
12A2
330
AF4
100
AcDbEntity
  8
DEFPOINTS
 62
     0
100
AcDbPoint
 10
340.8677103739231
 20
117.7923502090748
 30
0.0
  0
POINT
  5
12A3
330
AF4
100
AcDbEntity
  8
DEFPOINTS
 62
     0
100
AcDbPoint
 10
319.8676103739231
 20
93.7923502090749
 30
0.0
  0
POINT
  5
12A4
330
AF4
100
AcDbEntity
  8
DEFPOINTS
 62
     0
100
AcDbPoint
 10
362.5303616444871
 20
93.79235020907488
 30
0.0
  0
ENDBLK
  5
AFF
330
AF4
100
AcDbEntity
  8
0
100
AcDbBlockEnd
  0
BLOCK
  5
B0A
330
B00
100
AcDbEntity
  8
0
100
AcDbBlockBegin
  2
*D9
 70
     1
 10
0.0
 20
0.0
 30
0.0
  3
*D9
  1

  0
LINE
  5
109A
330
B00
100
AcDbEntity
  8
SUNPOU
100
AcDbLine
 10
238.8677103739231
 20
114.7925502090748
 30
0.0
 11
226.3724531533036
 21
114.7925502090748
 31
0.0
  0
LINE
  5
109B
330
B00
100
AcDbEntity
  8
SUNPOU
100
AcDbLine
 10
250.7333969774967
 20
76.39235020910884
 30
0.0
 11
226.3724531533036
 21
76.39235020910884
 31
0.0
  0
LINE
  5
109C
330
B00
100
AcDbEntity
  8
SUNPOU
100
AcDbLine
 10
227.8724531533037
 20
111.7925502090748
 30
0.0
 11
227.8724531533037
 21
79.39235020910884
 31
0.0
  0
INSERT
  5
109D
330
B00
100
AcDbEntity
  8
SUNPOU
100
AcDbBlockReference
  2
_OPEN
 10
227.8724531533037
 20
114.7925502090748
 30
0.0
 41
3.0
 42
3.0
 43
3.0
 50
90.0
  0
INSERT
  5
109E
330
B00
100
AcDbEntity
  8
SUNPOU
100
AcDbBlockReference
  2
_OPEN
 10
227.8724531533037
 20
76.39235020910884
 30
0.0
 41
3.0
 42
3.0
 43
3.0
 50
270.0
  0
MTEXT
  5
109F
330
B00
100
AcDbEntity
  8
SUNPOU
100
AcDbMText
 10
225.3724531533036
 20
95.59245020909193
 30
0.0
 40
3.0
 41
0.0
 71
     5
 72
     5
  1
\A1;38
 11
0.0000000000000001
 21
1.0
 31
0.0
 73
     1
 44
1.0
1001
ACAD
1000
MTEXTBEGIN
1070
    73
1070
     1
1070
    44
1040
1.0
1070
    74
1070
     0
1000
MTEXTEND
  0
POINT
  5
10A0
330
B00
100
AcDbEntity
  8
DEFPOINTS
 62
     0
100
AcDbPoint
 10
241.8677103739231
 20
114.7925502090748
 30
0.0
  0
POINT
  5
10A1
330
B00
100
AcDbEntity
  8
DEFPOINTS
 62
     0
100
AcDbPoint
 10
253.7333969774966
 20
76.39235020910884
 30
0.0
  0
POINT
  5
10A2
330
B00
100
AcDbEntity
  8
DEFPOINTS
 62
     0
100
AcDbPoint
 10
227.8724531533037
 20
76.39235020910884
 30
0.0
  0
ENDBLK
  5
B0B
330
B00
100
AcDbEntity
  8
0
100
AcDbBlockEnd
  0
BLOCK
  5
1002
330
E6E
100
AcDbEntity
  8
0
100
AcDbBlockBegin
  2
*X10
 70
     1
 10
0.0
 20
0.0
 30
0.0
  3
*X10
  1

  0
LINE
  5
E6F
330
E6E
100
AcDbEntity
  8
0
 62
     0
100
AcDbLine
 10
34.52110634279887
 20
11.30208408269516
 30
0.0
 11
34.19819087794135
 21
11.62499954755267
 31
0.0
  0
LINE
  5
E70
330
E6E
100
AcDbEntity
  8
0
 62
     0
100
AcDbLine
 10
34.52110634279884
 20
10.85307127664168
 30
0.0
 11
33.74917807188789
 21
11.62499954755267
 31
0.0
  0
LINE
  5
E71
330
E6E
100
AcDbEntity
  8
0
 62
     0
100
AcDbLine
 10
34.52110634279884
 20
10.40405847058823
 30
0.0
 11
33.3105393697914
 21
11.61462544359568
 31
0.0
  0
LINE
  5
E72
330
E6E
100
AcDbEntity
  8
0
 62
     0
100
AcDbLine
 10
34.52110634279884
 20
9.955045664534793
 30
0.0
 11
33.12110634279884
 21
11.35504566453482
 31
0.0
  0
LINE
  5
E73
330
E6E
100
AcDbEntity
  8
0
 62
     0
100
AcDbLine
 10
34.52110634279884
 20
9.506032858481347
 30
0.0
 11
33.12110634279881
 21
10.90603285848135
 31
0.0
  0
LINE
  5
E74
330
E6E
100
AcDbEntity
  8
0
 62
     0
100
AcDbLine
 10
34.52110634279884
 20
9.057020052427873
 30
0.0
 11
33.12110634279881
 21
10.4570200524279
 31
0.0
  0
LINE
  5
E75
330
E6E
100
AcDbEntity
  8
0
 62
     0
100
AcDbLine
 10
32.07110634279886
 20
11.05800724637441
 30
0.0
 11
31.50411404162062
 21
11.62499954755267
 31
0.0
  0
LINE
  5
E76
330
E6E
100
AcDbEntity
  8
0
 62
     0
100
AcDbLine
 10
34.52110634279884
 20
8.608007246374429
 30
0.0
 11
33.12110634279881
 21
10.00800724637446
 31
0.0
  0
LINE
  5
E77
330
E6E
100
AcDbEntity
  8
0
 62
     0
100
AcDbLine
 10
32.07110634279886
 20
10.60899444032097
 30
0.0
 11
31.05510123556721
 21
11.62499954755261
 31
0.0
  0
LINE
  5
E78
330
E6E
100
AcDbEntity
  8
0
 62
     0
100
AcDbLine
 10
34.52110634279884
 20
8.158994440320981
 30
0.0
 11
33.12110634279881
 21
9.558994440321015
 31
0.0
  0
LINE
  5
E79
330
E6E
100
AcDbEntity
  8
0
 62
     0
100
AcDbLine
 10
32.07110634279888
 20
10.15998163426746
 30
0.0
 11
30.71835086023028
 21
11.51273711683603
 31
0.0
  0
LINE
  5
E7A
330
E6E
100
AcDbEntity
  8
0
 62
     0
100
AcDbLine
 10
34.52110634279881
 20
7.709981634267505
 30
0.0
 11
33.12110634279881
 21
9.109981634267539
 31
0.0
  0
LINE
  5
E7B
330
E6E
100
AcDbEntity
  8
0
 62
     0
100
AcDbLine
 10
32.07110634279888
 20
9.710968828213992
 30
0.0
 11
30.67110634279888
 21
11.11096882821402
 31
0.0
  0
LINE
  5
E7C
330
E6E
100
AcDbEntity
  8
0
 62
     0
100
AcDbLine
 10
34.52110634279884
 20
7.26096882821406
 30
0.0
 11
33.12110634279881
 21
8.660968828214066
 31
0.0
  0
LINE
  5
E7D
330
E6E
100
AcDbEntity
  8
0
 62
     0
100
AcDbLine
 10
32.07110634279888
 20
9.261956022160577
 30
0.0
 11
30.67110634279885
 21
10.66195602216058
 31
0.0
  0
LINE
  5
E7E
330
E6E
100
AcDbEntity
  8
0
 62
     0
100
AcDbLine
 10
34.52110634279884
 20
6.811956022160615
 30
0.0
 11
33.12110634279881
 21
8.211956022160647
 31
0.0
  0
LINE
  5
E7F
330
E6E
100
AcDbEntity
  8
0
 62
     0
100
AcDbLine
 10
32.07110634279888
 20
8.812943216107099
 30
0.0
 11
30.67110634279885
 21
10.21294321610713
 31
0.0
  0
LINE
  5
E80
330
E6E
100
AcDbEntity
  8
0
 62
     0
100
AcDbLine
 10
34.52110634279881
 20
6.362943216107139
 30
0.0
 11
33.12110634279878
 21
7.762943216107173
 31
0.0
  0
LINE
  5
E81
330
E6E
100
AcDbEntity
  8
0
 62
     0
100
AcDbLine
 10
32.07110634279886
 20
8.363930410053626
 30
0.0
 11
30.67110634279882
 21
9.763930410053658
 31
0.0
  0
LINE
  5
E82
330
E6E
100
AcDbEntity
  8
0
 62
     0
100
AcDbLine
 10
34.52110634279884
 20
5.913930410053637
 30
0.0
 11
33.12110634279878
 21
7.313930410053727
 31
0.0
  0
LINE
  5
E83
330
E6E
100
AcDbEntity
  8
0
 62
     0
100
AcDbLine
 10
32.07110634279888
 20
7.914917604000207
 30
0.0
 11
30.67110634279885
 21
9.314917604000244
 31
0.0
  0
LINE
  5
E84
330
E6E
100
AcDbEntity
  8
0
 62
     0
100
AcDbLine
 10
28.92110634279887
 20
11.06491760400021
 30
0.0
 11
28.36102439924639
 21
11.62499954755267
 31
0.0
  0
LINE
  5
E85
330
E6E
100
AcDbEntity
  8
0
 62
     0
100
AcDbLine
 10
34.52110634279887
 20
5.46491760400022
 30
0.0
 11
33.12110634279881
 21
6.864917604000281
 31
0.0
  0
LINE
  5
E86
330
E6E
100
AcDbEntity
  8
0
 62
     0
100
AcDbLine
 10
32.07110634279886
 20
7.465904797946733
 30
0.0
 11
30.67110634279885
 21
8.865904797946768
 31
0.0
  0
LINE
  5
E87
330
E6E
100
AcDbEntity
  8
0
 62
     0
100
AcDbLine
 10
28.92110634279887
 20
10.61590479794674
 30
0.0
 11
27.91201159319294
 21
11.62499954755267
 31
0.0
  0
LINE
  5
E88
330
E6E
100
AcDbEntity
  8
0
 62
     0
100
AcDbLine
 10
34.52110634279884
 20
5.015904797946745
 30
0.0
 11
33.12110634279884
 21
6.41590479794678
 31
0.0
  0
LINE
  5
E89
330
E6E
100
AcDbEntity
  8
0
 62
     0
100
AcDbLine
 10
32.07110634279886
 20
7.016891991893286
 30
0.0
 11
30.67110634279882
 21
8.416891991893294
 31
0.0
  0
LINE
  5
E8A
330
E6E
100
AcDbEntity
  8
0
 62
     0
100
AcDbLine
 10
28.92110634279886
 20
10.16689199189329
 30
0.0
 11
27.57122498113676
 21
11.51677335355538
 31
0.0
  0
LINE
  5
E8B
330
E6E
100
AcDbEntity
  8
0
 62
     0
100
AcDbLine
 10
34.52110634279884
 20
4.566891991893298
 30
0.0
 11
33.12110634279881
 21
5.966891991893304
 31
0.0
  0
LINE
  5
E8C
330
E6E
100
AcDbEntity
  8
0
 62
     0
100
AcDbLine
 10
32.07110634279888
 20
6.567879185839814
 30
0.0
 11
30.67110634279885
 21
7.967879185839847
 31
0.0
  0
LINE
  5
E8D
330
E6E
100
AcDbEntity
  8
0
 62
     0
100
AcDbLine
 10
28.92110634279887
 20
9.717879185839819
 30
0.0
 11
27.52110634279887
 21
11.11787918583979
 31
0.0
  0
LINE
  5
E8E
330
E6E
100
AcDbEntity
  8
0
 62
     0
100
AcDbLine
 10
34.52110634279887
 20
4.117879185839825
 30
0.0
 11
33.12110634279884
 21
5.517879185839857
 31
0.0
  0
LINE
  5
E8F
330
E6E
100
AcDbEntity
  8
0
 62
     0
100
AcDbLine
 10
32.07110634279886
 20
6.118866379786367
 30
0.0
 11
30.67110634279882
 21
7.518866379786402
 31
0.0
  0
LINE
  5
E90
330
E6E
100
AcDbEntity
  8
0
 62
     0
100
AcDbLine
 10
28.92110634279886
 20
9.268866379786373
 30
0.0
 11
27.52110634279887
 21
10.66886637978637
 31
0.0
  0
LINE
  5
E91
330
E6E
100
AcDbEntity
  8
0
 62
     0
100
AcDbLine
 10
34.48512366535388
 20
3.70484905723137
 30
0.0
 11
33.12110634279881
 21
5.068866379786413
 31
0.0
  0
LINE
  5
E92
330
E6E
100
AcDbEntity
  8
0
 62
     0
100
AcDbLine
 10
32.07110634279886
 20
5.669853573732923
 30
0.0
 11
30.67110634279882
 21
7.069853573732956
 31
0.0
  0
LINE
  5
E93
330
E6E
100
AcDbEntity
  8
0
 62
     0
100
AcDbLine
 10
28.92110634279886
 20
8.819853573732927
 30
0.0
 11
27.52110634279887
 21
10.2198535737329
 31
0.0
  0
LINE
  5
E94
330
E6E
100
AcDbEntity
  8
0
 62
     0
100
AcDbLine
 10
34.16596036897917
 20
3.574999547552606
 30
0.0
 11
33.12110634279881
 21
4.619853573732966
 31
0.0
  0
LINE
  5
E95
330
E6E
100
AcDbEntity
  8
0
 62
     0
100
AcDbLine
 10
28.92110634279886
 20
8.370840767679451
 30
0.0
 11
27.52110634279884
 21
9.770840767679461
 31
0.0
  0
LINE
  5
E96
330
E6E
100
AcDbEntity
  8
0
 62
     0
100
AcDbLine
 10
32.07110634279882
 20
5.220840767679447
 30
0.0
 11
30.67110634279882
 21
6.620840767679482
 31
0.0
  0
LINE
  5
E97
330
E6E
100
AcDbEntity
  8
0
 62
     0
100
AcDbLine
 10
26.20860634279881
 20
11.08334076767945
 30
0.0
 11
25.66694756292565
 21
11.62499954755264
 31
0.0
  0
LINE
  5
E98
330
E6E
100
AcDbEntity
  8
0
 62
     0
100
AcDbLine
 10
33.71694756292569
 20
3.574999547552578
 30
0.0
 11
33.12110634279881
 21
4.170840767679493
 31
0.0
  0
LINE
  5
E99
330
E6E
100
AcDbEntity
  8
0
 62
     0
100
AcDbLine
 10
28.92110634279886
 20
7.921827961626036
 30
0.0
 11
27.52110634279887
 21
9.321827961626011
 31
0.0
  0
LINE
  5
E9A
330
E6E
100
AcDbEntity
  8
0
 62
     0
100
AcDbLine
 10
26.20860634279884
 20
10.63432796162603
 30
0.0
 11
25.21793475687221
 21
11.62499954755264
 31
0.0
  0
LINE
  5
E9B
330
E6E
100
AcDbEntity
  8
0
 62
     0
100
AcDbLine
 10
32.05812719247609
 20
4.784807111948794
 30
0.0
 11
30.67110634279882
 21
6.171827961626036
 31
0.0
  0
LINE
  5
E9C
330
E6E
100
AcDbEntity
  8
0
 62
     0
100
AcDbLine
 10
28.92110634279886
 20
7.47281515557256
 30
0.0
 11
27.52110634279884
 21
8.872815155572537
 31
0.0
  0
LINE
  5
E9D
330
E6E
100
AcDbEntity
  8
0
 62
     0
100
AcDbLine
 10
26.1108160697419
 20
10.28310542862951
 30
0.0
 11
24.76892195081876
 21
11.62499954755264
 31
0.0
  0
LINE
  5
E9E
330
E6E
100
AcDbEntity
  8
0
 62
     0
100
AcDbLine
 10
31.96163454484747
 20
4.432286953523912
 30
0.0
 11
30.67110634279882
 21
5.722815155572589
 31
0.0
  0
LINE
  5
E9F
330
E6E
100
AcDbEntity
  8
0
 62
     0
100
AcDbLine
 10
28.92110634279882
 20
7.023802349519088
 30
0.0
 11
27.52110634279884
 21
8.423802349519093
 31
0.0
  0
LINE
  5
EA0
330
E6E
100
AcDbEntity
  8
0
 62
     0
100
AcDbLine
 10
25.71990914476526
 20
10.22499954755264
 30
0.0
 11
24.31990914476529
 21
11.62499954755264
 31
0.0
  0
LINE
  5
EA1
330
E6E
100
AcDbEntity
  8
0
 62
     0
100
AcDbLine
 10
31.79911860688565
 20
4.145790085432281
 30
0.0
 11
30.63534847321907
 21
5.309560219098869
 31
0.0
  0
LINE
  5
EA2
330
E6E
100
AcDbEntity
  8
0
 62
     0
100
AcDbLine
 10
28.92110634279886
 20
6.574789543465668
 30
0.0
 11
27.52110634279887
 21
7.974789543465647
 31
0.0
  0
LINE
  5
EA3
330
E6E
100
AcDbEntity
  8
0
 62
     0
100
AcDbLine
 10
25.27089633871185
 20
10.22499954755267
 30
0.0
 11
23.90211297412315
 21
11.59378291214136
 31
0.0
  0
LINE
  5
EA4
330
E6E
100
AcDbEntity
  8
0
 62
     0
100
AcDbLine
 10
31.58309770822313
 20
3.912798178041383
 30
0.0
 11
30.43455565398522
 21
5.061340232279262
 31
0.0
  0
LINE
  5
EA5
330
E6E
100
AcDbEntity
  8
0
 62
     0
100
AcDbLine
 10
28.92110634279886
 20
6.125776737412195
 30
0.0
 11
27.52110634279884
 21
7.525776737412201
 31
0.0
  0
LINE
  5
EA6
330
E6E
100
AcDbEntity
  8
0
 62
     0
100
AcDbLine
 10
24.82188353265843
 20
10.22499954755261
 30
0.0
 11
23.56979276185652
 21
11.47709031835452
 31
0.0
  0
LINE
  5
EA7
330
E6E
100
AcDbEntity
  8
0
 62
     0
100
AcDbLine
 10
31.31501653576012
 20
3.731866544450923
 30
0.0
 11
30.07188353265843
 21
4.974999547552613
 31
0.0
  0
LINE
  5
EA8
330
E6E
100
AcDbEntity
  8
0
 62
     0
100
AcDbLine
 10
28.92110634279882
 20
5.676763931358748
 30
0.0
 11
27.52110634279884
 21
7.076763931358725
 31
0.0
  0
LINE
  5
EA9
330
E6E
100
AcDbEntity
  8
0
 62
     0
100
AcDbLine
 10
24.38376564061404
 20
10.21410463354354
 30
0.0
 11
23.29849229325143
 21
11.29937798090614
 31
0.0
  0
LINE
  5
EAA
330
E6E
100
AcDbEntity
  8
0
 62
     0
100
AcDbLine
 10
30.98681025580441
 20
3.611060018353156
 30
0.0
 11
29.62287072660492
 21
4.974999547552641
 31
0.0
  0
LINE
  5
EAB
330
E6E
100
AcDbEntity
  8
0
 62
     0
100
AcDbLine
 10
24.19610634279885
 20
9.95275112530524
 30
0.0
 11
23.07943626372915
 21
11.06942120437494
 31
0.0
  0
LINE
  5
EAC
330
E6E
100
AcDbEntity
  8
0
 62
     0
100
AcDbLine
 10
30.57385792055149
 20
3.574999547552606
 30
0.0
 11
27.52110634279882
 21
6.627751125305253
 31
0.0
  0
LINE
  5
EAD
330
E6E
100
AcDbEntity
  8
0
 62
     0
100
AcDbLine
 10
24.19610634279885
 20
9.503738319251796
 30
0.0
 11
22.91355080755266
 21
10.78629385449801
 31
0.0
  0
LINE
  5
EAE
330
E6E
100
AcDbEntity
  8
0
 62
     0
100
AcDbLine
 10
30.12484511449804
 20
3.574999547552606
 30
0.0
 11
27.52110634279884
 21
6.178738319251833
 31
0.0
  0
LINE
  5
EAF
330
E6E
100
AcDbEntity
  8
0
 62
     0
100
AcDbLine
 10
24.29937848335072
 20
8.951453372646481
 30
0.0
 11
22.81246154787061
 21
10.43837030812659
 31
0.0
  0
LINE
  5
EB0
330
E6E
100
AcDbEntity
  8
0
 62
     0
100
AcDbLine
 10
29.67583230844454
 20
3.574999547552636
 30
0.0
 11
27.52110634279884
 21
5.72972551319836
 31
0.0
  0
LINE
  5
EB1
330
E6E
100
AcDbEntity
  8
0
 62
     0
100
AcDbLine
 10
26.40790819414448
 20
6.393910855799247
 30
0.0
 11
22.79610634279882
 21
10.0057127071449
 31
0.0
  0
LINE
  5
EB2
330
E6E
100
AcDbEntity
  8
0
 62
     0
100
AcDbLine
 10
21.7461063427988
 20
11.05571270714489
 30
0.0
 11
21.17681950239108
 21
11.62499954755264
 31
0.0
  0
LINE
  5
EB3
330
E6E
100
AcDbEntity
  8
0
 62
     0
100
AcDbLine
 10
29.22681950239112
 20
3.574999547552606
 30
0.0
 11
27.52110634279882
 21
5.280712707144914
 31
0.0
  0
LINE
  5
EB4
330
E6E
100
AcDbEntity
  8
0
 62
     0
100
AcDbLine
 10
26.47110634279883
 20
5.881699901091478
 30
0.0
 11
22.79610634279882
 21
9.556699901091462
 31
0.0
  0
LINE
  5
EB5
330
E6E
100
AcDbEntity
  8
0
 62
     0
100
AcDbLine
 10
21.74610634279884
 20
10.60669990109147
 30
0.0
 11
20.72780669633766
 21
11.62499954755261
 31
0.0
  0
LINE
  5
EB6
330
E6E
100
AcDbEntity
  8
0
 62
     0
100
AcDbLine
 10
28.76958275696526
 20
3.583223486925048
 30
0.0
 11
27.52933028217126
 21
4.823475961719026
 31
0.0
  0
LINE
  5
EB7
330
E6E
100
AcDbEntity
  8
0
 62
     0
100
AcDbLine
 10
21.7461063427988
 20
10.15768709503799
 30
0.0
 11
20.3924113989112
 21
11.51138203892563
 31
0.0
  0
LINE
  5
EB8
330
E6E
100
AcDbEntity
  8
0
 62
     0
100
AcDbLine
 10
26.47110634279883
 20
5.432687095038005
 30
0.0
 11
22.80781167674007
 21
9.095981761096735
 31
0.0
  0
LINE
  5
EB9
330
E6E
100
AcDbEntity
  8
0
 62
     0
100
AcDbLine
 10
21.7461063427988
 20
9.708674288984552
 30
0.0
 11
20.34610634279883
 21
11.10867428898453
 31
0.0
  0
LINE
  5
EBA
330
E6E
100
AcDbEntity
  8
0
 62
     0
100
AcDbLine
 10
26.47110634279886
 20
4.983674288984501
 30
0.0
 11
22.96687138566017
 21
8.487909246123193
 31
0.0
  0
LINE
  5
EBB
330
E6E
100
AcDbEntity
  8
0
 62
     0
100
AcDbLine
 10
21.74610634279884
 20
9.259661482931079
 30
0.0
 11
20.34610634279883
 21
10.65966148293105
 31
0.0
  0
LINE
  5
EBC
330
E6E
100
AcDbEntity
  8
0
 62
     0
100
AcDbLine
 10
26.41682543400432
 20
4.588942391725595
 30
0.0
 11
25.06900803948511
 21
5.936759786244806
 31
0.0
  0
LINE
  5
EBD
330
E6E
100
AcDbEntity
  8
0
 62
     0
100
AcDbLine
 10
21.7461063427988
 20
8.810648676877661
 30
0.0
 11
20.34610634279883
 21
10.21064867687764
 31
0.0
  0
LINE
  5
EBE
330
E6E
100
AcDbEntity
  8
0
 62
     0
100
AcDbLine
 10
19.20036289251032
 20
11.35639212716614
 30
0.0
 11
18.93175547212382
 21
11.62499954755264
 31
0.0
  0
LINE
  5
EBF
330
E6E
100
AcDbEntity
  8
0
 62
     0
100
AcDbLine
 10
26.28288758012348
 20
4.273867439552986
 30
0.0
 11
25.07110634279888
 21
5.485648676877588
 31
0.0
  0
LINE
  5
EC0
330
E6E
100
AcDbEntity
  8
0
 62
     0
100
AcDbLine
 10
21.7461063427988
 20
8.361635870824187
 30
0.0
 11
20.3461063427988
 21
9.761635870824164
 31
0.0
  0
LINE
  5
EC1
330
E6E
100
AcDbEntity
  8
0
 62
     0
100
AcDbLine
 10
19.10089906038402
 20
11.00684315323897
 30
0.0
 11
18.48274266607032
 21
11.62499954755267
 31
0.0
  0
LINE
  5
EC2
330
E6E
100
AcDbEntity
  8
0
 62
     0
100
AcDbLine
 10
26.09139418103584
 20
4.016348032587131
 30
0.0
 11
25.02246375135559
 21
5.085278462267381
 31
0.0
  0
LINE
  5
EC3
330
E6E
100
AcDbEntity
  8
0
 62
     0
100
AcDbLine
 10
21.74610634279878
 20
7.912623064770713
 30
0.0
 11
20.3461063427988
 21
9.312623064770717
 31
0.0
  0
LINE
  5
EC4
330
E6E
100
AcDbEntity
  8
0
 62
     0
100
AcDbLine
 10
18.9931359869312
 20
10.66559342063831
 30
0.0
 11
18.03852820519585
 21
11.62020120237363
 31
0.0
  0
LINE
  5
EC5
330
E6E
100
AcDbEntity
  8
0
 62
     0
100
AcDbLine
 10
25.84823469847799
 20
3.8104947090915
 30
0.0
 11
24.68372986001691
 21
4.974999547552613
 31
0.0
  0
LINE
  5
EC6
330
E6E
100
AcDbEntity
  8
0
 62
     0
100
AcDbLine
 10
21.7461063427988
 20
7.463610258717294
 30
0.0
 11
20.34610634279886
 21
8.863610258717244
 31
0.0
  0
LINE
  5
EC7
330
E6E
100
AcDbEntity
  8
0
 62
     0
100
AcDbLine
 10
18.88537291347839
 20
10.32434368803768
 30
0.0
 11
17.82137291347837
 21
11.38834368803773
 31
0.0
  0
LINE
  5
EC8
330
E6E
100
AcDbEntity
  8
0
 62
     0
100
AcDbLine
 10
25.55019272424781
 20
3.65952387726827
 30
0.0
 11
24.23471705396349
 21
4.974999547552613
 31
0.0
  0
LINE
  5
EC9
330
E6E
100
AcDbEntity
  8
0
 62
     0
100
AcDbLine
 10
21.7461063427988
 20
7.014597452663821
 30
0.0
 11
20.34610634279886
 21
8.41459745266377
 31
0.0
  0
LINE
  5
ECA
330
E6E
100
AcDbEntity
  8
0
 62
     0
100
AcDbLine
 10
18.77760984002551
 20
9.983093955437112
 30
0.0
 11
17.71360984002549
 21
11.04709395543713
 31
0.0
  0
LINE
  5
ECB
330
E6E
100
AcDbEntity
  8
0
 62
     0
100
AcDbLine
 10
25.18135639842407
 20
3.57934739703856
 30
0.0
 11
23.78570424790999
 21
4.974999547552641
 31
0.0
  0
LINE
  5
ECC
330
E6E
100
AcDbEntity
  8
0
 62
     0
100
AcDbLine
 10
21.74610634279878
 20
6.565584646610374
 30
0.0
 11
20.34610634279883
 21
7.965584646610294
 31
0.0
  0
LINE
  5
ECD
330
E6E
100
AcDbEntity
  8
0
 62
     0
100
AcDbLine
 10
18.6698467665727
 20
9.641844222836423
 30
0.0
 11
17.60584676657268
 21
10.70584422283647
 31
0.0
  0
LINE
  5
ECE
330
E6E
100
AcDbEntity
  8
0
 62
     0
100
AcDbLine
 10
24.73669144185655
 20
3.574999547552606
 30
0.0
 11
23.33669144185648
 21
4.974999547552669
 31
0.0
  0
LINE
  5
ECF
330
E6E
100
AcDbEntity
  8
0
 62
     0
100
AcDbLine
 10
21.7461063427988
 20
6.116571840556929
 30
0.0
 11
20.34610634279886
 21
7.516571840556878
 31
0.0
  0
LINE
  5
ED0
330
E6E
100
AcDbEntity
  8
0
 62
     0
100
AcDbLine
 10
18.56208369311985
 20
9.30059449023588
 30
0.0
 11
17.49808369311983
 21
10.3645944902359
 31
0.0
  0
LINE
  5
ED1
330
E6E
100
AcDbEntity
  8
0
 62
     0
100
AcDbLine
 10
24.2876786358031
 20
3.574999547552636
 30
0.0
 11
23.07087278715493
 21
4.7918053962008
 31
0.0
  0
LINE
  5
ED2
330
E6E
100
AcDbEntity
  8
0
 62
     0
100
AcDbLine
 10
18.45432061966707
 20
8.959344757635193
 30
0.0
 11
17.39032061966702
 21
10.02334475763521
 31
0.0
  0
LINE
  5
ED3
330
E6E
100
AcDbEntity
  8
0
 62
     0
100
AcDbLine
 10
21.74610634279878
 20
5.667559034503454
 30
0.0
 11
20.34610634279883
 21
7.067559034503402
 31
0.0
  0
LINE
  5
ED4
330
E6E
100
AcDbEntity
  8
0
 62
     0
100
AcDbLine
 10
16.32110634279885
 20
11.09255903450341
 30
0.0
 11
15.78866582974959
 21
11.62499954755267
 31
0.0
  0
LINE
  5
ED5
330
E6E
100
AcDbEntity
  8
0
 62
     0
100
AcDbLine
 10
23.83866582974965
 20
3.574999547552606
 30
0.0
 11
23.05860634279886
 21
4.355059034503398
 31
0.0
  0
LINE
  5
ED6
330
E6E
100
AcDbEntity
  8
0
 62
     0
100
AcDbLine
 10
18.34655754621417
 20
8.618095025034591
 30
0.0
 11
17.28255754621415
 21
9.682095025034641
 31
0.0
  0
LINE
  5
ED7
330
E6E
100
AcDbEntity
  8
0
 62
     0
100
AcDbLine
 10
21.7461063427988
 20
5.218546228449952
 30
0.0
 11
20.34610634279883
 21
6.618546228449956
 31
0.0
  0
LINE
  5
ED8
330
E6E
100
AcDbEntity
  8
0
 62
     0
100
AcDbLine
 10
16.32110634279885
 20
10.64354622844993
 30
0.0
 11
15.33965302369617
 21
11.62499954755261
 31
0.0
  0
LINE
  5
ED9
330
E6E
100
AcDbEntity
  8
0
 62
     0
100
AcDbLine
 10
23.38965302369618
 20
3.574999547552606
 30
0.0
 11
23.05860634279884
 21
3.906046228449951
 31
0.0
  0
LINE
  5
EDA
330
E6E
100
AcDbEntity
  8
0
 62
     0
100
AcDbLine
 10
18.23879447276137
 20
8.276845292433932
 30
0.0
 11
17.17479447276136
 21
9.340845292433952
 31
0.0
  0
LINE
  5
EDB
330
E6E
100
AcDbEntity
  8
0
 62
     0
100
AcDbLine
 10
16.32110634279888
 20
10.19453342239643
 30
0.0
 11
14.98338387834999
 21
11.53225588684531
 31
0.0
  0
LINE
  5
EDC
330
E6E
100
AcDbEntity
  8
0
 62
     0
100
AcDbLine
 10
21.7461063427988
 20
4.769533422396506
 30
0.0
 11
20.34610634279883
 21
6.169533422396482
 31
0.0
  0
LINE
  5
EDD
330
E6E
100
AcDbEntity
  8
0
 62
     0
100
AcDbLine
 10
18.13103139930854
 20
7.935595559833358
 30
0.0
 11
17.06703139930849
 21
8.999595559833409
 31
0.0
  0
LINE
  5
EDE
330
E6E
100
AcDbEntity
  8
0
 62
     0
100
AcDbLine
 10
16.32110634279888
 20
9.745520616342986
 30
0.0
 11
14.92110634279882
 21
11.14552061634307
 31
0.0
  0
LINE
  5
EDF
330
E6E
100
AcDbEntity
  8
0
 62
     0
100
AcDbLine
 10
21.74610634279884
 20
4.32052061634306
 30
0.0
 11
20.34610634279883
 21
5.720520616343065
 31
0.0
  0
LINE
  5
EE0
330
E6E
100
AcDbEntity
  8
0
 62
     0
100
AcDbLine
 10
18.02848714461257
 20
7.589127008475855
 30
0.0
 11
16.9592683258557
 21
8.658345827232723
 31
0.0
  0
LINE
  5
EE1
330
E6E
100
AcDbEntity
  8
0
 62
     0
100
AcDbLine
 10
16.32110634279888
 20
9.296507810289538
 30
0.0
 11
14.92110634279882
 21
10.6965078102896
 31
0.0
  0
LINE
  5
EE2
330
E6E
100
AcDbEntity
  8
0
 62
     0
100
AcDbLine
 10
21.7461063427988
 20
3.871507810289613
 30
0.0
 11
20.34610634279886
 21
5.271507810289534
 31
0.0
  0
LINE
  5
EE3
330
E6E
100
AcDbEntity
  8
0
 62
     0
100
AcDbLine
 10
18.23572382432962
 20
6.932877522705324
 30
0.0
 11
16.8139945780133
 21
8.354606769021641
 31
0.0
  0
LINE
  5
EE4
330
E6E
100
AcDbEntity
  8
0
 62
     0
100
AcDbLine
 10
16.32110634279885
 20
8.847495004236066
 30
0.0
 11
14.92110634279879
 21
10.24749500423612
 31
0.0
  0
LINE
  5
EE5
330
E6E
100
AcDbEntity
  8
0
 62
     0
100
AcDbLine
 10
21.57658384413261
 20
3.592017502902336
 30
0.0
 11
20.34610634279886
 21
4.822495004236087
 31
0.0
  0
LINE
  5
EE6
330
E6E
100
AcDbEntity
  8
0
 62
     0
100
AcDbLine
 10
18.44296050404659
 20
6.276628036934937
 30
0.0
 11
14.92110634279882
 21
9.798482198182712
 31
0.0
  0
LINE
  5
EE7
330
E6E
100
AcDbEntity
  8
0
 62
     0
100
AcDbLine
 10
13.69610634279888
 20
11.02348219818264
 30
0.0
 11
13.09458899342885
 21
11.62499954755264
 31
0.0
  0
LINE
  5
EE8
330
E6E
100
AcDbEntity
  8
0
 62
     0
100
AcDbLine
 10
21.14458899342889
 20
3.574999547552636
 30
0.0
 11
20.34610634279886
 21
4.373482198182641
 31
0.0
  0
LINE
  5
EE9
330
E6E
100
AcDbEntity
  8
0
 62
     0
100
AcDbLine
 10
18.65019718376359
 20
5.620378551164462
 30
0.0
 11
14.92110634279879
 21
9.349469392129236
 31
0.0
  0
LINE
  5
EEA
330
E6E
100
AcDbEntity
  8
0
 62
     0
100
AcDbLine
 10
13.69610634279888
 20
10.57446939212917
 30
0.0
 11
12.64557618737544
 21
11.62499954755261
 31
0.0
  0
LINE
  5
EEB
330
E6E
100
AcDbEntity
  8
0
 62
     0
100
AcDbLine
 10
20.69557618737542
 20
3.574999547552636
 30
0.0
 11
20.34610634279886
 21
3.924469392129196
 31
0.0
  0
LINE
  5
EEC
330
E6E
100
AcDbEntity
  8
0
 62
     0
100
AcDbLine
 10
13.56265299510374
 20
10.25890993377083
 30
0.0
 11
12.21254213599803
 21
11.60902079287652
 31
0.0
  0
LINE
  5
EED
330
E6E
100
AcDbEntity
  8
0
 62
     0
100
AcDbLine
 10
18.85743386348056
 20
4.964129065394017
 30
0.0
 11
14.92110634279879
 21
8.900456586075788
 31
0.0
  0
LINE
  5
EEE
330
E6E
100
AcDbEntity
  8
0
 62
     0
100
AcDbLine
 10
16.48986080396957
 20
6.882689318851561
 30
0.0
 11
14.92110634279885
 21
8.451443780022287
 31
0.0
  0
LINE
  5
EEF
330
E6E
100
AcDbEntity
  8
0
 62
     0
100
AcDbLine
 10
13.14755057526849
 20
10.22499954755264
 30
0.0
 11
11.8435206012044
 21
11.52902952161673
 31
0.0
  0
LINE
  5
EF0
330
E6E
100
AcDbEntity
  8
0
 62
     0
100
AcDbLine
 10
19.06467054319759
 20
4.307879579623544
 30
0.0
 11
17.01851669704359
 21
6.354033425777544
 31
0.0
  0
LINE
  5
EF1
330
E6E
100
AcDbEntity
  8
0
 62
     0
100
AcDbLine
 10
16.32110634279891
 20
6.602430973968778
 30
0.0
 11
14.92110634279885
 21
8.00243097396884
 31
0.0
  0
LINE
  5
EF2
330
E6E
100
AcDbEntity
  8
0
 62
     0
100
AcDbLine
 10
12.69853776921502
 20
10.22499954755264
 30
0.0
 11
11.52415989328903
 21
11.39937742347862
 31
0.0
  0
LINE
  5
EF3
330
E6E
100
AcDbEntity
  8
0
 62
     0
100
AcDbLine
 10
19.18218997205284
 20
3.741347344714853
 30
0.0
 11
17.22575337676056
 21
5.697783940007127
 31
0.0
  0
LINE
  5
EF4
330
E6E
100
AcDbEntity
  8
0
 62
     0
100
AcDbLine
 10
16.32110634279885
 20
6.153418167915361
 30
0.0
 11
14.92110634279882
 21
7.553418167915394
 31
0.0
  0
LINE
  5
EF5
330
E6E
100
AcDbEntity
  8
0
 62
     0
100
AcDbLine
 10
12.27698101794325
 20
10.19754349277096
 30
0.0
 11
11.24478540562176
 21
11.22973910509244
 31
0.0
  0
LINE
  5
EF6
330
E6E
100
AcDbEntity
  8
0
 62
     0
100
AcDbLine
 10
18.89952496316155
 20
3.574999547552663
 30
0.0
 11
17.43299005647756
 21
5.041534454236653
 31
0.0
  0
LINE
  5
EF7
330
E6E
100
AcDbEntity
  8
0
 62
     0
100
AcDbLine
 10
16.32110634279885
 20
5.704405361861888
 30
0.0
 11
14.92110634279882
 21
7.10440536186192
 31
0.0
  0
LINE
  5
EF8
330
E6E
100
AcDbEntity
  8
0
 62
     0
100
AcDbLine
 10
11.99105292152376
 20
10.03445878313698
 30
0.0
 11
11.00095780131587
 21
11.02455390334486
 31
0.0
  0
LINE
  5
EF9
330
E6E
100
AcDbEntity
  8
0
 62
     0
100
AcDbLine
 10
18.4505121571081
 20
3.574999547552636
 30
0.0
 11
17.6402267361945
 21
4.385284968466236
 31
0.0
  0
LINE
  5
EFA
330
E6E
100
AcDbEntity
  8
0
 62
     0
100
AcDbLine
 10
13.86382090919767
 20
7.712677989409655
 30
0.0
 11
13.10878478465579
 21
8.467714113951501
 31
0.0
  0
LINE
  5
EFB
330
E6E
100
AcDbEntity
  8
0
 62
     0
100
AcDbLine
 10
16.32110634279885
 20
5.255392555808468
 30
0.0
 11
14.92110634279882
 21
6.655392555808474
 31
0.0
  0
LINE
  5
EFC
330
E6E
100
AcDbEntity
  8
0
 62
     0
100
AcDbLine
 10
11.81299213645928
 20
9.763506762148038
 30
0.0
 11
10.79127478831026
 21
10.78522411029706
 31
0.0
  0
LINE
  5
EFD
330
E6E
100
AcDbEntity
  8
0
 62
     0
100
AcDbLine
 10
17.97633284895226
 20
3.600166049655058
 30
0.0
 11
17.85115576315692
 21
3.725343135450401
 31
0.0
  0
LINE
  5
EFE
330
E6E
100
AcDbEntity
  8
0
 62
     0
100
AcDbLine
 10
13.82056407912671
 20
7.306922013427139
 30
0.0
 11
12.70302880867328
 21
8.424457283880542
 31
0.0
  0
LINE
  5
EFF
330
E6E
100
AcDbEntity
  8
0
 62
     0
100
AcDbLine
 10
11.77110634279887
 20
9.356379749754976
 30
0.0
 11
10.61680527782942
 21
10.51068081472442
 31
0.0
  0
LINE
  5
F00
330
E6E
100
AcDbEntity
  8
0
 62
     0
100
AcDbLine
 10
16.32110634279885
 20
4.806379749754994
 30
0.0
 11
14.92110634279882
 21
6.206379749755028
 31
0.0
  0
LINE
  5
F01
330
E6E
100
AcDbEntity
  8
0
 62
     0
100
AcDbLine
 10
13.65463629947771
 20
7.023836987022662
 30
0.0
 11
12.41994378226883
 21
8.258529504231546
 31
0.0
  0
LINE
  5
F02
330
E6E
100
AcDbEntity
  8
0
 62
     0
100
AcDbLine
 10
11.77110634279884
 20
8.907366943701532
 30
0.0
 11
10.48151542422434
 21
10.19695786227603
 31
0.0
  0
LINE
  5
F03
330
E6E
100
AcDbEntity
  8
0
 62
     0
100
AcDbLine
 10
16.32110634279882
 20
4.357366943701522
 30
0.0
 11
14.92110634279882
 21
5.757366943701554
 31
0.0
  0
LINE
  5
F04
330
E6E
100
AcDbEntity
  8
0
 62
     0
100
AcDbLine
 10
11.77110634279887
 20
8.458354137648084
 30
0.0
 11
10.39415848776141
 21
9.835301992685543
 31
0.0
  0
LINE
  5
F05
330
E6E
100
AcDbEntity
  8
0
 62
     0
100
AcDbLine
 10
13.40371957840946
 20
6.825740902037495
 30
0.0
 11
12.22184769728366
 21
8.007612783163294
 31
0.0
  0
LINE
  5
F06
330
E6E
100
AcDbEntity
  8
0
 62
     0
100
AcDbLine
 10
9.05860634279881
 20
11.17085413764812
 30
0.0
 11
8.604460932894284
 21
11.62499954755267
 31
0.0
  0
LINE
  5
F07
330
E6E
100
AcDbEntity
  8
0
 62
     0
100
AcDbLine
 10
16.32110634279885
 20
3.908354137648103
 30
0.0
 11
14.92110634279882
 21
5.308354137648136
 31
0.0
  0
LINE
  5
F08
330
E6E
100
AcDbEntity
  8
0
 62
     0
100
AcDbLine
 10
11.77110634279884
 20
8.009341331594612
 30
0.0
 11
10.37110634279878
 21
9.409341331594703
 31
0.0
  0
LINE
  5
F09
330
E6E
100
AcDbEntity
  8
0
 62
     0
100
AcDbLine
 10
13.05355985719575
 20
6.726887817197733
 30
0.0
 11
12.12299461244387
 21
7.65745306194958
 31
0.0
  0
LINE
  5
F0A
330
E6E
100
AcDbEntity
  8
0
 62
     0
100
AcDbLine
 10
9.05860634279881
 20
10.72184133159467
 30
0.0
 11
8.155448126840807
 21
11.62499954755264
 31
0.0
  0
LINE
  5
F0B
330
E6E
100
AcDbEntity
  8
0
 62
     0
100
AcDbLine
 10
16.17715444216349
 20
3.603293232229986
 30
0.0
 11
14.92110634279882
 21
4.859341331594663
 31
0.0
  0
LINE
  5
F0C
330
E6E
100
AcDbEntity
  8
0
 62
     0
100
AcDbLine
 10
11.77110634279884
 20
7.560328525541166
 30
0.0
 11
10.37110634279878
 21
8.960328525541227
 31
0.0
  0
LINE
  5
F0D
330
E6E
100
AcDbEntity
  8
0
 62
     0
100
AcDbLine
 10
9.004089357663644
 20
10.32734551067636
 30
0.0
 11
7.706435320787361
 21
11.62499954755264
 31
0.0
  0
LINE
  5
F0E
330
E6E
100
AcDbEntity
  8
0
 62
     0
100
AcDbLine
 10
15.7564353207874
 20
3.574999547552578
 30
0.0
 11
14.92110634279879
 21
4.410328525541189
 31
0.0
  0
LINE
  5
F0F
330
E6E
100
AcDbEntity
  8
0
 62
     0
100
AcDbLine
 10
11.77110634279884
 20
7.111315719487691
 30
0.0
 11
10.37110634279875
 21
8.511315719487754
 31
0.0
  0
LINE
  5
F10
330
E6E
100
AcDbEntity
  8
0
 62
     0
100
AcDbLine
 10
8.657422514733895
 20
10.22499954755264
 30
0.0
 11
7.257422514733889
 21
11.62499954755261
 31
0.0
  0
LINE
  5
F11
330
E6E
100
AcDbEntity
  8
0
 62
     0
100
AcDbLine
 10
15.3074225147339
 20
3.574999547552606
 30
0.0
 11
14.92110634279879
 21
3.961315719487743
 31
0.0
  0
LINE
  5
F12
330
E6E
100
AcDbEntity
  8
0
 62
     0
100
AcDbLine
 10
11.77110634279884
 20
6.662302913434272
 30
0.0
 11
10.37110634279878
 21
8.062302913434336
 31
0.0
  0
LINE
  5
F13
330
E6E
100
AcDbEntity
  8
0
 62
     0
100
AcDbLine
 10
8.208409708680477
 20
10.22499954755261
 30
0.0
 11
6.825845072628054
 21
11.60756418360506
 31
0.0
  0
LINE
  5
F14
330
E6E
100
AcDbEntity
  8
0
 62
     0
100
AcDbLine
 10
13.69480511838031
 20
4.738604137852775
 30
0.0
 11
13.45971093309896
 21
4.973698323134158
 31
0.0
  0
LINE
  5
F15
330
E6E
100
AcDbEntity
  8
0
 62
     0
100
AcDbLine
 10
11.77110634279884
 20
6.2132901073808
 30
0.0
 11
10.37110634279881
 21
7.613290107380833
 31
0.0
  0
LINE
  5
F16
330
E6E
100
AcDbEntity
  8
0
 62
     0
100
AcDbLine
 10
7.759396902626973
 20
10.22499954755264
 30
0.0
 11
6.479277668388816
 21
11.50511878179082
 31
0.0
  0
LINE
  5
F17
330
E6E
100
AcDbEntity
  8
0
 62
     0
100
AcDbLine
 10
13.69610634279885
 20
4.288290107380759
 30
0.0
 11
13.009396902627
 21
4.974999547552641
 31
0.0
  0
LINE
  5
F18
330
E6E
100
AcDbEntity
  8
0
 62
     0
100
AcDbLine
 10
11.77110634279881
 20
5.764277301327324
 30
0.0
 11
10.37110634279881
 21
7.164277301327358
 31
0.0
  0
LINE
  5
F19
330
E6E
100
AcDbEntity
  8
0
 62
     0
100
AcDbLine
 10
7.310384096573526
 20
10.22499954755264
 30
0.0
 11
6.197154338465224
 21
11.33822930566094
 31
0.0
  0
LINE
  5
F1A
330
E6E
100
AcDbEntity
  8
0
 62
     0
100
AcDbLine
 10
13.69610634279885
 20
3.839277301327313
 30
0.0
 11
12.56038409657352
 21
4.974999547552641
 31
0.0
  0
LINE
  5
F1B
330
E6E
100
AcDbEntity
  8
0
 62
     0
100
AcDbLine
 10
7.055237682766288
 20
10.03113315530643
 30
0.0
 11
5.968107932344821
 21
11.1182629057279
 31
0.0
  0
LINE
  5
F1C
330
E6E
100
AcDbEntity
  8
0
 62
     0
100
AcDbLine
 10
13.50223995055262
 20
3.584130887520132
 30
0.0
 11
10.37110634279881
 21
6.715264495273943
 31
0.0
  0
LINE
  5
F1D
330
E6E
100
AcDbEntity
  8
0
 62
     0
100
AcDbLine
 10
7.046106342798879
 20
9.591251689220399
 30
0.0
 11
5.791367331110308
 21
10.84599070090897
 31
0.0
  0
LINE
  5
F1E
330
E6E
100
AcDbEntity
  8
0
 62
     0
100
AcDbLine
 10
13.06235848446667
 20
3.574999547552606
 30
0.0
 11
10.37110634279881
 21
6.266251689220467
 31
0.0
  0
LINE
  5
F1F
330
E6E
100
AcDbEntity
  8
0
 62
     0
100
AcDbLine
 10
7.077174196866677
 20
9.111171029099123
 30
0.0
 11
5.675927279963418
 21
10.51241794600238
 31
0.0
  0
LINE
  5
F20
330
E6E
100
AcDbEntity
  8
0
 62
     0
100
AcDbLine
 10
12.61334567841319
 20
3.574999547552606
 30
0.0
 11
10.37110634279878
 21
5.817238883166992
 31
0.0
  0
LINE
  5
F21
330
E6E
100
AcDbEntity
  8
0
 62
     0
100
AcDbLine
 10
9.223294388410153
 20
6.516038031502175
 30
0.0
 11
5.646106342798843
 21
10.09322607711351
 31
0.0
  0
LINE
  5
F22
330
E6E
100
AcDbEntity
  8
0
 62
     0
100
AcDbLine
 10
12.13769682883139
 20
3.601635591080963
 30
0.0
 11
10.39774238632711
 21
5.341590033585248
 31
0.0
  0
LINE
  5
F23
330
E6E
100
AcDbEntity
  8
0
 62
     0
100
AcDbLine
 10
9.319241645452764
 20
5.971077968406148
 30
0.0
 11
5.646106342798843
 21
9.644213271060069
 31
0.0
  0
LINE
  5
F24
330
E6E
100
AcDbEntity
  8
0
 62
     0
100
AcDbLine
 10
11.45079287253059
 20
3.839526741328285
 30
0.0
 11
10.6356335365744
 21
4.654686077284509
 31
0.0
  0
LINE
  5
F25
330
E6E
100
AcDbEntity
  8
0
 62
     0
100
AcDbLine
 10
9.321106342798854
 20
5.520200465006553
 30
0.0
 11
5.649888566509956
 21
9.191418241295453
 31
0.0
  0
LINE
  5
F26
330
E6E
100
AcDbEntity
  8
0
 62
     0
100
AcDbLine
 10
9.321106342798882
 20
5.071187658953049
 30
0.0
 11
5.761533945671884
 21
8.630760056080049
 31
0.0
  0
LINE
  5
F27
330
E6E
100
AcDbEntity
  8
0
 62
     0
100
AcDbLine
 10
9.284846344732812
 20
4.658434850965733
 30
0.0
 11
7.90315052292331
 21
6.040130672775234
 31
0.0
  0
LINE
  5
F28
330
E6E
100
AcDbEntity
  8
0
 62
     0
100
AcDbLine
 10
9.16387737521839
 20
4.330391014426679
 30
0.0
 11
7.921106342798879
 21
5.573162046846191
 31
0.0
  0
LINE
  5
F29
330
E6E
100
AcDbEntity
  8
0
 62
     0
100
AcDbLine
 10
8.982817751527505
 20
4.062437832064091
 30
0.0
 11
7.903156826648454
 21
5.142098756943113
 31
0.0
  0
LINE
  5
F2A
330
E6E
100
AcDbEntity
  8
0
 62
     0
100
AcDbLine
 10
8.749704565394067
 20
3.846538212144082
 30
0.0
 11
7.621243229985508
 21
4.974999547552669
 31
0.0
  0
LINE
  5
F2B
330
E6E
100
AcDbEntity
  8
0
 62
     0
100
AcDbLine
 10
8.463072341527661
 20
3.684157629957041
 30
0.0
 11
7.172230423932035
 21
4.974999547552641
 31
0.0
  0
LINE
  5
F2C
330
E6E
100
AcDbEntity
  8
0
 62
     0
100
AcDbLine
 10
8.110366046984692
 20
3.587851118446536
 30
0.0
 11
6.723217617878588
 21
4.974999547552641
 31
0.0
  0
LINE
  5
F2D
330
E6E
100
AcDbEntity
  8
0
 62
     0
100
AcDbLine
 10
7.674204811825148
 20
3.574999547552606
 30
0.0
 11
6.27420481182517
 21
4.974999547552584
 31
0.0
  0
LINE
  5
F2E
330
E6E
100
AcDbEntity
  8
0
 62
     0
100
AcDbLine
 10
7.225192005771702
 20
3.574999547552606
 30
0.0
 11
5.948530058362762
 21
4.851661494961574
 31
0.0
  0
LINE
  5
F2F
330
E6E
100
AcDbEntity
  8
0
 62
     0
100
AcDbLine
 10
6.7761791997182
 20
3.574999547552636
 30
0.0
 11
5.908606342798805
 21
4.442572404472031
 31
0.0
  0
LINE
  5
F30
330
E6E
100
AcDbEntity
  8
0
 62
     0
100
AcDbLine
 10
6.327166393664753
 20
3.574999547552636
 30
0.0
 11
5.908606342798805
 21
3.993559598418585
 31
0.0
  0
LINE
  5
F31
330
E6E
100
AcDbEntity
  8
0
 62
     0
100
AcDbLine
 10
34.31694998513226
 20
3.581565436111388
 30
0.0
 11
34.51454045424014
 21
3.779155905219282
 31
0.0
  0
LINE
  5
F32
330
E6E
100
AcDbEntity
  8
0
 62
     0
100
AcDbLine
 10
33.86137129052002
 20
3.574999547552578
 30
0.0
 11
34.5211063427989
 21
4.234734599831455
 31
0.0
  0
LINE
  5
F33
330
E6E
100
AcDbEntity
  8
0
 62
     0
100
AcDbLine
 10
33.41235848446661
 20
3.574999547552636
 30
0.0
 11
34.5211063427989
 21
4.683747405884928
 31
0.0
  0
LINE
  5
F34
330
E6E
100
AcDbEntity
  8
0
 62
     0
100
AcDbLine
 10
33.1367051244247
 20
3.748358993564181
 30
0.0
 11
34.5211063427989
 21
5.132760211938375
 31
0.0
  0
LINE
  5
F35
330
E6E
100
AcDbEntity
  8
0
 62
     0
100
AcDbLine
 10
33.12110634279884
 20
4.181773017991787
 30
0.0
 11
34.52110634279887
 21
5.581773017991821
 31
0.0
  0
LINE
  5
F36
330
E6E
100
AcDbEntity
  8
0
 62
     0
100
AcDbLine
 10
33.12110634279886
 20
4.630785824045261
 30
0.0
 11
34.5211063427989
 21
6.030785824045267
 31
0.0
  0
LINE
  5
F37
330
E6E
100
AcDbEntity
  8
0
 62
     0
100
AcDbLine
 10
33.12110634279886
 20
5.079798630098706
 30
0.0
 11
34.52110634279887
 21
6.47979863009874
 31
0.0
  0
LINE
  5
F38
330
E6E
100
AcDbEntity
  8
0
 62
     0
100
AcDbLine
 10
33.12110634279884
 20
5.528811436152182
 30
0.0
 11
34.52110634279887
 21
6.928811436152216
 31
0.0
  0
LINE
  5
F39
330
E6E
100
AcDbEntity
  8
0
 62
     0
100
AcDbLine
 10
31.3343887738313
 20
3.742093867184649
 30
0.0
 11
31.90401202316693
 21
4.311717116520269
 31
0.0
  0
LINE
  5
F3A
330
E6E
100
AcDbEntity
  8
0
 62
     0
100
AcDbLine
 10
33.12110634279886
 20
5.977824242205598
 30
0.0
 11
34.5211063427989
 21
7.377824242205632
 31
0.0
  0
LINE
  5
F3B
330
E6E
100
AcDbEntity
  8
0
 62
     0
100
AcDbLine
 10
30.71910469057005
 20
3.575822589976808
 30
0.0
 11
32.07028330037479
 21
4.927001199781527
 31
0.0
  0
LINE
  5
F3C
330
E6E
100
AcDbEntity
  8
0
 62
     0
100
AcDbLine
 10
33.12110634279884
 20
6.426837048259072
 30
0.0
 11
34.52110634279887
 21
7.826837048259107
 31
0.0
  0
LINE
  5
F3D
330
E6E
100
AcDbEntity
  8
0
 62
     0
100
AcDbLine
 10
30.2692688420924
 20
3.574999547552606
 30
0.0
 11
32.07110634279894
 21
5.376837048259146
 31
0.0
  0
LINE
  5
F3E
330
E6E
100
AcDbEntity
  8
0
 62
     0
100
AcDbLine
 10
33.12110634279884
 20
6.875849854312547
 30
0.0
 11
34.52110634279887
 21
8.275849854312554
 31
0.0
  0
LINE
  5
F3F
330
E6E
100
AcDbEntity
  8
0
 62
     0
100
AcDbLine
 10
29.82025603603892
 20
3.574999547552636
 30
0.0
 11
32.07110634279891
 21
5.825849854312622
 31
0.0
  0
LINE
  5
F40
330
E6E
100
AcDbEntity
  8
0
 62
     0
100
AcDbLine
 10
33.12110634279886
 20
7.324862660365965
 30
0.0
 11
34.52110634279887
 21
8.724862660366
 31
0.0
  0
LINE
  5
F41
330
E6E
100
AcDbEntity
  8
0
 62
     0
100
AcDbLine
 10
29.37124322998548
 20
3.574999547552606
 30
0.0
 11
32.07110634279894
 21
6.274862660366038
 31
0.0
  0
LINE
  5
F42
330
E6E
100
AcDbEntity
  8
0
 62
     0
100
AcDbLine
 10
30.61881074175846
 20
5.271579865379066
 30
0.0
 11
32.07110634279891
 21
6.723875466419513
 31
0.0
  0
LINE
  5
F43
330
E6E
100
AcDbEntity
  8
0
 62
     0
100
AcDbLine
 10
33.12110634279884
 20
7.77387546641944
 30
0.0
 11
34.52110634279887
 21
9.173875466419474
 31
0.0
  0
LINE
  5
F44
330
E6E
100
AcDbEntity
  8
0
 62
     0
100
AcDbLine
 10
28.92223042393203
 20
3.574999547552606
 30
0.0
 11
30.37452602497245
 21
5.027295148593053
 31
0.0
  0
LINE
  5
F45
330
E6E
100
AcDbEntity
  8
0
 62
     0
100
AcDbLine
 10
30.67110634279885
 20
5.772888272472897
 30
0.0
 11
32.07110634279891
 21
7.172888272472986
 31
0.0
  0
LINE
  5
F46
330
E6E
100
AcDbEntity
  8
0
 62
     0
100
AcDbLine
 10
33.12110634279884
 20
8.222888272472886
 30
0.0
 11
34.52110634279887
 21
9.62288827247292
 31
0.0
  0
LINE
  5
F47
330
E6E
100
AcDbEntity
  8
0
 62
     0
100
AcDbLine
 10
28.52919249356713
 20
3.630974423241183
 30
0.0
 11
29.87321761787855
 21
4.974999547552613
 31
0.0
  0
LINE
  5
F48
330
E6E
100
AcDbEntity
  8
0
 62
     0
100
AcDbLine
 10
30.67110634279882
 20
6.22190107852637
 30
0.0
 11
32.07110634279891
 21
7.621901078526433
 31
0.0
  0
LINE
  5
F49
330
E6E
100
AcDbEntity
  8
0
 62
     0
100
AcDbLine
 10
33.12110634279881
 20
8.67190107852636
 30
0.0
 11
34.52110634279884
 21
10.07190107852639
 31
0.0
  0
LINE
  5
F4A
330
E6E
100
AcDbEntity
  8
0
 62
     0
100
AcDbLine
 10
28.21519905996206
 20
3.765993795689609
 30
0.0
 11
29.42464370464728
 21
4.97543844037483
 31
0.0
  0
LINE
  5
F4B
330
E6E
100
AcDbEntity
  8
0
 62
     0
100
AcDbLine
 10
30.67110634279888
 20
6.670913884579847
 30
0.0
 11
32.07110634279891
 21
8.07091388457988
 31
0.0
  0
LINE
  5
F4C
330
E6E
100
AcDbEntity
  8
0
 62
     0
100
AcDbLine
 10
33.12110634279884
 20
9.120913884579806
 30
0.0
 11
34.52110634279887
 21
10.52091388457981
 31
0.0
  0
LINE
  5
F4D
330
E6E
100
AcDbEntity
  8
0
 62
     0
100
AcDbLine
 10
27.95856911927953
 20
3.958376661060468
 30
0.0
 11
29.10290441029093
 21
5.102711952071898
 31
0.0
  0
LINE
  5
F4E
330
E6E
100
AcDbEntity
  8
0
 62
     0
100
AcDbLine
 10
30.67110634279888
 20
7.11992669063332
 30
0.0
 11
32.07110634279891
 21
8.519926690633326
 31
0.0
  0
LINE
  5
F4F
330
E6E
100
AcDbEntity
  8
0
 62
     0
100
AcDbLine
 10
33.12110634279884
 20
9.569926690633252
 30
0.0
 11
34.5211063427989
 21
10.96992669063331
 31
0.0
  0
LINE
  5
F50
330
E6E
100
AcDbEntity
  8
0
 62
     0
100
AcDbLine
 10
27.75358703166699
 20
4.202407379501437
 30
0.0
 11
28.9342852710863
 21
5.383105618920723
 31
0.0
  0
LINE
  5
F51
330
E6E
100
AcDbEntity
  8
0
 62
     0
100
AcDbLine
 10
30.67110634279888
 20
7.568939496686765
 30
0.0
 11
32.07110634279888
 21
8.9689394966868
 31
0.0
  0
LINE
  5
F52
330
E6E
100
AcDbEntity
  8
0
 62
     0
100
AcDbLine
 10
33.12110634279886
 20
10.01893949668675
 30
0.0
 11
34.51603176602358
 21
11.4138649199115
 31
0.0
  0
LINE
  5
F53
330
E6E
100
AcDbEntity
  8
0
 62
     0
100
AcDbLine
 10
27.60362459245004
 20
4.501457746337933
 30
0.0
 11
28.92110634279886
 21
5.818939496686765
 31
0.0
  0
LINE
  5
F54
330
E6E
100
AcDbEntity
  8
0
 62
     0
100
AcDbLine
 10
30.67110634279888
 20
8.017952302740212
 30
0.0
 11
32.07110634279891
 21
9.417952302740246
 31
0.0
  0
LINE
  5
F55
330
E6E
100
AcDbEntity
  8
0
 62
     0
100
AcDbLine
 10
33.12110634279886
 20
10.4679523027402
 30
0.0
 11
34.27747459348376
 21
11.62432055342509
 31
0.0
  0
LINE
  5
F56
330
E6E
100
AcDbEntity
  8
0
 62
     0
100
AcDbLine
 10
27.52491782497182
 20
4.871763784913156
 30
0.0
 11
28.92110634279891
 21
6.267952302740241
 31
0.0
  0
LINE
  5
F57
330
E6E
100
AcDbEntity
  8
0
 62
     0
100
AcDbLine
 10
30.67110634279888
 20
8.466965108793656
 30
0.0
 11
32.07110634279891
 21
9.866965108793694
 31
0.0
  0
LINE
  5
F58
330
E6E
100
AcDbEntity
  8
0
 62
     0
100
AcDbLine
 10
33.12110634279886
 20
10.91696510879364
 30
0.0
 11
33.82914078155781
 21
11.62499954755261
 31
0.0
  0
LINE
  5
F59
330
E6E
100
AcDbEntity
  8
0
 62
     0
100
AcDbLine
 10
27.52110634279887
 20
5.316965108793682
 30
0.0
 11
28.92110634279891
 21
6.716965108793687
 31
0.0
  0
LINE
  5
F5A
330
E6E
100
AcDbEntity
  8
0
 62
     0
100
AcDbLine
 10
30.67110634279885
 20
8.915977914847132
 30
0.0
 11
32.07110634279888
 21
10.31597791484716
 31
0.0
  0
LINE
  5
F5B
330
E6E
100
AcDbEntity
  8
0
 62
     0
100
AcDbLine
 10
27.52110634279887
 20
5.765977914847128
 30
0.0
 11
28.92110634279887
 21
7.16597791484716
 31
0.0
  0
LINE
  5
F5C
330
E6E
100
AcDbEntity
  8
0
 62
     0
100
AcDbLine
 10
33.12112970017258
 20
11.36600127222087
 30
0.0
 11
33.38010461813055
 21
11.62497619017881
 31
0.0
  0
LINE
  5
F5D
330
E6E
100
AcDbEntity
  8
0
 62
     0
100
AcDbLine
 10
25.36032852744276
 20
3.605200099491042
 30
0.0
 11
26.44090579086051
 21
4.685777362908793
 31
0.0
  0
LINE
  5
F5E
330
E6E
100
AcDbEntity
  8
0
 62
     0
100
AcDbLine
 10
27.52110634279884
 20
6.2149907209006
 30
0.0
 11
28.92110634279887
 21
7.614990720900634
 31
0.0
  0
LINE
  5
F5F
330
E6E
100
AcDbEntity
  8
0
 62
     0
100
AcDbLine
 10
30.67110634279885
 20
9.364990720900607
 30
0.0
 11
32.07110634279888
 21
10.76499072090061
 31
0.0
  0
LINE
  5
F60
330
E6E
100
AcDbEntity
  8
0
 62
     0
100
AcDbLine
 10
24.88111516945088
 20
3.574999547552636
 30
0.0
 11
26.47110634279886
 21
5.164990720900589
 31
0.0
  0
LINE
  5
F61
330
E6E
100
AcDbEntity
  8
0
 62
     0
100
AcDbLine
 10
27.52110634279887
 20
6.664003526954019
 30
0.0
 11
28.92110634279891
 21
8.064003526954053
 31
0.0
  0
LINE
  5
F62
330
E6E
100
AcDbEntity
  8
0
 62
     0
100
AcDbLine
 10
30.67110634279888
 20
9.814003526954023
 30
0.0
 11
32.07110634279888
 21
11.21400352695405
 31
0.0
  0
LINE
  5
F63
330
E6E
100
AcDbEntity
  8
0
 62
     0
100
AcDbLine
 10
24.43210236339743
 20
3.574999547552606
 30
0.0
 11
26.47110634279892
 21
5.614003526954062
 31
0.0
  0
LINE
  5
F64
330
E6E
100
AcDbEntity
  8
0
 62
     0
100
AcDbLine
 10
27.52110634279884
 20
7.113016333007491
 30
0.0
 11
28.92110634279887
 21
8.513016333007527
 31
0.0
  0
LINE
  5
F65
330
E6E
100
AcDbEntity
  8
0
 62
     0
100
AcDbLine
 10
30.67110634279885
 20
10.26301633300749
 30
0.0
 11
31.97423761538178
 21
11.56614760559043
 31
0.0
  0
LINE
  5
F66
330
E6E
100
AcDbEntity
  8
0
 62
     0
100
AcDbLine
 10
23.98308955734393
 20
3.574999547552578
 30
0.0
 11
26.46394704259239
 21
6.055857032801013
 31
0.0
  0
LINE
  5
F67
330
E6E
100
AcDbEntity
  8
0
 62
     0
100
AcDbLine
 10
27.52110634279887
 20
7.562029139060995
 30
0.0
 11
28.92110634279887
 21
8.962029139060973
 31
0.0
  0
LINE
  5
F68
330
E6E
100
AcDbEntity
  8
0
 62
     0
100
AcDbLine
 10
30.67110634279885
 20
10.71202913906094
 30
0.0
 11
31.58407675129052
 21
11.62499954755264
 31
0.0
  0
LINE
  5
F69
330
E6E
100
AcDbEntity
  8
0
 62
     0
100
AcDbLine
 10
23.53407675129052
 20
3.574999547552636
 30
0.0
 11
26.39649085727799
 21
6.437413653540119
 31
0.0
  0
LINE
  5
F6A
330
E6E
100
AcDbEntity
  8
0
 62
     0
100
AcDbLine
 10
27.5211063427989
 20
8.011041945114442
 30
0.0
 11
28.92110634279893
 21
9.411041945114446
 31
0.0
  0
LINE
  5
F6B
330
E6E
100
AcDbEntity
  8
0
 62
     0
100
AcDbLine
 10
25.07110634279891
 20
5.561041945114452
 30
0.0
 11
26.27619712881872
 21
6.766132731134263
 31
0.0
  0
LINE
  5
F6C
330
E6E
100
AcDbEntity
  8
0
 62
     0
100
AcDbLine
 10
30.67110634279885
 20
11.16104194511439
 30
0.0
 11
31.13506394523711
 21
11.62499954755264
 31
0.0
  0
LINE
  5
F6D
330
E6E
100
AcDbEntity
  8
0
 62
     0
100
AcDbLine
 10
23.14919162180268
 20
3.639127224118198
 30
0.0
 11
24.48506394523707
 21
4.974999547552613
 31
0.0
  0
LINE
  5
F6E
330
E6E
100
AcDbEntity
  8
0
 62
     0
100
AcDbLine
 10
25.06117105523518
 20
6.000119463604163
 30
0.0
 11
26.11444747638842
 21
7.053395884757406
 31
0.0
  0
LINE
  5
F6F
330
E6E
100
AcDbEntity
  8
0
 62
     0
100
AcDbLine
 10
27.5211063427989
 20
8.460054751167888
 30
0.0
 11
28.92110634279891
 21
9.860054751167922
 31
0.0
  0
LINE
  5
F70
330
E6E
100
AcDbEntity
  8
0
 62
     0
100
AcDbLine
 10
23.05860634279884
 20
3.997554751167825
 30
0.0
 11
24.03605113918357
 21
4.974999547552584
 31
0.0
  0
LINE
  5
F71
330
E6E
100
AcDbEntity
  8
0
 62
     0
100
AcDbLine
 10
24.92397863666573
 20
6.311939851088227
 30
0.0
 11
25.91651191742451
 21
7.304473131847003
 31
0.0
  0
LINE
  5
F72
330
E6E
100
AcDbEntity
  8
0
 62
     0
100
AcDbLine
 10
27.52110634279887
 20
8.909067557221364
 30
0.0
 11
28.92110634279891
 21
10.30906755722139
 31
0.0
  0
LINE
  5
F73
330
E6E
100
AcDbEntity
  8
0
 62
     0
100
AcDbLine
 10
23.05860634279881
 20
4.4465675572213
 30
0.0
 11
23.58703833313015
 21
4.974999547552641
 31
0.0
  0
LINE
  5
F74
330
E6E
100
AcDbEntity
  8
0
 62
     0
100
AcDbLine
 10
27.5211063427989
 20
9.358080363274778
 30
0.0
 11
28.92110634279891
 21
10.75808036327481
 31
0.0
  0
LINE
  5
F75
330
E6E
100
AcDbEntity
  8
0
 62
     0
100
AcDbLine
 10
24.70334118810723
 20
6.540315208583137
 30
0.0
 11
25.69329068176839
 21
7.530264702244294
 31
0.0
  0
LINE
  5
F76
330
E6E
100
AcDbEntity
  8
0
 62
     0
100
AcDbLine
 10
24.47883478508049
 20
6.764821611609875
 30
0.0
 11
25.46878427874165
 21
7.754771105271031
 31
0.0
  0
LINE
  5
F77
330
E6E
100
AcDbEntity
  8
0
 62
     0
100
AcDbLine
 10
27.52110634279887
 20
9.807093169328254
 30
0.0
 11
28.92110634279891
 21
11.20709316932828
 31
0.0
  0
LINE
  5
F78
330
E6E
100
AcDbEntity
  8
0
 62
     0
100
AcDbLine
 10
21.28901272102325
 20
3.574999547552636
 30
0.0
 11
21.74610634279886
 21
4.032093169328248
 31
0.0
  0
LINE
  5
F79
330
E6E
100
AcDbEntity
  8
0
 62
     0
100
AcDbLine
 10
24.25432838205381
 20
6.989328014636638
 30
0.0
 11
25.24427787571491
 21
7.979277508297768
 31
0.0
  0
LINE
  5
F7A
330
E6E
100
AcDbEntity
  8
0
 62
     0
100
AcDbLine
 10
27.52110634279887
 20
10.25610597538172
 30
0.0
 11
28.82801588874943
 21
11.56301552133228
 31
0.0
  0
LINE
  5
F7B
330
E6E
100
AcDbEntity
  8
0
 62
     0
100
AcDbLine
 10
20.83999991496975
 20
3.574999547552606
 30
0.0
 11
21.74610634279886
 21
4.481105975381722
 31
0.0
  0
LINE
  5
F7C
330
E6E
100
AcDbEntity
  8
0
 62
     0
100
AcDbLine
 10
24.02982197902701
 20
7.213834417663348
 30
0.0
 11
25.01977147268818
 21
8.203783911324508
 31
0.0
  0
LINE
  5
F7D
330
E6E
100
AcDbEntity
  8
0
 62
     0
100
AcDbLine
 10
27.52110634279887
 20
10.70511878143517
 30
0.0
 11
28.44098710891632
 21
11.62499954755264
 31
0.0
  0
LINE
  5
F7E
330
E6E
100
AcDbEntity
  8
0
 62
     0
100
AcDbLine
 10
20.44679267784732
 20
3.630805116483656
 30
0.0
 11
21.74610634279886
 21
4.930118781435169
 31
0.0
  0
LINE
  5
F7F
330
E6E
100
AcDbEntity
  8
0
 62
     0
100
AcDbLine
 10
23.8053155760003
 20
7.438340820690057
 30
0.0
 11
24.79526506966147
 21
8.428290314351215
 31
0.0
  0
LINE
  5
F80
330
E6E
100
AcDbEntity
  8
0
 62
     0
100
AcDbLine
 10
27.52110634279887
 20
11.15413158748862
 30
0.0
 11
27.99197430286287
 21
11.62499954755261
 31
0.0
  0
LINE
  5
F81
330
E6E
100
AcDbEntity
  8
0
 62
     0
100
AcDbLine
 10
20.34610634279889
 20
3.979131587488637
 30
0.0
 11
21.74610634279886
 21
5.379131587488615
 31
0.0
  0
LINE
  5
F82
330
E6E
100
AcDbEntity
  8
0
 62
     0
100
AcDbLine
 10
23.58080917297357
 20
7.662847223716795
 30
0.0
 11
24.57075866663473
 21
8.652796717377952
 31
0.0
  0
LINE
  5
F83
330
E6E
100
AcDbEntity
  8
0
 62
     0
100
AcDbLine
 10
20.34610634279886
 20
4.428144393542083
 30
0.0
 11
21.74610634279886
 21
5.828144393542062
 31
0.0
  0
LINE
  5
F84
330
E6E
100
AcDbEntity
  8
0
 62
     0
100
AcDbLine
 10
23.35731722245293
 20
7.888368079249629
 30
0.0
 11
24.34930398914392
 21
8.880354845940614
 31
0.0
  0
LINE
  5
F85
330
E6E
100
AcDbEntity
  8
0
 62
     0
100
AcDbLine
 10
20.34610634279886
 20
4.877157199595558
 30
0.0
 11
21.74610634279884
 21
6.277157199595534
 31
0.0
  0
LINE
  5
F86
330
E6E
100
AcDbEntity
  8
0
 62
     0
100
AcDbLine
 10
25.69394869075591
 20
10.22499954755261
 30
0.0
 11
26.20860634279888
 21
10.73965719959556
 31
0.0
  0
LINE
  5
F87
330
E6E
100
AcDbEntity
  8
0
 62
     0
100
AcDbLine
 10
19.09977823044334
 20
3.630829087240043
 30
0.0
 11
19.14460441117165
 21
3.675655267968351
 31
0.0
  0
LINE
  5
F88
330
E6E
100
AcDbEntity
  8
0
 62
     0
100
AcDbLine
 10
23.15831613304195
 20
8.138379795892062
 30
0.0
 11
24.20813327175128
 21
9.188196934601393
 31
0.0
  0
LINE
  5
F89
330
E6E
100
AcDbEntity
  8
0
 62
     0
100
AcDbLine
 10
20.34610634279889
 20
5.326170005648974
 30
0.0
 11
21.74610634279886
 21
6.726170005648981
 31
0.0
  0
LINE
  5
F8A
330
E6E
100
AcDbEntity
  8
0
 62
     0
100
AcDbLine
 10
25.24493588470249
 20
10.22499954755258
 30
0.0
 11
26.2086063427989
 21
11.18867000564898
 31
0.0
  0
LINE
  5
F8B
330
E6E
100
AcDbEntity
  8
0
 62
     0
100
AcDbLine
 10
18.59493588470249
 20
3.574999547552606
 30
0.0
 11
19.12782543285581
 21
4.1078890957059
 31
0.0
  0
LINE
  5
F8C
330
E6E
100
AcDbEntity
  8
0
 62
     0
100
AcDbLine
 10
22.99539900084357
 20
8.424475469747164
 30
0.0
 11
24.19610634279888
 21
9.625182811702472
 31
0.0
  0
LINE
  5
F8D
330
E6E
100
AcDbEntity
  8
0
 62
     0
100
AcDbLine
 10
20.34610634279886
 20
5.77518281170245
 30
0.0
 11
21.74610634279886
 21
7.175182811702427
 31
0.0
  0
LINE
  5
F8E
330
E6E
100
AcDbEntity
  8
0
 62
     0
100
AcDbLine
 10
24.79592307864902
 20
10.22499954755261
 30
0.0
 11
26.12527187689988
 21
11.55434834580347
 31
0.0
  0
LINE
  5
F8F
330
E6E
100
AcDbEntity
  8
0
 62
     0
100
AcDbLine
 10
18.14592307864899
 20
3.574999547552578
 30
0.0
 11
19.02006235940296
 21
4.44913882830653
 31
0.0
  0
LINE
  5
F90
330
E6E
100
AcDbEntity
  8
0
 62
     0
100
AcDbLine
 10
20.34610634279886
 20
6.224195617755897
 30
0.0
 11
21.74610634279884
 21
7.624195617755901
 31
0.0
  0
LINE
  5
F91
330
E6E
100
AcDbEntity
  8
0
 62
     0
100
AcDbLine
 10
22.87370796950858
 20
8.751797244465647
 30
0.0
 11
25.74691027259558
 21
11.62499954755264
 31
0.0
  0
LINE
  5
F92
330
E6E
100
AcDbEntity
  8
0
 62
     0
100
AcDbLine
 10
17.84991592332159
 20
3.728005198278623
 30
0.0
 11
18.91229928595012
 21
4.790388560907159
 31
0.0
  0
LINE
  5
F93
330
E6E
100
AcDbEntity
  8
0
 62
     0
100
AcDbLine
 10
20.34610634279883
 20
6.673208423809369
 30
0.0
 11
21.74610634279884
 21
8.073208423809347
 31
0.0
  0
LINE
  5
F94
330
E6E
100
AcDbEntity
  8
0
 62
     0
100
AcDbLine
 10
22.80435453996574
 20
9.131456620976278
 30
0.0
 11
25.29789746654214
 21
11.62499954755264
 31
0.0
  0
LINE
  5
F95
330
E6E
100
AcDbEntity
  8
0
 62
     0
100
AcDbLine
 10
17.74053621249726
 20
4.067638293507768
 30
0.0
 11
18.80453621249728
 21
5.131638293507818
 31
0.0
  0
LINE
  5
F96
330
E6E
100
AcDbEntity
  8
0
 62
     0
100
AcDbLine
 10
20.34610634279889
 20
7.122221229862844
 30
0.0
 11
21.74610634279884
 21
8.522221229862791
 31
0.0
  0
LINE
  5
F97
330
E6E
100
AcDbEntity
  8
0
 62
     0
100
AcDbLine
 10
22.79610634279884
 20
9.572221229862805
 30
0.0
 11
24.84888466048869
 21
11.62499954755264
 31
0.0
  0
LINE
  5
F98
330
E6E
100
AcDbEntity
  8
0
 62
     0
100
AcDbLine
 10
17.63277313904438
 20
4.408888026108343
 30
0.0
 11
18.69677313904449
 21
5.472888026108449
 31
0.0
  0
LINE
  5
F99
330
E6E
100
AcDbEntity
  8
0
 62
     0
100
AcDbLine
 10
20.34610634279889
 20
7.571234035916319
 30
0.0
 11
21.74610634279884
 21
8.971234035916268
 31
0.0
  0
LINE
  5
F9A
330
E6E
100
AcDbEntity
  8
0
 62
     0
100
AcDbLine
 10
22.79610634279884
 20
10.02123403591625
 30
0.0
 11
24.39987185443524
 21
11.62499954755264
 31
0.0
  0
LINE
  5
F9B
330
E6E
100
AcDbEntity
  8
0
 62
     0
100
AcDbLine
 10
17.5250100655916
 20
4.750137758709001
 30
0.0
 11
18.58901006559162
 21
5.81413775870905
 31
0.0
  0
LINE
  5
F9C
330
E6E
100
AcDbEntity
  8
0
 62
     0
100
AcDbLine
 10
20.34610634279889
 20
8.020246841969763
 30
0.0
 11
21.74610634279884
 21
9.420246841969712
 31
0.0
  0
LINE
  5
F9D
330
E6E
100
AcDbEntity
  8
0
 62
     0
100
AcDbLine
 10
17.41724699213875
 20
5.091387491309659
 30
0.0
 11
18.48124699213883
 21
6.155387491309709
 31
0.0
  0
LINE
  5
F9E
330
E6E
100
AcDbEntity
  8
0
 62
     0
100
AcDbLine
 10
22.82276467785956
 20
10.49690517703044
 30
0.0
 11
23.92420071332105
 21
11.59834121249193
 31
0.0
  0
LINE
  5
F9F
330
E6E
100
AcDbEntity
  8
0
 62
     0
100
AcDbLine
 10
15.9008590483817
 20
3.574999547552606
 30
0.0
 11
16.32110634279888
 21
3.995246841969787
 31
0.0
  0
LINE
  5
FA0
330
E6E
100
AcDbEntity
  8
0
 62
     0
100
AcDbLine
 10
17.30948391868594
 20
5.432637223910261
 30
0.0
 11
18.37348391868596
 21
6.496637223910282
 31
0.0
  0
LINE
  5
FA1
330
E6E
100
AcDbEntity
  8
0
 62
     0
100
AcDbLine
 10
20.34610634279889
 20
8.469259648023211
 30
0.0
 11
21.74610634279884
 21
9.86925964802316
 31
0.0
  0
LINE
  5
FA2
330
E6E
100
AcDbEntity
  8
0
 62
     0
100
AcDbLine
 10
15.45184624232828
 20
3.574999547552578
 30
0.0
 11
16.32110634279891
 21
4.444259648023204
 31
0.0
  0
LINE
  5
FA3
330
E6E
100
AcDbEntity
  8
0
 62
     0
100
AcDbLine
 10
17.20172084523307
 20
5.773886956510835
 30
0.0
 11
18.26572084523317
 21
6.837886956510941
 31
0.0
  0
LINE
  5
FA4
330
E6E
100
AcDbEntity
  8
0
 62
     0
100
AcDbLine
 10
20.34610634279889
 20
8.918272454076658
 30
0.0
 11
21.74610634279884
 21
10.3182724540766
 31
0.0
  0
LINE
  5
FA5
330
E6E
100
AcDbEntity
  8
0
 62
     0
100
AcDbLine
 10
15.04340831010051
 20
3.615574421378283
 30
0.0
 11
16.32110634279888
 21
4.893272454076678
 31
0.0
  0
LINE
  5
FA6
330
E6E
100
AcDbEntity
  8
0
 62
     0
100
AcDbLine
 10
17.09395777178025
 20
6.115136689111522
 30
0.0
 11
18.15795777178027
 21
7.179136689111543
 31
0.0
  0
LINE
  5
FA7
330
E6E
100
AcDbEntity
  8
0
 62
     0
100
AcDbLine
 10
20.34610634279886
 20
9.367285260130133
 30
0.0
 11
21.7461063427988
 21
10.76728526013008
 31
0.0
  0
LINE
  5
FA8
330
E6E
100
AcDbEntity
  8
0
 62
     0
100
AcDbLine
 10
14.92110634279885
 20
3.942285260130119
 30
0.0
 11
16.32110634279888
 21
5.342285260130153
 31
0.0
  0
LINE
  5
FA9
330
E6E
100
AcDbEntity
  8
0
 62
     0
100
AcDbLine
 10
16.98619469832743
 20
6.456386421712124
 30
0.0
 11
18.05019469832751
 21
7.520386421712201
 31
0.0
  0
LINE
  5
FAA
330
E6E
100
AcDbEntity
  8
0
 62
     0
100
AcDbLine
 10
20.34610634279889
 20
9.816298066183575
 30
0.0
 11
21.74610634279884
 21
11.21629806618352
 31
0.0
  0
LINE
  5
FAB
330
E6E
100
AcDbEntity
  8
0
 62
     0
100
AcDbLine
 10
14.92110634279887
 20
4.391298066183537
 30
0.0
 11
16.32110634279894
 21
5.791298066183627
 31
0.0
  0
LINE
  5
FAC
330
E6E
100
AcDbEntity
  8
0
 62
     0
100
AcDbLine
 10
16.86879530484151
 20
6.787999834279673
 30
0.0
 11
18.18394233880707
 21
8.103146868245232
 31
0.0
  0
LINE
  5
FAD
330
E6E
100
AcDbEntity
  8
0
 62
     0
100
AcDbLine
 10
20.34610634279891
 20
10.26531087223708
 30
0.0
 11
21.64796863154961
 21
11.56717316098774
 31
0.0
  0
LINE
  5
FAE
330
E6E
100
AcDbEntity
  8
0
 62
     0
100
AcDbLine
 10
14.92110634279885
 20
4.840310872237012
 30
0.0
 11
16.32110634279894
 21
6.240310872237074
 31
0.0
  0
LINE
  5
FAF
330
E6E
100
AcDbEntity
  8
0
 62
     0
100
AcDbLine
 10
16.52520261990778
 20
6.893419955399422
 30
0.0
 11
18.39117901852407
 21
8.759396354015706
 31
0.0
  0
LINE
  5
FB0
330
E6E
100
AcDbEntity
  8
0
 62
     0
100
AcDbLine
 10
14.92110634279885
 20
5.289323678290486
 30
0.0
 11
16.32768593495208
 21
6.695903270443722
 31
0.0
  0
LINE
  5
FB1
330
E6E
100
AcDbEntity
  8
0
 62
     0
100
AcDbLine
 10
20.34610634279891
 20
10.71432367829052
 30
0.0
 11
21.25678221206101
 21
11.62499954755264
 31
0.0
  0
LINE
  5
FB2
330
E6E
100
AcDbEntity
  8
0
 62
     0
100
AcDbLine
 10
13.206782212061
 20
3.574999547552606
 30
0.0
 11
13.69610634279891
 21
4.064323678290548
 31
0.0
  0
LINE
  5
FB3
330
E6E
100
AcDbEntity
  8
0
 62
     0
100
AcDbLine
 10
14.92110634279885
 20
5.738336484343933
 30
0.0
 11
18.59841569824107
 21
9.415645839786179
 31
0.0
  0
LINE
  5
FB4
330
E6E
100
AcDbEntity
  8
0
 62
     0
100
AcDbLine
 10
20.34610634279889
 20
11.163336484344
 30
0.0
 11
20.80776940600753
 21
11.62499954755264
 31
0.0
  0
LINE
  5
FB5
330
E6E
100
AcDbEntity
  8
0
 62
     0
100
AcDbLine
 10
12.75776940600752
 20
3.574999547552636
 30
0.0
 11
13.69610634279891
 21
4.513336484343994
 31
0.0
  0
LINE
  5
FB6
330
E6E
100
AcDbEntity
  8
0
 62
     0
100
AcDbLine
 10
14.9211063427989
 20
6.187349290397406
 30
0.0
 11
18.80565237795809
 21
10.07189532555662
 31
0.0
  0
LINE
  5
FB7
330
E6E
100
AcDbEntity
  8
0
 62
     0
100
AcDbLine
 10
12.31459691212913
 20
3.58083985972766
 30
0.0
 11
13.62543920099574
 21
4.891682148594242
 31
0.0
  0
LINE
  5
FB8
330
E6E
100
AcDbEntity
  8
0
 62
     0
100
AcDbLine
 10
14.92110634279887
 20
6.636362096450881
 30
0.0
 11
16.58474379390062
 21
8.29999954755263
 31
0.0
  0
LINE
  5
FB9
330
E6E
100
AcDbEntity
  8
0
 62
     0
100
AcDbLine
 10
16.96673521152115
 20
8.681990965173127
 30
0.0
 11
19.01288905767506
 21
10.72814481132706
 31
0.0
  0
LINE
  5
FBA
330
E6E
100
AcDbEntity
  8
0
 62
     0
100
AcDbLine
 10
11.93051665340564
 20
3.64577240705762
 30
0.0
 11
13.25974379390061
 21
4.974999547552613
 31
0.0
  0
LINE
  5
FBB
330
E6E
100
AcDbEntity
  8
0
 62
     0
100
AcDbLine
 10
14.92110634279887
 20
7.085374902504327
 30
0.0
 11
16.33010162815301
 21
8.494370187858491
 31
0.0
  0
LINE
  5
FBC
330
E6E
100
AcDbEntity
  8
0
 62
     0
100
AcDbLine
 10
17.17397189123809
 20
9.338240450943573
 30
0.0
 11
19.20042478357572
 21
11.3646933432812
 31
0.0
  0
LINE
  5
FBD
330
E6E
100
AcDbEntity
  8
0
 62
     0
100
AcDbLine
 10
11.59994952499243
 20
3.764218084697915
 30
0.0
 11
12.81073098784716
 21
4.974999547552613
 31
0.0
  0
LINE
  5
FBE
330
E6E
100
AcDbEntity
  8
0
 62
     0
100
AcDbLine
 10
14.92110634279887
 20
7.534387708557773
 30
0.0
 11
16.32110634279891
 21
8.934387708557807
 31
0.0
  0
LINE
  5
FBF
330
E6E
100
AcDbEntity
  8
0
 62
     0
100
AcDbLine
 10
17.38120857095509
 20
9.994489936713989
 30
0.0
 11
19.00341884729104
 21
11.61670021304993
 31
0.0
  0
LINE
  5
FC0
330
E6E
100
AcDbEntity
  8
0
 62
     0
100
AcDbLine
 10
11.31114788291029
 20
3.924429248669156
 30
0.0
 11
12.36917881215672
 21
4.982460177915612
 31
0.0
  0
LINE
  5
FC1
330
E6E
100
AcDbEntity
  8
0
 62
     0
100
AcDbLine
 10
14.92110634279887
 20
7.983400514611246
 30
0.0
 11
16.32110634279891
 21
9.383400514611253
 31
0.0
  0
LINE
  5
FC2
330
E6E
100
AcDbEntity
  8
0
 62
     0
100
AcDbLine
 10
17.58844525067206
 20
10.6507394224844
 30
0.0
 11
18.56270537574025
 21
11.62499954755261
 31
0.0
  0
LINE
  5
FC3
330
E6E
100
AcDbEntity
  8
0
 62
     0
100
AcDbLine
 10
11.05867039971926
 20
4.1209645715316
 30
0.0
 11
12.05202074164756
 21
5.114314913459907
 31
0.0
  0
LINE
  5
FC4
330
E6E
100
AcDbEntity
  8
0
 62
     0
100
AcDbLine
 10
14.92110634279887
 20
8.432413320664691
 30
0.0
 11
16.32110634279888
 21
9.832413320664725
 31
0.0
  0
LINE
  5
FC5
330
E6E
100
AcDbEntity
  8
0
 62
     0
100
AcDbLine
 10
13.25192340868696
 20
6.763230386552804
 30
0.0
 11
13.83287550379867
 21
7.344182481664518
 31
0.0
  0
LINE
  5
FC6
330
E6E
100
AcDbEntity
  8
0
 62
     0
100
AcDbLine
 10
17.79568193038899
 20
11.30698890825485
 30
0.0
 11
18.11369256968677
 21
11.62499954755261
 31
0.0
  0
LINE
  5
FC7
330
E6E
100
AcDbEntity
  8
0
 62
     0
100
AcDbLine
 10
10.84045186305434
 20
4.351758840920183
 30
0.0
 11
11.84689526601147
 21
5.358202243877315
 31
0.0
  0
LINE
  5
FC8
330
E6E
100
AcDbEntity
  8
0
 62
     0
100
AcDbLine
 10
12.7894369878721
 20
6.749756771791425
 30
0.0
 11
13.84634911856005
 21
7.806668902479372
 31
0.0
  0
LINE
  5
FC9
330
E6E
100
AcDbEntity
  8
0
 62
     0
100
AcDbLine
 10
14.92110634279885
 20
8.881426126718167
 30
0.0
 11
16.32110634279888
 21
10.2814261267182
 31
0.0
  0
LINE
  5
FCA
330
E6E
100
AcDbEntity
  8
0
 62
     0
100
AcDbLine
 10
10.65694225058285
 20
4.617262034502146
 30
0.0
 11
11.7711063427989
 21
5.73142612671819
 31
0.0
  0
LINE
  5
FCB
330
E6E
100
AcDbEntity
  8
0
 62
     0
100
AcDbLine
 10
12.48236370316203
 20
6.891696293134741
 30
0.0
 11
13.70440959721671
 21
8.113742187189442
 31
0.0
  0
LINE
  5
FCC
330
E6E
100
AcDbEntity
  8
0
 62
     0
100
AcDbLine
 10
14.92110634279887
 20
9.330438932771583
 30
0.0
 11
16.32110634279891
 21
10.73043893277161
 31
0.0
  0
LINE
  5
FCD
330
E6E
100
AcDbEntity
  8
0
 62
     0
100
AcDbLine
 10
10.51128349562048
 20
4.920616085593222
 30
0.0
 11
11.7711063427989
 21
6.180438932771636
 31
0.0
  0
LINE
  5
FCE
330
E6E
100
AcDbEntity
  8
0
 62
     0
100
AcDbLine
 10
12.26338373966717
 20
7.121729135693384
 30
0.0
 11
13.47437675465809
 21
8.332722150684276
 31
0.0
  0
LINE
  5
FCF
330
E6E
100
AcDbEntity
  8
0
 62
     0
100
AcDbLine
 10
14.92110634279885
 20
9.779451738825059
 30
0.0
 11
16.32110634279894
 21
11.17945173882512
 31
0.0
  0
LINE
  5
FD0
330
E6E
100
AcDbEntity
  8
0
 62
     0
100
AcDbLine
 10
10.41071481353316
 20
5.26906020955937
 30
0.0
 11
11.7711063427989
 21
6.629451738825109
 31
0.0
  0
LINE
  5
FD1
330
E6E
100
AcDbEntity
  8
0
 62
     0
100
AcDbLine
 10
12.13535837346302
 20
7.442716575542704
 30
0.0
 11
13.15338931480877
 21
8.46074751688846
 31
0.0
  0
LINE
  5
FD2
330
E6E
100
AcDbEntity
  8
0
 62
     0
100
AcDbLine
 10
10.37110634279881
 20
5.678464544878493
 30
0.0
 11
11.77110634279887
 21
7.078464544878556
 31
0.0
  0
LINE
  5
FD3
330
E6E
100
AcDbEntity
  8
0
 62
     0
100
AcDbLine
 10
14.92110634279885
 20
10.22846454487853
 30
0.0
 11
16.24248128862126
 21
11.54983949070094
 31
0.0
  0
LINE
  5
FD4
330
E6E
100
AcDbEntity
  8
0
 62
     0
100
AcDbLine
 10
8.328107963860986
 20
3.635466165940669
 30
0.0
 11
9.260639724410848
 21
4.567997926490534
 31
0.0
  0
LINE
  5
FD5
330
E6E
100
AcDbEntity
  8
0
 62
     0
100
AcDbLine
 10
12.19456491520344
 20
7.950935923336514
 30
0.0
 11
12.64516996701493
 21
8.401540975148037
 31
0.0
  0
LINE
  5
FD6
330
E6E
100
AcDbEntity
  8
0
 62
     0
100
AcDbLine
 10
10.37110634279886
 20
6.127477350931967
 30
0.0
 11
11.7711063427989
 21
7.527477350932003
 31
0.0
  0
LINE
  5
FD7
330
E6E
100
AcDbEntity
  8
0
 62
     0
100
AcDbLine
 10
14.92110634279887
 20
10.67747735093195
 30
0.0
 11
15.86862853941951
 21
11.62499954755261
 31
0.0
  0
LINE
  5
FD8
330
E6E
100
AcDbEntity
  8
0
 62
     0
100
AcDbLine
 10
7.818628539419505
 20
3.574999547552606
 30
0.0
 11
9.321106342798913
 21
5.077477350932013
 31
0.0
  0
LINE
  5
FD9
330
E6E
100
AcDbEntity
  8
0
 62
     0
100
AcDbLine
 10
10.37110634279886
 20
6.576490156985443
 30
0.0
 11
11.7711063427989
 21
7.976490156985447
 31
0.0
  0
LINE
  5
FDA
330
E6E
100
AcDbEntity
  8
0
 62
     0
100
AcDbLine
 10
14.9211063427989
 20
11.12649015698545
 30
0.0
 11
15.41961573336607
 21
11.62499954755264
 31
0.0
  0
LINE
  5
FDB
330
E6E
100
AcDbEntity
  8
0
 62
     0
100
AcDbLine
 10
7.369615733366003
 20
3.574999547552578
 30
0.0
 11
9.321106342798939
 21
5.526490156985516
 31
0.0
  0
LINE
  5
FDC
330
E6E
100
AcDbEntity
  8
0
 62
     0
100
AcDbLine
 10
10.37110634279886
 20
7.025502963038888
 30
0.0
 11
11.77110634279887
 21
8.425502963038923
 31
0.0
  0
LINE
  5
FDD
330
E6E
100
AcDbEntity
  8
0
 62
     0
100
AcDbLine
 10
6.920602927312586
 20
3.574999547552636
 30
0.0
 11
9.319136666518287
 21
5.973533286758339
 31
0.0
  0
LINE
  5
FDE
330
E6E
100
AcDbEntity
  8
0
 62
     0
100
AcDbLine
 10
10.37110634279886
 20
7.474515769092361
 30
0.0
 11
11.7711063427989
 21
8.874515769092399
 31
0.0
  0
LINE
  5
FDF
330
E6E
100
AcDbEntity
  8
0
 62
     0
100
AcDbLine
 10
13.12159012125917
 20
10.22499954755267
 30
0.0
 11
13.69610634279891
 21
10.7995157690924
 31
0.0
  0
LINE
  5
FE0
330
E6E
100
AcDbEntity
  8
0
 62
     0
100
AcDbLine
 10
6.471590121259112
 20
3.574999547552606
 30
0.0
 11
9.264305748357571
 21
6.367715174651067
 31
0.0
  0
LINE
  5
FE1
330
E6E
100
AcDbEntity
  8
0
 62
     0
100
AcDbLine
 10
10.37110634279886
 20
7.92352857514578
 30
0.0
 11
11.77110634279887
 21
9.323528575145816
 31
0.0
  0
LINE
  5
FE2
330
E6E
100
AcDbEntity
  8
0
 62
     0
100
AcDbLine
 10
7.921106342798879
 20
5.473528575145791
 30
0.0
 11
9.153136376335568
 21
6.705558608682481
 31
0.0
  0
LINE
  5
FE3
330
E6E
100
AcDbEntity
  8
0
 62
     0
100
AcDbLine
 10
12.67257731520567
 20
10.22499954755261
 30
0.0
 11
13.69610634279891
 21
11.24852857514585
 31
0.0
  0
LINE
  5
FE4
330
E6E
100
AcDbEntity
  8
0
 62
     0
100
AcDbLine
 10
6.051440252835647
 20
3.603862485182588
 30
0.0
 11
7.42257731520567
 21
4.974999547552613
 31
0.0
  0
LINE
  5
FE5
330
E6E
100
AcDbEntity
  8
0
 62
     0
100
AcDbLine
 10
10.37110634279883
 20
8.372541381199255
 30
0.0
 11
11.85401369568864
 21
9.855448734089064
 31
0.0
  0
LINE
  5
FE6
330
E6E
100
AcDbEntity
  8
0
 62
     0
100
AcDbLine
 10
7.920026796994192
 20
5.92146183539458
 30
0.0
 11
8.998920608999497
 21
7.000355647399914
 31
0.0
  0
LINE
  5
FE7
330
E6E
100
AcDbEntity
  8
0
 62
     0
100
AcDbLine
 10
12.14065715626242
 20
10.14209219466283
 30
0.0
 11
13.57937263533887
 21
11.58080767373927
 31
0.0
  0
LINE
  5
FE8
330
E6E
100
AcDbEntity
  8
0
 62
     0
100
AcDbLine
 10
5.908606342798861
 20
3.910041381199278
 30
0.0
 11
6.973564509152224
 21
4.974999547552613
 31
0.0
  0
LINE
  5
FE9
330
E6E
100
AcDbEntity
  8
0
 62
     0
100
AcDbLine
 10
7.810225287243838
 20
6.260673131697727
 30
0.0
 11
8.807799626580049
 21
7.258247471033937
 31
0.0
  0
LINE
  5
FEA
330
E6E
100
AcDbEntity
  8
0
 62
     0
100
AcDbLine
 10
10.37110634279883
 20
8.821554187252729
 30
0.0
 11
13.17455170309878
 21
11.62499954755267
 31
0.0
  0
LINE
  5
FEB
330
E6E
100
AcDbEntity
  8
0
 62
     0
100
AcDbLine
 10
5.908606342798861
 20
4.359054187252723
 30
0.0
 11
6.524551703098751
 21
4.974999547552641
 31
0.0
  0
LINE
  5
FEC
330
E6E
100
AcDbEntity
  8
0
 62
     0
100
AcDbLine
 10
7.597097873091512
 20
6.496558523598821
 30
0.0
 11
8.587047366752669
 21
7.486508017259978
 31
0.0
  0
LINE
  5
FED
330
E6E
100
AcDbEntity
  8
0
 62
     0
100
AcDbLine
 10
10.37110634279883
 20
9.270566993306147
 30
0.0
 11
12.72553889704525
 21
11.62499954755256
 31
0.0
  0
LINE
  5
FEE
330
E6E
100
AcDbEntity
  8
0
 62
     0
100
AcDbLine
 10
5.943082303808694
 20
4.842542954316002
 30
0.0
 11
6.0410629360355
 21
4.940523586542808
 31
0.0
  0
LINE
  5
FEF
330
E6E
100
AcDbEntity
  8
0
 62
     0
100
AcDbLine
 10
10.38109389987707
 20
9.729567356437826
 30
0.0
 11
12.26653853391357
 21
11.61501199047435
 31
0.0
  0
LINE
  5
FF0
330
E6E
100
AcDbEntity
  8
0
 62
     0
100
AcDbLine
 10
7.372591470064776
 20
6.721064926625557
 30
0.0
 11
8.362540963725932
 21
7.711014420286716
 31
0.0
  0
LINE
  5
FF1
330
E6E
100
AcDbEntity
  8
0
 62
     0
100
AcDbLine
 10
10.53082561600996
 20
10.32831187862422
 30
0.0
 11
11.66779401172721
 21
11.46528027434146
 31
0.0
  0
LINE
  5
FF2
330
E6E
100
AcDbEntity
  8
0
 62
     0
100
AcDbLine
 10
7.148085067038039
 20
6.945571329652294
 30
0.0
 11
8.138034560699196
 21
7.935520823313452
 31
0.0
  0
LINE
  5
FF3
330
E6E
100
AcDbEntity
  8
0
 62
     0
100
AcDbLine
 10
6.92357866401133
 20
7.170077732679003
 30
0.0
 11
7.913528157672487
 21
8.160027226340162
 31
0.0
  0
LINE
  5
FF4
330
E6E
100
AcDbEntity
  8
0
 62
     0
100
AcDbLine
 10
6.699072260984592
 20
7.394584135705741
 30
0.0
 11
7.68902175464575
 21
8.384533629366899
 31
0.0
  0
LINE
  5
FF5
330
E6E
100
AcDbEntity
  8
0
 62
     0
100
AcDbLine
 10
6.474565857957826
 20
7.619090538732449
 30
0.0
 11
7.464515351619012
 21
8.609040032393636
 31
0.0
  0
LINE
  5
FF6
330
E6E
100
AcDbEntity
  8
0
 62
     0
100
AcDbLine
 10
8.631462060724544
 20
10.22499954755261
 30
0.0
 11
9.058606342798867
 21
10.65214382962696
 31
0.0
  0
LINE
  5
FF7
330
E6E
100
AcDbEntity
  8
0
 62
     0
100
AcDbLine
 10
6.250101111945156
 20
7.843638598773252
 30
0.0
 11
7.240133933661438
 21
8.833671420489537
 31
0.0
  0
LINE
  5
FF8
330
E6E
100
AcDbEntity
  8
0
 62
     0
100
AcDbLine
 10
8.182449254671098
 20
10.22499954755261
 30
0.0
 11
9.058606342798897
 21
11.10115663568038
 31
0.0
  0
LINE
  5
FF9
330
E6E
100
AcDbEntity
  8
0
 62
     0
100
AcDbLine
 10
6.044367149669369
 20
8.086917442550856
 30
0.0
 11
7.075185493017499
 21
9.117735785899013
 31
0.0
  0
LINE
  5
FFA
330
E6E
100
AcDbEntity
  8
0
 62
     0
100
AcDbLine
 10
7.733436448617624
 20
10.22499954755261
 30
0.0
 11
9.015326892918297
 21
11.50688999185328
 31
0.0
  0
LINE
  5
FFB
330
E6E
100
AcDbEntity
  8
0
 62
     0
100
AcDbLine
 10
5.874136846538134
 20
8.365699945473096
 30
0.0
 11
7.046106342798849
 21
9.537669441733811
 31
0.0
  0
LINE
  5
FFC
330
E6E
100
AcDbEntity
  8
0
 62
     0
100
AcDbLine
 10
7.283190317979147
 20
10.22376622296761
 30
0.0
 11
8.684423642564155
 21
11.62499954755261
 31
0.0
  0
LINE
  5
FFD
330
E6E
100
AcDbEntity
  8
0
 62
     0
100
AcDbLine
 10
5.743790198672088
 20
8.684366103660522
 30
0.0
 11
7.047339667383937
 21
9.987915572372401
 31
0.0
  0
LINE
  5
FFE
330
E6E
100
AcDbEntity
  8
0
 62
     0
100
AcDbLine
 10
5.662884217548053
 20
9.052472928589935
 30
0.0
 11
8.235410836510766
 21
11.62499954755264
 31
0.0
  0
LINE
  5
FFF
330
E6E
100
AcDbEntity
  8
0
 62
     0
100
AcDbLine
 10
5.646106342798901
 20
9.484707859894227
 30
0.0
 11
7.786398030457262
 21
11.62499954755261
 31
0.0
  0
LINE
  5
1000
330
E6E
100
AcDbEntity
  8
0
 62
     0
100
AcDbLine
 10
5.646106342798871
 20
9.933720665947703
 30
0.0
 11
7.337385224403789
 21
11.62499954755261
 31
0.0
  0
LINE
  5
1001
330
E6E
100
AcDbEntity
  8
0
 62
     0
100
AcDbLine
 10
5.65620234801804
 20
10.39282947722031
 30
0.0
 11
6.878276413131175
 21
11.61490354233345
 31
0.0
  0
ENDBLK
  5
1003
330
E6E
100
AcDbEntity
  8
0
100
AcDbBlockEnd
  0
BLOCK
  5
1020
330
100A
100
AcDbEntity
  8
0
100
AcDbBlockBegin
  2
*X11
 70
     1
 10
0.0
 20
0.0
 30
0.0
  3
*X11
  1

  0
LINE
  5
100B
330
100A
100
AcDbEntity
  8
0
 62
     0
100
AcDbLine
 10
331.0181587946304
 20
103.8525116350962
 30
0.0
 11
329.212688752811
 21
105.6579816769156
 31
0.0
  0
LINE
  5
100C
330
100A
100
AcDbEntity
  8
0
 62
     0
100
AcDbLine
 10
330.904274469929
 20
101.845075616238
 30
0.0
 11
328.8858040712298
 21
103.8635460149372
 31
0.0
  0
LINE
  5
100D
330
100A
100
AcDbEntity
  8
0
 62
     0
100
AcDbLine
 10
330.7903901452276
 20
99.83763959737977
 30
0.0
 11
328.7704857719022
 21
101.8575439707051
 31
0.0
  0
LINE
  5
100E
330
100A
100
AcDbEntity
  8
0
 62
     0
100
AcDbLine
 10
330.6765058205262
 20
97.83020357852151
 30
0.0
 11
328.6551674725747
 21
99.85154192647309
 31
0.0
  0
LINE
  5
100F
330
100A
100
AcDbEntity
  8
0
 62
     0
100
AcDbLine
 10
330.5626214958248
 20
95.82276755966331
 30
0.0
 11
328.5398491732471
 21
97.845539882241
 31
0.0
  0
LINE
  5
1010
330
100A
100
AcDbEntity
  8
0
 62
     0
100
AcDbLine
 10
330.4487371711234
 20
93.81533154080505
 30
0.0
 11
328.4245308739195
 21
95.83953783800891
 31
0.0
  0
LINE
  5
1011
330
100A
100
AcDbEntity
  8
0
 62
     0
100
AcDbLine
 10
330.334852846422
 20
91.8078955219468
 30
0.0
 11
328.309212574592
 21
93.83353579377681
 31
0.0
  0
LINE
  5
1012
330
100A
100
AcDbEntity
  8
0
 62
     0
100
AcDbLine
 10
330.2209685217206
 20
89.80045950308857
 30
0.0
 11
328.1938942752645
 21
91.82753374954474
 31
0.0
  0
LINE
  5
1013
330
100A
100
AcDbEntity
  8
0
 62
     0
100
AcDbLine
 10
330.1070841970192
 20
87.79302348423035
 30
0.0
 11
328.0785759759369
 21
89.82153170531264
 31
0.0
  0
LINE
  5
1014
330
100A
100
AcDbEntity
  8
0
 62
     0
100
AcDbLine
 10
329.9931998723178
 20
85.78558746537208
 30
0.0
 11
327.9632576766093
 21
87.81552966108055
 31
0.0
  0
LINE
  5
1015
330
100A
100
AcDbEntity
  8
0
 62
     0
100
AcDbLine
 10
329.8793155476164
 20
83.77815144651384
 30
0.0
 11
327.8479393772818
 21
85.80952761684848
 31
0.0
  0
LINE
  5
1016
330
100A
100
AcDbEntity
  8
0
 62
     0
100
AcDbLine
 10
329.765431222915
 20
81.77071542765562
 30
0.0
 11
327.7326210779542
 21
83.80352557261637
 31
0.0
  0
LINE
  5
1017
330
100A
100
AcDbEntity
  8
0
 62
     0
100
AcDbLine
 10
329.6346865358207
 20
79.78013977119028
 30
0.0
 11
327.6128225890202
 21
81.80200371799077
 31
0.0
  0
LINE
  5
1018
330
100A
100
AcDbEntity
  8
0
 62
     0
100
AcDbLine
 10
329.4681285652448
 20
77.82537739820639
 30
0.0
 11
327.4608327344965
 21
79.83267322895476
 31
0.0
  0
LINE
  5
1019
330
100A
100
AcDbEntity
  8
0
 62
     0
100
AcDbLine
 10
329.2674249305193
 20
75.90476068937238
 30
0.0
 11
327.2734029354174
 21
77.89878268447423
 31
0.0
  0
LINE
  5
101A
330
100A
100
AcDbEntity
  8
0
 62
     0
100
AcDbLine
 10
329.0341165361817
 20
74.01674874015037
 30
0.0
 11
327.0521951512997
 21
75.99867012503233
 31
0.0
  0
LINE
  5
101B
330
100A
100
AcDbEntity
  8
0
 62
     0
100
AcDbLine
 10
328.769599519029
 20
72.15994541374342
 30
0.0
 11
326.7987104400288
 21
74.13083449274356
 31
0.0
  0
LINE
  5
101C
330
100A
100
AcDbEntity
  8
0
 62
     0
100
AcDbLine
 10
328.4751430466936
 20
70.33308154251912
 30
0.0
 11
326.5143093647393
 21
72.29391522447343
 31
0.0
  0
LINE
  5
101D
330
100A
100
AcDbEntity
  8
0
 62
     0
100
AcDbLine
 10
328.1519043551868
 20
68.53499989046625
 30
0.0
 11
326.2002291411825
 21
70.48667510447065
 31
0.0
  0
LINE
  5
101E
330
100A
100
AcDbEntity
  8
0
 62
     0
100
AcDbLine
 10
327.8009415313653
 20
66.76464237072815
 30
0.0
 11
325.8575981401054
 21
68.70798576198808
 31
0.0
  0
LINE
  5
101F
330
100A
100
AcDbEntity
  8
0
 62
     0
100
AcDbLine
 10
325.6861613941989
 20
66.75810216433493
 30
0.0
 11
324.8673320576816
 21
67.57693150085215
 31
0.0
  0
ENDBLK
  5
1021
330
100A
100
AcDbEntity
  8
0
100
AcDbBlockEnd
  0
BLOCK
  5
1045
330
1022
100
AcDbEntity
  8
0
100
AcDbBlockBegin
  2
*X12
 70
     1
 10
0.0
 20
0.0
 30
0.0
  3
*X12
  1

  0
LINE
  5
1023
330
1022
100
AcDbEntity
  8
0
 62
     0
100
AcDbLine
 10
318.3676334334041
 20
59.56655151912773
 30
0.0
 11
320.0675556456644
 21
61.26647373138792
 31
0.0
  0
LINE
  5
1024
330
1022
100
AcDbEntity
  8
0
 62
     0
100
AcDbLine
 10
318.3676334334041
 20
61.68787186268739
 30
0.0
 11
320.0675633595845
 21
63.38780178886776
 31
0.0
  0
LINE
  5
1025
330
1022
100
AcDbEntity
  8
0
 62
     0
100
AcDbLine
 10
318.3676334334041
 20
63.80919220624703
 30
0.0
 11
320.0675710735047
 21
65.50912984634756
 31
0.0
  0
LINE
  5
1026
330
1022
100
AcDbEntity
  8
0
 62
     0
100
AcDbLine
 10
318.3676334334041
 20
65.93051254980664
 30
0.0
 11
320.0675787874249
 21
67.6304579038274
 31
0.0
  0
LINE
  5
1027
330
1022
100
AcDbEntity
  8
0
 62
     0
100
AcDbLine
 10
318.3676334334041
 20
68.05183289336628
 30
0.0
 11
320.0675865013451
 21
69.75178596130721
 31
0.0
  0
LINE
  5
1028
330
1022
100
AcDbEntity
  8
0
 62
     0
100
AcDbLine
 10
318.3676334334041
 20
70.1731532369259
 30
0.0
 11
320.0675942152652
 21
71.87311401878706
 31
0.0
  0
LINE
  5
1029
330
1022
100
AcDbEntity
  8
0
 62
     0
100
AcDbLine
 10
318.3676334334041
 20
72.29447358048556
 30
0.0
 11
320.0676019291853
 21
73.9944420762669
 31
0.0
  0
LINE
  5
102A
330
1022
100
AcDbEntity
  8
0
 62
     0
100
AcDbLine
 10
318.3676334334041
 20
74.41579392404515
 30
0.0
 11
320.0676096431056
 21
76.11577013374674
 31
0.0
  0
LINE
  5
102B
330
1022
100
AcDbEntity
  8
0
 62
     0
100
AcDbLine
 10
318.3676334334041
 20
76.53711426760479
 30
0.0
 11
320.0676173570258
 21
78.23709819122661
 31
0.0
  0
LINE
  5
102C
330
1022
100
AcDbEntity
  8
0
 62
     0
100
AcDbLine
 10
322.8673009864502
 20
83.15810216421061
 30
0.0
 11
325.0676334334041
 21
85.35843461116447
 31
0.0
  0
LINE
  5
102D
330
1022
100
AcDbEntity
  8
0
 62
     0
100
AcDbLine
 10
318.3676334334041
 20
78.6584346111644
 30
0.0
 11
320.067625070946
 21
80.35842624870641
 31
0.0
  0
LINE
  5
102E
330
1022
100
AcDbEntity
  8
0
 62
     0
100
AcDbLine
 10
320.7459806428905
 20
83.15810216421059
 30
0.0
 11
323.7459806428906
 21
86.15810216421062
 31
0.0
  0
LINE
  5
102F
330
1022
100
AcDbEntity
  8
0
 62
     0
100
AcDbLine
 10
318.3676334334041
 20
80.77975495472404
 30
0.0
 11
320.0676327848662
 21
82.47975430618623
 31
0.0
  0
LINE
  5
1030
330
1022
100
AcDbEntity
  8
0
 62
     0
100
AcDbLine
 10
324.6283619549091
 20
89.16180381978881
 30
0.0
 11
325.0639317778259
 21
89.59737364270555
 31
0.0
  0
LINE
  5
1031
330
1022
100
AcDbEntity
  8
0
 62
     0
100
AcDbLine
 10
318.3676334334041
 20
82.9010752982837
 30
0.0
 11
322.867633433404
 21
87.40107529828369
 31
0.0
  0
LINE
  5
1032
330
1022
100
AcDbEntity
  8
0
 62
     0
100
AcDbLine
 10
320.8675396343116
 20
87.52230184275097
 30
0.0
 11
325.0639466676389
 21
91.71870887607814
 31
0.0
  0
LINE
  5
1033
330
1022
100
AcDbEntity
  8
0
 62
     0
100
AcDbLine
 10
339.5033399557713
 20
106.1581021642105
 30
0.0
 11
340.867633433404
 21
107.5223956418433
 31
0.0
  0
LINE
  5
1034
330
1022
100
AcDbEntity
  8
0
 62
     0
100
AcDbLine
 10
318.3676334334041
 20
85.02239564184334
 30
0.0
 11
318.5033399557713
 21
85.15810216421058
 31
0.0
  0
LINE
  5
1035
330
1022
100
AcDbEntity
  8
0
 62
     0
100
AcDbLine
 10
337.3820196122117
 20
106.1581021642106
 30
0.0
 11
340.3820196122117
 21
109.1581021642106
 31
0.0
  0
LINE
  5
1036
330
1022
100
AcDbEntity
  8
0
 62
     0
100
AcDbLine
 10
320.8675492767207
 20
89.64363182871965
 30
0.0
 11
323.3820196122117
 21
92.1581021642106
 31
0.0
  0
LINE
  5
1037
330
1022
100
AcDbEntity
  8
0
 62
     0
100
AcDbLine
 10
335.260699268652
 20
106.1581021642106
 30
0.0
 11
337.260699268652
 21
108.1581021642106
 31
0.0
  0
LINE
  5
1038
330
1022
100
AcDbEntity
  8
0
 62
     0
100
AcDbLine
 10
320.8675589191297
 20
91.76496181468833
 30
0.0
 11
322.867633433404
 21
93.76503632896264
 31
0.0
  0
LINE
  5
1039
330
1022
100
AcDbEntity
  8
0
 62
     0
100
AcDbLine
 10
333.1393789250923
 20
106.1581021642105
 30
0.0
 11
335.1393789250924
 21
108.1581021642106
 31
0.0
  0
LINE
  5
103A
330
1022
100
AcDbEntity
  8
0
 62
     0
100
AcDbLine
 10
320.8675685615387
 20
93.886291800657
 30
0.0
 11
322.867633433404
 21
95.88635667252225
 31
0.0
  0
LINE
  5
103B
330
1022
100
AcDbEntity
  8
0
 62
     0
100
AcDbLine
 10
331.0180585815327
 20
106.1581021642106
 30
0.0
 11
333.0180585815327
 21
108.1581021642106
 31
0.0
  0
LINE
  5
103C
330
1022
100
AcDbEntity
  8
0
 62
     0
100
AcDbLine
 10
320.8675782039478
 20
96.00762178662563
 30
0.0
 11
322.867633433404
 21
98.0076770160819
 31
0.0
  0
LINE
  5
103D
330
1022
100
AcDbEntity
  8
0
 62
     0
100
AcDbLine
 10
328.8967382379731
 20
106.1581021642106
 30
0.0
 11
330.896738237973
 21
108.1581021642106
 31
0.0
  0
LINE
  5
103E
330
1022
100
AcDbEntity
  8
0
 62
     0
100
AcDbLine
 10
320.8675878463568
 20
98.12895177259433
 30
0.0
 11
322.867633433404
 21
100.1289973596415
 31
0.0
  0
LINE
  5
103F
330
1022
100
AcDbEntity
  8
0
 62
     0
100
AcDbLine
 10
326.7754178944134
 20
106.1581021642105
 30
0.0
 11
328.7754178944134
 21
108.1581021642106
 31
0.0
  0
LINE
  5
1040
330
1022
100
AcDbEntity
  8
0
 62
     0
100
AcDbLine
 10
320.8675974887658
 20
100.250281758563
 30
0.0
 11
322.867633433404
 21
102.2503177032012
 31
0.0
  0
LINE
  5
1041
330
1022
100
AcDbEntity
  8
0
 62
     0
100
AcDbLine
 10
324.6540975508537
 20
106.1581021642105
 30
0.0
 11
326.6540975508538
 21
108.1581021642106
 31
0.0
  0
LINE
  5
1042
330
1022
100
AcDbEntity
  8
0
 62
     0
100
AcDbLine
 10
320.8676071311749
 20
102.3716117445316
 30
0.0
 11
322.867633433404
 21
104.3716380467608
 31
0.0
  0
LINE
  5
1043
330
1022
100
AcDbEntity
  8
0
 62
     0
100
AcDbLine
 10
320.8676167735839
 20
104.4929417305003
 30
0.0
 11
324.5327772072942
 21
108.1581021642106
 31
0.0
  0
LINE
  5
1044
330
1022
100
AcDbEntity
  8
0
 62
     0
100
AcDbLine
 10
320.8676264159929
 20
106.614271716469
 30
0.0
 11
322.4114568637345
 21
108.1581021642106
 31
0.0
  0
ENDBLK
  5
1046
330
1022
100
AcDbEntity
  8
0
100
AcDbBlockEnd
  0
BLOCK
  5
10C8
330
10BD
100
AcDbEntity
  8
0
100
AcDbBlockBegin
  2
*D13
 70
     1
 10
0.0
 20
0.0
 30
0.0
  3
*D13
  1

  0
LINE
  5
132A
330
10BD
100
AcDbEntity
  8
SUNPOU
 62
     4
100
AcDbLine
 10
151.1345130015039
 20
86.39235020901841
 30
0.0
 11
163.5327782136168
 21
86.39235020901839
 31
0.0
  0
LINE
  5
132B
330
10BD
100
AcDbEntity
  8
SUNPOU
 62
     4
100
AcDbLine
 10
147.5364406909505
 20
76.3923502090184
 30
0.0
 11
163.5327782136168
 21
76.39235020901839
 31
0.0
  0
LINE
  5
132C
330
10BD
100
AcDbEntity
  8
SUNPOU
 62
     4
100
AcDbLine
 10
162.0327782136168
 20
83.39235020901838
 30
0.0
 11
162.0327782136168
 21
79.39235020901839
 31
0.0
  0
MTEXT
  5
132D
330
10BD
100
AcDbEntity
  8
SUNPOU
 62
     4
100
AcDbMText
 10
159.8811642075676
 20
92.0460275455232
 30
0.0
 40
3.0
 41
0.0
 71
     5
 72
     5
  1
\A1;\U+203bb10
 11
0.0000000000000001
 21
1.0
 31
0.0
 73
     1
 44
1.0
1001
ACAD
1000
MTEXTBEGIN
1070
    73
1070
     1
1070
    44
1040
1.0
1070
    74
1070
     0
1000
MTEXTEND
  0
INSERT
  5
132E
330
10BD
100
AcDbEntity
  8
SUNPOU
 62
     4
100
AcDbBlockReference
  2
_OPEN
 10
162.0327782136168
 20
86.39235020901839
 30
0.0
 41
3.0
 42
3.0
 43
3.0
 50
90.0
  0
INSERT
  5
132F
330
10BD
100
AcDbEntity
  8
SUNPOU
 62
     4
100
AcDbBlockReference
  2
_OPEN
 10
162.0327782136168
 20
76.39235020901839
 30
0.0
 41
3.0
 42
3.0
 43
3.0
 50
270.0
  0
POINT
  5
1330
330
10BD
100
AcDbEntity
  8
DEFPOINTS
 62
     0
100
AcDbPoint
 10
148.1345130015039
 20
86.39235020901841
 30
0.0
  0
POINT
  5
1331
330
10BD
100
AcDbEntity
  8
DEFPOINTS
 62
     0
100
AcDbPoint
 10
144.5364406909505
 20
76.3923502090184
 30
0.0
  0
POINT
  5
1332
330
10BD
100
AcDbEntity
  8
DEFPOINTS
 62
     0
100
AcDbPoint
 10
162.0327782136168
 20
76.39235020901839
 30
0.0
  0
ENDBLK
  5
10C9
330
10BD
100
AcDbEntity
  8
0
100
AcDbBlockEnd
  0
ENDSEC
  0
SECTION
  2
ENTITIES
  0
LINE
  5
693
330
1A
100
AcDbEntity
  8
ZUWAKU
100
AcDbLine
 10
104.3233009104422
 20
7.599999547552665
 30
0.0
 11
223.7121822509039
 21
7.59999954755266
 31
0.0
  0
LINE
  5
694
330
1A
100
AcDbEntity
  8
ZUWAKU
100
AcDbLine
 10
104.3233009104422
 20
7.79999954755266
 30
0.0
 11
223.7121822509039
 21
7.799999547552665
 31
0.0
  0
LINE
  5
695
330
1A
100
AcDbEntity
  8
ZUWAKU
100
AcDbLine
 10
104.3233009104422
 20
7.699999547552661
 30
0.0
 11
223.7121822509039
 21
7.699999547552661
 31
0.0
  0
LINE
  5
696
330
1A
100
AcDbEntity
  8
ZUWAKU
100
AcDbLine
 10
0.0000002654082891
 20
15.39999954755265
 30
0.0
 11
398.7000002654082
 21
15.39999954755265
 31
0.0
  0
LINE
  5
697
330
1A
100
AcDbEntity
  8
ZUWAKU
100
AcDbLine
 10
0.0000002654082891
 20
15.29999954755265
 30
0.0
 11
398.7000002654082
 21
15.29999954755265
 31
0.0
  0
LINE
  5
698
330
1A
100
AcDbEntity
  8
ZUWAKU
100
AcDbLine
 10
0.0000002654082891
 20
15.19999954755265
 30
0.0
 11
398.7000002654082
 21
15.19999954755265
 31
0.0
  0
LINE
  5
699
330
1A
100
AcDbEntity
  8
ZUWAKU
100
AcDbLine
 10
0.0000002654082891
 20
15.09999954755264
 30
0.0
 11
398.7000002654082
 21
15.09999954755264
 31
0.0
  0
LINE
  5
69A
330
1A
100
AcDbEntity
  8
ZUWAKU
100
AcDbLine
 10
0.0000002654082891
 20
14.99999954755264
 30
0.0
 11
398.7000002654082
 21
14.99999954755264
 31
0.0
  0
LWPOLYLINE
  5
69B
330
1A
100
AcDbEntity
  8
ZUWAKU
100
AcDbPolyline
 90
        4
 70
     1
 43
0.0
 10
0.100000265408255
 20
275.6999995475526
 10
0.100000265408255
 20
0.0999995475526703
 10
398.7000002654082
 20
0.0999995475526818
 10
398.7000002654083
 20
275.6999995475526
  0
LWPOLYLINE
  5
69C
330
1A
100
AcDbEntity
  8
ZUWAKU
100
AcDbPolyline
 90
        4
 70
     1
 43
0.0
 10
0.3000002654082436
 20
275.4999995475527
 10
0.3000002654082436
 20
0.2999995475526589
 10
398.5000002654084
 20
0.299999547552682
 10
398.5000002654082
 20
275.4999995475527
  0
LWPOLYLINE
  5
69D
330
1A
100
AcDbEntity
  8
ZUWAKU
100
AcDbPolyline
 90
        4
 70
     1
 43
0.0
 10
0.0000002654082891
 20
275.7999995475526
 10
0.0000002654082891
 20
-0.0000004524473525
 10
398.8000002654083
 20
-0.0000004524473187
 10
398.8000002654083
 20
275.7999995475527
  0
LWPOLYLINE
  5
69E
330
1A
100
AcDbEntity
  8
ZUWAKU
100
AcDbPolyline
 90
        4
 70
     1
 43
0.0
 10
0.2000002654082777
 20
275.5999995475526
 10
0.2000002654082777
 20
0.199999547552693
 10
398.6000002654083
 20
0.1999995475526814
 10
398.6000002654083
 20
275.5999995475526
  0
LWPOLYLINE
  5
69F
330
1A
100
AcDbEntity
  8
ZUWAKU
100
AcDbPolyline
 90
        4
 70
     1
 43
0.0
 10
0.4000002654082664
 20
275.3999995475526
 10
0.4000002654082664
 20
0.3999995475526816
 10
398.4000002654082
 20
0.3999995475526816
 10
398.4000002654082
 20
275.3999995475526
  0
TEXT
  5
6A1
330
1A
100
AcDbEntity
  8
MOJI
100
AcDbText
 10
43.42708221406757
 20
5.736109995295066
 30
0.0
 40
3.0
  1
ユニシェイプ
 41
0.9
  7
ｽﾀｲﾙ1
100
AcDbText
  0
INSERT
  5
6A2
330
1A
100
AcDbEntity
  8
ZUWAKU
  6
Continuous
100
AcDbBlockReference
  2
*X10
 10
0.0
 20
0.0
 30
0.0
1001
ACAD
1000
HATCH
1002
{
1070
    19
1000
ANSI37
1040
0.1
1040
0.0
1000
R14_HATCH_DATA
1000
6A2
1011
1.0
1021
0.0
1031
0.0
1011
0.0
1021
1.0
1031
0.0
1011
0.0
1021
0.0
1031
1.0
1040
0.0
1010
0.0
1020
0.0
1030
1.0
1000
ANSI37
1070
     0
1070
     0
1071
        8
1071
        7
1070
     1
1070
     1
1071
       24
1040
7.251131595968214
1040
8.822423788044437
1040
-0.1989123673796348
1040
7.046106342798847
1040
9.317398534874961
1040
0.0
1040
7.046106342798847
1040
9.962499547552653
1040
-0.4142135623730912
1040
7.308606342798833
1040
10.22499954755264
1040
0.0
1040
8.796106342798786
1040
10.22499954755264
1040
0.4142135623731546
1040
9.058606342798839
1040
10.48749954755264
1040
0.0
1040
9.058606342798839
1040
11.36249954755265
1040
0.4142135623731586
1040
8.796106342798786
1040
11.62499954755264
1040
0.0
1040
7.046106342798847
1040
11.62499954755264
1040
0.4142135623730928
1040
5.646106342798869
1040
10.22499954755266
1040
0.0
1040
5.646106342798869
1040
9.317398534875025
1040
0.1989123673796619
1040
6.261182102307083
1040
7.832474294383222
1040
0.0
1040
7.716081089629422
1040
6.377575307060895
1040
-0.1989123673796613
1040
7.921106342798847
1040
5.8826005602303
1040
0.0
1040
7.921106342798847
1040
5.237499547552642
1040
-0.4142135623730911
1040
7.658606342798859
1040
4.974999547552648
1040
0.0
1040
6.171106342798903
1040
4.974999547552648
1040
0.4142135623731526
1040
5.908606342798859
1040
4.712499547552653
1040
0.0
1040
5.908606342798859
1040
3.837499547552642
1040
0.4142135623731526
1040
6.171106342798903
1040
3.574999547552648
1040
0.0
1040
7.921106342798847
1040
3.574999547552648
1040
0.4142135623731046
1040
9.321106342798886
1040
4.974999547552637
1040
0.0
1040
9.321106342798886
1040
5.882600560230272
1040
0.1989123673796604
1040
8.706030583290607
1040
7.367524800722041
1040
0.0
1071
        0
1071
        7
1070
     1
1070
     1
1071
       16
1040
11.77110634279886
1040
9.524999547552653
1040
-0.4142135623730935
1040
12.47110634279886
1040
10.22499954755264
1040
0.0
1040
13.43360634279884
1040
10.22499954755264
1040
0.4142135623731546
1040
13.69610634279888
1040
10.48749954755264
1040
0.0
1040
13.69610634279888
1040
11.36249954755265
1040
0.4142135623730951
1040
13.43360634279889
1040
11.62499954755264
1040
0.0
1040
12.4711063427988
1040
11.62499954755262
1040
0.4142135623730894
1040
10.37110634279883
1040
9.524999547552615
1040
0.0
1040
10.37110634279883
1040
5.67499954755266
1040
0.4142135623730969
1040
12.47110634279886
1040
3.574999547552648
1040
0.0
1040
13.43360634279884
1040
3.574999547552648
1040
0.4142135623731526
1040
13.69610634279888
1040
3.837499547552642
1040
0.0
1040
13.69610634279888
1040
4.712499547552653
1040
0.4142135623730891
1040
13.43360634279889
1040
4.974999547552648
1040
0.0
1040
12.47110634279886
1040
4.974999547552648
1040
-0.4142135623730928
1040
11.77110634279886
1040
5.674999547552642
1040
0.0
1071
        0
1071
        7
1070
     1
1070
     1
1071
        2
1040
12.12110634279884
1040
7.599999547552643
1040
1.0
1040
13.87110634279884
1040
7.599999547552643
1040
1.0
1071
        0
1071
        7
1070
     1
1070
     1
1071
       26
1040
18.65742958388784
1040
9.602523144334359
1040
0.0
1040
19.18824940045675
1040
11.28345256346915
1040
0.5069206636600134
1040
18.93793395085907
1040
11.62499954755264
1040
0.0
1040
18.08848926105445
1040
11.62499954755264
1040
0.3272098845218764
1040
17.83817381145678
1040
11.44154653163613
1040
0.0
1040
16.90403887414088
1040
8.483452563469183
1040
-0.3272098845219541
1040
16.65372342454315
1040
8.299999547552646
1040
0.0
1040
16.58360634279893
1040
8.299999547552646
1040
-0.4142135623731526
1040
16.32110634279888
1040
8.562499547552638
1040
0.0
1040
16.32110634279888
1040
11.36249954755265
1040
0.4142135623730951
1040
16.05860634279889
1040
11.62499954755264
1040
0.0
1040
15.18360634279883
1040
11.62499954755264
1040
0.4142135623730871
1040
14.92110634279885
1040
11.36249954755265
1040
0.0
1040
14.92110634279885
1040
3.837499547552642
1040
0.4142135623730891
1040
15.18360634279883
1040
3.574999547552648
1040
0.0
1040
16.05860634279884
1040
3.574999547552648
1040
0.4142135623731526
1040
16.32110634279888
1040
3.837499547552642
1040
0.0
1040
16.32110634279888
1040
6.63749954755265
1040
-0.4142135623731526
1040
16.58360634279893
1040
6.899999547552646
1040
0.0
1040
16.65372342454321
1040
6.899999547552646
1040
-0.3272098845218915
1040
16.90403887414088
1040
6.716546531636112
1040
0.0
1040
17.83817381145678
1040
3.758452563469185
1040
0.3272098845218902
1040
18.08848926105445
1040
3.574999547552648
1040
0.0
1040
18.93793395085907
1040
3.574999547552648
1040
0.5069206636600337
1040
19.18824940045675
1040
3.916546531636154
1040
0.0
1040
18.02505371121992
1040
7.599999547552715
1040
0.0
1071
        0
1071
        7
1070
     1
1070
     1
1071
        8
1040
21.74610634279883
1040
11.36249954755265
1040
0.4142135623731546
1040
21.48360634279879
1040
11.62499954755264
1040
0.0
1040
20.60860634279891
1040
11.62499954755264
1040
0.4142135623731507
1040
20.34610634279885
1040
11.36249954755265
1040
0.0
1040
20.34610634279885
1040
3.837499547552642
1040
0.4142135623731526
1040
20.60860634279891
1040
3.574999547552648
1040
0.0
1040
21.48360634279879
1040
3.574999547552648
1040
0.4142135623731526
1040
21.74610634279883
1040
3.837499547552642
1040
0.0
1071
        0
1071
        7
1070
     1
1070
     1
1071
       24
1040
24.19610634279888
1040
9.962499547552653
1040
-0.4142135623731546
1040
24.45860634279893
1040
10.22499954755264
1040
0.0
1040
25.94610634279888
1040
10.22499954755264
1040
0.4142135623730911
1040
26.20860634279888
1040
10.48749954755264
1040
0.0
1040
26.20860634279888
1040
11.36249954755265
1040
0.4142135623730952
1040
25.94610634279888
1040
11.62499954755264
1040
0.0
1040
24.19610634279888
1040
11.62499954755264
1040
0.4142135623731048
1040
22.79610634279884
1040
10.22499954755266
1040
0.0
1040
22.79610634279884
1040
9.317398534875025
1040
0.1989123673796613
1040
23.41118210230712
1040
7.83247429438325
1040
0.0
1040
24.86608108962945
1040
6.377575307060917
1040
-0.1989123673796402
1040
25.07110634279888
1040
5.88260056023038
1040
0.0
1040
25.07110634279888
1040
5.237499547552642
1040
-0.4142135623730911
1040
24.80860634279889
1040
4.974999547552648
1040
0.0
1040
23.32110634279888
1040
4.974999547552648
1040
0.4142135623731526
1040
23.05860634279884
1040
4.712499547552653
1040
0.0
1040
23.05860634279884
1040
3.837499547552642
1040
0.4142135623730891
1040
23.32110634279882
1040
3.574999547552648
1040
0.0
1040
25.07110634279888
1040
3.574999547552648
1040
0.4142135623730925
1040
26.47110634279886
1040
4.974999547552637
1040
0.0
1040
26.47110634279886
1040
5.882600560230272
1040
0.1989123673796675
1040
25.85603058329059
1040
7.367524800722102
1040
0.0
1040
24.4011315959683
1040
8.822423788044357
1040
-0.1989123673796652
1040
24.19610634279888
1040
9.317398534874939
1040
0.0
1071
        0
1071
        7
1070
     1
1070
     1
1071
       16
1040
28.92110634279886
1040
11.36249954755264
1040
0.414213562373103
1040
28.65860634279886
1040
11.62499954755264
1040
0.0
1040
27.78360634279886
1040
11.62499954755264
1040
0.4142135623730871
1040
27.52110634279887
1040
11.36249954755265
1040
0.0
1040
27.52110634279887
1040
4.974999547552637
1040
0.4142135623730927
1040
28.92110634279886
1040
3.574999547552648
1040
0.0
1040
30.67110634279885
1040
3.574999547552648
1040
0.4142135623731046
1040
32.07110634279888
1040
4.974999547552637
1040
0.0
1040
32.07110634279888
1040
11.36249954755265
1040
0.4142135623730951
1040
31.80860634279889
1040
11.62499954755264
1040
0.0
1040
30.93360634279884
1040
11.62499954755264
1040
0.4142135623730871
1040
30.67110634279885
1040
11.36249954755265
1040
0.0
1040
30.67110634279885
1040
5.499999547552634
1040
-0.4142135623730879
1040
30.14610634279887
1040
4.974999547552648
1040
0.0
1040
29.44610634279888
1040
4.974999547552648
1040
-0.4142135623731197
1040
28.92110634279886
1040
5.499999547552634
1040
0.0
1071
        0
1071
        7
1070
     1
1070
     1
1071
        8
1040
34.52110634279887
1040
11.36249954755265
1040
0.4142135623730871
1040
34.25860634279888
1040
11.62499954755264
1040
0.0
1040
33.38360634279888
1040
11.62499954755264
1040
0.4142135623731507
1040
33.12110634279884
1040
11.36249954755265
1040
0.0
1040
33.12110634279884
1040
3.837499547552642
1040
0.4142135623730891
1040
33.38360634279883
1040
3.574999547552648
1040
0.0
1040
34.25860634279888
1040
3.574999547552648
1040
0.4142135623730891
1040
34.52110634279887
1040
3.837499547552642
1040
0.0
1071
        0
1070
     0
1070
     1
1040
0.0
1040
0.1
1070
     0
1070
     2
1040
0.7853981633974483
1040
-450.4711519019311
1040
-6.600000452447313
1040
-0.2245064030267288
1040
0.2245064030267288
1070
     0
1040
2.356194490192344
1040
-450.4711519019311
1040
-6.600000452447313
1040
-0.2245064030267288
1040
-0.2245064030267288
1070
     0
1040
0.057451373970553
1071
        8
1040
8.039927746919937
1040
7.58358637049542
1040
0.0
1040
11.20225776862787
1040
9.422030638778151
1040
0.0
1040
12.58218420823811
1040
7.755940370588005
1040
0.0
1040
15.45703025622685
1040
8.100648370773393
1040
0.0
1040
20.91923627488665
1040
8.330454504544205
1040
0.0
1040
23.44910071297306
1040
9.709287705756251
1040
0.0
1040
28.27884325160847
1040
9.364578505100151
1040
0.0
1040
33.91354007521965
1040
9.594384638870961
1040
0.0
1002
}
  0
LINE
  5
6A3
330
1A
100
AcDbEntity
  8
ZUWAKU
100
AcDbLine
 10
12.47110634279886
 20
11.62499954755262
 30
0.0
 11
13.43360634279884
 21
11.62499954755264
 31
0.0
  0
LINE
  5
6A4
330
1A
100
AcDbEntity
  8
ZUWAKU
100
AcDbLine
 10
13.43360634279884
 20
10.22499954755264
 30
0.0
 11
12.47110634279886
 21
10.22499954755264
 31
0.0
  0
LINE
  5
6A5
330
1A
100
AcDbEntity
  8
ZUWAKU
100
AcDbLine
 10
12.47110634279886
 20
4.974999547552648
 30
0.0
 11
13.43360634279884
 21
4.974999547552648
 31
0.0
  0
LINE
  5
6A6
330
1A
100
AcDbEntity
  8
ZUWAKU
100
AcDbLine
 10
13.43360634279884
 20
3.574999547552648
 30
0.0
 11
12.47110634279886
 21
3.574999547552648
 31
0.0
  0
CIRCLE
  5
6A7
330
1A
100
AcDbEntity
  8
ZUWAKU
100
AcDbCircle
 10
12.99610634279883
 20
7.599999547552643
 30
0.0
 40
0.875
  0
ARC
  5
6A8
330
1A
100
AcDbEntity
  8
ZUWAKU
100
AcDbCircle
 10
7.746106342798838
 20
9.317398534874993
 30
0.0
 40
0.6999999999999995
100
AcDbArc
 50
180.0000000000015
 51
224.9999999999988
  0
LINE
  5
6A9
330
1A
100
AcDbEntity
  8
ZUWAKU
100
AcDbLine
 10
11.77110634279886
 20
9.524999547552646
 30
0.0
 11
11.77110634279886
 21
5.67499954755265
 31
0.0
  0
LINE
  5
6AA
330
1A
100
AcDbEntity
  8
ZUWAKU
100
AcDbLine
 10
10.37110634279883
 20
5.67499954755265
 30
0.0
 11
10.37110634279883
 21
9.524999547552626
 31
0.0
  0
ARC
  5
6AB
330
1A
100
AcDbEntity
  8
ZUWAKU
100
AcDbCircle
 10
7.746106342798838
 20
9.317398534874993
 30
0.0
 40
2.099999999999999
100
AcDbArc
 50
180.0
 51
225.0
  0
ARC
  5
6AC
330
1A
100
AcDbEntity
  8
ZUWAKU
100
AcDbCircle
 10
7.921106342798847
 20
4.974999547552648
 30
0.0
 40
1.399999999999999
100
AcDbArc
 50
270.0
 51
0.0
  0
ARC
  5
6AD
330
1A
100
AcDbEntity
  8
ZUWAKU
100
AcDbCircle
 10
12.47110634279886
 20
5.67499954755265
 30
0.0
 40
2.099999999999999
100
AcDbArc
 50
180.0
 51
270.0
  0
ARC
  5
6AE
330
1A
100
AcDbEntity
  8
ZUWAKU
100
AcDbCircle
 10
7.221106342798859
 20
5.8826005602303
 30
0.0
 40
2.099999999999999
100
AcDbArc
 50
0.0
 51
45.0
  0
LINE
  5
6AF
330
1A
100
AcDbEntity
  8
ZUWAKU
100
AcDbLine
 10
8.706030583290607
 20
7.367524800722058
 30
0.0
 11
7.251131595968269
 21
8.822423788044396
 31
0.0
  0
LINE
  5
6B0
330
1A
100
AcDbEntity
  8
ZUWAKU
100
AcDbLine
 10
7.921106342798847
 20
5.23749954755265
 30
0.0
 11
7.921106342798847
 21
5.88260056023032
 31
0.0
  0
ARC
  5
6B1
330
1A
100
AcDbEntity
  8
ZUWAKU
100
AcDbCircle
 10
7.658606342798859
 20
5.23749954755265
 30
0.0
 40
0.2625
100
AcDbArc
 50
270.0
 51
0.0
  0
ARC
  5
6B2
330
1A
100
AcDbEntity
  8
ZUWAKU
100
AcDbCircle
 10
7.221106342798859
 20
5.88260056023032
 30
0.0
 40
0.6999999999999995
100
AcDbArc
 50
0.0
 51
45.0
  0
LINE
  5
6B3
330
1A
100
AcDbEntity
  8
ZUWAKU
100
AcDbLine
 10
5.908606342798859
 20
3.837499547552648
 30
0.0
 11
5.908606342798859
 21
4.712499547552647
 31
0.0
  0
ARC
  5
6B4
330
1A
100
AcDbEntity
  8
ZUWAKU
100
AcDbCircle
 10
6.171106342798847
 20
3.837499547552648
 30
0.0
 40
0.2625
100
AcDbArc
 50
180.0
 51
270.0
  0
ARC
  5
6B5
330
1A
100
AcDbEntity
  8
ZUWAKU
100
AcDbCircle
 10
6.171106342798847
 20
4.712499547552647
 30
0.0
 40
0.2625
100
AcDbArc
 50
90.0
 51
180.0
  0
LINE
  5
6B6
330
1A
100
AcDbEntity
  8
ZUWAKU
100
AcDbLine
 10
6.171106342798847
 20
3.574999547552648
 30
0.0
 11
7.921106342798847
 21
3.574999547552648
 31
0.0
  0
LINE
  5
6B7
330
1A
100
AcDbEntity
  8
ZUWAKU
100
AcDbLine
 10
6.171106342798847
 20
4.974999547552648
 30
0.0
 11
7.658606342798859
 21
4.974999547552648
 31
0.0
  0
LINE
  5
6B8
330
1A
100
AcDbEntity
  8
ZUWAKU
100
AcDbLine
 10
6.261182102307083
 20
7.832474294383234
 30
0.0
 11
7.716081089629422
 21
6.377575307060905
 31
0.0
  0
LINE
  5
6B9
330
1A
100
AcDbEntity
  8
ZUWAKU
100
AcDbLine
 10
9.321106342798886
 20
4.974999547552648
 30
0.0
 11
9.321106342798886
 21
5.88260056023032
 31
0.0
  0
ARC
  5
6BA
330
1A
100
AcDbEntity
  8
ZUWAKU
100
AcDbCircle
 10
12.47110634279886
 20
5.67499954755265
 30
0.0
 40
0.6999999999999995
100
AcDbArc
 50
180.0
 51
270.0
  0
ARC
  5
6BB
330
1A
100
AcDbEntity
  8
ZUWAKU
100
AcDbCircle
 10
8.796106342798848
 20
11.36249954755264
 30
0.0
 40
0.2625
100
AcDbArc
 50
0.0
 51
90.0
  0
ARC
  5
6BC
330
1A
100
AcDbEntity
  8
ZUWAKU
100
AcDbCircle
 10
8.796106342798848
 20
10.48749954755264
 30
0.0
 40
0.2625
100
AcDbArc
 50
270.0
 51
0.0
  0
LINE
  5
6BD
330
1A
100
AcDbEntity
  8
ZUWAKU
100
AcDbLine
 10
7.046106342798847
 20
11.62499954755264
 30
0.0
 11
8.796106342798848
 21
11.62499954755264
 31
0.0
  0
ARC
  5
6BE
330
1A
100
AcDbEntity
  8
ZUWAKU
100
AcDbCircle
 10
7.308606342798833
 20
9.962499547552646
 30
0.0
 40
0.2625
100
AcDbArc
 50
90.0
 51
180.0
  0
LINE
  5
6BF
330
1A
100
AcDbEntity
  8
ZUWAKU
100
AcDbLine
 10
7.046106342798847
 20
9.962499547552646
 30
0.0
 11
7.046106342798847
 21
9.317398534874977
 31
0.0
  0
LINE
  5
6C0
330
1A
100
AcDbEntity
  8
ZUWAKU
100
AcDbLine
 10
8.796106342798848
 20
10.22499954755264
 30
0.0
 11
7.308606342798833
 21
10.22499954755264
 31
0.0
  0
LINE
  5
6C1
330
1A
100
AcDbEntity
  8
ZUWAKU
100
AcDbLine
 10
5.646106342798869
 20
10.22499954755264
 30
0.0
 11
5.646106342798869
 21
9.317398534874977
 31
0.0
  0
ARC
  5
6C2
330
1A
100
AcDbEntity
  8
ZUWAKU
100
AcDbCircle
 10
7.046106342798847
 20
10.22499954755264
 30
0.0
 40
1.399999999999999
100
AcDbArc
 50
90.0
 51
180.0
  0
LINE
  5
6C3
330
1A
100
AcDbEntity
  8
ZUWAKU
100
AcDbLine
 10
9.058606342798839
 20
11.36249954755264
 30
0.0
 11
9.058606342798839
 21
10.48749954755264
 31
0.0
  0
ARC
  5
6C4
330
1A
100
AcDbEntity
  8
ZUWAKU
100
AcDbCircle
 10
12.47110634279886
 20
9.524999547552646
 30
0.0
 40
0.6999999999999995
100
AcDbArc
 50
90.0
 51
180.0
  0
ARC
  5
6C5
330
1A
100
AcDbEntity
  8
ZUWAKU
100
AcDbCircle
 10
12.47110634279886
 20
9.524999547552626
 30
0.0
 40
2.099999999999999
100
AcDbArc
 50
90.0
 51
180.0
  0
LINE
  5
6C6
330
1A
100
AcDbEntity
  8
ZUWAKU
100
AcDbLine
 10
39.66331503940239
 20
14.99999954755264
 30
0.0
 11
39.6633150394025
 21
0.3999995475526816
 31
0.0
  0
LINE
  5
6C7
330
1A
100
AcDbEntity
  8
ZUWAKU
100
AcDbLine
 10
39.76331503940241
 20
14.99999954755264
 30
0.0
 11
39.76331503940252
 21
0.3999995475526816
 31
0.0
  0
LINE
  5
6C8
330
1A
100
AcDbEntity
  8
ZUWAKU
100
AcDbLine
 10
39.56331503940248
 20
14.99999954755264
 30
0.0
 11
39.56331503940248
 21
0.3999995475526816
 31
0.0
  0
LINE
  5
6C9
330
1A
100
AcDbEntity
  8
ZUWAKU
100
AcDbLine
 10
32.07110634279888
 20
4.974999547552648
 30
0.0
 11
32.07110634279888
 21
11.36249954755264
 31
0.0
  0
LINE
  5
6CA
330
1A
100
AcDbEntity
  8
ZUWAKU
100
AcDbLine
 10
30.67110634279885
 20
11.36249954755264
 30
0.0
 11
30.67110634279885
 21
5.499999547552643
 31
0.0
  0
LINE
  5
6CB
330
1A
100
AcDbEntity
  8
ZUWAKU
100
AcDbLine
 10
34.52110634279887
 20
3.837499547552648
 30
0.0
 11
34.52110634279887
 21
11.36249954755264
 31
0.0
  0
LINE
  5
6CC
330
1A
100
AcDbEntity
  8
ZUWAKU
100
AcDbLine
 10
33.12110634279884
 20
11.36249954755264
 30
0.0
 11
33.12110634279884
 21
3.837499547552648
 31
0.0
  0
ARC
  5
6CD
330
1A
100
AcDbEntity
  8
ZUWAKU
100
AcDbCircle
 10
24.89610634279888
 20
9.317398534874993
 30
0.0
 40
0.6999999999999995
100
AcDbArc
 50
180.0000000000015
 51
224.9999999999988
  0
ARC
  5
6CE
330
1A
100
AcDbEntity
  8
ZUWAKU
100
AcDbCircle
 10
24.89610634279888
 20
9.317398534874993
 30
0.0
 40
2.099999999999999
100
AcDbArc
 50
180.0
 51
225.0
  0
LINE
  5
6CF
330
1A
100
AcDbEntity
  8
ZUWAKU
100
AcDbLine
 10
18.65742958388784
 20
9.602523144334359
 30
0.0
 11
18.02505371121992
 21
7.599999547552655
 31
0.0
  0
LINE
  5
6D0
330
1A
100
AcDbEntity
  8
ZUWAKU
100
AcDbLine
 10
20.34610634279885
 20
11.36249954755264
 30
0.0
 11
20.34610634279885
 21
3.837499547552648
 31
0.0
  0
LINE
  5
6D1
330
1A
100
AcDbEntity
  8
ZUWAKU
100
AcDbLine
 10
21.74610634279883
 20
3.837499547552648
 30
0.0
 11
21.74610634279883
 21
11.36249954755264
 31
0.0
  0
LINE
  5
6D2
330
1A
100
AcDbEntity
  8
ZUWAKU
100
AcDbLine
 10
27.52110634279887
 20
11.36249954755264
 30
0.0
 11
27.52110634279887
 21
4.974999547552648
 31
0.0
  0
LINE
  5
6D3
330
1A
100
AcDbEntity
  8
ZUWAKU
100
AcDbLine
 10
28.92110634279886
 20
5.499999547552643
 30
0.0
 11
28.92110634279886
 21
11.36249954755264
 31
0.0
  0
LINE
  5
6D4
330
1A
100
AcDbEntity
  8
ZUWAKU
100
AcDbLine
 10
16.32110634279888
 20
8.562499547552651
 30
0.0
 11
16.32110634279888
 21
11.36249954755264
 31
0.0
  0
LINE
  5
6D5
330
1A
100
AcDbEntity
  8
ZUWAKU
100
AcDbLine
 10
14.92110634279885
 20
11.36249954755264
 30
0.0
 11
14.92110634279885
 21
3.837499547552648
 31
0.0
  0
LINE
  5
6D6
330
1A
100
AcDbEntity
  8
ZUWAKU
100
AcDbLine
 10
17.83817381145678
 20
11.44154653163613
 30
0.0
 11
16.90403887414088
 21
8.483452563469159
 31
0.0
  0
LINE
  5
6D7
330
1A
100
AcDbEntity
  8
ZUWAKU
100
AcDbLine
 10
30.14610634279887
 20
4.974999547552648
 30
0.0
 11
29.44610634279888
 21
4.974999547552648
 31
0.0
  0
LINE
  5
6D8
330
1A
100
AcDbEntity
  8
ZUWAKU
100
AcDbLine
 10
28.92110634279886
 20
3.574999547552648
 30
0.0
 11
30.67110634279885
 21
3.574999547552648
 31
0.0
  0
LINE
  5
6D9
330
1A
100
AcDbEntity
  8
ZUWAKU
100
AcDbLine
 10
20.60860634279884
 20
3.574999547552648
 30
0.0
 11
21.48360634279885
 21
3.574999547552648
 31
0.0
  0
LINE
  5
6DA
330
1A
100
AcDbEntity
  8
ZUWAKU
100
AcDbLine
 10
17.83817381145678
 20
3.758452563469162
 30
0.0
 11
16.90403887414088
 21
6.71654653163613
 31
0.0
  0
ARC
  5
6DB
330
1A
100
AcDbEntity
  8
ZUWAKU
100
AcDbCircle
 10
16.65372342454321
 20
8.562499547552651
 30
0.0
 40
0.2625
100
AcDbArc
 50
270.0
 51
342.474431626277
  0
LINE
  5
6DC
330
1A
100
AcDbEntity
  8
ZUWAKU
100
AcDbLine
 10
16.65372342454321
 20
8.299999547552646
 30
0.0
 11
16.58360634279887
 21
8.299999547552646
 31
0.0
  0
LINE
  5
6DD
330
1A
100
AcDbEntity
  8
ZUWAKU
100
AcDbLine
 10
16.58360634279887
 20
6.899999547552646
 30
0.0
 11
16.65372342454321
 21
6.899999547552646
 31
0.0
  0
ARC
  5
6DE
330
1A
100
AcDbEntity
  8
ZUWAKU
100
AcDbCircle
 10
16.58360634279887
 20
8.562499547552651
 30
0.0
 40
0.2625
100
AcDbArc
 50
180.0
 51
270.0
  0
LINE
  5
6DF
330
1A
100
AcDbEntity
  8
ZUWAKU
100
AcDbLine
 10
15.18360634279883
 20
3.574999547552648
 30
0.0
 11
16.05860634279884
 21
3.574999547552648
 31
0.0
  0
ARC
  5
6E0
330
1A
100
AcDbEntity
  8
ZUWAKU
100
AcDbCircle
 10
16.05860634279884
 20
3.837499547552648
 30
0.0
 40
0.2625
100
AcDbArc
 50
270.0
 51
0.0
  0
LINE
  5
6E1
330
1A
100
AcDbEntity
  8
ZUWAKU
100
AcDbLine
 10
16.32110634279888
 20
3.837499547552648
 30
0.0
 11
16.32110634279888
 21
6.637499547552644
 31
0.0
  0
LINE
  5
6E2
330
1A
100
AcDbEntity
  8
ZUWAKU
100
AcDbLine
 10
13.69610634279888
 20
4.712499547552647
 30
0.0
 11
13.69610634279888
 21
3.837499547552648
 31
0.0
  0
ARC
  5
6E3
330
1A
100
AcDbEntity
  8
ZUWAKU
100
AcDbCircle
 10
13.43360634279884
 20
3.837499547552648
 30
0.0
 40
0.2625
100
AcDbArc
 50
270.0
 51
0.0
  0
ARC
  5
6E4
330
1A
100
AcDbEntity
  8
ZUWAKU
100
AcDbCircle
 10
13.43360634279884
 20
4.712499547552647
 30
0.0
 40
0.2625
100
AcDbArc
 50
0.0
 51
90.0
  0
ARC
  5
6E5
330
1A
100
AcDbEntity
  8
ZUWAKU
100
AcDbCircle
 10
15.18360634279883
 20
3.837499547552648
 30
0.0
 40
0.2625
100
AcDbArc
 50
180.0
 51
270.0
  0
ARC
  5
6E6
330
1A
100
AcDbEntity
  8
ZUWAKU
100
AcDbCircle
 10
16.65372342454321
 20
6.637499547552644
 30
0.0
 40
0.2625
100
AcDbArc
 50
17.52556837372303
 51
90.0
  0
ARC
  5
6E7
330
1A
100
AcDbEntity
  8
ZUWAKU
100
AcDbCircle
 10
16.58360634279887
 20
6.637499547552644
 30
0.0
 40
0.2625
100
AcDbArc
 50
90.0
 51
180.0
  0
ARC
  5
6E8
330
1A
100
AcDbEntity
  8
ZUWAKU
100
AcDbCircle
 10
20.60860634279884
 20
3.837499547552648
 30
0.0
 40
0.2625
100
AcDbArc
 50
180.0
 51
270.0
  0
LINE
  5
6E9
330
1A
100
AcDbEntity
  8
ZUWAKU
100
AcDbLine
 10
18.08848926105451
 20
3.574999547552648
 30
0.0
 11
18.93793395085902
 21
3.574999547552648
 31
0.0
  0
ARC
  5
6EA
330
1A
100
AcDbEntity
  8
ZUWAKU
100
AcDbCircle
 10
18.93793395085902
 20
3.837499547552648
 30
0.0
 40
0.2625
100
AcDbArc
 50
270.0
 51
17.52556837372303
  0
LINE
  5
6EB
330
1A
100
AcDbEntity
  8
ZUWAKU
100
AcDbLine
 10
19.18824940045675
 20
3.916546531636136
 30
0.0
 11
18.02505371121992
 21
7.599999547552655
 31
0.0
  0
ARC
  5
6EC
330
1A
100
AcDbEntity
  8
ZUWAKU
100
AcDbCircle
 10
18.08848926105451
 20
3.837499547552648
 30
0.0
 40
0.2625
100
AcDbArc
 50
197.5255683737229
 51
270.0
  0
ARC
  5
6ED
330
1A
100
AcDbEntity
  8
ZUWAKU
100
AcDbCircle
 10
28.92110634279886
 20
4.974999547552648
 30
0.0
 40
1.399999999999999
100
AcDbArc
 50
180.0
 51
270.0
  0
ARC
  5
6EE
330
1A
100
AcDbEntity
  8
ZUWAKU
100
AcDbCircle
 10
25.07110634279888
 20
4.974999547552648
 30
0.0
 40
1.399999999999999
100
AcDbArc
 50
270.0
 51
0.0
  0
LINE
  5
6EF
330
1A
100
AcDbEntity
  8
ZUWAKU
100
AcDbLine
 10
25.85603058329064
 20
7.367524800722058
 30
0.0
 11
24.40113159596825
 21
8.822423788044396
 31
0.0
  0
LINE
  5
6F0
330
1A
100
AcDbEntity
  8
ZUWAKU
100
AcDbLine
 10
25.07110634279888
 20
5.23749954755265
 30
0.0
 11
25.07110634279888
 21
5.88260056023032
 31
0.0
  0
ARC
  5
6F1
330
1A
100
AcDbEntity
  8
ZUWAKU
100
AcDbCircle
 10
24.37110634279884
 20
5.88260056023032
 30
0.0
 40
0.6999999999999995
100
AcDbArc
 50
0.0
 51
45.0
  0
ARC
  5
6F2
330
1A
100
AcDbEntity
  8
ZUWAKU
100
AcDbCircle
 10
24.80860634279884
 20
5.23749954755265
 30
0.0
 40
0.2625
100
AcDbArc
 50
270.0
 51
0.0
  0
LINE
  5
6F3
330
1A
100
AcDbEntity
  8
ZUWAKU
100
AcDbLine
 10
23.05860634279884
 20
3.837499547552648
 30
0.0
 11
23.05860634279884
 21
4.712499547552647
 31
0.0
  0
ARC
  5
6F4
330
1A
100
AcDbEntity
  8
ZUWAKU
100
AcDbCircle
 10
23.32110634279888
 20
3.837499547552648
 30
0.0
 40
0.2625
100
AcDbArc
 50
180.0
 51
270.0
  0
ARC
  5
6F5
330
1A
100
AcDbEntity
  8
ZUWAKU
100
AcDbCircle
 10
21.48360634279885
 20
3.837499547552648
 30
0.0
 40
0.2625
100
AcDbArc
 50
270.0
 51
0.0
  0
ARC
  5
6F6
330
1A
100
AcDbEntity
  8
ZUWAKU
100
AcDbCircle
 10
23.32110634279888
 20
4.712499547552647
 30
0.0
 40
0.2625
100
AcDbArc
 50
90.0
 51
180.0
  0
LINE
  5
6F7
330
1A
100
AcDbEntity
  8
ZUWAKU
100
AcDbLine
 10
23.32110634279888
 20
4.974999547552648
 30
0.0
 11
24.80860634279884
 21
4.974999547552648
 31
0.0
  0
LINE
  5
6F8
330
1A
100
AcDbEntity
  8
ZUWAKU
100
AcDbLine
 10
23.32110634279888
 20
3.574999547552648
 30
0.0
 11
25.07110634279888
 21
3.574999547552648
 31
0.0
  0
LINE
  5
6F9
330
1A
100
AcDbEntity
  8
ZUWAKU
100
AcDbLine
 10
23.41118210230712
 20
7.832474294383234
 30
0.0
 11
24.86608108962945
 21
6.377575307060905
 31
0.0
  0
LINE
  5
6FA
330
1A
100
AcDbEntity
  8
ZUWAKU
100
AcDbLine
 10
26.47110634279886
 20
4.974999547552648
 30
0.0
 11
26.47110634279886
 21
5.88260056023032
 31
0.0
  0
ARC
  5
6FB
330
1A
100
AcDbEntity
  8
ZUWAKU
100
AcDbCircle
 10
24.37110634279884
 20
5.8826005602303
 30
0.0
 40
2.099999999999999
100
AcDbArc
 50
0.0
 51
45.0
  0
ARC
  5
6FC
330
1A
100
AcDbEntity
  8
ZUWAKU
100
AcDbCircle
 10
29.44610634279888
 20
5.499999547552643
 30
0.0
 40
0.5249999999999995
100
AcDbArc
 50
180.0
 51
270.0
  0
ARC
  5
6FD
330
1A
100
AcDbEntity
  8
ZUWAKU
100
AcDbCircle
 10
30.67110634279885
 20
4.974999547552648
 30
0.0
 40
1.399999999999999
100
AcDbArc
 50
270.0
 51
0.0
  0
LINE
  5
6FE
330
1A
100
AcDbEntity
  8
ZUWAKU
100
AcDbLine
 10
33.38360634279888
 20
3.574999547552648
 30
0.0
 11
34.25860634279888
 21
3.574999547552648
 31
0.0
  0
ARC
  5
6FF
330
1A
100
AcDbEntity
  8
ZUWAKU
100
AcDbCircle
 10
33.38360634279888
 20
3.837499547552648
 30
0.0
 40
0.2625
100
AcDbArc
 50
180.0
 51
270.0
  0
ARC
  5
700
330
1A
100
AcDbEntity
  8
ZUWAKU
100
AcDbCircle
 10
30.14610634279887
 20
5.499999547552643
 30
0.0
 40
0.5249999999999995
100
AcDbArc
 50
270.0
 51
0.0
  0
ARC
  5
701
330
1A
100
AcDbEntity
  8
ZUWAKU
100
AcDbCircle
 10
34.25860634279888
 20
3.837499547552648
 30
0.0
 40
0.2625
100
AcDbArc
 50
270.0
 51
0.0
  0
LINE
  5
702
330
1A
100
AcDbEntity
  8
ZUWAKU
100
AcDbLine
 10
21.48360634279885
 20
11.62499954755264
 30
0.0
 11
20.60860634279884
 21
11.62499954755264
 31
0.0
  0
ARC
  5
703
330
1A
100
AcDbEntity
  8
ZUWAKU
100
AcDbCircle
 10
16.05860634279884
 20
11.36249954755264
 30
0.0
 40
0.2625
100
AcDbArc
 50
0.0
 51
90.0
  0
LINE
  5
704
330
1A
100
AcDbEntity
  8
ZUWAKU
100
AcDbLine
 10
16.05860634279884
 20
11.62499954755264
 30
0.0
 11
15.18360634279883
 21
11.62499954755264
 31
0.0
  0
ARC
  5
705
330
1A
100
AcDbEntity
  8
ZUWAKU
100
AcDbCircle
 10
13.43360634279884
 20
11.36249954755264
 30
0.0
 40
0.2625
100
AcDbArc
 50
0.0
 51
90.0
  0
ARC
  5
706
330
1A
100
AcDbEntity
  8
ZUWAKU
100
AcDbCircle
 10
15.18360634279883
 20
11.36249954755264
 30
0.0
 40
0.2625
100
AcDbArc
 50
90.0
 51
180.0
  0
ARC
  5
707
330
1A
100
AcDbEntity
  8
ZUWAKU
100
AcDbCircle
 10
13.43360634279884
 20
10.48749954755264
 30
0.0
 40
0.2625
100
AcDbArc
 50
270.0
 51
0.0
  0
LINE
  5
708
330
1A
100
AcDbEntity
  8
ZUWAKU
100
AcDbLine
 10
13.69610634279888
 20
11.36249954755264
 30
0.0
 11
13.69610634279888
 21
10.48749954755264
 31
0.0
  0
ARC
  5
709
330
1A
100
AcDbEntity
  8
ZUWAKU
100
AcDbCircle
 10
20.60860634279884
 20
11.36249954755264
 30
0.0
 40
0.2625
100
AcDbArc
 50
90.0
 51
180.0
  0
LINE
  5
70A
330
1A
100
AcDbEntity
  8
ZUWAKU
100
AcDbLine
 10
18.08848926105451
 20
11.62499954755264
 30
0.0
 11
18.93793395085902
 21
11.62499954755264
 31
0.0
  0
ARC
  5
70B
330
1A
100
AcDbEntity
  8
ZUWAKU
100
AcDbCircle
 10
18.93793395085902
 20
11.36249954755264
 30
0.0
 40
0.2625
100
AcDbArc
 50
342.474431626277
 51
90.0
  0
LINE
  5
70C
330
1A
100
AcDbEntity
  8
ZUWAKU
100
AcDbLine
 10
19.18824940045675
 20
11.28345256346916
 30
0.0
 11
18.65742958388784
 21
9.602523144334359
 31
0.0
  0
ARC
  5
70D
330
1A
100
AcDbEntity
  8
ZUWAKU
100
AcDbCircle
 10
18.08848926105451
 20
11.36249954755264
 30
0.0
 40
0.2625
100
AcDbArc
 50
90.0
 51
162.4744316262769
  0
LINE
  5
70E
330
1A
100
AcDbEntity
  8
ZUWAKU
100
AcDbLine
 10
24.19610634279888
 20
11.62499954755264
 30
0.0
 11
25.94610634279888
 21
11.62499954755264
 31
0.0
  0
LINE
  5
70F
330
1A
100
AcDbEntity
  8
ZUWAKU
100
AcDbLine
 10
25.94610634279888
 20
10.22499954755264
 30
0.0
 11
24.45860634279886
 21
10.22499954755264
 31
0.0
  0
ARC
  5
710
330
1A
100
AcDbEntity
  8
ZUWAKU
100
AcDbCircle
 10
24.45860634279886
 20
9.962499547552646
 30
0.0
 40
0.2625
100
AcDbArc
 50
90.0
 51
180.0
  0
LINE
  5
711
330
1A
100
AcDbEntity
  8
ZUWAKU
100
AcDbLine
 10
24.19610634279888
 20
9.962499547552646
 30
0.0
 11
24.19610634279888
 21
9.317398534874977
 31
0.0
  0
ARC
  5
712
330
1A
100
AcDbEntity
  8
ZUWAKU
100
AcDbCircle
 10
21.48360634279885
 20
11.36249954755264
 30
0.0
 40
0.2625
100
AcDbArc
 50
0.0
 51
90.0
  0
LINE
  5
713
330
1A
100
AcDbEntity
  8
ZUWAKU
100
AcDbLine
 10
22.79610634279884
 20
10.22499954755264
 30
0.0
 11
22.79610634279884
 21
9.317398534874977
 31
0.0
  0
ARC
  5
714
330
1A
100
AcDbEntity
  8
ZUWAKU
100
AcDbCircle
 10
24.19610634279888
 20
10.22499954755264
 30
0.0
 40
1.399999999999999
100
AcDbArc
 50
90.0
 51
180.0
  0
ARC
  5
715
330
1A
100
AcDbEntity
  8
ZUWAKU
100
AcDbCircle
 10
28.65860634279886
 20
11.36249954755264
 30
0.0
 40
0.2625
100
AcDbArc
 50
0.0
 51
90.0
  0
ARC
  5
716
330
1A
100
AcDbEntity
  8
ZUWAKU
100
AcDbCircle
 10
27.78360634279886
 20
11.36249954755264
 30
0.0
 40
0.2625
100
AcDbArc
 50
90.0
 51
180.0
  0
LINE
  5
717
330
1A
100
AcDbEntity
  8
ZUWAKU
100
AcDbLine
 10
28.65860634279886
 20
11.62499954755264
 30
0.0
 11
27.78360634279886
 21
11.62499954755264
 31
0.0
  0
ARC
  5
718
330
1A
100
AcDbEntity
  8
ZUWAKU
100
AcDbCircle
 10
25.94610634279888
 20
11.36249954755264
 30
0.0
 40
0.2625
100
AcDbArc
 50
0.0
 51
90.0
  0
ARC
  5
719
330
1A
100
AcDbEntity
  8
ZUWAKU
100
AcDbCircle
 10
25.94610634279888
 20
10.48749954755264
 30
0.0
 40
0.2625
100
AcDbArc
 50
270.0
 51
0.0
  0
LINE
  5
71A
330
1A
100
AcDbEntity
  8
ZUWAKU
100
AcDbLine
 10
26.20860634279888
 20
11.36249954755264
 30
0.0
 11
26.20860634279888
 21
10.48749954755264
 31
0.0
  0
LINE
  5
71B
330
1A
100
AcDbEntity
  8
ZUWAKU
100
AcDbLine
 10
34.25860634279888
 20
11.62499954755264
 30
0.0
 11
33.38360634279888
 21
11.62499954755264
 31
0.0
  0
ARC
  5
71C
330
1A
100
AcDbEntity
  8
ZUWAKU
100
AcDbCircle
 10
33.38360634279888
 20
11.36249954755264
 30
0.0
 40
0.2625
100
AcDbArc
 50
90.0
 51
180.0
  0
ARC
  5
71D
330
1A
100
AcDbEntity
  8
ZUWAKU
100
AcDbCircle
 10
31.80860634279884
 20
11.36249954755264
 30
0.0
 40
0.2625
100
AcDbArc
 50
0.0
 51
90.0
  0
LINE
  5
71E
330
1A
100
AcDbEntity
  8
ZUWAKU
100
AcDbLine
 10
31.80860634279884
 20
11.62499954755264
 30
0.0
 11
30.93360634279884
 21
11.62499954755264
 31
0.0
  0
ARC
  5
71F
330
1A
100
AcDbEntity
  8
ZUWAKU
100
AcDbCircle
 10
30.93360634279884
 20
11.36249954755264
 30
0.0
 40
0.2625
100
AcDbArc
 50
90.0
 51
180.0
  0
ARC
  5
720
330
1A
100
AcDbEntity
  8
ZUWAKU
100
AcDbCircle
 10
34.25860634279888
 20
11.36249954755264
 30
0.0
 40
0.2625
100
AcDbArc
 50
0.0
 51
90.0
  0
TEXT
  5
721
330
1A
100
AcDbEntity
  8
MOJI
100
AcDbText
 10
119.9136016058337
 20
9.002460076256339
 30
0.0
 40
2.799999999999998
  1
ポーチドレン　
 41
0.9
  7
ｽﾀｲﾙ1
100
AcDbText
  0
LINE
  5
722
330
1A
100
AcDbEntity
  8
ZUWAKU
100
AcDbLine
 10
104.1233009104422
 20
14.99999954755264
 30
0.0
 11
104.1233009104422
 21
0.3999995475526816
 31
0.0
  0
LINE
  5
723
330
1A
100
AcDbEntity
  8
ZUWAKU
100
AcDbLine
 10
104.3233009104421
 20
14.99999954755264
 30
0.0
 11
104.3233009104422
 21
0.3999995475526816
 31
0.0
  0
LINE
  5
724
330
1A
100
AcDbEntity
  8
ZUWAKU
100
AcDbLine
 10
104.2233009104421
 20
14.99999954755264
 30
0.0
 11
104.2233009104422
 21
0.3999995475526816
 31
0.0
  0
TEXT
  5
725
330
1A
100
AcDbEntity
  8
ZUWAKU
100
AcDbText
 10
104.862023421547
 20
4.827677816745455
 30
0.0
 40
2.0
  1
サイズ
 41
0.9
  7
ｽﾀｲﾙ1
100
AcDbText
  0
TEXT
  5
726
330
1A
100
AcDbEntity
  8
MOJI
100
AcDbText
 10
119.9136016058337
 20
1.602460076256358
 30
0.0
 40
2.799999999999998
  1
URT60
 41
0.9
  7
ｽﾀｲﾙ1
100
AcDbText
  0
TEXT
  5
727
330
1A
100
AcDbEntity
  8
ZUWAKU
100
AcDbText
 10
104.8620234215469
 20
12.02767781674543
 30
0.0
 40
2.0
  1
品名
 41
0.9
  7
ｽﾀｲﾙ1
100
AcDbText
  0
LINE
  5
728
330
1A
100
AcDbEntity
  8
ZUWAKU
100
AcDbLine
 10
324.4086015205104
 20
7.59999954755266
 30
0.0
 11
348.6245055396789
 21
7.59999954755266
 31
0.0
  0
LINE
  5
729
330
1A
100
AcDbEntity
  8
ZUWAKU
100
AcDbLine
 10
324.4086015205104
 20
7.699999547552665
 30
0.0
 11
348.6245055396789
 21
7.699999547552661
 31
0.0
  0
LINE
  5
72A
330
1A
100
AcDbEntity
  8
ZUWAKU
100
AcDbLine
 10
324.4086015205104
 20
7.79999954755266
 30
0.0
 11
348.6245055396789
 21
7.79999954755266
 31
0.0
  0
TEXT
  5
72B
330
1A
100
AcDbEntity
  8
ZUWAKU
100
AcDbText
 10
329.1019691090594
 20
9.002460076256339
 30
0.0
 40
2.799999999999998
  1
　　．　　．　　
 41
0.9
  7
ｽﾀｲﾙ1
100
AcDbText
  0
LINE
  5
72C
330
1A
100
AcDbEntity
  8
ZUWAKU
100
AcDbLine
 10
252.5995900144786
 20
7.599999547552665
 30
0.0
 11
276.2634781484645
 21
7.599999547552665
 31
0.0
  0
LINE
  5
72D
330
1A
100
AcDbEntity
  8
ZUWAKU
100
AcDbLine
 10
252.5995900144786
 20
7.699999547552661
 30
0.0
 11
276.2634781484645
 21
7.699999547552661
 31
0.0
  0
LINE
  5
72E
330
1A
100
AcDbEntity
  8
ZUWAKU
100
AcDbLine
 10
252.5995900144786
 20
7.79999954755266
 30
0.0
 11
276.2634781484645
 21
7.79999954755266
 31
0.0
  0
TEXT
  5
72F
330
1A
100
AcDbEntity
  8
MOJI
100
AcDbText
 10
231.6232162609093
 20
5.971308408382636
 30
0.0
 40
2.799999999999998
  1
ＰＨ２８□
 41
0.9
  7
ｽﾀｲﾙ1
100
AcDbText
  0
LINE
  5
730
330
1A
100
AcDbEntity
  8
ZUWAKU
100
AcDbLine
 10
223.8121822509038
 20
14.99999954755264
 30
0.0
 11
223.8121822509039
 21
0.3999995475526816
 31
0.0
  0
LINE
  5
731
330
1A
100
AcDbEntity
  8
ZUWAKU
100
AcDbLine
 10
223.9121822509038
 20
14.99999954755264
 30
0.0
 11
223.912182250904
 21
0.3999995475526816
 31
0.0
  0
LINE
  5
732
330
1A
100
AcDbEntity
  8
ZUWAKU
100
AcDbLine
 10
223.7121822509039
 20
14.99999954755264
 30
0.0
 11
223.7121822509039
 21
0.3999995475526816
 31
0.0
  0
TEXT
  5
733
330
1A
100
AcDbEntity
  8
MOJI
100
AcDbText
 10
264.0204542515647
 20
9.002460076256339
 30
0.0
 40
2.799999999999998
  1
Ａ３
 41
0.9
  7
ｽﾀｲﾙ1
100
AcDbText
  0
LINE
  5
734
330
1A
100
AcDbEntity
  8
ZUWAKU
100
AcDbLine
 10
252.4995900144787
 20
14.99999954755264
 30
0.0
 11
252.4995900144787
 21
0.3999995475526816
 31
0.0
  0
LINE
  5
735
330
1A
100
AcDbEntity
  8
ZUWAKU
100
AcDbLine
 10
252.5995900144786
 20
14.99999954755264
 30
0.0
 11
252.5995900144788
 21
0.3999995475526816
 31
0.0
  0
LINE
  5
736
330
1A
100
AcDbEntity
  8
ZUWAKU
100
AcDbLine
 10
252.3995900144787
 20
14.99999954755264
 30
0.0
 11
252.3995900144787
 21
0.3999995475526816
 31
0.0
  0
TEXT
  5
737
330
1A
100
AcDbEntity
  8
ZUWAKU
100
AcDbText
 10
253.3383125255836
 20
4.827677816745455
 30
0.0
 40
2.0
  1
縮尺
 41
0.9
  7
ｽﾀｲﾙ1
100
AcDbText
  0
TEXT
  5
738
330
1A
100
AcDbEntity
  8
MOJI
100
AcDbText
 10
264.0204542515647
 20
1.602460076256358
 30
0.0
 40
2.799999999999998
  1
１/１
 41
0.9
  7
ｽﾀｲﾙ1
100
AcDbText
  0
TEXT
  5
739
330
1A
100
AcDbEntity
  8
ZUWAKU
100
AcDbText
 10
224.6509047620087
 20
12.02767781674543
 30
0.0
 40
2.0
  1
品番
 41
0.9
  7
ｽﾀｲﾙ1
100
AcDbText
  0
TEXT
  5
73A
330
1A
100
AcDbEntity
  8
ZUWAKU
100
AcDbText
 10
253.3383125255835
 20
12.02767781674543
 30
0.0
 40
2.0
  1
用紙
 41
0.9
  7
ｽﾀｲﾙ1
100
AcDbText
  0
LINE
  5
73B
330
1A
100
AcDbEntity
  8
ZUWAKU
100
AcDbLine
 10
324.3086015205103
 20
14.99999954755264
 30
0.0
 11
324.3086015205105
 21
0.3999995475526816
 31
0.0
  0
LINE
  5
73C
330
1A
100
AcDbEntity
  8
ZUWAKU
100
AcDbLine
 10
324.4086015205104
 20
14.99999954755264
 30
0.0
 11
324.4086015205106
 21
0.3999995475526816
 31
0.0
  0
LINE
  5
73D
330
1A
100
AcDbEntity
  8
ZUWAKU
100
AcDbLine
 10
324.2086015205105
 20
14.99999954755264
 30
0.0
 11
324.2086015205105
 21
0.3999995475526816
 31
0.0
  0
LINE
  5
73E
330
1A
100
AcDbEntity
  8
ZUWAKU
100
AcDbLine
 10
276.3634781484644
 20
14.99999954755264
 30
0.0
 11
276.3634781484644
 21
0.3999995475526816
 31
0.0
  0
LINE
  5
73F
330
1A
100
AcDbEntity
  8
ZUWAKU
100
AcDbLine
 10
276.4634781484644
 20
14.99999954755264
 30
0.0
 11
276.4634781484645
 21
0.3999995475526816
 31
0.0
  0
LINE
  5
740
330
1A
100
AcDbEntity
  8
ZUWAKU
100
AcDbLine
 10
276.2634781484645
 20
14.99999954755264
 30
0.0
 11
276.2634781484645
 21
0.3999995475526816
 31
0.0
  0
TEXT
  5
741
330
1A
100
AcDbEntity
  8
ZUWAKU
100
AcDbText
 10
325.1473240316152
 20
12.02767781674543
 30
0.0
 40
2.0
  1
DATE
 41
0.9
  7
ｽﾀｲﾙ1
100
AcDbText
  0
LINE
  5
742
330
1A
100
AcDbEntity
  8
ZUWAKU
100
AcDbLine
 10
348.6245055396789
 20
14.99999954755264
 30
0.0
 11
348.6245055396789
 21
0.3999995475526816
 31
0.0
  0
LINE
  5
743
330
1A
100
AcDbEntity
  8
ZUWAKU
100
AcDbLine
 10
348.7245055396789
 20
14.99999954755264
 30
0.0
 11
348.7245055396789
 21
0.3999995475526816
 31
0.0
  0
LINE
  5
744
330
1A
100
AcDbEntity
  8
ZUWAKU
100
AcDbLine
 10
348.8245055396788
 20
14.99999954755264
 30
0.0
 11
348.8245055396788
 21
0.3999995475526816
 31
0.0
  0
LINE
  5
745
330
1A
100
AcDbEntity
  8
ZUWAKU
100
AcDbLine
 10
348.9245055396789
 20
14.99999954755264
 30
0.0
 11
348.9245055396789
 21
0.3999995475526816
 31
0.0
  0
TEXT
  5
746
330
1A
100
AcDbEntity
  8
ZUWAKU
100
AcDbText
 10
353.5396672488164
 20
6.242733773398125
 30
0.0
 40
3.0
  1
積水化学工業株式会社
 41
0.9
  7
ｽﾀｲﾙ1
100
AcDbText
  0
TEXT
  5
74D
330
1A
100
AcDbEntity
  8
ZUWAKU
100
AcDbText
 10
230.9795720347352
 20
1.468216205049543
 30
0.0
 40
1.5
  1
□には色品番が入ります
 41
0.9
  7
ｽﾀｲﾙ1
100
AcDbText
  0
LINE
  5
A3D
330
1A
100
AcDbEntity
  8
CENTER_L
  6
CENTER
 62
     1
 48
5.0
100
AcDbLine
 10
109.5404202705951
 20
148.0390981571983
 30
0.0
 11
109.5405202705953
 21
260.0390981571983
 31
0.0
  0
ARC
  5
A3E
330
1A
100
AcDbEntity
  8
SEIHIN
  6
Continuous
 62
     3
 48
5.0
100
AcDbCircle
 10
109.5404202048866
 20
203.0391481571984
 30
0.0
 40
50.00000006573353
100
AcDbArc
 50
0.000057295779572
 51
359.9999427042204
  0
DIMENSION
  5
A3F
330
1A
100
AcDbEntity
  8
SUNPOU
100
AcDbDimension
  2
*D1
 10
146.6747165581756
 20
49.78197215027217
 30
0.0
 11
109.5404116757953
 21
52.28197215027217
 31
0.0
 70
    32
  1
φ<>
 71
     5
 42
-1.0
  3
STANDARD
100
AcDbAlignedDimension
 13
72.406106793415
 23
76.3923502091092
 33
0.0
 14
146.6747165581756
 24
76.3923502091092
 34
0.0
100
AcDbRotatedDimension
1001
ACAD
1000
DSTYLE
1002
{
1070
    41
1040
3.0
1070
    42
1040
3.0
1070
    43
1040
7.0
1070
    44
1040
1.5
1070
    73
1070
     0
1070
    74
1070
     0
1070
    77
1070
     3
1070
   140
1040
3.0
1070
   141
1040
150.0
1070
   147
1040
1.0
1070
   172
1070
     1
1070
   173
1070
     1
1070
   176
1070
   256
1070
   177
1070
   256
1070
   178
1070
   256
1070
   271
1070
     0
1070
   272
1070
     0
1070
   341
1005
B2
1070
     6
1000
OPEN
1070
     7
1000
OPEN
1070
   371
1070
    -1
1070
   372
1070
    -1
1002
}
  0
LINE
  5
A40
330
1A
100
AcDbEntity
  8
SEIHIN
  6
Continuous
 62
     3
 48
5.0
100
AcDbLine
 10
149.7933056324758
 20
114.2923502091089
 30
0.0
 11
69.28751771907569
 21
114.2923502091089
 31
0.0
  0
LINE
  5
A41
330
1A
100
AcDbEntity
  8
SEIHIN
  6
Continuous
 62
     3
 48
5.0
100
AcDbLine
 10
146.6747165581756
 20
76.39235020910915
 30
0.0
 11
72.40610679337589
 21
76.39235020910915
 31
0.0
  0
DIMENSION
  5
A42
330
1A
100
AcDbEntity
  8
SUNPOU
100
AcDbDimension
  2
*D2
 10
159.5404202705951
 20
134.3992724906591
 30
0.0
 11
109.5404202705952
 21
136.8992724906592
 31
0.0
 70
    32
  1
φ<>
 71
     5
 42
-1.0
  3
STANDARD
100
AcDbAlignedDimension
 13
59.54042027059535
 23
117.7925502090748
 33
0.0
 14
159.5404202705951
 24
117.7923502090749
 34
0.0
100
AcDbRotatedDimension
1001
ACAD
1000
DSTYLE
1002
{
1070
   140
1040
3.0
1070
    74
1070
     0
1070
   172
1070
     1
1070
    73
1070
     0
1070
   272
1070
     2
1070
    77
1070
     3
1070
   173
1070
     1
1070
   147
1040
1.0
1070
    42
1040
3.0
1070
    44
1040
1.5
1070
    43
1040
7.0
1070
   271
1070
     0
1070
   178
1070
     4
1070
   177
1070
     4
1070
   176
1070
     4
1070
   141
1040
150.0
1070
     7
1000
_OPEN
1070
     6
1000
_OPEN
1070
    41
1040
3.0
1002
}
  0
LINE
  5
A43
330
1A
100
AcDbEntity
  8
SEIHIN
  6
Continuous
 62
     3
 48
5.0
100
AcDbLine
 10
109.5404202705951
 20
114.7923502090749
 30
0.0
 11
60.54042027059534
 21
114.7924502090748
 31
0.0
  0
LINE
  5
A44
330
1A
100
AcDbEntity
  8
SEIHIN
  6
Continuous
 62
     3
 48
5.0
100
AcDbLine
 10
109.5404202705951
 20
117.7923502090749
 30
0.0
 11
59.54042027059535
 21
117.7925502090748
 31
0.0
  0
LINE
  5
A45
330
1A
100
AcDbEntity
  8
SEIHIN
  6
Continuous
 62
     3
 48
5.0
100
AcDbLine
 10
69.28751771907569
 20
114.2923502091089
 30
0.0
 11
70.64779930927591
 21
90.31343287550921
 31
0.0
  0
ARC
  5
A46
330
1A
100
AcDbEntity
  8
SEIHIN
  6
Continuous
 62
     3
 48
5.0
100
AcDbCircle
 10
172.2843926973759
 20
96.0790971442092
 30
0.0
 40
101.8000000000001
100
AcDbArc
 50
183.2468084244002
 51
191.1504835148001
  0
LINE
  5
A47
330
1A
100
AcDbEntity
  8
SEIHIN
  6
Continuous
 62
     3
 48
5.0
100
AcDbLine
 10
59.54042027059535
 20
117.7923502090749
 30
0.0
 11
59.54042027059535
 21
115.7925502090748
 31
0.0
  0
ARC
  5
A48
330
1A
100
AcDbEntity
  8
SEIHIN
  6
Continuous
 62
     3
 48
5.0
100
AcDbCircle
 10
60.54042027059534
 20
115.7924502090748
 30
0.0
 40
1.0
100
AcDbArc
 50
180.0
 51
270.0
  0
LINE
  5
A49
330
1A
100
AcDbEntity
  8
SEIHIN
  6
Continuous
 62
     3
 48
5.0
100
AcDbLine
 10
71.39041167577591
 20
114.792350209109
 30
0.0
 11
71.41915499128447
 21
114.2923502091089
 31
0.0
  0
LINE
  5
A4A
330
1A
100
AcDbEntity
  8
CENTER_L
  6
CENTER
 62
     1
 48
5.0
100
AcDbLine
 10
109.5404202705951
 20
123.4814502090749
 30
0.0
 11
109.5403202705953
 21
61.12853070991135
 31
0.0
  0
DIMENSION
  5
A4B
330
1A
100
AcDbEntity
  8
SUNPOU
100
AcDbDimension
  2
*D3
 10
179.6638753643367
 20
67.79235020910926
 30
0.0
 11
177.1638753643365
 21
92.7923502090921
 31
0.0
 70
    32
 71
     5
 42
-1.0
  3
STANDARD
100
AcDbAlignedDimension
 13
159.5404202705951
 23
117.7923502090749
 33
0.0
 14
138.740411675776
 24
67.79235020910928
 34
0.0
 50
90.0
100
AcDbRotatedDimension
1001
ACAD
1000
DSTYLE
1002
{
1070
    41
1040
3.0
1070
    42
1040
3.0
1070
    43
1040
7.0
1070
    44
1040
1.5
1070
    73
1070
     0
1070
    74
1070
     0
1070
    77
1070
     3
1070
   140
1040
3.0
1070
   141
1040
150.0
1070
   147
1040
1.0
1070
   172
1070
     1
1070
   173
1070
     1
1070
   176
1070
   256
1070
   177
1070
   256
1070
   178
1070
   256
1070
   271
1070
     0
1070
   272
1070
     0
1070
   341
1005
B2
1070
     6
1000
OPEN
1070
     7
1000
OPEN
1070
   371
1070
    -1
1070
   372
1070
    -1
1002
}
  0
LINE
  5
A4C
330
1A
100
AcDbEntity
  8
SEIHIN
  6
Continuous
 62
     3
 48
5.0
100
AcDbLine
 10
109.5404202705951
 20
117.7923502090749
 30
0.0
 11
159.5404202705951
 21
117.7923502090749
 31
0.0
  0
LINE
  5
A4D
330
1A
100
AcDbEntity
  8
SEIHIN
  6
Continuous
 62
     3
 48
5.0
100
AcDbLine
 10
109.5404202705951
 20
114.7923502090749
 30
0.0
 11
158.5404202705952
 21
114.7923502090749
 31
0.0
  0
LINE
  5
A4E
330
1A
100
AcDbEntity
  8
SEIHIN
  6
Continuous
 62
     3
 48
5.0
100
AcDbLine
 10
80.34041167577617
 20
67.79235020910926
 30
0.0
 11
138.740411675776
 21
67.79235020910926
 31
0.0
  0
LINE
  5
A4F
330
1A
100
AcDbEntity
  8
SEIHIN
  6
Continuous
 62
     3
 48
5.0
100
AcDbLine
 10
80.34041167577617
 20
76.39235020910915
 30
0.0
 11
80.34041167577617
 21
67.79235020910926
 31
0.0
  0
LINE
  5
A50
330
1A
100
AcDbEntity
  8
SEIHIN
  6
Continuous
 62
     3
 48
5.0
100
AcDbLine
 10
138.740411675776
 20
76.39235020910915
 30
0.0
 11
138.740411675776
 21
67.79235020910926
 31
0.0
  0
DIMENSION
  5
A51
330
1A
100
AcDbEntity
  8
SUNPOU
100
AcDbDimension
  2
*D4
 10
169.7694944112347
 20
76.3923502090187
 30
0.0
 11
167.2694944112347
 21
95.59235020904685
 31
0.0
 70
    32
 71
     5
 42
-1.0
  3
STANDARD
100
AcDbAlignedDimension
 13
159.5404202705951
 23
114.7923502090749
 33
0.0
 14
146.6747165582189
 24
76.39235020901873
 34
0.0
 50
90.0
100
AcDbRotatedDimension
1001
ACAD
1000
DSTYLE
1002
{
1070
    41
1040
3.0
1070
    42
1040
3.0
1070
    43
1040
7.0
1070
    44
1040
1.5
1070
    73
1070
     0
1070
    74
1070
     0
1070
    77
1070
     3
1070
   140
1040
3.0
1070
   141
1040
150.0
1070
   147
1040
1.0
1070
   172
1070
     1
1070
   173
1070
     1
1070
   176
1070
   256
1070
   177
1070
   256
1070
   178
1070
   256
1070
   271
1070
     0
1070
   272
1070
     0
1070
   341
1005
B2
1070
     6
1000
OPEN
1070
     7
1000
OPEN
1070
   371
1070
    -1
1070
   372
1070
    -1
1002
}
  0
LINE
  5
A52
330
1A
100
AcDbEntity
  8
SEIHIN
  6
Continuous
 62
     3
 48
5.0
100
AcDbLine
 10
148.4330240423756
 20
90.31343287550921
 30
0.0
 11
149.7933056324758
 21
114.2923502091089
 31
0.0
  0
ARC
  5
A53
330
1A
100
AcDbEntity
  8
SEIHIN
  6
Continuous
 62
     3
 48
5.0
100
AcDbCircle
 10
46.79643065427568
 20
96.0790971442092
 30
0.0
 40
101.8000000000002
100
AcDbArc
 50
348.8495164851997
 51
356.7531915755997
  0
DIMENSION
  5
A54
330
1A
100
AcDbEntity
  8
SUNPOU
100
AcDbDimension
  2
*D5
 10
169.7694944112347
 20
117.7922502090748
 30
0.0
 11
167.2694944112347
 21
125.7922502090748
 31
0.0
 70
    32
 71
     5
 42
-1.0
  3
STANDARD
100
AcDbAlignedDimension
 13
159.5404202705951
 23
114.7923502090749
 33
0.0
 14
159.5404202705951
 24
117.7922502090748
 34
0.0
 50
90.0
100
AcDbRotatedDimension
1001
ACAD
1000
DSTYLE
1002
{
1070
    41
1040
3.0
1070
    42
1040
3.0
1070
    43
1040
7.0
1070
    44
1040
1.5
1070
    73
1070
     0
1070
    74
1070
     0
1070
    77
1070
     3
1070
   140
1040
3.0
1070
   141
1040
150.0
1070
   147
1040
1.0
1070
   172
1070
     1
1070
   173
1070
     1
1070
   176
1070
   256
1070
   177
1070
   256
1070
   178
1070
   256
1070
   271
1070
     0
1070
   272
1070
     0
1070
   341
1005
B2
1070
     6
1000
OPEN
1070
     7
1000
OPEN
1070
   371
1070
    -1
1070
   372
1070
    -1
1002
}
  0
LINE
  5
A55
330
1A
100
AcDbEntity
  8
SEIHIN
  6
Continuous
 62
     3
 48
5.0
100
AcDbLine
 10
147.6616683602695
 20
114.2923502091089
 30
0.0
 11
147.6904116757758
 21
114.792350209109
 31
0.0
  0
LINE
  5
A56
330
1A
100
AcDbEntity
  8
SEIHIN
  6
Continuous
 62
     3
 48
5.0
100
AcDbLine
 10
159.5404202705951
 20
117.7922502090748
 30
0.0
 11
159.5404202705951
 21
115.7923502090749
 31
0.0
  0
ARC
  5
A57
330
1A
100
AcDbEntity
  8
SEIHIN
  6
Continuous
 62
     3
 48
5.0
100
AcDbCircle
 10
158.5404202705951
 20
115.7923502090748
 30
0.0
 40
0.9999999999999431
100
AcDbArc
 50
270.0000000000032
 51
0.0000000000032569
  0
LINE
  5
A58
330
1A
100
AcDbEntity
  8
CENTER_L
  6
CENTER
 62
     1
 48
5.0
100
AcDbLine
 10
51.17902027059522
 20
203.0391981571984
 30
0.0
 11
165.5404202705951
 21
203.0391981571984
 31
0.0
  0
ARC
  5
A59
330
1A
100
AcDbEntity
  8
SEIHIN
  6
Continuous
 62
     3
 48
5.0
100
AcDbCircle
 10
109.5404202433277
 20
203.0391481571984
 30
0.0
 40
48.00000002729351
100
AcDbArc
 50
0.0000596831037123
 51
359.9999403168963
  0
DIMENSION
  5
A5A
330
1A
100
AcDbEntity
  8
SUNPOU
100
AcDbDimension
  2
*D6
 10
86.00333943424432
 20
184.4379162567765
 30
0.0
 11
114.2480702542294
 21
210.4669560067054
 31
0.0
 70
   163
 71
     5
 42
-1.0
  3
STANDARD
100
AcDbDiametricDimension
 15
133.077501060106
 25
221.6403800576201
 35
0.0
 40
0.0
1001
ACAD
1000
DSTYLE
1002
{
1070
   287
1070
     5
1070
   287
1070
     5
1070
   287
1070
     5
1070
   287
1070
     5
1070
   287
1070
     5
1070
   287
1070
     5
1070
   287
1070
     5
1070
   287
1070
     5
1070
    41
1040
3.0
1070
    42
1040
3.0
1070
    43
1040
7.0
1070
    44
1040
1.5
1070
    73
1070
     0
1070
    74
1070
     0
1070
    77
1070
     3
1070
   140
1040
3.0
1070
   141
1040
150.0
1070
   147
1040
1.0
1070
   172
1070
     1
1070
   173
1070
     1
1070
   176
1070
     4
1070
   177
1070
     4
1070
   178
1070
     4
1070
   271
1070
     0
1070
   272
1070
     2
1070
   279
1070
     2
1070
   288
1070
     1
1070
     6
1000
OPEN
1070
     7
1000
OPEN
1002
}
  0
ARC
  5
A5B
330
1A
100
AcDbEntity
  8
SEIHIN
  6
Continuous
 62
     3
 48
5.0
100
AcDbCircle
 10
109.5404202471752
 20
203.0391481571984
 30
0.0
 40
30.00000002346179
100
AcDbArc
 50
0.0000954929658176
 51
359.9999045070338
  0
ARC
  5
A5C
330
1A
100
AcDbEntity
  8
SEIHIN
  6
Continuous
 62
     3
 48
5.0
100
AcDbCircle
 10
109.5404202344766
 20
203.0391481571984
 30
0.0
 40
27.500000036164
100
AcDbArc
 50
0.0001041741445839
 51
359.9998958258554
  0
DIMENSION
  5
A5D
330
1A
100
AcDbEntity
  8
SUNPOU
100
AcDbDimension
  2
*D7
 10
359.1979681228071
 20
75.39235020919919
 30
0.0
 11
356.697968122807
 21
66.34235020919925
 31
0.0
 70
    32
  1
※b<>
 71
     5
 42
-1.0
  3
STANDARD
100
AcDbAlignedDimension
 13
324.8634231819142
 23
85.39235020919919
 33
0.0
 14
325.6613085208351
 24
75.39235020919919
 34
0.0
 50
90.0
100
AcDbRotatedDimension
1001
ACAD
1000
DSTYLE
1002
{
1070
   140
1040
3.0
1070
    74
1070
     0
1070
   172
1070
     1
1070
    73
1070
     0
1070
   272
1070
     2
1070
    77
1070
     3
1070
   173
1070
     1
1070
   147
1040
1.0
1070
    42
1040
3.0
1070
    44
1040
1.5
1070
    43
1040
7.0
1070
   271
1070
     0
1070
   178
1070
     4
1070
   177
1070
     4
1070
   176
1070
     4
1070
   141
1040
150.0
1070
     7
1000
_OPEN
1070
     6
1000
_OPEN
1070
    41
1040
3.0
1002
}
  0
DIMENSION
  5
A5E
330
1A
100
AcDbEntity
  8
SUNPOU
100
AcDbDimension
  2
*D8
 10
362.5303616444871
 20
93.79235020907488
 30
0.0
 11
360.0303616444871
 21
105.7923502090749
 31
0.0
 70
    32
  1
※a<>
 71
     5
 42
-1.0
  3
STANDARD
100
AcDbAlignedDimension
 13
340.8677103739231
 23
117.7923502090748
 33
0.0
 14
319.8676103739231
 24
93.7923502090749
 34
0.0
 50
90.0
100
AcDbRotatedDimension
1001
ACAD
1000
DSTYLE
1002
{
1070
   140
1040
3.0
1070
    74
1070
     0
1070
   172
1070
     1
1070
    73
1070
     0
1070
   272
1070
     2
1070
    77
1070
     3
1070
   173
1070
     1
1070
   147
1040
1.0
1070
    42
1040
3.0
1070
    44
1040
1.5
1070
    43
1040
7.0
1070
   271
1070
     0
1070
   178
1070
     4
1070
   177
1070
     4
1070
   176
1070
     4
1070
   141
1040
150.0
1070
     7
1000
_OPEN
1070
     6
1000
_OPEN
1070
    41
1040
3.0
1002
}
  0
TEXT
  5
A5F
330
1A
100
AcDbEntity
  8
SUNPOU
 62
     4
100
AcDbText
 10
310.3407018088757
 20
25.84336330246213
 30
0.0
 40
4.0
  1
※b　エルボの差込寸法を示す。
100
AcDbText
  0
TEXT
  5
A60
330
1A
100
AcDbEntity
  8
SUNPOU
 62
     4
100
AcDbText
 10
310.3407018088757
 20
31.48006127766536
 30
0.0
 40
4.0
  1
※a　排水管の差込寸法を示す。
100
AcDbText
  0
LINE
  5
A61
330
1A
100
AcDbEntity
  8
CENTER_L
  6
CENTER
 62
     1
 48
5.0
100
AcDbLine
 10
290.867710373923
 20
123.4811502090747
 30
0.0
 11
290.867610373923
 21
60.50363070991135
 31
0.0
  0
LINE
  5
A62
330
1A
100
AcDbEntity
  8
SEIHIN
  6
Continuous
 62
     3
 48
5.0
100
AcDbLine
 10
290.867696621693
 20
114.2923502091086
 30
0.0
 11
250.6148079031965
 21
114.2923502091086
 31
0.0
  0
LINE
  5
A63
330
1A
100
AcDbEntity
  8
SEIHIN
  6
Continuous
 62
     3
 48
5.0
100
AcDbLine
 10
261.6677018598969
 20
67.79235020910896
 30
0.0
 11
320.0677018598968
 21
67.79235020910896
 31
0.0
  0
LINE
  5
A64
330
1A
100
AcDbEntity
  8
SEIHIN
  6
Continuous
 62
     3
 48
5.0
100
AcDbLine
 10
290.8676398994316
 20
76.39235020910884
 30
0.0
 11
253.7333969774966
 21
76.39235020910884
 31
0.0
  0
LINE
  5
A65
330
1A
100
AcDbEntity
  8
SEIHIN
  6
Continuous
 62
     3
 48
5.0
100
AcDbLine
 10
290.867710373923
 20
114.7923502090749
 30
0.0
 11
241.8677103739231
 21
114.7925502090748
 31
0.0
  0
LINE
  5
A66
330
1A
100
AcDbEntity
  8
SEIHIN
  6
Continuous
 62
     3
 48
5.0
100
AcDbLine
 10
290.867710373923
 20
117.7923502090749
 30
0.0
 11
240.867710373923
 21
117.7925502090748
 31
0.0
  0
DIMENSION
  5
A67
330
1A
100
AcDbEntity
  8
SUNPOU
100
AcDbDimension
  2
*D9
 10
227.8724531533037
 20
76.39235020910884
 30
0.0
 11
225.3724531533036
 21
95.59245020909193
 31
0.0
 70
    32
 71
     5
 42
-1.0
  3
STANDARD
100
AcDbAlignedDimension
 13
241.8677103739231
 23
114.7925502090748
 33
0.0
 14
253.7333969774966
 24
76.39235020910884
 34
0.0
 50
90.0
100
AcDbRotatedDimension
1001
ACAD
1000
DSTYLE
1002
{
1070
    41
1040
3.0
1070
    42
1040
3.0
1070
    43
1040
7.0
1070
    44
1040
1.5
1070
    73
1070
     0
1070
    74
1070
     0
1070
    77
1070
     3
1070
   140
1040
3.0
1070
   141
1040
150.0
1070
   147
1040
1.0
1070
   172
1070
     1
1070
   173
1070
     1
1070
   176
1070
   256
1070
   177
1070
   256
1070
   178
1070
   256
1070
   271
1070
     0
1070
   272
1070
     0
1070
   341
1005
B2
1070
     6
1000
OPEN
1070
     7
1000
OPEN
1070
   371
1070
    -1
1070
   372
1070
    -1
1002
}
  0
LINE
  5
A68
330
1A
100
AcDbEntity
  8
SEIHIN
  6
Continuous
 62
     3
 48
5.0
100
AcDbLine
 10
250.6148079031965
 20
114.2923502091086
 30
0.0
 11
251.9750894933967
 21
90.31343287550887
 31
0.0
  0
ARC
  5
A69
330
1A
100
AcDbEntity
  8
SEIHIN
  6
Continuous
 62
     3
 48
5.0
100
AcDbCircle
 10
353.6116828814967
 20
96.07909714420888
 30
0.0
 40
101.8000000000001
100
AcDbArc
 50
183.2468084244002
 51
191.1504835148001
  0
LINE
  5
A6A
330
1A
100
AcDbEntity
  8
SEIHIN
  6
Continuous
 62
     3
 48
5.0
100
AcDbLine
 10
261.6677018598969
 20
76.39235020910884
 30
0.0
 11
261.6677018598969
 21
67.79235020910896
 31
0.0
  0
LINE
  5
A6B
330
1A
100
AcDbEntity
  8
SEIHIN
  6
Continuous
 62
     3
 48
5.0
100
AcDbLine
 10
240.867710373923
 20
117.7923502090749
 30
0.0
 11
240.867710373923
 21
115.7925502090748
 31
0.0
  0
ARC
  5
A6C
330
1A
100
AcDbEntity
  8
SEIHIN
  6
Continuous
 62
     3
 48
5.0
100
AcDbCircle
 10
241.867710373923
 20
115.7925502090749
 30
0.0
 40
1.000000000000027
100
AcDbArc
 50
180.0000000000048
 51
270.0000000000032
  0
LINE
  5
A6D
330
1A
100
AcDbEntity
  8
SEIHIN
  6
Continuous
 62
     3
 48
5.0
100
AcDbLine
 10
252.7177018598966
 20
114.7923502091087
 30
0.0
 11
252.7464451754052
 21
114.2923502091086
 31
0.0
  0
LINE
  5
A6E
330
1A
100
AcDbEntity
  8
SEIHIN
  6
Continuous
 62
     3
 48
5.0
100
AcDbLine
 10
331.1205853400094
 20
114.2922297217799
 30
0.0
 11
329.7602319747009
 21
90.31331645996299
 31
0.0
  0
LINE
  5
A6F
330
1A
100
AcDbEntity
  8
SEIHIN
  6
Continuous
 62
     3
 48
5.0
100
AcDbLine
 10
327.673364452723
 20
91.40698395060898
 30
0.0
 11
329.017710373923
 21
114.7923502091089
 31
0.0
  0
LINE
  5
A70
330
1A
100
AcDbEntity
  8
SEIHIN
  6
Continuous
 62
     3
 48
5.0
100
AcDbLine
 10
322.8677103739231
 20
112.2923502090749
 30
0.0
 11
322.8677103739231
 21
101.2923502090748
 31
0.0
  0
ARC
  5
A71
330
1A
100
AcDbEntity
  8
SEIHIN
  6
Continuous
 62
     3
 48
5.0
100
AcDbCircle
 10
349.8578801270074
 20
98.54523049033559
 30
0.0
 40
24.99996975404978
100
AcDbArc
 50
151.641863391903
 51
179.999496441133
  0
LINE
  5
A72
330
1A
100
AcDbEntity
  8
SEIHIN
  6
Continuous
 62
     3
 48
5.0
100
AcDbLine
 10
320.8677103739231
 20
116.7923502090749
 30
0.0
 11
320.8676103739231
 21
94.7923502090749
 31
0.0
  0
LINE
  5
A73
330
1A
100
AcDbEntity
  8
SEIHIN
  6
Continuous
 62
     3
 48
5.0
100
AcDbLine
 10
290.867610373923
 20
93.7923502090749
 30
0.0
 11
319.8676103739231
 21
93.7923502090749
 31
0.0
  0
ARC
  5
A74
330
1A
100
AcDbEntity
  8
SEIHIN
  6
Continuous
 62
     3
 48
5.0
100
AcDbCircle
 10
228.1236558451837
 20
96.07928495330328
 30
0.0
 40
101.8000000000001
100
AcDbArc
 50
348.2751757180399
 51
356.7530200744816
  0
ARC
  5
A75
330
1A
100
AcDbEntity
  8
SEIHIN
  6
Continuous
 62
     3
 48
5.0
100
AcDbCircle
 10
227.8381916723225
 20
97.146171690609
 30
0.0
 40
100.0000000000005
100
AcDbArc
 50
348.0218757690523
 51
356.7098797766992
  0
LINE
  5
A76
330
1A
100
AcDbEntity
  8
SEIHIN
  6
Continuous
 62
     3
 48
5.0
100
AcDbLine
 10
323.1155574327467
 20
85.39235020919919
 30
0.0
 11
323.1167405095214
 21
80.38737839928078
 31
0.0
  0
LINE
  5
A77
330
1A
100
AcDbEntity
  8
SEIHIN
  6
Continuous
 62
     3
 48
5.0
100
AcDbLine
 10
324.8629574327467
 20
85.39235020919919
 30
0.0
 11
324.8672549244223
 21
76.39235020919919
 31
0.0
  0
LINE
  5
A78
330
1A
100
AcDbEntity
  8
SEIHIN
  6
Continuous
 62
     3
 48
5.0
100
AcDbLine
 10
320.0677103739228
 20
91.29235020907479
 30
0.0
 11
320.0676249193777
 21
67.79235020910896
 31
0.0
  0
LINE
  5
A79
330
1A
100
AcDbEntity
  8
SEIHIN
  6
Continuous
 62
     3
 48
5.0
100
AcDbLine
 10
318.3677103739231
 20
93.7923502090749
 30
0.0
 11
318.3677103739232
 21
67.79235020910896
 31
0.0
  0
LINE
  5
A7A
330
1A
100
AcDbEntity
  8
SEIHIN
  6
Continuous
 62
     3
 48
5.0
100
AcDbLine
 10
327.7995843881033
 20
75.39235020919919
 30
0.0
 11
320.0676525557412
 21
75.39235020919919
 31
0.0
  0
LINE
  5
A7B
330
1A
100
AcDbEntity
  8
SEIHIN
  6
Continuous
 62
     3
 48
5.0
100
AcDbLine
 10
325.6608827716676
 20
76.39235020919919
 30
0.0
 11
320.067656192105
 21
76.39235020919919
 31
0.0
  0
LINE
  5
A7C
330
1A
100
AcDbEntity
  8
SEIHIN
  6
Continuous
 62
     3
 48
5.0
100
AcDbLine
 10
323.1154974327466
 20
80.39235020919919
 30
0.0
 11
324.1155974327466
 21
76.39235020919919
 31
0.0
  0
LINE
  5
A7D
330
1A
100
AcDbEntity
  8
SEIHIN
  6
Continuous
 62
     3
 48
5.0
100
AcDbLine
 10
324.8672549244223
 20
76.39235020919919
 30
0.0
 11
324.86768067359
 21
75.39235020919919
 31
0.0
  0
LINE
  5
A7E
330
1A
100
AcDbEntity
  8
SEIHIN
  6
Continuous
 62
     3
 48
5.0
100
AcDbLine
 10
324.8655974327466
 20
80.8923502091992
 30
0.0
 11
323.1155974327466
 21
80.8923502091992
 31
0.0
  0
ARC
  5
A7F
330
1A
100
AcDbEntity
  8
SEIHIN
  6
Continuous
 62
     3
 48
5.0
100
AcDbCircle
 10
324.5677103739232
 20
100.2923502090748
 30
0.0
 40
0.5
100
AcDbArc
 50
0.0
 51
90.0
  0
ARC
  5
A80
330
1A
100
AcDbEntity
  8
SEIHIN
  6
Continuous
 62
     3
 48
5.0
100
AcDbCircle
 10
324.5677103739232
 20
94.29235020907489
 30
0.0
 40
0.5
100
AcDbArc
 50
0.0
 51
90.0
  0
ARC
  5
A81
330
1A
100
AcDbEntity
  8
SEIHIN
  6
Continuous
 62
     3
 48
5.0
100
AcDbCircle
 10
324.5677103739232
 20
92.2923502090749
 30
0.0
 40
0.5
100
AcDbArc
 50
270.0
 51
0.0
  0
ARC
  5
A82
330
1A
100
AcDbEntity
  8
SEIHIN
  6
Continuous
 62
     3
 48
5.0
100
AcDbCircle
 10
324.5677103739232
 20
98.29235020907489
 30
0.0
 40
0.5
100
AcDbArc
 50
270.0
 51
0.0
  0
LINE
  5
A83
330
1A
100
AcDbEntity
  8
SEIHIN
  6
Continuous
 62
     3
 48
5.0
100
AcDbLine
 10
322.8677103739231
 20
97.2923502090749
 30
0.0
 11
322.8677103739231
 21
95.2923502090749
 31
0.0
  0
LINE
  5
A84
330
1A
100
AcDbEntity
  8
SEIHIN
  6
Continuous
 62
     3
 48
5.0
100
AcDbLine
 10
323.2611103739233
 20
94.8756502090748
 30
0.0
 11
323.2611103739233
 21
97.37565020907489
 31
0.0
  0
LINE
  5
A85
330
1A
100
AcDbEntity
  8
SEIHIN
  6
Continuous
 62
     3
 48
5.0
100
AcDbLine
 10
324.8607103739231
 20
91.79235020907489
 30
0.0
 11
324.8621574327466
 21
87.39235020919918
 31
0.0
  0
LINE
  5
A86
330
1A
100
AcDbEntity
  8
SEIHIN
  6
Continuous
 62
     3
 48
5.0
100
AcDbLine
 10
324.8629574327467
 20
85.39235020919919
 30
0.0
 11
320.0655574327465
 21
85.39235020919919
 31
0.0
  0
LINE
  5
A87
330
1A
100
AcDbEntity
  8
SEIHIN
  6
Continuous
 62
     3
 48
5.0
100
AcDbLine
 10
324.8621574327466
 20
87.39235020919918
 30
0.0
 11
320.0655574327465
 21
87.39235020919918
 31
0.0
  0
ARC
  5
A88
330
1A
100
AcDbEntity
  8
SEIHIN
  6
Continuous
 62
     3
 48
5.0
100
AcDbCircle
 10
319.8676103739231
 20
94.7923502090749
 30
0.0
 40
1.0
100
AcDbArc
 50
270.0
 51
0.0
  0
LINE
  5
A89
330
1A
100
AcDbEntity
  8
SEIHIN
  6
Continuous
 62
     3
 48
5.0
100
AcDbLine
 10
320.5677103739231
 20
91.79235020907489
 30
0.0
 11
324.5677103739232
 21
91.79235020907489
 31
0.0
  0
ARC
  5
A8A
330
1A
100
AcDbEntity
  8
SEIHIN
  6
Continuous
 62
     3
 48
5.0
100
AcDbCircle
 10
320.5677103739231
 20
91.29235020907477
 30
0.0
 40
0.5000000000000995
100
AcDbArc
 50
90.0
 51
179.9999999999983
  0
LINE
  5
A8B
330
1A
100
AcDbEntity
  8
SEIHIN
  6
Continuous
 62
     3
 48
5.0
100
AcDbLine
 10
323.3677103739231
 20
94.7923502090749
 30
0.0
 11
324.5677103739232
 21
94.7923502090749
 31
0.0
  0
LINE
  5
A8C
330
1A
100
AcDbEntity
  8
SEIHIN
  6
Continuous
 62
     3
 48
5.0
100
AcDbLine
 10
324.7611103739233
 20
94.8756502090748
 30
0.0
 11
323.2611103739233
 21
94.8756502090748
 31
0.0
  0
ARC
  5
A8D
330
1A
100
AcDbEntity
  8
SEIHIN
  6
Continuous
 62
     3
 48
5.0
100
AcDbCircle
 10
323.3677103739231
 20
95.2923502090749
 30
0.0
 40
0.5
100
AcDbArc
 50
180.0
 51
270.0
  0
LINE
  5
A8E
330
1A
100
AcDbEntity
  8
SEIHIN
  6
Continuous
 62
     3
 48
5.0
100
AcDbLine
 10
323.3677103739231
 20
100.7923502090748
 30
0.0
 11
324.5677103739232
 21
100.7923502090748
 31
0.0
  0
ARC
  5
A8F
330
1A
100
AcDbEntity
  8
SEIHIN
  6
Continuous
 62
     3
 48
5.0
100
AcDbCircle
 10
323.3677103739231
 20
101.2923502090748
 30
0.0
 40
0.5
100
AcDbArc
 50
180.0
 51
270.0
  0
LINE
  5
A90
330
1A
100
AcDbEntity
  8
SEIHIN
  6
Continuous
 62
     3
 48
5.0
100
AcDbLine
 10
323.3677103739231
 20
97.7923502090749
 30
0.0
 11
324.5677103739232
 21
97.7923502090749
 31
0.0
  0
LINE
  5
A91
330
1A
100
AcDbEntity
  8
SEIHIN
  6
Continuous
 62
     3
 48
5.0
100
AcDbLine
 10
324.7601103739231
 20
97.37565020907489
 30
0.0
 11
323.2611103739233
 21
97.37565020907489
 31
0.0
  0
ARC
  5
A92
330
1A
100
AcDbEntity
  8
SEIHIN
  6
Continuous
 62
     3
 48
5.0
100
AcDbCircle
 10
323.3677103739231
 20
97.2923502090749
 30
0.0
 40
0.5
100
AcDbArc
 50
90.0
 51
180.0
  0
LINE
  5
A93
330
1A
100
AcDbEntity
  8
SEIHIN
  6
Continuous
 62
     3
 48
5.0
100
AcDbLine
 10
324.8579103739231
 20
98.54545020907487
 30
0.0
 11
324.8584103739229
 21
97.37565020907489
 31
0.0
  0
LINE
  5
A94
330
1A
100
AcDbEntity
  8
SEIHIN
  6
Continuous
 62
     3
 48
5.0
100
AcDbLine
 10
325.0677103739231
 20
94.29235020907489
 30
0.0
 11
325.0677103739231
 21
92.2923502090749
 31
0.0
  0
LINE
  5
A95
330
1A
100
AcDbEntity
  8
SEIHIN
  6
Continuous
 62
     3
 48
5.0
100
AcDbLine
 10
325.0677103739231
 20
100.2923502090748
 30
0.0
 11
325.0677103739231
 21
98.29235020907489
 31
0.0
  0
LINE
  5
A96
330
1A
100
AcDbEntity
  8
SEIHIN
  6
Continuous
 62
     3
 48
5.0
100
AcDbLine
 10
290.867710373923
 20
116.7923502090749
 30
0.0
 11
338.8677103739231
 21
116.7923502090749
 31
0.0
  0
LINE
  5
A97
330
1A
100
AcDbEntity
  8
SEIHIN
  6
Continuous
 62
     3
 48
5.0
100
AcDbLine
 10
290.867710373923
 20
117.7923502090749
 30
0.0
 11
340.8677103739231
 21
117.7923502090749
 31
0.0
  0
LINE
  5
A98
330
1A
100
AcDbEntity
  8
SEIHIN
  6
Continuous
 62
     3
 48
5.0
100
AcDbLine
 10
322.8677103739231
 20
114.7923502090749
 30
0.0
 11
339.8677103739231
 21
114.7923502090749
 31
0.0
  0
LINE
  5
A99
330
1A
100
AcDbEntity
  8
SEIHIN
  6
Continuous
 62
     3
 48
5.0
100
AcDbLine
 10
329.8579103739231
 20
114.7923502090749
 30
0.0
 11
322.8677103739231
 21
114.7923502090749
 31
0.0
  0
LINE
  5
A9A
330
1A
100
AcDbEntity
  8
SEIHIN
  6
Continuous
 62
     3
 48
5.0
100
AcDbLine
 10
322.8677103739231
 20
114.7923502090749
 30
0.0
 11
322.8677103739231
 21
112.2923502090749
 31
0.0
  0
LINE
  5
A9B
330
1A
100
AcDbEntity
  8
SEIHIN
  6
Continuous
 62
     3
 48
5.0
100
AcDbLine
 10
327.8579103739231
 20
114.7923502090749
 30
0.0
 11
327.8579103739231
 21
110.4197502090748
 31
0.0
  0
LINE
  5
A9C
330
1A
100
AcDbEntity
  8
SEIHIN
  6
Continuous
 62
     3
 48
5.0
100
AcDbLine
 10
331.1205853400093
 20
114.2922297217799
 30
0.0
 11
328.988960132006
 21
114.2922297217799
 31
0.0
  0
LINE
  5
A9D
330
1A
100
AcDbEntity
  8
SEIHIN
  6
Continuous
 62
     3
 48
5.0
100
AcDbLine
 10
338.8677103739231
 20
117.7922502090748
 30
0.0
 11
338.8677103739231
 21
116.7923502090749
 31
0.0
  0
LINE
  5
A9E
330
1A
100
AcDbEntity
  8
SEIHIN
  6
Continuous
 62
     3
 48
5.0
100
AcDbLine
 10
340.8677103739231
 20
117.7922502090748
 30
0.0
 11
340.8677103739231
 21
115.7923502090749
 31
0.0
  0
ARC
  5
A9F
330
1A
100
AcDbEntity
  8
SEIHIN
  6
Continuous
 62
     3
 48
5.0
100
AcDbCircle
 10
339.8677103739231
 20
115.7923502090749
 30
0.0
 40
1.0
100
AcDbArc
 50
270.0
 51
0.0
  0
INSERT
  5
E21
330
1A
100
AcDbEntity
  8
ﾊｯﾁﾝｸ_
100
AcDbBlockReference
  2
*X11
 10
0.0
 20
8.634248044864307
 30
0.0
1001
ACAD
1000
HATCH
1002
{
1070
    19
1000
_USER
1040
1.5
1040
2.356194490192344
1000
R14_HATCH_DATA
1000
E21
1011
1.0
1021
8.634248044864307
1031
0.0
1011
0.0
1021
9.634248044864307
1031
0.0
1011
0.0
1021
8.634248044864307
1031
1.0
1040
0.0
1010
0.0
1020
0.0
1030
1.0
1000
_USER
1070
     0
1070
     0
1071
        1
1071
        1
1071
        8
1070
     1
1040
331.1205853400094
1040
105.6579816769156
1040
328.988960132006
1040
105.6579816769156
1070
     1
1040
328.988960132006
1040
105.6579816769156
1040
327.673364452723
1040
82.77273590574464
1070
     2
1040
227.8381916723225
1040
88.51192364574471
1040
100.0000000000005
1040
0.057423430683051
1040
0.2090577060429508
1070
     0
1070
     1
1040
325.6608827716676
1040
67.7581021643349
1040
324.8672549244226
1040
67.7581021643349
1070
     1
1040
324.8672549244225
1040
67.7581021643349
1040
324.86768067359
1040
66.7581021643349
1070
     1
1040
324.86768067359
1040
66.7581021643349
1040
327.7995843881033
1040
66.7581021643349
1070
     2
1040
228.1236558451837
1040
87.44503690843897
1040
101.8000000000001
1040
6.078548519241602
1040
6.226514816733129
1070
     1
1070
     1
1040
329.7602319747009
1040
81.67906841509871
1040
331.1205853400095
1040
105.6579816769156
1071
        0
1070
     0
1070
     0
1040
2.356194490192344
1040
1.5
1070
     0
1070
     1
1040
2.356194490192344
1040
0.0
1040
0.0
1040
-1.06066017177982
1040
-1.06066017177982
1070
     0
1071
        1
1040
5.967744758869513
1040
-95.14435267818091
1040
0.0
1002
}
  0
INSERT
  5
E22
330
1A
100
AcDbEntity
  8
ﾊｯﾁﾝｸ_
100
AcDbBlockReference
  2
*X12
 10
0.0
 20
8.634248044864307
 30
0.0
1001
ACAD
1000
HATCH
1002
{
1070
    19
1000
_USER
1040
1.5
1040
0.7853981633974483
1000
R14_HATCH_DATA
1000
E22
1011
1.0
1021
8.634248044864307
1031
0.0
1011
0.0
1021
9.634248044864307
1031
0.0
1011
0.0
1021
8.634248044864307
1031
1.0
1040
0.0
1010
0.0
1020
0.0
1030
1.0
1000
_USER
1070
     0
1070
     0
1071
        1
1071
       33
1071
       30
1070
     1
1040
338.867633433404
1040
109.1580021642104
1040
338.867633433404
1040
108.1581021642106
1070
     2
1040
339.867633433404
1040
107.1581021642106
1040
1.0
1040
4.712388980384688
1040
6.283185307179585
1070
     1
1070
     1
1040
340.867633433404
1040
109.1580021642104
1040
340.867633433404
1040
107.1581021642106
1070
     1
1040
322.867633433404
1040
106.1581021642105
1040
322.867633433404
1040
103.6581021642105
1070
     1
1040
329.857833433404
1040
106.1581021642105
1040
322.867633433404
1040
106.1581021642105
1070
     1
1040
322.867633433404
1040
106.1581021642105
1040
339.867633433404
1040
106.1581021642105
1070
     1
1040
338.867633433404
1040
109.1581021642106
1040
340.867633433404
1040
109.1581021642106
1070
     1
1040
320.867633433404
1040
108.1581021642106
1040
338.867633433404
1040
108.1581021642106
1070
     1
1040
325.0676334334041
1040
85.65810216421059
1040
325.0676334334041
1040
83.65810216421058
1070
     1
1040
325.0676334334041
1040
91.65810216421059
1040
325.0676334334041
1040
89.6581021642106
1070
     2
1040
323.367633433404
1040
92.65810216421058
1040
0.5
1040
3.141592653589792
1040
4.712388980384688
1070
     1
1070
     1
1040
323.367633433404
1040
92.1581021642106
1040
324.5676334334041
1040
92.1581021642106
1070
     2
1040
323.367633433404
1040
88.65810216421058
1040
0.5
1040
1.570796326794896
1040
3.141592653589792
1070
     1
1070
     2
1040
323.367633433404
1040
86.65810216421059
1040
0.5
1040
3.141592653589792
1040
4.712388980384688
1070
     1
1070
     1
1040
322.867633433404
1040
88.65810216421058
1040
322.867633433404
1040
86.65810216421059
1070
     1
1040
323.367633433404
1040
86.15810216421058
1040
324.5676334334041
1040
86.15810216421058
1070
     1
1040
323.367633433404
1040
89.15810216421059
1040
324.5676334334041
1040
89.15810216421059
1070
     2
1040
319.8675334334041
1040
86.15810216421058
1040
1.0
1040
4.712388980384688
1040
6.283185307179585
1070
     1
1070
     2
1040
320.5676334334041
1040
82.65810216421048
1040
0.5000000000000995
1040
1.570796326794896
1040
3.141592653589763
1070
     1
1070
     1
1040
320.5676334334041
1040
83.15810216421059
1040
324.5676334334041
1040
83.15810216421059
1070
     2
1040
324.5676334334041
1040
89.6581021642106
1040
0.5
1040
4.712388980384688
1040
6.283185307179585
1070
     1
1070
     2
1040
324.5676334334041
1040
83.65810216421058
1040
0.5
1040
4.712388980384688
1040
6.283185307179585
1070
     1
1070
     2
1040
324.5676334334041
1040
85.65810216421059
1040
0.5
1040
0.0
1040
1.570796326794896
1070
     1
1070
     2
1040
324.5676334334041
1040
91.65810216421059
1040
0.5
1040
0.0
1040
1.570796326794896
1070
     1
1070
     1
1040
318.3676334334041
1040
85.15810216421057
1040
318.3676334334041
1040
59.15810216424464
1070
     1
1040
320.0676334334039
1040
82.6581021642105
1040
320.0675479788587
1040
59.15810216424464
1070
     1
1040
318.3676334334041
1040
85.15810216421057
1040
319.8675334334041
1040
85.15810216421057
1070
     1
1040
320.867633433404
1040
108.1581021642106
1040
320.8675334334041
1040
86.15810216421058
1070
     1
1040
322.867633433404
1040
103.6581021642105
1040
322.867633433404
1040
92.65810216421058
1070
     1
1040
318.3676334334041
1040
59.15810216424464
1040
320.0676249193777
1040
59.15810216424464
1071
        0
1070
     0
1070
     0
1040
0.7853981633974483
1040
1.5
1070
     0
1070
     1
1040
0.7853981633974483
1040
0.0
1040
0.0
1040
-1.06066017177982
1040
1.06066017177982
1070
     0
1071
        1
1040
84.1049371863029
1040
-102.5589177515269
1040
0.0
1002
}
  0
DIMENSION
  5
10BC
330
1A
100
AcDbEntity
  8
SUNPOU
100
AcDbDimension
  2
*D13
 10
162.0327782136168
 20
76.39235020901839
 30
0.0
 11
159.8811642075676
 21
92.0460275455232
 31
0.0
 70
   160
  1
※b<>
 71
     5
 42
-1.0
  3
STANDARD
100
AcDbAlignedDimension
 13
148.1345130015039
 23
86.39235020901841
 33
0.0
 14
144.5364406909505
 24
76.3923502090184
 34
0.0
 50
90.0
100
AcDbRotatedDimension
1001
ACAD
1000
DSTYLE
1002
{
1070
   287
1070
     5
1070
   287
1070
     5
1070
   287
1070
     5
1070
   287
1070
     5
1070
   287
1070
     5
1070
    41
1040
3.0
1070
    42
1040
3.0
1070
    43
1040
7.0
1070
    44
1040
1.5
1070
    73
1070
     0
1070
    74
1070
     0
1070
    77
1070
     3
1070
   140
1040
3.0
1070
   141
1040
150.0
1070
   147
1040
1.0
1070
   172
1070
     1
1070
   173
1070
     1
1070
   176
1070
     4
1070
   177
1070
     4
1070
   178
1070
     4
1070
   271
1070
     0
1070
   272
1070
     2
1070
   279
1070
     2
1070
     6
1000
OPEN
1070
     7
1000
OPEN
1002
}
  0
VIEWPORT
  5
22
102
{ACAD_XDICTIONARY
360
134B
102
}
330
17
100
AcDbEntity
 67
     1
  8
0
100
AcDbViewport
 10
313.6808219178082
 20
148.5
 30
0.0
 40
627.3616438356165
 41
297.0
 68
     2
 69
     1
 12
313.6808219178082
 22
148.5
 13
0.0
 23
0.0
 14
1.0
 24
1.0
 15
10.0
 25
10.0
 16
0.0
 26
0.0
 36
1.0
 17
0.0
 27
0.0
 37
0.0
 42
50.0
 43
0.0
 44
0.0
 45
297.0
 50
0.0
 51
0.0
 72
   100
 90
    32768
  1

281
     0
 71
     1
 74
     0
110
0.0
120
0.0
130
0.0
111
1.0
121
0.0
131
0.0
112
0.0
122
1.0
132
0.0
 79
     0
146
0.0
  0
VIEWPORT
  5
64
102
{ACAD_XDICTIONARY
360
134D
102
}
330
17
100
AcDbEntity
 67
     1
  8
VIEWPORT
100
AcDbViewport
 10
210.0
 20
148.5
 30
0.0
 40
420.0
 41
297.0
 68
     1
 69
     2
 12
210.0
 22
148.5
 13
0.0
 23
0.0
 14
5.0
 24
5.0
 15
0.0
 25
0.0
 16
0.0
 26
0.0
 36
1.0
 17
0.0
 27
0.0
 37
0.0
 42
50.0
 43
0.0
 44
0.0
 45
302.9399999999998
 50
0.0
 51
0.0
 72
   100
 90
    32768
  1

281
     0
 71
     1
 74
     0
110
0.0
120
0.0
130
0.0
111
1.0
121
0.0
131
0.0
112
0.0
122
1.0
132
0.0
 79
     0
146
0.0
  0
ENDSEC
  0
SECTION
  2
OBJECTS
  0
DICTIONARY
  5
C
330
0
100
AcDbDictionary
281
     1
  3
ACAD_COLOR
350
1335
  3
ACAD_GROUP
350
D
  3
ACAD_LAYOUT
350
33B
  3
ACAD_MATERIAL
350
1334
  3
ACAD_MLINESTYLE
350
E
  3
ACAD_PLOTSETTINGS
350
33C
  3
ACAD_PLOTSTYLENAME
350
12D8
  3
ACDBHEADERROUNDTRIPXREC
350
1348
  3
AcDbVariableDictionary
350
1344
1001
ACAD
1000
TREAT_AS_HARD
1070
     0
  0
DICTIONARY
  5
36A
330
1A
100
AcDbDictionary
280
     1
281
     1
  3
ACAD_LAYOUTSELFREF
360
1302
1001
ACAD
1000
TREAT_AS_HARD
1070
     0
  0
DICTIONARY
  5
368
330
17
100
AcDbDictionary
280
     1
281
     1
  3
ACAD_LAYOUTSELFREF
360
1301
1001
ACAD
1000
TREAT_AS_HARD
1070
     0
  0
DICTIONARY
  5
134B
330
22
100
AcDbDictionary
280
     1
281
     1
  3
ACAD_XREC_ROUNDTRIP
360
134C
  0
DICTIONARY
  5
134D
330
64
100
AcDbDictionary
280
     1
281
     1
  3
ACAD_XREC_ROUNDTRIP
360
134E
  0
DICTIONARY
  5
1335
102
{ACAD_REACTORS
330
C
102
}
330
C
100
AcDbDictionary
281
     1
  0
DICTIONARY
  5
D
102
{ACAD_REACTORS
330
C
102
}
330
C
100
AcDbDictionary
281
     1
1001
ACAD
1000
TREAT_AS_HARD
1070
     0
  0
DICTIONARY
  5
33B
102
{ACAD_REACTORS
330
C
102
}
330
C
100
AcDbDictionary
281
     1
  3
Model
350
12DA
  3
ﾚｲｱｳﾄ1
350
12DB
1001
ACAD
1000
TREAT_AS_HARD
1070
     0
  0
DICTIONARY
  5
1334
102
{ACAD_REACTORS
330
C
102
}
330
C
100
AcDbDictionary
281
     1
  0
DICTIONARY
  5
E
102
{ACAD_REACTORS
330
C
102
}
330
C
100
AcDbDictionary
281
     1
  3
STANDARD
350
13
1001
ACAD
1000
TREAT_AS_HARD
1070
     0
  0
DICTIONARY
  5
33C
102
{ACAD_REACTORS
330
C
102
}
330
C
100
AcDbDictionary
281
     1
1001
ACAD
1000
TREAT_AS_HARD
1070
     0
  0
ACDBDICTIONARYWDFLT
  5
12D8
102
{ACAD_REACTORS
330
C
102
}
330
C
100
AcDbDictionary
281
     1
  3
Normal
350
12D9
100
AcDbDictionaryWithDefault
340
12D9
1001
ACAD
1000
TREAT_AS_HARD
1070
     0
  0
DICTIONARY
  5
1348
102
{ACAD_REACTORS
330
C
102
}
330
C
100
AcDbDictionary
281
     1
  3
COLORDICT
350
134A
  3
MATERIALDICT
350
1349
  0
DICTIONARY
  5
1344
102
{ACAD_REACTORS
330
C
102
}
330
C
100
AcDbDictionary
281
     1
  3
DIMASSOC
350
1345
  3
PROJECTNAME
350
1346
  0
XRECORD
  5
1302
102
{ACAD_REACTORS
330
36A
102
}
330
36A
100
AcDbXrecord
280
     1
340
1A
  0
XRECORD
  5
1301
102
{ACAD_REACTORS
330
368
102
}
330
368
100
AcDbXrecord
280
     1
340
17
  0
XRECORD
  5
134C
102
{ACAD_REACTORS
330
134B
102
}
330
134B
100
AcDbXrecord
280
     1
102
SHADEPLOT
 70
     0
  0
XRECORD
  5
134E
102
{ACAD_REACTORS
330
134D
102
}
330
134D
100
AcDbXrecord
280
     1
102
SHADEPLOT
 70
     0
  0
LAYOUT
  5
12DA
102
{ACAD_XDICTIONARY
360
134F
102
}
102
{ACAD_REACTORS
330
33B
102
}
330
33B
100
AcDbPlotSettings
  1

  2
LP-9200C(CC9E34)
  4

  6

 40
0.0
 41
0.0
 42
0.0
 43
0.0
 44
0.0
 45
0.0
 46
0.0
 47
0.0
 48
0.0
 49
0.0
140
0.0
141
0.0
142
1.0
143
1.0
 70
  1712
 72
     0
 73
     0
 74
     0
  7

 75
     0
147
1.0
148
0.0
149
0.0
100
AcDbLayout
  1
Model
 70
     1
 71
     0
 10
0.0
 20
0.0
 11
12.0
 21
9.0
 12
0.0
 22
0.0
 32
0.0
 14
0.0
 24
0.0
 34
0.0
 15
0.0
 25
0.0
 35
0.0
146
0.0
 13
0.0
 23
0.0
 33
0.0
 16
1.0
 26
0.0
 36
0.0
 17
0.0
 27
1.0
 37
0.0
 76
     0
330
1A
  0
LAYOUT
  5
12DB
102
{ACAD_XDICTIONARY
360
1351
102
}
102
{ACAD_REACTORS
330
33B
102
}
330
33B
100
AcDbPlotSettings
  1

  2
LP-9200C(CC9E34)
  4

  6

 40
0.0
 41
0.0
 42
0.0
 43
0.0
 44
0.0
 45
0.0
 46
0.0
 47
0.0
 48
0.0
 49
0.0
140
0.0
141
0.0
142
1.0
143
1.0
 70
   688
 72
     0
 73
     0
 74
     5
  7

 75
    16
147
1.0
148
0.0
149
0.0
100
AcDbLayout
  1
ﾚｲｱｳﾄ1
 70
     1
 71
     1
 10
0.0
 20
0.0
 11
420.0
 21
297.0
 12
0.0
 22
0.0
 32
0.0
 14
0.0
 24
0.0
 34
0.0
 15
420.0
 25
297.0
 35
0.0
146
0.0
 13
0.0
 23
0.0
 33
0.0
 16
1.0
 26
0.0
 36
0.0
 17
0.0
 27
1.0
 37
0.0
 76
     0
330
17
331
64
  0
MLINESTYLE
  5
13
102
{ACAD_REACTORS
330
E
102
}
330
E
100
AcDbMlineStyle
  2
STANDARD
 70
     0
  3

 62
     0
 51
90.0
 52
90.0
 71
     2
 49
0.5
 62
   256
  6
BYLAYER
 49
-0.5
 62
   256
  6
BYLAYER
  0
ACDBPLACEHOLDER
  5
12D9
102
{ACAD_REACTORS
330
12D8
102
}
330
12D8
  0
XRECORD
  5
134A
102
{ACAD_REACTORS
330
1348
102
}
330
1348
100
AcDbXrecord
280
     1
340
1335
  0
XRECORD
  5
1349
102
{ACAD_REACTORS
330
1348
102
}
330
1348
100
AcDbXrecord
280
     1
340
1334
  0
DICTIONARYVAR
  5
1345
102
{ACAD_REACTORS
330
1344
102
}
330
1344
100
DictionaryVariables
280
     0
  1
1
  0
DICTIONARYVAR
  5
1346
102
{ACAD_REACTORS
330
1344
102
}
330
1344
100
DictionaryVariables
280
     0
  1

  0
DICTIONARY
  5
134F
330
12DA
100
AcDbDictionary
280
     1
281
     1
  3
ACAD_XREC_ROUNDTRIP
360
1350
  0
DICTIONARY
  5
1351
330
12DB
100
AcDbDictionary
280
     1
281
     1
  3
ACAD_XREC_ROUNDTRIP
360
1352
  0
XRECORD
  5
1350
102
{ACAD_REACTORS
330
134F
102
}
330
134F
100
AcDbXrecord
280
     1
102
SHADEPLOT
 70
     0
102
SHADEPLOTRESLEVEL
 70
     2
102
SHADEPLOTCUSTOMDPI
 70
   300
  0
XRECORD
  5
1352
102
{ACAD_REACTORS
330
1351
102
}
330
1351
100
AcDbXrecord
280
     1
102
SHADEPLOT
 70
     0
102
SHADEPLOTRESLEVEL
 70
     2
102
SHADEPLOTCUSTOMDPI
 70
   300
  0
ENDSEC
  0
EOF
