  0
SECTION
  2
HEADER
  9
$ACADVER
  1
AC1012
  9
$DWGCODEPAGE
  3
dos932
  9
$INSBASE
 10
0.0
 20
0.0
 30
0.0
  9
$EXTMIN
 10
-0.05126640194635
 20
-0.0362528016673878
 30
-0.0000000349181948
  9
$EXTMAX
 10
797.6628945888771
 20
551.6439420123595
 30
0.0000000814935746
  9
$LIMMIN
 10
0.0
 20
0.0
  9
$LIMMAX
 10
840.0
 20
594.0
  9
$ORTHOMODE
 70
     1
  9
$REGENMODE
 70
     1
  9
$FILLMODE
 70
     1
  9
$QTEXTMODE
 70
     0
  9
$MIRRTEXT
 70
     1
  9
$DRAGMODE
 70
     2
  9
$LTSCALE
 40
1.0
  9
$OSMODE
 70
    63
  9
$ATTMODE
 70
     1
  9
$TEXTSIZE
 40
5.0
  9
$TRACEWID
 40
1.0
  9
$TEXTSTYLE
  7
STANDARD
  9
$CLAYER
  8
0
  9
$CELTYPE
  6
BYLAYER
  9
$CECOLOR
 62
   256
  9
$CELTSCALE
 40
1.0
  9
$DELOBJ
 70
     1
  9
$DISPSILH
 70
     0
  9
$DIMSCALE
 40
1.0
  9
$DIMASZ
 40
7.0
  9
$DIMEXO
 40
6.0
  9
$DIMDLI
 40
14.0
  9
$DIMRND
 40
0.0
  9
$DIMDLE
 40
0.0
  9
$DIMEXE
 40
3.0
  9
$DIMTP
 40
0.0
  9
$DIMTM
 40
0.0
  9
$DIMTXT
 40
6.0
  9
$DIMCEN
 40
150.0
  9
$DIMTSZ
 40
0.0
  9
$DIMTOL
 70
     0
  9
$DIMLIM
 70
     0
  9
$DIMTIH
 70
     0
  9
$DIMTOH
 70
     0
  9
$DIMSE1
 70
     0
  9
$DIMSE2
 70
     0
  9
$DIMTAD
 70
     3
  9
$DIMZIN
 70
     0
  9
$DIMBLK
  1

  9
$DIMASO
 70
     1
  9
$DIMSHO
 70
     1
  9
$DIMPOST
  1

  9
$DIMAPOST
  1

  9
$DIMALT
 70
     0
  9
$DIMALTD
 70
     2
  9
$DIMALTF
 40
25.4
  9
$DIMLFAC
 40
1.0
  9
$DIMTOFL
 70
     1
  9
$DIMTVP
 40
0.0
  9
$DIMTIX
 70
     0
  9
$DIMSOXD
 70
     0
  9
$DIMSAH
 70
     1
  9
$DIMBLK1
  1
OPEN
  9
$DIMBLK2
  1
OPEN
  9
$DIMSTYLE
  2
STANDARD
  9
$DIMCLRD
 70
   256
  9
$DIMCLRE
 70
   256
  9
$DIMCLRT
 70
   256
  9
$DIMTFAC
 40
1.0
  9
$DIMGAP
 40
2.0
  9
$DIMJUST
 70
     0
  9
$DIMSD1
 70
     0
  9
$DIMSD2
 70
     0
  9
$DIMTOLJ
 70
     1
  9
$DIMTZIN
 70
     0
  9
$DIMALTZ
 70
     0
  9
$DIMALTTZ
 70
     0
  9
$DIMFIT
 70
     3
  9
$DIMUPT
 70
     0
  9
$DIMUNIT
 70
     2
  9
$DIMDEC
 70
     0
  9
$DIMTDEC
 70
     0
  9
$DIMALTU
 70
     2
  9
$DIMALTTD
 70
     2
  9
$DIMTXSTY
  7
STANDARD
  9
$DIMAUNIT
 70
     0
  9
$LUNITS
 70
     2
  9
$LUPREC
 70
     4
  9
$SKETCHINC
 40
1.0
  9
$FILLETRAD
 40
1.0
  9
$AUNITS
 70
     0
  9
$AUPREC
 70
     0
  9
$MENU
  1
.
  9
$ELEVATION
 40
0.0
  9
$PELEVATION
 40
0.0
  9
$THICKNESS
 40
0.0
  9
$LIMCHECK
 70
     0
  9
$BLIPMODE
 70
     0
  9
$CHAMFERA
 40
20.0
  9
$CHAMFERB
 40
20.0
  9
$CHAMFERC
 40
40.0
  9
$CHAMFERD
 40
0.0
  9
$SKPOLY
 70
     0
  9
$TDCREATE
 40
2451212.496837384
  9
$TDUPDATE
 40
2455894.659040972
  9
$TDINDWG
 40
0.2080899421
  9
$TDUSRTIMER
 40
0.2080899421
  9
$USRTIMER
 70
     1
  9
$ANGBASE
 50
0.0
  9
$ANGDIR
 70
     0
  9
$PDMODE
 70
     0
  9
$PDSIZE
 40
0.0
  9
$PLINEWID
 40
0.0
  9
$COORDS
 70
     0
  9
$SPLFRAME
 70
     0
  9
$SPLINETYPE
 70
     6
  9
$SPLINESEGS
 70
     8
  9
$ATTDIA
 70
     0
  9
$ATTREQ
 70
     1
  9
$HANDLING
 70
 10241
  9
$HANDSEED
  5
725C
  9
$SURFTAB1
 70
     6
  9
$SURFTAB2
 70
     6
  9
$SURFTYPE
 70
     6
  9
$SURFU
 70
     6
  9
$SURFV
 70
     6
  9
$UCSNAME
  2

  9
$UCSORG
 10
0.0
 20
0.0
 30
0.0
  9
$UCSXDIR
 10
1.0
 20
0.0
 30
0.0
  9
$UCSYDIR
 10
0.0
 20
1.0
 30
0.0
  9
$PUCSNAME
  2

  9
$PUCSORG
 10
0.0
 20
0.0
 30
0.0
  9
$PUCSXDIR
 10
1.0
 20
0.0
 30
0.0
  9
$PUCSYDIR
 10
0.0
 20
1.0
 30
0.0
  9
$USERI1
 70
     0
  9
$USERI2
 70
     0
  9
$USERI3
 70
     0
  9
$USERI4
 70
     0
  9
$USERI5
 70
     0
  9
$USERR1
 40
0.0
  9
$USERR2
 40
0.0
  9
$USERR3
 40
0.0
  9
$USERR4
 40
0.0
  9
$USERR5
 40
0.0
  9
$WORLDVIEW
 70
     1
  9
$SHADEDGE
 70
     3
  9
$SHADEDIF
 70
    70
  9
$TILEMODE
 70
     1
  9
$MAXACTVP
 70
    16
  9
$PINSBASE
 10
0.0
 20
0.0
 30
0.0
  9
$PLIMCHECK
 70
     0
  9
$PEXTMIN
 10
0.0
 20
0.0
 30
0.0
  9
$PEXTMAX
 10
420.0
 20
297.0
 30
0.0
  9
$PLIMMIN
 10
0.0
 20
0.0
  9
$PLIMMAX
 10
420.0
 20
297.0
  9
$UNITMODE
 70
     0
  9
$VISRETAIN
 70
     0
  9
$PLINEGEN
 70
     0
  9
$PSLTSCALE
 70
     1
  9
$TREEDEPTH
 70
  3020
  9
$PICKSTYLE
 70
     1
  9
$CMLSTYLE
  2
STANDARD
  9
$CMLJUST
 70
     0
  9
$CMLSCALE
 40
1.0
  9
$SAVEIMAGES
 70
     1
  0
ENDSEC
  0
SECTION
  2
CLASSES
  0
CLASS
  1
ACDBDICTIONARYWDFLT
  2
AcDbDictionaryWithDefault
  3
AutoCAD 2000
 90
    32768
280
     0
281
     0
  0
CLASS
  1
ACDBPLACEHOLDER
  2
AcDbPlaceHolder
  3
AutoCAD 2000
 90
    32768
280
     0
281
     0
  0
CLASS
  1
LAYOUT
  2
AcDbLayout
  3
AutoCAD 2000
 90
    32768
280
     0
281
     0
  0
CLASS
  1
LONG_TRANSACTION
  2
AcDbLongTransaction
  3
AutoCAD 2000
 90
    32768
280
     0
281
     0
  0
CLASS
  1
LWPOLYLINE
  2
AcDbPolyline
  3
AutoCAD 2000
 90
    32768
280
     0
281
     1
  0
CLASS
  1
HATCH
  2
AcDbHatch
  3
AutoCAD 2000
 90
    32768
280
     0
281
     1
  0
CLASS
  1
XRECORD
  2
AcDbXrecord
  3
AutoCAD 2000
 90
    32768
280
     0
281
     0
  0
CLASS
  1
LONG_TRANSACTION
  2
AcDbLongTransaction
  3
AutoCAD 2000
 90
    32768
280
     0
281
     0
  0
CLASS
  1
LWPOLYLINE
  2
AcDbPolyline
  3
AutoCAD 2000
 90
    32768
280
     0
281
     1
  0
CLASS
  1
HATCH
  2
AcDbHatch
  3
AutoCAD 2000
 90
    32768
280
     0
281
     1
  0
CLASS
  1
XRECORD
  2
AcDbXrecord
  3
AutoCAD 2000
 90
    32768
280
     0
281
     0
  0
CLASS
  1
LONG_TRANSACTION
  2
AcDbLongTransaction
  3
AutoCAD 2000
 90
    32768
280
     0
281
     0
  0
CLASS
  1
LWPOLYLINE
  2
AcDbPolyline
  3
AutoCAD 2000
 90
    32768
280
     0
281
     1
  0
CLASS
  1
HATCH
  2
AcDbHatch
  3
AutoCAD 2000
 90
    32768
280
     0
281
     1
  0
CLASS
  1
XRECORD
  2
AcDbXrecord
  3
AutoCAD 2000
 90
    32768
280
     0
281
     0
  0
CLASS
  1
LONG_TRANSACTION
  2
AcDbLongTransaction
  3
AutoCAD 2000
 90
    32768
280
     0
281
     0
  0
CLASS
  1
LWPOLYLINE
  2
AcDbPolyline
  3
AutoCAD 2000
 90
    32768
280
     0
281
     1
  0
CLASS
  1
HATCH
  2
AcDbHatch
  3
AutoCAD 2000
 90
    32768
280
     0
281
     1
  0
CLASS
  1
XRECORD
  2
AcDbXrecord
  3
AutoCAD 2000
 90
    32768
280
     0
281
     0
  0
CLASS
  1
LONG_TRANSACTION
  2
AcDbLongTransaction
  3
AutoCAD 2000
 90
    32768
280
     0
281
     0
  0
CLASS
  1
LWPOLYLINE
  2
AcDbPolyline
  3
AutoCAD 2000
 90
    32768
280
     0
281
     1
  0
CLASS
  1
HATCH
  2
AcDbHatch
  3
AutoCAD 2000
 90
    32768
280
     0
281
     1
  0
CLASS
  1
XRECORD
  2
AcDbXrecord
  3
AutoCAD 2000
 90
    32768
280
     0
281
     0
  0
CLASS
  1
LONG_TRANSACTION
  2
AcDbLongTransaction
  3
AutoCAD 2000
 90
    32768
280
     0
281
     0
  0
CLASS
  1
LWPOLYLINE
  2
AcDbPolyline
  3
AutoCAD 2000
 90
    32768
280
     0
281
     1
  0
CLASS
  1
HATCH
  2
AcDbHatch
  3
AutoCAD 2000
 90
    32768
280
     0
281
     1
  0
CLASS
  1
XRECORD
  2
AcDbXrecord
  3
AutoCAD 2000
 90
    32768
280
     0
281
     0
  0
CLASS
  1
LONG_TRANSACTION
  2
AcDbLongTransaction
  3
AutoCAD 2000
 90
    32768
280
     0
281
     0
  0
CLASS
  1
LWPOLYLINE
  2
AcDbPolyline
  3
AutoCAD 2000
 90
    32768
280
     0
281
     1
  0
CLASS
  1
HATCH
  2
AcDbHatch
  3
AutoCAD 2000
 90
    32768
280
     0
281
     1
  0
CLASS
  1
XRECORD
  2
AcDbXrecord
  3
AutoCAD 2000
 90
    32768
280
     0
281
     0
  0
CLASS
  1
LONG_TRANSACTION
  2
AcDbLongTransaction
  3
AutoCAD 2000
 90
    32768
280
     0
281
     0
  0
CLASS
  1
LWPOLYLINE
  2
AcDbPolyline
  3
AutoCAD 2000
 90
    32768
280
     0
281
     1
  0
CLASS
  1
HATCH
  2
AcDbHatch
  3
AutoCAD 2000
 90
    32768
280
     0
281
     1
  0
CLASS
  1
XRECORD
  2
AcDbXrecord
  3
AutoCAD 2000
 90
    32768
280
     0
281
     0
  0
CLASS
  1
LONG_TRANSACTION
  2
AcDbLongTransaction
  3
AutoCAD 2000
 90
    32768
280
     0
281
     0
  0
CLASS
  1
LWPOLYLINE
  2
AcDbPolyline
  3
AutoCAD 2000
 90
    32768
280
     0
281
     1
  0
CLASS
  1
HATCH
  2
AcDbHatch
  3
AutoCAD 2000
 90
    32768
280
     0
281
     1
  0
CLASS
  1
XRECORD
  2
AcDbXrecord
  3
AutoCAD 2000
 90
    32768
280
     0
281
     0
  0
CLASS
  1
LONG_TRANSACTION
  2
AcDbLongTransaction
  3
AutoCAD 2000
 90
    32768
280
     0
281
     0
  0
CLASS
  1
LWPOLYLINE
  2
AcDbPolyline
  3
AutoCAD 2000
 90
    32768
280
     0
281
     1
  0
CLASS
  1
HATCH
  2
AcDbHatch
  3
AutoCAD 2000
 90
    32768
280
     0
281
     1
  0
CLASS
  1
XRECORD
  2
AcDbXrecord
  3
AutoCAD 2000
 90
    32768
280
     0
281
     0
  0
CLASS
  1
LONG_TRANSACTION
  2
AcDbLongTransaction
  3
AutoCAD 2000
 90
    32768
280
     0
281
     0
  0
CLASS
  1
LWPOLYLINE
  2
AcDbPolyline
  3
AutoCAD 2000
 90
    32768
280
     0
281
     1
  0
CLASS
  1
HATCH
  2
AcDbHatch
  3
AutoCAD 2000
 90
    32768
280
     0
281
     1
  0
CLASS
  1
XRECORD
  2
AcDbXrecord
  3
AutoCAD 2000
 90
    32768
280
     0
281
     0
  0
CLASS
  1
LONG_TRANSACTION
  2
AcDbLongTransaction
  3
AutoCAD 2000
 90
    32768
280
     0
281
     0
  0
CLASS
  1
LWPOLYLINE
  2
AcDbPolyline
  3
AutoCAD 2000
 90
    32768
280
     0
281
     1
  0
CLASS
  1
HATCH
  2
AcDbHatch
  3
AutoCAD 2000
 90
    32768
280
     0
281
     1
  0
CLASS
  1
XRECORD
  2
AcDbXrecord
  3
AutoCAD 2000
 90
    32768
280
     0
281
     0
  0
ENDSEC
  0
SECTION
  2
TABLES
  0
TABLE
  2
VPORT
  5
8
330
0
100
AcDbSymbolTable
 70
     2
  0
VPORT
  5
71CF
330
8
100
AcDbSymbolTableRecord
100
AcDbViewportTableRecord
  2
*ACTIVE
 70
     0
 10
0.0
 20
0.0
 11
1.0
 21
1.0
 12
419.9871835950613
 22
296.9909369049356
 13
0.0
 23
0.0
 14
5.0
 24
5.0
 15
0.0
 25
0.0
 16
0.0
 26
0.0
 36
1.0
 17
0.0
 27
0.0
 37
0.0
 40
598.5583921227924
 41
1.535714285714285
 42
50.0
 43
0.0
 44
0.0
 50
0.0
 51
0.0
 71
     0
 72
   100
 73
     1
 74
     0
 75
     0
 76
     0
 77
     0
 78
     0
  0
ENDTAB
  0
TABLE
  2
LTYPE
  5
5
330
0
100
AcDbSymbolTable
 70
     2
  0
LTYPE
  5
14
330
5
100
AcDbSymbolTableRecord
100
AcDbLinetypeTableRecord
  2
BYBLOCK
 70
     0
  3

 72
    65
 73
     0
 40
0.0
  0
LTYPE
  5
15
330
5
100
AcDbSymbolTableRecord
100
AcDbLinetypeTableRecord
  2
BYLAYER
 70
     0
  3

 72
    65
 73
     0
 40
0.0
  0
LTYPE
  5
16
330
5
100
AcDbSymbolTableRecord
100
AcDbLinetypeTableRecord
  2
CONTINUOUS
 70
     0
  3
Solid line
 72
    65
 73
     0
 40
0.0
  0
LTYPE
  5
135
330
5
100
AcDbSymbolTableRecord
100
AcDbLinetypeTableRecord
  2
CENTER
 70
     0
  3
Center ____ _ ____ _ ____ _ ____ _ ____ _ ____
 72
    65
 73
     4
 40
50.8
 49
31.75
 74
     0
 49
-6.349999999999999
 74
     0
 49
6.349999999999999
 74
     0
 49
-6.349999999999999
 74
     0
  0
ENDTAB
  0
TABLE
  2
LAYER
  5
2
330
0
100
AcDbSymbolTable
 70
     9
  0
LAYER
  5
F
330
2
100
AcDbSymbolTableRecord
100
AcDbLayerTableRecord
  2
0
 70
     0
 62
     7
  6
CONTINUOUS
  0
LAYER
  5
62
330
2
100
AcDbSymbolTableRecord
100
AcDbLayerTableRecord
  2
VIEWPORT
 70
     0
 62
     7
  6
CONTINUOUS
  0
LAYER
  5
65
330
2
100
AcDbSymbolTableRecord
100
AcDbLayerTableRecord
  2
ZUWAKU
 70
     0
 62
     7
  6
CONTINUOUS
  0
LAYER
  5
28E
330
2
100
AcDbSymbolTableRecord
100
AcDbLayerTableRecord
  2
SEIHIN
 70
     0
 62
     3
  6
CONTINUOUS
  0
LAYER
  5
28F
330
2
100
AcDbSymbolTableRecord
100
AcDbLayerTableRecord
  2
SUNPOU
 70
     0
 62
     4
  6
CONTINUOUS
  0
LAYER
  5
290
330
2
100
AcDbSymbolTableRecord
100
AcDbLayerTableRecord
  2
CENTER_L
 70
     0
 62
     1
  6
CENTER
  0
LAYER
  5
3EF
330
2
100
AcDbSymbolTableRecord
100
AcDbLayerTableRecord
  2
DEFPOINTS
 70
     0
 62
     7
  6
CONTINUOUS
  0
LAYER
  5
702
330
2
100
AcDbSymbolTableRecord
100
AcDbLayerTableRecord
  2
MOJI
 70
     0
 62
     2
  6
CONTINUOUS
  0
LAYER
  5
4651
330
2
100
AcDbSymbolTableRecord
100
AcDbLayerTableRecord
  2
NOKITOI
 70
     0
 62
    -7
  6
CONTINUOUS
  0
ENDTAB
  0
TABLE
  2
STYLE
  5
3
330
0
100
AcDbSymbolTable
 70
     2
  0
STYLE
  5
10
330
3
100
AcDbSymbolTableRecord
100
AcDbTextStyleTableRecord
  2
STANDARD
 70
     0
 40
0.0
 41
1.0
 50
0.0
 71
     0
 42
5.0
  3
TXT
  4
bigfont.shx
  0
STYLE
  5
703
330
3
100
AcDbSymbolTableRecord
100
AcDbTextStyleTableRecord
  2
ｽﾀｲﾙ1
 70
     0
 40
0.0
 41
1.0
 50
0.0
 71
     0
 42
2.5
  3
MS PGothic.ttf
  4

1001
ACAD
1000
MS PGothic
1071
    32818
  0
ENDTAB
  0
TABLE
  2
VIEW
  5
6
330
0
100
AcDbSymbolTable
 70
     0
  0
ENDTAB
  0
TABLE
  2
UCS
  5
7
330
0
100
AcDbSymbolTable
 70
     0
  0
ENDTAB
  0
TABLE
  2
APPID
  5
9
330
0
100
AcDbSymbolTable
 70
     1
  0
APPID
  5
11
330
9
100
AcDbSymbolTableRecord
100
AcDbRegAppTableRecord
  2
ACAD
 70
     0
  0
ENDTAB
  0
TABLE
  2
DIMSTYLE
  5
A
330
0
100
AcDbSymbolTable
 70
     1
  0
DIMSTYLE
105
1D
102
{ACAD_REACTORS
330
626B
330
6354
330
6353
330
6267
330
6268
330
6269
330
626A
330
645D
330
6451
330
6452
330
628D
102
}
330
A
100
AcDbSymbolTableRecord
100
AcDbDimStyleTableRecord
  2
STANDARD
 70
     0
  3

  4

  5

  6

  7

 40
1.0
 41
0.18
 42
0.0625
 43
0.38
 44
0.18
 45
0.0
 46
0.0
 47
0.0
 48
0.0
140
0.18
141
0.09
142
0.0
143
25.4
144
1.0
145
0.0
146
1.0
147
0.09
 71
     0
 72
     0
 73
     1
 74
     1
 75
     0
 76
     0
 77
     0
 78
     0
170
     0
171
     2
172
     0
173
     0
174
     0
175
     0
176
     0
177
     0
178
     0
270
     2
271
     4
272
     4
273
     2
274
     2
340
10
275
     0
280
     0
281
     0
282
     0
283
     1
284
     0
285
     0
286
     0
287
     3
288
     0
  0
ENDTAB
  0
TABLE
  2
BLOCK_RECORD
  5
1
330
0
100
AcDbSymbolTable
 70
    13
  0
BLOCK_RECORD
  5
1A
102
{ACAD_XDICTIONARY
360
4EB
102
}
330
1
100
AcDbSymbolTableRecord
100
AcDbBlockTableRecord
  2
*MODEL_SPACE
  0
BLOCK_RECORD
  5
17
102
{ACAD_XDICTIONARY
360
4E9
102
}
330
1
100
AcDbSymbolTableRecord
100
AcDbBlockTableRecord
  2
*PAPER_SPACE
  0
BLOCK_RECORD
  5
6D
330
1
100
AcDbSymbolTableRecord
100
AcDbBlockTableRecord
  2
_OPEN
  0
BLOCK_RECORD
  5
2F7A
330
1
100
AcDbSymbolTableRecord
100
AcDbBlockTableRecord
  2
*X1
  0
BLOCK_RECORD
  5
66CC
330
1
100
AcDbSymbolTableRecord
100
AcDbBlockTableRecord
  2
*D2
  0
BLOCK_RECORD
  5
66D8
330
1
100
AcDbSymbolTableRecord
100
AcDbBlockTableRecord
  2
*D3
  0
BLOCK_RECORD
  5
66E4
330
1
100
AcDbSymbolTableRecord
100
AcDbBlockTableRecord
  2
*D4
  0
BLOCK_RECORD
  5
66F0
330
1
100
AcDbSymbolTableRecord
100
AcDbBlockTableRecord
  2
*D5
  0
BLOCK_RECORD
  5
66FC
330
1
100
AcDbSymbolTableRecord
100
AcDbBlockTableRecord
  2
*D6
  0
BLOCK_RECORD
  5
6708
330
1
100
AcDbSymbolTableRecord
100
AcDbBlockTableRecord
  2
*D7
  0
BLOCK_RECORD
  5
6714
330
1
100
AcDbSymbolTableRecord
100
AcDbBlockTableRecord
  2
*D8
  0
BLOCK_RECORD
  5
6720
330
1
100
AcDbSymbolTableRecord
100
AcDbBlockTableRecord
  2
*D9
  0
BLOCK_RECORD
  5
672C
330
1
100
AcDbSymbolTableRecord
100
AcDbBlockTableRecord
  2
*D10
  0
BLOCK_RECORD
  5
6738
330
1
100
AcDbSymbolTableRecord
100
AcDbBlockTableRecord
  2
*D11
  0
BLOCK_RECORD
  5
6744
330
1
100
AcDbSymbolTableRecord
100
AcDbBlockTableRecord
  2
*D12
  0
ENDTAB
  0
ENDSEC
  0
SECTION
  2
BLOCKS
  0
BLOCK
  5
1B
330
1A
100
AcDbEntity
  8
0
100
AcDbBlockBegin
  2
*MODEL_SPACE
 70
     0
 10
0.0
 20
0.0
 30
0.0
  3
*MODEL_SPACE
  1

  0
ENDBLK
  5
1C
330
1A
100
AcDbEntity
  8
0
100
AcDbBlockEnd
  0
BLOCK
  5
18
330
17
100
AcDbEntity
 67
     1
  8
0
100
AcDbBlockBegin
  2
*PAPER_SPACE
 70
     0
 10
0.0
 20
0.0
 30
0.0
  3
*PAPER_SPACE
  1

  0
ENDBLK
  5
19
330
17
100
AcDbEntity
 67
     1
  8
0
100
AcDbBlockEnd
  0
BLOCK
  5
6E
330
6D
100
AcDbEntity
  8
0
100
AcDbBlockBegin
  2
_OPEN
 70
     0
 10
0.0
 20
0.0
 30
0.0
  3
_OPEN
  1

  0
LINE
  5
6F
330
6D
100
AcDbEntity
  8
0
  6
BYBLOCK
 62
     0
100
AcDbLine
 10
-1.0
 20
0.1666666666666666
 30
0.0
 11
0.0
 21
0.0
 31
0.0
  0
LINE
  5
70
330
6D
100
AcDbEntity
  8
0
  6
BYBLOCK
 62
     0
100
AcDbLine
 10
0.0
 20
0.0
 30
0.0
 11
-1.0
 21
-0.1666666666666666
 31
0.0
  0
LINE
  5
71
330
6D
100
AcDbEntity
  8
0
  6
BYBLOCK
 62
     0
100
AcDbLine
 10
0.0
 20
0.0
 30
0.0
 11
-1.0
 21
0.0
 31
0.0
  0
ENDBLK
  5
72
330
6D
100
AcDbEntity
  8
0
100
AcDbBlockEnd
  0
BLOCK
  5
310E
330
2F7A
100
AcDbEntity
  8
0
100
AcDbBlockBegin
  2
*X1
 70
     1
 10
0.0
 20
0.0
 30
0.0
  3
*X1
  1

  0
LINE
  5
2F7B
330
2F7A
100
AcDbEntity
  8
0
 62
     0
100
AcDbLine
 10
69.04221216833718
 20
22.60416893857376
 30
0.0
 11
68.39638123862227
 21
23.24999986828874
 31
0.0
  0
LINE
  5
2F7C
330
2F7A
100
AcDbEntity
  8
0
 62
     0
100
AcDbLine
 10
69.04221216833718
 20
21.70614332646687
 30
0.0
 11
67.49835562651532
 21
23.24999986828874
 31
0.0
  0
LINE
  5
2F7D
330
2F7A
100
AcDbEntity
  8
0
 62
     0
100
AcDbLine
 10
69.04221216833713
 20
20.80811771435992
 30
0.0
 11
66.62107822232218
 21
23.22925166037486
 31
0.0
  0
LINE
  5
2F7E
330
2F7A
100
AcDbEntity
  8
0
 62
     0
100
AcDbLine
 10
69.04221216833718
 20
19.91009210225309
 30
0.0
 11
66.24221216833712
 21
22.71009210225309
 31
0.0
  0
LINE
  5
2F7F
330
2F7A
100
AcDbEntity
  8
0
 62
     0
100
AcDbLine
 10
69.04221216833718
 20
19.01206649014613
 30
0.0
 11
66.24221216833712
 21
21.8120664901462
 31
0.0
  0
LINE
  5
2F80
330
2F7A
100
AcDbEntity
  8
0
 62
     0
100
AcDbLine
 10
69.04221216833713
 20
18.11404087803919
 30
0.0
 11
66.24221216833706
 21
20.91404087803926
 31
0.0
  0
LINE
  5
2F81
330
2F7A
100
AcDbEntity
  8
0
 62
     0
100
AcDbLine
 10
64.14221216833709
 20
22.11601526593239
 30
0.0
 11
63.0082275659808
 21
23.24999986828874
 31
0.0
  0
LINE
  5
2F82
330
2F7A
100
AcDbEntity
  8
0
 62
     0
100
AcDbLine
 10
69.04221216833718
 20
17.21601526593235
 30
0.0
 11
66.24221216833712
 21
20.01601526593242
 31
0.0
  0
LINE
  5
2F83
330
2F7A
100
AcDbEntity
  8
0
 62
     0
100
AcDbLine
 10
64.14221216833709
 20
21.21798965382549
 30
0.0
 11
62.11020195387385
 21
23.24999986828868
 31
0.0
  0
LINE
  5
2F84
330
2F7A
100
AcDbEntity
  8
0
 62
     0
100
AcDbLine
 10
69.04221216833713
 20
16.3179896538254
 30
0.0
 11
66.24221216833712
 21
19.11798965382547
 31
0.0
  0
LINE
  5
2F85
330
2F7A
100
AcDbEntity
  8
0
 62
     0
100
AcDbLine
 10
64.14221216833709
 20
20.31996404171855
 30
0.0
 11
61.43670120320002
 21
23.02547500685562
 31
0.0
  0
LINE
  5
2F86
330
2F7A
100
AcDbEntity
  8
0
 62
     0
100
AcDbLine
 10
69.04221216833713
 20
15.41996404171851
 30
0.0
 11
66.24221216833706
 21
18.21996404171852
 31
0.0
  0
LINE
  5
2F87
330
2F7A
100
AcDbEntity
  8
0
 62
     0
100
AcDbLine
 10
64.14221216833721
 20
19.42193842961154
 30
0.0
 11
61.34221216833703
 21
22.22193842961166
 31
0.0
  0
LINE
  5
2F88
330
2F7A
100
AcDbEntity
  8
0
 62
     0
100
AcDbLine
 10
69.04221216833718
 20
14.52193842961156
 30
0.0
 11
66.24221216833712
 21
17.32193842961163
 31
0.0
  0
LINE
  5
2F89
330
2F7A
100
AcDbEntity
  8
0
 62
     0
100
AcDbLine
 10
64.14221216833715
 20
18.52391281750465
 30
0.0
 11
61.34221216833703
 21
21.32391281750483
 31
0.0
  0
LINE
  5
2F8A
330
2F7A
100
AcDbEntity
  8
0
 62
     0
100
AcDbLine
 10
69.04221216833713
 20
13.62391281750467
 30
0.0
 11
66.24221216833706
 21
16.42391281750474
 31
0.0
  0
LINE
  5
2F8B
330
2F7A
100
AcDbEntity
  8
0
 62
     0
100
AcDbLine
 10
64.14221216833715
 20
17.62588720539776
 30
0.0
 11
61.34221216833703
 21
20.42588720539788
 31
0.0
  0
LINE
  5
2F8C
330
2F7A
100
AcDbEntity
  8
0
 62
     0
100
AcDbLine
 10
69.04221216833713
 20
12.72588720539778
 30
0.0
 11
66.24221216833706
 21
15.52588720539785
 31
0.0
  0
LINE
  5
2F8D
330
2F7A
100
AcDbEntity
  8
0
 62
     0
100
AcDbLine
 10
64.14221216833709
 20
16.72786159329081
 30
0.0
 11
61.34221216833697
 21
19.52786159329093
 31
0.0
  0
LINE
  5
2F8E
330
2F7A
100
AcDbEntity
  8
0
 62
     0
100
AcDbLine
 10
69.04221216833708
 20
11.82786159329083
 30
0.0
 11
66.24221216833706
 21
14.6278615932909
 31
0.0
  0
LINE
  5
2F8F
330
2F7A
100
AcDbEntity
  8
0
 62
     0
100
AcDbLine
 10
64.14221216833715
 20
15.82983598118397
 30
0.0
 11
61.34221216833703
 21
18.6298359811841
 31
0.0
  0
LINE
  5
2F90
330
2F7A
100
AcDbEntity
  8
0
 62
     0
100
AcDbLine
 10
57.84221216833708
 20
22.12983598118404
 30
0.0
 11
56.72204828123245
 21
23.24999986828868
 31
0.0
  0
LINE
  5
2F91
330
2F7A
100
AcDbEntity
  8
0
 62
     0
100
AcDbLine
 10
69.04221216833713
 20
10.92983598118399
 30
0.0
 11
66.24221216833706
 21
13.72983598118401
 31
0.0
  0
LINE
  5
2F92
330
2F7A
100
AcDbEntity
  8
0
 62
     0
100
AcDbLine
 10
64.14221216833715
 20
14.93181036907702
 30
0.0
 11
61.34221216833697
 21
17.73181036907715
 31
0.0
  0
LINE
  5
2F93
330
2F7A
100
AcDbEntity
  8
0
 62
     0
100
AcDbLine
 10
57.84221216833703
 20
21.23181036907709
 30
0.0
 11
55.82402266912549
 21
23.24999986828868
 31
0.0
  0
LINE
  5
2F94
330
2F7A
100
AcDbEntity
  8
0
 62
     0
100
AcDbLine
 10
69.04221216833713
 20
10.03181036907704
 30
0.0
 11
66.24221216833706
 21
12.83181036907711
 31
0.0
  0
LINE
  5
2F95
330
2F7A
100
AcDbEntity
  8
0
 62
     0
100
AcDbLine
 10
64.14221216833709
 20
14.03378475697013
 30
0.0
 11
61.34221216833703
 21
16.83378475697014
 31
0.0
  0
LINE
  5
2F96
330
2F7A
100
AcDbEntity
  8
0
 62
     0
100
AcDbLine
 10
57.84221216833703
 20
20.3337847569702
 30
0.0
 11
55.14244944501303
 21
23.0335474802942
 31
0.0
  0
LINE
  5
2F97
330
2F7A
100
AcDbEntity
  8
0
 62
     0
100
AcDbLine
 10
69.04221216833708
 20
9.133784756970158
 30
0.0
 11
66.242212168337
 21
11.93378475697016
 31
0.0
  0
LINE
  5
2F98
330
2F7A
100
AcDbEntity
  8
0
 62
     0
100
AcDbLine
 10
64.14221216833715
 20
13.13575914486318
 30
0.0
 11
61.34221216833708
 21
15.93575914486325
 31
0.0
  0
LINE
  5
2F99
330
2F7A
100
AcDbEntity
  8
0
 62
     0
100
AcDbLine
 10
57.84221216833708
 20
19.43575914486325
 30
0.0
 11
55.04221216833707
 21
22.23575914486326
 31
0.0
  0
LINE
  5
2F9A
330
2F7A
100
AcDbEntity
  8
0
 62
     0
100
AcDbLine
 10
69.04221216833713
 20
8.235759144863209
 30
0.0
 11
66.24221216833706
 21
11.03575914486327
 31
0.0
  0
LINE
  5
2F9B
330
2F7A
100
AcDbEntity
  8
0
 62
     0
100
AcDbLine
 10
64.14221216833709
 20
12.23773353275629
 30
0.0
 11
61.34221216833708
 21
15.03773353275636
 31
0.0
  0
LINE
  5
2F9C
330
2F7A
100
AcDbEntity
  8
0
 62
     0
100
AcDbLine
 10
57.84221216833714
 20
18.5377335327563
 30
0.0
 11
55.04221216833713
 21
21.33773353275632
 31
0.0
  0
LINE
  5
2F9D
330
2F7A
100
AcDbEntity
  8
0
 62
     0
100
AcDbLine
 10
68.97024681344731
 20
7.409698887646129
 30
0.0
 11
66.24221216833706
 21
10.13773353275638
 31
0.0
  0
LINE
  5
2F9E
330
2F7A
100
AcDbEntity
  8
0
 62
     0
100
AcDbLine
 10
64.14221216833715
 20
11.33970792064928
 30
0.0
 11
61.34221216833703
 21
14.13970792064941
 31
0.0
  0
LINE
  5
2F9F
330
2F7A
100
AcDbEntity
  8
0
 62
     0
100
AcDbLine
 10
57.84221216833708
 20
17.63970792064941
 30
0.0
 11
55.04221216833713
 21
20.43970792064937
 31
0.0
  0
LINE
  5
2FA0
330
2F7A
100
AcDbEntity
  8
0
 62
     0
100
AcDbLine
 10
68.33192022069784
 20
7.149999868288659
 30
0.0
 11
66.242212168337
 21
9.239707920649493
 31
0.0
  0
LINE
  5
2FA1
330
2F7A
100
AcDbEntity
  8
0
 62
     0
100
AcDbLine
 10
57.84221216833708
 20
16.74168230854246
 30
0.0
 11
55.04221216833707
 21
19.54168230854241
 31
0.0
  0
LINE
  5
2FA2
330
2F7A
100
AcDbEntity
  8
0
 62
     0
100
AcDbLine
 10
64.14221216833715
 20
10.44168230854239
 30
0.0
 11
61.34221216833703
 21
13.24168230854252
 31
0.0
  0
LINE
  5
2FA3
330
2F7A
100
AcDbEntity
  8
0
 62
     0
100
AcDbLine
 10
52.41721216833707
 20
22.16668230854247
 30
0.0
 11
51.33389460859075
 21
23.24999986828874
 31
0.0
  0
LINE
  5
2FA4
330
2F7A
100
AcDbEntity
  8
0
 62
     0
100
AcDbLine
 10
67.43389460859095
 20
7.149999868288546
 30
0.0
 11
66.242212168337
 21
8.341682308542544
 31
0.0
  0
LINE
  5
2FA5
330
2F7A
100
AcDbEntity
  8
0
 62
     0
100
AcDbLine
 10
57.84221216833708
 20
15.84365669643557
 30
0.0
 11
55.04221216833713
 21
18.64365669643558
 31
0.0
  0
LINE
  5
2FA6
330
2F7A
100
AcDbEntity
  8
0
 62
     0
100
AcDbLine
 10
52.41721216833707
 20
21.26865669643558
 30
0.0
 11
50.43586899648392
 21
23.24999986828879
 31
0.0
  0
LINE
  5
2FA7
330
2F7A
100
AcDbEntity
  8
0
 62
     0
100
AcDbLine
 10
64.11625386769157
 20
9.569614997081146
 30
0.0
 11
61.34221216833703
 21
12.34365669643563
 31
0.0
  0
LINE
  5
2FA8
330
2F7A
100
AcDbEntity
  8
0
 62
     0
100
AcDbLine
 10
57.84221216833708
 20
14.94563108432868
 30
0.0
 11
55.04221216833713
 21
17.74563108432863
 31
0.0
  0
LINE
  5
2FA9
330
2F7A
100
AcDbEntity
  8
0
 62
     0
100
AcDbLine
 10
52.22163162222324
 20
20.56621163044252
 30
0.0
 11
49.53784338437708
 21
23.24999986828868
 31
0.0
  0
LINE
  5
2FAA
330
2F7A
100
AcDbEntity
  8
0
 62
     0
100
AcDbLine
 10
63.92326857243432
 20
8.864574680231385
 30
0.0
 11
61.34221216833703
 21
11.44563108432873
 31
0.0
  0
LINE
  5
2FAB
330
2F7A
100
AcDbEntity
  8
0
 62
     0
100
AcDbLine
 10
57.84221216833708
 20
14.04760547222173
 30
0.0
 11
55.04221216833707
 21
16.84760547222174
 31
0.0
  0
LINE
  5
2FAC
330
2F7A
100
AcDbEntity
  8
0
 62
     0
100
AcDbLine
 10
51.43981777227009
 20
20.44999986828867
 30
0.0
 11
48.63981777227007
 21
23.24999986828874
 31
0.0
  0
LINE
  5
2FAD
330
2F7A
100
AcDbEntity
  8
0
 62
     0
100
AcDbLine
 10
63.59823669651075
 20
8.291580944048007
 30
0.0
 11
61.27069642917752
 21
10.61912121138129
 31
0.0
  0
LINE
  5
2FAE
330
2F7A
100
AcDbEntity
  8
0
 62
     0
100
AcDbLine
 10
57.84221216833708
 20
13.14957986011489
 30
0.0
 11
55.04221216833713
 21
15.94957986011485
 31
0.0
  0
LINE
  5
2FAF
330
2F7A
100
AcDbEntity
  8
0
 62
     0
100
AcDbLine
 10
50.54179216016326
 20
20.44999986828873
 30
0.0
 11
47.80422543098587
 21
23.18756659746611
 31
0.0
  0
LINE
  5
2FB0
330
2F7A
100
AcDbEntity
  8
0
 62
     0
100
AcDbLine
 10
63.16619489918571
 20
7.825597129266213
 30
0.0
 11
60.86911079071001
 21
10.12268123774191
 31
0.0
  0
LINE
  5
2FB1
330
2F7A
100
AcDbEntity
  8
0
 62
     0
100
AcDbLine
 10
57.84221216833708
 20
12.25155424800794
 30
0.0
 11
55.04221216833707
 21
15.0515542480079
 31
0.0
  0
LINE
  5
2FB2
330
2F7A
100
AcDbEntity
  8
0
 62
     0
100
AcDbLine
 10
49.6437665480563
 20
20.44999986828873
 30
0.0
 11
47.13958500645247
 21
22.95418140989249
 31
0.0
  0
LINE
  5
2FB3
330
2F7A
100
AcDbEntity
  8
0
 62
     0
100
AcDbLine
 10
62.63003255425968
 20
7.463733862085348
 30
0.0
 11
60.1437665480563
 21
9.949999868288671
 31
0.0
  0
LINE
  5
2FB4
330
2F7A
100
AcDbEntity
  8
0
 62
     0
100
AcDbLine
 10
57.84221216833703
 20
11.353528635901
 30
0.0
 11
55.04221216833713
 21
14.15352863590089
 31
0.0
  0
LINE
  5
2FB5
330
2F7A
100
AcDbEntity
  8
0
 62
     0
100
AcDbLine
 10
48.7675307639675
 20
20.42821004027052
 30
0.0
 11
46.59698406924229
 21
22.59875673499573
 31
0.0
  0
LINE
  5
2FB6
330
2F7A
100
AcDbEntity
  8
0
 62
     0
100
AcDbLine
 10
61.97361999434838
 20
7.222120809889702
 30
0.0
 11
59.24574093594941
 21
9.949999868288671
 31
0.0
  0
LINE
  5
2FB7
330
2F7A
100
AcDbEntity
  8
0
 62
     0
100
AcDbLine
 10
48.39221216833715
 20
19.90550302379392
 30
0.0
 11
46.15887201019774
 21
22.13884318193334
 31
0.0
  0
LINE
  5
2FB8
330
2F7A
100
AcDbEntity
  8
0
 62
     0
100
AcDbLine
 10
61.14771532384253
 20
7.149999868288603
 30
0.0
 11
55.04221216833713
 21
13.255503023794
 31
0.0
  0
LINE
  5
2FB9
330
2F7A
100
AcDbEntity
  8
0
 62
     0
100
AcDbLine
 10
48.3922121683372
 20
19.00747741168709
 30
0.0
 11
45.82710109784471
 21
21.57258848217958
 31
0.0
  0
LINE
  5
2FBA
330
2F7A
100
AcDbEntity
  8
0
 62
     0
100
AcDbLine
 10
60.24968971173564
 20
7.149999868288603
 30
0.0
 11
55.04221216833719
 21
12.35747741168711
 31
0.0
  0
LINE
  5
2FBB
330
2F7A
100
AcDbEntity
  8
0
 62
     0
100
AcDbLine
 10
48.59875644944094
 20
17.90290751847641
 30
0.0
 11
45.6249225784806
 21
20.87674138943668
 31
0.0
  0
LINE
  5
2FBC
330
2F7A
100
AcDbEntity
  8
0
 62
     0
100
AcDbLine
 10
59.35166409962874
 20
7.149999868288603
 30
0.0
 11
55.04221216833713
 21
11.45945179958022
 31
0.0
  0
LINE
  5
2FBD
330
2F7A
100
AcDbEntity
  8
0
 62
     0
100
AcDbLine
 10
52.81581587102846
 20
12.78782248478194
 30
0.0
 11
45.59221216833708
 21
20.01142618747326
 31
0.0
  0
LINE
  5
2FBE
330
2F7A
100
AcDbEntity
  8
0
 62
     0
100
AcDbLine
 10
43.492212168337
 20
22.11142618747334
 30
0.0
 11
42.35363848752172
 21
23.24999986828868
 31
0.0
  0
LINE
  5
2FBF
330
2F7A
100
AcDbEntity
  8
0
 62
     0
100
AcDbLine
 10
58.4536384875218
 20
7.149999868288603
 30
0.0
 11
55.04221216833713
 21
10.56142618747327
 31
0.0
  0
LINE
  5
2FC0
330
2F7A
100
AcDbEntity
  8
0
 62
     0
100
AcDbLine
 10
52.94221216833716
 20
11.7634005753664
 30
0.0
 11
45.59221216833714
 21
19.11340057536642
 31
0.0
  0
LINE
  5
2FC1
330
2F7A
100
AcDbEntity
  8
0
 62
     0
100
AcDbLine
 10
43.49221216833711
 20
21.21340057536639
 30
0.0
 11
41.45561287541477
 21
23.24999986828879
 31
0.0
  0
LINE
  5
2FC2
330
2F7A
100
AcDbEntity
  8
0
 62
     0
100
AcDbLine
 10
57.53916499667003
 20
7.166447747033544
 30
0.0
 11
55.05866004708201
 21
9.646952696621553
 31
0.0
  0
LINE
  5
2FC3
330
2F7A
100
AcDbEntity
  8
0
 62
     0
100
AcDbLine
 10
43.49221216833711
 20
20.3153749632595
 30
0.0
 11
40.7848222805618
 21
23.02276485103476
 31
0.0
  0
LINE
  5
2FC4
330
2F7A
100
AcDbEntity
  8
0
 62
     0
100
AcDbLine
 10
52.94221216833711
 20
10.86537496325945
 30
0.0
 11
45.61562283621947
 21
18.19196429537714
 31
0.0
  0
LINE
  5
2FC5
330
2F7A
100
AcDbEntity
  8
0
 62
     0
100
AcDbLine
 10
43.49221216833711
 20
19.41734935115255
 30
0.0
 11
40.6922121683371
 21
22.2173493511525
 31
0.0
  0
LINE
  5
2FC6
330
2F7A
100
AcDbEntity
  8
0
 62
     0
100
AcDbLine
 10
52.94221216833699
 20
9.96734935115262
 30
0.0
 11
45.93374225405949
 21
16.97581926543017
 31
0.0
  0
LINE
  5
2FC7
330
2F7A
100
AcDbEntity
  8
0
 62
     0
100
AcDbLine
 10
43.49221216833711
 20
18.51932373904566
 30
0.0
 11
40.69221216833716
 21
21.31932373904561
 31
0.0
  0
LINE
  5
2FC8
330
2F7A
100
AcDbEntity
  8
0
 62
     0
100
AcDbLine
 10
52.83365035074803
 20
9.177885556634748
 30
0.0
 11
50.13801556170972
 21
11.87352034567305
 31
0.0
  0
LINE
  5
2FC9
330
2F7A
100
AcDbEntity
  8
0
 62
     0
100
AcDbLine
 10
43.49221216833711
 20
17.62129812693876
 30
0.0
 11
40.6922121683371
 21
20.42129812693872
 31
0.0
  0
LINE
  5
2FCA
330
2F7A
100
AcDbEntity
  8
0
 62
     0
100
AcDbLine
 10
38.40072526776009
 20
22.71278502751573
 30
0.0
 11
37.86351042698709
 21
23.24999986828879
 31
0.0
  0
LINE
  5
2FCB
330
2F7A
100
AcDbEntity
  8
0
 62
     0
100
AcDbLine
 10
52.56577464298647
 20
8.547735652289418
 30
0.0
 11
50.14221216833715
 21
10.97129812693873
 31
0.0
  0
LINE
  5
2FCC
330
2F7A
100
AcDbEntity
  8
0
 62
     0
100
AcDbLine
 10
43.49221216833706
 20
16.72327251483181
 30
0.0
 11
40.6922121683371
 21
19.52327251483183
 31
0.0
  0
LINE
  5
2FCD
330
2F7A
100
AcDbEntity
  8
0
 62
     0
100
AcDbLine
 10
38.20179760350749
 20
22.01368707966139
 30
0.0
 11
36.9654848148802
 21
23.24999986828874
 31
0.0
  0
LINE
  5
2FCE
330
2F7A
100
AcDbEntity
  8
0
 62
     0
100
AcDbLine
 10
52.18278784481118
 20
8.032696838357765
 30
0.0
 11
50.04492698545067
 21
10.17055769771826
 31
0.0
  0
LINE
  5
2FCF
330
2F7A
100
AcDbEntity
  8
0
 62
     0
100
AcDbLine
 10
43.49221216833706
 20
15.82524690272492
 30
0.0
 11
40.6922121683371
 21
18.62524690272488
 31
0.0
  0
LINE
  5
2FD0
330
2F7A
100
AcDbEntity
  8
0
 62
     0
100
AcDbLine
 10
37.9862714566018
 20
21.33118761446013
 30
0.0
 11
36.07705589313122
 21
23.24040317793077
 31
0.0
  0
LINE
  5
2FD1
330
2F7A
100
AcDbEntity
  8
0
 62
     0
100
AcDbLine
 10
51.69646887969554
 20
7.620990191366388
 30
0.0
 11
49.36745920277331
 21
9.949999868288671
 31
0.0
  0
LINE
  5
2FD2
330
2F7A
100
AcDbEntity
  8
0
 62
     0
100
AcDbLine
 10
43.49221216833711
 20
14.92722129061803
 30
0.0
 11
40.6922121683371
 21
17.72722129061799
 31
0.0
  0
LINE
  5
2FD3
330
2F7A
100
AcDbEntity
  8
0
 62
     0
100
AcDbLine
 10
37.77074530969628
 20
20.64868814925887
 30
0.0
 11
35.64274530969623
 21
22.77668814925891
 31
0.0
  0
LINE
  5
2FD4
330
2F7A
100
AcDbEntity
  8
0
 62
     0
100
AcDbLine
 10
51.10038493123517
 20
7.319048527719928
 30
0.0
 11
48.46943359066642
 21
9.949999868288728
 31
0.0
  0
LINE
  5
2FD5
330
2F7A
100
AcDbEntity
  8
0
 62
     0
100
AcDbLine
 10
43.49221216833706
 20
14.02919567851114
 30
0.0
 11
40.6922121683371
 21
16.8291956785111
 31
0.0
  0
LINE
  5
2FD6
330
2F7A
100
AcDbEntity
  8
0
 62
     0
100
AcDbLine
 10
37.55521916279042
 20
19.96618868405778
 30
0.0
 11
35.42721916279043
 21
22.09418868405776
 31
0.0
  0
LINE
  5
2FD7
330
2F7A
100
AcDbEntity
  8
0
 62
     0
100
AcDbLine
 10
50.3627122795877
 20
7.158695567260508
 30
0.0
 11
47.57140797855953
 21
9.949999868288671
 31
0.0
  0
LINE
  5
2FD8
330
2F7A
100
AcDbEntity
  8
0
 62
     0
100
AcDbLine
 10
43.49221216833706
 20
13.13117006640419
 30
0.0
 11
40.69221216833705
 21
15.93117006640414
 31
0.0
  0
LINE
  5
2FD9
330
2F7A
100
AcDbEntity
  8
0
 62
     0
100
AcDbLine
 10
37.33969301588484
 20
19.2836892188564
 30
0.0
 11
35.21169301588475
 21
21.41168921885645
 31
0.0
  0
LINE
  5
2FDA
330
2F7A
100
AcDbEntity
  8
0
 62
     0
100
AcDbLine
 10
49.47338236645265
 20
7.149999868288603
 30
0.0
 11
46.67338236645258
 21
9.949999868288671
 31
0.0
  0
LINE
  5
2FDB
330
2F7A
100
AcDbEntity
  8
0
 62
     0
100
AcDbLine
 10
43.49221216833706
 20
12.2331444542973
 30
0.0
 11
40.6922121683371
 21
15.03314445429731
 31
0.0
  0
LINE
  5
2FDC
330
2F7A
100
AcDbEntity
  8
0
 62
     0
100
AcDbLine
 10
37.12416686897927
 20
18.60118975365514
 30
0.0
 11
34.99616686897911
 21
20.72918975365524
 31
0.0
  0
LINE
  5
2FDD
330
2F7A
100
AcDbEntity
  8
0
 62
     0
100
AcDbLine
 10
48.57535675434576
 20
7.149999868288659
 30
0.0
 11
46.14174505704937
 21
9.583611565585044
 31
0.0
  0
LINE
  5
2FDE
330
2F7A
100
AcDbEntity
  8
0
 62
     0
100
AcDbLine
 10
36.90864072207352
 20
17.91869028845394
 30
0.0
 11
34.78064072207348
 21
20.04669028845398
 31
0.0
  0
LINE
  5
2FDF
330
2F7A
100
AcDbEntity
  8
0
 62
     0
100
AcDbLine
 10
43.49221216833706
 20
11.33511884219041
 30
0.0
 11
40.6922121683371
 21
14.13511884219036
 31
0.0
  0
LINE
  5
2FE0
330
2F7A
100
AcDbEntity
  8
0
 62
     0
100
AcDbLine
 10
32.64221216833709
 20
22.18511884219037
 30
0.0
 11
31.57733114223879
 21
23.24999986828862
 31
0.0
  0
LINE
  5
2FE1
330
2F7A
100
AcDbEntity
  8
0
 62
     0
100
AcDbLine
 10
47.67733114223887
 20
7.149999868288603
 30
0.0
 11
46.11721216833712
 21
8.710118842190354
 31
0.0
  0
LINE
  5
2FE2
330
2F7A
100
AcDbEntity
  8
0
 62
     0
100
AcDbLine
 10
36.69311457516784
 20
17.23619082325268
 30
0.0
 11
34.56511457516785
 21
19.36419082325267
 31
0.0
  0
LINE
  5
2FE3
330
2F7A
100
AcDbEntity
  8
0
 62
     0
100
AcDbLine
 10
43.49221216833706
 20
10.43709323008346
 30
0.0
 11
40.69221216833705
 21
13.23709323008347
 31
0.0
  0
LINE
  5
2FE4
330
2F7A
100
AcDbEntity
  8
0
 62
     0
100
AcDbLine
 10
32.64221216833709
 20
21.28709323008342
 30
0.0
 11
30.67930553013189
 21
23.24999986828862
 31
0.0
  0
LINE
  5
2FE5
330
2F7A
100
AcDbEntity
  8
0
 62
     0
100
AcDbLine
 10
46.77930553013186
 20
7.149999868288659
 30
0.0
 11
46.11721216833706
 21
7.812093230083405
 31
0.0
  0
LINE
  5
2FE6
330
2F7A
100
AcDbEntity
  8
0
 62
     0
100
AcDbLine
 10
36.47758842826215
 20
16.55369135805142
 30
0.0
 11
34.34958842826211
 21
18.68169135805146
 31
0.0
  0
LINE
  5
2FE7
330
2F7A
100
AcDbEntity
  8
0
 62
     0
100
AcDbLine
 10
32.64221216833703
 20
20.38906761797647
 30
0.0
 11
29.96676723943943
 21
23.06451254687414
 31
0.0
  0
LINE
  5
2FE8
330
2F7A
100
AcDbEntity
  8
0
 62
     0
100
AcDbLine
 10
43.492212168337
 20
9.53906761797657
 30
0.0
 11
40.69221216833705
 21
12.33906761797652
 31
0.0
  0
LINE
  5
2FE9
330
2F7A
100
AcDbEntity
  8
0
 62
     0
100
AcDbLine
 10
36.26206228135652
 20
15.87119189285022
 30
0.0
 11
34.13406228135653
 21
17.9991918928502
 31
0.0
  0
LINE
  5
2FEA
330
2F7A
100
AcDbEntity
  8
0
 62
     0
100
AcDbLine
 10
32.64221216833709
 20
19.49104200586964
 30
0.0
 11
29.84221216833702
 21
22.29104200586965
 31
0.0
  0
LINE
  5
2FEB
330
2F7A
100
AcDbEntity
  8
0
 62
     0
100
AcDbLine
 10
43.49221216833706
 20
8.641042005869678
 30
0.0
 11
40.69221216833705
 21
11.44104200586963
 31
0.0
  0
LINE
  5
2FEC
330
2F7A
100
AcDbEntity
  8
0
 62
     0
100
AcDbLine
 10
36.05697377196463
 20
15.17825479013515
 30
0.0
 11
33.91853613445078
 21
17.316692427649
 31
0.0
  0
LINE
  5
2FED
330
2F7A
100
AcDbEntity
  8
0
 62
     0
100
AcDbLine
 10
32.64221216833709
 20
18.59301639376269
 30
0.0
 11
29.84221216833702
 21
21.39301639376276
 31
0.0
  0
LINE
  5
2FEE
330
2F7A
100
AcDbEntity
  8
0
 62
     0
100
AcDbLine
 10
43.492212168337
 20
7.743016393762729
 30
0.0
 11
40.69221216833705
 21
10.54301639376274
 31
0.0
  0
LINE
  5
2FEF
330
2F7A
100
AcDbEntity
  8
0
 62
     0
100
AcDbLine
 10
36.47144713139863
 20
13.8657558185942
 30
0.0
 11
33.62798863876617
 21
16.70921431122667
 31
0.0
  0
LINE
  5
2FF0
330
2F7A
100
AcDbEntity
  8
0
 62
     0
100
AcDbLine
 10
32.64221216833715
 20
17.69499078165569
 30
0.0
 11
29.84221216833697
 21
20.49499078165581
 31
0.0
  0
LINE
  5
2FF1
330
2F7A
100
AcDbEntity
  8
0
 62
     0
100
AcDbLine
 10
43.15316717100467
 20
7.184035778988118
 30
0.0
 11
40.6922121683371
 21
9.644990781655735
 31
0.0
  0
LINE
  5
2FF2
330
2F7A
100
AcDbEntity
  8
0
 62
     0
100
AcDbLine
 10
36.88592049083268
 20
12.55325684705332
 30
0.0
 11
29.84221216833702
 21
19.59696516954898
 31
0.0
  0
LINE
  5
2FF3
330
2F7A
100
AcDbEntity
  8
0
 62
     0
100
AcDbLine
 10
27.39221216833715
 20
22.04696516954885
 30
0.0
 11
26.18917746959738
 21
23.24999986828862
 31
0.0
  0
LINE
  5
2FF4
330
2F7A
100
AcDbEntity
  8
0
 62
     0
100
AcDbLine
 10
42.28917746959734
 20
7.149999868288659
 30
0.0
 11
40.69221216833716
 21
8.746965169548843
 31
0.0
  0
LINE
  5
2FF5
330
2F7A
100
AcDbEntity
  8
0
 62
     0
100
AcDbLine
 10
37.30039385026657
 20
11.24075787551243
 30
0.0
 11
29.84221216833702
 21
18.69893955744203
 31
0.0
  0
LINE
  5
2FF6
330
2F7A
100
AcDbEntity
  8
0
 62
     0
100
AcDbLine
 10
27.39221216833715
 20
21.1489395574419
 30
0.0
 11
25.29115185749037
 21
23.24999986828868
 31
0.0
  0
LINE
  5
2FF7
330
2F7A
100
AcDbEntity
  8
0
 62
     0
100
AcDbLine
 10
41.39115185749034
 20
7.149999868288716
 30
0.0
 11
40.6922121683371
 21
7.848939557441951
 31
0.0
  0
LINE
  5
2FF8
330
2F7A
100
AcDbEntity
  8
0
 62
     0
100
AcDbLine
 10
27.12530547294704
 20
20.51782064072506
 30
0.0
 11
24.42508375473562
 21
23.21804235893643
 31
0.0
  0
LINE
  5
2FF9
330
2F7A
100
AcDbEntity
  8
0
 62
     0
100
AcDbLine
 10
37.71486720970051
 20
9.928258903971595
 30
0.0
 11
29.84221216833708
 21
17.80091394533502
 31
0.0
  0
LINE
  5
2FFA
330
2F7A
100
AcDbEntity
  8
0
 62
     0
100
AcDbLine
 10
32.9797210906787
 20
13.76537941088651
 30
0.0
 11
29.84221216833708
 21
16.90288833322813
 31
0.0
  0
LINE
  5
2FFB
330
2F7A
100
AcDbEntity
  8
0
 62
     0
100
AcDbLine
 10
26.2951006332766
 20
20.44999986828855
 30
0.0
 11
23.68704068514836
 21
23.05805981641686
 31
0.0
  0
LINE
  5
2FFC
330
2F7A
100
AcDbEntity
  8
0
 62
     0
100
AcDbLine
 10
38.12934056913451
 20
8.615759932430705
 30
0.0
 11
34.03703287682663
 21
12.70806762473853
 31
0.0
  0
LINE
  5
2FFD
330
2F7A
100
AcDbEntity
  8
0
 62
     0
100
AcDbLine
 10
32.64221216833715
 20
13.20486272112117
 30
0.0
 11
29.84221216833708
 21
16.00486272112124
 31
0.0
  0
LINE
  5
2FFE
330
2F7A
100
AcDbEntity
  8
0
 62
     0
100
AcDbLine
 10
25.39707502116959
 20
20.44999986828867
 30
0.0
 11
23.04831926931762
 21
22.79875562014063
 31
0.0
  0
LINE
  5
2FFF
330
2F7A
100
AcDbEntity
  8
0
 62
     0
100
AcDbLine
 10
38.36437942684511
 20
7.48269546261315
 30
0.0
 11
34.45150623626057
 21
11.39556865319775
 31
0.0
  0
LINE
  5
3000
330
2F7A
100
AcDbEntity
  8
0
 62
     0
100
AcDbLine
 10
32.64221216833709
 20
12.30683710901428
 30
0.0
 11
29.84221216833702
 21
15.10683710901429
 31
0.0
  0
LINE
  5
3001
330
2F7A
100
AcDbEntity
  8
0
 62
     0
100
AcDbLine
 10
24.55396151862606
 20
20.39508775872531
 30
0.0
 11
22.48957029398309
 21
22.45947898336828
 31
0.0
  0
LINE
  5
3002
330
2F7A
100
AcDbEntity
  8
0
 62
     0
100
AcDbLine
 10
37.79904940906277
 20
7.149999868288603
 30
0.0
 11
34.86597959569451
 21
10.08306968165686
 31
0.0
  0
LINE
  5
3003
330
2F7A
100
AcDbEntity
  8
0
 62
     0
100
AcDbLine
 10
32.64221216833709
 20
11.40881149690733
 30
0.0
 11
29.84221216833702
 21
14.2088114969074
 31
0.0
  0
LINE
  5
3004
330
2F7A
100
AcDbEntity
  8
0
 62
     0
100
AcDbLine
 10
23.98210532578707
 20
20.06891833945735
 30
0.0
 11
22.0019150853713
 21
22.04910857987312
 31
0.0
  0
LINE
  5
3005
330
2F7A
100
AcDbEntity
  8
0
 62
     0
100
AcDbLine
 10
36.90102379695582
 20
7.149999868288603
 30
0.0
 11
35.28045295512856
 21
8.770570710115862
 31
0.0
  0
LINE
  5
3006
330
2F7A
100
AcDbEntity
  8
0
 62
     0
100
AcDbLine
 10
27.72764130113483
 20
15.42535675200275
 30
0.0
 11
26.21756905205109
 21
16.9354290010865
 31
0.0
  0
LINE
  5
3007
330
2F7A
100
AcDbEntity
  8
0
 62
     0
100
AcDbLine
 10
32.64221216833721
 20
10.51078588480038
 30
0.0
 11
29.84221216833708
 21
13.31078588480051
 31
0.0
  0
LINE
  5
3008
330
2F7A
100
AcDbEntity
  8
0
 62
     0
100
AcDbLine
 10
23.62598375565812
 20
19.52701429747946
 30
0.0
 11
21.58254905936007
 21
21.57044899377751
 31
0.0
  0
LINE
  5
3009
330
2F7A
100
AcDbEntity
  8
0
 62
     0
100
AcDbLine
 10
35.95266518064431
 20
7.200332872493277
 30
0.0
 11
35.702311009053
 21
7.450687044084588
 31
0.0
  0
LINE
  5
300A
330
2F7A
100
AcDbEntity
  8
0
 62
     0
100
AcDbLine
 10
27.64112764099292
 20
14.61384480003772
 30
0.0
 11
25.40605710008605
 21
16.84891534094458
 31
0.0
  0
LINE
  5
300B
330
2F7A
100
AcDbEntity
  8
0
 62
     0
100
AcDbLine
 10
23.54221216833718
 20
18.71276027269345
 30
0.0
 11
21.2336100383984
 21
21.02136240263223
 31
0.0
  0
LINE
  5
300C
330
2F7A
100
AcDbEntity
  8
0
 62
     0
100
AcDbLine
 10
32.64221216833715
 20
9.612760272693435
 30
0.0
 11
29.84221216833702
 21
12.41276027269361
 31
0.0
  0
LINE
  5
300D
330
2F7A
100
AcDbEntity
  8
0
 62
     0
100
AcDbLine
 10
27.30927208169487
 20
14.04767474722876
 30
0.0
 11
24.8398870472771
 21
16.51705978164653
 31
0.0
  0
LINE
  5
300E
330
2F7A
100
AcDbEntity
  8
0
 62
     0
100
AcDbLine
 10
23.54221216833718
 20
17.81473466058651
 30
0.0
 11
20.96303033118823
 21
20.39391649773546
 31
0.0
  0
LINE
  5
300F
330
2F7A
100
AcDbEntity
  8
0
 62
     0
100
AcDbLine
 10
32.64221216833715
 20
8.714734660586543
 30
0.0
 11
29.84221216833708
 21
11.51473466058661
 31
0.0
  0
LINE
  5
3010
330
2F7A
100
AcDbEntity
  8
0
 62
     0
100
AcDbLine
 10
23.54221216833718
 20
16.91670904847961
 30
0.0
 11
20.78831645826238
 21
19.67060475855447
 31
0.0
  0
LINE
  5
3011
330
2F7A
100
AcDbEntity
  8
0
 62
     0
100
AcDbLine
 10
26.80743863955842
 20
13.65148257725843
 30
0.0
 11
24.44369487730677
 21
16.01522633951009
 31
0.0
  0
LINE
  5
3012
330
2F7A
100
AcDbEntity
  8
0
 62
     0
100
AcDbLine
 10
18.11721216833712
 20
22.34170904847974
 30
0.0
 11
17.20892134852812
 21
23.24999986828874
 31
0.0
  0
LINE
  5
3013
330
2F7A
100
AcDbEntity
  8
0
 62
     0
100
AcDbLine
 10
32.64221216833721
 20
7.816709048479651
 30
0.0
 11
29.84221216833714
 21
10.61670904847971
 31
0.0
  0
LINE
  5
3014
330
2F7A
100
AcDbEntity
  8
0
 62
     0
100
AcDbLine
 10
23.54221216833718
 20
16.01868343637272
 30
0.0
 11
20.74221216833711
 21
18.81868343637279
 31
0.0
  0
LINE
  5
3015
330
2F7A
100
AcDbEntity
  8
0
 62
     0
100
AcDbLine
 10
26.107119197131
 20
13.45377640757891
 30
0.0
 11
24.24598870762725
 21
15.31490689708266
 31
0.0
  0
LINE
  5
3016
330
2F7A
100
AcDbEntity
  8
0
 62
     0
100
AcDbLine
 10
18.11721216833706
 20
21.44368343637279
 30
0.0
 11
16.31089573642117
 21
23.24999986828868
 31
0.0
  0
LINE
  5
3017
330
2F7A
100
AcDbEntity
  8
0
 62
     0
100
AcDbLine
 10
32.35430836706649
 20
7.206587237643418
 30
0.0
 11
29.84221216833708
 21
9.718683436372771
 31
0.0
  0
LINE
  5
3018
330
2F7A
100
AcDbEntity
  8
0
 62
     0
100
AcDbLine
 10
23.54221216833718
 20
15.12065782426577
 30
0.0
 11
20.74221216833711
 21
17.92065782426584
 31
0.0
  0
LINE
  5
3019
330
2F7A
100
AcDbEntity
  8
0
 62
     0
100
AcDbLine
 10
18.00817819806673
 20
20.65469179453623
 30
0.0
 11
15.41287012431416
 21
23.24999986828874
 31
0.0
  0
LINE
  5
301A
330
2F7A
100
AcDbEntity
  8
0
 62
     0
100
AcDbLine
 10
31.5128701243143
 20
7.149999868288659
 30
0.0
 11
29.84221216833708
 21
8.820657824265879
 31
0.0
  0
LINE
  5
301B
330
2F7A
100
AcDbEntity
  8
0
 62
     0
100
AcDbLine
 10
23.54221216833713
 20
14.22263221215888
 30
0.0
 11
20.74221216833706
 21
17.02263221215889
 31
0.0
  0
LINE
  5
301C
330
2F7A
100
AcDbEntity
  8
0
 62
     0
100
AcDbLine
 10
17.31484451220734
 20
20.44999986828867
 30
0.0
 11
14.51484451220727
 21
23.24999986828874
 31
0.0
  0
LINE
  5
301D
330
2F7A
100
AcDbEntity
  8
0
 62
     0
100
AcDbLine
 10
30.61484451220735
 20
7.149999868288603
 30
0.0
 11
29.84221216833708
 21
7.92263221215893
 31
0.0
  0
LINE
  5
301E
330
2F7A
100
AcDbEntity
  8
0
 62
     0
100
AcDbLine
 10
23.54221216833724
 20
13.32460660005193
 30
0.0
 11
20.74221216833711
 21
16.12460660005206
 31
0.0
  0
LINE
  5
301F
330
2F7A
100
AcDbEntity
  8
0
 62
     0
100
AcDbLine
 10
16.41681890010045
 20
20.44999986828873
 30
0.0
 11
13.6516896279956
 21
23.21512914039357
 31
0.0
  0
LINE
  5
3020
330
2F7A
100
AcDbEntity
  8
0
 62
     0
100
AcDbLine
 10
27.38960971950018
 20
9.477209048888937
 30
0.0
 11
26.91942134893747
 21
9.947397419451704
 31
0.0
  0
LINE
  5
3021
330
2F7A
100
AcDbEntity
  8
0
 62
     0
100
AcDbLine
 10
23.54221216833724
 20
12.42658098794498
 30
0.0
 11
20.74221216833711
 21
15.22658098794511
 31
0.0
  0
LINE
  5
3022
330
2F7A
100
AcDbEntity
  8
0
 62
     0
100
AcDbLine
 10
15.5187932879935
 20
20.44999986828867
 30
0.0
 11
12.95855481951713
 21
23.01023833676509
 31
0.0
  0
LINE
  5
3023
330
2F7A
100
AcDbEntity
  8
0
 62
     0
100
AcDbLine
 10
27.39221216833721
 20
8.576580987945021
 30
0.0
 11
26.01879328799356
 21
9.949999868288671
 31
0.0
  0
LINE
  5
3024
330
2F7A
100
AcDbEntity
  8
0
 62
     0
100
AcDbLine
 10
23.54221216833718
 20
11.52855537583803
 30
0.0
 11
20.74221216833717
 21
14.3285553758381
 31
0.0
  0
LINE
  5
3025
330
2F7A
100
AcDbEntity
  8
0
 62
     0
100
AcDbLine
 10
14.62076767588667
 20
20.44999986828855
 30
0.0
 11
12.39430815966989
 21
22.67645938450533
 31
0.0
  0
LINE
  5
3026
330
2F7A
100
AcDbEntity
  8
0
 62
     0
100
AcDbLine
 10
27.39221216833715
 20
7.678555375838072
 30
0.0
 11
25.12076767588666
 21
9.949999868288557
 31
0.0
  0
LINE
  5
3027
330
2F7A
100
AcDbEntity
  8
0
 62
     0
100
AcDbLine
 10
14.11047484827207
 20
20.06226708379637
 30
0.0
 11
11.93621534742914
 21
22.2365265846393
 31
0.0
  0
LINE
  5
3028
330
2F7A
100
AcDbEntity
  8
0
 62
     0
100
AcDbLine
 10
27.00447938384479
 20
7.168262548223651
 30
0.0
 11
20.74221216833717
 21
13.43052976373127
 31
0.0
  0
LINE
  5
3029
330
2F7A
100
AcDbEntity
  8
0
 62
     0
100
AcDbLine
 10
14.09221216833714
 20
19.18250415162435
 30
0.0
 11
11.58273414496005
 21
21.69198217500144
 31
0.0
  0
LINE
  5
302A
330
2F7A
100
AcDbEntity
  8
0
 62
     0
100
AcDbLine
 10
26.12471645167289
 20
7.149999868288603
 30
0.0
 11
20.74221216833717
 21
12.53250415162432
 31
0.0
  0
LINE
  5
302B
330
2F7A
100
AcDbEntity
  8
0
 62
     0
100
AcDbLine
 10
14.15434787647257
 20
18.22234283138192
 30
0.0
 11
11.35185404266633
 21
21.02483666518821
 31
0.0
  0
LINE
  5
302C
330
2F7A
100
AcDbEntity
  8
0
 62
     0
100
AcDbLine
 10
25.22669083956589
 20
7.149999868288659
 30
0.0
 11
20.74221216833711
 21
11.63447853951737
 31
0.0
  0
LINE
  5
302D
330
2F7A
100
AcDbEntity
  8
0
 62
     0
100
AcDbLine
 10
18.4465882595598
 20
13.03207683618785
 30
0.0
 11
11.29221216833718
 21
20.18645292741047
 31
0.0
  0
LINE
  5
302E
330
2F7A
100
AcDbEntity
  8
0
 62
     0
100
AcDbLine
 10
24.27539314040234
 20
7.203271955345314
 30
0.0
 11
20.79548425539377
 21
10.68318084035388
 31
0.0
  0
LINE
  5
302F
330
2F7A
100
AcDbEntity
  8
0
 62
     0
100
AcDbLine
 10
18.63848277364502
 20
11.94215670999574
 30
0.0
 11
11.29221216833707
 21
19.28842731530369
 31
0.0
  0
LINE
  5
3030
330
2F7A
100
AcDbEntity
  8
0
 62
     0
100
AcDbLine
 10
22.90158522780075
 20
7.679054255839957
 30
0.0
 11
21.27126655588836
 21
9.309372927752406
 31
0.0
  0
LINE
  5
3031
330
2F7A
100
AcDbEntity
  8
0
 62
     0
100
AcDbLine
 10
18.64221216833721
 20
11.0404017031966
 30
0.0
 11
11.29977661575946
 21
18.38283725577429
 31
0.0
  0
LINE
  5
3032
330
2F7A
100
AcDbEntity
  8
0
 62
     0
100
AcDbLine
 10
18.64221216833709
 20
10.14237609108977
 30
0.0
 11
11.52306737408332
 21
17.26152088534348
 31
0.0
  0
LINE
  5
3033
330
2F7A
100
AcDbEntity
  8
0
 62
     0
100
AcDbLine
 10
18.56969217220518
 20
9.316870475114853
 30
0.0
 11
15.80630052858612
 21
12.08026211873391
 31
0.0
  0
LINE
  5
3034
330
2F7A
100
AcDbEntity
  8
0
 62
     0
100
AcDbLine
 10
18.32775423317633
 20
8.660782802036749
 30
0.0
 11
15.84221216833708
 21
11.146324866876
 31
0.0
  0
LINE
  5
3035
330
2F7A
100
AcDbEntity
  8
0
 62
     0
100
AcDbLine
 10
17.96563498579456
 20
8.12487643731157
 30
0.0
 11
15.8063131360364
 21
10.28419828706972
 31
0.0
  0
LINE
  5
3036
330
2F7A
100
AcDbEntity
  8
0
 62
     0
100
AcDbLine
 10
17.49940861352769
 20
7.693077197471552
 30
0.0
 11
15.24248594271057
 21
9.949999868288728
 31
0.0
  0
LINE
  5
3037
330
2F7A
100
AcDbEntity
  8
0
 62
     0
100
AcDbLine
 10
16.92614416579488
 20
7.368316033097471
 30
0.0
 11
14.34446033060362
 21
9.949999868288671
 31
0.0
  0
LINE
  5
3038
330
2F7A
100
AcDbEntity
  8
0
 62
     0
100
AcDbLine
 10
16.22073157670894
 20
7.17570301007646
 30
0.0
 11
13.44643471849673
 21
9.949999868288671
 31
0.0
  0
LINE
  5
3039
330
2F7A
100
AcDbEntity
  8
0
 62
     0
100
AcDbLine
 10
15.34840910638979
 20
7.149999868288659
 30
0.0
 11
12.54840910638978
 21
9.949999868288671
 31
0.0
  0
LINE
  5
303A
330
2F7A
100
AcDbEntity
  8
0
 62
     0
100
AcDbLine
 10
14.45038349428296
 20
7.149999868288603
 30
0.0
 11
11.89705959946508
 21
9.703323763106538
 31
0.0
  0
LINE
  5
303B
330
2F7A
100
AcDbEntity
  8
0
 62
     0
100
AcDbLine
 10
13.55235788217595
 20
7.149999868288659
 30
0.0
 11
11.81721216833716
 21
8.885145582127449
 31
0.0
  0
LINE
  5
303C
330
2F7A
100
AcDbEntity
  8
0
 62
     0
100
AcDbLine
 10
12.65433227006911
 20
7.149999868288603
 30
0.0
 11
11.81721216833716
 21
7.987119970020557
 31
0.0
  0
LINE
  5
303D
330
2F7A
100
AcDbEntity
  8
0
 62
     0
100
AcDbLine
 10
68.63389945300406
 20
7.163131645406167
 30
0.0
 11
69.02908039121985
 21
7.558312583621955
 31
0.0
  0
LINE
  5
303E
330
2F7A
100
AcDbEntity
  8
0
 62
     0
100
AcDbLine
 10
67.72274206377961
 20
7.149999868288546
 30
0.0
 11
69.0422121683373
 21
8.469469972846241
 31
0.0
  0
LINE
  5
303F
330
2F7A
100
AcDbEntity
  8
0
 62
     0
100
AcDbLine
 10
66.82471645167272
 20
7.149999868288546
 30
0.0
 11
69.0422121683373
 21
9.367495584953132
 31
0.0
  0
LINE
  5
3040
330
2F7A
100
AcDbEntity
  8
0
 62
     0
100
AcDbLine
 10
66.27340973158897
 20
7.49671876031175
 30
0.0
 11
69.04221216833724
 21
10.26552119706008
 31
0.0
  0
LINE
  5
3041
330
2F7A
100
AcDbEntity
  8
0
 62
     0
100
AcDbLine
 10
66.24221216833717
 20
8.363546809166905
 30
0.0
 11
69.04221216833724
 21
11.16354680916691
 31
0.0
  0
LINE
  5
3042
330
2F7A
100
AcDbEntity
  8
0
 62
     0
100
AcDbLine
 10
66.24221216833723
 20
9.261572421273797
 30
0.0
 11
69.04221216833724
 21
12.06157242127386
 31
0.0
  0
LINE
  5
3043
330
2F7A
100
AcDbEntity
  8
0
 62
     0
100
AcDbLine
 10
66.24221216833717
 20
10.15959803338074
 30
0.0
 11
69.04221216833724
 21
12.95959803338081
 31
0.0
  0
LINE
  5
3044
330
2F7A
100
AcDbEntity
  8
0
 62
     0
100
AcDbLine
 10
66.24221216833717
 20
11.05762364548763
 30
0.0
 11
69.04221216833724
 21
13.8576236454877
 31
0.0
  0
LINE
  5
3045
330
2F7A
100
AcDbEntity
  8
0
 62
     0
100
AcDbLine
 10
62.66877703040245
 20
7.484188507552914
 30
0.0
 11
63.80802352907301
 21
8.62343500622353
 31
0.0
  0
LINE
  5
3046
330
2F7A
100
AcDbEntity
  8
0
 62
     0
100
AcDbLine
 10
66.24221216833717
 20
11.95564925759452
 30
0.0
 11
69.04221216833724
 21
14.75564925759459
 31
0.0
  0
LINE
  5
3047
330
2F7A
100
AcDbEntity
  8
0
 62
     0
100
AcDbLine
 10
61.43820886387965
 20
7.151645953137006
 30
0.0
 11
64.14056608348897
 21
9.854003172746274
 31
0.0
  0
LINE
  5
3048
330
2F7A
100
AcDbEntity
  8
0
 62
     0
100
AcDbLine
 10
66.24221216833717
 20
12.85367486970147
 30
0.0
 11
69.04221216833724
 21
15.65367486970149
 31
0.0
  0
LINE
  5
3049
330
2F7A
100
AcDbEntity
  8
0
 62
     0
100
AcDbLine
 10
60.53853716692424
 20
7.149999868288546
 30
0.0
 11
64.14221216833727
 21
10.75367486970151
 31
0.0
  0
LINE
  5
304A
330
2F7A
100
AcDbEntity
  8
0
 62
     0
100
AcDbLine
 10
66.24221216833717
 20
13.75170048180837
 30
0.0
 11
69.04221216833718
 21
16.55170048180844
 31
0.0
  0
LINE
  5
304B
330
2F7A
100
AcDbEntity
  8
0
 62
     0
100
AcDbLine
 10
59.64051155481735
 20
7.149999868288546
 30
0.0
 11
64.14221216833721
 21
11.65170048180846
 31
0.0
  0
LINE
  5
304C
330
2F7A
100
AcDbEntity
  8
0
 62
     0
100
AcDbLine
 10
66.24221216833729
 20
14.64972609391532
 30
0.0
 11
69.04221216833724
 21
17.44972609391533
 31
0.0
  0
LINE
  5
304D
330
2F7A
100
AcDbEntity
  8
0
 62
     0
100
AcDbLine
 10
58.74248594271051
 20
7.149999868288603
 30
0.0
 11
64.14221216833727
 21
12.54972609391535
 31
0.0
  0
LINE
  5
304E
330
2F7A
100
AcDbEntity
  8
0
 62
     0
100
AcDbLine
 10
61.23762096625615
 20
10.54316050394118
 30
0.0
 11
64.14221216833727
 21
13.44775170602224
 31
0.0
  0
LINE
  5
304F
330
2F7A
100
AcDbEntity
  8
0
 62
     0
100
AcDbLine
 10
66.24221216833723
 20
15.54775170602226
 30
0.0
 11
69.04221216833724
 21
18.34775170602222
 31
0.0
  0
LINE
  5
3050
330
2F7A
100
AcDbEntity
  8
0
 62
     0
100
AcDbLine
 10
57.84446033060351
 20
7.149999868288546
 30
0.0
 11
60.74905153268463
 21
10.05459107036961
 31
0.0
  0
LINE
  5
3051
330
2F7A
100
AcDbEntity
  8
0
 62
     0
100
AcDbLine
 10
61.34221216833714
 20
11.54577731812912
 30
0.0
 11
64.14221216833721
 21
14.34577731812919
 31
0.0
  0
LINE
  5
3052
330
2F7A
100
AcDbEntity
  8
0
 62
     0
100
AcDbLine
 10
66.24221216833723
 20
16.44577731812915
 30
0.0
 11
69.04221216833718
 21
19.24577731812917
 31
0.0
  0
LINE
  5
3053
330
2F7A
100
AcDbEntity
  8
0
 62
     0
100
AcDbLine
 10
57.05838446987383
 20
7.261949619665756
 30
0.0
 11
59.74643471849669
 21
9.949999868288614
 31
0.0
  0
LINE
  5
3054
330
2F7A
100
AcDbEntity
  8
0
 62
     0
100
AcDbLine
 10
61.3422121683372
 20
12.44380293023613
 30
0.0
 11
64.14221216833721
 21
15.24380293023608
 31
0.0
  0
LINE
  5
3055
330
2F7A
100
AcDbEntity
  8
0
 62
     0
100
AcDbLine
 10
66.24221216833717
 20
17.3438029302361
 30
0.0
 11
69.04221216833718
 21
20.14380293023606
 31
0.0
  0
LINE
  5
3056
330
2F7A
100
AcDbEntity
  8
0
 62
     0
100
AcDbLine
 10
56.43039760266367
 20
7.531988364562607
 30
0.0
 11
58.84928689203412
 21
9.950877653933048
 31
0.0
  0
LINE
  5
3057
330
2F7A
100
AcDbEntity
  8
0
 62
     0
100
AcDbLine
 10
61.34221216833726
 20
13.34182854234302
 30
0.0
 11
64.14221216833721
 21
16.14182854234297
 31
0.0
  0
LINE
  5
3058
330
2F7A
100
AcDbEntity
  8
0
 62
     0
100
AcDbLine
 10
66.24221216833723
 20
18.241828542343
 30
0.0
 11
69.04221216833718
 21
21.04182854234295
 31
0.0
  0
LINE
  5
3059
330
2F7A
100
AcDbEntity
  8
0
 62
     0
100
AcDbLine
 10
55.91713772129861
 20
7.916754095304327
 30
0.0
 11
58.20580830332142
 21
10.20542467732718
 31
0.0
  0
LINE
  5
305A
330
2F7A
100
AcDbEntity
  8
0
 62
     0
100
AcDbLine
 10
61.34221216833726
 20
14.23985415444991
 30
0.0
 11
64.14221216833721
 21
17.03985415444992
 31
0.0
  0
LINE
  5
305B
330
2F7A
100
AcDbEntity
  8
0
 62
     0
100
AcDbLine
 10
66.24221216833723
 20
19.13985415444989
 30
0.0
 11
69.04221216833718
 21
21.9398541544499
 31
0.0
  0
LINE
  5
305C
330
2F7A
100
AcDbEntity
  8
0
 62
     0
100
AcDbLine
 10
55.50717354607349
 20
8.404815532186148
 30
0.0
 11
57.868570024912
 21
10.76621201102472
 31
0.0
  0
LINE
  5
305D
330
2F7A
100
AcDbEntity
  8
0
 62
     0
100
AcDbLine
 10
61.3422121683372
 20
15.13787976655686
 30
0.0
 11
64.14221216833727
 21
17.93787976655693
 31
0.0
  0
LINE
  5
305E
330
2F7A
100
AcDbEntity
  8
0
 62
     0
100
AcDbLine
 10
66.24221216833717
 20
20.03787976655684
 30
0.0
 11
69.03206301478673
 21
22.82773061300639
 31
0.0
  0
LINE
  5
305F
330
2F7A
100
AcDbEntity
  8
0
 62
     0
100
AcDbLine
 10
55.20724866763948
 20
9.002916265859141
 30
0.0
 11
57.8422121683372
 21
11.6378797665568
 31
0.0
  0
LINE
  5
3060
330
2F7A
100
AcDbEntity
  8
0
 62
     0
100
AcDbLine
 10
61.34221216833726
 20
16.03590537866369
 30
0.0
 11
64.14221216833732
 21
18.83590537866376
 31
0.0
  0
LINE
  5
3061
330
2F7A
100
AcDbEntity
  8
0
 62
     0
100
AcDbLine
 10
66.24221216833729
 20
20.93590537866379
 30
0.0
 11
68.55494866970724
 21
23.24864188003374
 31
0.0
  0
LINE
  5
3062
330
2F7A
100
AcDbEntity
  8
0
 62
     0
100
AcDbLine
 10
55.04983513268303
 20
9.743528343009529
 30
0.0
 11
57.8422121683372
 21
12.5359053786637
 31
0.0
  0
LINE
  5
3063
330
2F7A
100
AcDbEntity
  8
0
 62
     0
100
AcDbLine
 10
61.3422121683372
 20
16.93393099077064
 30
0.0
 11
64.14221216833727
 21
19.73393099077071
 31
0.0
  0
LINE
  5
3064
330
2F7A
100
AcDbEntity
  8
0
 62
     0
100
AcDbLine
 10
66.24221216833729
 20
21.83393099077068
 30
0.0
 11
67.65828104585517
 21
23.24999986828862
 31
0.0
  0
LINE
  5
3065
330
2F7A
100
AcDbEntity
  8
0
 62
     0
100
AcDbLine
 10
55.04221216833724
 20
10.63393099077063
 30
0.0
 11
57.84221216833725
 21
13.4339309907707
 31
0.0
  0
LINE
  5
3066
330
2F7A
100
AcDbEntity
  8
0
 62
     0
100
AcDbLine
 10
61.3422121683372
 20
17.83195660287759
 30
0.0
 11
64.14221216833727
 21
20.6319566028776
 31
0.0
  0
LINE
  5
3067
330
2F7A
100
AcDbEntity
  8
0
 62
     0
100
AcDbLine
 10
55.04221216833719
 20
11.53195660287758
 30
0.0
 11
57.84221216833725
 21
14.33195660287765
 31
0.0
  0
LINE
  5
3068
330
2F7A
100
AcDbEntity
  8
0
 62
     0
100
AcDbLine
 10
66.24225888308462
 20
22.73200331762501
 30
0.0
 11
66.7602087190009
 21
23.24995315354124
 31
0.0
  0
LINE
  5
3069
330
2F7A
100
AcDbEntity
  8
0
 62
     0
100
AcDbLine
 10
50.72065653762519
 20
7.21040097216553
 30
0.0
 11
52.88181106446035
 21
9.371555499000749
 31
0.0
  0
LINE
  5
306A
330
2F7A
100
AcDbEntity
  8
0
 62
     0
100
AcDbLine
 10
55.04221216833719
 20
12.42998221498447
 30
0.0
 11
57.84221216833725
 21
15.22998221498454
 31
0.0
  0
LINE
  5
306B
330
2F7A
100
AcDbEntity
  8
0
 62
     0
100
AcDbLine
 10
61.3422121683372
 20
18.72998221498448
 30
0.0
 11
64.14221216833721
 21
21.52998221498455
 31
0.0
  0
LINE
  5
306C
330
2F7A
100
AcDbEntity
  8
0
 62
     0
100
AcDbLine
 10
49.76222982164131
 20
7.149999868288659
 30
0.0
 11
52.94221216833716
 21
10.32998221498451
 31
0.0
  0
LINE
  5
306D
330
2F7A
100
AcDbEntity
  8
0
 62
     0
100
AcDbLine
 10
55.04221216833719
 20
13.32800782709137
 30
0.0
 11
57.84221216833725
 21
16.12800782709143
 31
0.0
  0
LINE
  5
306E
330
2F7A
100
AcDbEntity
  8
0
 62
     0
100
AcDbLine
 10
61.3422121683372
 20
19.62800782709138
 30
0.0
 11
64.14221216833727
 21
22.42800782709144
 31
0.0
  0
LINE
  5
306F
330
2F7A
100
AcDbEntity
  8
0
 62
     0
100
AcDbLine
 10
48.86420420953442
 20
7.149999868288603
 30
0.0
 11
52.94221216833722
 21
11.22800782709134
 31
0.0
  0
LINE
  5
3070
330
2F7A
100
AcDbEntity
  8
0
 62
     0
100
AcDbLine
 10
55.04221216833719
 20
14.22603343919831
 30
0.0
 11
57.84221216833725
 21
17.02603343919832
 31
0.0
  0
LINE
  5
3071
330
2F7A
100
AcDbEntity
  8
0
 62
     0
100
AcDbLine
 10
61.3422121683372
 20
20.52603343919827
 30
0.0
 11
63.94847471350312
 21
23.13229598436425
 31
0.0
  0
LINE
  5
3072
330
2F7A
100
AcDbEntity
  8
0
 62
     0
100
AcDbLine
 10
47.96617859742752
 20
7.149999868288659
 30
0.0
 11
52.92789356792423
 21
12.11171483878536
 31
0.0
  0
LINE
  5
3073
330
2F7A
100
AcDbEntity
  8
0
 62
     0
100
AcDbLine
 10
55.04221216833724
 20
15.12405905130532
 30
0.0
 11
57.8422121683372
 21
17.92405905130527
 31
0.0
  0
LINE
  5
3074
330
2F7A
100
AcDbEntity
  8
0
 62
     0
100
AcDbLine
 10
61.34221216833714
 20
21.42405905130522
 30
0.0
 11
63.1681529853206
 21
23.24999986828868
 31
0.0
  0
LINE
  5
3075
330
2F7A
100
AcDbEntity
  8
0
 62
     0
100
AcDbLine
 10
47.06815298532058
 20
7.149999868288659
 30
0.0
 11
52.79298119729549
 21
12.87482808026351
 31
0.0
  0
LINE
  5
3076
330
2F7A
100
AcDbEntity
  8
0
 62
     0
100
AcDbLine
 10
55.0422121683373
 20
16.02208466341215
 30
0.0
 11
57.84221216833725
 21
18.82208466341216
 31
0.0
  0
LINE
  5
3077
330
2F7A
100
AcDbEntity
  8
0
 62
     0
100
AcDbLine
 10
50.14221216833732
 20
11.12208466341218
 30
0.0
 11
52.55239374037694
 21
13.5322662354518
 31
0.0
  0
LINE
  5
3078
330
2F7A
100
AcDbEntity
  8
0
 62
     0
100
AcDbLine
 10
61.3422121683372
 20
22.32208466341211
 30
0.0
 11
62.27012737321377
 21
23.24999986828868
 31
0.0
  0
LINE
  5
3079
330
2F7A
100
AcDbEntity
  8
0
 62
     0
100
AcDbLine
 10
46.29838272634481
 20
7.278255221419726
 30
0.0
 11
48.9701273732137
 21
9.949999868288614
 31
0.0
  0
LINE
  5
307A
330
2F7A
100
AcDbEntity
  8
0
 62
     0
100
AcDbLine
 10
50.12234159320991
 20
12.00023970039171
 30
0.0
 11
52.2288944355164
 21
14.1067925426982
 31
0.0
  0
LINE
  5
307B
330
2F7A
100
AcDbEntity
  8
0
 62
     0
100
AcDbLine
 10
55.04221216833724
 20
16.9201102755191
 30
0.0
 11
57.8422121683372
 21
19.72011027551906
 31
0.0
  0
LINE
  5
307C
330
2F7A
100
AcDbEntity
  8
0
 62
     0
100
AcDbLine
 10
46.11721216833723
 20
7.995110275519039
 30
0.0
 11
48.07210176110675
 21
9.949999868288614
 31
0.0
  0
LINE
  5
307D
330
2F7A
100
AcDbEntity
  8
0
 62
     0
100
AcDbLine
 10
49.84795675607102
 20
12.62388047535984
 30
0.0
 11
51.83302331758858
 21
14.60894703687739
 31
0.0
  0
LINE
  5
307E
330
2F7A
100
AcDbEntity
  8
0
 62
     0
100
AcDbLine
 10
55.04221216833724
 20
17.818135887626
 30
0.0
 11
57.8422121683372
 21
20.61813588762601
 31
0.0
  0
LINE
  5
307F
330
2F7A
100
AcDbEntity
  8
0
 62
     0
100
AcDbLine
 10
46.11721216833717
 20
8.893135887625987
 30
0.0
 11
47.17407614899985
 21
9.949999868288671
 31
0.0
  0
LINE
  5
3080
330
2F7A
100
AcDbEntity
  8
0
 62
     0
100
AcDbLine
 10
55.04221216833724
 20
18.71616149973289
 30
0.0
 11
57.84221216833725
 21
21.51616149973284
 31
0.0
  0
LINE
  5
3081
330
2F7A
100
AcDbEntity
  8
0
 62
     0
100
AcDbLine
 10
49.40668185895396
 20
13.08063119034954
 30
0.0
 11
51.38658084627627
 21
15.06053017767186
 31
0.0
  0
LINE
  5
3082
330
2F7A
100
AcDbEntity
  8
0
 62
     0
100
AcDbLine
 10
48.95766905290049
 20
13.52964399640302
 30
0.0
 11
50.93756804022286
 21
15.50954298372545
 31
0.0
  0
LINE
  5
3083
330
2F7A
100
AcDbEntity
  8
0
 62
     0
100
AcDbLine
 10
55.04221216833724
 20
19.61418711183983
 30
0.0
 11
57.8422121683372
 21
22.41418711183979
 31
0.0
  0
LINE
  5
3084
330
2F7A
100
AcDbEntity
  8
0
 62
     0
100
AcDbLine
 10
42.578024924786
 20
7.149999868288603
 30
0.0
 11
43.49221216833718
 21
8.064187111839714
 31
0.0
  0
LINE
  5
3085
330
2F7A
100
AcDbEntity
  8
0
 62
     0
100
AcDbLine
 10
48.50865624684701
 20
13.97865680245649
 30
0.0
 11
50.48855523416938
 21
15.95855578977892
 31
0.0
  0
LINE
  5
3086
330
2F7A
100
AcDbEntity
  8
0
 62
     0
100
AcDbLine
 10
55.04221216833719
 20
20.51221272394673
 30
0.0
 11
57.65603126023854
 21
23.12603181584802
 31
0.0
  0
LINE
  5
3087
330
2F7A
100
AcDbEntity
  8
0
 62
     0
100
AcDbLine
 10
41.67999931267906
 20
7.149999868288603
 30
0.0
 11
43.49221216833723
 21
8.96221272394672
 31
0.0
  0
LINE
  5
3088
330
2F7A
100
AcDbEntity
  8
0
 62
     0
100
AcDbLine
 10
48.05964344079353
 20
14.42766960850997
 30
0.0
 11
50.03954242811591
 21
16.4075685958324
 31
0.0
  0
LINE
  5
3089
330
2F7A
100
AcDbEntity
  8
0
 62
     0
100
AcDbLine
 10
55.04221216833719
 20
21.41023833605367
 30
0.0
 11
56.88197370057219
 21
23.24999986828868
 31
0.0
  0
LINE
  5
308A
330
2F7A
100
AcDbEntity
  8
0
 62
     0
100
AcDbLine
 10
40.89358483843414
 20
7.261611006150587
 30
0.0
 11
43.49221216833718
 21
9.860238336053669
 31
0.0
  0
LINE
  5
308B
330
2F7A
100
AcDbEntity
  8
0
 62
     0
100
AcDbLine
 10
47.61063063474011
 20
14.87668241456339
 30
0.0
 11
49.59052962206249
 21
16.85658140188581
 31
0.0
  0
LINE
  5
308C
330
2F7A
100
AcDbEntity
  8
0
 62
     0
100
AcDbLine
 10
55.0422121683373
 20
22.30826394816062
 30
0.0
 11
55.9839480884653
 21
23.24999986828862
 31
0.0
  0
LINE
  5
308D
330
2F7A
100
AcDbEntity
  8
0
 62
     0
100
AcDbLine
 10
40.69221216833722
 20
7.958263948160549
 30
0.0
 11
43.49221216833723
 21
10.7582639481605
 31
0.0
  0
LINE
  5
308E
330
2F7A
100
AcDbEntity
  8
0
 62
     0
100
AcDbLine
 10
47.16161782868664
 20
15.32569522061686
 30
0.0
 11
49.14151681600902
 21
17.30559420793929
 31
0.0
  0
LINE
  5
308F
330
2F7A
100
AcDbEntity
  8
0
 62
     0
100
AcDbLine
 10
40.69221216833722
 20
8.856289560267498
 30
0.0
 11
43.49221216833718
 21
11.65628956026745
 31
0.0
  0
LINE
  5
3090
330
2F7A
100
AcDbEntity
  8
0
 62
     0
100
AcDbLine
 10
46.71463392764531
 20
15.77673693168253
 30
0.0
 11
48.69860746102734
 21
17.7607104650645
 31
0.0
  0
LINE
  5
3091
330
2F7A
100
AcDbEntity
  8
0
 62
     0
100
AcDbLine
 10
40.69221216833722
 20
9.75431517237439
 30
0.0
 11
43.49221216833718
 21
12.5543151723744
 31
0.0
  0
LINE
  5
3092
330
2F7A
100
AcDbEntity
  8
0
 62
     0
100
AcDbLine
 10
51.38789686425139
 20
20.44999986828861
 30
0.0
 11
52.41721216833724
 21
21.47931517237441
 31
0.0
  0
LINE
  5
3093
330
2F7A
100
AcDbEntity
  8
0
 62
     0
100
AcDbLine
 10
38.19955594362699
 20
7.261658947664159
 30
0.0
 11
38.28920830508201
 21
7.351311309119239
 31
0.0
  0
LINE
  5
3094
330
2F7A
100
AcDbEntity
  8
0
 62
     0
100
AcDbLine
 10
46.31663174882334
 20
16.2767603649674
 30
0.0
 11
48.41626602624194
 21
18.376394642386
 31
0.0
  0
LINE
  5
3095
330
2F7A
100
AcDbEntity
  8
0
 62
     0
100
AcDbLine
 10
40.69221216833722
 20
10.65234078448128
 30
0.0
 11
43.49221216833723
 21
13.45234078448123
 31
0.0
  0
LINE
  5
3096
330
2F7A
100
AcDbEntity
  8
0
 62
     0
100
AcDbLine
 10
50.48987125214461
 20
20.44999986828867
 30
0.0
 11
52.41721216833724
 21
22.3773407844813
 31
0.0
  0
LINE
  5
3097
330
2F7A
100
AcDbEntity
  8
0
 62
     0
100
AcDbLine
 10
37.18987125214454
 20
7.149999868288603
 30
0.0
 11
38.25565034845107
 21
8.215778964595131
 31
0.0
  0
LINE
  5
3098
330
2F7A
100
AcDbEntity
  8
0
 62
     0
100
AcDbLine
 10
45.99079748442664
 20
16.84895171267766
 30
0.0
 11
48.39221216833732
 21
19.25036639658833
 31
0.0
  0
LINE
  5
3099
330
2F7A
100
AcDbEntity
  8
0
 62
     0
100
AcDbLine
 10
40.69221216833722
 20
11.55036639658817
 30
0.0
 11
43.49221216833718
 21
14.35036639658818
 31
0.0
  0
LINE
  5
309A
330
2F7A
100
AcDbEntity
  8
0
 62
     0
100
AcDbLine
 10
49.5918456400376
 20
20.44999986828861
 30
0.0
 11
52.25054323653933
 21
23.10869746479033
 31
0.0
  0
LINE
  5
309B
330
2F7A
100
AcDbEntity
  8
0
 62
     0
100
AcDbLine
 10
36.29184564003753
 20
7.149999868288546
 30
0.0
 11
38.04012420154538
 21
8.898278429796391
 31
0.0
  0
LINE
  5
309C
330
2F7A
100
AcDbEntity
  8
0
 62
     0
100
AcDbLine
 10
40.69221216833716
 20
12.44839200869512
 30
0.0
 11
43.49221216833718
 21
15.24839200869507
 31
0.0
  0
LINE
  5
309D
330
2F7A
100
AcDbEntity
  8
0
 62
     0
100
AcDbLine
 10
45.74741542175655
 20
17.50359526211451
 30
0.0
 11
51.49382002793072
 21
23.24999986828868
 31
0.0
  0
LINE
  5
309E
330
2F7A
100
AcDbEntity
  8
0
 62
     0
100
AcDbLine
 10
35.69983132938256
 20
7.45601116974052
 30
0.0
 11
37.82459805463969
 21
9.580777894997652
 31
0.0
  0
LINE
  5
309F
330
2F7A
100
AcDbEntity
  8
0
 62
     0
100
AcDbLine
 10
40.69221216833716
 20
13.34641762080207
 30
0.0
 11
43.49221216833711
 21
16.14641762080202
 31
0.0
  0
LINE
  5
30A0
330
2F7A
100
AcDbEntity
  8
0
 62
     0
100
AcDbLine
 10
45.60870856267086
 20
18.26291401513577
 30
0.0
 11
50.59579441582383
 21
23.24999986828868
 31
0.0
  0
LINE
  5
30A1
330
2F7A
100
AcDbEntity
  8
0
 62
     0
100
AcDbLine
 10
35.48107190773396
 20
8.13527736019887
 30
0.0
 11
37.609071907734
 21
10.26327736019891
 31
0.0
  0
LINE
  5
30A2
330
2F7A
100
AcDbEntity
  8
0
 62
     0
100
AcDbLine
 10
40.69221216833722
 20
14.2444432329089
 30
0.0
 11
43.49221216833718
 21
17.04444323290891
 31
0.0
  0
LINE
  5
30A3
330
2F7A
100
AcDbEntity
  8
0
 62
     0
100
AcDbLine
 10
45.59221216833726
 20
19.14444323290899
 30
0.0
 11
49.69776880371694
 21
23.24999986828868
 31
0.0
  0
LINE
  5
30A4
330
2F7A
100
AcDbEntity
  8
0
 62
     0
100
AcDbLine
 10
35.26554576082833
 20
8.817776825400073
 30
0.0
 11
37.39354576082843
 21
10.94577682540011
 31
0.0
  0
LINE
  5
30A5
330
2F7A
100
AcDbEntity
  8
0
 62
     0
100
AcDbLine
 10
40.69221216833727
 20
15.14246884501591
 30
0.0
 11
43.49221216833718
 21
17.94246884501581
 31
0.0
  0
LINE
  5
30A6
330
2F7A
100
AcDbEntity
  8
0
 62
     0
100
AcDbLine
 10
45.59221216833726
 20
20.04246884501589
 30
0.0
 11
48.79974319161004
 21
23.24999986828868
 31
0.0
  0
LINE
  5
30A7
330
2F7A
100
AcDbEntity
  8
0
 62
     0
100
AcDbLine
 10
35.05001961392264
 20
9.500276290601334
 30
0.0
 11
37.1780196139228
 21
11.62827629060149
 31
0.0
  0
LINE
  5
30A8
330
2F7A
100
AcDbEntity
  8
0
 62
     0
100
AcDbLine
 10
40.69221216833722
 20
16.04049445712286
 30
0.0
 11
43.49221216833723
 21
18.84049445712281
 31
0.0
  0
LINE
  5
30A9
330
2F7A
100
AcDbEntity
  8
0
 62
     0
100
AcDbLine
 10
34.83449346701695
 20
10.18277575580259
 30
0.0
 11
36.96249346701705
 21
12.31077575580263
 31
0.0
  0
LINE
  5
30AA
330
2F7A
100
AcDbEntity
  8
0
 62
     0
100
AcDbLine
 10
45.6455288384584
 20
20.99381112724404
 30
0.0
 11
47.84840090938172
 21
23.19668319816736
 31
0.0
  0
LINE
  5
30AB
330
2F7A
100
AcDbEntity
  8
0
 62
     0
100
AcDbLine
 10
31.80171757950296
 20
7.149999868288603
 30
0.0
 11
32.64221216833715
 21
7.990494457122792
 31
0.0
  0
LINE
  5
30AC
330
2F7A
100
AcDbEntity
  8
0
 62
     0
100
AcDbLine
 10
34.61896732011144
 20
10.86527522100391
 30
0.0
 11
36.74696732011142
 21
12.99327522100389
 31
0.0
  0
LINE
  5
30AD
330
2F7A
100
AcDbEntity
  8
0
 62
     0
100
AcDbLine
 10
40.69221216833727
 20
16.93852006922969
 30
0.0
 11
43.49221216833723
 21
19.7385200692297
 31
0.0
  0
LINE
  5
30AE
330
2F7A
100
AcDbEntity
  8
0
 62
     0
100
AcDbLine
 10
30.90369196739612
 20
7.149999868288546
 30
0.0
 11
32.64221216833727
 21
8.888520069229741
 31
0.0
  0
LINE
  5
30AF
330
2F7A
100
AcDbEntity
  8
0
 62
     0
100
AcDbLine
 10
34.40344117320569
 20
11.54777468620505
 30
0.0
 11
36.53144117320573
 21
13.67577468620515
 31
0.0
  0
LINE
  5
30B0
330
2F7A
100
AcDbEntity
  8
0
 62
     0
100
AcDbLine
 10
40.69221216833722
 20
17.83654568133664
 30
0.0
 11
43.49221216833723
 21
20.6365456813366
 31
0.0
  0
LINE
  5
30B1
330
2F7A
100
AcDbEntity
  8
0
 62
     0
100
AcDbLine
 10
30.08681610294047
 20
7.231149615939898
 30
0.0
 11
32.64221216833727
 21
9.78654568133669
 31
0.0
  0
LINE
  5
30B2
330
2F7A
100
AcDbEntity
  8
0
 62
     0
100
AcDbLine
 10
34.1879150263
 20
12.23027415140632
 30
0.0
 11
36.31591502630004
 21
14.35827415140642
 31
0.0
  0
LINE
  5
30B3
330
2F7A
100
AcDbEntity
  8
0
 62
     0
100
AcDbLine
 10
40.69221216833722
 20
18.73457129344359
 30
0.0
 11
43.49221216833718
 21
21.53457129344354
 31
0.0
  0
LINE
  5
30B4
330
2F7A
100
AcDbEntity
  8
0
 62
     0
100
AcDbLine
 10
29.8422121683372
 20
7.884571293443514
 30
0.0
 11
32.64221216833727
 21
10.68457129344358
 31
0.0
  0
LINE
  5
30B5
330
2F7A
100
AcDbEntity
  8
0
 62
     0
100
AcDbLine
 10
33.97238887939437
 20
12.91277361660752
 30
0.0
 11
36.10038887939452
 21
15.04077361660768
 31
0.0
  0
LINE
  5
30B6
330
2F7A
100
AcDbEntity
  8
0
 62
     0
100
AcDbLine
 10
40.69221216833727
 20
19.63259690555043
 30
0.0
 11
43.49221216833723
 21
22.43259690555043
 31
0.0
  0
LINE
  5
30B7
330
2F7A
100
AcDbEntity
  8
0
 62
     0
100
AcDbLine
 10
29.8422121683372
 20
8.782596905550406
 30
0.0
 11
32.64221216833727
 21
11.58259690555047
 31
0.0
  0
LINE
  5
30B8
330
2F7A
100
AcDbEntity
  8
0
 62
     0
100
AcDbLine
 10
33.73759009242263
 20
13.57600044174279
 30
0.0
 11
36.36788416035352
 21
16.20629450967368
 31
0.0
  0
LINE
  5
30B9
330
2F7A
100
AcDbEntity
  8
0
 62
     0
100
AcDbLine
 10
40.69221216833722
 20
20.53062251765737
 30
0.0
 11
43.29593674583878
 21
23.13434709515888
 31
0.0
  0
LINE
  5
30BA
330
2F7A
100
AcDbEntity
  8
0
 62
     0
100
AcDbLine
 10
29.8422121683372
 20
9.680622517657354
 30
0.0
 11
32.64221216833727
 21
12.48062251765736
 31
0.0
  0
LINE
  5
30BB
330
2F7A
100
AcDbEntity
  8
0
 62
     0
100
AcDbLine
 10
33.05040472255524
 20
13.78684068398234
 30
0.0
 11
36.78235751978752
 21
17.51879348121462
 31
0.0
  0
LINE
  5
30BC
330
2F7A
100
AcDbEntity
  8
0
 62
     0
100
AcDbLine
 10
29.8422121683372
 20
10.57864812976424
 30
0.0
 11
32.6553713526435
 21
13.39180731407054
 31
0.0
  0
LINE
  5
30BD
330
2F7A
100
AcDbEntity
  8
0
 62
     0
100
AcDbLine
 10
40.69221216833722
 20
21.42864812976426
 30
0.0
 11
42.51356390686157
 21
23.24999986828868
 31
0.0
  0
LINE
  5
30BE
330
2F7A
100
AcDbEntity
  8
0
 62
     0
100
AcDbLine
 10
26.41356390686155
 20
7.149999868288603
 30
0.0
 11
27.39221216833721
 21
8.128648129764314
 31
0.0
  0
LINE
  5
30BF
330
2F7A
100
AcDbEntity
  8
0
 62
     0
100
AcDbLine
 10
29.84221216833714
 20
11.47667374187119
 30
0.0
 11
37.19683087922146
 21
18.83129245275552
 31
0.0
  0
LINE
  5
30C0
330
2F7A
100
AcDbEntity
  8
0
 62
     0
100
AcDbLine
 10
40.69221216833716
 20
22.32667374187121
 30
0.0
 11
41.61553829475457
 21
23.24999986828862
 31
0.0
  0
LINE
  5
30C1
330
2F7A
100
AcDbEntity
  8
0
 62
     0
100
AcDbLine
 10
25.5155382947546
 20
7.149999868288659
 30
0.0
 11
27.39221216833726
 21
9.02667374187132
 31
0.0
  0
LINE
  5
30C2
330
2F7A
100
AcDbEntity
  8
0
 62
     0
100
AcDbLine
 10
29.8422121683372
 20
12.37469935397803
 30
0.0
 11
37.61130423865557
 21
20.14379142429646
 31
0.0
  0
LINE
  5
30C3
330
2F7A
100
AcDbEntity
  8
0
 62
     0
100
AcDbLine
 10
24.62919330699782
 20
7.161680492638708
 30
0.0
 11
27.25087788473103
 21
9.783365070371871
 31
0.0
  0
LINE
  5
30C4
330
2F7A
100
AcDbEntity
  8
0
 62
     0
100
AcDbLine
 10
29.84221216833714
 20
13.27272496608498
 30
0.0
 11
33.16948707054081
 21
16.59999986828864
 31
0.0
  0
LINE
  5
30C5
330
2F7A
100
AcDbEntity
  8
0
 62
     0
100
AcDbLine
 10
33.93346990578169
 20
17.36398270352952
 30
0.0
 11
38.02577759808952
 21
21.45629039583735
 31
0.0
  0
LINE
  5
30C6
330
2F7A
100
AcDbEntity
  8
0
 62
     0
100
AcDbLine
 10
23.86103278955084
 20
7.291545587298628
 30
0.0
 11
26.51948707054077
 21
9.949999868288614
 31
0.0
  0
LINE
  5
30C7
330
2F7A
100
AcDbEntity
  8
0
 62
     0
100
AcDbLine
 10
29.84221216833714
 20
14.17075057819192
 30
0.0
 11
32.66020273904547
 21
16.9887411489002
 31
0.0
  0
LINE
  5
30C8
330
2F7A
100
AcDbEntity
  8
0
 62
     0
100
AcDbLine
 10
34.34794326521563
 20
18.67648167507036
 30
0.0
 11
38.40084904989083
 21
22.72938745974562
 31
0.0
  0
LINE
  5
30C9
330
2F7A
100
AcDbEntity
  8
0
 62
     0
100
AcDbLine
 10
23.19989853272443
 20
7.528436942579219
 30
0.0
 11
25.62146145843388
 21
9.949999868288614
 31
0.0
  0
LINE
  5
30CA
330
2F7A
100
AcDbEntity
  8
0
 62
     0
100
AcDbLine
 10
29.8422121683372
 20
15.06877619029876
 30
0.0
 11
32.64221216833732
 21
17.86877619029888
 31
0.0
  0
LINE
  5
30CB
330
2F7A
100
AcDbEntity
  8
0
 62
     0
100
AcDbLine
 10
34.76241662464957
 20
19.98898064661119
 30
0.0
 11
38.00683717732164
 21
23.23340119928326
 31
0.0
  0
LINE
  5
30CC
330
2F7A
100
AcDbEntity
  8
0
 62
     0
100
AcDbLine
 10
22.62229524856013
 20
7.8488592705217
 30
0.0
 11
24.73835710705299
 21
9.964921129014612
 31
0.0
  0
LINE
  5
30CD
330
2F7A
100
AcDbEntity
  8
0
 62
     0
100
AcDbLine
 10
29.84221216833714
 20
15.96680180240571
 30
0.0
 11
32.64221216833727
 21
18.76680180240583
 31
0.0
  0
LINE
  5
30CE
330
2F7A
100
AcDbEntity
  8
0
 62
     0
100
AcDbLine
 10
35.17688998408351
 20
21.30147961815203
 30
0.0
 11
37.12541023422005
 21
23.24999986828862
 31
0.0
  0
LINE
  5
30CF
330
2F7A
100
AcDbEntity
  8
0
 62
     0
100
AcDbLine
 10
22.11734028217807
 20
8.24192991624659
 30
0.0
 11
24.10404096603468
 21
10.2286306001032
 31
0.0
  0
LINE
  5
30D0
330
2F7A
100
AcDbEntity
  8
0
 62
     0
100
AcDbLine
 10
29.84221216833714
 20
16.8648274145126
 30
0.0
 11
32.64221216833727
 21
19.66482741451278
 31
0.0
  0
LINE
  5
30D1
330
2F7A
100
AcDbEntity
  8
0
 62
     0
100
AcDbLine
 10
26.50384630011365
 20
13.52646154628917
 30
0.0
 11
27.66575049033673
 21
14.68836573651225
 31
0.0
  0
LINE
  5
30D2
330
2F7A
100
AcDbEntity
  8
0
 62
     0
100
AcDbLine
 10
35.5913633435174
 20
22.61397858969292
 30
0.0
 11
36.22738462211311
 21
23.24999986828862
 31
0.0
  0
LINE
  5
30D3
330
2F7A
100
AcDbEntity
  8
0
 62
     0
100
AcDbLine
 10
21.68090320884823
 20
8.703518455023754
 30
0.0
 11
23.6937900147625
 21
10.71640526093801
 31
0.0
  0
LINE
  5
30D4
330
2F7A
100
AcDbEntity
  8
0
 62
     0
100
AcDbLine
 10
25.57887345848382
 20
13.49951431676629
 30
0.0
 11
27.6926977198596
 21
15.61333857814202
 31
0.0
  0
LINE
  5
30D5
330
2F7A
100
AcDbEntity
  8
0
 62
     0
100
AcDbLine
 10
29.8422121683372
 20
17.7628530266196
 30
0.0
 11
32.64221216833727
 21
20.56285302661967
 31
0.0
  0
LINE
  5
30D6
330
2F7A
100
AcDbEntity
  8
0
 62
     0
100
AcDbLine
 10
21.31388398390527
 20
9.234524842187681
 30
0.0
 11
23.54221216833718
 21
11.46285302661965
 31
0.0
  0
LINE
  5
30D7
330
2F7A
100
AcDbEntity
  8
0
 62
     0
100
AcDbLine
 10
24.96472688906362
 20
13.78339335945287
 30
0.0
 11
27.40881867717297
 21
16.22748514756227
 31
0.0
  0
LINE
  5
30D8
330
2F7A
100
AcDbEntity
  8
0
 62
     0
100
AcDbLine
 10
29.8422121683372
 20
18.6608786387265
 30
0.0
 11
32.64221216833727
 21
21.46087863872657
 31
0.0
  0
LINE
  5
30D9
330
2F7A
100
AcDbEntity
  8
0
 62
     0
100
AcDbLine
 10
21.02256647398053
 20
9.841232944369835
 30
0.0
 11
23.54221216833718
 21
12.36087863872649
 31
0.0
  0
LINE
  5
30DA
330
2F7A
100
AcDbEntity
  8
0
 62
     0
100
AcDbLine
 10
24.5267669620739
 20
14.24345904457015
 30
0.0
 11
26.94875299205574
 21
16.66544507455194
 31
0.0
  0
LINE
  5
30DB
330
2F7A
100
AcDbEntity
  8
0
 62
     0
100
AcDbLine
 10
29.8422121683372
 20
19.55890425083345
 30
0.0
 11
32.64221216833727
 21
22.35890425083346
 31
0.0
  0
LINE
  5
30DC
330
2F7A
100
AcDbEntity
  8
0
 62
     0
100
AcDbLine
 10
20.82142910980587
 20
10.53812119230212
 30
0.0
 11
23.54221216833718
 21
13.25890425083343
 31
0.0
  0
LINE
  5
30DD
330
2F7A
100
AcDbEntity
  8
0
 62
     0
100
AcDbLine
 10
24.27071622966554
 20
14.88543392426868
 30
0.0
 11
26.30677811235716
 21
16.92149580696036
 31
0.0
  0
LINE
  5
30DE
330
2F7A
100
AcDbEntity
  8
0
 62
     0
100
AcDbLine
 10
20.74221216833711
 20
11.35692986294031
 30
0.0
 11
23.54221216833718
 21
14.15692986294033
 31
0.0
  0
LINE
  5
30DF
330
2F7A
100
AcDbEntity
  8
0
 62
     0
100
AcDbLine
 10
29.8422121683372
 20
20.45692986294034
 30
0.0
 11
32.48496205998208
 21
23.09967975458528
 31
0.0
  0
LINE
  5
30E0
330
2F7A
100
AcDbEntity
  8
0
 62
     0
100
AcDbLine
 10
16.65621541046152
 20
7.270933105064727
 30
0.0
 11
18.52127893156125
 21
9.135996626164455
 31
0.0
  0
LINE
  5
30E1
330
2F7A
100
AcDbEntity
  8
0
 62
     0
100
AcDbLine
 10
24.38912931314632
 20
15.90187261985636
 30
0.0
 11
25.29033941676954
 21
16.80308272347957
 31
0.0
  0
LINE
  5
30E2
330
2F7A
100
AcDbEntity
  8
0
 62
     0
100
AcDbLine
 10
20.74221216833711
 20
12.25495547504715
 30
0.0
 11
23.54221216833729
 21
15.05495547504728
 31
0.0
  0
LINE
  5
30E3
330
2F7A
100
AcDbEntity
  8
0
 62
     0
100
AcDbLine
 10
29.8422121683372
 20
21.35495547504723
 30
0.0
 11
31.73725656157859
 21
23.24999986828862
 31
0.0
  0
LINE
  5
30E4
330
2F7A
100
AcDbEntity
  8
0
 62
     0
100
AcDbLine
 10
15.63725656157856
 20
7.149999868288603
 30
0.0
 11
18.64221216833732
 21
10.1549554750473
 31
0.0
  0
LINE
  5
30E5
330
2F7A
100
AcDbEntity
  8
0
 62
     0
100
AcDbLine
 10
20.74221216833711
 20
13.1529810871541
 30
0.0
 11
23.54221216833724
 21
15.95298108715422
 31
0.0
  0
LINE
  5
30E6
330
2F7A
100
AcDbEntity
  8
0
 62
     0
100
AcDbLine
 10
29.8422121683372
 20
22.25298108715412
 30
0.0
 11
30.8392309494717
 21
23.24999986828868
 31
0.0
  0
LINE
  5
30E7
330
2F7A
100
AcDbEntity
  8
0
 62
     0
100
AcDbLine
 10
14.73923094947156
 20
7.149999868288546
 30
0.0
 11
18.64221216833726
 21
11.05298108715425
 31
0.0
  0
LINE
  5
30E8
330
2F7A
100
AcDbEntity
  8
0
 62
     0
100
AcDbLine
 10
20.74221216833711
 20
14.05100669926099
 30
0.0
 11
23.54221216833724
 21
16.85100669926117
 31
0.0
  0
LINE
  5
30E9
330
2F7A
100
AcDbEntity
  8
0
 62
     0
100
AcDbLine
 10
13.84120533736472
 20
7.149999868288659
 30
0.0
 11
18.63827281577601
 21
11.94706734669995
 31
0.0
  0
LINE
  5
30EA
330
2F7A
100
AcDbEntity
  8
0
 62
     0
100
AcDbLine
 10
20.74221216833711
 20
14.94903231136794
 30
0.0
 11
23.54221216833724
 21
17.74903231136806
 31
0.0
  0
LINE
  5
30EB
330
2F7A
100
AcDbEntity
  8
0
 62
     0
100
AcDbLine
 10
26.2431797252579
 20
20.44999986828873
 30
0.0
 11
27.39221216833732
 21
21.59903231136814
 31
0.0
  0
LINE
  5
30EC
330
2F7A
100
AcDbEntity
  8
0
 62
     0
100
AcDbLine
 10
12.94317972525777
 20
7.149999868288603
 30
0.0
 11
18.52861097945469
 21
12.73543112248552
 31
0.0
  0
LINE
  5
30ED
330
2F7A
100
AcDbEntity
  8
0
 62
     0
100
AcDbLine
 10
20.74221216833711
 20
15.84705792347483
 30
0.0
 11
23.54221216833724
 21
18.64705792347496
 31
0.0
  0
LINE
  5
30EE
330
2F7A
100
AcDbEntity
  8
0
 62
     0
100
AcDbLine
 10
15.8422121683372
 20
10.94705792347491
 30
0.0
 11
18.30627223541057
 21
13.41111799054829
 31
0.0
  0
LINE
  5
30EF
330
2F7A
100
AcDbEntity
  8
0
 62
     0
100
AcDbLine
 10
25.34515411315089
 20
20.44999986828861
 30
0.0
 11
27.39221216833732
 21
22.49705792347498
 31
0.0
  0
LINE
  5
30F0
330
2F7A
100
AcDbEntity
  8
0
 62
     0
100
AcDbLine
 10
12.10287998841084
 20
7.207725743548564
 30
0.0
 11
14.84515411315089
 21
9.949999868288614
 31
0.0
  0
LINE
  5
30F1
330
2F7A
100
AcDbEntity
  8
0
 62
     0
100
AcDbLine
 10
20.74221216833706
 20
16.74508353558172
 30
0.0
 11
23.70802687411685
 21
19.71089824136152
 31
0.0
  0
LINE
  5
30F2
330
2F7A
100
AcDbEntity
  8
0
 62
     0
100
AcDbLine
 10
15.84005307672794
 20
11.84292444397254
 30
0.0
 11
17.99784070073854
 21
14.00071206798321
 31
0.0
  0
LINE
  5
30F3
330
2F7A
100
AcDbEntity
  8
0
 62
     0
100
AcDbLine
 10
24.28131379526439
 20
20.28418516250906
 30
0.0
 11
27.1587447534174
 21
23.16161612066201
 31
0.0
  0
LINE
  5
30F4
330
2F7A
100
AcDbEntity
  8
0
 62
     0
100
AcDbLine
 10
11.81721216833722
 20
7.820083535581829
 30
0.0
 11
13.947128501044
 21
9.949999868288614
 31
0.0
  0
LINE
  5
30F5
330
2F7A
100
AcDbEntity
  8
0
 62
     0
100
AcDbLine
 10
15.62045005722723
 20
12.52134703657884
 30
0.0
 11
17.61559873589965
 21
14.51649571525126
 31
0.0
  0
LINE
  5
30F6
330
2F7A
100
AcDbEntity
  8
0
 62
     0
100
AcDbLine
 10
20.74221216833706
 20
17.64310914768867
 30
0.0
 11
26.34910288893701
 21
23.24999986828862
 31
0.0
  0
LINE
  5
30F7
330
2F7A
100
AcDbEntity
  8
0
 62
     0
100
AcDbLine
 10
11.81721216833716
 20
8.718109147688778
 30
0.0
 11
13.04910288893705
 21
9.949999868288671
 31
0.0
  0
LINE
  5
30F8
330
2F7A
100
AcDbEntity
  8
0
 62
     0
100
AcDbLine
 10
15.19419522892252
 20
12.99311782038097
 30
0.0
 11
17.17409421624489
 21
14.97301680770334
 31
0.0
  0
LINE
  5
30F9
330
2F7A
100
AcDbEntity
  8
0
 62
     0
100
AcDbLine
 10
20.74221216833711
 20
18.54113475979551
 30
0.0
 11
25.45107727683006
 21
23.24999986828851
 31
0.0
  0
LINE
  5
30FA
330
2F7A
100
AcDbEntity
  8
0
 62
     0
100
AcDbLine
 10
11.88616409035694
 20
9.685086681815391
 30
0.0
 11
12.08212535481055
 21
9.881047946269006
 31
0.0
  0
LINE
  5
30FB
330
2F7A
100
AcDbEntity
  8
0
 62
     0
100
AcDbLine
 10
20.7621872824937
 20
19.45913548605903
 30
0.0
 11
24.5330765505667
 21
23.2300247541321
 31
0.0
  0
LINE
  5
30FC
330
2F7A
100
AcDbEntity
  8
0
 62
     0
100
AcDbLine
 10
14.74518242286904
 20
13.44213062643444
 30
0.0
 11
16.72508141019142
 21
15.42202961375681
 31
0.0
  0
LINE
  5
30FD
330
2F7A
100
AcDbEntity
  8
0
 62
     0
100
AcDbLine
 10
21.06165071475948
 20
20.65662453043182
 30
0.0
 11
23.33558750619397
 21
22.93056132186632
 31
0.0
  0
LINE
  5
30FE
330
2F7A
100
AcDbEntity
  8
0
 62
     0
100
AcDbLine
 10
14.29616961681557
 20
13.89114343248792
 30
0.0
 11
16.27606860413794
 21
15.87104241981029
 31
0.0
  0
LINE
  5
30FF
330
2F7A
100
AcDbEntity
  8
0
 62
     0
100
AcDbLine
 10
13.84715681076215
 20
14.34015623854134
 30
0.0
 11
15.82705579808447
 21
16.32005522586359
 31
0.0
  0
LINE
  5
3100
330
2F7A
100
AcDbEntity
  8
0
 62
     0
100
AcDbLine
 10
13.39814400470868
 20
14.78916904459481
 30
0.0
 11
15.378042992031
 21
16.76906803191707
 31
0.0
  0
LINE
  5
3101
330
2F7A
100
AcDbEntity
  8
0
 62
     0
100
AcDbLine
 10
12.94913119865521
 20
15.23818185064828
 30
0.0
 11
14.92903018597752
 21
17.21808083797054
 31
0.0
  0
LINE
  5
3102
330
2F7A
100
AcDbEntity
  8
0
 62
     0
100
AcDbLine
 10
17.26292360418864
 20
20.44999986828861
 30
0.0
 11
18.11721216833712
 21
21.30428843243714
 31
0.0
  0
LINE
  5
3103
330
2F7A
100
AcDbEntity
  8
0
 62
     0
100
AcDbLine
 10
12.50020170662986
 20
15.68727797072989
 30
0.0
 11
14.48026735006232
 21
17.66734361416235
 31
0.0
  0
LINE
  5
3104
330
2F7A
100
AcDbEntity
  8
0
 62
     0
100
AcDbLine
 10
16.36489799208175
 20
20.44999986828861
 30
0.0
 11
18.11721216833717
 21
22.20231404454403
 31
0.0
  0
LINE
  5
3105
330
2F7A
100
AcDbEntity
  8
0
 62
     0
100
AcDbLine
 10
12.08873378207829
 20
16.1738356582851
 30
0.0
 11
14.15037046877438
 21
18.23547234498124
 31
0.0
  0
LINE
  5
3106
330
2F7A
100
AcDbEntity
  8
0
 62
     0
100
AcDbLine
 10
15.4668723799748
 20
20.44999986828861
 30
0.0
 11
18.03065326857603
 21
23.01378075688984
 31
0.0
  0
LINE
  5
3107
330
2F7A
100
AcDbEntity
  8
0
 62
     0
100
AcDbLine
 10
11.74827317581582
 20
16.73140066412958
 30
0.0
 11
14.09221216833725
 21
19.07533965665101
 31
0.0
  0
LINE
  5
3108
330
2F7A
100
AcDbEntity
  8
0
 62
     0
100
AcDbLine
 10
14.56638011869779
 20
20.44753321911849
 30
0.0
 11
17.36884676786786
 21
23.24999986828862
 31
0.0
  0
LINE
  5
3109
330
2F7A
100
AcDbEntity
  8
0
 62
     0
100
AcDbLine
 10
11.48757988008372
 20
17.36873298050443
 30
0.0
 11
14.09467881750731
 21
19.97583191792807
 31
0.0
  0
LINE
  5
310A
330
2F7A
100
AcDbEntity
  8
0
 62
     0
100
AcDbLine
 10
11.32576791783566
 20
18.10494663036325
 30
0.0
 11
16.47082115576103
 21
23.24999986828856
 31
0.0
  0
LINE
  5
310B
330
2F7A
100
AcDbEntity
  8
0
 62
     0
100
AcDbLine
 10
11.29221216833724
 20
18.96941649297178
 30
0.0
 11
15.57279554365408
 21
23.24999986828862
 31
0.0
  0
LINE
  5
310C
330
2F7A
100
AcDbEntity
  8
0
 62
     0
100
AcDbLine
 10
11.29221216833724
 20
19.86744210507868
 30
0.0
 11
14.67476993154713
 21
23.24999986828862
 31
0.0
  0
LINE
  5
310D
330
2F7A
100
AcDbEntity
  8
0
 62
     0
100
AcDbLine
 10
11.31240417877546
 20
20.78565972762385
 30
0.0
 11
13.75655230900207
 21
23.22980785785046
 31
0.0
  0
ENDBLK
  5
310F
330
2F7A
100
AcDbEntity
  8
0
100
AcDbBlockEnd
  0
BLOCK
  5
66D6
330
66CC
100
AcDbEntity
  8
0
100
AcDbBlockBegin
  2
*D2
 70
     1
 10
0.0
 20
0.0
 30
0.0
  3
*D2
  1

  0
LINE
  5
6CFC
330
66CC
100
AcDbEntity
  8
SUNPOU
100
AcDbLine
 10
522.1881620071019
 20
166.6251901685332
 30
0.0
 11
639.9539752875605
 21
166.6251901685331
 31
0.0
  0
LINE
  5
6CFD
330
66CC
100
AcDbEntity
  8
SUNPOU
100
AcDbLine
 10
530.9759252166807
 20
81.5608458250233
 30
0.0
 11
639.9539752875605
 21
81.56084582502328
 31
0.0
  0
LINE
  5
6CFE
330
66CC
100
AcDbEntity
  8
SUNPOU
100
AcDbLine
 10
636.9539752875605
 20
159.6251901685331
 30
0.0
 11
636.9539752875605
 21
88.56084582502328
 31
0.0
  0
INSERT
  5
6CFF
330
66CC
100
AcDbEntity
  8
SUNPOU
100
AcDbBlockReference
  2
_OPEN
 10
636.9539752875605
 20
166.6251901685331
 30
0.0
 41
7.0
 42
7.0
 43
7.0
 50
90.0
  0
INSERT
  5
6D00
330
66CC
100
AcDbEntity
  8
SUNPOU
100
AcDbBlockReference
  2
_OPEN
 10
636.9539752875605
 20
81.56084582502328
 30
0.0
 41
7.0
 42
7.0
 43
7.0
 50
270.0
  0
MTEXT
  5
6D01
330
66CC
100
AcDbEntity
  8
SUNPOU
100
AcDbMText
 10
631.9539752875605
 20
124.0930179967783
 30
0.0
 40
6.0
 41
0.0
 71
     5
 72
     1
  1
\A1;85
 11
0.0000000000000001
 21
1.0
 31
0.0
1001
ACAD
1000
MTEXTBEGIN
1070
    73
1070
     1
1070
    44
1040
1.0
1070
    74
1070
     0
1000
MTEXTEND
1000
MTEXTBEGIN
1070
    73
1070
     1
1070
    44
1040
1.0
1070
    74
1070
     0
1000
MTEXTEND
1000
MTEXTBEGIN
1070
    73
1070
     1
1070
    44
1040
1.0
1070
    74
1070
     0
1000
MTEXTEND
1000
MTEXTBEGIN
1070
    73
1070
     1
1070
    44
1040
1.0
1070
    74
1070
     0
1000
MTEXTEND
1000
MTEXTBEGIN
1070
    73
1070
     1
1070
    44
1040
1.0
1070
    74
1070
     0
1000
MTEXTEND
  0
POINT
  5
6D02
330
66CC
100
AcDbEntity
  8
DEFPOINTS
 62
     0
100
AcDbPoint
 10
516.1881620071019
 20
166.6251901685332
 30
0.0
  0
POINT
  5
6D03
330
66CC
100
AcDbEntity
  8
DEFPOINTS
 62
     0
100
AcDbPoint
 10
524.9759252166807
 20
81.5608458250233
 30
0.0
  0
POINT
  5
6D04
330
66CC
100
AcDbEntity
  8
DEFPOINTS
 62
     0
100
AcDbPoint
 10
636.9539752875605
 20
81.56084582502328
 30
0.0
  0
ENDBLK
  5
66D7
330
66CC
100
AcDbEntity
  8
0
100
AcDbBlockEnd
  0
BLOCK
  5
66E2
330
66D8
100
AcDbEntity
  8
0
100
AcDbBlockBegin
  2
*D3
 70
     1
 10
0.0
 20
0.0
 30
0.0
  3
*D3
  1

  0
LINE
  5
6D05
330
66D8
100
AcDbEntity
  8
SUNPOU
100
AcDbLine
 10
513.5522979739802
 20
345.2834993068834
 30
0.0
 11
625.7514730107338
 21
345.2834993068834
 31
0.0
  0
LINE
  5
6D06
330
66D8
100
AcDbEntity
  8
SUNPOU
100
AcDbLine
 10
512.9308284245957
 20
270.2834743068833
 30
0.0
 11
625.7514730107338
 21
270.2834743068833
 31
0.0
  0
LINE
  5
6D07
330
66D8
100
AcDbEntity
  8
SUNPOU
100
AcDbLine
 10
622.7514730107339
 20
338.2834993068834
 30
0.0
 11
622.7514730107339
 21
277.2834743068833
 31
0.0
  0
INSERT
  5
6D08
330
66D8
100
AcDbEntity
  8
SUNPOU
100
AcDbBlockReference
  2
_OPEN
 10
622.7514730107339
 20
345.2834993068834
 30
0.0
 41
7.0
 42
7.0
 43
7.0
 50
90.0
  0
INSERT
  5
6D09
330
66D8
100
AcDbEntity
  8
SUNPOU
100
AcDbBlockReference
  2
_OPEN
 10
622.7514730107339
 20
270.2834743068833
 30
0.0
 41
7.0
 42
7.0
 43
7.0
 50
270.0
  0
MTEXT
  5
6D0A
330
66D8
100
AcDbEntity
  8
SUNPOU
100
AcDbMText
 10
617.7514730107337
 20
307.7834868068834
 30
0.0
 40
6.0
 41
0.0
 71
     5
 72
     1
  1
\A1;75
 11
0.0000000000000001
 21
1.0
 31
0.0
1001
ACAD
1000
MTEXTBEGIN
1070
    73
1070
     1
1070
    44
1040
1.0
1070
    74
1070
     0
1000
MTEXTEND
1000
MTEXTBEGIN
1070
    73
1070
     1
1070
    44
1040
1.0
1070
    74
1070
     0
1000
MTEXTEND
1000
MTEXTBEGIN
1070
    73
1070
     1
1070
    44
1040
1.0
1070
    74
1070
     0
1000
MTEXTEND
1000
MTEXTBEGIN
1070
    73
1070
     1
1070
    44
1040
1.0
1070
    74
1070
     0
1000
MTEXTEND
1000
MTEXTBEGIN
1070
    73
1070
     1
1070
    44
1040
1.0
1070
    74
1070
     0
1000
MTEXTEND
  0
POINT
  5
6D0B
330
66D8
100
AcDbEntity
  8
DEFPOINTS
 62
     0
100
AcDbPoint
 10
507.55229797398
 20
345.2834993068834
 30
0.0
  0
POINT
  5
6D0C
330
66D8
100
AcDbEntity
  8
DEFPOINTS
 62
     0
100
AcDbPoint
 10
506.9308284245956
 20
270.2834743068833
 30
0.0
  0
POINT
  5
6D0D
330
66D8
100
AcDbEntity
  8
DEFPOINTS
 62
     0
100
AcDbPoint
 10
622.7514730107339
 20
270.2834743068833
 30
0.0
  0
ENDBLK
  5
66E3
330
66D8
100
AcDbEntity
  8
0
100
AcDbBlockEnd
  0
BLOCK
  5
66EE
330
66E4
100
AcDbEntity
  8
0
100
AcDbBlockBegin
  2
*D4
 70
     1
 10
0.0
 20
0.0
 30
0.0
  3
*D4
  1

  0
LINE
  5
6D0E
330
66E4
100
AcDbEntity
  8
SUNPOU
100
AcDbLine
 10
595.8729582659932
 20
362.7142985725737
 30
0.0
 11
652.8127002141157
 21
362.7142985725736
 31
0.0
  0
LINE
  5
6D0F
330
66E4
100
AcDbEntity
  8
SUNPOU
100
AcDbLine
 10
512.9308284245957
 20
270.2834743068833
 30
0.0
 11
652.8127002141157
 21
270.2834743068833
 31
0.0
  0
LINE
  5
6D10
330
66E4
100
AcDbEntity
  8
SUNPOU
100
AcDbLine
 10
649.8127002141156
 20
355.7142985725736
 30
0.0
 11
649.8127002141156
 21
277.2834743068833
 31
0.0
  0
INSERT
  5
6D11
330
66E4
100
AcDbEntity
  8
SUNPOU
100
AcDbBlockReference
  2
_OPEN
 10
649.8127002141156
 20
362.7142985725736
 30
0.0
 41
7.0
 42
7.0
 43
7.0
 50
90.0
  0
INSERT
  5
6D12
330
66E4
100
AcDbEntity
  8
SUNPOU
100
AcDbBlockReference
  2
_OPEN
 10
649.8127002141156
 20
270.2834743068833
 30
0.0
 41
7.0
 42
7.0
 43
7.0
 50
270.0
  0
MTEXT
  5
6D13
330
66E4
100
AcDbEntity
  8
SUNPOU
100
AcDbMText
 10
644.8127002141156
 20
316.4988864397286
 30
0.0
 40
6.0
 41
0.0
 71
     5
 72
     1
  1
\A1;92
 11
0.0000000000000001
 21
1.0
 31
0.0
1001
ACAD
1000
MTEXTBEGIN
1070
    73
1070
     1
1070
    44
1040
1.0
1070
    74
1070
     0
1000
MTEXTEND
1000
MTEXTBEGIN
1070
    73
1070
     1
1070
    44
1040
1.0
1070
    74
1070
     0
1000
MTEXTEND
1000
MTEXTBEGIN
1070
    73
1070
     1
1070
    44
1040
1.0
1070
    74
1070
     0
1000
MTEXTEND
1000
MTEXTBEGIN
1070
    73
1070
     1
1070
    44
1040
1.0
1070
    74
1070
     0
1000
MTEXTEND
1000
MTEXTBEGIN
1070
    73
1070
     1
1070
    44
1040
1.0
1070
    74
1070
     0
1000
MTEXTEND
  0
POINT
  5
6D14
330
66E4
100
AcDbEntity
  8
DEFPOINTS
 62
     0
100
AcDbPoint
 10
589.8729582659932
 20
362.7142985725737
 30
0.0
  0
POINT
  5
6D15
330
66E4
100
AcDbEntity
  8
DEFPOINTS
 62
     0
100
AcDbPoint
 10
506.9308284245956
 20
270.2834743068833
 30
0.0
  0
POINT
  5
6D16
330
66E4
100
AcDbEntity
  8
DEFPOINTS
 62
     0
100
AcDbPoint
 10
649.8127002141156
 20
270.2834743068833
 30
0.0
  0
ENDBLK
  5
66EF
330
66E4
100
AcDbEntity
  8
0
100
AcDbBlockEnd
  0
BLOCK
  5
66FA
330
66F0
100
AcDbEntity
  8
0
100
AcDbBlockBegin
  2
*D5
 70
     1
 10
0.0
 20
0.0
 30
0.0
  3
*D5
  1

  0
LINE
  5
6D17
330
66F0
100
AcDbEntity
  8
SUNPOU
100
AcDbLine
 10
378.3152275492314
 20
495.9441991982128
 30
0.0
 11
378.3152275492314
 21
532.2251948330358
 31
0.0
  0
LINE
  5
6D18
330
66F0
100
AcDbEntity
  8
SUNPOU
100
AcDbLine
 10
599.9732640644459
 20
494.5319974537997
 30
0.0
 11
599.9732640644459
 21
532.2251948330358
 31
0.0
  0
LINE
  5
6D19
330
66F0
100
AcDbEntity
  8
SUNPOU
100
AcDbLine
 10
385.3152275492313
 20
529.2251948330358
 30
0.0
 11
592.9732640644458
 21
529.2251948330358
 31
0.0
  0
INSERT
  5
6D1A
330
66F0
100
AcDbEntity
  8
SUNPOU
100
AcDbBlockReference
  2
_OPEN
 10
378.3152275492314
 20
529.2251948330358
 30
0.0
 41
7.0
 42
7.0
 43
7.0
 50
180.0
  0
INSERT
  5
6D1B
330
66F0
100
AcDbEntity
  8
SUNPOU
100
AcDbBlockReference
  2
_OPEN
 10
599.9732640644459
 20
529.2251948330358
 30
0.0
 41
7.0
 42
7.0
 43
7.0
  0
MTEXT
  5
6D1C
330
66F0
100
AcDbEntity
  8
SUNPOU
100
AcDbMText
 10
489.1442458068386
 20
534.2251948330358
 30
0.0
 40
6.0
 41
0.0
 71
     5
 72
     1
  1
\A1;222
1001
ACAD
1000
MTEXTBEGIN
1070
    73
1070
     1
1070
    44
1040
1.0
1070
    74
1070
     0
1000
MTEXTEND
1000
MTEXTBEGIN
1070
    73
1070
     1
1070
    44
1040
1.0
1070
    74
1070
     0
1000
MTEXTEND
1000
MTEXTBEGIN
1070
    73
1070
     1
1070
    44
1040
1.0
1070
    74
1070
     0
1000
MTEXTEND
1000
MTEXTBEGIN
1070
    73
1070
     1
1070
    44
1040
1.0
1070
    74
1070
     0
1000
MTEXTEND
1000
MTEXTBEGIN
1070
    73
1070
     1
1070
    44
1040
1.0
1070
    74
1070
     0
1000
MTEXTEND
  0
POINT
  5
6D1D
330
66F0
100
AcDbEntity
  8
DEFPOINTS
 62
     0
100
AcDbPoint
 10
378.3152275492314
 20
489.9441991982127
 30
0.0
  0
POINT
  5
6D1E
330
66F0
100
AcDbEntity
  8
DEFPOINTS
 62
     0
100
AcDbPoint
 10
599.9732640644459
 20
488.5319974537996
 30
0.0
  0
POINT
  5
6D1F
330
66F0
100
AcDbEntity
  8
DEFPOINTS
 62
     0
100
AcDbPoint
 10
599.9732640644459
 20
529.2251948330358
 30
0.0
  0
ENDBLK
  5
66FB
330
66F0
100
AcDbEntity
  8
0
100
AcDbBlockEnd
  0
BLOCK
  5
6706
330
66FC
100
AcDbEntity
  8
0
100
AcDbBlockBegin
  2
*D6
 70
     1
 10
0.0
 20
0.0
 30
0.0
  3
*D6
  1

  0
LINE
  5
6D20
330
66FC
100
AcDbEntity
  8
SUNPOU
100
AcDbLine
 10
378.3152275492314
 20
206.2193545570456
 30
0.0
 11
378.3152275492314
 21
246.5455442006712
 31
0.0
  0
LINE
  5
6D21
330
66FC
100
AcDbEntity
  8
SUNPOU
100
AcDbLine
 10
599.9759252166807
 20
201.212679774656
 30
0.0
 11
599.9759252166807
 21
246.5455442006712
 31
0.0
  0
LINE
  5
6D22
330
66FC
100
AcDbEntity
  8
SUNPOU
100
AcDbLine
 10
385.3152275492313
 20
243.5455442006712
 30
0.0
 11
592.9759252166807
 21
243.5455442006712
 31
0.0
  0
INSERT
  5
6D23
330
66FC
100
AcDbEntity
  8
SUNPOU
100
AcDbBlockReference
  2
_OPEN
 10
378.3152275492314
 20
243.5455442006712
 30
0.0
 41
7.0
 42
7.0
 43
7.0
 50
180.0
  0
INSERT
  5
6D24
330
66FC
100
AcDbEntity
  8
SUNPOU
100
AcDbBlockReference
  2
_OPEN
 10
599.9759252166807
 20
243.5455442006712
 30
0.0
 41
7.0
 42
7.0
 43
7.0
  0
MTEXT
  5
6D25
330
66FC
100
AcDbEntity
  8
SUNPOU
100
AcDbMText
 10
489.1455763829561
 20
248.5455442006712
 30
0.0
 40
6.0
 41
0.0
 71
     5
 72
     1
  1
\A1;222
1001
ACAD
1000
MTEXTBEGIN
1070
    73
1070
     1
1070
    44
1040
1.0
1070
    74
1070
     0
1000
MTEXTEND
1000
MTEXTBEGIN
1070
    73
1070
     1
1070
    44
1040
1.0
1070
    74
1070
     0
1000
MTEXTEND
1000
MTEXTBEGIN
1070
    73
1070
     1
1070
    44
1040
1.0
1070
    74
1070
     0
1000
MTEXTEND
1000
MTEXTBEGIN
1070
    73
1070
     1
1070
    44
1040
1.0
1070
    74
1070
     0
1000
MTEXTEND
1000
MTEXTBEGIN
1070
    73
1070
     1
1070
    44
1040
1.0
1070
    74
1070
     0
1000
MTEXTEND
  0
POINT
  5
6D26
330
66FC
100
AcDbEntity
  8
DEFPOINTS
 62
     0
100
AcDbPoint
 10
378.3152275492314
 20
200.2193545570456
 30
0.0
  0
POINT
  5
6D27
330
66FC
100
AcDbEntity
  8
DEFPOINTS
 62
     0
100
AcDbPoint
 10
599.9759252166807
 20
195.212679774656
 30
0.0
  0
POINT
  5
6D28
330
66FC
100
AcDbEntity
  8
DEFPOINTS
 62
     0
100
AcDbPoint
 10
599.9759252166807
 20
243.5455442006712
 30
0.0
  0
ENDBLK
  5
6707
330
66FC
100
AcDbEntity
  8
0
100
AcDbBlockEnd
  0
BLOCK
  5
6712
330
6708
100
AcDbEntity
  8
0
100
AcDbBlockBegin
  2
*D7
 70
     1
 10
0.0
 20
0.0
 30
0.0
  3
*D7
  1

  0
LINE
  5
6D29
330
6708
100
AcDbEntity
  8
SUNPOU
100
AcDbLine
 10
66.50330986564959
 20
206.2192847823035
 30
0.0
 11
66.70504004316763
 21
248.048388677663
 31
0.0
  0
LINE
  5
6D2A
330
6708
100
AcDbEntity
  8
SUNPOU
100
AcDbLine
 10
213.1640075330988
 20
205.5119808761672
 30
0.0
 11
213.3657377106169
 21
247.3410847715266
 31
0.0
  0
LINE
  5
6D2B
330
6708
100
AcDbEntity
  8
SUNPOU
100
AcDbLine
 10
73.69049063882319
 20
245.014664897281
 30
0.0
 11
206.3513511140261
 21
244.3748783266602
 31
0.0
  0
INSERT
  5
6D2C
330
6708
100
AcDbEntity
  8
SUNPOU
100
AcDbBlockReference
  2
_OPEN
 10
66.69057204270001
 20
245.0484235650387
 30
0.0
 41
7.0
 42
7.0
 43
7.0
 50
179.723680473952
  0
INSERT
  5
6D2D
330
6708
100
AcDbEntity
  8
SUNPOU
100
AcDbBlockReference
  2
_OPEN
 10
213.3512697101493
 20
244.3411196589024
 30
0.0
 41
7.0
 42
7.0
 43
7.0
 50
359.723680473952
  0
MTEXT
  5
6D2E
330
6708
100
AcDbEntity
  8
SUNPOU
100
AcDbMText
 10
140.0450342105373
 20
249.6947134663443
 30
0.0
 40
6.0
 41
0.0
 71
     5
 72
     1
  1
\A1;147
 11
0.9999883708747411
 21
-0.0048226668225349
 31
0.0
1001
ACAD
1000
MTEXTBEGIN
1070
    73
1070
     1
1070
    44
1040
1.0
1070
    74
1070
     0
1000
MTEXTEND
1000
MTEXTBEGIN
1070
    73
1070
     1
1070
    44
1040
1.0
1070
    74
1070
     0
1000
MTEXTEND
1000
MTEXTBEGIN
1070
    73
1070
     1
1070
    44
1040
1.0
1070
    74
1070
     0
1000
MTEXTEND
1000
MTEXTBEGIN
1070
    73
1070
     1
1070
    44
1040
1.0
1070
    74
1070
     0
1000
MTEXTEND
1000
MTEXTBEGIN
1070
    73
1070
     1
1070
    44
1040
1.0
1070
    74
1070
     0
1000
MTEXTEND
  0
POINT
  5
6D2F
330
6708
100
AcDbEntity
  8
DEFPOINTS
 62
     0
100
AcDbPoint
 10
66.47437386471439
 20
200.2193545570551
 30
0.0
  0
POINT
  5
6D30
330
6708
100
AcDbEntity
  8
DEFPOINTS
 62
     0
100
AcDbPoint
 10
213.1350715321636
 20
199.5120506509188
 30
0.0
  0
POINT
  5
6D31
330
6708
100
AcDbEntity
  8
DEFPOINTS
 62
     0
100
AcDbPoint
 10
213.3512697101493
 20
244.3411196589024
 30
0.0
  0
ENDBLK
  5
6713
330
6708
100
AcDbEntity
  8
0
100
AcDbBlockEnd
  0
BLOCK
  5
671E
330
6714
100
AcDbEntity
  8
0
100
AcDbBlockBegin
  2
*D8
 70
     1
 10
0.0
 20
0.0
 30
0.0
  3
*D8
  1

  0
LINE
  5
6D3B
330
6714
100
AcDbEntity
  8
SUNPOU
100
AcDbLine
 10
373.3152264372913
 20
201.2208458246325
 30
0.0
 11
341.581106060354
 21
201.2208458246325
 31
0.0
  0
LINE
  5
6D3C
330
6714
100
AcDbEntity
  8
SUNPOU
100
AcDbLine
 10
395.7824407409591
 20
82.7082248851326
 30
0.0
 11
341.5811060603539
 21
82.70822488513262
 31
0.0
  0
LINE
  5
6D3D
330
6714
100
AcDbEntity
  8
SUNPOU
100
AcDbLine
 10
344.5811060603539
 20
194.2208458246325
 30
0.0
 11
344.5811060603539
 21
89.70822488513261
 31
0.0
  0
INSERT
  5
6D3E
330
6714
100
AcDbEntity
  8
SUNPOU
100
AcDbBlockReference
  2
_OPEN
 10
344.5811060603539
 20
201.2208458246325
 30
0.0
 41
7.0
 42
7.0
 43
7.0
 50
90.0
  0
INSERT
  5
6D3F
330
6714
100
AcDbEntity
  8
SUNPOU
100
AcDbBlockReference
  2
_OPEN
 10
344.5811060603539
 20
82.70822488513262
 30
0.0
 41
7.0
 42
7.0
 43
7.0
 50
270.0
  0
MTEXT
  5
6D40
330
6714
100
AcDbEntity
  8
SUNPOU
100
AcDbMText
 10
339.5811060603539
 20
141.9645353548826
 30
0.0
 40
6.0
 41
0.0
 71
     5
 72
     1
  1
\A1;119
 11
0.0000000000000001
 21
1.0
 31
0.0
1001
ACAD
1000
MTEXTBEGIN
1070
    73
1070
     1
1070
    44
1040
1.0
1070
    74
1070
     0
1000
MTEXTEND
1000
MTEXTBEGIN
1070
    73
1070
     1
1070
    44
1040
1.0
1070
    74
1070
     0
1000
MTEXTEND
1000
MTEXTBEGIN
1070
    73
1070
     1
1070
    44
1040
1.0
1070
    74
1070
     0
1000
MTEXTEND
1000
MTEXTBEGIN
1070
    73
1070
     1
1070
    44
1040
1.0
1070
    74
1070
     0
1000
MTEXTEND
1000
MTEXTBEGIN
1070
    73
1070
     1
1070
    44
1040
1.0
1070
    74
1070
     0
1000
MTEXTEND
  0
POINT
  5
6D41
330
6714
100
AcDbEntity
  8
DEFPOINTS
 62
     0
100
AcDbPoint
 10
379.3152264372913
 20
201.2208458246325
 30
0.0
  0
POINT
  5
6D42
330
6714
100
AcDbEntity
  8
DEFPOINTS
 62
     0
100
AcDbPoint
 10
401.7824407409591
 20
82.7082248851326
 30
0.0
  0
POINT
  5
6D43
330
6714
100
AcDbEntity
  8
DEFPOINTS
 62
     0
100
AcDbPoint
 10
344.5811060603539
 20
82.70822488513262
 30
0.0
  0
ENDBLK
  5
671F
330
6714
100
AcDbEntity
  8
0
100
AcDbBlockEnd
  0
BLOCK
  5
672A
330
6720
100
AcDbEntity
  8
0
100
AcDbBlockBegin
  2
*D9
 70
     1
 10
0.0
 20
0.0
 30
0.0
  3
*D9
  1

  0
LINE
  5
6D44
330
6720
100
AcDbEntity
  8
SUNPOU
100
AcDbLine
 10
378.3152275492314
 20
206.2193545570456
 30
0.0
 11
378.3152275492314
 21
229.8826938539607
 31
0.0
  0
LINE
  5
6D45
330
6720
100
AcDbEntity
  8
SUNPOU
100
AcDbLine
 10
507.55229797398
 20
158.1444979564742
 30
0.0
 11
507.55229797398
 21
229.8826938539607
 31
0.0
  0
LINE
  5
6D46
330
6720
100
AcDbEntity
  8
SUNPOU
100
AcDbLine
 10
385.3152275492313
 20
226.8826938539607
 30
0.0
 11
500.5522979739801
 21
226.8826938539607
 31
0.0
  0
INSERT
  5
6D47
330
6720
100
AcDbEntity
  8
SUNPOU
100
AcDbBlockReference
  2
_OPEN
 10
378.3152275492314
 20
226.8826938539607
 30
0.0
 41
7.0
 42
7.0
 43
7.0
 50
180.0
  0
INSERT
  5
6D48
330
6720
100
AcDbEntity
  8
SUNPOU
100
AcDbBlockReference
  2
_OPEN
 10
507.55229797398
 20
226.8826938539607
 30
0.0
 41
7.0
 42
7.0
 43
7.0
  0
MTEXT
  5
6D49
330
6720
100
AcDbEntity
  8
SUNPOU
100
AcDbMText
 10
442.9337627616057
 20
231.8826938539607
 30
0.0
 40
6.0
 41
0.0
 71
     5
 72
     1
  1
\A1;129
1001
ACAD
1000
MTEXTBEGIN
1070
    73
1070
     1
1070
    44
1040
1.0
1070
    74
1070
     0
1000
MTEXTEND
1000
MTEXTBEGIN
1070
    73
1070
     1
1070
    44
1040
1.0
1070
    74
1070
     0
1000
MTEXTEND
1000
MTEXTBEGIN
1070
    73
1070
     1
1070
    44
1040
1.0
1070
    74
1070
     0
1000
MTEXTEND
1000
MTEXTBEGIN
1070
    73
1070
     1
1070
    44
1040
1.0
1070
    74
1070
     0
1000
MTEXTEND
1000
MTEXTBEGIN
1070
    73
1070
     1
1070
    44
1040
1.0
1070
    74
1070
     0
1000
MTEXTEND
  0
POINT
  5
6D4A
330
6720
100
AcDbEntity
  8
DEFPOINTS
 62
     0
100
AcDbPoint
 10
378.3152275492314
 20
200.2193545570456
 30
0.0
  0
POINT
  5
6D4B
330
6720
100
AcDbEntity
  8
DEFPOINTS
 62
     0
100
AcDbPoint
 10
507.55229797398
 20
152.1444979564742
 30
0.0
  0
POINT
  5
6D4C
330
6720
100
AcDbEntity
  8
DEFPOINTS
 62
     0
100
AcDbPoint
 10
507.55229797398
 20
226.8826938539607
 30
0.0
  0
ENDBLK
  5
672B
330
6720
100
AcDbEntity
  8
0
100
AcDbBlockEnd
  0
BLOCK
  5
6736
330
672C
100
AcDbEntity
  8
0
100
AcDbBlockBegin
  2
*D10
 70
     1
 10
0.0
 20
0.0
 30
0.0
  3
*D10
  1

  0
LINE
  5
6D6E
330
672C
100
AcDbEntity
  8
SUNPOU
100
AcDbLine
 10
374.3152253253513
 20
491.9441969743326
 30
0.0
 11
327.155348893233
 21
491.9441969743326
 31
0.0
  0
LINE
  5
6D6F
330
672C
100
AcDbEntity
  8
SUNPOU
100
AcDbLine
 10
375.4769835221143
 20
270.2834993068834
 30
0.0
 11
327.1553488932329
 21
270.2834993068834
 31
0.0
  0
LINE
  5
6D70
330
672C
100
AcDbEntity
  8
SUNPOU
100
AcDbLine
 10
330.1553488932329
 20
484.9441969743326
 30
0.0
 11
330.1553488932329
 21
277.2834993068834
 31
0.0
  0
INSERT
  5
6D71
330
672C
100
AcDbEntity
  8
SUNPOU
100
AcDbBlockReference
  2
_OPEN
 10
330.1553488932329
 20
491.9441969743326
 30
0.0
 41
7.0
 42
7.0
 43
7.0
 50
90.0
  0
INSERT
  5
6D72
330
672C
100
AcDbEntity
  8
SUNPOU
100
AcDbBlockReference
  2
_OPEN
 10
330.1553488932329
 20
270.2834993068834
 30
0.0
 41
7.0
 42
7.0
 43
7.0
 50
270.0
  0
MTEXT
  5
6D73
330
672C
100
AcDbEntity
  8
SUNPOU
100
AcDbMText
 10
325.1553488932328
 20
381.113848140608
 30
0.0
 40
6.0
 41
0.0
 71
     5
 72
     1
  1
\A1;222
 11
0.0000000000000001
 21
1.0
 31
0.0
1001
ACAD
1000
MTEXTBEGIN
1070
    73
1070
     1
1070
    44
1040
1.0
1070
    74
1070
     0
1000
MTEXTEND
1000
MTEXTBEGIN
1070
    73
1070
     1
1070
    44
1040
1.0
1070
    74
1070
     0
1000
MTEXTEND
1000
MTEXTBEGIN
1070
    73
1070
     1
1070
    44
1040
1.0
1070
    74
1070
     0
1000
MTEXTEND
1000
MTEXTBEGIN
1070
    73
1070
     1
1070
    44
1040
1.0
1070
    74
1070
     0
1000
MTEXTEND
1000
MTEXTBEGIN
1070
    73
1070
     1
1070
    44
1040
1.0
1070
    74
1070
     0
1000
MTEXTEND
  0
POINT
  5
6D74
330
672C
100
AcDbEntity
  8
DEFPOINTS
 62
     0
100
AcDbPoint
 10
380.3152253253513
 20
491.9441969743326
 30
0.0
  0
POINT
  5
6D75
330
672C
100
AcDbEntity
  8
DEFPOINTS
 62
     0
100
AcDbPoint
 10
381.4769835221143
 20
270.2834993068834
 30
0.0
  0
POINT
  5
6D76
330
672C
100
AcDbEntity
  8
DEFPOINTS
 62
     0
100
AcDbPoint
 10
330.1553488932329
 20
270.2834993068834
 30
0.0
  0
ENDBLK
  5
6737
330
672C
100
AcDbEntity
  8
0
100
AcDbBlockEnd
  0
BLOCK
  5
6742
330
6738
100
AcDbEntity
  8
0
100
AcDbBlockBegin
  2
*D11
 70
     1
 10
0.0
 20
0.0
 30
0.0
  3
*D11
  1

  0
LINE
  5
6D77
330
6738
100
AcDbEntity
  8
SUNPOU
100
AcDbLine
 10
374.3152253253513
 20
491.9441969743326
 30
0.0
 11
346.5095845175941
 21
491.9441969743326
 31
0.0
  0
LINE
  5
6D78
330
6738
100
AcDbEntity
  8
SUNPOU
100
AcDbLine
 10
372.3152275492314
 20
345.2834993068834
 30
0.0
 11
346.509584517594
 21
345.2834993068834
 31
0.0
  0
LINE
  5
6D79
330
6738
100
AcDbEntity
  8
SUNPOU
100
AcDbLine
 10
349.509584517594
 20
484.9441969743326
 30
0.0
 11
349.509584517594
 21
352.2834993068834
 31
0.0
  0
INSERT
  5
6D7A
330
6738
100
AcDbEntity
  8
SUNPOU
100
AcDbBlockReference
  2
_OPEN
 10
349.509584517594
 20
491.9441969743326
 30
0.0
 41
7.0
 42
7.0
 43
7.0
 50
90.0
  0
INSERT
  5
6D7B
330
6738
100
AcDbEntity
  8
SUNPOU
100
AcDbBlockReference
  2
_OPEN
 10
349.509584517594
 20
345.2834993068834
 30
0.0
 41
7.0
 42
7.0
 43
7.0
 50
270.0
  0
MTEXT
  5
6D7C
330
6738
100
AcDbEntity
  8
SUNPOU
100
AcDbMText
 10
344.5095845175939
 20
418.613848140608
 30
0.0
 40
6.0
 41
0.0
 71
     5
 72
     1
  1
\A1;147
 11
0.0000000000000001
 21
1.0
 31
0.0
1001
ACAD
1000
MTEXTBEGIN
1070
    73
1070
     1
1070
    44
1040
1.0
1070
    74
1070
     0
1000
MTEXTEND
1000
MTEXTBEGIN
1070
    73
1070
     1
1070
    44
1040
1.0
1070
    74
1070
     0
1000
MTEXTEND
1000
MTEXTBEGIN
1070
    73
1070
     1
1070
    44
1040
1.0
1070
    74
1070
     0
1000
MTEXTEND
1000
MTEXTBEGIN
1070
    73
1070
     1
1070
    44
1040
1.0
1070
    74
1070
     0
1000
MTEXTEND
1000
MTEXTBEGIN
1070
    73
1070
     1
1070
    44
1040
1.0
1070
    74
1070
     0
1000
MTEXTEND
  0
POINT
  5
6D7D
330
6738
100
AcDbEntity
  8
DEFPOINTS
 62
     0
100
AcDbPoint
 10
380.3152253253513
 20
491.9441969743326
 30
0.0
  0
POINT
  5
6D7E
330
6738
100
AcDbEntity
  8
DEFPOINTS
 62
     0
100
AcDbPoint
 10
378.3152275492314
 20
345.2834993068834
 30
0.0
  0
POINT
  5
6D7F
330
6738
100
AcDbEntity
  8
DEFPOINTS
 62
     0
100
AcDbPoint
 10
349.509584517594
 20
345.2834993068834
 30
0.0
  0
ENDBLK
  5
6743
330
6738
100
AcDbEntity
  8
0
100
AcDbBlockEnd
  0
BLOCK
  5
674E
330
6744
100
AcDbEntity
  8
0
100
AcDbBlockBegin
  2
*D12
 70
     1
 10
0.0
 20
0.0
 30
0.0
  3
*D12
  1

  0
LINE
  5
6D80
330
6744
100
AcDbEntity
  8
SUNPOU
100
AcDbLine
 10
372.3152275492314
 20
345.2834993068834
 30
0.0
 11
346.509584517594
 21
345.2834993068834
 31
0.0
  0
LINE
  5
6D81
330
6744
100
AcDbEntity
  8
SUNPOU
100
AcDbLine
 10
375.4769835221143
 20
270.2834993068834
 30
0.0
 11
346.509584517594
 21
270.2834993068834
 31
0.0
  0
LINE
  5
6D82
330
6744
100
AcDbEntity
  8
SUNPOU
100
AcDbLine
 10
349.509584517594
 20
338.2834993068834
 30
0.0
 11
349.509584517594
 21
277.2834993068834
 31
0.0
  0
INSERT
  5
6D83
330
6744
100
AcDbEntity
  8
SUNPOU
100
AcDbBlockReference
  2
_OPEN
 10
349.509584517594
 20
345.2834993068834
 30
0.0
 41
7.0
 42
7.0
 43
7.0
 50
90.0
  0
INSERT
  5
6D84
330
6744
100
AcDbEntity
  8
SUNPOU
100
AcDbBlockReference
  2
_OPEN
 10
349.509584517594
 20
270.2834993068834
 30
0.0
 41
7.0
 42
7.0
 43
7.0
 50
270.0
  0
MTEXT
  5
6D85
330
6744
100
AcDbEntity
  8
SUNPOU
100
AcDbMText
 10
344.5095845175939
 20
307.7834993068834
 30
0.0
 40
6.0
 41
0.0
 71
     5
 72
     1
  1
\A1;75
 11
0.0000000000000001
 21
1.0
 31
0.0
1001
ACAD
1000
MTEXTBEGIN
1070
    73
1070
     1
1070
    44
1040
1.0
1070
    74
1070
     0
1000
MTEXTEND
1000
MTEXTBEGIN
1070
    73
1070
     1
1070
    44
1040
1.0
1070
    74
1070
     0
1000
MTEXTEND
1000
MTEXTBEGIN
1070
    73
1070
     1
1070
    44
1040
1.0
1070
    74
1070
     0
1000
MTEXTEND
1000
MTEXTBEGIN
1070
    73
1070
     1
1070
    44
1040
1.0
1070
    74
1070
     0
1000
MTEXTEND
1000
MTEXTBEGIN
1070
    73
1070
     1
1070
    44
1040
1.0
1070
    74
1070
     0
1000
MTEXTEND
  0
POINT
  5
6D86
330
6744
100
AcDbEntity
  8
DEFPOINTS
 62
     0
100
AcDbPoint
 10
378.3152275492314
 20
345.2834993068834
 30
0.0
  0
POINT
  5
6D87
330
6744
100
AcDbEntity
  8
DEFPOINTS
 62
     0
100
AcDbPoint
 10
381.4769835221143
 20
270.2834993068834
 30
0.0
  0
POINT
  5
6D88
330
6744
100
AcDbEntity
  8
DEFPOINTS
 62
     0
100
AcDbPoint
 10
349.509584517594
 20
270.2834993068834
 30
0.0
  0
ENDBLK
  5
674F
330
6744
100
AcDbEntity
  8
0
100
AcDbBlockEnd
  0
ENDSEC
  0
SECTION
  2
ENTITIES
  0
TEXT
  5
46F
330
1A
100
AcDbEntity
  8
SUNPOU
 62
     4
100
AcDbText
 10
684.9983445684752
 20
37.16107601380135
 30
0.0
 40
6.0
  1
※　のきといの差込み寸法を示す
100
AcDbText
  0
LINE
  5
7BE
330
1A
100
AcDbEntity
  8
ZUWAKU
100
AcDbLine
 10
208.646601303624
 20
15.19999986828872
 30
0.0
 11
447.4243639845474
 21
15.19999986828871
 31
0.0
  0
LINE
  5
7BF
330
1A
100
AcDbEntity
  8
ZUWAKU
100
AcDbLine
 10
208.646601303624
 20
15.59999986828871
 30
0.0
 11
447.4243639845474
 21
15.59999986828872
 31
0.0
  0
LINE
  5
7C0
330
1A
100
AcDbEntity
  8
ZUWAKU
100
AcDbLine
 10
208.646601303624
 20
15.39999986828871
 30
0.0
 11
447.4243639845474
 21
15.39999986828871
 31
0.0
  0
LINE
  5
7C1
330
1A
100
AcDbEntity
  8
ZUWAKU
100
AcDbLine
 10
0.0000000135560185
 20
30.79999986828869
 30
0.0
 11
797.4000000135559
 21
30.79999986828869
 31
0.0
  0
LINE
  5
7C2
330
1A
100
AcDbEntity
  8
ZUWAKU
100
AcDbLine
 10
0.0000000135560185
 20
30.59999986828869
 30
0.0
 11
797.4000000135559
 21
30.59999986828869
 31
0.0
  0
LINE
  5
7C3
330
1A
100
AcDbEntity
  8
ZUWAKU
100
AcDbLine
 10
0.0000000135560185
 20
30.39999986828869
 30
0.0
 11
797.4000000135559
 21
30.39999986828869
 31
0.0
  0
LINE
  5
7C4
330
1A
100
AcDbEntity
  8
ZUWAKU
100
AcDbLine
 10
0.0000000135560185
 20
30.19999986828868
 30
0.0
 11
797.4000000135559
 21
30.19999986828868
 31
0.0
  0
LINE
  5
7C5
330
1A
100
AcDbEntity
  8
ZUWAKU
100
AcDbLine
 10
0.0000000135560185
 20
29.99999986828868
 30
0.0
 11
797.4000000135559
 21
29.99999986828868
 31
0.0
  0
POLYLINE
  5
7C6
330
1A
100
AcDbEntity
  8
ZUWAKU
100
AcDb2dPolyline
 66
     1
 10
0.0
 20
0.0
 30
0.0
 70
     1
  0
VERTEX
  5
71D2
330
7C6
100
AcDbEntity
  8
ZUWAKU
100
AcDbVertex
100
AcDb2dVertex
 10
0.2000000135559503
 20
551.3999998682887
 30
0.0
  0
VERTEX
  5
71D3
330
7C6
100
AcDbEntity
  8
ZUWAKU
100
AcDbVertex
100
AcDb2dVertex
 10
0.2000000135559503
 20
0.1999998682887281
 30
0.0
  0
VERTEX
  5
71D4
330
7C6
100
AcDbEntity
  8
ZUWAKU
100
AcDbVertex
100
AcDb2dVertex
 10
797.4000000135559
 20
0.1999998682887511
 30
0.0
  0
VERTEX
  5
71D5
330
7C6
100
AcDbEntity
  8
ZUWAKU
100
AcDbVertex
100
AcDb2dVertex
 10
797.4000000135561
 20
551.3999998682887
 30
0.0
  0
SEQEND
  5
71D6
330
7C6
100
AcDbEntity
  8
ZUWAKU
  0
POLYLINE
  5
7C7
330
1A
100
AcDbEntity
  8
ZUWAKU
100
AcDb2dPolyline
 66
     1
 10
0.0
 20
0.0
 30
0.0
 70
     1
  0
VERTEX
  5
71D7
330
7C7
100
AcDbEntity
  8
ZUWAKU
100
AcDbVertex
100
AcDb2dVertex
 10
0.6000000135559276
 20
550.9999998682888
 30
0.0
  0
VERTEX
  5
71D8
330
7C7
100
AcDbEntity
  8
ZUWAKU
100
AcDbVertex
100
AcDb2dVertex
 10
0.6000000135559276
 20
0.5999998682887054
 30
0.0
  0
VERTEX
  5
71D9
330
7C7
100
AcDbEntity
  8
ZUWAKU
100
AcDbVertex
100
AcDb2dVertex
 10
797.0000000135562
 20
0.5999998682887516
 30
0.0
  0
VERTEX
  5
71DA
330
7C7
100
AcDbEntity
  8
ZUWAKU
100
AcDbVertex
100
AcDb2dVertex
 10
797.000000013556
 20
550.9999998682888
 30
0.0
  0
SEQEND
  5
71DB
330
7C7
100
AcDbEntity
  8
ZUWAKU
  0
POLYLINE
  5
7C8
330
1A
100
AcDbEntity
  8
ZUWAKU
100
AcDb2dPolyline
 66
     1
 10
0.0
 20
0.0
 30
0.0
 70
     1
  0
VERTEX
  5
71DC
330
7C8
100
AcDbEntity
  8
ZUWAKU
100
AcDbVertex
100
AcDb2dVertex
 10
0.0000000135560185
 20
551.5999998682887
 30
0.0
  0
VERTEX
  5
71DD
330
7C8
100
AcDbEntity
  8
ZUWAKU
100
AcDbVertex
100
AcDb2dVertex
 10
0.0000000135560185
 20
-0.0000001317113174
 30
0.0
  0
VERTEX
  5
71DE
330
7C8
100
AcDbEntity
  8
ZUWAKU
100
AcDbVertex
100
AcDb2dVertex
 10
797.6000000135561
 20
-0.0000001317112499
 30
0.0
  0
VERTEX
  5
71DF
330
7C8
100
AcDbEntity
  8
ZUWAKU
100
AcDbVertex
100
AcDb2dVertex
 10
797.6000000135561
 20
551.5999998682888
 30
0.0
  0
SEQEND
  5
71E0
330
7C8
100
AcDbEntity
  8
ZUWAKU
  0
POLYLINE
  5
7C9
330
1A
100
AcDbEntity
  8
ZUWAKU
100
AcDb2dPolyline
 66
     1
 10
0.0
 20
0.0
 30
0.0
 70
     1
  0
VERTEX
  5
71E1
330
7C9
100
AcDbEntity
  8
ZUWAKU
100
AcDbVertex
100
AcDb2dVertex
 10
0.4000000135559958
 20
551.1999998682887
 30
0.0
  0
VERTEX
  5
71E2
330
7C9
100
AcDbEntity
  8
ZUWAKU
100
AcDbVertex
100
AcDb2dVertex
 10
0.4000000135559958
 20
0.3999998682887735
 30
0.0
  0
VERTEX
  5
71E3
330
7C9
100
AcDbEntity
  8
ZUWAKU
100
AcDbVertex
100
AcDb2dVertex
 10
797.200000013556
 20
0.3999998682887504
 30
0.0
  0
VERTEX
  5
71E4
330
7C9
100
AcDbEntity
  8
ZUWAKU
100
AcDbVertex
100
AcDb2dVertex
 10
797.200000013556
 20
551.1999998682887
 30
0.0
  0
SEQEND
  5
71E5
330
7C9
100
AcDbEntity
  8
ZUWAKU
  0
POLYLINE
  5
7CA
330
1A
100
AcDbEntity
  8
ZUWAKU
100
AcDb2dPolyline
 66
     1
 10
0.0
 20
0.0
 30
0.0
 70
     1
  0
VERTEX
  5
71E6
330
7CA
100
AcDbEntity
  8
ZUWAKU
100
AcDbVertex
100
AcDb2dVertex
 10
0.800000013555973
 20
550.7999998682887
 30
0.0
  0
VERTEX
  5
71E7
330
7CA
100
AcDbEntity
  8
ZUWAKU
100
AcDbVertex
100
AcDb2dVertex
 10
0.800000013555973
 20
0.7999998682887508
 30
0.0
  0
VERTEX
  5
71E8
330
7CA
100
AcDbEntity
  8
ZUWAKU
100
AcDbVertex
100
AcDb2dVertex
 10
796.8000000135559
 20
0.7999998682887508
 30
0.0
  0
VERTEX
  5
71E9
330
7CA
100
AcDbEntity
  8
ZUWAKU
100
AcDbVertex
100
AcDb2dVertex
 10
796.8000000135559
 20
550.7999998682887
 30
0.0
  0
SEQEND
  5
71EA
330
7CA
100
AcDbEntity
  8
ZUWAKU
  0
INSERT
  5
7CC
330
1A
100
AcDbEntity
  8
ZUWAKU
  6
CONTINUOUS
100
AcDbBlockReference
  2
*X1
 10
0.0
 20
0.0
 30
0.0
1001
ACAD
1000
HATCH
1002
{
1070
    19
1000
ANSI37
1040
0.2
1040
0.0
1000
R14_HATCH_DATA
1000
7CC
1011
1.0
1021
0.0
1031
0.0
1011
0.0
1021
1.0
1031
0.0
1011
0.0
1021
0.0
1031
1.0
1040
0.0
1010
0.0
1020
0.0
1030
1.0
1000
ANSI37
1070
     0
1070
     0
1071
        8
1071
        7
1070
     1
1070
     1
1071
       24
1040
14.50226267467587
1040
17.64484834927226
1040
-0.1989123673796348
1040
14.09221216833714
1040
18.63479784293331
1040
0.0
1040
14.09221216833714
1040
19.92499986828869
1040
-0.4142135623730912
1040
14.61721216833711
1040
20.44999986828868
1040
0.0
1040
17.59221216833702
1040
20.44999986828868
1040
0.4142135623731546
1040
18.11721216833712
1040
20.97499986828867
1040
0.0
1040
18.11721216833712
1040
22.72499986828869
1040
0.4142135623731586
1040
17.59221216833702
1040
23.24999986828868
1040
0.0
1040
14.09221216833714
1040
23.24999986828868
1040
0.4142135623730928
1040
11.29221216833718
1040
20.44999986828871
1040
0.0
1040
11.29221216833718
1040
18.63479784293344
1040
0.1989123673796619
1040
12.52236368735361
1040
15.66494936194983
1040
0.0
1040
15.43216166199829
1040
12.75515138730518
1040
-0.1989123673796613
1040
15.84221216833714
1040
11.76520189364399
1040
0.0
1040
15.84221216833714
1040
10.47499986828867
1040
-0.4142135623730911
1040
15.31721216833716
1040
9.949999868288685
1040
0.0
1040
12.34221216833725
1040
9.949999868288685
1040
0.4142135623731526
1040
11.81721216833716
1040
9.424999868288697
1040
0.0
1040
11.81721216833716
1040
7.674999868288676
1040
0.4142135623731526
1040
12.34221216833725
1040
7.149999868288688
1040
0.0
1040
15.84221216833714
1040
7.149999868288688
1040
0.4142135623731044
1040
18.64221216833721
1040
9.949999868288664
1040
0.0
1040
18.64221216833721
1040
11.76520189364393
1040
0.1989123673796604
1040
17.41206064932066
1040
14.73505037462747
1040
0.0
1071
        0
1071
        7
1070
     1
1070
     1
1071
       16
1040
23.54221216833718
1040
19.04999986828869
1040
-0.4142135623730935
1040
24.94221216833716
1040
20.44999986828868
1040
0.0
1040
26.86721216833712
1040
20.44999986828868
1040
0.4142135623731546
1040
27.39221216833721
1040
20.97499986828867
1040
0.0
1040
27.39221216833721
1040
22.72499986828869
1040
0.4142135623730951
1040
26.86721216833723
1040
23.24999986828868
1040
0.0
1040
24.94221216833705
1040
23.24999986828864
1040
0.4142135623730892
1040
20.74221216833711
1040
19.04999986828862
1040
0.0
1040
20.74221216833711
1040
11.34999986828871
1040
0.4142135623730969
1040
24.94221216833716
1040
7.149999868288688
1040
0.0
1040
26.86721216833712
1040
7.149999868288688
1040
0.4142135623731526
1040
27.39221216833721
1040
7.674999868288676
1040
0.0
1040
27.39221216833721
1040
9.424999868288697
1040
0.4142135623730891
1040
26.86721216833723
1040
9.949999868288685
1040
0.0
1040
24.94221216833716
1040
9.949999868288685
1040
-0.4142135623730928
1040
23.54221216833718
1040
11.34999986828867
1040
0.0
1071
        0
1071
        7
1070
     1
1070
     1
1071
        2
1040
24.24221216833712
1040
15.19999986828868
1040
1.0
1040
27.74221216833712
1040
15.19999986828868
1040
1.0
1071
        0
1071
        7
1070
     1
1070
     1
1071
       26
1040
37.31485865051513
1040
19.20504706185211
1040
0.0
1040
38.37649828365295
1040
22.5669059001217
1040
0.5069206636600134
1040
37.87586738445759
1040
23.24999986828868
1040
0.0
1040
36.17697800484836
1040
23.24999986828868
1040
0.3272098845218764
1040
35.676347105653
1040
22.88309383645565
1040
0.0
1040
33.80807723102122
1040
16.96690590012176
1040
-0.3272098845219541
1040
33.30744633182575
1040
16.59999986828868
1040
0.0
1040
33.1672121683373
1040
16.59999986828868
1040
-0.4142135623731526
1040
32.64221216833721
1040
17.12499986828867
1040
0.0
1040
32.64221216833721
1040
22.72499986828869
1040
0.4142135623730951
1040
32.11721216833723
1040
23.24999986828868
1040
0.0
1040
30.36721216833711
1040
23.24999986828868
1040
0.4142135623730871
1040
29.84221216833714
1040
22.7249998682887
1040
0.0
1040
29.84221216833714
1040
7.674999868288676
1040
0.4142135623730891
1040
30.36721216833711
1040
7.149999868288688
1040
0.0
1040
32.11721216833712
1040
7.149999868288688
1040
0.4142135623731526
1040
32.64221216833721
1040
7.674999868288676
1040
0.0
1040
32.64221216833721
1040
13.27499986828869
1040
-0.4142135623731526
1040
33.1672121683373
1040
13.79999986828868
1040
0.0
1040
33.30744633182587
1040
13.79999986828868
1040
-0.3272098845218915
1040
33.80807723102122
1040
13.43309383645561
1040
0.0
1040
35.676347105653
1040
7.516905900121759
1040
0.3272098845218902
1040
36.17697800484836
1040
7.149999868288688
1040
0.0
1040
37.87586738445759
1040
7.149999868288688
1040
0.5069206636600335
1040
38.37649828365295
1040
7.833093836455695
1040
0.0
1040
36.05010690517929
1040
15.19999986828882
1040
0.0
1071
        0
1071
        7
1070
     1
1070
     1
1071
        8
1040
43.49221216833711
1040
22.7249998682887
1040
0.4142135623731546
1040
42.96721216833702
1040
23.24999986828868
1040
0.0
1040
41.21721216833726
1040
23.24999986828868
1040
0.4142135623731507
1040
40.69221216833716
1040
22.7249998682887
1040
0.0
1040
40.69221216833716
1040
7.674999868288676
1040
0.4142135623731526
1040
41.21721216833726
1040
7.149999868288688
1040
0.0
1040
42.96721216833702
1040
7.149999868288688
1040
0.4142135623731526
1040
43.49221216833711
1040
7.674999868288676
1040
0.0
1071
        0
1071
        7
1070
     1
1070
     1
1071
       24
1040
48.3922121683372
1040
19.92499986828869
1040
-0.4142135623731546
1040
48.9172121683373
1040
20.44999986828868
1040
0.0
1040
51.89221216833721
1040
20.44999986828868
1040
0.4142135623730911
1040
52.41721216833719
1040
20.97499986828867
1040
0.0
1040
52.41721216833719
1040
22.72499986828869
1040
0.4142135623730952
1040
51.89221216833721
1040
23.24999986828868
1040
0.0
1040
48.3922121683372
1040
23.24999986828868
1040
0.4142135623731048
1040
45.59221216833714
1040
20.44999986828871
1040
0.0
1040
45.59221216833714
1040
18.63479784293344
1040
0.1989123673796613
1040
46.82236368735368
1040
15.66494936194989
1040
0.0
1040
49.73216166199836
1040
12.75515138730522
1040
-0.1989123673796402
1040
50.14221216833721
1040
11.76520189364415
1040
0.0
1040
50.14221216833721
1040
10.47499986828867
1040
-0.4142135623730911
1040
49.61721216833723
1040
9.949999868288685
1040
0.0
1040
46.64221216833721
1040
9.949999868288685
1040
0.4142135623731526
1040
46.11721216833712
1040
9.424999868288697
1040
0.0
1040
46.11721216833712
1040
7.674999868288676
1040
0.4142135623730891
1040
46.64221216833709
1040
7.149999868288688
1040
0.0
1040
50.14221216833721
1040
7.149999868288688
1040
0.4142135623730925
1040
52.94221216833716
1040
9.949999868288664
1040
0.0
1040
52.94221216833716
1040
11.76520189364393
1040
0.1989123673796675
1040
51.71206064932062
1040
14.73505037462759
1040
0.0
1040
48.80226267467605
1040
17.6448483492721
1040
-0.1989123673796652
1040
48.3922121683372
1040
18.63479784293327
1040
0.0
1071
        0
1071
        7
1070
     1
1070
     1
1071
       16
1040
57.84221216833714
1040
22.72499986828867
1040
0.414213562373103
1040
57.31721216833716
1040
23.24999986828868
1040
0.0
1040
55.56721216833716
1040
23.24999986828868
1040
0.4142135623730871
1040
55.04221216833719
1040
22.7249998682887
1040
0.0
1040
55.04221216833719
1040
9.949999868288664
1040
0.4142135623730926
1040
57.84221216833714
1040
7.149999868288688
1040
0.0
1040
61.34221216833714
1040
7.149999868288688
1040
0.4142135623731044
1040
64.14221216833721
1040
9.949999868288664
1040
0.0
1040
64.14221216833721
1040
22.72499986828869
1040
0.4142135623730951
1040
63.61721216833723
1040
23.24999986828868
1040
0.0
1040
61.86721216833712
1040
23.24999986828868
1040
0.4142135623730871
1040
61.34221216833714
1040
22.7249998682887
1040
0.0
1040
61.34221216833714
1040
10.99999986828866
1040
-0.414213562373088
1040
60.29221216833718
1040
9.949999868288685
1040
0.0
1040
58.89221216833721
1040
9.949999868288685
1040
-0.4142135623731197
1040
57.84221216833714
1040
10.99999986828866
1040
0.0
1071
        0
1071
        7
1070
     1
1070
     1
1071
        8
1040
69.04221216833718
1040
22.7249998682887
1040
0.4142135623730871
1040
68.51721216833721
1040
23.24999986828868
1040
0.0
1040
66.76721216833721
1040
23.24999986828868
1040
0.4142135623731507
1040
66.24221216833712
1040
22.7249998682887
1040
0.0
1040
66.24221216833712
1040
7.674999868288676
1040
0.4142135623730891
1040
66.76721216833709
1040
7.149999868288688
1040
0.0
1040
68.51721216833721
1040
7.149999868288688
1040
0.4142135623730891
1040
69.04221216833718
1040
7.674999868288676
1040
0.0
1071
        0
1070
     0
1070
     1
1040
0.0
1040
0.2
1070
     0
1070
     2
1040
0.7853981633974483
1040
-900.942304321123
1040
-13.20000013171124
1040
-0.4490128060534576
1040
0.4490128060534577
1070
     0
1040
2.356194490192344
1040
-900.942304321123
1040
-13.20000013171124
1040
-0.4490128060534577
1040
-0.4490128060534576
1070
     0
1040
0.057451373970553
1071
        8
1040
16.07985497657932
1040
15.16717351417423
1040
0.0
1040
22.40451501999519
1040
18.84406205073969
1040
0.0
1040
25.16436789921567
1040
15.5118815143594
1040
0.0
1040
30.91405999519315
1040
16.20129751473018
1040
0.0
1040
41.83847203251275
1040
16.6609097822718
1040
0.0
1040
46.89820090868557
1040
19.41857618469589
1040
0.0
1040
56.55768598595637
1040
18.72915778338369
1040
0.0
1040
67.82707963317875
1040
19.18877005092531
1040
0.0
1002
}
  0
LINE
  5
7CD
330
1A
100
AcDbEntity
  8
ZUWAKU
100
AcDbLine
 10
24.94221216833716
 20
23.24999986828864
 30
0.0
 11
26.86721216833712
 21
23.24999986828868
 31
0.0
  0
LINE
  5
7CE
330
1A
100
AcDbEntity
  8
ZUWAKU
100
AcDbLine
 10
26.86721216833712
 20
20.44999986828868
 30
0.0
 11
24.94221216833716
 21
20.44999986828868
 31
0.0
  0
LINE
  5
7CF
330
1A
100
AcDbEntity
  8
ZUWAKU
100
AcDbLine
 10
24.94221216833716
 20
9.949999868288685
 30
0.0
 11
26.86721216833712
 21
9.949999868288685
 31
0.0
  0
LINE
  5
7D0
330
1A
100
AcDbEntity
  8
ZUWAKU
100
AcDbLine
 10
26.86721216833712
 20
7.149999868288688
 30
0.0
 11
24.94221216833716
 21
7.149999868288688
 31
0.0
  0
CIRCLE
  5
7D1
330
1A
100
AcDbEntity
  8
ZUWAKU
100
AcDbCircle
 10
25.99221216833711
 20
15.19999986828868
 30
0.0
 40
1.75
  0
ARC
  5
7D2
330
1A
100
AcDbEntity
  8
ZUWAKU
100
AcDbCircle
 10
15.49221216833712
 20
18.63479784293338
 30
0.0
 40
1.399999999999999
100
AcDbArc
 50
180.0000000000016
 51
224.9999999999988
  0
LINE
  5
7D3
330
1A
100
AcDbEntity
  8
ZUWAKU
100
AcDbLine
 10
23.54221216833718
 20
19.04999986828868
 30
0.0
 11
23.54221216833718
 21
11.34999986828869
 31
0.0
  0
LINE
  5
7D4
330
1A
100
AcDbEntity
  8
ZUWAKU
100
AcDbLine
 10
20.74221216833711
 20
11.34999986828869
 30
0.0
 11
20.74221216833711
 21
19.04999986828864
 31
0.0
  0
ARC
  5
7D5
330
1A
100
AcDbEntity
  8
ZUWAKU
100
AcDbCircle
 10
15.49221216833712
 20
18.63479784293338
 30
0.0
 40
4.199999999999999
100
AcDbArc
 50
180.0
 51
225.0
  0
ARC
  5
7D6
330
1A
100
AcDbEntity
  8
ZUWAKU
100
AcDbCircle
 10
15.84221216833714
 20
9.949999868288685
 30
0.0
 40
2.799999999999999
100
AcDbArc
 50
270.0
 51
0.0
  0
ARC
  5
7D7
330
1A
100
AcDbEntity
  8
ZUWAKU
100
AcDbCircle
 10
24.94221216833716
 20
11.34999986828869
 30
0.0
 40
4.199999999999999
100
AcDbArc
 50
180.0
 51
270.0
  0
ARC
  5
7D8
330
1A
100
AcDbEntity
  8
ZUWAKU
100
AcDbCircle
 10
14.44221216833716
 20
11.76520189364399
 30
0.0
 40
4.199999999999999
100
AcDbArc
 50
0.0
 51
45.0
  0
LINE
  5
7D9
330
1A
100
AcDbEntity
  8
ZUWAKU
100
AcDbLine
 10
17.41206064932066
 20
14.73505037462751
 30
0.0
 11
14.50226267467598
 21
17.64484834927218
 31
0.0
  0
LINE
  5
7DA
330
1A
100
AcDbEntity
  8
ZUWAKU
100
AcDbLine
 10
15.84221216833714
 20
10.47499986828869
 30
0.0
 11
15.84221216833714
 21
11.76520189364403
 31
0.0
  0
ARC
  5
7DB
330
1A
100
AcDbEntity
  8
ZUWAKU
100
AcDbCircle
 10
15.31721216833716
 20
10.47499986828869
 30
0.0
 40
0.525
100
AcDbArc
 50
270.0
 51
0.0
  0
ARC
  5
7DC
330
1A
100
AcDbEntity
  8
ZUWAKU
100
AcDbCircle
 10
14.44221216833716
 20
11.76520189364403
 30
0.0
 40
1.399999999999999
100
AcDbArc
 50
0.0
 51
45.0
  0
LINE
  5
7DD
330
1A
100
AcDbEntity
  8
ZUWAKU
100
AcDbLine
 10
11.81721216833716
 20
7.674999868288686
 30
0.0
 11
11.81721216833716
 21
9.424999868288686
 31
0.0
  0
ARC
  5
7DE
330
1A
100
AcDbEntity
  8
ZUWAKU
100
AcDbCircle
 10
12.34221216833714
 20
7.674999868288686
 30
0.0
 40
0.525
100
AcDbArc
 50
180.0
 51
270.0
  0
ARC
  5
7DF
330
1A
100
AcDbEntity
  8
ZUWAKU
100
AcDbCircle
 10
12.34221216833714
 20
9.424999868288686
 30
0.0
 40
0.525
100
AcDbArc
 50
90.0
 51
180.0
  0
LINE
  5
7E0
330
1A
100
AcDbEntity
  8
ZUWAKU
100
AcDbLine
 10
12.34221216833714
 20
7.149999868288688
 30
0.0
 11
15.84221216833714
 21
7.149999868288688
 31
0.0
  0
LINE
  5
7E1
330
1A
100
AcDbEntity
  8
ZUWAKU
100
AcDbLine
 10
12.34221216833714
 20
9.949999868288685
 30
0.0
 11
15.31721216833716
 21
9.949999868288685
 31
0.0
  0
LINE
  5
7E2
330
1A
100
AcDbEntity
  8
ZUWAKU
100
AcDbLine
 10
12.52236368735361
 20
15.66494936194986
 30
0.0
 11
15.43216166199829
 21
12.7551513873052
 31
0.0
  0
LINE
  5
7E3
330
1A
100
AcDbEntity
  8
ZUWAKU
100
AcDbLine
 10
18.64221216833721
 20
9.949999868288685
 30
0.0
 11
18.64221216833721
 21
11.76520189364403
 31
0.0
  0
ARC
  5
7E4
330
1A
100
AcDbEntity
  8
ZUWAKU
100
AcDbCircle
 10
24.94221216833716
 20
11.34999986828869
 30
0.0
 40
1.399999999999999
100
AcDbArc
 50
180.0
 51
270.0
  0
ARC
  5
7E5
330
1A
100
AcDbEntity
  8
ZUWAKU
100
AcDbCircle
 10
17.59221216833714
 20
22.72499986828868
 30
0.0
 40
0.525
100
AcDbArc
 50
0.0
 51
90.0
  0
ARC
  5
7E6
330
1A
100
AcDbEntity
  8
ZUWAKU
100
AcDbCircle
 10
17.59221216833714
 20
20.97499986828868
 30
0.0
 40
0.525
100
AcDbArc
 50
270.0
 51
0.0
  0
LINE
  5
7E7
330
1A
100
AcDbEntity
  8
ZUWAKU
100
AcDbLine
 10
14.09221216833714
 20
23.24999986828868
 30
0.0
 11
17.59221216833714
 21
23.24999986828868
 31
0.0
  0
ARC
  5
7E8
330
1A
100
AcDbEntity
  8
ZUWAKU
100
AcDbCircle
 10
14.61721216833711
 20
19.92499986828868
 30
0.0
 40
0.525
100
AcDbArc
 50
90.0
 51
180.0
  0
LINE
  5
7E9
330
1A
100
AcDbEntity
  8
ZUWAKU
100
AcDbLine
 10
14.09221216833714
 20
19.92499986828868
 30
0.0
 11
14.09221216833714
 21
18.63479784293334
 31
0.0
  0
LINE
  5
7EA
330
1A
100
AcDbEntity
  8
ZUWAKU
100
AcDbLine
 10
17.59221216833714
 20
20.44999986828868
 30
0.0
 11
14.61721216833711
 21
20.44999986828868
 31
0.0
  0
LINE
  5
7EB
330
1A
100
AcDbEntity
  8
ZUWAKU
100
AcDbLine
 10
11.29221216833718
 20
20.44999986828868
 30
0.0
 11
11.29221216833718
 21
18.63479784293334
 31
0.0
  0
ARC
  5
7EC
330
1A
100
AcDbEntity
  8
ZUWAKU
100
AcDbCircle
 10
14.09221216833714
 20
20.44999986828868
 30
0.0
 40
2.799999999999999
100
AcDbArc
 50
90.0
 51
180.0
  0
LINE
  5
7ED
330
1A
100
AcDbEntity
  8
ZUWAKU
100
AcDbLine
 10
18.11721216833712
 20
22.72499986828868
 30
0.0
 11
18.11721216833712
 21
20.97499986828868
 31
0.0
  0
ARC
  5
7EE
330
1A
100
AcDbEntity
  8
ZUWAKU
100
AcDbCircle
 10
24.94221216833716
 20
19.04999986828868
 30
0.0
 40
1.399999999999999
100
AcDbArc
 50
90.0
 51
180.0
  0
ARC
  5
7EF
330
1A
100
AcDbEntity
  8
ZUWAKU
100
AcDbCircle
 10
24.94221216833716
 20
19.04999986828864
 30
0.0
 40
4.199999999999999
100
AcDbArc
 50
90.0
 51
180.0
  0
LINE
  5
7F0
330
1A
100
AcDbEntity
  8
ZUWAKU
100
AcDbLine
 10
79.32662956154422
 20
29.99999986828868
 30
0.0
 11
79.32662956154445
 21
0.7999998682887508
 31
0.0
  0
LINE
  5
7F1
330
1A
100
AcDbEntity
  8
ZUWAKU
100
AcDbLine
 10
79.52662956154426
 20
29.99999986828868
 30
0.0
 11
79.52662956154449
 21
0.7999998682887508
 31
0.0
  0
LINE
  5
7F2
330
1A
100
AcDbEntity
  8
ZUWAKU
100
AcDbLine
 10
79.12662956154441
 20
29.99999986828868
 30
0.0
 11
79.12662956154441
 21
0.7999998682887508
 31
0.0
  0
LINE
  5
7F3
330
1A
100
AcDbEntity
  8
ZUWAKU
100
AcDbLine
 10
64.14221216833721
 20
9.949999868288685
 30
0.0
 11
64.14221216833721
 21
22.72499986828868
 31
0.0
  0
LINE
  5
7F4
330
1A
100
AcDbEntity
  8
ZUWAKU
100
AcDbLine
 10
61.34221216833714
 20
22.72499986828868
 30
0.0
 11
61.34221216833714
 21
10.99999986828868
 31
0.0
  0
LINE
  5
7F5
330
1A
100
AcDbEntity
  8
ZUWAKU
100
AcDbLine
 10
69.04221216833718
 20
7.674999868288686
 30
0.0
 11
69.04221216833718
 21
22.72499986828868
 31
0.0
  0
LINE
  5
7F6
330
1A
100
AcDbEntity
  8
ZUWAKU
100
AcDbLine
 10
66.24221216833712
 20
22.72499986828868
 30
0.0
 11
66.24221216833712
 21
7.674999868288686
 31
0.0
  0
ARC
  5
7F7
330
1A
100
AcDbEntity
  8
ZUWAKU
100
AcDbCircle
 10
49.79221216833718
 20
18.63479784293338
 30
0.0
 40
1.399999999999999
100
AcDbArc
 50
180.0000000000016
 51
224.9999999999988
  0
ARC
  5
7F8
330
1A
100
AcDbEntity
  8
ZUWAKU
100
AcDbCircle
 10
49.79221216833718
 20
18.63479784293338
 30
0.0
 40
4.199999999999999
100
AcDbArc
 50
180.0
 51
225.0
  0
LINE
  5
7F9
330
1A
100
AcDbEntity
  8
ZUWAKU
100
AcDbLine
 10
37.31485865051513
 20
19.20504706185211
 30
0.0
 11
36.05010690517929
 21
15.1999998682887
 31
0.0
  0
LINE
  5
7FA
330
1A
100
AcDbEntity
  8
ZUWAKU
100
AcDbLine
 10
40.69221216833716
 20
22.72499986828868
 30
0.0
 11
40.69221216833716
 21
7.674999868288686
 31
0.0
  0
LINE
  5
7FB
330
1A
100
AcDbEntity
  8
ZUWAKU
100
AcDbLine
 10
43.49221216833711
 20
7.674999868288686
 30
0.0
 11
43.49221216833711
 21
22.72499986828868
 31
0.0
  0
LINE
  5
7FC
330
1A
100
AcDbEntity
  8
ZUWAKU
100
AcDbLine
 10
55.04221216833719
 20
22.72499986828868
 30
0.0
 11
55.04221216833719
 21
9.949999868288685
 31
0.0
  0
LINE
  5
7FD
330
1A
100
AcDbEntity
  8
ZUWAKU
100
AcDbLine
 10
57.84221216833714
 20
10.99999986828868
 30
0.0
 11
57.84221216833714
 21
22.72499986828868
 31
0.0
  0
LINE
  5
7FE
330
1A
100
AcDbEntity
  8
ZUWAKU
100
AcDbLine
 10
32.64221216833721
 20
17.12499986828869
 30
0.0
 11
32.64221216833721
 21
22.72499986828868
 31
0.0
  0
LINE
  5
7FF
330
1A
100
AcDbEntity
  8
ZUWAKU
100
AcDbLine
 10
29.84221216833714
 20
22.72499986828868
 30
0.0
 11
29.84221216833714
 21
7.674999868288686
 31
0.0
  0
LINE
  5
800
330
1A
100
AcDbEntity
  8
ZUWAKU
100
AcDbLine
 10
35.676347105653
 20
22.88309383645565
 30
0.0
 11
33.80807723102122
 21
16.96690590012171
 31
0.0
  0
LINE
  5
801
330
1A
100
AcDbEntity
  8
ZUWAKU
100
AcDbLine
 10
60.29221216833718
 20
9.949999868288685
 30
0.0
 11
58.89221216833721
 21
9.949999868288685
 31
0.0
  0
LINE
  5
802
330
1A
100
AcDbEntity
  8
ZUWAKU
100
AcDbLine
 10
57.84221216833714
 20
7.149999868288688
 30
0.0
 11
61.34221216833714
 21
7.149999868288688
 31
0.0
  0
LINE
  5
803
330
1A
100
AcDbEntity
  8
ZUWAKU
100
AcDbLine
 10
41.21721216833714
 20
7.149999868288688
 30
0.0
 11
42.96721216833714
 21
7.149999868288688
 31
0.0
  0
LINE
  5
804
330
1A
100
AcDbEntity
  8
ZUWAKU
100
AcDbLine
 10
35.676347105653
 20
7.516905900121713
 30
0.0
 11
33.80807723102122
 21
13.43309383645565
 31
0.0
  0
ARC
  5
805
330
1A
100
AcDbEntity
  8
ZUWAKU
100
AcDbCircle
 10
33.30744633182587
 20
17.12499986828869
 30
0.0
 40
0.525
100
AcDbArc
 50
270.0
 51
342.4744316262769
  0
LINE
  5
806
330
1A
100
AcDbEntity
  8
ZUWAKU
100
AcDbLine
 10
33.30744633182587
 20
16.59999986828868
 30
0.0
 11
33.16721216833718
 21
16.59999986828868
 31
0.0
  0
LINE
  5
807
330
1A
100
AcDbEntity
  8
ZUWAKU
100
AcDbLine
 10
33.16721216833718
 20
13.79999986828868
 30
0.0
 11
33.30744633182587
 21
13.79999986828868
 31
0.0
  0
ARC
  5
808
330
1A
100
AcDbEntity
  8
ZUWAKU
100
AcDbCircle
 10
33.16721216833718
 20
17.12499986828869
 30
0.0
 40
0.525
100
AcDbArc
 50
180.0
 51
270.0
  0
LINE
  5
809
330
1A
100
AcDbEntity
  8
ZUWAKU
100
AcDbLine
 10
30.36721216833711
 20
7.149999868288688
 30
0.0
 11
32.11721216833712
 21
7.149999868288688
 31
0.0
  0
ARC
  5
80A
330
1A
100
AcDbEntity
  8
ZUWAKU
100
AcDbCircle
 10
32.11721216833712
 20
7.674999868288686
 30
0.0
 40
0.525
100
AcDbArc
 50
270.0
 51
0.0
  0
LINE
  5
80B
330
1A
100
AcDbEntity
  8
ZUWAKU
100
AcDbLine
 10
32.64221216833721
 20
7.674999868288686
 30
0.0
 11
32.64221216833721
 21
13.27499986828868
 31
0.0
  0
LINE
  5
80C
330
1A
100
AcDbEntity
  8
ZUWAKU
100
AcDbLine
 10
27.39221216833721
 20
9.424999868288686
 30
0.0
 11
27.39221216833721
 21
7.674999868288686
 31
0.0
  0
ARC
  5
80D
330
1A
100
AcDbEntity
  8
ZUWAKU
100
AcDbCircle
 10
26.86721216833712
 20
7.674999868288686
 30
0.0
 40
0.525
100
AcDbArc
 50
270.0
 51
0.0
  0
ARC
  5
80E
330
1A
100
AcDbEntity
  8
ZUWAKU
100
AcDbCircle
 10
26.86721216833712
 20
9.424999868288686
 30
0.0
 40
0.525
100
AcDbArc
 50
0.0
 51
90.0
  0
ARC
  5
80F
330
1A
100
AcDbEntity
  8
ZUWAKU
100
AcDbCircle
 10
30.36721216833711
 20
7.674999868288686
 30
0.0
 40
0.525
100
AcDbArc
 50
180.0
 51
270.0
  0
ARC
  5
810
330
1A
100
AcDbEntity
  8
ZUWAKU
100
AcDbCircle
 10
33.30744633182587
 20
13.27499986828868
 30
0.0
 40
0.525
100
AcDbArc
 50
17.52556837372303
 51
90.0
  0
ARC
  5
811
330
1A
100
AcDbEntity
  8
ZUWAKU
100
AcDbCircle
 10
33.16721216833718
 20
13.27499986828868
 30
0.0
 40
0.525
100
AcDbArc
 50
90.0
 51
180.0
  0
ARC
  5
812
330
1A
100
AcDbEntity
  8
ZUWAKU
100
AcDbCircle
 10
41.21721216833714
 20
7.674999868288686
 30
0.0
 40
0.525
100
AcDbArc
 50
180.0
 51
270.0
  0
LINE
  5
813
330
1A
100
AcDbEntity
  8
ZUWAKU
100
AcDbLine
 10
36.17697800484847
 20
7.149999868288688
 30
0.0
 11
37.87586738445748
 21
7.149999868288688
 31
0.0
  0
ARC
  5
814
330
1A
100
AcDbEntity
  8
ZUWAKU
100
AcDbCircle
 10
37.87586738445748
 20
7.674999868288686
 30
0.0
 40
0.525
100
AcDbArc
 50
270.0
 51
17.52556837372303
  0
LINE
  5
815
330
1A
100
AcDbEntity
  8
ZUWAKU
100
AcDbLine
 10
38.37649828365295
 20
7.83309383645566
 30
0.0
 11
36.05010690517929
 21
15.1999998682887
 31
0.0
  0
ARC
  5
816
330
1A
100
AcDbEntity
  8
ZUWAKU
100
AcDbCircle
 10
36.17697800484847
 20
7.674999868288686
 30
0.0
 40
0.525
100
AcDbArc
 50
197.525568373723
 51
270.0
  0
ARC
  5
817
330
1A
100
AcDbEntity
  8
ZUWAKU
100
AcDbCircle
 10
57.84221216833714
 20
9.949999868288685
 30
0.0
 40
2.799999999999999
100
AcDbArc
 50
180.0
 51
270.0
  0
ARC
  5
818
330
1A
100
AcDbEntity
  8
ZUWAKU
100
AcDbCircle
 10
50.14221216833721
 20
9.949999868288685
 30
0.0
 40
2.799999999999999
100
AcDbArc
 50
270.0
 51
0.0
  0
LINE
  5
819
330
1A
100
AcDbEntity
  8
ZUWAKU
100
AcDbLine
 10
51.71206064932073
 20
14.73505037462751
 30
0.0
 11
48.80226267467595
 21
17.64484834927218
 31
0.0
  0
LINE
  5
81A
330
1A
100
AcDbEntity
  8
ZUWAKU
100
AcDbLine
 10
50.14221216833721
 20
10.47499986828869
 30
0.0
 11
50.14221216833721
 21
11.76520189364403
 31
0.0
  0
ARC
  5
81B
330
1A
100
AcDbEntity
  8
ZUWAKU
100
AcDbCircle
 10
48.74221216833712
 20
11.76520189364403
 30
0.0
 40
1.399999999999999
100
AcDbArc
 50
0.0
 51
45.0
  0
ARC
  5
81C
330
1A
100
AcDbEntity
  8
ZUWAKU
100
AcDbCircle
 10
49.61721216833712
 20
10.47499986828869
 30
0.0
 40
0.525
100
AcDbArc
 50
270.0
 51
0.0
  0
LINE
  5
81D
330
1A
100
AcDbEntity
  8
ZUWAKU
100
AcDbLine
 10
46.11721216833712
 20
7.674999868288686
 30
0.0
 11
46.11721216833712
 21
9.424999868288686
 31
0.0
  0
ARC
  5
81E
330
1A
100
AcDbEntity
  8
ZUWAKU
100
AcDbCircle
 10
46.64221216833721
 20
7.674999868288686
 30
0.0
 40
0.525
100
AcDbArc
 50
180.0
 51
270.0
  0
ARC
  5
81F
330
1A
100
AcDbEntity
  8
ZUWAKU
100
AcDbCircle
 10
42.96721216833714
 20
7.674999868288686
 30
0.0
 40
0.525
100
AcDbArc
 50
270.0
 51
0.0
  0
ARC
  5
820
330
1A
100
AcDbEntity
  8
ZUWAKU
100
AcDbCircle
 10
46.64221216833721
 20
9.424999868288686
 30
0.0
 40
0.525
100
AcDbArc
 50
90.0
 51
180.0
  0
LINE
  5
821
330
1A
100
AcDbEntity
  8
ZUWAKU
100
AcDbLine
 10
46.64221216833721
 20
9.949999868288685
 30
0.0
 11
49.61721216833712
 21
9.949999868288685
 31
0.0
  0
LINE
  5
822
330
1A
100
AcDbEntity
  8
ZUWAKU
100
AcDbLine
 10
46.64221216833721
 20
7.149999868288688
 30
0.0
 11
50.14221216833721
 21
7.149999868288688
 31
0.0
  0
LINE
  5
823
330
1A
100
AcDbEntity
  8
ZUWAKU
100
AcDbLine
 10
46.82236368735368
 20
15.66494936194986
 30
0.0
 11
49.73216166199836
 21
12.7551513873052
 31
0.0
  0
LINE
  5
824
330
1A
100
AcDbEntity
  8
ZUWAKU
100
AcDbLine
 10
52.94221216833716
 20
9.949999868288685
 30
0.0
 11
52.94221216833716
 21
11.76520189364403
 31
0.0
  0
ARC
  5
825
330
1A
100
AcDbEntity
  8
ZUWAKU
100
AcDbCircle
 10
48.74221216833712
 20
11.76520189364399
 30
0.0
 40
4.199999999999999
100
AcDbArc
 50
0.0
 51
45.0
  0
ARC
  5
826
330
1A
100
AcDbEntity
  8
ZUWAKU
100
AcDbCircle
 10
58.89221216833721
 20
10.99999986828868
 30
0.0
 40
1.049999999999999
100
AcDbArc
 50
180.0
 51
270.0
  0
ARC
  5
827
330
1A
100
AcDbEntity
  8
ZUWAKU
100
AcDbCircle
 10
61.34221216833714
 20
9.949999868288685
 30
0.0
 40
2.799999999999999
100
AcDbArc
 50
270.0
 51
0.0
  0
LINE
  5
828
330
1A
100
AcDbEntity
  8
ZUWAKU
100
AcDbLine
 10
66.76721216833721
 20
7.149999868288688
 30
0.0
 11
68.51721216833721
 21
7.149999868288688
 31
0.0
  0
ARC
  5
829
330
1A
100
AcDbEntity
  8
ZUWAKU
100
AcDbCircle
 10
66.76721216833721
 20
7.674999868288686
 30
0.0
 40
0.525
100
AcDbArc
 50
180.0
 51
270.0
  0
ARC
  5
82A
330
1A
100
AcDbEntity
  8
ZUWAKU
100
AcDbCircle
 10
60.29221216833718
 20
10.99999986828868
 30
0.0
 40
1.049999999999999
100
AcDbArc
 50
270.0
 51
0.0
  0
ARC
  5
82B
330
1A
100
AcDbEntity
  8
ZUWAKU
100
AcDbCircle
 10
68.51721216833721
 20
7.674999868288686
 30
0.0
 40
0.525
100
AcDbArc
 50
270.0
 51
0.0
  0
LINE
  5
82C
330
1A
100
AcDbEntity
  8
ZUWAKU
100
AcDbLine
 10
42.96721216833714
 20
23.24999986828868
 30
0.0
 11
41.21721216833714
 21
23.24999986828868
 31
0.0
  0
ARC
  5
82D
330
1A
100
AcDbEntity
  8
ZUWAKU
100
AcDbCircle
 10
32.11721216833712
 20
22.72499986828868
 30
0.0
 40
0.525
100
AcDbArc
 50
0.0
 51
90.0
  0
LINE
  5
82E
330
1A
100
AcDbEntity
  8
ZUWAKU
100
AcDbLine
 10
32.11721216833712
 20
23.24999986828868
 30
0.0
 11
30.36721216833711
 21
23.24999986828868
 31
0.0
  0
ARC
  5
82F
330
1A
100
AcDbEntity
  8
ZUWAKU
100
AcDbCircle
 10
26.86721216833712
 20
22.72499986828868
 30
0.0
 40
0.525
100
AcDbArc
 50
0.0
 51
90.0
  0
ARC
  5
830
330
1A
100
AcDbEntity
  8
ZUWAKU
100
AcDbCircle
 10
30.36721216833711
 20
22.72499986828868
 30
0.0
 40
0.525
100
AcDbArc
 50
90.0
 51
180.0
  0
ARC
  5
831
330
1A
100
AcDbEntity
  8
ZUWAKU
100
AcDbCircle
 10
26.86721216833712
 20
20.97499986828868
 30
0.0
 40
0.525
100
AcDbArc
 50
270.0
 51
0.0
  0
LINE
  5
832
330
1A
100
AcDbEntity
  8
ZUWAKU
100
AcDbLine
 10
27.39221216833721
 20
22.72499986828868
 30
0.0
 11
27.39221216833721
 21
20.97499986828868
 31
0.0
  0
ARC
  5
833
330
1A
100
AcDbEntity
  8
ZUWAKU
100
AcDbCircle
 10
41.21721216833714
 20
22.72499986828868
 30
0.0
 40
0.525
100
AcDbArc
 50
90.0
 51
180.0
  0
LINE
  5
834
330
1A
100
AcDbEntity
  8
ZUWAKU
100
AcDbLine
 10
36.17697800484847
 20
23.24999986828868
 30
0.0
 11
37.87586738445748
 21
23.24999986828868
 31
0.0
  0
ARC
  5
835
330
1A
100
AcDbEntity
  8
ZUWAKU
100
AcDbCircle
 10
37.87586738445748
 20
22.72499986828868
 30
0.0
 40
0.525
100
AcDbArc
 50
342.4744316262769
 51
90.0
  0
LINE
  5
836
330
1A
100
AcDbEntity
  8
ZUWAKU
100
AcDbLine
 10
38.37649828365295
 20
22.56690590012171
 30
0.0
 11
37.31485865051513
 21
19.20504706185211
 31
0.0
  0
ARC
  5
837
330
1A
100
AcDbEntity
  8
ZUWAKU
100
AcDbCircle
 10
36.17697800484847
 20
22.72499986828868
 30
0.0
 40
0.525
100
AcDbArc
 50
90.0
 51
162.4744316262769
  0
LINE
  5
838
330
1A
100
AcDbEntity
  8
ZUWAKU
100
AcDbLine
 10
48.3922121683372
 20
23.24999986828868
 30
0.0
 11
51.89221216833721
 21
23.24999986828868
 31
0.0
  0
LINE
  5
839
330
1A
100
AcDbEntity
  8
ZUWAKU
100
AcDbLine
 10
51.89221216833721
 20
20.44999986828868
 30
0.0
 11
48.91721216833719
 21
20.44999986828868
 31
0.0
  0
ARC
  5
83A
330
1A
100
AcDbEntity
  8
ZUWAKU
100
AcDbCircle
 10
48.91721216833719
 20
19.92499986828868
 30
0.0
 40
0.525
100
AcDbArc
 50
90.0
 51
180.0
  0
LINE
  5
83B
330
1A
100
AcDbEntity
  8
ZUWAKU
100
AcDbLine
 10
48.3922121683372
 20
19.92499986828868
 30
0.0
 11
48.3922121683372
 21
18.63479784293334
 31
0.0
  0
ARC
  5
83C
330
1A
100
AcDbEntity
  8
ZUWAKU
100
AcDbCircle
 10
42.96721216833714
 20
22.72499986828868
 30
0.0
 40
0.525
100
AcDbArc
 50
0.0
 51
90.0
  0
LINE
  5
83D
330
1A
100
AcDbEntity
  8
ZUWAKU
100
AcDbLine
 10
45.59221216833714
 20
20.44999986828868
 30
0.0
 11
45.59221216833714
 21
18.63479784293334
 31
0.0
  0
ARC
  5
83E
330
1A
100
AcDbEntity
  8
ZUWAKU
100
AcDbCircle
 10
48.3922121683372
 20
20.44999986828868
 30
0.0
 40
2.799999999999999
100
AcDbArc
 50
90.0
 51
180.0
  0
ARC
  5
83F
330
1A
100
AcDbEntity
  8
ZUWAKU
100
AcDbCircle
 10
57.31721216833716
 20
22.72499986828868
 30
0.0
 40
0.525
100
AcDbArc
 50
0.0
 51
90.0
  0
ARC
  5
840
330
1A
100
AcDbEntity
  8
ZUWAKU
100
AcDbCircle
 10
55.56721216833716
 20
22.72499986828868
 30
0.0
 40
0.525
100
AcDbArc
 50
90.0
 51
180.0
  0
LINE
  5
841
330
1A
100
AcDbEntity
  8
ZUWAKU
100
AcDbLine
 10
57.31721216833716
 20
23.24999986828868
 30
0.0
 11
55.56721216833716
 21
23.24999986828868
 31
0.0
  0
ARC
  5
842
330
1A
100
AcDbEntity
  8
ZUWAKU
100
AcDbCircle
 10
51.89221216833721
 20
22.72499986828868
 30
0.0
 40
0.525
100
AcDbArc
 50
0.0
 51
90.0
  0
ARC
  5
843
330
1A
100
AcDbEntity
  8
ZUWAKU
100
AcDbCircle
 10
51.89221216833721
 20
20.97499986828868
 30
0.0
 40
0.525
100
AcDbArc
 50
270.0
 51
0.0
  0
LINE
  5
844
330
1A
100
AcDbEntity
  8
ZUWAKU
100
AcDbLine
 10
52.41721216833719
 20
22.72499986828868
 30
0.0
 11
52.41721216833719
 21
20.97499986828868
 31
0.0
  0
LINE
  5
845
330
1A
100
AcDbEntity
  8
ZUWAKU
100
AcDbLine
 10
68.51721216833721
 20
23.24999986828868
 30
0.0
 11
66.76721216833721
 21
23.24999986828868
 31
0.0
  0
ARC
  5
846
330
1A
100
AcDbEntity
  8
ZUWAKU
100
AcDbCircle
 10
66.76721216833721
 20
22.72499986828868
 30
0.0
 40
0.525
100
AcDbArc
 50
90.0
 51
180.0
  0
ARC
  5
847
330
1A
100
AcDbEntity
  8
ZUWAKU
100
AcDbCircle
 10
63.61721216833712
 20
22.72499986828868
 30
0.0
 40
0.525
100
AcDbArc
 50
0.0
 51
90.0
  0
LINE
  5
848
330
1A
100
AcDbEntity
  8
ZUWAKU
100
AcDbLine
 10
63.61721216833712
 20
23.24999986828868
 30
0.0
 11
61.86721216833712
 21
23.24999986828868
 31
0.0
  0
ARC
  5
849
330
1A
100
AcDbEntity
  8
ZUWAKU
100
AcDbCircle
 10
61.86721216833712
 20
22.72499986828868
 30
0.0
 40
0.525
100
AcDbArc
 50
90.0
 51
180.0
  0
ARC
  5
84A
330
1A
100
AcDbEntity
  8
ZUWAKU
100
AcDbCircle
 10
68.51721216833721
 20
22.72499986828868
 30
0.0
 40
0.525
100
AcDbArc
 50
0.0
 51
90.0
  0
LINE
  5
84D
330
1A
100
AcDbEntity
  8
ZUWAKU
100
AcDbLine
 10
208.2466013036239
 20
29.99999986828868
 30
0.0
 11
208.2466013036239
 21
0.7999998682887508
 31
0.0
  0
LINE
  5
84E
330
1A
100
AcDbEntity
  8
ZUWAKU
100
AcDbLine
 10
208.6466013036238
 20
29.99999986828868
 30
0.0
 11
208.646601303624
 21
0.7999998682887508
 31
0.0
  0
LINE
  5
84F
330
1A
100
AcDbEntity
  8
ZUWAKU
100
AcDbLine
 10
208.4466013036237
 20
29.99999986828868
 30
0.0
 11
208.446601303624
 21
0.7999998682887508
 31
0.0
  0
TEXT
  5
850
330
1A
100
AcDbEntity
  8
ZUWAKU
100
AcDbText
 10
209.7240463258335
 20
9.6553564066743
 30
0.0
 40
4.0
  1
サイズ
 41
0.9
  7
ｽﾀｲﾙ1
100
AcDbText
  0
TEXT
  5
851
330
1A
100
AcDbEntity
  8
ZUWAKU
100
AcDbText
 10
209.7240463258333
 20
24.05535640667426
 30
0.0
 40
4.0
  1
品名
 41
0.9
  7
ｽﾀｲﾙ1
100
AcDbText
  0
LINE
  5
852
330
1A
100
AcDbEntity
  8
ZUWAKU
100
AcDbLine
 10
648.8172025237602
 20
15.19999986828871
 30
0.0
 11
697.2490105620972
 21
15.19999986828871
 31
0.0
  0
LINE
  5
853
330
1A
100
AcDbEntity
  8
ZUWAKU
100
AcDbLine
 10
648.8172025237604
 20
15.39999986828872
 30
0.0
 11
697.2490105620972
 21
15.39999986828871
 31
0.0
  0
LINE
  5
854
330
1A
100
AcDbEntity
  8
ZUWAKU
100
AcDbLine
 10
648.8172025237602
 20
15.59999986828871
 30
0.0
 11
697.2490105620972
 21
15.59999986828871
 31
0.0
  0
TEXT
  5
855
330
1A
100
AcDbEntity
  8
ZUWAKU
100
AcDbText
 10
658.2039377008584
 20
18.00492092569607
 30
0.0
 40
5.599999999999999
  1
　　．　　．　　
 41
0.9
  7
ｽﾀｲﾙ1
100
AcDbText
  0
LINE
  5
856
330
1A
100
AcDbEntity
  8
ZUWAKU
100
AcDbLine
 10
505.1991795116968
 20
15.19999986828872
 30
0.0
 11
552.5269557796685
 21
15.19999986828872
 31
0.0
  0
LINE
  5
857
330
1A
100
AcDbEntity
  8
ZUWAKU
100
AcDbLine
 10
505.1991795116968
 20
15.39999986828871
 30
0.0
 11
552.5269557796685
 21
15.39999986828871
 31
0.0
  0
LINE
  5
858
330
1A
100
AcDbEntity
  8
ZUWAKU
100
AcDbLine
 10
505.1991795116968
 20
15.59999986828871
 30
0.0
 11
552.5269557796685
 21
15.59999986828871
 31
0.0
  0
LINE
  5
85A
330
1A
100
AcDbEntity
  8
ZUWAKU
100
AcDbLine
 10
447.6243639845472
 20
29.99999986828868
 30
0.0
 11
447.6243639845474
 21
0.7999998682887508
 31
0.0
  0
LINE
  5
85B
330
1A
100
AcDbEntity
  8
ZUWAKU
100
AcDbLine
 10
447.8243639845472
 20
29.99999986828868
 30
0.0
 11
447.8243639845475
 21
0.7999998682887508
 31
0.0
  0
LINE
  5
85C
330
1A
100
AcDbEntity
  8
ZUWAKU
100
AcDbLine
 10
447.4243639845474
 20
29.99999986828868
 30
0.0
 11
447.4243639845474
 21
0.7999998682887508
 31
0.0
  0
TEXT
  5
85D
330
1A
100
AcDbEntity
  8
MOJI
100
AcDbText
 10
528.0409079858689
 20
18.00492092569607
 30
0.0
 40
5.599999999999999
  1
Ａ３
 41
0.9
  7
ｽﾀｲﾙ1
100
AcDbText
  0
LINE
  5
85E
330
1A
100
AcDbEntity
  8
ZUWAKU
100
AcDbLine
 10
504.9991795116969
 20
29.99999986828868
 30
0.0
 11
504.999179511697
 21
0.7999998682887508
 31
0.0
  0
LINE
  5
85F
330
1A
100
AcDbEntity
  8
ZUWAKU
100
AcDbLine
 10
505.1991795116968
 20
29.99999986828868
 30
0.0
 11
505.1991795116971
 21
0.7999998682887508
 31
0.0
  0
LINE
  5
860
330
1A
100
AcDbEntity
  8
ZUWAKU
100
AcDbLine
 10
504.799179511697
 20
29.99999986828868
 30
0.0
 11
504.799179511697
 21
0.7999998682887508
 31
0.0
  0
TEXT
  5
861
330
1A
100
AcDbEntity
  8
ZUWAKU
100
AcDbText
 10
462.1716760137121
 20
2.614070779428175
 30
0.0
 40
3.0
  1
□には色品番が入ります
 41
0.9
  7
ｽﾀｲﾙ1
100
AcDbText
  0
TEXT
  5
862
330
1A
100
AcDbEntity
  8
ZUWAKU
100
AcDbText
 10
506.6766245339067
 20
9.6553564066743
 30
0.0
 40
4.0
  1
縮尺
 41
0.9
  7
ｽﾀｲﾙ1
100
AcDbText
  0
TEXT
  5
863
330
1A
100
AcDbEntity
  8
MOJI
100
AcDbText
 10
528.0409079858689
 20
3.204920925696104
 30
0.0
 40
5.599999999999999
  1
１/２
 41
0.9
  7
ｽﾀｲﾙ1
100
AcDbText
  0
TEXT
  5
864
330
1A
100
AcDbEntity
  8
ZUWAKU
100
AcDbText
 10
449.3018090067569
 20
24.05535640667426
 30
0.0
 40
4.0
  1
品番
 41
0.9
  7
ｽﾀｲﾙ1
100
AcDbText
  0
TEXT
  5
865
330
1A
100
AcDbEntity
  8
ZUWAKU
100
AcDbText
 10
506.6766245339065
 20
24.05535640667426
 30
0.0
 40
4.0
  1
用紙
 41
0.9
  7
ｽﾀｲﾙ1
100
AcDbText
  0
LINE
  5
866
330
1A
100
AcDbEntity
  8
ZUWAKU
100
AcDbLine
 10
648.6172025237603
 20
29.99999986828868
 30
0.0
 11
648.6172025237606
 21
0.7999998682887508
 31
0.0
  0
LINE
  5
867
330
1A
100
AcDbEntity
  8
ZUWAKU
100
AcDbLine
 10
648.8172025237604
 20
29.99999986828868
 30
0.0
 11
648.8172025237607
 21
0.7999998682887508
 31
0.0
  0
LINE
  5
868
330
1A
100
AcDbEntity
  8
ZUWAKU
100
AcDbLine
 10
648.4172025237605
 20
29.99999986828868
 30
0.0
 11
648.4172025237605
 21
0.7999998682887508
 31
0.0
  0
LINE
  5
869
330
1A
100
AcDbEntity
  8
ZUWAKU
100
AcDbLine
 10
552.7269557796683
 20
29.99999986828868
 30
0.0
 11
552.7269557796684
 21
0.7999998682887508
 31
0.0
  0
LINE
  5
86A
330
1A
100
AcDbEntity
  8
ZUWAKU
100
AcDbLine
 10
552.9269557796683
 20
29.99999986828868
 30
0.0
 11
552.9269557796685
 21
0.7999998682887508
 31
0.0
  0
LINE
  5
86B
330
1A
100
AcDbEntity
  8
ZUWAKU
100
AcDbLine
 10
552.5269557796685
 20
29.99999986828868
 30
0.0
 11
552.5269557796685
 21
0.7999998682887508
 31
0.0
  0
TEXT
  5
86C
330
1A
100
AcDbEntity
  8
ZUWAKU
100
AcDbText
 10
650.29464754597
 20
24.05535640667426
 30
0.0
 40
4.0
  1
DATE
 41
0.9
  7
ｽﾀｲﾙ1
100
AcDbText
  0
LINE
  5
86D
330
1A
100
AcDbEntity
  8
ZUWAKU
100
AcDbLine
 10
697.2490105620972
 20
29.99999986828868
 30
0.0
 11
697.2490105620972
 21
0.7999998682887508
 31
0.0
  0
LINE
  5
86E
330
1A
100
AcDbEntity
  8
ZUWAKU
100
AcDbLine
 10
697.4490105620973
 20
29.99999986828868
 30
0.0
 11
697.4490105620973
 21
0.7999998682887508
 31
0.0
  0
LINE
  5
86F
330
1A
100
AcDbEntity
  8
ZUWAKU
100
AcDbLine
 10
697.6490105620971
 20
29.99999986828868
 30
0.0
 11
697.6490105620974
 21
0.7999998682887508
 31
0.0
  0
LINE
  5
870
330
1A
100
AcDbEntity
  8
ZUWAKU
100
AcDbLine
 10
697.8490105620972
 20
29.99999986828868
 30
0.0
 11
697.8490105620974
 21
0.7999998682887508
 31
0.0
  0
TEXT
  5
871
330
1A
100
AcDbEntity
  8
ZUWAKU
100
AcDbText
 10
708.5280842057998
 20
17.55383920397548
 30
0.0
 40
6.0
  1
積水化学工業株式会社
 41
0.9
  7
ｽﾀｲﾙ1
100
AcDbText
  0
TEXT
  5
872
330
1A
100
AcDbEntity
  8
ZUWAKU
100
AcDbText
 10
708.5280842057998
 20
6.648840182142748
 30
0.0
 40
6.0
  1
建材事業部
 41
0.9
  7
ｽﾀｲﾙ1
100
AcDbText
  0
TEXT
  5
55B9
330
1A
100
AcDbEntity
  8
MOJI
100
AcDbText
 10
93.35778960172513
 20
12.74117799856344
 30
0.0
 40
6.0
  1
ユニシェイプ
 41
0.9
  7
ｽﾀｲﾙ1
100
AcDbText
  0
TEXT
  5
55BE
330
1A
100
AcDbEntity
  8
MOJI
100
AcDbText
 10
233.179673069384
 20
4.786871367267067
 30
0.0
 40
5.599999999999999
  1
ＵＳＴ１４０
 41
0.9
  7
ｽﾀｲﾙ1
100
AcDbText
  0
DIMENSION
  5
6267
330
1A
100
AcDbEntity
  8
SUNPOU
100
AcDbDimension
  2
*D2
 10
636.9539752875605
 20
81.56084582502328
 30
0.0
 11
631.9539752875605
 21
124.0930179967783
 31
0.0
 70
    32
  3
STANDARD
100
AcDbAlignedDimension
 13
516.1881620071019
 23
166.6251901685332
 33
0.0
 14
524.9759252166807
 24
81.5608458250233
 34
0.0
 50
90.0
100
AcDbRotatedDimension
1001
ACAD
1000
DSTYLE
1002
{
1070
    41
1040
7.0
1070
    42
1040
6.0
1070
    43
1040
14.0
1070
    44
1040
3.0
1070
    73
1070
     0
1070
    74
1070
     0
1070
    77
1070
     3
1070
   140
1040
6.0
1070
   141
1040
150.0
1070
   147
1040
2.0
1070
   172
1070
     1
1070
   173
1070
     1
1070
   176
1070
   256
1070
   177
1070
   256
1070
   178
1070
   256
1070
   271
1070
     0
1070
   272
1070
     0
1070
   341
1005
6D
1070
     6
1000
OPEN
1070
     7
1000
OPEN
1070
   371
1070
    -1
1070
   372
1070
    -1
1002
}
  0
DIMENSION
  5
6268
330
1A
100
AcDbEntity
  8
SUNPOU
100
AcDbDimension
  2
*D3
 10
622.7514730107339
 20
270.2834743068833
 30
0.0
 11
617.7514730107337
 21
307.7834868068834
 31
0.0
 70
    32
  3
STANDARD
100
AcDbAlignedDimension
 13
507.55229797398
 23
345.2834993068834
 33
0.0
 14
506.9308284245956
 24
270.2834743068833
 34
0.0
 50
90.0
100
AcDbRotatedDimension
1001
ACAD
1000
DSTYLE
1002
{
1070
    41
1040
7.0
1070
    42
1040
6.0
1070
    43
1040
14.0
1070
    44
1040
3.0
1070
    73
1070
     0
1070
    74
1070
     0
1070
    77
1070
     3
1070
   140
1040
6.0
1070
   141
1040
150.0
1070
   147
1040
2.0
1070
   172
1070
     1
1070
   173
1070
     1
1070
   176
1070
   256
1070
   177
1070
   256
1070
   178
1070
   256
1070
   271
1070
     0
1070
   272
1070
     0
1070
   341
1005
6D
1070
     6
1000
OPEN
1070
     7
1000
OPEN
1070
   371
1070
    -1
1070
   372
1070
    -1
1002
}
  0
DIMENSION
  5
6269
330
1A
100
AcDbEntity
  8
SUNPOU
100
AcDbDimension
  2
*D4
 10
649.8127002141156
 20
270.2834743068833
 30
0.0
 11
644.8127002141156
 21
316.4988864397286
 31
0.0
 70
    32
  3
STANDARD
100
AcDbAlignedDimension
 13
589.8729582659932
 23
362.7142985725737
 33
0.0
 14
506.9308284245956
 24
270.2834743068833
 34
0.0
 50
90.0
100
AcDbRotatedDimension
1001
ACAD
1000
DSTYLE
1002
{
1070
    41
1040
7.0
1070
    42
1040
6.0
1070
    43
1040
14.0
1070
    44
1040
3.0
1070
    73
1070
     0
1070
    74
1070
     0
1070
    77
1070
     3
1070
   140
1040
6.0
1070
   141
1040
150.0
1070
   147
1040
2.0
1070
   172
1070
     1
1070
   173
1070
     1
1070
   176
1070
   256
1070
   177
1070
   256
1070
   178
1070
   256
1070
   271
1070
     0
1070
   272
1070
     0
1070
   341
1005
6D
1070
     6
1000
OPEN
1070
     7
1000
OPEN
1070
   371
1070
    -1
1070
   372
1070
    -1
1002
}
  0
DIMENSION
  5
626A
330
1A
100
AcDbEntity
  8
SUNPOU
100
AcDbDimension
  2
*D5
 10
599.9732640644459
 20
529.2251948330358
 30
0.0
 11
489.1442458068386
 21
534.2251948330358
 31
0.0
 70
    32
  3
STANDARD
100
AcDbAlignedDimension
 13
378.3152275492314
 23
489.9441991982127
 33
0.0
 14
599.9732640644459
 24
488.5319974537996
 34
0.0
100
AcDbRotatedDimension
1001
ACAD
1000
DSTYLE
1002
{
1070
    41
1040
7.0
1070
    42
1040
6.0
1070
    43
1040
14.0
1070
    44
1040
3.0
1070
    73
1070
     0
1070
    74
1070
     0
1070
    77
1070
     3
1070
   140
1040
6.0
1070
   141
1040
150.0
1070
   147
1040
2.0
1070
   172
1070
     1
1070
   173
1070
     1
1070
   176
1070
   256
1070
   177
1070
   256
1070
   178
1070
   256
1070
   271
1070
     0
1070
   272
1070
     0
1070
   341
1005
6D
1070
     6
1000
OPEN
1070
     7
1000
OPEN
1070
   371
1070
    -1
1070
   372
1070
    -1
1002
}
  0
DIMENSION
  5
626B
330
1A
100
AcDbEntity
  8
SUNPOU
100
AcDbDimension
  2
*D6
 10
599.9759252166807
 20
243.5455442006712
 30
0.0
 11
489.1455763829561
 21
248.5455442006712
 31
0.0
 70
    32
  3
STANDARD
100
AcDbAlignedDimension
 13
378.3152275492314
 23
200.2193545570456
 33
0.0
 14
599.9759252166807
 24
195.212679774656
 34
0.0
100
AcDbRotatedDimension
1001
ACAD
1000
DSTYLE
1002
{
1070
    41
1040
7.0
1070
    42
1040
6.0
1070
    43
1040
14.0
1070
    44
1040
3.0
1070
    73
1070
     0
1070
    74
1070
     0
1070
    77
1070
     3
1070
   140
1040
6.0
1070
   141
1040
150.0
1070
   147
1040
2.0
1070
   172
1070
     1
1070
   173
1070
     1
1070
   176
1070
   256
1070
   177
1070
   256
1070
   178
1070
   256
1070
   271
1070
     0
1070
   272
1070
     0
1070
   341
1005
6D
1070
     6
1000
OPEN
1070
     7
1000
OPEN
1070
   371
1070
    -1
1070
   372
1070
    -1
1002
}
  0
LINE
  5
626C
330
1A
100
AcDbEntity
  8
CENTER_L
 48
0.5
100
AcDbLine
 10
620.4570603860386
 20
418.602488136865
 30
0.0
 11
437.3132391472243
 21
418.5955172248448
 31
0.0
  0
LINE
  5
626D
330
1A
100
AcDbEntity
  8
SEIHIN
100
AcDbLine
 10
544.97397678757
 20
469.8058777348804
 30
0.0
 11
520.9739768049549
 21
469.8049642348386
 31
0.0
  0
LINE
  5
626E
330
1A
100
AcDbEntity
  8
SEIHIN
100
AcDbLine
 10
520.9735203908764
 20
481.7961381476083
 30
0.0
 11
544.2648082214829
 21
481.7970246722926
 31
0.0
  0
LINE
  5
626F
330
1A
100
AcDbEntity
  8
SEIHIN
100
AcDbLine
 10
541.9734252194107
 20
484.296937458334
 30
0.0
 11
520.9734252346222
 21
484.2961381457974
 31
0.0
  0
LINE
  5
6270
330
1A
100
AcDbEntity
  8
SEIHIN
100
AcDbLine
 10
520.9741103596534
 20
466.2961381588361
 30
0.0
 11
544.9741103422686
 21
466.297051658878
 31
0.0
  0
LINE
  5
6271
330
1A
100
AcDbEntity
  8
SEIHIN
100
AcDbLine
 10
524.9732543713737
 20
488.7852320871515
 30
0.0
 11
599.9732543170455
 21
488.7880867747822
 31
0.0
  0
LINE
  5
6272
330
1A
100
AcDbEntity
  8
SEIHIN
100
AcDbLine
 10
521.2399080546636
 20
374.6232734571864
 30
0.0
 11
599.977599601383
 21
374.6262704107103
 31
0.0
  0
LINE
  5
6273
330
1A
100
AcDbEntity
  8
SEIHIN
100
AcDbLine
 10
520.9741516614656
 20
465.2110331306318
 30
0.0
 11
599.9741516042397
 21
465.2140400682704
 31
0.0
  0
LINE
  5
6274
330
1A
100
AcDbEntity
  8
SEIHIN
100
AcDbLine
 10
523.233805618792
 20
365.2062240952635
 30
0.0
 11
589.9779580479728
 21
365.2087645446836
 31
0.0
  0
LINE
  5
6275
330
1A
100
AcDbEntity
  8
SEIHIN
100
AcDbLine
 10
522.9780531146986
 20
362.7098416016084
 30
0.0
 11
589.8600183709606
 21
362.7123872965293
 31
0.0
  0
LINE
  5
6276
330
1A
100
AcDbEntity
  8
SEIHIN
100
AcDbLine
 10
522.4759252166807
 20
200.8691714814419
 30
0.0
 11
544.9759252166806
 21
200.8691714814419
 31
0.0
  0
LINE
  5
6277
330
1A
100
AcDbEntity
  8
SEIHIN
100
AcDbLine
 10
544.9759252166806
 20
198.0034225314357
 30
0.0
 11
522.4759252166807
 21
198.0034225314357
 31
0.0
  0
LINE
  5
6278
330
1A
100
AcDbEntity
  8
SEIHIN
100
AcDbLine
 10
544.6759252166805
 20
201.7111069653128
 30
0.0
 11
522.4759252166807
 21
201.7111069653128
 31
0.0
  0
LINE
  5
6279
330
1A
100
AcDbEntity
  8
SEIHIN
100
AcDbLine
 10
522.4759252166807
 20
178.7126797746561
 30
0.0
 11
599.9759252166807
 21
178.7126797746561
 31
0.0
  0
LINE
  5
627A
330
1A
100
AcDbEntity
  8
SEIHIN
100
AcDbLine
 10
589.9266474744222
 20
150.5854865514652
 30
0.0
 11
524.9759252166807
 21
150.5854865514625
 31
0.0
  0
LINE
  5
627B
330
1A
100
AcDbEntity
  8
SEIHIN
100
AcDbLine
 10
524.9759252166807
 20
83.31267977465632
 30
0.0
 11
599.9759252166807
 21
83.31267977465632
 31
0.0
  0
LINE
  5
627C
330
1A
100
AcDbEntity
  8
SEIHIN
100
AcDbLine
 10
522.7963891944344
 20
146.9644036419333
 30
0.0
 11
595.6764005778279
 21
146.9644036419333
 31
0.0
  0
LINE
  5
627D
330
1A
100
AcDbEntity
  8
SEIHIN
100
AcDbLine
 10
524.9759252166807
 20
84.2684901641744
 30
0.0
 11
599.9759252166807
 21
84.2684901641744
 31
0.0
  0
LINE
  5
627E
330
1A
100
AcDbEntity
  8
SEIHIN
100
AcDbLine
 10
522.4759252166807
 20
166.9596472842115
 30
0.0
 11
599.9759252166807
 21
166.9596472842115
 31
0.0
  0
LINE
  5
627F
330
1A
100
AcDbEntity
  8
SEIHIN
100
AcDbLine
 10
522.4759252166807
 20
157.1642128871815
 30
0.0
 11
599.9759252166807
 21
157.1642128871828
 31
0.0
  0
DIMENSION
  5
628D
330
1A
100
AcDbEntity
  8
SUNPOU
100
AcDbDimension
  2
*D7
 10
213.3512697101493
 20
244.3411196589024
 30
0.0
 11
140.0450342105373
 21
249.6947134663443
 31
0.0
 70
    33
  3
STANDARD
100
AcDbAlignedDimension
 13
66.47437386471438
 23
200.2193545570551
 33
0.0
 14
213.1350715321636
 24
199.5120506509188
 34
0.0
1001
ACAD
1000
DSTYLE
1002
{
1070
    41
1040
7.0
1070
    42
1040
6.0
1070
    43
1040
14.0
1070
    44
1040
3.0
1070
    73
1070
     0
1070
    74
1070
     0
1070
    77
1070
     3
1070
   140
1040
6.0
1070
   141
1040
150.0
1070
   147
1040
2.0
1070
   172
1070
     1
1070
   173
1070
     1
1070
   176
1070
   256
1070
   177
1070
   256
1070
   178
1070
   256
1070
   271
1070
     0
1070
   272
1070
     0
1070
   341
1005
6D
1070
     6
1000
OPEN
1070
     7
1000
OPEN
1070
   371
1070
    -1
1070
   372
1070
    -1
1002
}
  0
POLYLINE
  5
628E
330
1A
100
AcDbEntity
  8
SEIHIN
100
AcDb2dPolyline
 66
     1
 10
0.0
 20
0.0
 30
0.0
  0
VERTEX
  5
71EB
330
628E
100
AcDbEntity
  8
SEIHIN
100
AcDbVertex
100
AcDb2dVertex
 10
89.9415870564494
 20
82.70822488513216
 30
0.0
  0
VERTEX
  5
71EC
330
628E
100
AcDbEntity
  8
SEIHIN
100
AcDbVertex
100
AcDb2dVertex
 10
113.8814501006354
 20
81.84773193376964
 30
0.0
  0
VERTEX
  5
71ED
330
628E
100
AcDbEntity
  8
SEIHIN
100
AcDbVertex
100
AcDb2dVertex
 10
137.8350549870467
 20
81.5608458250233
 30
0.0
  0
SEQEND
  5
71EE
330
628E
100
AcDbEntity
  8
SEIHIN
  0
LINE
  5
628F
330
1A
100
AcDbEntity
  8
SEIHIN
100
AcDbLine
 10
68.47437164083385
 20
201.2208458246325
 30
0.0
 11
213.1350715321636
 21
201.220845824632
 31
0.0
  0
LINE
  5
6290
330
1A
100
AcDbEntity
  8
SEIHIN
100
AcDbLine
 10
213.1350715321634
 20
97.76084582507269
 30
0.0
 11
73.78595140858919
 21
97.76084582507269
 31
0.0
  0
POLYLINE
  5
6311
330
1A
100
AcDbEntity
  8
SEIHIN
100
AcDb2dPolyline
 66
     1
 10
0.0
 20
0.0
 30
0.0
  0
VERTEX
  5
71EF
330
6311
100
AcDbEntity
  8
SEIHIN
100
AcDbVertex
100
AcDb2dVertex
 10
66.47437386471438
 20
200.2193545570551
 30
0.0
  0
VERTEX
  5
71F0
330
6311
100
AcDbEntity
  8
SEIHIN
100
AcDbVertex
100
AcDb2dVertex
 10
67.09990942382956
 20
166.3118255127713
 30
0.0
  0
VERTEX
  5
71F1
330
6311
100
AcDbEntity
  8
SEIHIN
100
AcDbVertex
100
AcDb2dVertex
 10
68.87466381394688
 20
132.4449970890846
 30
0.0
  0
VERTEX
  5
71F2
330
6311
100
AcDbEntity
  8
SEIHIN
100
AcDbVertex
100
AcDb2dVertex
 10
71.79659648127563
 20
98.65780824312901
 30
0.0
  0
SEQEND
  5
71F3
330
6311
100
AcDbEntity
  8
SEIHIN
  0
LINE
  5
6312
330
1A
100
AcDbEntity
  8
SEIHIN
100
AcDbLine
 10
86.96748113035232
 20
96.84799720621981
 30
0.0
 11
88.027286670369
 21
84.7337535708648
 31
0.0
  0
ARC
  5
6313
330
1A
100
AcDbEntity
  8
SEIHIN
100
AcDbCircle
 10
90.03735965951022
 20
84.70593047117404
 30
0.0
 40
2.000000000000144
100
AcDbArc
 50
184.9997491441709
 51
267.2552673533785
  0
LINE
  5
6314
330
1A
100
AcDbEntity
  8
SEIHIN
100
AcDbLine
 10
88.02728667036877
 20
84.7337535708648
 30
0.0
 11
88.04496950016504
 21
84.53162770887979
 31
0.0
  0
LINE
  5
6315
330
1A
100
AcDbEntity
  8
SEIHIN
100
AcDbLine
 10
73.78595140858919
 20
97.76084582507269
 30
0.0
 11
72.79127394493229
 21
97.76084582507269
 31
0.0
  0
ARC
  5
6316
330
1A
100
AcDbEntity
  8
SEIHIN
100
AcDbCircle
 10
72.79127394493253
 20
98.76084582507269
 30
0.0
 40
1.0
100
AcDbArc
 50
185.9141150018941
 51
270.0
  0
ARC
  5
6317
330
1A
100
AcDbEntity
  8
SEIHIN
100
AcDbCircle
 10
85.97128605067927
 20
96.7608458250727
 30
0.0
 40
1.000000000000321
100
AcDbArc
 50
4.999749144164423
 51
90.0
  0
ARC
  5
6318
330
1A
100
AcDbEntity
  8
SEIHIN
100
AcDbCircle
 10
67.47437275277434
 20
200.2208458246325
 30
0.0
 40
1.000000000000075
100
AcDbArc
 50
90.0
 51
180.0854433699802
  0
LINE
  5
6319
330
1A
100
AcDbEntity
  8
SEIHIN
100
AcDbLine
 10
68.47437164083385
 20
201.2208458246325
 30
0.0
 11
67.47437275277412
 21
201.2208458246325
 31
0.0
  0
ARC
  5
631A
330
1A
100
AcDbEntity
  8
SEIHIN
100
AcDbCircle
 10
74.6250715321953
 20
201.2111069653128
 30
0.0
 40
0.5
100
AcDbArc
 50
90.0
 51
180.0
  0
LINE
  5
631B
330
1A
100
AcDbEntity
  8
SEIHIN
100
AcDbLine
 10
74.6250715321953
 20
201.7111069653128
 30
0.0
 11
76.12507153219531
 21
201.7111069653128
 31
0.0
  0
ARC
  5
631C
330
1A
100
AcDbEntity
  8
SEIHIN
100
AcDbCircle
 10
76.12507153219531
 20
201.2111069653128
 30
0.0
 40
0.5
100
AcDbArc
 50
0.0
 51
90.0
  0
LINE
  5
6324
330
1A
100
AcDbEntity
  8
SEIHIN
100
AcDbLine
 10
288.1350715321634
 20
195.2126797746563
 30
0.0
 11
288.1350715321634
 21
83.31267977465632
 31
0.0
  0
LINE
  5
6325
330
1A
100
AcDbEntity
  8
SEIHIN
100
AcDbLine
 10
213.1350715321634
 20
98.65780824312857
 30
0.0
 11
213.1350715321636
 21
201.220845824632
 31
0.0
  0
LINE
  5
6326
330
1A
100
AcDbEntity
  8
SEIHIN
100
AcDbLine
 10
213.1350715321636
 20
159.3619681542095
 30
0.0
 11
288.1350715321634
 21
159.3619681542095
 31
0.0
  0
LINE
  5
6327
330
1A
100
AcDbEntity
  8
SEIHIN
100
AcDbLine
 10
288.1350715321634
 20
110.2468784446034
 30
0.0
 11
213.1350715321634
 21
110.2468784446036
 31
0.0
  0
LINE
  5
6328
330
1A
100
AcDbEntity
  8
SEIHIN
100
AcDbLine
 10
213.1350715321632
 20
83.31267977465632
 30
0.0
 11
288.1350715321634
 21
83.31267977465632
 31
0.0
  0
LINE
  5
6329
330
1A
100
AcDbEntity
  8
SEIHIN
100
AcDbLine
 10
213.1350715321634
 20
106.8663729034885
 30
0.0
 11
288.1350715321634
 21
106.8663729034885
 31
0.0
  0
LINE
  5
632A
330
1A
100
AcDbEntity
  8
SEIHIN
100
AcDbLine
 10
137.8350715321958
 20
81.5608458250233
 30
0.0
 11
213.1350715321632
 21
81.5608458250233
 31
0.0
  0
LINE
  5
632B
330
1A
100
AcDbEntity
  8
SEIHIN
100
AcDbLine
 10
213.1350715321634
 20
84.53162770887979
 30
0.0
 11
213.1350715321634
 21
96.84799720621981
 31
0.0
  0
LINE
  5
632C
330
1A
100
AcDbEntity
  8
SEIHIN
100
AcDbLine
 10
213.1350715321634
 20
84.53162770887979
 30
0.0
 11
213.1350715321634
 21
82.70822488513227
 31
0.0
  0
LINE
  5
632D
330
1A
100
AcDbEntity
  8
SEIHIN
100
AcDbLine
 10
213.1350715321632
 20
81.5608458250233
 30
0.0
 11
213.1350715321634
 21
82.70822488513227
 31
0.0
  0
LINE
  5
632E
330
1A
100
AcDbEntity
  8
SEIHIN
100
AcDbLine
 10
213.1350715321634
 20
98.65780824312857
 30
0.0
 11
213.1350715321634
 21
97.76084582507269
 31
0.0
  0
LINE
  5
632F
330
1A
100
AcDbEntity
  8
SEIHIN
100
AcDbLine
 10
213.1350715321634
 20
97.76084582507269
 30
0.0
 11
213.1350715321634
 21
96.84799720621981
 31
0.0
  0
LINE
  5
6331
330
1A
100
AcDbEntity
  8
SEIHIN
100
AcDbLine
 10
288.1350715321634
 20
182.1723888543815
 30
0.0
 11
230.6350715321634
 21
182.1723888543815
 31
0.0
  0
LINE
  5
6332
330
1A
100
AcDbEntity
  8
SEIHIN
100
AcDbLine
 10
230.6350715321634
 20
186.2126797746561
 30
0.0
 11
288.1350715321634
 21
186.2126797746561
 31
0.0
  0
LINE
  5
6333
330
1A
100
AcDbEntity
  8
SEIHIN
100
AcDbLine
 10
285.6350715321634
 20
179.7126797746561
 30
0.0
 11
230.6350715321634
 21
179.7126797746561
 31
0.0
  0
LINE
  5
6334
330
1A
100
AcDbEntity
  8
SEIHIN
100
AcDbLine
 10
239.1350715321634
 20
195.2126797746561
 30
0.0
 11
288.1350715321634
 21
195.2126797746561
 31
0.0
  0
LINE
  5
6335
330
1A
100
AcDbEntity
  8
SEIHIN
100
AcDbLine
 10
288.1350715321634
 20
168.1402448214582
 30
0.0
 11
213.1350715321634
 21
168.1402448214582
 31
0.0
  0
LINE
  5
6336
330
1A
100
AcDbEntity
  8
SEIHIN
100
AcDbLine
 10
233.1350715321634
 20
195.0193611894779
 30
0.0
 11
223.0407854545358
 21
195.0193611894779
 31
0.0
  0
ARC
  5
6337
330
1A
100
AcDbEntity
  8
SEIHIN
100
AcDbCircle
 10
232.8350715321635
 20
201.4111069653129
 30
0.0
 40
0.3
100
AcDbArc
 50
0.0
 51
90.0
  0
LINE
  5
6338
330
1A
100
AcDbEntity
  8
SEIHIN
100
AcDbLine
 10
230.6350715321634
 20
181.0626797746562
 30
0.0
 11
213.1350715321634
 21
181.0626797746563
 31
0.0
  0
LINE
  5
6339
330
1A
100
AcDbEntity
  8
SEIHIN
100
AcDbLine
 10
213.1350715321634
 20
182.0626797746563
 30
0.0
 11
230.6350715321634
 21
182.0626797746561
 31
0.0
  0
LINE
  5
633A
330
1A
100
AcDbEntity
  8
SEIHIN
100
AcDbLine
 10
230.6350715321632
 20
186.2126797746561
 30
0.0
 11
230.6350715321634
 21
179.7126797746563
 31
0.0
  0
LINE
  5
633B
330
1A
100
AcDbEntity
  8
SEIHIN
100
AcDbLine
 10
220.7293576097911
 20
195.0193611894779
 30
0.0
 11
213.1350715321636
 21
195.0193611894779
 31
0.0
  0
LINE
  5
633C
330
1A
100
AcDbEntity
  8
SEIHIN
100
AcDbLine
 10
210.6350715321634
 20
201.7111069653128
 30
0.0
 11
232.8350715321635
 21
201.7111069653129
 31
0.0
  0
LINE
  5
633D
330
1A
100
AcDbEntity
  8
SEIHIN
100
AcDbLine
 10
213.1350715321636
 20
199.5120506509188
 30
0.0
 11
230.1350715321634
 21
199.5120506509188
 31
0.0
  0
LINE
  5
633E
330
1A
100
AcDbEntity
  8
SEIHIN
100
AcDbLine
 10
210.6350715321634
 20
201.2111069653128
 30
0.0
 11
210.6350715321634
 21
201.7111069653128
 31
0.0
  0
LINE
  5
633F
330
1A
100
AcDbEntity
  8
SEIHIN
100
AcDbLine
 10
230.1350715321634
 20
201.7111069653128
 30
0.0
 11
230.1350715321634
 21
201.2111069653128
 31
0.0
  0
LINE
  5
6340
330
1A
100
AcDbEntity
  8
SEIHIN
100
AcDbLine
 10
230.1350715321634
 20
199.5120506509188
 30
0.0
 11
230.1350715321634
 21
201.2111069653128
 31
0.0
  0
LINE
  5
6341
330
1A
100
AcDbEntity
  8
SEIHIN
100
AcDbLine
 10
220.7293576097911
 20
196.6003154632007
 30
0.0
 11
223.040785454536
 21
196.6003154632009
 31
0.0
  0
LINE
  5
6342
330
1A
100
AcDbEntity
  8
SEIHIN
100
AcDbLine
 10
220.7293576097911
 20
196.6003154632009
 30
0.0
 11
220.7293576097911
 21
190.1752623705767
 31
0.0
  0
LINE
  5
6343
330
1A
100
AcDbEntity
  8
SEIHIN
100
AcDbLine
 10
223.0407854545358
 20
190.1752623705767
 30
0.0
 11
223.0407854545358
 21
196.6003154632009
 31
0.0
  0
LINE
  5
6344
330
1A
100
AcDbEntity
  8
SEIHIN
100
AcDbLine
 10
223.0407854545358
 20
190.1752623705767
 30
0.0
 11
220.7293576097911
 21
190.1752623705767
 31
0.0
  0
LINE
  5
6345
330
1A
100
AcDbEntity
  8
SEIHIN
100
AcDbLine
 10
233.1350715321634
 20
201.4111069653129
 30
0.0
 11
233.1350715321634
 21
186.2126797746561
 31
0.0
  0
LINE
  5
6346
330
1A
100
AcDbEntity
  8
SEIHIN
100
AcDbLine
 10
238.1350715321634
 20
186.2126797746561
 30
0.0
 11
238.1350715321634
 21
194.1875024467806
 31
0.0
  0
ARC
  5
6347
330
1A
100
AcDbEntity
  8
SEIHIN
100
AcDbCircle
 10
239.1478186705605
 20
194.1999365282329
 30
0.0
 40
1.012823465720319
100
AcDbArc
 50
90.72112913915818
 51
180.7034180291043
  0
LINE
  5
6348
330
1A
100
AcDbEntity
  8
SEIHIN
100
AcDbLine
 10
288.1350715321634
 20
177.7126797746561
 30
0.0
 11
285.6350715321634
 21
177.7126797746561
 31
0.0
  0
LINE
  5
6349
330
1A
100
AcDbEntity
  8
SEIHIN
100
AcDbLine
 10
285.6350715321634
 20
177.7126797746561
 30
0.0
 11
285.6350715321634
 21
179.7126797746561
 31
0.0
  0
ARC
  5
634A
330
1A
100
AcDbEntity
  8
NOKITOI
100
AcDbCircle
 10
504.1289450884444
 20
161.552243028781
 30
0.0
 40
5.000000000000028
100
AcDbArc
 50
0.0
 51
90.0
  0
ARC
  5
634B
330
1A
100
AcDbEntity
  8
NOKITOI
100
AcDbCircle
 10
504.1289450884444
 20
161.552243028781
 30
0.0
 40
3.400000000000034
100
AcDbArc
 50
0.0
 51
90.0
  0
ARC
  5
634C
330
1A
100
AcDbEntity
  8
NOKITOI
100
AcDbCircle
 10
504.1289450884444
 20
161.552243028781
 30
0.0
 40
4.800000000000028
100
AcDbArc
 50
0.0
 51
90.0
  0
LINE
  5
634D
330
1A
100
AcDbEntity
  8
NOKITOI
100
AcDbLine
 10
500.8945677370991
 20
165.8825934535091
 30
0.0
 11
494.1289450884444
 21
146.5522430287817
 31
0.0
  0
LINE
  5
634E
330
1A
100
AcDbEntity
  8
NOKITOI
100
AcDbLine
 10
380.6009399575166
 20
159.5522430287805
 30
0.0
 11
396.2827195157444
 21
168.0975534333581
 31
0.0
  0
LINE
  5
634F
330
1A
100
AcDbEntity
  8
NOKITOI
100
AcDbLine
 10
380.5319981348136
 20
161.222922706497
 30
0.0
 11
395.6171353140291
 21
169.4431109328002
 31
0.0
  0
ARC
  5
6350
330
1A
100
AcDbEntity
  8
NOKITOI
100
AcDbCircle
 10
1378.117135314765
 20
201.5522430287804
 30
0.0
 40
998.3999999999999
100
AcDbArc
 50
181.4914279597314
 51
182.3150327430775
  0
ARC
  5
6351
330
1A
100
AcDbEntity
  8
NOKITOI
100
AcDbCircle
 10
1378.117135314765
 20
201.5522430287804
 30
0.0
 40
1000.000000000736
100
AcDbArc
 50
180.0795916737998
 51
185.9063572242693
  0
ARC
  5
6352
330
1A
100
AcDbEntity
  8
NOKITOI
100
AcDbCircle
 10
1378.117135314765
 20
201.5522430287804
 30
0.0
 40
999.800000000736
100
AcDbArc
 50
180.0795916737998
 51
185.9063572242693
  0
DIMENSION
  5
6353
330
1A
100
AcDbEntity
  8
SUNPOU
100
AcDbDimension
  2
*D8
 10
344.5811060603539
 20
82.70822488513262
 30
0.0
 11
339.5811060603539
 21
141.9645353548826
 31
0.0
 70
    32
  3
STANDARD
100
AcDbAlignedDimension
 13
379.3152264372913
 23
201.2208458246325
 33
0.0
 14
401.7824407409591
 24
82.7082248851326
 34
0.0
 50
90.0
100
AcDbRotatedDimension
1001
ACAD
1000
DSTYLE
1002
{
1070
    41
1040
7.0
1070
    42
1040
6.0
1070
    43
1040
14.0
1070
    44
1040
3.0
1070
    73
1070
     0
1070
    74
1070
     0
1070
    77
1070
     3
1070
   140
1040
6.0
1070
   141
1040
150.0
1070
   147
1040
2.0
1070
   172
1070
     1
1070
   173
1070
     1
1070
   176
1070
   256
1070
   177
1070
   256
1070
   178
1070
   256
1070
   271
1070
     0
1070
   272
1070
     0
1070
   341
1005
6D
1070
     6
1000
OPEN
1070
     7
1000
OPEN
1070
   371
1070
    -1
1070
   372
1070
    -1
1002
}
  0
DIMENSION
  5
6354
330
1A
100
AcDbEntity
  8
SUNPOU
100
AcDbDimension
  2
*D9
 10
507.55229797398
 20
226.8826938539607
 30
0.0
 11
442.9337627616057
 21
231.8826938539607
 31
0.0
 70
    32
  3
STANDARD
100
AcDbAlignedDimension
 13
378.3152275492314
 23
200.2193545570456
 33
0.0
 14
507.55229797398
 24
152.1444979564742
 34
0.0
100
AcDbRotatedDimension
1001
ACAD
1000
DSTYLE
1002
{
1070
    41
1040
7.0
1070
    42
1040
6.0
1070
    43
1040
14.0
1070
    44
1040
3.0
1070
    73
1070
     0
1070
    74
1070
     0
1070
    77
1070
     3
1070
   140
1040
6.0
1070
   141
1040
150.0
1070
   147
1040
2.0
1070
   172
1070
     1
1070
   173
1070
     1
1070
   176
1070
   256
1070
   177
1070
   256
1070
   178
1070
   256
1070
   271
1070
     0
1070
   272
1070
     0
1070
   341
1005
6D
1070
     6
1000
OPEN
1070
     7
1000
OPEN
1070
   371
1070
    -1
1070
   372
1070
    -1
1002
}
  0
ARC
  5
6355
330
1A
100
AcDbEntity
  8
SEIHIN
100
AcDbCircle
 10
495.7795656881805
 20
164.7108458250233
 30
0.0
 40
2.000000000000056
100
AcDbArc
 50
5.000000000001244
 51
90.0
  0
POLYLINE
  5
6356
330
1A
100
AcDbEntity
  8
SEIHIN
100
AcDb2dPolyline
 66
     1
 10
0.0
 20
0.0
 30
0.0
  0
VERTEX
  5
71F4
330
6356
100
AcDbEntity
  8
SEIHIN
100
AcDbVertex
100
AcDb2dVertex
 10
509.7421167334598
 20
166.7108458250234
 30
0.0
  0
VERTEX
  5
71F5
330
6356
100
AcDbEntity
  8
SEIHIN
100
AcDbVertex
100
AcDb2dVertex
 10
511.6511033362578
 20
166.603448880607
 30
0.0
  0
VERTEX
  5
71F6
330
6356
100
AcDbEntity
  8
SEIHIN
100
AcDbVertex
100
AcDb2dVertex
 10
512.5065673938881
 20
166.366013938702
 30
0.0
  0
VERTEX
  5
71F7
330
6356
100
AcDbEntity
  8
SEIHIN
100
AcDbVertex
100
AcDb2dVertex
 10
513.2282826971743
 20
165.8642119648354
 30
0.0
  0
VERTEX
  5
71F8
330
6356
100
AcDbEntity
  8
SEIHIN
100
AcDbVertex
100
AcDb2dVertex
 10
513.5182391920263
 20
165.4233129644128
 30
0.0
  0
VERTEX
  5
71F9
330
6356
100
AcDbEntity
  8
SEIHIN
100
AcDbVertex
100
AcDb2dVertex
 10
513.6720248849298
 20
164.8851573105187
 30
0.0
  0
SEQEND
  5
71FA
330
6356
100
AcDbEntity
  8
SEIHIN
  0
POLYLINE
  5
6357
330
1A
100
AcDbEntity
  8
SEIHIN
100
AcDb2dPolyline
 66
     1
 10
0.0
 20
0.0
 30
0.0
  0
VERTEX
  5
71FB
330
6357
100
AcDbEntity
  8
SEIHIN
100
AcDbVertex
100
AcDb2dVertex
 10
517.1609956034087
 20
164.8851573105187
 30
0.0
  0
VERTEX
  5
71FC
330
6357
100
AcDbEntity
  8
SEIHIN
100
AcDbVertex
100
AcDb2dVertex
 10
517.0720110048153
 20
165.4768470613894
 30
0.0
  0
VERTEX
  5
71FD
330
6357
100
AcDbEntity
  8
SEIHIN
100
AcDbVertex
100
AcDb2dVertex
 10
516.8854073645791
 20
165.9790801389333
 30
0.0
  0
VERTEX
  5
71FE
330
6357
100
AcDbEntity
  8
SEIHIN
100
AcDbVertex
100
AcDb2dVertex
 10
516.5990352102182
 20
166.3670464153937
 30
0.0
  0
VERTEX
  5
71FF
330
6357
100
AcDbEntity
  8
SEIHIN
100
AcDbVertex
100
AcDb2dVertex
 10
516.1881620071019
 20
166.6251901685332
 30
0.0
  0
VERTEX
  5
7200
330
6357
100
AcDbEntity
  8
SEIHIN
100
AcDbVertex
100
AcDb2dVertex
 10
515.6836931588116
 20
166.7108458250234
 30
0.0
  0
SEQEND
  5
7201
330
6357
100
AcDbEntity
  8
SEIHIN
  0
LINE
  5
6358
330
1A
100
AcDbEntity
  8
SEIHIN
100
AcDbLine
 10
522.4759252166807
 20
166.9596472842115
 30
0.0
 11
522.4759252166807
 21
158.0764197874284
 31
0.0
  0
LINE
  5
6359
330
1A
100
AcDbEntity
  8
SEIHIN
100
AcDbLine
 10
488.6513573905606
 20
91.13293163287584
 30
0.0
 11
492.6122280362153
 21
166.7108458250234
 31
0.0
  0
LINE
  5
635A
330
1A
100
AcDbEntity
  8
SEIHIN
100
AcDbLine
 10
384.5574447380288
 20
158.0764197874284
 30
0.0
 11
400.4537465743781
 21
166.9596472842115
 31
0.0
  0
LINE
  5
635B
330
1A
100
AcDbEntity
  8
SEIHIN
100
AcDbLine
 10
397.4415679320429
 20
168.1402448214582
 30
0.0
 11
381.7330728432823
 21
159.3619681542095
 31
0.0
  0
ARC
  5
635C
330
1A
100
AcDbEntity
  8
SEIHIN
100
AcDbCircle
 10
1378.464115443014
 20
201.7108458246325
 30
0.0
 40
1000.150000000685
100
AcDbArc
 50
180.0854433699818
 51
185.9141150018892
  0
LINE
  5
635D
330
1A
100
AcDbEntity
  8
NOKITOI
100
AcDbLine
 10
384.0381171961514
 20
108.7650362795
 30
0.0
 11
397.9708106170225
 21
105.1651934024207
 31
0.0
  0
LINE
  5
635E
330
1A
100
AcDbEntity
  8
NOKITOI
100
AcDbLine
 10
384.4204210193668
 20
97.75224302878099
 30
0.0
 11
397.6026098871564
 21
97.75224302878099
 31
0.0
  0
LINE
  5
635F
330
1A
100
AcDbEntity
  8
NOKITOI
100
AcDbLine
 10
398.4793522309426
 20
99.35224302878101
 30
0.0
 11
384.9616993431341
 21
99.35224302878101
 31
0.0
  0
LINE
  5
6360
330
1A
100
AcDbEntity
  8
NOKITOI
100
AcDbLine
 10
384.4204210193668
 20
97.95224302878091
 30
0.0
 11
397.6026098871564
 21
97.95224302878091
 31
0.0
  0
LINE
  5
6361
330
1A
100
AcDbEntity
  8
NOKITOI
100
AcDbLine
 10
398.0038344538779
 20
106.705919857228
 30
0.0
 11
383.8912454889164
 21
110.352243028781
 31
0.0
  0
LINE
  5
6362
330
1A
100
AcDbEntity
  8
SEIHIN
100
AcDbLine
 10
397.8121397351971
 20
97.76084582507269
 30
0.0
 11
384.63212762945
 21
97.76084582507269
 31
0.0
  0
LINE
  5
6363
330
1A
100
AcDbEntity
  8
SEIHIN
100
AcDbLine
 10
401.5979711841471
 20
108.6679078560944
 30
0.0
 11
387.4933701295033
 21
112.3125076118162
 31
0.0
  0
LINE
  5
6364
330
1A
100
AcDbEntity
  8
SEIHIN
100
AcDbLine
 10
385.4945763640169
 20
110.2468784446034
 30
0.0
 11
398.5771328081316
 21
106.8663729034885
 31
0.0
  0
ARC
  5
6365
330
1A
100
AcDbEntity
  8
NOKITOI
100
AcDbCircle
 10
1378.117135314765
 20
201.5522430287804
 30
0.0
 40
998.4000000000001
100
AcDbArc
 50
182.4109906480895
 51
185.2410550612985
  0
ARC
  5
6366
330
1A
100
AcDbEntity
  8
SEIHIN
100
AcDbCircle
 10
1380.776859661756
 20
196.3294724509423
 30
0.0
 40
997.4999999999999
100
AcDbArc
 50
182.2502065587139
 51
184.7806014434175
  0
ARC
  5
6367
330
1A
100
AcDbEntity
  8
SEIHIN
100
AcDbCircle
 10
1380.776859661756
 20
196.3294724509423
 30
0.0
 40
999.9999999999998
100
AcDbArc
 50
182.1446628286393
 51
184.8620763762996
  0
ARC
  5
6368
330
1A
100
AcDbEntity
  8
NOKITOI
100
AcDbCircle
 10
384.4204210193668
 20
98.75224302878098
 30
0.0
 40
1.000000000000155
100
AcDbArc
 50
185.9063572242693
 51
270.0
  0
ARC
  5
6369
330
1A
100
AcDbEntity
  8
NOKITOI
100
AcDbCircle
 10
384.4204210193668
 20
98.75224302878098
 30
0.0
 40
0.8000000000001556
100
AcDbArc
 50
185.9063572242693
 51
270.0
  0
ARC
  5
636A
330
1A
100
AcDbEntity
  8
NOKITOI
100
AcDbCircle
 10
1378.117135314765
 20
201.5522430287804
 30
0.0
 40
998.4000000000001
100
AcDbArc
 50
185.3325301949832
 51
185.8753038897116
  0
ARC
  5
636B
330
1A
100
AcDbEntity
  8
SEIHIN
100
AcDbCircle
 10
387.7435507939028
 20
113.280706783041
 30
0.0
 40
1.000000000000099
100
AcDbArc
 50
184.7806014434175
 51
255.5117967719632
  0
ARC
  5
636C
330
1A
100
AcDbEntity
  8
SEIHIN
100
AcDbCircle
 10
385.8698473606157
 20
111.699177201441
 30
0.0
 40
1.500000000000125
100
AcDbArc
 50
184.8620763762964
 51
255.5117967719632
  0
ARC
  5
636D
330
1A
100
AcDbEntity
  8
SEIHIN
100
AcDbCircle
 10
384.63212762945
 20
98.76084582507269
 30
0.0
 40
1.000000000000134
100
AcDbArc
 50
185.9141150018876
 51
270.0
  0
ARC
  5
636E
330
1A
100
AcDbEntity
  8
SEIHIN
100
AcDbCircle
 10
385.0452660956936
 20
157.2034763052911
 30
0.0
 40
1.00000000000005
100
AcDbArc
 50
119.1974860460598
 51
182.2502065586746
  0
ARC
  5
636F
330
1A
100
AcDbEntity
  8
SEIHIN
100
AcDbCircle
 10
381.9769835221143
 20
158.9254964131412
 30
0.0
 40
0.4999999999997986
100
AcDbArc
 50
119.1974860460449
 51
182.1446628286425
  0
ARC
  5
6371
330
1A
100
AcDbEntity
  8
NOKITOI
100
AcDbCircle
 10
449.3289450884442
 20
1081.552243028781
 30
0.0
 40
998.3999999999999
100
AcDbArc
 50
267.3431291593075
 51
272.5751779642489
  0
ARC
  5
6372
330
1A
100
AcDbEntity
  8
NOKITOI
100
AcDbCircle
 10
449.3289450884442
 20
1081.552243028781
 30
0.0
 40
1000.0
100
AcDbArc
 50
267.2627870055292
 51
272.6033918042164
  0
ARC
  5
6373
330
1A
100
AcDbEntity
  8
NOKITOI
100
AcDbCircle
 10
449.3289450884442
 20
1081.552243028781
 30
0.0
 40
999.8000000000002
100
AcDbArc
 50
267.2627870055292
 51
272.6033918042164
  0
LINE
  5
6374
330
1A
100
AcDbEntity
  8
SEIHIN
100
AcDbLine
 10
449.6759252167128
 20
81.5608458250233
 30
0.0
 11
524.9759252166807
 21
81.5608458250233
 31
0.0
  0
ARC
  5
6375
330
1A
100
AcDbEntity
  8
SEIHIN
100
AcDbCircle
 10
449.6759252167132
 20
1083.312679774656
 30
0.0
 40
997.5000000000003
100
AcDbArc
 50
267.4359180240703
 51
272.5052905584125
  0
ARC
  5
6376
330
1A
100
AcDbEntity
  8
SEIHIN
100
AcDbCircle
 10
449.6759252167132
 20
1083.312679774656
 30
0.0
 40
1000.0
100
AcDbArc
 50
267.4107468868673
 51
272.5052905584125
  0
ARC
  5
6377
330
1A
100
AcDbEntity
  8
SEIHIN
100
AcDbCircle
 10
449.6759252167132
 20
1081.710845825023
 30
0.0
 40
1000.15
100
AcDbArc
 50
267.2552673533655
 51
272.441800561693
  0
LINE
  5
6378
330
1A
100
AcDbEntity
  8
SEIHIN
100
AcDbLine
 10
489.1297311028595
 20
100.2608458250726
 30
0.0
 11
403.0025182994225
 21
100.2608458250726
 31
0.0
  0
LINE
  5
6379
330
1A
100
AcDbEntity
  8
SEIHIN
100
AcDbLine
 10
417.5753690584595
 20
86.86207829512204
 30
0.0
 11
485.7513544897304
 21
86.86207829512204
 31
0.0
  0
LINE
  5
637A
330
1A
100
AcDbEntity
  8
SEIHIN
100
AcDbLine
 10
487.84877791142
 20
88.68567147564363
 30
0.0
 11
417.575369058459
 21
88.68567147564363
 31
0.0
  0
LINE
  5
637B
330
1A
100
AcDbEntity
  8
NOKITOI
100
AcDbLine
 10
401.1489039837965
 20
86.04901930610878
 30
0.0
 11
399.4959070992995
 21
104.9438129559259
 31
0.0
  0
LINE
  5
637C
330
1A
100
AcDbEntity
  8
NOKITOI
100
AcDbLine
 10
398.5988049668292
 20
96.83939440992709
 30
0.0
 11
399.6768563549374
 21
84.51658925932918
 31
0.0
  0
LINE
  5
637D
330
1A
100
AcDbEntity
  8
NOKITOI
100
AcDbLine
 10
398.7980439827638
 20
96.85682468615619
 30
0.0
 11
399.876095370872
 21
84.5340195355584
 31
0.0
  0
LINE
  5
637E
330
1A
100
AcDbEntity
  8
SEIHIN
100
AcDbLine
 10
404.0995733392003
 20
87.72319681514659
 30
0.0
 11
402.3439841630636
 21
107.7868764829254
 31
0.0
  0
LINE
  5
637F
330
1A
100
AcDbEntity
  8
SEIHIN
100
AcDbLine
 10
400.0691587659641
 20
105.1043101571506
 30
0.0
 11
401.6472592614266
 21
87.069052674992
 31
0.0
  0
LINE
  5
6380
330
1A
100
AcDbEntity
  8
SEIHIN
100
AcDbLine
 10
399.8858231846827
 20
84.53162770887979
 30
0.0
 11
398.8083348148695
 21
96.84799720621981
 31
0.0
  0
POLYLINE
  5
6381
330
1A
100
AcDbEntity
  8
SEIHIN
100
AcDb2dPolyline
 66
     1
 10
0.0
 20
0.0
 30
0.0
  0
VERTEX
  5
7202
330
6381
100
AcDbEntity
  8
SEIHIN
100
AcDbVertex
100
AcDb2dVertex
 10
404.4996850329491
 20
87.03245148095197
 30
0.0
  0
VERTEX
  5
7203
330
6381
100
AcDbEntity
  8
SEIHIN
100
AcDbVertex
100
AcDb2dVertex
 10
407.9533620424656
 20
86.95304619579657
 30
0.0
  0
VERTEX
  5
7204
330
6381
100
AcDbEntity
  8
SEIHIN
100
AcDbVertex
100
AcDb2dVertex
 10
417.575369058459
 20
86.86207829512204
 30
0.0
  0
SEQEND
  5
7205
330
6381
100
AcDbEntity
  8
SEIHIN
  0
LINE
  5
6382
330
1A
100
AcDbEntity
  8
SEIHIN
100
AcDbLine
 10
417.575369058459
 20
88.68567147564386
 30
0.0
 11
403.9975102443479
 21
88.88962075353925
 31
0.0
  0
ARC
  5
6383
330
1A
100
AcDbEntity
  8
NOKITOI
100
AcDbCircle
 10
403.1412941431422
 20
86.22332206840088
 30
0.0
 40
1.999999999999942
100
AcDbArc
 50
184.9997491441009
 51
267.3431291593075
  0
ARC
  5
6384
330
1A
100
AcDbEntity
  8
NOKITOI
100
AcDbCircle
 10
401.6692465142829
 20
84.69089202162127
 30
0.0
 40
2.000000000000289
100
AcDbArc
 50
184.9997491441009
 51
267.2627870055292
  0
ARC
  5
6385
330
1A
100
AcDbEntity
  8
NOKITOI
100
AcDbCircle
 10
401.6692465142829
 20
84.69089202162127
 30
0.0
 40
1.800000000000289
100
AcDbArc
 50
184.9997491441009
 51
267.2627870055292
  0
ARC
  5
6386
330
1A
100
AcDbEntity
  8
SEIHIN
100
AcDbCircle
 10
405.0957669825159
 20
87.81036461320264
 30
0.0
 40
1.000000000000135
100
AcDbArc
 50
185.0006933570885
 51
267.4359180240441
  0
ARC
  5
6387
330
1A
100
AcDbEntity
  8
SEIHIN
100
AcDbCircle
 10
404.6358401913733
 20
87.33055606915991
 30
0.0
 40
2.999999999999947
100
AcDbArc
 50
185.0006933570885
 51
267.4107468868673
  0
ARC
  5
6388
330
1A
100
AcDbEntity
  8
SEIHIN
100
AcDbCircle
 10
401.8782133440279
 20
84.70593047117404
 30
0.0
 40
1.99999999999996
100
AcDbArc
 50
184.999749144166
 51
267.2552673533655
  0
ARC
  5
6389
330
1A
100
AcDbEntity
  8
NOKITOI
100
AcDbCircle
 10
397.5035169399538
 20
104.769510193634
 30
0.0
 40
2.000000000000012
100
AcDbArc
 50
4.999749144100993
 51
75.51309319945758
  0
ARC
  5
638A
330
1A
100
AcDbEntity
  8
NOKITOI
100
AcDbCircle
 10
397.6026098871564
 20
96.75224302878099
 30
0.0
 40
1.000000000000007
100
AcDbArc
 50
4.999749144100993
 51
90.0
  0
ARC
  5
638B
330
1A
100
AcDbEntity
  8
NOKITOI
100
AcDbCircle
 10
397.6026098871564
 20
96.75224302878099
 30
0.0
 40
1.200000000000007
100
AcDbArc
 50
4.999749144100993
 51
90.0
  0
LINE
  5
638C
330
1A
100
AcDbEntity
  8
NOKITOI
100
AcDbLine
 10
397.9708106170225
 20
105.1651934024207
 30
0.0
 11
398.4793522309426
 21
99.35224302878101
 31
0.0
  0
ARC
  5
638D
330
1A
100
AcDbEntity
  8
SEIHIN
100
AcDbCircle
 10
398.076771479333
 20
104.9299745610387
 30
0.0
 40
2.000000000000067
100
AcDbArc
 50
5.00069335708858
 51
75.51179677196325
  0
ARC
  5
638E
330
1A
100
AcDbEntity
  8
SEIHIN
100
AcDbCircle
 10
401.347790519748
 20
107.6997086848693
 30
0.0
 40
0.9999999999999358
100
AcDbArc
 50
5.000693357090202
 51
75.51179677197669
  0
ARC
  5
638F
330
1A
100
AcDbEntity
  8
SEIHIN
100
AcDbCircle
 10
397.8121397351971
 20
96.7608458250727
 30
0.0
 40
1.0
100
AcDbArc
 50
4.999749144166045
 51
90.0
  0
LINE
  5
6390
330
1A
100
AcDbEntity
  8
CENTER_L
 48
0.3
100
AcDbLine
 10
449.3289450884439
 20
73.40494156111981
 30
0.0
 11
449.3289450884439
 21
90.09954449644215
 31
0.0
  0
LINE
  5
6391
330
1A
100
AcDbEntity
  8
NOKITOI
100
AcDbLine
 10
507.2484562727875
 20
146.471208046478
 30
0.0
 11
497.9587588956526
 21
87.53367057420883
 31
0.0
  0
LINE
  5
6392
330
1A
100
AcDbEntity
  8
NOKITOI
100
AcDbLine
 10
499.4629838932121
 20
86.80071394095945
 30
0.0
 11
508.8289440073501
 21
146.2220925694484
 31
0.0
  0
LINE
  5
6393
330
1A
100
AcDbEntity
  8
NOKITOI
100
AcDbLine
 10
499.2654229263917
 20
86.83185337558825
 30
0.0
 11
508.6313830405299
 21
146.2532320040771
 31
0.0
  0
LINE
  5
6394
330
1A
100
AcDbEntity
  8
SEIHIN
100
AcDbLine
 10
515.6388163382428
 20
150.3577404320883
 30
0.0
 11
513.6810696126724
 21
89.3042431113422
 31
0.0
  0
LINE
  5
6395
330
1A
100
AcDbEntity
  8
SEIHIN
100
AcDbLine
 10
504.4230446203248
 20
144.873155015168
 30
0.0
 11
495.6387999688825
 21
88.87627360547003
 31
0.0
  0
LINE
  5
6396
330
1A
100
AcDbEntity
  8
SEIHIN
100
AcDbLine
 10
498.1085959479781
 20
88.48883609871359
 30
0.0
 11
506.9230534529213
 21
144.6783152378286
 31
0.0
  0
ARC
  5
6397
330
1A
100
AcDbEntity
  8
SEIHIN
100
AcDbCircle
 10
493.1690039897865
 20
89.26371111222692
 30
0.0
 40
2.499999999999971
100
AcDbArc
 50
272.5052905584125
 51
351.0846535048964
  0
ARC
  5
6398
330
1A
100
AcDbEntity
  8
SEIHIN
100
AcDbCircle
 10
493.1690039897865
 20
89.26371111222692
 30
0.0
 40
4.999999999999969
100
AcDbArc
 50
272.5052905584125
 51
351.0846535048964
  0
ARC
  5
6399
330
1A
100
AcDbEntity
  8
SEIHIN
100
AcDbCircle
 10
492.0312485458218
 20
88.46352059042374
 30
0.0
 40
6.00000000000069
100
AcDbArc
 50
272.441800561693
 51
351.0846535048948
  0
ARC
  5
639A
330
1A
100
AcDbEntity
  8
SEIHIN
100
AcDbCircle
 10
483.6582097167877
 20
91.39461141409061
 30
0.0
 40
5.000000000000045
100
AcDbArc
 50
271.9621381410977
 51
357.000000000001
  0
ARC
  5
639B
330
1A
100
AcDbEntity
  8
NOKITOI
100
AcDbCircle
 10
494.5239597227025
 20
87.57919980667749
 30
0.0
 40
4.999999999999973
100
AcDbArc
 50
272.6033918042164
 51
351.0427677630336
  0
ARC
  5
639C
330
1A
100
AcDbEntity
  8
NOKITOI
100
AcDbCircle
 10
494.007539559245
 20
88.15645926678326
 30
0.0
 40
4.000000000000015
100
AcDbArc
 50
272.5751779642489
 51
351.0427677630336
  0
ARC
  5
639D
330
1A
100
AcDbEntity
  8
NOKITOI
100
AcDbCircle
 10
494.5239597227025
 20
87.57919980667749
 30
0.0
 40
4.799999999999973
100
AcDbArc
 50
272.6033918042164
 51
351.0427677630336
  0
LINE
  5
639E
330
1A
100
AcDbEntity
  8
SEIHIN
100
AcDbLine
 10
498.1085959479785
 20
88.48883609871336
 30
0.0
 11
497.9587588956526
 21
87.53367057420723
 31
0.0
  0
LINE
  5
639F
330
1A
100
AcDbEntity
  8
SEIHIN
100
AcDbLine
 10
524.9759252166807
 20
88.48883609871336
 30
0.0
 11
524.9759252166807
 21
87.53367057420723
 31
0.0
  0
ARC
  5
63A0
330
1A
100
AcDbEntity
  8
SEIHIN
100
AcDbCircle
 10
521.4457859488359
 20
89.75921983336821
 30
0.0
 40
7.778034687417378
100
AcDbArc
 50
183.3534351679206
 51
233.6532026005467
  0
ARC
  5
63A1
330
1A
100
AcDbEntity
  8
SEIHIN
100
AcDbCircle
 10
520.1250600566143
 20
88.24825825632775
 30
0.0
 40
5.780732306596985
100
AcDbArc
 50
235.3212270413109
 51
268.7199641975013
  0
LINE
  5
63A2
330
1A
100
AcDbEntity
  8
SEIHIN
100
AcDbLine
 10
519.9959243879759
 20
82.46896850934172
 30
0.0
 11
524.9759252166807
 21
82.46896850934195
 31
0.0
  0
LINE
  5
63A3
330
1A
100
AcDbEntity
  8
SEIHIN
100
AcDbLine
 10
524.9759252166807
 20
82.46896850934195
 30
0.0
 11
524.9759252166807
 21
87.53367057420723
 31
0.0
  0
LINE
  5
63A4
330
1A
100
AcDbEntity
  8
SEIHIN
100
AcDbLine
 10
524.9759252166807
 20
82.46896850934195
 30
0.0
 11
524.9759252166807
 21
81.5608458250233
 31
0.0
  0
LINE
  5
63A5
330
1A
100
AcDbEntity
  8
NOKITOI
100
AcDbLine
 10
504.1289450884444
 20
164.9522430287811
 30
0.0
 11
502.1581665959756
 21
164.9522430287811
 31
0.0
  0
LINE
  5
63A6
330
1A
100
AcDbEntity
  8
NOKITOI
100
AcDbLine
 10
507.5289450884445
 20
150.5522430287817
 30
0.0
 11
507.5289450884443
 21
150.052243028781
 31
0.0
  0
ARC
  5
63A7
330
1A
100
AcDbEntity
  8
NOKITOI
100
AcDbCircle
 10
484.5289450884435
 20
150.052243028781
 30
0.0
 40
23.00000000000073
100
AcDbArc
 50
351.0427677630336
 51
0.0
  0
ARC
  5
63A8
330
1A
100
AcDbEntity
  8
NOKITOI
100
AcDbCircle
 10
484.5289450884435
 20
150.052243028781
 30
0.0
 40
24.60000000000039
100
AcDbArc
 50
351.0427677630336
 51
0.0
  0
ARC
  5
63A9
330
1A
100
AcDbEntity
  8
NOKITOI
100
AcDbCircle
 10
484.5289450884435
 20
150.052243028781
 30
0.0
 40
24.40000000000039
100
AcDbArc
 50
351.0427677630336
 51
0.0
  0
LINE
  5
63AA
330
1A
100
AcDbEntity
  8
NOKITOI
100
AcDbLine
 10
502.1289450884444
 20
146.5522430287817
 30
0.0
 11
503.1289450884444
 21
149.5522430287817
 31
0.0
  0
LINE
  5
63AB
330
1A
100
AcDbEntity
  8
NOKITOI
100
AcDbLine
 10
496.2431665959757
 20
148.0522430287817
 30
0.0
 11
501.0478062583602
 21
148.0522430287817
 31
0.0
  0
LINE
  5
63AC
330
1A
100
AcDbEntity
  8
NOKITOI
100
AcDbLine
 10
501.0478062583602
 20
148.0522430287817
 30
0.0
 11
501.9729841004523
 21
150.8277765550578
 31
0.0
  0
LINE
  5
63AD
330
1A
100
AcDbEntity
  8
NOKITOI
100
AcDbLine
 10
501.9729841004523
 20
150.8277765550578
 30
0.0
 11
507.5289450884445
 21
152.0904949614197
 31
0.0
  0
LINE
  5
63AE
330
1A
100
AcDbEntity
  8
NOKITOI
100
AcDbLine
 10
503.1289450884444
 20
149.5522430287817
 30
0.0
 11
507.5289450884445
 21
150.5522430287817
 31
0.0
  0
LINE
  5
63AF
330
1A
100
AcDbEntity
  8
NOKITOI
100
AcDbLine
 10
509.1289450884439
 20
150.052243028781
 30
0.0
 11
509.1289450884444
 21
161.552243028781
 31
0.0
  0
LINE
  5
63B0
330
1A
100
AcDbEntity
  8
NOKITOI
100
AcDbLine
 10
507.5289450884445
 20
152.0904949614197
 30
0.0
 11
507.5289450884445
 21
161.552243028781
 31
0.0
  0
LINE
  5
63B1
330
1A
100
AcDbEntity
  8
NOKITOI
100
AcDbLine
 10
502.1581665959756
 20
164.9522430287811
 30
0.0
 11
496.2431665959757
 21
148.0522430287817
 31
0.0
  0
LINE
  5
63B2
330
1A
100
AcDbEntity
  8
NOKITOI
100
AcDbLine
 10
508.9289450884439
 20
150.052243028781
 30
0.0
 11
508.9289450884443
 21
161.552243028781
 31
0.0
  0
LINE
  5
63B3
330
1A
100
AcDbEntity
  8
NOKITOI
100
AcDbLine
 10
494.1289450884444
 20
146.5522430287817
 30
0.0
 11
502.1289450884444
 21
146.5522430287817
 31
0.0
  0
LINE
  5
63B4
330
1A
100
AcDbEntity
  8
SEIHIN
100
AcDbLine
 10
507.2816727069032
 20
146.9644036419333
 30
0.0
 11
506.9230534529213
 21
144.6783152378286
 31
0.0
  0
ARC
  5
63B5
330
1A
100
AcDbEntity
  8
SEIHIN
100
AcDbCircle
 10
506.4312562823658
 20
144.8087435366842
 30
0.0
 40
0.5087985830450571
100
AcDbArc
 50
345.1466646703384
 51
99.34557509487939
  0
LINE
  5
63B6
330
1A
100
AcDbEntity
  8
SEIHIN
100
AcDbLine
 10
504.4230446203248
 20
144.873155015168
 30
0.0
 11
504.8150506076301
 21
147.3720736648674
 31
0.0
  0
ARC
  5
63B7
330
1A
100
AcDbEntity
  8
SEIHIN
100
AcDbCircle
 10
484.8590990965419
 20
150.5025687194622
 30
0.0
 40
20.19999999999346
100
AcDbArc
 50
351.0846535048884
 51
358.9843060365821
  0
LINE
  5
63B8
330
1A
100
AcDbEntity
  8
SEIHIN
100
AcDbLine
 10
505.0559252167134
 20
150.1444979564739
 30
0.0
 11
506.9415673173619
 21
150.573052979349
 31
0.0
  0
LINE
  5
63B9
330
1A
100
AcDbEntity
  8
SEIHIN
100
AcDbLine
 10
506.9415673173619
 20
150.573052979349
 30
0.0
 11
506.9541306043045
 21
150.5759082718361
 31
0.0
  0
LINE
  5
63BA
330
1A
100
AcDbEntity
  8
SEIHIN
100
AcDbLine
 10
506.3486331164997
 20
145.3107887642988
 30
0.0
 11
504.4230446203248
 21
144.873155015168
 31
0.0
  0
ARC
  5
63BB
330
1A
100
AcDbEntity
  8
SEIHIN
100
AcDbCircle
 10
507.0523778691296
 20
150.0854865513836
 30
0.0
 40
0.500000000063337
100
AcDbArc
 50
359.1536271308175
 51
101.3277431577262
  0
LINE
  5
63BC
330
1A
100
AcDbEntity
  8
SEIHIN
100
AcDbLine
 10
507.5522979687737
 20
150.0765482050474
 30
0.0
 11
507.2816727069032
 21
146.9644036419333
 31
0.0
  0
ARC
  5
63BD
330
1A
100
AcDbEntity
  8
SEIHIN
100
AcDbCircle
 10
507.05229797398
 20
152.1444979564742
 30
0.0
 40
0.5
100
AcDbArc
 50
0.0
 51
90.0
  0
LINE
  5
63BE
330
1A
100
AcDbEntity
  8
SEIHIN
100
AcDbLine
 10
507.55229797398
 20
150.0944246068236
 30
0.0
 11
507.55229797398
 21
152.1444979564742
 31
0.0
  0
LINE
  5
63BF
330
1A
100
AcDbEntity
  8
SEIHIN
100
AcDbLine
 10
505.0559252167134
 20
152.1444979564742
 30
0.0
 11
505.0559252167134
 21
150.1444979564739
 31
0.0
  0
ARC
  5
63C0
330
1A
100
AcDbEntity
  8
SEIHIN
100
AcDbCircle
 10
505.5559252167133
 20
152.1444979564742
 30
0.0
 40
0.5
100
AcDbArc
 50
90.0
 51
180.0
  0
LINE
  5
63C1
330
1A
100
AcDbEntity
  8
SEIHIN
100
AcDbLine
 10
507.05229797398
 20
152.6444979564741
 30
0.0
 11
505.5559252167133
 21
152.6444979564741
 31
0.0
  0
LINE
  5
63C2
330
1A
100
AcDbEntity
  8
SEIHIN
100
AcDbLine
 10
501.8105891927928
 20
150.1444979564739
 30
0.0
 11
501.3497733656643
 21
150.1801010914325
 31
0.0
  0
LINE
  5
63C3
330
1A
100
AcDbEntity
  8
SEIHIN
100
AcDbLine
 10
501.8105891927928
 20
150.1444979564739
 30
0.0
 11
505.0559252167134
 21
150.1444979564739
 31
0.0
  0
ARC
  5
63C4
330
1A
100
AcDbEntity
  8
SEIHIN
100
AcDbCircle
 10
501.8105891927919
 20
153.1444979564728
 30
0.0
 40
2.999999999998506
100
AcDbArc
 50
211.2283745974645
 51
261.1640842239791
  0
LINE
  5
63C5
330
1A
100
AcDbEntity
  8
SEIHIN
100
AcDbLine
 10
497.7719550843642
 20
164.8851573105187
 30
0.0
 11
498.8220050985176
 21
152.883030728231
 31
0.0
  0
POLYLINE
  5
63C6
330
1A
100
AcDbEntity
  8
SEIHIN
100
AcDb2dPolyline
 66
     1
 10
0.0
 20
0.0
 30
0.0
  0
VERTEX
  5
7206
330
63C6
100
AcDbEntity
  8
SEIHIN
100
AcDbVertex
100
AcDb2dVertex
 10
499.2452663547307
 20
151.5891463124653
 30
0.0
  0
VERTEX
  5
7207
330
63C6
100
AcDbEntity
  8
SEIHIN
100
AcDbVertex
100
AcDb2dVertex
 10
498.8801399293404
 20
152.5022619295086
 30
0.0
  0
VERTEX
  5
7208
330
63C6
100
AcDbEntity
  8
SEIHIN
100
AcDbVertex
100
AcDb2dVertex
 10
498.8220050985176
 20
152.883030728231
 30
0.0
  0
SEQEND
  5
7209
330
63C6
100
AcDbEntity
  8
SEIHIN
  0
LINE
  5
63C7
330
1A
100
AcDbEntity
  8
SEIHIN
100
AcDbLine
 10
522.9759252166807
 20
150.5854865514622
 30
0.0
 11
522.8443563137695
 21
150.5854865514622
 31
0.0
  0
LINE
  5
63C8
330
1A
100
AcDbEntity
  8
SEIHIN
100
AcDbLine
 10
519.7368515698283
 20
150.4375695782362
 30
0.0
 11
518.3123300400334
 21
150.2861106773001
 31
0.0
  0
POLYLINE
  5
63C9
330
1A
100
AcDbEntity
  8
SEIHIN
100
AcDb2dPolyline
 66
     1
 10
0.0
 20
0.0
 30
0.0
  0
VERTEX
  5
720A
330
63C9
100
AcDbEntity
  8
SEIHIN
100
AcDbVertex
100
AcDb2dVertex
 10
522.8465419257865
 20
150.5625827835503
 30
0.0
  0
VERTEX
  5
720B
330
63C9
100
AcDbEntity
  8
SEIHIN
100
AcDbVertex
100
AcDb2dVertex
 10
520.4687347777691
 20
150.5153853388053
 30
0.0
  0
VERTEX
  5
720C
330
63C9
100
AcDbEntity
  8
SEIHIN
100
AcDbVertex
100
AcDb2dVertex
 10
519.7368515698283
 20
150.4375695782362
 30
0.0
  0
SEQEND
  5
720D
330
63C9
100
AcDbEntity
  8
SEIHIN
  0
ARC
  5
63CA
330
1A
100
AcDbEntity
  8
SEIHIN
100
AcDbCircle
 10
522.4701694160073
 20
166.5449855086387
 30
0.0
 40
19.58329914959658
100
AcDbArc
 50
250.8155916087699
 51
270.9544806977675
  0
LINE
  5
63CB
330
1A
100
AcDbEntity
  8
SEIHIN
100
AcDbLine
 10
517.4870503417148
 20
150.1444979564739
 30
0.0
 11
516.08475927728
 21
150.1444979564739
 31
0.0
  0
LINE
  5
63CC
330
1A
100
AcDbEntity
  8
SEIHIN
100
AcDbLine
 10
524.9759252166807
 20
150.0944246068236
 30
0.0
 11
522.9759252166807
 21
150.0944246067208
 31
0.0
  0
LINE
  5
63CD
330
1A
100
AcDbEntity
  8
SEIHIN
100
AcDbLine
 10
522.8465419257865
 20
150.5594042198929
 30
0.0
 11
522.8465419257865
 21
150.5854096679556
 31
0.0
  0
POLYLINE
  5
63CE
330
1A
100
AcDbEntity
  8
SEIHIN
100
AcDb2dPolyline
 66
     1
 10
0.0
 20
0.0
 30
0.0
  0
VERTEX
  5
720E
330
63CE
100
AcDbEntity
  8
SEIHIN
100
AcDbVertex
100
AcDb2dVertex
 10
518.3123300400334
 20
150.2861106773001
 30
0.0
  0
VERTEX
  5
720F
330
63CE
100
AcDbEntity
  8
SEIHIN
100
AcDbVertex
100
AcDb2dVertex
 10
517.4870503417148
 20
150.1444979564739
 30
0.0
  0
SEQEND
  5
7210
330
63CE
100
AcDbEntity
  8
SEIHIN
  0
LINE
  5
63CF
330
1A
100
AcDbEntity
  8
SEIHIN
100
AcDbLine
 10
524.9759252166807
 20
152.6444979564741
 30
0.0
 11
522.9759252166807
 21
152.6444979564741
 31
0.0
  0
LINE
  5
63D0
330
1A
100
AcDbEntity
  8
SEIHIN
100
AcDbLine
 10
522.9759252166807
 20
150.0944246067208
 30
0.0
 11
522.9759252166807
 21
152.6444979564741
 31
0.0
  0
LINE
  5
63D1
330
1A
100
AcDbEntity
  8
SEIHIN
100
AcDbLine
 10
524.9759252166807
 20
150.0944246068236
 30
0.0
 11
524.9759252166807
 21
152.6444979564741
 31
0.0
  0
ARC
  5
63D2
330
1A
100
AcDbEntity
  8
SEIHIN
100
AcDbCircle
 10
515.9903497655029
 20
150.5340656502637
 30
0.0
 40
0.3932764079447719
100
AcDbArc
 50
206.6378285811084
 51
262.1251507380116
  0
LINE
  5
63D3
330
1A
100
AcDbEntity
  8
SEIHIN
100
AcDbLine
 10
516.08475927728
 20
150.1444979564739
 30
0.0
 11
515.9364670688257
 21
150.1444979564739
 31
0.0
  0
POLYLINE
  5
63D4
330
1A
100
AcDbEntity
  8
SEIHIN
100
AcDb2dPolyline
 66
     1
 10
0.0
 20
0.0
 30
0.0
  0
VERTEX
  5
7211
330
63D4
100
AcDbEntity
  8
SEIHIN
100
AcDbVertex
100
AcDb2dVertex
 10
517.8372813370672
 20
151.5891463124653
 30
0.0
  0
VERTEX
  5
7212
330
63D4
100
AcDbEntity
  8
SEIHIN
100
AcDbVertex
100
AcDb2dVertex
 10
517.7298976588192
 20
152.5022619295086
 30
0.0
  0
VERTEX
  5
7213
330
63D4
100
AcDbEntity
  8
SEIHIN
100
AcDbVertex
100
AcDb2dVertex
 10
517.7103357007415
 20
152.883030728231
 30
0.0
  0
SEQEND
  5
7214
330
63D4
100
AcDbEntity
  8
SEIHIN
  0
ARC
  5
63D5
330
1A
100
AcDbEntity
  8
SEIHIN
100
AcDbCircle
 10
520.0614517403444
 20
151.6619015728308
 30
0.0
 40
2.225360040695438
100
AcDbArc
 50
181.8735450682063
 51
218.1872093987734
  0
ARC
  5
63D6
330
1A
100
AcDbEntity
  8
SEIHIN
100
AcDbCircle
 10
520.2850800117287
 20
153.2404536290334
 30
0.0
 40
5.467888212042902
100
AcDbArc
 50
183.747961758521
 51
211.8169890691897
  0
ARC
  5
63D7
330
1A
100
AcDbEntity
  8
SEIHIN
100
AcDbCircle
 10
315.8109823854813
 20
139.7569036681554
 30
0.0
 40
199.4502977437825
100
AcDbArc
 50
3.773449532114062
 51
7.237788905604267
  0
ARC
  5
63D8
330
1A
100
AcDbEntity
  8
SEIHIN
100
AcDbCircle
 10
119.3315574104178
 20
140.6627773159832
 30
0.0
 40
398.5661621180986
100
AcDbArc
 50
1.756994846126464
 51
3.484229268005755
  0
LINE
  5
63D9
330
1A
100
AcDbEntity
  8
SEIHIN
100
AcDbLine
 10
522.4759252166807
 20
157.1642128871815
 30
0.0
 11
522.4759252166807
 21
150.5511845248636
 31
0.0
  0
LINE
  5
63DA
330
1A
100
AcDbEntity
  8
SEIHIN
100
AcDbLine
 10
522.4759252166807
 20
158.0764197874284
 30
0.0
 11
522.4759252166807
 21
157.1642128871815
 31
0.0
  0
LINE
  5
63DB
330
1A
100
AcDbEntity
  8
NOKITOI
100
AcDbLine
 10
398.54452907164
 20
192.3962506443029
 30
0.0
 11
384.9034384352234
 21
195.3802392210189
 31
0.0
  0
LINE
  5
63DC
330
1A
100
AcDbEntity
  8
NOKITOI
100
AcDbLine
 10
398.5017896958788
 20
192.2008706408236
 30
0.0
 11
384.8606990594623
 21
195.1848592175397
 31
0.0
  0
ARC
  5
63DD
330
1A
100
AcDbEntity
  8
NOKITOI
100
AcDbCircle
 10
395.1171353140291
 20
188.5522430287801
 30
0.0
 40
3.499999999999985
100
AcDbArc
 50
270.0
 51
0.0
  0
ARC
  5
63DE
330
1A
100
AcDbEntity
  8
NOKITOI
100
AcDbCircle
 10
392.5466653229571
 20
187.9522430287801
 30
0.0
 40
2.600000000000022
100
AcDbArc
 50
340.0168934781013
 51
90.0
  0
ARC
  5
63DF
330
1A
100
AcDbEntity
  8
NOKITOI
100
AcDbCircle
 10
395.1171353140291
 20
188.5522430287801
 30
0.0
 40
4.999999999999985
100
AcDbArc
 50
270.0
 51
0.0
  0
LINE
  5
63E0
330
1A
100
AcDbEntity
  8
NOKITOI
100
AcDbLine
 10
398.2239837534318
 20
190.828535997245
 30
0.0
 11
389.6171353140289
 21
192.7112840933644
 31
0.0
  0
LINE
  5
63E1
330
1A
100
AcDbEntity
  8
NOKITOI
100
AcDbLine
 10
395.517135314029
 20
173.5522430287801
 30
0.0
 11
386.9395730175458
 21
173.5522430287801
 31
0.0
  0
LINE
  5
63E2
330
1A
100
AcDbEntity
  8
NOKITOI
100
AcDbLine
 10
395.6171353140291
 20
172.0522430287801
 30
0.0
 11
386.9395730175458
 21
172.0522430287801
 31
0.0
  0
LINE
  5
63E3
330
1A
100
AcDbEntity
  8
SEIHIN
100
AcDbLine
 10
387.9659252167132
 20
179.7126797746561
 30
0.0
 11
396.4659252167132
 21
179.7126797746561
 31
0.0
  0
LINE
  5
63E4
330
1A
100
AcDbEntity
  8
SEIHIN
100
AcDbLine
 10
397.9659252167132
 20
184.2126797746561
 30
0.0
 11
393.4659252167132
 21
184.2126797746561
 31
0.0
  0
LINE
  5
63E5
330
1A
100
AcDbEntity
  8
SEIHIN
100
AcDbLine
 10
399.5165773952996
 20
195.6528550891689
 30
0.0
 11
388.7456643452781
 21
198.0849967456254
 31
0.0
  0
LINE
  5
63E6
330
1A
100
AcDbEntity
  8
SEIHIN
100
AcDbLine
 10
388.8557947809959
 20
200.6230719024101
 30
0.0
 11
400.457099138169
 21
198.0034225314357
 31
0.0
  0
ARC
  5
63E7
330
1A
100
AcDbEntity
  8
SEIHIN
100
AcDbCircle
 10
395.2105510174417
 20
196.1125949621666
 30
0.0
 40
0.5000000000001528
100
AcDbArc
 50
44.10845224538749
 51
77.27564431454907
  0
LINE
  5
63E8
330
1A
100
AcDbEntity
  8
SEIHIN
100
AcDbLine
 10
388.4658303623348
 20
201.2208458246325
 30
0.0
 11
522.4759252166807
 21
201.2208458246325
 31
0.0
  0
ARC
  5
63E9
330
1A
100
AcDbEntity
  8
NOKITOI
100
AcDbCircle
 10
392.6894353221455
 20
188.0522430287802
 30
0.0
 40
1.000000000000003
100
AcDbArc
 50
340.0168934781013
 51
90.0
  0
ARC
  5
63EA
330
1A
100
AcDbEntity
  8
NOKITOI
100
AcDbCircle
 10
386.9089281244403
 20
182.0522430287802
 30
0.0
 40
8.500000000000023
100
AcDbArc
 50
90.0
 51
146.4276220008688
  0
ARC
  5
63EB
330
1A
100
AcDbEntity
  8
NOKITOI
100
AcDbCircle
 10
386.9089281244403
 20
182.0522430287802
 30
0.0
 40
7.000000000000182
100
AcDbArc
 50
90.0
 51
181.127032230844
  0
ARC
  5
63EC
330
1A
100
AcDbEntity
  8
NOKITOI
100
AcDbCircle
 10
1378.117135314765
 20
201.5522430287804
 30
0.0
 40
998.3999999999998
100
AcDbArc
 50
180.1673696882618
 51
180.8493437959589
  0
ARC
  5
63ED
330
1A
100
AcDbEntity
  8
NOKITOI
100
AcDbCircle
 10
386.9395730175458
 20
180.5522430287801
 30
0.0
 40
7.000000000000047
100
AcDbArc
 50
181.2137395248443
 51
270.0
  0
ARC
  5
63EE
330
1A
100
AcDbEntity
  8
NOKITOI
100
AcDbCircle
 10
394.9725352977964
 20
185.5522430287802
 30
0.0
 40
0.5
100
AcDbArc
 50
160.0168934781013
 51
270.0
  0
LINE
  5
63EF
330
1A
100
AcDbEntity
  8
NOKITOI
100
AcDbLine
 10
394.9901282240271
 20
187.0637110647547
 30
0.0
 11
394.5026385860521
 21
185.7231145603235
 31
0.0
  0
LINE
  5
63F0
330
1A
100
AcDbEntity
  8
NOKITOI
100
AcDbLine
 10
394.9725352977964
 20
185.0522430287801
 30
0.0
 11
395.1171353140291
 21
185.0522430287801
 31
0.0
  0
LINE
  5
63F1
330
1A
100
AcDbEntity
  8
NOKITOI
100
AcDbLine
 10
393.6292287456337
 20
187.7104999656934
 30
0.0
 11
392.3610885982266
 21
184.2231145603235
 31
0.0
  0
LINE
  5
63F2
330
1A
100
AcDbEntity
  8
NOKITOI
100
AcDbLine
 10
392.8309853099708
 20
183.5522430287801
 30
0.0
 11
395.1171353140291
 21
183.5522430287801
 31
0.0
  0
ARC
  5
63F3
330
1A
100
AcDbEntity
  8
NOKITOI
100
AcDbCircle
 10
392.8309853099708
 20
184.0522430287802
 30
0.0
 40
0.5
100
AcDbArc
 50
160.0168934781013
 51
270.0
  0
ARC
  5
63F4
330
1A
100
AcDbEntity
  8
NOKITOI
100
AcDbCircle
 10
1378.117135314765
 20
201.5522430287804
 30
0.0
 40
998.4000000007354
100
AcDbArc
 50
181.127032230844
 51
181.2137395248443
  0
ARC
  5
63F5
330
1A
100
AcDbEntity
  8
NOKITOI
100
AcDbCircle
 10
386.9395730175458
 20
180.5522430287801
 30
0.0
 40
8.500000000000021
100
AcDbArc
 50
215.9131497548197
 51
270.0
  0
LINE
  5
63F6
330
1A
100
AcDbEntity
  8
SEIHIN
100
AcDbLine
 10
385.9659252167132
 20
182.1153856930998
 30
0.0
 11
385.9659252167132
 21
181.7126797746561
 31
0.0
  0
ARC
  5
63F7
330
1A
100
AcDbEntity
  8
SEIHIN
100
AcDbCircle
 10
386.9659252167132
 20
182.1153856930998
 30
0.0
 40
1.000000000000055
100
AcDbArc
 50
118.3007557660036
 51
180.0
  0
ARC
  5
63F8
330
1A
100
AcDbEntity
  8
SEIHIN
100
AcDbCircle
 10
392.4659252167132
 20
185.7126797746561
 30
0.0
 40
0.5
100
AcDbArc
 50
0.0
 51
90.00000000002605
  0
LINE
  5
63F9
330
1A
100
AcDbEntity
  8
SEIHIN
100
AcDbLine
 10
392.9659252167132
 20
184.7126797746561
 30
0.0
 11
392.9659252167132
 21
185.7126797746561
 31
0.0
  0
ARC
  5
63FA
330
1A
100
AcDbEntity
  8
SEIHIN
100
AcDbCircle
 10
393.4659252167132
 20
184.7126797746561
 30
0.0
 40
0.5
100
AcDbArc
 50
180.0
 51
270.0
  0
LINE
  5
63FB
330
1A
100
AcDbEntity
  8
SEIHIN
100
AcDbLine
 10
392.4659252167132
 20
186.2126797746561
 30
0.0
 11
386.4918253936778
 21
182.995856793022
 31
0.0
  0
ARC
  5
63FC
330
1A
100
AcDbEntity
  8
SEIHIN
100
AcDbCircle
 10
387.9659252167132
 20
181.7126797746561
 30
0.0
 40
2.0
100
AcDbArc
 50
180.0
 51
270.0
  0
ARC
  5
63FD
330
1A
100
AcDbEntity
  8
NOKITOI
100
AcDbCircle
 10
379.1180991994995
 20
200.1644958469005
 30
0.0
 40
1.000000000000119
100
AcDbArc
 50
71.56505117707208
 51
180.0795916737998
  0
ARC
  5
63FE
330
1A
100
AcDbEntity
  8
NOKITOI
100
AcDbCircle
 10
379.1180991994995
 20
200.1644958469005
 30
0.0
 40
0.8000000000001193
100
AcDbArc
 50
71.56505117707208
 51
180.0795916737998
  0
ARC
  5
63FF
330
1A
100
AcDbEntity
  8
SEIHIN
100
AcDbCircle
 10
379.3152264372913
 20
200.2208458246325
 30
0.0
 40
1.000000000000075
100
AcDbArc
 50
90.0
 51
180.0854433699802
  0
LINE
  5
6400
330
1A
100
AcDbEntity
  8
NOKITOI
100
AcDbLine
 10
384.1171353140289
 20
196.3571392384152
 30
0.0
 11
384.1171353140289
 21
199.1918634187522
 31
0.0
  0
ARC
  5
6401
330
1A
100
AcDbEntity
  8
NOKITOI
100
AcDbCircle
 10
382.017135314029
 20
198.0386486666624
 30
0.0
 40
0.5
100
AcDbArc
 50
0.0
 51
71.56505117707208
  0
LINE
  5
6402
330
1A
100
AcDbEntity
  8
NOKITOI
100
AcDbLine
 10
383.9171353140288
 20
196.3571392384152
 30
0.0
 11
383.9171353140288
 21
199.1918634187522
 31
0.0
  0
ARC
  5
6403
330
1A
100
AcDbEntity
  8
NOKITOI
100
AcDbCircle
 10
380.2213929168294
 20
198.6372294657288
 30
0.0
 40
0.5000000000000031
100
AcDbArc
 50
71.56505117707208
 51
180.1673696882651
  0
LINE
  5
6404
330
1A
100
AcDbEntity
  8
NOKITOI
100
AcDbLine
 10
382.1752491970373
 20
198.5129903156876
 30
0.0
 11
380.3795067998378
 21
199.1115711147541
 31
0.0
  0
ARC
  5
6405
330
1A
100
AcDbEntity
  8
NOKITOI
100
AcDbCircle
 10
383.517135314029
 20
195.0693053029993
 30
0.0
 40
1.0
100
AcDbArc
 50
180.0
 51
257.6609127216743
  0
LINE
  5
6406
330
1A
100
AcDbEntity
  8
NOKITOI
100
AcDbLine
 10
382.517135314029
 20
195.0693053029993
 30
0.0
 11
382.517135314029
 21
198.0386486666624
 31
0.0
  0
ARC
  5
6407
330
1A
100
AcDbEntity
  8
NOKITOI
100
AcDbCircle
 10
385.1171353140289
 20
196.3571392384152
 30
0.0
 40
1.00000000000001
100
AcDbArc
 50
180.0
 51
257.6609127216743
  0
LINE
  5
6408
330
1A
100
AcDbEntity
  8
NOKITOI
100
AcDbLine
 10
388.1171353140289
 20
193.0394090933644
 30
0.0
 11
383.3034384352235
 21
194.0924052856031
 31
0.0
  0
ARC
  5
6409
330
1A
100
AcDbEntity
  8
NOKITOI
100
AcDbCircle
 10
383.6171353140289
 20
199.1918634187522
 30
0.0
 40
0.5000000000000077
100
AcDbArc
 50
0.0
 51
71.56505117707208
  0
ARC
  5
640A
330
1A
100
AcDbEntity
  8
NOKITOI
100
AcDbCircle
 10
385.1171353140289
 20
196.3571392384152
 30
0.0
 40
1.20000000000001
100
AcDbArc
 50
180.0
 51
257.6609127216743
  0
ARC
  5
640B
330
1A
100
AcDbEntity
  8
NOKITOI
100
AcDbCircle
 10
383.6171353140289
 20
199.1918634187522
 30
0.0
 40
0.3000000000000076
100
AcDbArc
 50
0.0
 51
71.56505117707208
  0
LINE
  5
640C
330
1A
100
AcDbEntity
  8
NOKITOI
100
AcDbLine
 10
383.7752491970375
 20
199.6662050677774
 30
0.0
 11
379.4343269655164
 21
201.1131791449511
 31
0.0
  0
LINE
  5
640D
330
1A
100
AcDbEntity
  8
NOKITOI
100
AcDbLine
 10
383.7120036438341
 20
199.4764684081673
 30
0.0
 11
379.371081412313
 21
200.9234424853409
 31
0.0
  0
LINE
  5
640E
330
1A
100
AcDbEntity
  8
NOKITOI
100
AcDbLine
 10
386.9089281244403
 20
190.5522430287802
 30
0.0
 11
388.1171353140289
 21
190.5522430287802
 31
0.0
  0
LINE
  5
640F
330
1A
100
AcDbEntity
  8
NOKITOI
100
AcDbLine
 10
386.9089281244403
 20
189.0522430287802
 30
0.0
 11
392.6894353221455
 21
189.0522430287802
 31
0.0
  0
LINE
  5
6410
330
1A
100
AcDbEntity
  8
NOKITOI
100
AcDbLine
 10
389.6171353140289
 20
190.5522430287802
 30
0.0
 11
392.5466653229571
 21
190.5522430287802
 31
0.0
  0
LINE
  5
6411
330
1A
100
AcDbEntity
  8
NOKITOI
100
AcDbLine
 10
389.6171353140289
 20
190.5522430287802
 30
0.0
 11
389.6171353140289
 21
192.7112840933644
 31
0.0
  0
LINE
  5
6412
330
1A
100
AcDbEntity
  8
NOKITOI
100
AcDbLine
 10
388.1171353140289
 20
193.0394090933644
 30
0.0
 11
388.1171353140289
 21
190.5522430287802
 31
0.0
  0
LINE
  5
6413
330
1A
100
AcDbEntity
  8
SEIHIN
100
AcDbLine
 10
385.9659252167132
 20
199.5120506509188
 30
0.0
 11
385.9659252167132
 21
201.2111069653128
 31
0.0
  0
LINE
  5
6414
330
1A
100
AcDbEntity
  8
SEIHIN
100
AcDbLine
 10
388.7456643452781
 20
198.0849967456254
 30
0.0
 11
386.7456643452785
 21
198.5366096488512
 31
0.0
  0
ARC
  5
6415
330
1A
100
AcDbEntity
  8
SEIHIN
100
AcDbCircle
 10
386.9659252167132
 20
199.5120506509188
 30
0.0
 40
1.0
100
AcDbArc
 50
180.0
 51
257.2756443145891
  0
ARC
  5
6416
330
1A
100
AcDbEntity
  8
SEIHIN
100
AcDbCircle
 10
388.9659252167132
 20
201.1107924034443
 30
0.0
 40
0.499999999999985
100
AcDbArc
 50
180.0
 51
257.2756443145757
  0
ARC
  5
6417
330
1A
100
AcDbEntity
  8
SEIHIN
100
AcDbCircle
 10
387.9659252167132
 20
201.2111069653128
 30
0.0
 40
0.5000000000002274
100
AcDbArc
 50
0.0
 51
90.0
  0
LINE
  5
6418
330
1A
100
AcDbEntity
  8
SEIHIN
100
AcDbLine
 10
388.4659252167132
 20
201.2111069653128
 30
0.0
 11
388.4659252167132
 21
201.1107924034443
 31
0.0
  0
ARC
  5
6419
330
1A
100
AcDbEntity
  8
SEIHIN
100
AcDbCircle
 10
386.4659252167132
 20
201.2111069653128
 30
0.0
 40
0.5000000000002274
100
AcDbArc
 50
90.0
 51
180.0
  0
LINE
  5
641A
330
1A
100
AcDbEntity
  8
SEIHIN
100
AcDbLine
 10
386.4659252167132
 20
201.7111069653128
 30
0.0
 11
387.9659252167132
 21
201.7111069653128
 31
0.0
  0
LINE
  5
641B
330
1A
100
AcDbEntity
  8
SEIHIN
100
AcDbLine
 10
380.4084570913658
 20
201.2208458246325
 30
0.0
 11
385.9768380959197
 21
199.3647188231259
 31
0.0
  0
LINE
  5
641C
330
1A
100
AcDbEntity
  8
SEIHIN
100
AcDbLine
 10
379.3152264372913
 20
201.220845824632
 30
0.0
 11
380.4084570913658
 21
201.2208458246325
 31
0.0
  0
LINE
  5
641D
330
1A
100
AcDbEntity
  8
SEIHIN
100
AcDbLine
 10
381.3571403894104
 20
201.2208458246325
 30
0.0
 11
385.9660200710916
 21
201.2208458246325
 31
0.0
  0
LINE
  5
641E
330
1A
100
AcDbEntity
  8
SEIHIN
100
AcDbLine
 10
380.4084570913658
 20
201.2208458246325
 30
0.0
 11
381.3571403894104
 21
201.2208458246325
 31
0.0
  0
LINE
  5
641F
330
1A
100
AcDbEntity
  8
SEIHIN
100
AcDbLine
 10
401.4659252167132
 20
195.2126797746561
 30
0.0
 11
401.4659252167132
 21
183.0626797746563
 31
0.0
  0
LINE
  5
6420
330
1A
100
AcDbEntity
  8
SEIHIN
100
AcDbLine
 10
403.9659252167131
 20
182.9553204617754
 30
0.0
 11
403.9659252167131
 21
193.6139380221309
 31
0.0
  0
ARC
  5
6421
330
1A
100
AcDbEntity
  8
NOKITOI
100
AcDbCircle
 10
395.517135314029
 20
169.5025021264013
 30
0.0
 40
1.600000000000008
100
AcDbArc
 50
298.5868361218864
 51
0.0
  0
LINE
  5
6422
330
1A
100
AcDbEntity
  8
NOKITOI
100
AcDbLine
 10
397.1171353140291
 20
169.5025021264013
 30
0.0
 11
397.1171353140291
 21
171.9522430287802
 31
0.0
  0
LINE
  5
6423
330
1A
100
AcDbEntity
  8
NOKITOI
100
AcDbLine
 10
395.6171353140291
 20
169.4431109328002
 30
0.0
 11
395.6171353140291
 21
172.0522430287801
 31
0.0
  0
ARC
  5
6424
330
1A
100
AcDbEntity
  8
NOKITOI
100
AcDbCircle
 10
395.517135314029
 20
171.9522430287802
 30
0.0
 40
1.600000000000008
100
AcDbArc
 50
0.0
 51
90.0
  0
ARC
  5
6425
330
1A
100
AcDbEntity
  8
SEIHIN
100
AcDbCircle
 10
397.9659252167132
 20
183.7126797746561
 30
0.0
 40
0.5000000000002274
100
AcDbArc
 50
0.0
 51
90.0
  0
ARC
  5
6426
330
1A
100
AcDbEntity
  8
SEIHIN
100
AcDbCircle
 10
399.4659252167132
 20
183.0626797746563
 30
0.0
 40
1.000000000000056
100
AcDbArc
 50
180.0
 51
270.0
  0
ARC
  5
6427
330
1A
100
AcDbEntity
  8
SEIHIN
100
AcDbCircle
 10
400.4659252167132
 20
183.0626797746563
 30
0.0
 40
1.000000000000056
100
AcDbArc
 50
270.0
 51
0.0
  0
ARC
  5
6428
330
1A
100
AcDbEntity
  8
SEIHIN
100
AcDbCircle
 10
400.4659252167132
 20
182.9553204617754
 30
0.0
 40
3.499999999999938
100
AcDbArc
 50
289.4712206344861
 51
0.0
  0
ARC
  5
6429
330
1A
100
AcDbEntity
  8
SEIHIN
100
AcDbCircle
 10
401.9659252167132
 20
178.7126797746561
 30
0.0
 40
0.9999999999999641
100
AcDbArc
 50
109.4712206344861
 51
180.0
  0
ARC
  5
642A
330
1A
100
AcDbEntity
  8
SEIHIN
100
AcDbCircle
 10
396.4659252167132
 20
177.7126797746561
 30
0.0
 40
2.0
100
AcDbArc
 50
0.0
 51
90.0
  0
LINE
  5
642B
330
1A
100
AcDbEntity
  8
SEIHIN
100
AcDbLine
 10
398.4659252167132
 20
183.0626797746563
 30
0.0
 11
398.4659252167132
 21
183.7126797746561
 31
0.0
  0
LINE
  5
642C
330
1A
100
AcDbEntity
  8
SEIHIN
100
AcDbLine
 10
400.4659252167132
 20
182.0626797746563
 30
0.0
 11
399.4659252167132
 21
182.0626797746563
 31
0.0
  0
LINE
  5
642D
330
1A
100
AcDbEntity
  8
SEIHIN
100
AcDbLine
 10
399.4659252167132
 20
184.2126797746561
 30
0.0
 11
397.9659252167132
 21
184.2126797746561
 31
0.0
  0
LINE
  5
642E
330
1A
100
AcDbEntity
  8
SEIHIN
100
AcDbLine
 10
399.4659252167132
 20
184.2126797746561
 30
0.0
 11
400.4659252167132
 21
184.2126797746561
 31
0.0
  0
ARC
  5
642F
330
1A
100
AcDbEntity
  8
SEIHIN
100
AcDbCircle
 10
400.4659252167132
 20
185.2126797746561
 30
0.0
 40
1.0
100
AcDbArc
 50
270.0
 51
0.0
  0
ARC
  5
6430
330
1A
100
AcDbEntity
  8
SEIHIN
100
AcDbCircle
 10
399.9659252167132
 20
167.8325907663488
 30
0.0
 40
1.000000000000227
100
AcDbArc
 50
299.1974860460598
 51
0.0
  0
ARC
  5
6431
330
1A
100
AcDbEntity
  8
SEIHIN
100
AcDbCircle
 10
396.4659252167132
 20
169.8861317857329
 30
0.0
 40
2.0
100
AcDbArc
 50
299.1974860460598
 51
0.0
  0
LINE
  5
6432
330
1A
100
AcDbEntity
  8
SEIHIN
100
AcDbLine
 10
400.9659252167132
 20
167.8325907663488
 30
0.0
 11
400.9659252167132
 21
178.7126797746561
 31
0.0
  0
LINE
  5
6433
330
1A
100
AcDbEntity
  8
SEIHIN
100
AcDbLine
 10
398.4659252167132
 20
177.7126797746561
 30
0.0
 11
398.4659252167132
 21
169.8861317857329
 31
0.0
  0
LINE
  5
6434
330
1A
100
AcDbEntity
  8
NOKITOI
100
AcDbLine
 10
400.1171353140291
 20
188.5522430287801
 30
0.0
 11
400.1171353140291
 21
190.4424506095103
 31
0.0
  0
LINE
  5
6435
330
1A
100
AcDbEntity
  8
NOKITOI
100
AcDbLine
 10
398.6171353140291
 20
188.5522430287801
 30
0.0
 11
398.6171353140291
 21
190.3400859885469
 31
0.0
  0
ARC
  5
6436
330
1A
100
AcDbEntity
  8
NOKITOI
100
AcDbCircle
 10
398.1171353140291
 20
190.3400859885469
 30
0.0
 40
0.5
100
AcDbArc
 50
0.0
 51
77.66091272167438
  0
ARC
  5
6437
330
1A
100
AcDbEntity
  8
NOKITOI
100
AcDbCircle
 10
398.1171353140291
 20
190.4424506095104
 30
0.0
 40
2.0
100
AcDbArc
 50
0.0
 51
77.66091272167438
  0
ARC
  5
6438
330
1A
100
AcDbEntity
  8
NOKITOI
100
AcDbCircle
 10
398.1365634274411
 20
190.2441948595059
 30
0.0
 40
1.990469879287869
100
AcDbArc
 50
5.716280370791107
 51
79.4270390383314
  0
LINE
  5
6439
330
1A
100
AcDbEntity
  8
SEIHIN
100
AcDbLine
 10
403.1781755425783
 20
194.8260426042995
 30
0.0
 11
401.4659252167132
 21
195.2126797746561
 31
0.0
  0
ARC
  5
643A
330
1A
100
AcDbEntity
  8
SEIHIN
100
AcDbCircle
 10
399.4659252167132
 20
193.6139380221309
 30
0.0
 40
4.500000000000027
100
AcDbArc
 50
0.0
 51
3.877193913597669
  0
ARC
  5
643B
330
1A
100
AcDbEntity
  8
SEIHIN
100
AcDbCircle
 10
402.9579146711432
 20
193.8506016022317
 30
0.0
 40
1.00000000000003
100
AcDbArc
 50
3.877193913597669
 51
77.27564431457574
  0
ARC
  5
643C
330
1A
100
AcDbEntity
  8
SEIHIN
100
AcDbCircle
 10
398.9659252167132
 20
193.2142525839997
 30
0.0
 40
2.49999999999993
100
AcDbArc
 50
0.0
 51
77.27564431457574
  0
ARC
  5
643D
330
1A
100
AcDbEntity
  8
SEIHIN
100
AcDbCircle
 10
399.4659252167132
 20
193.6139380221309
 30
0.0
 40
4.500000000000087
100
AcDbArc
 50
3.87719391353918
 51
77.27564431457574
  0
LINE
  5
643E
330
1A
100
AcDbEntity
  8
SEIHIN
100
AcDbLine
 10
396.083458834795
 20
195.9304613008919
 30
0.0
 11
395.5695628320588
 21
196.4606043254966
 31
0.0
  0
ARC
  5
643F
330
1A
100
AcDbEntity
  8
SEIHIN
100
AcDbCircle
 10
400.9659252167137
 20
190.1752623705772
 30
0.0
 40
0.4999999999993179
100
AcDbArc
 50
359.9999999999608
 51
44.1084522454258
  0
LINE
  5
6440
330
1A
100
AcDbEntity
  8
SEIHIN
100
AcDbLine
 10
401.3249370313299
 20
190.5232717339069
 30
0.0
 11
400.9784545483537
 21
190.880708395254
 31
0.0
  0
LINE
  5
6441
330
1A
100
AcDbEntity
  8
SEIHIN
100
AcDbLine
 10
400.9784545483537
 20
190.880708395254
 30
0.0
 11
396.083458834795
 21
195.9304613008919
 31
0.0
  0
LINE
  5
6442
330
1A
100
AcDbEntity
  8
SEIHIN
100
AcDbLine
 10
492.6122280362153
 20
166.7108458250234
 30
0.0
 11
495.7795656881805
 21
166.7108458250234
 31
0.0
  0
LINE
  5
6443
330
1A
100
AcDbEntity
  8
SEIHIN
100
AcDbLine
 10
522.4759252166807
 20
193.6139380221309
 30
0.0
 11
522.4759252166807
 21
182.9553204617754
 31
0.0
  0
LINE
  5
6444
330
1A
100
AcDbEntity
  8
SEIHIN
100
AcDbLine
 10
515.6836931588116
 20
166.7108458250234
 30
0.0
 11
509.7421167334598
 21
166.7108458250234
 31
0.0
  0
ARC
  5
6445
330
1A
100
AcDbEntity
  8
NOKITOI
100
AcDbCircle
 10
501.8384260934651
 20
165.552243028781
 30
0.0
 40
1.000000000000013
100
AcDbArc
 50
90.0
 51
160.7099537808137
  0
ARC
  5
6446
330
1A
100
AcDbEntity
  8
NOKITOI
100
AcDbCircle
 10
501.7531382250706
 20
165.3403822330772
 30
0.0
 40
1.015448812288253
100
AcDbArc
 50
85.18203328732573
 51
147.7264463795304
  0
LINE
  5
6447
330
1A
100
AcDbEntity
  8
NOKITOI
100
AcDbLine
 10
504.1289450884444
 20
166.552243028781
 30
0.0
 11
501.8384260934651
 21
166.552243028781
 31
0.0
  0
LINE
  5
6448
330
1A
100
AcDbEntity
  8
NOKITOI
100
AcDbLine
 10
504.1289450884444
 20
166.352243028781
 30
0.0
 11
501.8384260934651
 21
166.352243028781
 31
0.0
  0
LINE
  5
6449
330
1A
100
AcDbEntity
  8
SEIHIN
100
AcDbLine
 10
495.6163450742089
 20
166.7108458250234
 30
0.0
 11
505.6026404217548
 21
166.7108458250234
 31
0.0
  0
LINE
  5
644A
330
1A
100
AcDbEntity
  8
SEIHIN
100
AcDbLine
 10
509.7421167334598
 20
166.7108458250234
 30
0.0
 11
508.1351707352525
 21
166.7108458250234
 31
0.0
  0
LINE
  5
644B
330
1A
100
AcDbEntity
  8
SEIHIN
100
AcDbLine
 10
505.6026404217544
 20
166.7108458250234
 30
0.0
 11
508.1351707352525
 21
166.7108458250234
 31
0.0
  0
LINE
  5
644C
330
1A
100
AcDbEntity
  8
SEIHIN
100
AcDbLine
 10
522.4759252166807
 20
182.9553204617754
 30
0.0
 11
522.4759252166807
 21
179.6554888162384
 31
0.0
  0
LINE
  5
644D
330
1A
100
AcDbEntity
  8
SEIHIN
100
AcDbLine
 10
522.4759252166807
 20
179.6554888162384
 30
0.0
 11
522.4759252166807
 21
178.7126797746561
 31
0.0
  0
LINE
  5
644E
330
1A
100
AcDbEntity
  8
SEIHIN
100
AcDbLine
 10
522.4759252166807
 20
167.8325907663488
 30
0.0
 11
522.4759252166807
 21
166.9596472842115
 31
0.0
  0
LINE
  5
644F
330
1A
100
AcDbEntity
  8
SEIHIN
100
AcDbLine
 10
522.4759252166807
 20
178.7126797746561
 30
0.0
 11
522.4759252166807
 21
167.8325907663488
 31
0.0
  0
LINE
  5
6450
330
1A
100
AcDbEntity
  8
SEIHIN
100
AcDbLine
 10
522.4759252166807
 20
201.7111069653128
 30
0.0
 11
522.4759252166807
 21
193.6139380221309
 31
0.0
  0
DIMENSION
  5
6451
330
1A
100
AcDbEntity
  8
SUNPOU
100
AcDbDimension
  2
*D10
 10
330.1553488932329
 20
270.2834993068834
 30
0.0
 11
325.1553488932328
 21
381.113848140608
 31
0.0
 70
    32
  3
STANDARD
100
AcDbAlignedDimension
 13
380.3152253253513
 23
491.9441969743326
 33
0.0
 14
381.4769835221143
 24
270.2834993068834
 34
0.0
 50
90.0
100
AcDbRotatedDimension
1001
ACAD
1000
DSTYLE
1002
{
1070
    41
1040
7.0
1070
    42
1040
6.0
1070
    43
1040
14.0
1070
    44
1040
3.0
1070
    73
1070
     0
1070
    74
1070
     0
1070
    77
1070
     3
1070
   140
1040
6.0
1070
   141
1040
150.0
1070
   147
1040
2.0
1070
   172
1070
     1
1070
   173
1070
     1
1070
   176
1070
   256
1070
   177
1070
   256
1070
   178
1070
   256
1070
   271
1070
     0
1070
   272
1070
     0
1070
   341
1005
6D
1070
     6
1000
OPEN
1070
     7
1000
OPEN
1070
   371
1070
    -1
1070
   372
1070
    -1
1002
}
  0
DIMENSION
  5
6452
330
1A
100
AcDbEntity
  8
SUNPOU
100
AcDbDimension
  2
*D11
 10
349.509584517594
 20
345.2834993068834
 30
0.0
 11
344.5095845175939
 21
418.613848140608
 31
0.0
 70
    32
  3
STANDARD
100
AcDbAlignedDimension
 13
380.3152253253513
 23
491.9441969743326
 33
0.0
 14
378.3152275492314
 24
345.2834993068834
 34
0.0
 50
90.0
100
AcDbRotatedDimension
1001
ACAD
1000
DSTYLE
1002
{
1070
    41
1040
7.0
1070
    42
1040
6.0
1070
    43
1040
14.0
1070
    44
1040
3.0
1070
    73
1070
     0
1070
    74
1070
     0
1070
    77
1070
     3
1070
   140
1040
6.0
1070
   141
1040
150.0
1070
   147
1040
2.0
1070
   172
1070
     1
1070
   173
1070
     1
1070
   176
1070
   256
1070
   177
1070
   256
1070
   178
1070
   256
1070
   271
1070
     0
1070
   272
1070
     0
1070
   341
1005
6D
1070
     6
1000
OPEN
1070
     7
1000
OPEN
1070
   371
1070
    -1
1070
   372
1070
    -1
1002
}
  0
LINE
  5
6453
330
1A
100
AcDbEntity
  8
CENTER_L
 48
0.5
100
AcDbLine
 10
451.6633617740949
 20
249.8023646921988
 30
0.0
 11
451.6633617740949
 21
432.9461860636784
 31
0.0
  0
LINE
  5
6455
330
1A
100
AcDbEntity
  8
CENTER_L
 48
0.5
100
AcDbLine
 10
363.3847026414132
 20
506.8713625164218
 30
0.0
 11
523.9558482140599
 21
346.3063285669741
 31
0.0
  0
LINE
  5
6456
330
1A
100
AcDbEntity
  8
SEIHIN
100
AcDbLine
 10
380.4084570913658
 20
488.9022841341536
 30
0.0
 11
380.4084570913658
 21
345.2834993068834
 31
0.0
  0
LINE
  5
6457
330
1A
100
AcDbEntity
  8
SEIHIN
100
AcDbLine
 10
378.3152275492314
 20
345.2834993068834
 30
0.0
 11
378.3152275492314
 21
489.9441991982127
 31
0.0
  0
LINE
  5
6458
330
1A
100
AcDbEntity
  8
SEIHIN
100
AcDbLine
 10
385.894187625978
 20
349.2834993068836
 30
0.0
 11
385.894187625978
 21
483.8677829168232
 31
0.0
  0
LINE
  5
645A
330
1A
100
AcDbEntity
  8
SEIHIN
100
AcDbLine
 10
403.9659252167131
 20
325.2834993068834
 30
0.0
 11
388.9659252167123
 21
325.2834993068834
 31
0.0
  0
LINE
  5
645B
330
1A
100
AcDbEntity
  8
SEIHIN
100
AcDbLine
 10
385.9659252167132
 20
349.2834993068836
 30
0.0
 11
405.0510302457034
 21
349.2834993068837
 31
0.0
  0
LINE
  5
645C
330
1A
100
AcDbEntity
  8
SEIHIN
100
AcDbLine
 10
506.9308305098218
 20
270.2834993068836
 30
0.0
 11
381.4769835221143
 21
270.2834993068836
 31
0.0
  0
DIMENSION
  5
645D
330
1A
100
AcDbEntity
  8
SUNPOU
100
AcDbDimension
  2
*D12
 10
349.509584517594
 20
270.2834993068834
 30
0.0
 11
344.5095845175939
 21
307.7834993068834
 31
0.0
 70
    32
  3
STANDARD
100
AcDbAlignedDimension
 13
378.3152275492314
 23
345.2834993068834
 33
0.0
 14
381.4769835221143
 24
270.2834993068834
 34
0.0
 50
90.0
100
AcDbRotatedDimension
1001
ACAD
1000
DSTYLE
1002
{
1070
    41
1040
7.0
1070
    42
1040
6.0
1070
    43
1040
14.0
1070
    44
1040
3.0
1070
    73
1070
     0
1070
    74
1070
     0
1070
    77
1070
     3
1070
   140
1040
6.0
1070
   141
1040
150.0
1070
   147
1040
2.0
1070
   172
1070
     1
1070
   173
1070
     1
1070
   176
1070
   256
1070
   177
1070
   256
1070
   178
1070
   256
1070
   271
1070
     0
1070
   272
1070
     0
1070
   341
1005
6D
1070
     6
1000
OPEN
1070
     7
1000
OPEN
1070
   371
1070
    -1
1070
   372
1070
    -1
1002
}
  0
LINE
  5
645E
330
1A
100
AcDbEntity
  8
SEIHIN
100
AcDbLine
 10
388.4659252167132
 20
349.2834993068836
 30
0.0
 11
388.4659252167132
 21
325.9922114594053
 31
0.0
  0
ARC
  5
645F
330
1A
100
AcDbEntity
  8
SEIHIN
100
AcDbCircle
 10
388.9659252167132
 20
328.2834993068831
 30
0.0
 40
3.0
100
AcDbArc
 50
180.0
 51
246.4218215217925
  0
LINE
  5
6460
330
1A
100
AcDbEntity
  8
SEIHIN
100
AcDbLine
 10
381.4769835221143
 20
345.2834993068834
 30
0.0
 11
381.4769835221143
 21
270.2834993068834
 31
0.0
  0
LINE
  5
6461
330
1A
100
AcDbEntity
  8
SEIHIN
100
AcDbLine
 10
385.9660200710911
 20
328.2596431280234
 30
0.0
 11
385.9660200710911
 21
270.2834993068833
 31
0.0
  0
LINE
  5
6462
330
1A
100
AcDbEntity
  8
SEIHIN
100
AcDbLine
 10
392.9659252167132
 20
325.2834993068832
 30
0.0
 11
392.9659252167132
 21
270.2834993068834
 31
0.0
  0
ARC
  5
6463
330
1A
100
AcDbEntity
  8
SEIHIN
100
AcDbCircle
 10
387.9659252167132
 20
325.9922114594053
 30
0.0
 40
0.5000000000002274
100
AcDbArc
 50
246.4218215217923
 51
0.0
  0
ARC
  5
6464
330
1A
100
AcDbEntity
  8
SEIHIN
100
AcDbCircle
 10
388.9659252167136
 20
328.2834993068847
 30
0.0
 40
3.000000000001632
100
AcDbArc
 50
246.4218215217925
 51
262.7029971636047
  0
ARC
  5
6465
330
1A
100
AcDbEntity
  8
SEIHIN
100
AcDbCircle
 10
388.9659252167123
 20
328.2834993068581
 30
0.0
 40
2.999999999974932
100
AcDbArc
 50
262.7029971635653
 51
270.000000000013
  0
LINE
  5
6466
330
1A
100
AcDbEntity
  8
SEIHIN
100
AcDbLine
 10
379.3152264372913
 20
345.2834993068834
 30
0.0
 11
378.3152275492314
 21
345.2834993068834
 31
0.0
  0
LINE
  5
6467
330
1A
100
AcDbEntity
  8
SEIHIN
100
AcDbLine
 10
385.9659252167132
 20
328.2834993068831
 30
0.0
 11
385.9659252167132
 21
349.2834993068836
 31
0.0
  0
LINE
  5
6468
330
1A
100
AcDbEntity
  8
SEIHIN
100
AcDbLine
 10
379.3152264372913
 20
345.2834993068834
 30
0.0
 11
385.9659252167132
 21
345.2834993068834
 31
0.0
  0
LINE
  5
6469
330
1A
100
AcDbEntity
  8
SEIHIN
100
AcDbLine
 10
400.457099138169
 20
325.2834993068834
 30
0.0
 11
400.457099138169
 21
349.2834993068836
 31
0.0
  0
LINE
  5
646A
330
1A
100
AcDbEntity
  8
SEIHIN
100
AcDbLine
 10
403.9659252167131
 20
349.2834993068837
 30
0.0
 11
403.9659252167131
 21
325.2834993068834
 31
0.0
  0
LINE
  5
646B
330
1A
100
AcDbEntity
  8
SEIHIN
100
AcDbLine
 10
507.55229797398
 20
347.2834993068835
 30
0.0
 11
507.55229797398
 21
280.4015340021735
 31
0.0
  0
LINE
  5
646C
330
1A
100
AcDbEntity
  8
SEIHIN
100
AcDbLine
 10
505.0559252167134
 20
347.0276517844123
 30
0.0
 11
505.0559252167134
 21
280.2834993068834
 31
0.0
  0
LINE
  5
646D
330
1A
100
AcDbEntity
  8
SEIHIN
100
AcDbLine
 10
495.6387999688825
 20
349.0211909106385
 30
0.0
 11
495.6387999688825
 21
270.2834993068836
 31
0.0
  0
LINE
  5
646E
330
1A
100
AcDbEntity
  8
SEIHIN
100
AcDbLine
 10
405.0510302457034
 20
349.2834993068836
 30
0.0
 11
405.0510302457025
 21
270.2834993068836
 31
0.0
  0
LINE
  5
646F
330
1A
100
AcDbEntity
  8
SEIHIN
100
AcDbLine
 10
401.4659252167132
 20
319.2834993068834
 30
0.0
 11
401.4659252167132
 21
270.2834993068831
 31
0.0
  0
LINE
  5
6470
330
1A
100
AcDbEntity
  8
SEIHIN
100
AcDbLine
 10
403.9659252167131
 20
319.2834993068834
 30
0.0
 11
403.9659252167131
 21
270.2834993068834
 31
0.0
  0
LINE
  5
6471
330
1A
100
AcDbEntity
  8
SEIHIN
100
AcDbLine
 10
398.4659252167132
 20
323.2834993068834
 30
0.0
 11
398.4659252167132
 21
270.2834993068834
 31
0.0
  0
ARC
  5
6472
330
1A
100
AcDbEntity
  8
SEIHIN
100
AcDbCircle
 10
404.2339318428609
 20
323.2332376732153
 30
0.0
 40
1.135745133146391
100
AcDbArc
 50
150.3225961308828
 51
177.4635856164869
  0
ARC
  5
6473
330
1A
100
AcDbEntity
  8
SEIHIN
100
AcDbCircle
 10
403.427478678531
 20
320.4899579211517
 30
0.0
 40
0.3282923163926151
100
AcDbArc
 50
180.8460101083731
 51
214.1618769686677
  0
POLYLINE
  5
6474
330
1A
100
AcDbEntity
  8
SEIHIN
100
AcDb2dPolyline
 66
     1
 10
0.0
 20
0.0
 30
0.0
  0
VERTEX
  5
7215
330
6474
100
AcDbEntity
  8
SEIHIN
100
AcDbVertex
100
AcDb2dVertex
 10
403.2471659828691
 20
323.7955633306596
 30
0.0
  0
VERTEX
  5
7216
330
6474
100
AcDbEntity
  8
SEIHIN
100
AcDbVertex
100
AcDb2dVertex
 10
403.4022883851077
 20
324.052698799807
 30
0.0
  0
VERTEX
  5
7217
330
6474
100
AcDbEntity
  8
SEIHIN
100
AcDbVertex
100
AcDb2dVertex
 10
403.5785231527736
 20
324.2733798694069
 30
0.0
  0
VERTEX
  5
7218
330
6474
100
AcDbEntity
  8
SEIHIN
100
AcDbVertex
100
AcDb2dVertex
 10
403.6115243582956
 20
324.3051679468718
 30
0.0
  0
SEQEND
  5
7219
330
6474
100
AcDbEntity
  8
SEIHIN
  0
LINE
  5
6475
330
1A
100
AcDbEntity
  8
SEIHIN
100
AcDbLine
 10
403.0992994020914
 20
320.4813522254819
 30
0.0
 11
403.0992994020914
 21
323.2834993068834
 31
0.0
  0
LINE
  5
6476
330
1A
100
AcDbEntity
  8
SEIHIN
100
AcDbLine
 10
401.4659252167132
 20
320.2834993068834
 30
0.0
 11
402.9579146711432
 21
320.2834993068834
 31
0.0
  0
LINE
  5
6477
330
1A
100
AcDbEntity
  8
SEIHIN
100
AcDbLine
 10
401.4659252167132
 20
319.2834993068834
 30
0.0
 11
401.4659252167132
 21
320.2834993068834
 31
0.0
  0
ARC
  5
6478
330
1A
100
AcDbEntity
  8
SEIHIN
100
AcDbCircle
 10
402.9659252167132
 20
319.2834993068834
 30
0.0
 40
1.0
100
AcDbArc
 50
0.0
 51
90.0
  0
LINE
  5
6479
330
1A
100
AcDbEntity
  8
SEIHIN
100
AcDbLine
 10
402.9579146711432
 20
320.2834993068834
 30
0.0
 11
402.9659252167132
 21
320.2834993068834
 31
0.0
  0
LINE
  5
647A
330
1A
100
AcDbEntity
  8
SEIHIN
100
AcDbLine
 10
402.4659252167132
 20
325.2834993068834
 30
0.0
 11
402.1979760242818
 21
325.2834993068834
 31
0.0
  0
LINE
  5
647B
330
1A
100
AcDbEntity
  8
SEIHIN
100
AcDbLine
 10
403.9659252167131
 20
325.2834993068834
 30
0.0
 11
403.9659252167131
 21
324.7834993068834
 31
0.0
  0
ARC
  5
647C
330
1A
100
AcDbEntity
  8
SEIHIN
100
AcDbCircle
 10
399.4659252167132
 20
323.2834993068834
 30
0.0
 40
1.0
100
AcDbArc
 50
90.0
 51
180.0
  0
ARC
  5
647D
330
1A
100
AcDbEntity
  8
SEIHIN
100
AcDbCircle
 10
403.4659252167132
 20
324.7834993068834
 30
0.0
 40
0.5
100
AcDbArc
 50
270.0
 51
0.0
  0
LINE
  5
647E
330
1A
100
AcDbEntity
  8
SEIHIN
100
AcDbLine
 10
403.4659252167132
 20
324.2834993068834
 30
0.0
 11
399.4659252167132
 21
324.2834993068834
 31
0.0
  0
LINE
  5
647F
330
1A
100
AcDbEntity
  8
SEIHIN
100
AcDbLine
 10
507.2494602638305
 20
274.4643774676672
 30
0.0
 11
507.5108288002504
 21
280.4524614596179
 31
0.0
  0
ARC
  5
6480
330
1A
100
AcDbEntity
  8
SEIHIN
100
AcDbCircle
 10
433.3531279119085
 20
280.8865564272029
 30
0.0
 40
71.70533326904113
100
AcDbArc
 50
355.2776893663047
 51
359.5181246140991
  0
LINE
  5
6481
330
1A
100
AcDbEntity
  8
SEIHIN
100
AcDbLine
 10
506.9308284245956
 20
270.2834743068833
 30
0.0
 11
507.2902838543066
 21
274.5930239457363
 31
0.0
  0
LINE
  5
6482
330
1A
100
AcDbEntity
  8
SEIHIN
100
AcDbLine
 10
504.4230446203248
 20
270.2834993068834
 30
0.0
 11
504.8150506076301
 21
274.9833010663867
 31
0.0
  0
POLYLINE
  5
6483
330
1A
100
AcDbEntity
  8
SEIHIN
100
AcDb2dPolyline
 66
     1
 10
0.0
 20
0.0
 30
0.0
  0
VERTEX
  5
721A
330
6483
100
AcDbEntity
  8
SEIHIN
100
AcDbVertex
100
AcDb2dVertex
 10
506.9541673970499
 20
280.2831672740128
 30
0.0
  0
VERTEX
  5
721B
330
6483
100
AcDbEntity
  8
SEIHIN
100
AcDbVertex
100
AcDb2dVertex
 10
507.0600341440738
 20
280.2807314906583
 30
0.0
  0
VERTEX
  5
721C
330
6483
100
AcDbEntity
  8
SEIHIN
100
AcDbVertex
100
AcDb2dVertex
 10
507.1712827578497
 20
280.2840290450843
 30
0.0
  0
VERTEX
  5
721D
330
6483
100
AcDbEntity
  8
SEIHIN
100
AcDbVertex
100
AcDb2dVertex
 10
507.2794876342798
 20
280.2930599372909
 30
0.0
  0
VERTEX
  5
721E
330
6483
100
AcDbEntity
  8
SEIHIN
100
AcDbVertex
100
AcDb2dVertex
 10
507.3757409281395
 20
280.3078241672783
 30
0.0
  0
VERTEX
  5
721F
330
6483
100
AcDbEntity
  8
SEIHIN
100
AcDbVertex
100
AcDb2dVertex
 10
507.445841316304
 20
280.3252488291462
 30
0.0
  0
VERTEX
  5
7220
330
6483
100
AcDbEntity
  8
SEIHIN
100
AcDbVertex
100
AcDb2dVertex
 10
507.5080021075575
 20
280.3497343578478
 30
0.0
  0
VERTEX
  5
7221
330
6483
100
AcDbEntity
  8
SEIHIN
100
AcDbVertex
100
AcDb2dVertex
 10
507.5503871904618
 20
280.3885940344026
 30
0.0
  0
VERTEX
  5
7222
330
6483
100
AcDbEntity
  8
SEIHIN
100
AcDbVertex
100
AcDb2dVertex
 10
507.5523464760246
 20
280.3986595616665
 30
0.0
  0
VERTEX
  5
7223
330
6483
100
AcDbEntity
  8
SEIHIN
100
AcDbVertex
100
AcDb2dVertex
 10
507.5523614898759
 20
280.4013512475449
 30
0.0
  0
VERTEX
  5
7224
330
6483
100
AcDbEntity
  8
SEIHIN
100
AcDbVertex
100
AcDb2dVertex
 10
507.5523356318897
 20
280.4021118210457
 30
0.0
  0
VERTEX
  5
7225
330
6483
100
AcDbEntity
  8
SEIHIN
100
AcDbVertex
100
AcDb2dVertex
 10
507.552326922728
 20
280.4023457904367
 30
0.0
  0
VERTEX
  5
7226
330
6483
100
AcDbEntity
  8
SEIHIN
100
AcDbVertex
100
AcDb2dVertex
 10
507.5523244246585
 20
280.4024261957922
 30
0.0
  0
VERTEX
  5
7227
330
6483
100
AcDbEntity
  8
SEIHIN
100
AcDbVertex
100
AcDb2dVertex
 10
507.5523236930523
 20
280.402457253635
 30
0.0
  0
VERTEX
  5
7228
330
6483
100
AcDbEntity
  8
SEIHIN
100
AcDbVertex
100
AcDb2dVertex
 10
507.5523233172391
 20
280.4024822149211
 30
0.0
  0
SEQEND
  5
7229
330
6483
100
AcDbEntity
  8
SEIHIN
  0
LINE
  5
6484
330
1A
100
AcDbEntity
  8
SEIHIN
100
AcDbLine
 10
506.9415673173619
 20
280.2834993068834
 30
0.0
 11
506.9541306043045
 21
280.2834993068834
 31
0.0
  0
LINE
  5
6485
330
1A
100
AcDbEntity
  8
SEIHIN
100
AcDbLine
 10
505.0559252167134
 20
280.2834993068834
 30
0.0
 11
506.9415673173619
 21
280.2834993068834
 31
0.0
  0
ARC
  5
6486
330
1A
100
AcDbEntity
  8
SEIHIN
100
AcDbCircle
 10
507.6124041069117
 20
365.405233729345
 30
0.0
 40
9.323722080061118
100
AcDbArc
 50
49.4506584200684
 51
76.78540395294217
  0
ARC
  5
6487
330
1A
100
AcDbEntity
  8
SEIHIN
100
AcDbCircle
 10
489.7308544081044
 20
364.872764225636
 30
0.0
 40
28.74065034194515
100
AcDbArc
 50
14.87944356840668
 51
24.27871197560503
  0
ARC
  5
6488
330
1A
100
AcDbEntity
  8
SEIHIN
100
AcDbCircle
 10
507.0283350958313
 20
366.5188999385044
 30
0.0
 40
11.76265218927639
100
AcDbArc
 50
30.50602641378763
 51
42.6101900080879
  0
ARC
  5
6489
330
1A
100
AcDbEntity
  8
SEIHIN
100
AcDbCircle
 10
500.5719296241097
 20
369.6467149450636
 30
0.0
 40
11.92059290950917
100
AcDbArc
 50
134.8614020084503
 51
180.1067140509831
  0
ARC
  5
648A
330
1A
100
AcDbEntity
  8
SEIHIN
100
AcDbCircle
 10
504.5904484727014
 20
365.6689760508632
 30
0.0
 40
11.9782216241145
100
AcDbArc
 50
89.97448581314278
 51
180.0255141868555
  0
ARC
  5
648B
330
1A
100
AcDbEntity
  8
SEIHIN
100
AcDbCircle
 10
505.5983888985013
 20
364.6610356250632
 30
0.0
 40
9.98204472969051
100
AcDbArc
 50
89.97559674867302
 51
180.0244032513253
  0
ARC
  5
648C
330
1A
100
AcDbEntity
  8
SEIHIN
100
AcDbCircle
 10
502.6152644507289
 20
361.8787420734595
 30
0.0
 40
10.00303668811606
100
AcDbArc
 50
180.0134008272466
 51
226.8930482105844
  0
ARC
  5
648D
330
1A
100
AcDbEntity
  8
SEIHIN
100
AcDbCircle
 10
505.3881098799604
 20
380.5306156631481
 30
0.0
 40
28.74065034194515
100
AcDbArc
 50
245.723468845103
 51
255.1227372523008
  0
ARC
  5
648E
330
1A
100
AcDbEntity
  8
SEIHIN
100
AcDbCircle
 10
491.2604039626724
 20
350.5483859032233
 30
0.0
 40
4.433219551778884
100
AcDbArc
 50
355.1205626240283
 51
58.57734604626473
  0
LINE
  5
648F
330
1A
100
AcDbEntity
  8
SEIHIN
100
AcDbLine
 10
492.6122280362153
 20
365.6636420702946
 30
0.0
 11
492.6122280362153
 21
361.8764024776551
 31
0.0
  0
LINE
  5
6490
330
1A
100
AcDbEntity
  8
SEIHIN
100
AcDbLine
 10
488.6513573905606
 20
369.6245127159495
 30
0.0
 11
488.6513573905606
 21
362.9377145684827
 31
0.0
  0
ARC
  5
6491
330
1A
100
AcDbEntity
  8
SEIHIN
100
AcDbCircle
 10
498.672990007092
 20
362.9575645472016
 30
0.0
 40
10.02165227506828
100
AcDbArc
 50
180.1134863509993
 51
239.4006380190724
  0
ARC
  5
6493
330
1A
100
AcDbEntity
  8
SEIHIN
100
AcDbCircle
 10
500.5569711461191
 20
347.4156944634169
 30
0.0
 40
6.995327392994733
100
AcDbArc
 50
358.9171807111983
 51
49.97386047519061
  0
ARC
  5
6494
330
1A
100
AcDbEntity
  8
SEIHIN
100
AcDbCircle
 10
500.05526799946
 20
347.0279940896734
 30
0.0
 40
5.000657228969124
100
AcDbArc
 50
0.0039219853942784
 51
69.45040077101335
  0
POLYLINE
  5
6495
330
1A
100
AcDbEntity
  8
SEIHIN
100
AcDb2dPolyline
 66
     1
 10
0.0
 20
0.0
 30
0.0
  0
VERTEX
  5
722A
330
6495
100
AcDbEntity
  8
SEIHIN
100
AcDbVertex
100
AcDb2dVertex
 10
495.6775570254905
 20
350.1712991573504
 30
0.0
  0
VERTEX
  5
722B
330
6495
100
AcDbEntity
  8
SEIHIN
100
AcDbVertex
100
AcDb2dVertex
 10
495.6617410498932
 20
349.9181823907126
 30
0.0
  0
VERTEX
  5
722C
330
6495
100
AcDbEntity
  8
SEIHIN
100
AcDbVertex
100
AcDb2dVertex
 10
495.6387999688825
 20
349.0211909106385
 30
0.0
  0
SEQEND
  5
722D
330
6495
100
AcDbEntity
  8
SEIHIN
  0
LINE
  5
6496
330
1A
100
AcDbEntity
  8
SEIHIN
100
AcDbLine
 10
507.55229797398
 20
345.2834993068834
 30
0.0
 11
505.0559252167134
 21
345.2834993068833
 31
0.0
  0
LINE
  5
6497
330
1A
100
AcDbEntity
  8
SEIHIN
100
AcDbLine
 10
507.55229797398
 20
347.2834993068834
 30
0.0
 11
505.0493935290817
 21
347.2834993068834
 31
0.0
  0
LINE
  5
6498
330
1A
100
AcDbEntity
  8
SEIHIN
100
AcDbLine
 10
506.9415673174001
 20
347.2834993068834
 30
0.0
 11
506.9415673174001
 21
347.4128825977775
 31
0.0
  0
LINE
  5
6499
330
1A
100
AcDbEntity
  8
SEIHIN
100
AcDbLine
 10
495.6163450742089
 20
364.65678410181
 30
0.0
 11
495.6163450742089
 21
362.1242537883119
 31
0.0
  0
ARC
  5
649A
330
1A
100
AcDbEntity
  8
SEIHIN
100
AcDbCircle
 10
503.6090827084238
 20
362.1243292973695
 30
0.0
 40
7.992737634571447
100
AcDbArc
 50
180.0005412851669
 51
191.5989640692255
  0
LINE
  5
649B
330
1A
100
AcDbEntity
  8
SEIHIN
100
AcDbLine
 10
495.7795656881805
 20
354.5757313647525
 30
0.0
 11
495.7795656881805
 21
360.5173077901042
 31
0.0
  0
ARC
  5
649C
330
1A
100
AcDbEntity
  8
SEIHIN
100
AcDbCircle
 10
502.2753190425994
 20
360.8550472010144
 30
0.0
 40
6.430448996496654
100
AcDbArc
 50
237.5186316954315
 51
255.8170864697234
  0
ARC
  5
649D
330
1A
100
AcDbEntity
  8
SEIHIN
100
AcDbCircle
 10
501.9539077256957
 20
359.3282577070478
 30
0.0
 40
5.000103083490223
100
AcDbArc
 50
213.240894035871
 51
231.2173629288931
  0
ARC
  5
649E
330
1A
100
AcDbEntity
  8
SEIHIN
100
AcDbCircle
 10
504.8563209931537
 20
362.6490457101724
 30
0.0
 40
9.323722080061118
100
AcDbArc
 50
193.2167768677649
 51
220.5515224006412
  0
LINE
  5
649F
330
1A
100
AcDbEntity
  8
SEIHIN
100
AcDbLine
 10
497.7719550843642
 20
356.5873996386342
 30
0.0
 11
497.7719550843642
 21
353.0984289201555
 31
0.0
  0
ARC
  5
64A0
330
1A
100
AcDbEntity
  8
SEIHIN
100
AcDbCircle
 10
503.7426325536732
 20
363.2330723319075
 30
0.0
 40
11.76265218927639
100
AcDbArc
 50
227.3919908126222
 51
239.4961544069209
  0
POLYLINE
  5
64A1
330
1A
100
AcDbEntity
  8
SEIHIN
100
AcDb2dPolyline
 66
     1
 10
0.0
 20
0.0
 30
0.0
  0
VERTEX
  5
722E
330
64A1
100
AcDbEntity
  8
SEIHIN
100
AcDbVertex
100
AcDb2dVertex
 10
499.2452663547307
 20
352.422143186497
 30
0.0
  0
VERTEX
  5
722F
330
64A1
100
AcDbEntity
  8
SEIHIN
100
AcDbVertex
100
AcDb2dVertex
 10
498.8801399293404
 20
352.5295268647447
 30
0.0
  0
VERTEX
  5
7230
330
64A1
100
AcDbEntity
  8
SEIHIN
100
AcDbVertex
100
AcDb2dVertex
 10
498.8220050985176
 20
352.5490888228225
 30
0.0
  0
SEQEND
  5
7231
330
64A1
100
AcDbEntity
  8
SEIHIN
  0
LINE
  5
64A2
330
1A
100
AcDbEntity
  8
SEIHIN
100
AcDbLine
 10
499.2452663547307
 20
352.4221431864968
 30
0.0
 11
498.00896870381
 21
352.7534081436658
 31
0.0
  0
ARC
  5
64A3
330
1A
100
AcDbEntity
  8
SEIHIN
100
AcDbCircle
 10
500.3152430965712
 20
356.6816187062106
 30
0.0
 40
4.394037204658879
100
AcDbArc
 50
234.6335065182409
 51
250.1333118899761
  0
LINE
  5
64A4
330
1A
100
AcDbEntity
  8
SEIHIN
100
AcDbLine
 10
498.8220050985176
 20
352.5490888228225
 30
0.0
 11
498.8220050985176
 21
355.4305382739173
 31
0.0
  0
LINE
  5
64A5
330
1A
100
AcDbEntity
  8
SEIHIN
100
AcDbLine
 10
500.6997415433472
 20
354.6206081853213
 30
0.0
 11
501.8105891927928
 21
354.3229574547383
 31
0.0
  0
LINE
  5
64A6
330
1A
100
AcDbEntity
  8
SEIHIN
100
AcDbLine
 10
501.8105891927928
 20
354.3229574547383
 30
0.0
 11
501.8105891927928
 21
351.7104528700447
 31
0.0
  0
LINE
  5
64A7
330
1A
100
AcDbEntity
  8
SEIHIN
100
AcDbLine
 10
501.8105891927928
 20
351.7104528700447
 30
0.0
 11
501.3497733656643
 21
351.8582422324518
 31
0.0
  0
LINE
  5
64A8
330
1A
100
AcDbEntity
  8
SEIHIN
100
AcDbLine
 10
501.3497733656643
 20
351.8582422324518
 30
0.0
 11
499.2452663547312
 21
352.4221431864968
 31
0.0
  0
POLYLINE
  5
64A9
330
1A
100
AcDbEntity
  8
SEIHIN
100
AcDb2dPolyline
 66
     1
 10
0.0
 20
0.0
 30
0.0
  0
VERTEX
  5
7232
330
64A9
100
AcDbEntity
  8
SEIHIN
100
AcDbVertex
100
AcDb2dVertex
 10
505.0559252167134
 20
352.7723741818492
 30
0.0
  0
VERTEX
  5
7233
330
64A9
100
AcDbEntity
  8
SEIHIN
100
AcDbVertex
100
AcDb2dVertex
 10
504.500887053556
 20
353.1934001915887
 30
0.0
  0
VERTEX
  5
7234
330
64A9
100
AcDbEntity
  8
SEIHIN
100
AcDbVertex
100
AcDb2dVertex
 10
502.364023249109
 20
354.1746652462844
 30
0.0
  0
SEQEND
  5
7235
330
64A9
100
AcDbEntity
  8
SEIHIN
  0
LINE
  5
64AA
330
1A
100
AcDbEntity
  8
SEIHIN
100
AcDbLine
 10
502.364023249109
 20
354.1746652462845
 30
0.0
 11
501.8105891927928
 21
354.3229574547383
 31
0.0
  0
ARC
  5
64AB
330
1A
100
AcDbEntity
  8
SEIHIN
100
AcDbCircle
 10
510.9330816345207
 20
368.3077733921998
 30
0.0
 40
5.000103083490223
100
AcDbArc
 50
38.78481789181483
 51
56.76128678483394
  0
POLYLINE
  5
64AC
330
1A
100
AcDbEntity
  8
SEIHIN
100
AcDb2dPolyline
 66
     1
 10
0.0
 20
0.0
 30
0.0
  0
VERTEX
  5
7236
330
64AC
100
AcDbEntity
  8
SEIHIN
100
AcDbVertex
100
AcDb2dVertex
 10
517.4890832255164
 20
365.2060054367572
 30
0.0
  0
VERTEX
  5
7237
330
64AC
100
AcDbEntity
  8
SEIHIN
100
AcDbVertex
100
AcDb2dVertex
 10
517.0680360899409
 20
365.7610275742094
 30
0.0
  0
VERTEX
  5
7238
330
64AC
100
AcDbEntity
  8
SEIHIN
100
AcDbVertex
100
AcDb2dVertex
 10
516.0866897015737
 20
367.8978540277055
 30
0.0
  0
SEQEND
  5
7239
330
64AC
100
AcDbEntity
  8
SEIHIN
  0
ARC
  5
64AD
330
1A
100
AcDbEntity
  8
SEIHIN
100
AcDbCircle
 10
523.2332729760071
 20
370.2068812958655
 30
0.0
 40
5.000657228969124
100
AcDbArc
 50
200.5517800496951
 51
269.9982588353112
  0
POLYLINE
  5
64AE
330
1A
100
AcDbEntity
  8
SEIHIN
100
AcDb2dPolyline
 66
     1
 10
0.0
 20
0.0
 30
0.0
  0
VERTEX
  5
723A
330
64AE
100
AcDbEntity
  8
SEIHIN
100
AcDbVertex
100
AcDb2dVertex
 10
517.8390930524019
 20
371.0166776251986
 30
0.0
  0
VERTEX
  5
723B
330
64AE
100
AcDbEntity
  8
SEIHIN
100
AcDbVertex
100
AcDb2dVertex
 10
517.7316954766068
 20
371.381799963033
 30
0.0
  0
VERTEX
  5
723C
330
64AE
100
AcDbEntity
  8
SEIHIN
100
AcDbVertex
100
AcDb2dVertex
 10
517.712131305786
 20
371.4399340492367
 30
0.0
  0
SEQEND
  5
723D
330
64AE
100
AcDbEntity
  8
SEIHIN
  0
LINE
  5
64AF
330
1A
100
AcDbEntity
  8
SEIHIN
100
AcDbLine
 10
517.8390930524021
 20
371.0166776251986
 30
0.0
 11
517.5077810388915
 21
372.2529626664508
 31
0.0
  0
ARC
  5
64B0
330
1A
100
AcDbEntity
  8
SEIHIN
100
AcDbCircle
 10
513.5796582617651
 20
369.9465387578387
 30
0.0
 40
4.394037204658879
100
AcDbArc
 50
19.86886893073125
 51
35.36867430246555
  0
LINE
  5
64B1
330
1A
100
AcDbEntity
  8
SEIHIN
100
AcDbLine
 10
515.6406834161345
 20
369.5621187585578
 30
0.0
 11
515.9383764281426
 21
368.4512824392485
 31
0.0
  0
LINE
  5
64B2
330
1A
100
AcDbEntity
  8
SEIHIN
100
AcDbLine
 10
515.9383764281426
 20
368.4512824392485
 30
0.0
 11
518.5508810109435
 21
368.4513818777087
 31
0.0
  0
LINE
  5
64B3
330
1A
100
AcDbEntity
  8
SEIHIN
100
AcDbLine
 10
518.5508810109435
 20
368.4513818777087
 30
0.0
 11
518.4030741088404
 21
368.9121920792706
 31
0.0
  0
LINE
  5
64B4
330
1A
100
AcDbEntity
  8
SEIHIN
100
AcDbLine
 10
518.4030741088404
 20
368.9121920792706
 30
0.0
 11
517.8390930524021
 21
371.0166776251982
 31
0.0
  0
LINE
  5
64B5
330
1A
100
AcDbEntity
  8
SEIHIN
100
AcDbLine
 10
516.0866897015737
 20
367.8978540277055
 30
0.0
 11
515.9383764281426
 21
368.4512824392485
 31
0.0
  0
LINE
  5
64B6
330
1A
100
AcDbEntity
  8
SEIHIN
100
AcDbLine
 10
522.9780298687619
 20
363.3205722577459
 30
0.0
 11
522.8486465779617
 21
363.3205673330942
 31
0.0
  0
ARC
  5
64B8
330
1A
100
AcDbEntity
  8
SEIHIN
100
AcDbCircle
 10
522.8455916986215
 20
369.7051633927236
 30
0.0
 40
6.995327392994733
100
AcDbArc
 50
220.0283203455161
 51
271.0850001095117
  0
LINE
  5
64B9
330
1A
100
AcDbEntity
  8
SEIHIN
100
AcDbLine
 10
522.9780531146986
 20
362.7098416016082
 30
0.0
 11
522.977957847894
 21
365.2127460446936
 31
0.0
  0
LINE
  5
64BA
330
1A
100
AcDbEntity
  8
SEIHIN
100
AcDbLine
 10
524.9780531132499
 20
362.7099177266117
 30
0.0
 11
524.9779580950575
 21
365.2062904820702
 31
0.0
  0
ARC
  5
64BB
330
1A
100
AcDbEntity
  8
SEIHIN
100
AcDbCircle
 10
509.4063043753788
 20
367.9863039621011
 30
0.0
 40
6.430448996496654
100
AcDbArc
 50
14.18509435098544
 51
32.4835491252746
  0
LINE
  5
64BC
330
1A
100
AcDbEntity
  8
SEIHIN
100
AcDbLine
 10
513.673780525369
 20
372.4898303544169
 30
0.0
 11
517.1627512413204
 21
372.489963153371
 31
0.0
  0
LINE
  5
64BD
330
1A
100
AcDbEntity
  8
SEIHIN
100
AcDbLine
 10
517.712131305786
 20
371.4399340492367
 30
0.0
 11
514.8306818567784
 21
371.439824374062
 31
0.0
  0
ARC
  5
64BE
330
1A
100
AcDbEntity
  8
SEIHIN
100
AcDbCircle
 10
500.6123958430309
 20
369.688251728203
 30
0.0
 40
11.91983667057521
100
AcDbArc
 50
89.89177112529899
 51
135.1401128152752
  0
ARC
  5
64BF
330
1A
100
AcDbEntity
  8
SEIHIN
100
AcDbCircle
 10
507.3036499170596
 20
371.5885529679288
 30
0.0
 40
10.02165227506828
100
AcDbArc
 50
30.60154280163436
 51
89.88869446970973
  0
LINE
  5
64C0
330
1A
100
AcDbEntity
  8
SEIHIN
100
AcDbLine
 10
515.6853729624688
 20
374.4822963182845
 30
0.0
 11
509.7437965414208
 21
374.4820701670214
 31
0.0
  0
ARC
  5
64C1
330
1A
100
AcDbEntity
  8
SEIHIN
100
AcDbCircle
 10
508.382622442848
 20
367.6463195898298
 30
0.0
 40
10.00303668811606
100
AcDbArc
 50
43.10913261012358
 51
89.98877999346431
  0
LINE
  5
64C2
330
1A
100
AcDbEntity
  8
SEIHIN
100
AcDbLine
 10
504.5973417081636
 20
377.6492119343348
 30
0.0
 11
508.3845812980596
 21
377.6493560861485
 31
0.0
  0
LINE
  5
64C3
330
1A
100
AcDbEntity
  8
SEIHIN
100
AcDbLine
 10
505.6043140201288
 20
374.6451332220505
 30
0.0
 11
508.1368443317924
 21
374.64522961649
 31
0.0
  0
ARC
  5
64C4
330
1A
100
AcDbEntity
  8
SEIHIN
100
AcDbCircle
 10
508.1370730463249
 20
366.6524919851908
 30
0.0
 40
7.992737634571447
100
AcDbArc
 50
78.4032167514811
 51
90.00163953554414
  0
LINE
  5
64C5
330
1A
100
AcDbEntity
  8
SEIHIN
100
AcDbLine
 10
500.6349118076152
 20
381.6080671330039
 30
0.0
 11
507.3217099550817
 21
381.6080671330039
 31
0.0
  0
LINE
  5
64C6
330
1A
100
AcDbEntity
  8
SEIHIN
100
AcDbLine
 10
504.5957824532699
 20
377.6471964873487
 30
0.0
 11
508.3830220459092
 21
377.6471964873487
 31
0.0
  0
LINE
  5
64C7
330
1A
100
AcDbEntity
  8
SEIHIN
100
AcDbLine
 10
505.6026404217544
 20
374.6430794493551
 30
0.0
 11
508.1351707352525
 21
374.6430794493551
 31
0.0
  0
ARC
  5
64C8
330
1A
100
AcDbEntity
  8
SEIHIN
100
AcDbCircle
 10
519.7125464104795
 20
379.0016113313628
 30
0.0
 40
4.433219551778884
100
AcDbArc
 50
211.424834774443
 51
274.8816181966789
  0
POLYLINE
  5
64C9
330
1A
100
AcDbEntity
  8
SEIHIN
100
AcDb2dPolyline
 66
     1
 10
0.0
 20
0.0
 30
0.0
  0
VERTEX
  5
723E
330
64C9
100
AcDbEntity
  8
SEIHIN
100
AcDbVertex
100
AcDb2dVertex
 10
520.0898012839754
 20
374.5844726246092
 30
0.0
  0
VERTEX
  5
723F
330
64C9
100
AcDbEntity
  8
SEIHIN
100
AcDbVertex
100
AcDb2dVertex
 10
520.3429174484342
 20
374.6002982344525
 30
0.0
  0
VERTEX
  5
7240
330
64C9
100
AcDbEntity
  8
SEIHIN
100
AcDbVertex
100
AcDb2dVertex
 10
521.2399080546636
 20
374.6232734571864
 30
0.0
  0
SEQEND
  5
7241
330
64C9
100
AcDbEntity
  8
SEIHIN
  0
LINE
  5
64CA
330
1A
100
AcDbEntity
  8
SEIHIN
100
AcDbLine
 10
381.3544289773485
 20
489.848292026878
 30
0.0
 11
524.9732137005846
 21
489.853758517126
 31
0.0
  0
LINE
  5
64CB
330
1A
100
AcDbEntity
  8
SEIHIN
100
AcDbLine
 10
524.9731340270316
 20
491.9469880577442
 30
0.0
 11
380.312434240491
 21
491.9414819096023
 31
0.0
  0
LINE
  5
64CC
330
1A
100
AcDbEntity
  8
SEIHIN
100
AcDbLine
 10
520.9734225041099
 20
484.3678757364806
 30
0.0
 11
386.38913899166
 21
484.362753121951
 31
0.0
  0
ARC
  5
64CD
330
1A
100
AcDbEntity
  8
SEIHIN
100
AcDbCircle
 10
386.3976058297537
 20
483.8618186938104
 30
0.0
 40
0.5034535329588901
100
AcDbArc
 50
90.67877724139423
 51
179.3212227585716
  0
ARC
  5
64CE
330
1A
100
AcDbEntity
  8
SEIHIN
100
AcDbCircle
 10
380.3152275459635
 20
489.9441969776002
 30
0.0
 40
1.999999996733532
100
AcDbArc
 50
90.00006361585519
 51
179.999936384135
  0
POLYLINE
  5
64CF
330
1A
100
AcDbEntity
  8
SEIHIN
100
AcDb2dPolyline
 66
     1
 10
0.0
 20
0.0
 30
0.0
  0
VERTEX
  5
7242
330
64CF
100
AcDbEntity
  8
SEIHIN
100
AcDbVertex
100
AcDb2dVertex
 10
380.4084570913658
 20
488.9022841341535
 30
0.0
  0
VERTEX
  5
7243
330
64CF
100
AcDbEntity
  8
SEIHIN
100
AcDbVertex
100
AcDb2dVertex
 10
380.5154697841556
 20
489.4253308948379
 30
0.0
  0
VERTEX
  5
7244
330
64CF
100
AcDbEntity
  8
SEIHIN
100
AcDbVertex
100
AcDb2dVertex
 10
380.8340936287261
 20
489.7439547394085
 30
0.0
  0
VERTEX
  5
7245
330
64CF
100
AcDbEntity
  8
SEIHIN
100
AcDbVertex
100
AcDb2dVertex
 10
381.3571403894104
 20
489.8509674321988
 30
0.0
  0
SEQEND
  5
7246
330
64CF
100
AcDbEntity
  8
SEIHIN
  0
LINE
  5
64D4
330
1A
100
AcDbEntity
  8
SEIHIN
100
AcDbLine
 10
520.9734252346222
 20
484.2961381457972
 30
0.0
 11
520.9741516614656
 21
465.2110331306318
 31
0.0
  0
LINE
  5
64D5
330
1A
100
AcDbEntity
  8
SEIHIN
100
AcDbLine
 10
524.9731720894908
 20
490.9469891704086
 30
0.0
 11
524.973425231725
 21
484.2962903958043
 31
0.0
  0
LINE
  5
64D6
330
1A
100
AcDbEntity
  8
SEIHIN
100
AcDbLine
 10
524.9731720894908
 20
490.9469891704086
 30
0.0
 11
524.9731340270316
 21
491.9469880577442
 31
0.0
  0
LINE
  5
64F3
330
1A
100
AcDbEntity
  8
SEIHIN
100
AcDbLine
 10
599.9759252166807
 20
113.1973663257729
 30
0.0
 11
599.9759252166807
 21
195.212679774656
 31
0.0
  0
LINE
  5
64F4
330
1A
100
AcDbEntity
  8
SEIHIN
100
AcDbLine
 10
595.9087456605509
 20
147.4531508269244
 30
0.0
 11
589.9303795186567
 21
150.583532385031
 31
0.0
  0
LINE
  5
64F5
330
1A
100
AcDbEntity
  8
SEIHIN
100
AcDbLine
 10
599.9759252166805
 20
83.31267977465632
 30
0.0
 11
599.9759252166807
 21
144.6783152378286
 31
0.0
  0
LINE
  5
64FE
330
1A
100
AcDbEntity
  8
SEIHIN
100
AcDbLine
 10
595.6764005781799
 20
146.9644036419333
 30
0.0
 11
599.9759252166807
 21
144.6783152378286
 31
0.0
  0
LINE
  5
64FF
330
1A
100
AcDbEntity
  8
SEIHIN
100
AcDbLine
 10
599.9759252166807
 20
145.3107887642988
 30
0.0
 11
595.90000737593
 21
147.4779838138131
 31
0.0
  0
LINE
  5
6501
330
1A
100
AcDbEntity
  8
SEIHIN
100
AcDbLine
 10
550.9759252166807
 20
195.2126797746561
 30
0.0
 11
599.9759252166807
 21
195.2126797746561
 31
0.0
  0
LINE
  5
6502
330
1A
100
AcDbEntity
  8
SEIHIN
100
AcDbLine
 10
549.9759252166807
 20
193.850601602232
 30
0.0
 11
549.9759252166807
 21
183.0626797746563
 31
0.0
  0
LINE
  5
6503
330
1A
100
AcDbEntity
  8
SEIHIN
100
AcDbLine
 10
544.9759252166806
 20
201.4111069653129
 30
0.0
 11
544.9759252166812
 21
184.2126797746561
 31
0.0
  0
ARC
  5
6504
330
1A
100
AcDbEntity
  8
SEIHIN
100
AcDbCircle
 10
545.4759252166807
 20
183.7126797746561
 30
0.0
 40
0.5
100
AcDbArc
 50
0.0
 51
90.0
  0
LINE
  5
6505
330
1A
100
AcDbEntity
  8
SEIHIN
100
AcDbLine
 10
545.9759252166807
 20
183.0626797746563
 30
0.0
 11
545.9759252166807
 21
183.7126797746561
 31
0.0
  0
ARC
  5
6506
330
1A
100
AcDbEntity
  8
SEIHIN
100
AcDbCircle
 10
546.9759252166807
 20
183.0626797746563
 30
0.0
 40
1.000000000000227
100
AcDbArc
 50
180.0
 51
270.0
  0
LINE
  5
6507
330
1A
100
AcDbEntity
  8
SEIHIN
100
AcDbLine
 10
548.9759252166806
 20
182.0626797746563
 30
0.0
 11
546.9759252166807
 21
182.0626797746563
 31
0.0
  0
LINE
  5
6508
330
1A
100
AcDbEntity
  8
SEIHIN
100
AcDbLine
 10
546.9759252166807
 20
183.7126797746561
 30
0.0
 11
545.9759252166807
 21
183.7126797746561
 31
0.0
  0
ARC
  5
6509
330
1A
100
AcDbEntity
  8
SEIHIN
100
AcDbCircle
 10
548.9759252166806
 20
183.0626797746563
 30
0.0
 40
1.000000000000056
100
AcDbArc
 50
270.0
 51
0.0
  0
LINE
  5
650A
330
1A
100
AcDbEntity
  8
SEIHIN
100
AcDbLine
 10
549.9759252166807
 20
184.2126797746561
 30
0.0
 11
544.9759252166812
 21
184.2126797746561
 31
0.0
  0
LINE
  5
650B
330
1A
100
AcDbEntity
  8
SEIHIN
100
AcDbLine
 10
544.9759252166806
 20
186.2126797746561
 30
0.0
 11
549.9759252166807
 21
186.2126797746561
 31
0.0
  0
LINE
  5
650C
330
1A
100
AcDbEntity
  8
SEIHIN
100
AcDbLine
 10
546.9759252166807
 20
183.7126797746561
 30
0.0
 11
549.9759252166807
 21
183.7126797746561
 31
0.0
  0
LINE
  5
650D
330
1A
100
AcDbEntity
  8
SEIHIN
100
AcDbLine
 10
544.9759252166806
 20
185.7126797746561
 30
0.0
 11
549.9759252166807
 21
185.7126797746561
 31
0.0
  0
ARC
  5
650E
330
1A
100
AcDbEntity
  8
SEIHIN
100
AcDbCircle
 10
544.6759252166805
 20
201.4111069653129
 30
0.0
 40
0.3
100
AcDbArc
 50
0.0
 51
90.0
  0
LINE
  5
650F
330
1A
100
AcDbEntity
  8
SEIHIN
100
AcDbLine
 10
549.9759252166807
 20
194.1875024467806
 30
0.0
 11
549.9759252166807
 21
193.850601602232
 31
0.0
  0
ARC
  5
6510
330
1A
100
AcDbEntity
  8
SEIHIN
100
AcDbCircle
 10
550.9886723550782
 20
194.1999365282322
 30
0.0
 40
1.012823465720836
100
AcDbArc
 50
90.72112913918422
 51
180.703418029075
  0
LINE
  5
6529
330
1A
100
AcDbEntity
  8
SEIHIN
100
AcDbLine
 10
599.9780294043151
 20
363.3342398779506
 30
0.0
 11
599.9741516042397
 21
465.2140400682704
 31
0.0
  0
LINE
  5
652A
330
1A
100
AcDbEntity
  8
SEIHIN
100
AcDbLine
 10
599.9759252166807
 20
363.3363710706429
 30
0.0
 11
599.9759252166807
 21
488.7824410014498
 31
0.0
  0
ARC
  5
652B
330
1A
100
AcDbEntity
  8
SEIHIN
100
AcDbCircle
 10
589.3721717402429
 20
436.9115388436857
 30
0.0
 40
71.70533326904113
100
AcDbArc
 50
270.4840562066094
 51
274.7244914544048
  0
LINE
  5
652C
330
1A
100
AcDbEntity
  8
SEIHIN
100
AcDbLine
 10
595.7971633744057
 20
363.0154509894905
 30
0.0
 11
589.8090893351327
 21
362.7538545318025
 31
0.0
  0
POLYLINE
  5
652D
330
1A
100
AcDbEntity
  8
SEIHIN
100
AcDb2dPolyline
 66
     1
 10
0.0
 20
0.0
 30
0.0
  0
VERTEX
  5
7247
330
652D
100
AcDbEntity
  8
SEIHIN
100
AcDbVertex
100
AcDb2dVertex
 10
589.9783623326896
 20
363.31052237836
 30
0.0
  0
VERTEX
  5
7248
330
652D
100
AcDbEntity
  8
SEIHIN
100
AcDbVertex
100
AcDb2dVertex
 10
589.9808021455958
 20
363.2046557241249
 30
0.0
  0
VERTEX
  5
7249
330
652D
100
AcDbEntity
  8
SEIHIN
100
AcDbVertex
100
AcDb2dVertex
 10
589.9775088255726
 20
363.0934069849164
 30
0.0
  0
VERTEX
  5
724A
330
652D
100
AcDbEntity
  8
SEIHIN
100
AcDbVertex
100
AcDb2dVertex
 10
589.9684820519207
 20
362.9852017648263
 30
0.0
  0
VERTEX
  5
724B
330
652D
100
AcDbEntity
  8
SEIHIN
100
AcDbVertex
100
AcDb2dVertex
 10
589.9537214855852
 20
362.8889479090727
 30
0.0
  0
VERTEX
  5
724C
330
652D
100
AcDbEntity
  8
SEIHIN
100
AcDbVertex
100
AcDb2dVertex
 10
589.9362994919263
 20
362.8188468577328
 30
0.0
  0
VERTEX
  5
724D
330
652D
100
AcDbEntity
  8
SEIHIN
100
AcDbVertex
100
AcDb2dVertex
 10
589.9118163292375
 20
362.7566851345438
 30
0.0
  0
VERTEX
  5
724E
330
652D
100
AcDbEntity
  8
SEIHIN
100
AcDbVertex
100
AcDb2dVertex
 10
589.8729582659932
 20
362.7142985725737
 30
0.0
  0
VERTEX
  5
724F
330
652D
100
AcDbEntity
  8
SEIHIN
100
AcDbVertex
100
AcDb2dVertex
 10
589.8628928133119
 20
362.7123389038932
 30
0.0
  0
VERTEX
  5
7250
330
652D
100
AcDbEntity
  8
SEIHIN
100
AcDbVertex
100
AcDb2dVertex
 10
589.8602011280067
 20
362.7123237875897
 30
0.0
  0
VERTEX
  5
7251
330
652D
100
AcDbEntity
  8
SEIHIN
100
AcDbVertex
100
AcDb2dVertex
 10
589.8594405535225
 20
362.7123496166266
 30
0.0
  0
VERTEX
  5
7252
330
652D
100
AcDbEntity
  8
SEIHIN
100
AcDbVertex
100
AcDb2dVertex
 10
589.8592065837999
 20
362.7123583168828
 30
0.0
  0
VERTEX
  5
7253
330
652D
100
AcDbEntity
  8
SEIHIN
100
AcDbVertex
100
AcDb2dVertex
 10
589.8591261783496
 20
362.7123608118919
 30
0.0
  0
VERTEX
  5
7254
330
652D
100
AcDbEntity
  8
SEIHIN
100
AcDbVertex
100
AcDb2dVertex
 10
589.859095120479
 20
362.712361542316
 30
0.0
  0
VERTEX
  5
7255
330
652D
100
AcDbEntity
  8
SEIHIN
100
AcDbVertex
100
AcDb2dVertex
 10
589.8590701591786
 20
362.7123619171791
 30
0.0
  0
SEQEND
  5
7256
330
652D
100
AcDbEntity
  8
SEIHIN
  0
LINE
  5
652E
330
1A
100
AcDbEntity
  8
SEIHIN
100
AcDbLine
 10
589.9780298202288
 20
363.323122445401
 30
0.0
 11
589.9780302984188
 21
363.3105591584675
 31
0.0
  0
LINE
  5
652F
330
1A
100
AcDbEntity
  8
SEIHIN
100
AcDbLine
 10
589.9779580479728
 20
365.2087645446836
 30
0.0
 11
589.9780298202288
 21
363.323122445401
 31
0.0
  0
LINE
  5
6530
330
1A
100
AcDbEntity
  8
SEIHIN
100
AcDbLine
 10
599.9780544042358
 20
363.3342419641285
 30
0.0
 11
595.6685184502773
 21
362.9746225024372
 31
0.0
  0
LINE
  5
6531
330
1A
100
AcDbEntity
  8
SEIHIN
100
AcDbLine
 10
599.9779339517104
 20
365.842025765631
 30
0.0
 11
595.27814711634
 21
365.449840892397
 31
0.0
  0
LINE
  5
6532
330
1A
100
AcDbEntity
  8
SEIHIN
100
AcDbLine
 10
550.9740151816679
 20
468.7972800320775
 30
0.0
 11
599.9740151461737
 21
468.7991450946628
 31
0.0
  0
LINE
  5
6533
330
1A
100
AcDbEntity
  8
SEIHIN
100
AcDbLine
 10
550.9741103379224
 20
466.2972800338884
 30
0.0
 11
599.9741103024278
 21
466.2991450964738
 31
0.0
  0
LINE
  5
6534
330
1A
100
AcDbEntity
  8
SEIHIN
100
AcDbLine
 10
544.9736916547497
 20
477.2970516509099
 30
0.0
 11
599.9736916149088
 21
477.2991450885057
 31
0.0
  0
LINE
  5
6535
330
1A
100
AcDbEntity
  8
SEIHIN
100
AcDbLine
 10
546.9739009970603
 20
471.7971277798974
 30
0.0
 11
599.9739009586683
 21
471.7991450924897
 31
0.0
  0
LINE
  5
6536
330
1A
100
AcDbEntity
  8
SEIHIN
100
AcDbLine
 10
541.9972814018636
 20
484.2968435119821
 30
0.0
 11
599.973425181007
 21
484.2990502290571
 31
0.0
  0
ARC
  5
6537
330
1A
100
AcDbEntity
  8
SEIHIN
100
AcDbCircle
 10
541.9735394069159
 20
481.2969374605071
 30
0.0
 40
3.0
100
AcDbArc
 50
23.58035929891447
 51
90.00218082070817
  0
LINE
  5
6538
330
1A
100
AcDbEntity
  8
SEIHIN
100
AcDbLine
 10
549.776224434245
 20
467.1638602546035
 30
0.0
 11
546.9740773548735
 21
467.1637535978755
 31
0.0
  0
ARC
  5
6539
330
1A
100
AcDbEntity
  8
SEIHIN
100
AcDbCircle
 10
549.7676312299056
 20
466.8356806508474
 30
0.0
 40
0.3282923163926151
100
AcDbArc
 50
55.84030385203988
 51
89.15617071233338
  0
ARC
  5
653A
330
1A
100
AcDbEntity
  8
SEIHIN
100
AcDbCircle
 10
550.9740722754206
 20
467.2972800331641
 30
0.0
 40
1.0
100
AcDbArc
 50
180.0021808207081
 51
270.0021808207081
  0
LINE
  5
653B
330
1A
100
AcDbEntity
  8
SEIHIN
100
AcDbLine
 10
549.9740719712438
 20
467.3052525162265
 30
0.0
 11
549.974072276145
 21
467.2972419706623
 31
0.0
  0
LINE
  5
653C
330
1A
100
AcDbEntity
  8
SEIHIN
100
AcDbLine
 10
544.9740532485159
 20
467.7970516577914
 30
0.0
 11
544.9740430496994
 21
468.0650008500286
 31
0.0
  0
LINE
  5
653D
330
1A
100
AcDbEntity
  8
SEIHIN
100
AcDbLine
 10
544.9741103422686
 20
466.297051658878
 30
0.0
 11
545.4741103419064
 21
466.2970706901289
 31
0.0
  0
ARC
  5
653E
330
1A
100
AcDbEntity
  8
SEIHIN
100
AcDbCircle
 10
545.4740913106554
 20
466.7970706897667
 30
0.0
 40
0.5
100
AcDbArc
 50
270.0021808207081
 51
0.0021808207081791
  0
ARC
  5
653F
330
1A
100
AcDbEntity
  8
SEIHIN
100
AcDbCircle
 10
547.0243821754543
 20
466.0291230710113
 30
0.0
 40
1.135745133146391
100
AcDbArc
 50
92.53859520422201
 51
119.6795846898226
  0
POLYLINE
  5
6540
330
1A
100
AcDbEntity
  8
SEIHIN
100
AcDb2dPolyline
 66
     1
 10
0.0
 20
0.0
 30
0.0
  0
VERTEX
  5
7257
330
6540
100
AcDbEntity
  8
SEIHIN
100
AcDbVertex
100
AcDb2dVertex
 10
546.46201895964
 20
467.0158675267672
 30
0.0
  0
VERTEX
  5
7258
330
6540
100
AcDbEntity
  8
SEIHIN
100
AcDbVertex
100
AcDb2dVertex
 10
546.2048893950257
 20
466.8607353374215
 30
0.0
  0
VERTEX
  5
7259
330
6540
100
AcDbEntity
  8
SEIHIN
100
AcDbVertex
100
AcDb2dVertex
 10
545.9842150335216
 20
466.6844921702098
 30
0.0
  0
VERTEX
  5
725A
330
6540
100
AcDbEntity
  8
SEIHIN
100
AcDbVertex
100
AcDb2dVertex
 10
545.9524282121883
 20
466.651489754778
 30
0.0
  0
SEQEND
  5
725B
330
6540
100
AcDbEntity
  8
SEIHIN
  0
ARC
  5
6541
330
1A
100
AcDbEntity
  8
SEIHIN
100
AcDbCircle
 10
544.2647891902322
 20
482.2970246719304
 30
0.0
 40
0.5000000000002274
100
AcDbArc
 50
270.0021808207081
 51
23.58035929891522
  0
ARC
  5
6542
330
1A
100
AcDbEntity
  8
SEIHIN
100
AcDbCircle
 10
541.9735394069141
 20
481.2969374605066
 30
0.0
 40
3.000000000001632
100
AcDbArc
 50
7.299183657103651
 51
23.58035929891447
  0
ARC
  5
6543
330
1A
100
AcDbEntity
  8
SEIHIN
100
AcDbCircle
 10
541.973539406941
 20
481.2969374605081
 30
0.0
 40
2.999999999974932
100
AcDbArc
 50
0.0021808206951515
 51
7.299183657143244
  0
LINE
  5
6544
330
1A
100
AcDbEntity
  8
SEIHIN
100
AcDbLine
 10
550.9740151816679
 20
468.7972800320775
 30
0.0
 11
549.9740151823923
 21
468.7972419695758
 31
0.0
  0
ARC
  5
6545
330
1A
100
AcDbEntity
  8
SEIHIN
100
AcDbCircle
 10
546.9739390595621
 20
470.7971277806218
 30
0.0
 40
1.0
100
AcDbArc
 50
90.00218082070817
 51
180.0021808207081
  0
LINE
  5
6546
330
1A
100
AcDbEntity
  8
SEIHIN
100
AcDbLine
 10
549.9740151823923
 20
468.7972419695758
 30
0.0
 11
549.9740719712438
 21
467.3052525162265
 31
0.0
  0
LINE
  5
6547
330
1A
100
AcDbEntity
  8
SEIHIN
100
AcDbLine
 10
545.9740913102934
 20
466.7970897210174
 30
0.0
 11
545.9739390602865
 21
470.79708971812
 31
0.0
  0
LINE
  5
6548
330
1A
100
AcDbEntity
  8
SEIHIN
100
AcDbLine
 10
544.9741103422686
 20
466.297051658878
 30
0.0
 11
544.9735394047425
 21
481.2970516480133
 31
0.0
  0
TEXT
  5
6A8C
330
1A
100
AcDbEntity
  8
MOJI
100
AcDbText
 10
233.179673069384
 20
19.58687136726699
 30
0.0
 40
5.599999999999999
  1
インサイド曲り（出）
 41
0.9
  7
ｽﾀｲﾙ1
100
AcDbText
  0
TEXT
  5
6B21
330
1A
100
AcDbEntity
  8
MOJI
100
AcDbText
 10
463.246432004558
 20
11.94261758994865
 30
0.0
 40
5.599999999999999
  1
ＰＫ０５□
 41
0.9
  7
ｽﾀｲﾙ1
100
AcDbText
  0
LINE
  5
7047
330
1A
100
AcDbEntity
  8
SEIHIN
100
AcDbLine
 10
398.7284749364836
 20
349.2834993068837
 30
0.0
 11
398.7284749364836
 21
470.5289735299223
 31
0.0
  0
LINE
  5
7048
330
1A
100
AcDbEntity
  8
SEIHIN
100
AcDbLine
 10
400.0378918109082
 20
349.2834993068837
 30
0.0
 11
400.0378918109082
 21
469.2196064942312
 31
0.0
  0
LINE
  5
7049
330
1A
100
AcDbEntity
  8
SEIHIN
100
AcDbLine
 10
520.9739608488752
 20
470.2241715617959
 30
0.0
 11
401.0378537484065
 21
470.2196064935068
 31
0.0
  0
LINE
  5
704A
330
1A
100
AcDbEntity
  8
SEIHIN
100
AcDbLine
 10
520.9739110091931
 20
471.533588435272
 30
0.0
 11
399.7284368739819
 21
471.528973529198
 31
0.0
  0
ARC
  5
704B
330
1A
100
AcDbEntity
  8
SEIHIN
100
AcDbCircle
 10
401.0378918109082
 20
469.2196064942312
 30
0.0
 40
1.0
100
AcDbArc
 50
90.00218082070821
 51
180.0
  0
ARC
  5
704C
330
1A
100
AcDbEntity
  8
SEIHIN
100
AcDbCircle
 10
399.7284749364836
 20
470.5289735299223
 30
0.0
 40
1.0
100
AcDbArc
 50
90.00218082070821
 51
180.0
  0
VIEWPORT
  5
22
330
17
100
AcDbEntity
 67
     1
  8
0
100
AcDbViewport
 10
313.6808219178082
 20
148.5
 30
0.0
 40
627.3616438356165
 41
297.0
 68
     2
 69
     1
1001
ACAD
1000
MVIEW
1002
{
1070
    16
1010
0.0
1020
0.0
1030
0.0
1010
0.0
1020
0.0
1030
1.0
1040
0.0
1040
297.0
1040
313.6808219178082
1040
148.5
1040
50.0
1040
0.0
1040
0.0
1070
     0
1070
   100
1070
     1
1070
     0
1070
     0
1070
     0
1070
     0
1070
     0
1040
0.0
1040
0.0
1040
0.0
1040
1.0
1040
1.0
1040
10.0
1040
10.0
1070
     0
1002
{
1002
}
1002
}
  0
VIEWPORT
  5
64
330
17
100
AcDbEntity
 67
     1
  8
VIEWPORT
100
AcDbViewport
 10
210.0
 20
148.5
 30
0.0
 40
420.0
 41
297.0
 68
     1
 69
     2
1001
ACAD
1000
MVIEW
1002
{
1070
    16
1010
0.0
1020
0.0
1030
0.0
1010
0.0
1020
0.0
1030
1.0
1040
0.0
1040
605.8799999999998
1040
420.0
1040
297.0
1040
50.0
1040
0.0
1040
0.0
1070
     0
1070
   100
1070
     1
1070
     0
1070
     0
1070
     0
1070
     0
1070
     0
1040
0.0
1040
0.0
1040
0.0
1040
10.0
1040
10.0
1040
0.0
1040
0.0
1070
     0
1002
{
1002
}
1002
}
  0
ENDSEC
  0
SECTION
  2
OBJECTS
  0
DICTIONARY
  5
C
330
0
100
AcDbDictionary
  3
ACAD_GROUP
350
D
  3
ACAD_LAYOUT
350
4BC
  3
ACAD_MLINESTYLE
350
E
  3
ACAD_PLOTSETTINGS
350
4BD
1001
ACAD
1000
TREAT_AS_HARD
1070
     0
  0
DICTIONARY
  5
4EB
330
1A
100
AcDbDictionary
  3
ACAD_LAYOUTSELFREF
350
71D1
1001
ACAD
1000
TREAT_AS_HARD
1070
     1
  0
DICTIONARY
  5
4E9
330
17
100
AcDbDictionary
  3
ACAD_LAYOUTSELFREF
350
71D0
1001
ACAD
1000
TREAT_AS_HARD
1070
     1
  0
DICTIONARY
  5
D
102
{ACAD_REACTORS
330
C
102
}
330
C
100
AcDbDictionary
  3
*A1
350
464A
1001
ACAD
1000
TREAT_AS_HARD
1070
     0
  0
DICTIONARY
  5
4BC
102
{ACAD_REACTORS
330
C
102
}
330
C
100
AcDbDictionary
1001
ACAD
1000
TREAT_AS_HARD
1070
     0
  0
DICTIONARY
  5
E
102
{ACAD_REACTORS
330
C
102
}
330
C
100
AcDbDictionary
  3
STANDARD
350
13
1001
ACAD
1000
TREAT_AS_HARD
1070
     0
  0
DICTIONARY
  5
4BD
102
{ACAD_REACTORS
330
C
102
}
330
C
100
AcDbDictionary
1001
ACAD
1000
TREAT_AS_HARD
1070
     0
  0
XRECORD
  5
71D1
102
{ACAD_REACTORS
330
4EB
102
}
330
4EB
100
AcDbXrecord
340
1A
  0
XRECORD
  5
71D0
102
{ACAD_REACTORS
330
4E9
102
}
330
4E9
100
AcDbXrecord
340
17
  0
GROUP
  5
464A
102
{ACAD_REACTORS
330
D
102
}
330
D
100
AcDbGroup
300

 70
     1
 71
     1
  0
MLINESTYLE
  5
13
102
{ACAD_REACTORS
330
E
102
}
330
E
100
AcDbMlineStyle
  2
STANDARD
 70
     0
  3

 62
     0
 51
90.0
 52
90.0
 71
     2
 49
0.5
 62
   256
  6
BYLAYER
 49
-0.5
 62
   256
  6
BYLAYER
  0
ENDSEC
  0
EOF
