  0
SECTION
  2
HEADER
  9
$ACADVER
  1
AC1014
  9
$ACADMAINTVER
 70
     9
  9
$DWGCODEPAGE
  3
ANSI_932
  9
$INSBASE
 10
0.0
 20
0.0
 30
0.0
  9
$EXTMIN
 10
-0.0128164049386896
 20
-0.0090633767458712
 30
-0.0015258207003583
  9
$EXTMAX
 10
398.8000497813338
 20
275.8226172192214
 30
0.0000000349246037
  9
$LIMMIN
 10
0.0
 20
0.0
  9
$LIMMAX
 10
420.0
 20
297.0
  9
$ORTHOMODE
 70
     0
  9
$REGENMODE
 70
     1
  9
$FILLMODE
 70
     1
  9
$QTEXTMODE
 70
     0
  9
$MIRRTEXT
 70
     1
  9
$DRAGMODE
 70
     2
  9
$LTSCALE
 40
1.0
  9
$OSMODE
 70
    37
  9
$ATTMODE
 70
     1
  9
$TEXTSIZE
 40
2.5
  9
$TRACEWID
 40
1.0
  9
$TEXTSTYLE
  7
STANDARD
  9
$CLAYER
  8
SEIHIN
  9
$CELTYPE
  6
BYLAYER
  9
$CECOLOR
 62
   256
  9
$CELTSCALE
 40
1.0
  9
$DELOBJ
 70
     1
  9
$DISPSILH
 70
     0
  9
$DIMSCALE
 40
1.0
  9
$DIMASZ
 40
3.0
  9
$DIMEXO
 40
3.0
  9
$DIMDLI
 40
7.0
  9
$DIMRND
 40
0.0
  9
$DIMDLE
 40
0.0
  9
$DIMEXE
 40
1.5
  9
$DIMTP
 40
0.0
  9
$DIMTM
 40
0.0
  9
$DIMTXT
 40
3.0
  9
$DIMCEN
 40
150.0
  9
$DIMTSZ
 40
0.0
  9
$DIMTOL
 70
     0
  9
$DIMLIM
 70
     0
  9
$DIMTIH
 70
     0
  9
$DIMTOH
 70
     0
  9
$DIMSE1
 70
     0
  9
$DIMSE2
 70
     0
  9
$DIMTAD
 70
     3
  9
$DIMZIN
 70
     0
  9
$DIMBLK
  1

  9
$DIMASO
 70
     1
  9
$DIMSHO
 70
     1
  9
$DIMPOST
  1

  9
$DIMAPOST
  1

  9
$DIMALT
 70
     0
  9
$DIMALTD
 70
     2
  9
$DIMALTF
 40
25.4
  9
$DIMLFAC
 40
1.0
  9
$DIMTOFL
 70
     1
  9
$DIMTVP
 40
0.0
  9
$DIMTIX
 70
     0
  9
$DIMSOXD
 70
     0
  9
$DIMSAH
 70
     1
  9
$DIMBLK1
  1
OPEN
  9
$DIMBLK2
  1
OPEN
  9
$DIMSTYLE
  2
STANDARD
  9
$DIMCLRD
 70
   256
  9
$DIMCLRE
 70
   256
  9
$DIMCLRT
 70
   256
  9
$DIMTFAC
 40
1.0
  9
$DIMGAP
 40
1.0
  9
$DIMJUST
 70
     0
  9
$DIMSD1
 70
     0
  9
$DIMSD2
 70
     0
  9
$DIMTOLJ
 70
     1
  9
$DIMTZIN
 70
     0
  9
$DIMALTZ
 70
     0
  9
$DIMALTTZ
 70
     0
  9
$DIMFIT
 70
     3
  9
$DIMUPT
 70
     0
  9
$DIMUNIT
 70
     2
  9
$DIMDEC
 70
     0
  9
$DIMTDEC
 70
     0
  9
$DIMALTU
 70
     2
  9
$DIMALTTD
 70
     2
  9
$DIMTXSTY
  7
STANDARD
  9
$DIMAUNIT
 70
     0
  9
$LUNITS
 70
     2
  9
$LUPREC
 70
     4
  9
$SKETCHINC
 40
1.0
  9
$FILLETRAD
 40
0.5
  9
$AUNITS
 70
     0
  9
$AUPREC
 70
     0
  9
$MENU
  1
.
  9
$ELEVATION
 40
0.0
  9
$PELEVATION
 40
0.0
  9
$THICKNESS
 40
0.0
  9
$LIMCHECK
 70
     0
  9
$BLIPMODE
 70
     0
  9
$CHAMFERA
 40
10.0
  9
$CHAMFERB
 40
10.0
  9
$CHAMFERC
 40
20.0
  9
$CHAMFERD
 40
0.0
  9
$SKPOLY
 70
     0
  9
$TDCREATE
 40
2450994.350997107
  9
$TDUPDATE
 40
2454484.386409792
  9
$TDINDWG
 40
0.0776009491
  9
$TDUSRTIMER
 40
0.0776009491
  9
$USRTIMER
 70
     1
  9
$ANGBASE
 50
0.0
  9
$ANGDIR
 70
     0
  9
$PDMODE
 70
     1
  9
$PDSIZE
 40
0.0
  9
$PLINEWID
 40
0.0
  9
$COORDS
 70
     1
  9
$SPLFRAME
 70
     0
  9
$SPLINETYPE
 70
     6
  9
$SPLINESEGS
 70
     8
  9
$ATTDIA
 70
     0
  9
$ATTREQ
 70
     1
  9
$HANDLING
 70
 10241
  9
$HANDSEED
  5
A41
  9
$SURFTAB1
 70
     6
  9
$SURFTAB2
 70
     6
  9
$SURFTYPE
 70
     6
  9
$SURFU
 70
     6
  9
$SURFV
 70
     6
  9
$UCSNAME
  2

  9
$UCSORG
 10
0.0
 20
0.0
 30
0.0
  9
$UCSXDIR
 10
1.0
 20
0.0
 30
0.0
  9
$UCSYDIR
 10
0.0
 20
1.0
 30
0.0
  9
$PUCSNAME
  2

  9
$PUCSORG
 10
0.0
 20
0.0
 30
0.0
  9
$PUCSXDIR
 10
1.0
 20
0.0
 30
0.0
  9
$PUCSYDIR
 10
0.0
 20
1.0
 30
0.0
  9
$USERI1
 70
     0
  9
$USERI2
 70
     0
  9
$USERI3
 70
     0
  9
$USERI4
 70
     0
  9
$USERI5
 70
     0
  9
$USERR1
 40
0.0
  9
$USERR2
 40
0.0
  9
$USERR3
 40
0.0
  9
$USERR4
 40
0.0
  9
$USERR5
 40
0.0
  9
$WORLDVIEW
 70
     1
  9
$SHADEDGE
 70
     3
  9
$SHADEDIF
 70
    70
  9
$TILEMODE
 70
     1
  9
$MAXACTVP
 70
    16
  9
$PINSBASE
 10
0.0
 20
0.0
 30
0.0
  9
$PLIMCHECK
 70
     0
  9
$PEXTMIN
 10
0.0
 20
0.0
 30
0.0
  9
$PEXTMAX
 10
420.0
 20
297.0
 30
0.0
  9
$PLIMMIN
 10
0.0
 20
0.0
  9
$PLIMMAX
 10
420.0
 20
297.0
  9
$UNITMODE
 70
     0
  9
$VISRETAIN
 70
     0
  9
$PLINEGEN
 70
     0
  9
$PSLTSCALE
 70
     1
  9
$TREEDEPTH
 70
  3020
  9
$PICKSTYLE
 70
     1
  9
$CMLSTYLE
  2
STANDARD
  9
$CMLJUST
 70
     0
  9
$CMLSCALE
 40
1.0
  9
$PROXYGRAPHICS
 70
     1
  9
$MEASUREMENT
 70
     1
  0
ENDSEC
  0
SECTION
  2
CLASSES
  0
CLASS
  1
ACDBDICTIONARYWDFLT
  2
AcDbDictionaryWithDefault
  3
AutoCAD 2000
 90
        0
280
     0
281
     0
  0
CLASS
  1
ACDBPLACEHOLDER
  2
AcDbPlaceHolder
  3
AutoCAD 2000
 90
        0
280
     0
281
     0
  0
CLASS
  1
LAYOUT
  2
AcDbLayout
  3
AutoCAD 2000
 90
        0
280
     0
281
     0
  0
CLASS
  1
LONG_TRANSACTION
  2
AcDbLongTransaction
  3
AutoCAD 2000
 90
        0
280
     0
281
     0
  0
CLASS
  1
LWPOLYLINE
  2
AcDbPolyline
  3
AutoCAD 2000
 90
        0
280
     0
281
     1
  0
CLASS
  1
HATCH
  2
AcDbHatch
  3
AutoCAD 2000
 90
        0
280
     0
281
     1
  0
CLASS
  1
XRECORD
  2
AcDbXrecord
  3
AutoCAD 2000
 90
        0
280
     0
281
     0
  0
CLASS
  1
LONG_TRANSACTION
  2
AcDbLongTransaction
  3
AutoCAD 2000
 90
        0
280
     0
281
     0
  0
CLASS
  1
LWPOLYLINE
  2
AcDbPolyline
  3
AutoCAD 2000
 90
        0
280
     0
281
     1
  0
CLASS
  1
HATCH
  2
AcDbHatch
  3
AutoCAD 2000
 90
        0
280
     0
281
     1
  0
CLASS
  1
XRECORD
  2
AcDbXrecord
  3
AutoCAD 2000
 90
        0
280
     0
281
     0
  0
CLASS
  1
LONG_TRANSACTION
  2
AcDbLongTransaction
  3
AutoCAD 2000
 90
        0
280
     0
281
     0
  0
CLASS
  1
LWPOLYLINE
  2
AcDbPolyline
  3
AutoCAD 2000
 90
        0
280
     0
281
     1
  0
CLASS
  1
HATCH
  2
AcDbHatch
  3
AutoCAD 2000
 90
        0
280
     0
281
     1
  0
CLASS
  1
XRECORD
  2
AcDbXrecord
  3
AutoCAD 2000
 90
        0
280
     0
281
     0
  0
CLASS
  1
LONG_TRANSACTION
  2
AcDbLongTransaction
  3
AutoCAD 2000
 90
        0
280
     0
281
     0
  0
CLASS
  1
LWPOLYLINE
  2
AcDbPolyline
  3
AutoCAD 2000
 90
        0
280
     0
281
     1
  0
CLASS
  1
HATCH
  2
AcDbHatch
  3
AutoCAD 2000
 90
        0
280
     0
281
     1
  0
CLASS
  1
XRECORD
  2
AcDbXrecord
  3
AutoCAD 2000
 90
        0
280
     0
281
     0
  0
ENDSEC
  0
SECTION
  2
TABLES
  0
TABLE
  2
VPORT
  5
8
330
0
100
AcDbSymbolTable
 70
     2
  0
VPORT
  5
A1D
330
8
100
AcDbSymbolTableRecord
100
AcDbViewportTableRecord
  2
*ACTIVE
 70
     0
 10
0.0
 20
0.0
 11
1.0
 21
1.0
 12
208.166408701369
 22
163.0870144704062
 13
0.0
 23
0.0
 14
5.0
 24
5.0
 15
0.0
 25
0.0
 16
0.0
 26
0.0
 36
1.0
 17
0.0
 27
0.0
 37
0.0
 40
386.4212006132513
 41
1.570153061224489
 42
50.0
 43
0.0
 44
0.0
 50
0.0
 51
0.0
 71
     0
 72
   100
 73
     1
 74
     0
 75
     0
 76
     0
 77
     0
 78
     0
  0
ENDTAB
  0
TABLE
  2
LTYPE
  5
5
330
0
100
AcDbSymbolTable
 70
     2
  0
LTYPE
  5
14
330
5
100
AcDbSymbolTableRecord
100
AcDbLinetypeTableRecord
  2
BYBLOCK
 70
     0
  3

 72
    65
 73
     0
 40
0.0
  0
LTYPE
  5
15
330
5
100
AcDbSymbolTableRecord
100
AcDbLinetypeTableRecord
  2
BYLAYER
 70
     0
  3

 72
    65
 73
     0
 40
0.0
  0
LTYPE
  5
16
330
5
100
AcDbSymbolTableRecord
100
AcDbLinetypeTableRecord
  2
CONTINUOUS
 70
     0
  3
Solid line
 72
    65
 73
     0
 40
0.0
  0
LTYPE
  5
77F
330
5
100
AcDbSymbolTableRecord
100
AcDbLinetypeTableRecord
  2
CENTER
 70
     0
  3
____ _ ____ _ ____ _ ____ _ ____ _ ____ _ ____ 
 72
    65
 73
     4
 40
2.0
 49
1.25
 74
     0
 49
-0.25
 74
     0
 49
0.25
 74
     0
 49
-0.25
 74
     0
  0
ENDTAB
  0
TABLE
  2
LAYER
  5
2
330
0
100
AcDbSymbolTable
 70
     8
  0
LAYER
  5
F
330
2
100
AcDbSymbolTableRecord
100
AcDbLayerTableRecord
  2
0
 70
     0
 62
     7
  6
CONTINUOUS
  0
LAYER
  5
62
330
2
100
AcDbSymbolTableRecord
100
AcDbLayerTableRecord
  2
VIEWPORT
 70
     0
 62
     7
  6
CONTINUOUS
  0
LAYER
  5
6B
330
2
100
AcDbSymbolTableRecord
100
AcDbLayerTableRecord
  2
ZUWAKU
 70
     0
 62
     7
  6
CONTINUOUS
  0
LAYER
  5
14B
330
2
100
AcDbSymbolTableRecord
100
AcDbLayerTableRecord
  2
SEIHIN
 70
     0
 62
     3
  6
CONTINUOUS
  0
LAYER
  5
14C
330
2
100
AcDbSymbolTableRecord
100
AcDbLayerTableRecord
  2
SUNPOU
 70
     0
 62
     4
  6
CONTINUOUS
  0
LAYER
  5
314
330
2
100
AcDbSymbolTableRecord
100
AcDbLayerTableRecord
  2
DEFPOINTS
 70
     0
 62
     7
  6
CONTINUOUS
  0
LAYER
  5
5B0
330
2
100
AcDbSymbolTableRecord
100
AcDbLayerTableRecord
  2
MOJI
 70
     0
 62
     2
  6
CONTINUOUS
  0
LAYER
  5
780
330
2
100
AcDbSymbolTableRecord
100
AcDbLayerTableRecord
  2
CENTER_L
 70
     0
 62
     1
  6
CENTER
  0
ENDTAB
  0
TABLE
  2
STYLE
  5
3
330
0
100
AcDbSymbolTable
 70
     2
  0
STYLE
  5
10
330
3
100
AcDbSymbolTableRecord
100
AcDbTextStyleTableRecord
  2
STANDARD
 70
     0
 40
0.0
 41
1.0
 50
0.0
 71
     0
 42
2.5
  3
TXT
  4
bigfont.shx
  0
STYLE
  5
5B1
330
3
100
AcDbSymbolTableRecord
100
AcDbTextStyleTableRecord
  2
ｽﾀｲﾙ1
 70
     0
 40
0.0
 41
1.0
 50
0.0
 71
     0
 42
2.5
  3
MS PGothic.ttf
  4

1001
ACAD
1000
MS PGothic
1071
    32818
  0
ENDTAB
  0
TABLE
  2
VIEW
  5
6
330
0
100
AcDbSymbolTable
 70
     0
  0
ENDTAB
  0
TABLE
  2
UCS
  5
7
330
0
100
AcDbSymbolTable
 70
     0
  0
ENDTAB
  0
TABLE
  2
APPID
  5
9
330
0
100
AcDbSymbolTable
 70
     1
  0
APPID
  5
11
330
9
100
AcDbSymbolTableRecord
100
AcDbRegAppTableRecord
  2
ACAD
 70
     0
  0
ENDTAB
  0
TABLE
  2
DIMSTYLE
  5
A
330
0
100
AcDbSymbolTable
 70
     1
  0
DIMSTYLE
105
1D
102
{ACAD_REACTORS
330
94C
330
94D
330
965
330
966
330
968
330
969
330
975
102
}
330
A
100
AcDbSymbolTableRecord
100
AcDbDimStyleTableRecord
  2
STANDARD
 70
     0
  3

  4

  5

  6

  7

 40
1.0
 41
0.18
 42
0.0625
 43
0.38
 44
0.18
 45
0.0
 46
0.0
 47
0.0
 48
0.0
140
0.18
141
0.09
142
0.0
143
25.4
144
1.0
145
0.0
146
1.0
147
0.09
 71
     0
 72
     0
 73
     1
 74
     1
 75
     0
 76
     0
 77
     0
 78
     0
170
     0
171
     2
172
     0
173
     0
174
     0
175
     0
176
     0
177
     0
178
     0
270
     2
271
     4
272
     4
273
     2
274
     2
340
10
275
     0
280
     0
281
     0
282
     0
283
     1
284
     0
285
     0
286
     0
287
     3
288
     0
  0
ENDTAB
  0
TABLE
  2
BLOCK_RECORD
  5
1
330
0
100
AcDbSymbolTable
 70
     8
  0
BLOCK_RECORD
  5
1A
102
{ACAD_XDICTIONARY
360
520
102
}
330
1
100
AcDbSymbolTableRecord
100
AcDbBlockTableRecord
  2
*MODEL_SPACE
  0
BLOCK_RECORD
  5
17
102
{ACAD_XDICTIONARY
360
51E
102
}
330
1
100
AcDbSymbolTableRecord
100
AcDbBlockTableRecord
  2
*PAPER_SPACE
  0
BLOCK_RECORD
  5
B2
330
1
100
AcDbSymbolTableRecord
100
AcDbBlockTableRecord
  2
_OPEN
  0
BLOCK_RECORD
  5
978
330
1
100
AcDbSymbolTableRecord
100
AcDbBlockTableRecord
  2
*D1
  0
BLOCK_RECORD
  5
984
330
1
100
AcDbSymbolTableRecord
100
AcDbBlockTableRecord
  2
*D2
  0
BLOCK_RECORD
  5
990
330
1
100
AcDbSymbolTableRecord
100
AcDbBlockTableRecord
  2
*D3
  0
BLOCK_RECORD
  5
99E
330
1
100
AcDbSymbolTableRecord
100
AcDbBlockTableRecord
  2
*D4
  0
BLOCK_RECORD
  5
9AA
330
1
100
AcDbSymbolTableRecord
100
AcDbBlockTableRecord
  2
*D5
  0
BLOCK_RECORD
  5
9B6
330
1
100
AcDbSymbolTableRecord
100
AcDbBlockTableRecord
  2
*D6
  0
BLOCK_RECORD
  5
9C4
330
1
100
AcDbSymbolTableRecord
100
AcDbBlockTableRecord
  2
*D7
  0
ENDTAB
  0
ENDSEC
  0
SECTION
  2
BLOCKS
  0
BLOCK
  5
1B
330
1A
100
AcDbEntity
  8
0
100
AcDbBlockBegin
  2
*MODEL_SPACE
 70
     0
 10
0.0
 20
0.0
 30
0.0
  3
*MODEL_SPACE
  1

  0
ENDBLK
  5
1C
330
1A
100
AcDbEntity
  8
0
100
AcDbBlockEnd
  0
BLOCK
  5
18
330
17
100
AcDbEntity
 67
     1
  8
0
100
AcDbBlockBegin
  2
*PAPER_SPACE
 70
     0
 10
0.0
 20
0.0
 30
0.0
  3
*PAPER_SPACE
  1

  0
ENDBLK
  5
19
330
17
100
AcDbEntity
 67
     1
  8
0
100
AcDbBlockEnd
  0
BLOCK
  5
B3
330
B2
100
AcDbEntity
  8
0
100
AcDbBlockBegin
  2
_OPEN
 70
     0
 10
0.0
 20
0.0
 30
0.0
  3
_OPEN
  1

  0
LINE
  5
B4
330
B2
100
AcDbEntity
  8
0
  6
BYBLOCK
 62
     0
100
AcDbLine
 10
-1.0
 20
0.1666666666666666
 30
0.0
 11
0.0
 21
0.0
 31
0.0
  0
LINE
  5
B5
330
B2
100
AcDbEntity
  8
0
  6
BYBLOCK
 62
     0
100
AcDbLine
 10
0.0
 20
0.0
 30
0.0
 11
-1.0
 21
-0.1666666666666666
 31
0.0
  0
LINE
  5
B6
330
B2
100
AcDbEntity
  8
0
  6
BYBLOCK
 62
     0
100
AcDbLine
 10
0.0
 20
0.0
 30
0.0
 11
-1.0
 21
0.0
 31
0.0
  0
ENDBLK
  5
B7
330
B2
100
AcDbEntity
  8
0
100
AcDbBlockEnd
  0
BLOCK
  5
982
330
978
100
AcDbEntity
  8
0
100
AcDbBlockBegin
  2
*D1
 70
     1
 10
0.0
 20
0.0
 30
0.0
  3
*D1
  1

  0
LINE
  5
9D2
330
978
100
AcDbEntity
  8
SUNPOU
  6
CONTINUOUS
 62
     4
100
AcDbLine
 10
220.6219224920566
 20
110.5224992147616
 30
0.0
 11
220.6219224920566
 21
87.09835762593955
 31
0.0
  0
LINE
  5
9D3
330
978
100
AcDbEntity
  8
SUNPOU
  6
CONTINUOUS
 62
     4
100
AcDbLine
 10
172.0219023938874
 20
110.5224992147616
 30
0.0
 11
172.0219023938874
 21
87.09835762593955
 31
0.0
  0
LINE
  5
9D4
330
978
100
AcDbEntity
  8
SUNPOU
  6
CONTINUOUS
 62
     4
100
AcDbLine
 10
217.6219224920566
 20
88.59835762593956
 30
0.0
 11
175.0219023938874
 21
88.59835762593956
 31
0.0
  0
INSERT
  5
9D5
330
978
100
AcDbEntity
  8
SUNPOU
  6
CONTINUOUS
 62
     4
100
AcDbBlockReference
  2
_OPEN
 10
220.6219224920566
 20
88.59835762593956
 30
0.0
 41
3.0
 42
3.0
 43
3.0
  0
INSERT
  5
9D6
330
978
100
AcDbEntity
  8
SUNPOU
  6
CONTINUOUS
 62
     4
100
AcDbBlockReference
  2
_OPEN
 10
172.0219023938874
 20
88.59835762593956
 30
0.0
 41
3.0
 42
3.0
 43
3.0
 50
180.0
  0
MTEXT
  5
9D7
330
978
100
AcDbEntity
  8
SUNPOU
  6
CONTINUOUS
 62
     4
100
AcDbMText
 10
196.321912442972
 20
91.09835762593956
 30
0.0
 40
3.0
 41
0.0
 71
     5
 72
     1
  1
\A1;49
1001
ACAD
1000
MTEXTBEGIN
1070
    73
1070
     1
1070
    44
1040
1.0
1070
    74
1070
     0
1000
MTEXTEND
  0
POINT
  5
9D8
330
978
100
AcDbEntity
  8
DEFPOINTS
  6
CONTINUOUS
 62
     0
100
AcDbPoint
 10
220.6219224920566
 20
113.5224992147616
 30
0.0
  0
POINT
  5
9D9
330
978
100
AcDbEntity
  8
DEFPOINTS
  6
CONTINUOUS
 62
     0
100
AcDbPoint
 10
172.0219023938874
 20
113.5224992147616
 30
0.0
  0
POINT
  5
9DA
330
978
100
AcDbEntity
  8
DEFPOINTS
  6
CONTINUOUS
 62
     0
100
AcDbPoint
 10
172.0219023938874
 20
88.59835762593956
 30
0.0
  0
ENDBLK
  5
983
330
978
100
AcDbEntity
  8
0
100
AcDbBlockEnd
  0
BLOCK
  5
98E
330
984
100
AcDbEntity
  8
0
100
AcDbBlockBegin
  2
*D2
 70
     1
 10
0.0
 20
0.0
 30
0.0
  3
*D2
  1

  0
LINE
  5
9DB
330
984
100
AcDbEntity
  8
SUNPOU
  6
CONTINUOUS
 62
     4
100
AcDbLine
 10
238.8219023938874
 20
156.5223992147615
 30
0.0
 11
238.8219023938874
 21
187.377266648167
 31
0.0
  0
LINE
  5
9DC
330
984
100
AcDbEntity
  8
SUNPOU
  6
CONTINUOUS
 62
     4
100
AcDbLine
 10
153.8220023938873
 20
156.5224992147616
 30
0.0
 11
153.8220023938873
 21
187.377266648167
 31
0.0
  0
LINE
  5
9DD
330
984
100
AcDbEntity
  8
SUNPOU
  6
CONTINUOUS
 62
     4
100
AcDbLine
 10
235.8219023938874
 20
185.8772666481669
 30
0.0
 11
156.8220023938873
 21
185.8772666481669
 31
0.0
  0
INSERT
  5
9DE
330
984
100
AcDbEntity
  8
SUNPOU
  6
CONTINUOUS
 62
     4
100
AcDbBlockReference
  2
_OPEN
 10
238.8219023938874
 20
185.8772666481669
 30
0.0
 41
3.0
 42
3.0
 43
3.0
  0
INSERT
  5
9DF
330
984
100
AcDbEntity
  8
SUNPOU
  6
CONTINUOUS
 62
     4
100
AcDbBlockReference
  2
_OPEN
 10
153.8220023938873
 20
185.8772666481669
 30
0.0
 41
3.0
 42
3.0
 43
3.0
 50
180.0
  0
MTEXT
  5
9E0
330
984
100
AcDbEntity
  8
SUNPOU
  6
CONTINUOUS
 62
     4
100
AcDbMText
 10
196.3219523938874
 20
188.377266648167
 30
0.0
 40
3.0
 41
0.0
 71
     5
 72
     1
  1
\A1;85
1001
ACAD
1000
MTEXTBEGIN
1070
    73
1070
     1
1070
    44
1040
1.0
1070
    74
1070
     0
1000
MTEXTEND
  0
POINT
  5
9E1
330
984
100
AcDbEntity
  8
DEFPOINTS
  6
CONTINUOUS
 62
     0
100
AcDbPoint
 10
238.8219023938874
 20
153.5223992147614
 30
0.0
  0
POINT
  5
9E2
330
984
100
AcDbEntity
  8
DEFPOINTS
  6
CONTINUOUS
 62
     0
100
AcDbPoint
 10
153.8220023938873
 20
153.5224992147616
 30
0.0
  0
POINT
  5
9E3
330
984
100
AcDbEntity
  8
DEFPOINTS
  6
CONTINUOUS
 62
     0
100
AcDbPoint
 10
153.8220023938873
 20
185.8772666481669
 30
0.0
  0
ENDBLK
  5
98F
330
984
100
AcDbEntity
  8
0
100
AcDbBlockEnd
  0
BLOCK
  5
99C
330
990
100
AcDbEntity
  8
0
100
AcDbBlockBegin
  2
*D3
 70
     1
 10
0.0
 20
0.0
 30
0.0
  3
*D3
  1

  0
LINE
  5
9E4
330
990
100
AcDbEntity
  8
SUNPOU
  6
CONTINUOUS
 62
     4
100
AcDbLine
 10
241.8219023938875
 20
153.5223992147614
 30
0.0
 11
259.0597407990384
 21
153.5223992147614
 31
0.0
  0
LINE
  5
9E5
330
990
100
AcDbEntity
  8
SUNPOU
  6
CONTINUOUS
 62
     4
100
AcDbLine
 10
241.8219023938875
 20
146.5223992147614
 30
0.0
 11
259.0597407990384
 21
146.5223992147614
 31
0.0
  0
LINE
  5
9E6
330
990
100
AcDbEntity
  8
SUNPOU
  6
CONTINUOUS
 62
     4
100
AcDbLine
 10
257.5597407990384
 20
156.5223992147615
 30
0.0
 11
257.5597407990384
 21
159.5223992147615
 31
0.0
  0
LINE
  5
9E7
330
990
100
AcDbEntity
  8
SUNPOU
  6
CONTINUOUS
 62
     4
100
AcDbLine
 10
257.5597407990384
 20
143.5223992147614
 30
0.0
 11
257.5597407990384
 21
140.5223992147614
 31
0.0
  0
LINE
  5
9E8
330
990
100
AcDbEntity
  8
SUNPOU
  6
CONTINUOUS
 62
     4
100
AcDbLine
 10
257.5597407990384
 20
153.5223992147614
 30
0.0
 11
257.5597407990384
 21
146.5223992147614
 31
0.0
  0
INSERT
  5
9E9
330
990
100
AcDbEntity
  8
SUNPOU
  6
CONTINUOUS
 62
     4
100
AcDbBlockReference
  2
_OPEN
 10
257.5597407990384
 20
153.5223992147614
 30
0.0
 41
3.0
 42
3.0
 43
3.0
 50
270.0
  0
INSERT
  5
9EA
330
990
100
AcDbEntity
  8
SUNPOU
  6
CONTINUOUS
 62
     4
100
AcDbBlockReference
  2
_OPEN
 10
257.5597407990384
 20
146.5223992147614
 30
0.0
 41
3.0
 42
3.0
 43
3.0
 50
90.0
  0
MTEXT
  5
9EB
330
990
100
AcDbEntity
  8
SUNPOU
  6
CONTINUOUS
 62
     4
100
AcDbMText
 10
255.0597407990383
 20
150.0223992147615
 30
0.0
 40
3.0
 41
0.0
 71
     5
 72
     1
  1
\A1;7
 11
0.0000000000000001
 21
1.0
 31
0.0
1001
ACAD
1000
MTEXTBEGIN
1070
    73
1070
     1
1070
    44
1040
1.0
1070
    74
1070
     0
1000
MTEXTEND
  0
POINT
  5
9EC
330
990
100
AcDbEntity
  8
DEFPOINTS
  6
CONTINUOUS
 62
     0
100
AcDbPoint
 10
238.8219023938874
 20
153.5223992147614
 30
0.0
  0
POINT
  5
9ED
330
990
100
AcDbEntity
  8
DEFPOINTS
  6
CONTINUOUS
 62
     0
100
AcDbPoint
 10
238.8219023938874
 20
146.5223992147614
 30
0.0
  0
POINT
  5
9EE
330
990
100
AcDbEntity
  8
DEFPOINTS
  6
CONTINUOUS
 62
     0
100
AcDbPoint
 10
257.5597407990384
 20
146.5223992147614
 30
0.0
  0
ENDBLK
  5
99D
330
990
100
AcDbEntity
  8
0
100
AcDbBlockEnd
  0
BLOCK
  5
9A8
330
99E
100
AcDbEntity
  8
0
100
AcDbBlockBegin
  2
*D4
 70
     1
 10
0.0
 20
0.0
 30
0.0
  3
*D4
  1

  0
LINE
  5
9EF
330
99E
100
AcDbEntity
  8
SUNPOU
  6
CONTINUOUS
 62
     4
100
AcDbLine
 10
241.8219023938875
 20
153.5223992147614
 30
0.0
 11
268.1424892552983
 21
153.5223992147614
 31
0.0
  0
LINE
  5
9F0
330
99E
100
AcDbEntity
  8
SUNPOU
  6
CONTINUOUS
 62
     4
100
AcDbLine
 10
223.6219023938873
 20
113.5224992147616
 30
0.0
 11
268.1424892552982
 21
113.5224992147616
 31
0.0
  0
LINE
  5
9F1
330
99E
100
AcDbEntity
  8
SUNPOU
  6
CONTINUOUS
 62
     4
100
AcDbLine
 10
266.6424892552983
 20
150.5223992147614
 30
0.0
 11
266.6424892552983
 21
116.5224992147615
 31
0.0
  0
INSERT
  5
9F2
330
99E
100
AcDbEntity
  8
SUNPOU
  6
CONTINUOUS
 62
     4
100
AcDbBlockReference
  2
_OPEN
 10
266.6424892552983
 20
153.5223992147614
 30
0.0
 41
3.0
 42
3.0
 43
3.0
 50
90.0
  0
INSERT
  5
9F3
330
99E
100
AcDbEntity
  8
SUNPOU
  6
CONTINUOUS
 62
     4
100
AcDbBlockReference
  2
_OPEN
 10
266.6424892552983
 20
113.5224992147616
 30
0.0
 41
3.0
 42
3.0
 43
3.0
 50
270.0
  0
MTEXT
  5
9F4
330
99E
100
AcDbEntity
  8
SUNPOU
  6
CONTINUOUS
 62
     4
100
AcDbMText
 10
264.1424892552982
 20
133.5224492147615
 30
0.0
 40
3.0
 41
0.0
 71
     5
 72
     1
  1
\A1;40
 11
0.0000000000000001
 21
1.0
 31
0.0
1001
ACAD
1000
MTEXTBEGIN
1070
    73
1070
     1
1070
    44
1040
1.0
1070
    74
1070
     0
1000
MTEXTEND
  0
POINT
  5
9F5
330
99E
100
AcDbEntity
  8
DEFPOINTS
  6
CONTINUOUS
 62
     0
100
AcDbPoint
 10
238.8219023938874
 20
153.5223992147614
 30
0.0
  0
POINT
  5
9F6
330
99E
100
AcDbEntity
  8
DEFPOINTS
  6
CONTINUOUS
 62
     0
100
AcDbPoint
 10
220.6219023938873
 20
113.5224992147616
 30
0.0
  0
POINT
  5
9F7
330
99E
100
AcDbEntity
  8
DEFPOINTS
  6
CONTINUOUS
 62
     0
100
AcDbPoint
 10
266.6424892552983
 20
113.5224992147616
 30
0.0
  0
ENDBLK
  5
9A9
330
99E
100
AcDbEntity
  8
0
100
AcDbBlockEnd
  0
BLOCK
  5
9B4
330
9AA
100
AcDbEntity
  8
0
100
AcDbBlockBegin
  2
*D5
 70
     1
 10
0.0
 20
0.0
 30
0.0
  3
*D5
  1

  0
LINE
  5
9F8
330
9AA
100
AcDbEntity
  8
SUNPOU
  6
CONTINUOUS
 62
     4
100
AcDbLine
 10
231.7218808808432
 20
122.0223938012753
 30
0.0
 11
253.0415824416088
 21
122.0223938012753
 31
0.0
  0
LINE
  5
9F9
330
9AA
100
AcDbEntity
  8
SUNPOU
  6
CONTINUOUS
 62
     4
100
AcDbLine
 10
223.6219224920566
 20
113.5224992147616
 30
0.0
 11
253.0415824416088
 21
113.5224992147616
 31
0.0
  0
LINE
  5
9FA
330
9AA
100
AcDbEntity
  8
SUNPOU
  6
CONTINUOUS
 62
     4
100
AcDbLine
 10
251.5415824416088
 20
119.0223938012753
 30
0.0
 11
251.5415824416088
 21
116.5224992147615
 31
0.0
  0
INSERT
  5
9FB
330
9AA
100
AcDbEntity
  8
SUNPOU
  6
CONTINUOUS
 62
     4
100
AcDbBlockReference
  2
_OPEN
 10
251.5415824416088
 20
122.0223938012753
 30
0.0
 41
3.0
 42
3.0
 43
3.0
 50
90.0
  0
INSERT
  5
9FC
330
9AA
100
AcDbEntity
  8
SUNPOU
  6
CONTINUOUS
 62
     4
100
AcDbBlockReference
  2
_OPEN
 10
251.5415824416088
 20
113.5224992147616
 30
0.0
 41
3.0
 42
3.0
 43
3.0
 50
270.0
  0
MTEXT
  5
9FD
330
9AA
100
AcDbEntity
  8
SUNPOU
  6
CONTINUOUS
 62
     4
100
AcDbMText
 10
249.0415824416087
 20
117.7724465080185
 30
0.0
 40
3.0
 41
0.0
 71
     5
 72
     1
  1
\A1;8
 11
0.0000000000000001
 21
1.0
 31
0.0
1001
ACAD
1000
MTEXTBEGIN
1070
    73
1070
     1
1070
    44
1040
1.0
1070
    74
1070
     0
1000
MTEXTEND
  0
POINT
  5
9FE
330
9AA
100
AcDbEntity
  8
DEFPOINTS
  6
CONTINUOUS
 62
     0
100
AcDbPoint
 10
228.7218808808432
 20
122.0223938012753
 30
0.0
  0
POINT
  5
9FF
330
9AA
100
AcDbEntity
  8
DEFPOINTS
  6
CONTINUOUS
 62
     0
100
AcDbPoint
 10
220.6219224920566
 20
113.5224992147616
 30
0.0
  0
POINT
  5
A00
330
9AA
100
AcDbEntity
  8
DEFPOINTS
  6
CONTINUOUS
 62
     0
100
AcDbPoint
 10
251.5415824416088
 20
113.5224992147616
 30
0.0
  0
ENDBLK
  5
9B5
330
9AA
100
AcDbEntity
  8
0
100
AcDbBlockEnd
  0
BLOCK
  5
9C2
330
9B6
100
AcDbEntity
  8
0
100
AcDbBlockBegin
  2
*D6
 70
     1
 10
0.0
 20
0.0
 30
0.0
  3
*D6
  1

  0
LINE
  5
A01
330
9B6
100
AcDbEntity
  8
SUNPOU
 62
     4
100
AcDbLine
 10
230.6438606278107
 20
137.4522545768034
 30
0.0
 11
230.6958905537618
 21
137.7072001733651
 31
0.0
  0
LINE
  5
A02
330
9B6
100
AcDbEntity
  8
SUNPOU
 62
     4
100
AcDbLine
 10
231.821784780474
 20
137.2118609113877
 30
0.0
 11
231.8738147064251
 21
137.4668065079495
 31
0.0
  0
LINE
  5
A03
330
9B6
100
AcDbEntity
  8
SUNPOU
 62
     4
100
AcDbLine
 10
227.4565376638423
 20
136.8373767116386
 30
0.0
 11
224.517125967216
 21
137.4372590982251
 31
0.0
  0
LINE
  5
A04
330
9B6
100
AcDbEntity
  8
SUNPOU
 62
     4
100
AcDbLine
 10
234.513285209758
 20
135.3972182730498
 30
0.0
 11
247.2507358951384
 21
132.7977279311747
 31
0.0
  0
LINE
  5
A05
330
9B6
100
AcDbEntity
  8
SUNPOU
 62
     4
100
AcDbLine
 10
230.3959493604685
 20
136.237494325052
 30
0.0
 11
231.5738735131318
 21
135.9971006596364
 31
0.0
  0
INSERT
  5
A06
330
9B6
100
AcDbEntity
  8
SUNPOU
 62
     4
100
AcDbBlockReference
  2
_OPEN
 10
230.3959493604685
 20
136.237494325052
 30
0.0
 41
3.0
 42
3.0
 43
3.0
 50
348.4653335278788
  0
INSERT
  5
A07
330
9B6
100
AcDbEntity
  8
SUNPOU
 62
     4
100
AcDbBlockReference
  2
_OPEN
 10
231.5738735131318
 20
135.9971006596364
 30
0.0
 41
3.0
 42
3.0
 43
3.0
 50
168.4653335278787
  0
MTEXT
  5
A08
330
9B6
100
AcDbEntity
  8
SUNPOU
 62
     4
100
AcDbMText
 10
242.8516183895835
 20
136.2470416560075
 30
0.0
 40
3.0
 41
0.0
 71
     5
 72
     1
  1
\A1;t1.2
 11
0.9798038988754168
 21
-0.199960795528854
 31
0.0
1001
ACAD
1000
MTEXTBEGIN
1070
    73
1070
     1
1070
    44
1040
1.0
1070
    74
1070
     0
1000
MTEXTEND
  0
POINT
  5
A09
330
9B6
100
AcDbEntity
  8
DEFPOINTS
 62
     0
100
AcDbPoint
 10
230.0439782412242
 20
134.5128428801771
 30
0.0
  0
POINT
  5
A0A
330
9B6
100
AcDbEntity
  8
DEFPOINTS
 62
     0
100
AcDbPoint
 10
231.2219023938874
 20
134.2724492147615
 30
0.0
  0
POINT
  5
A0B
330
9B6
100
AcDbEntity
  8
DEFPOINTS
 62
     0
100
AcDbPoint
 10
231.5738735131318
 20
135.9971006596364
 30
0.0
  0
ENDBLK
  5
9C3
330
9B6
100
AcDbEntity
  8
0
100
AcDbBlockEnd
  0
BLOCK
  5
9D0
330
9C4
100
AcDbEntity
  8
0
100
AcDbBlockBegin
  2
*D7
 70
     1
 10
0.0
 20
0.0
 30
0.0
  3
*D7
  1

  0
LINE
  5
A0C
330
9C4
100
AcDbEntity
  8
SUNPOU
  6
CONTINUOUS
 62
     4
100
AcDbLine
 10
238.8219023938874
 20
156.5223992147615
 30
0.0
 11
238.8219023938874
 21
176.6519938766072
 31
0.0
  0
LINE
  5
A0D
330
9C4
100
AcDbEntity
  8
SUNPOU
  6
CONTINUOUS
 62
     4
100
AcDbLine
 10
233.9235023938874
 20
156.5223992147615
 30
0.0
 11
233.9235023938874
 21
176.6519938766072
 31
0.0
  0
LINE
  5
A0E
330
9C4
100
AcDbEntity
  8
SUNPOU
  6
CONTINUOUS
 62
     4
100
AcDbLine
 10
241.8219023938875
 20
175.1519938766072
 30
0.0
 11
244.8219023938874
 21
175.1519938766072
 31
0.0
  0
LINE
  5
A0F
330
9C4
100
AcDbEntity
  8
SUNPOU
  6
CONTINUOUS
 62
     4
100
AcDbLine
 10
230.9235023938874
 20
175.1519938766072
 30
0.0
 11
227.9235023938874
 21
175.1519938766072
 31
0.0
  0
LINE
  5
A10
330
9C4
100
AcDbEntity
  8
SUNPOU
  6
CONTINUOUS
 62
     4
100
AcDbLine
 10
238.8219023938874
 20
175.1519938766072
 30
0.0
 11
233.9235023938874
 21
175.1519938766072
 31
0.0
  0
INSERT
  5
A11
330
9C4
100
AcDbEntity
  8
SUNPOU
  6
CONTINUOUS
 62
     4
100
AcDbBlockReference
  2
_OPEN
 10
238.8219023938874
 20
175.1519938766072
 30
0.0
 41
3.0
 42
3.0
 43
3.0
 50
180.0
  0
INSERT
  5
A12
330
9C4
100
AcDbEntity
  8
SUNPOU
  6
CONTINUOUS
 62
     4
100
AcDbBlockReference
  2
_OPEN
 10
233.9235023938874
 20
175.1519938766072
 30
0.0
 41
3.0
 42
3.0
 43
3.0
  0
MTEXT
  5
A13
330
9C4
100
AcDbEntity
  8
SUNPOU
  6
CONTINUOUS
 62
     4
100
AcDbMText
 10
236.3727023938874
 20
177.6519938766072
 30
0.0
 40
3.0
 41
0.0
 71
     5
 72
     1
  1
\A1;5
1001
ACAD
1000
MTEXTBEGIN
1070
    73
1070
     1
1070
    44
1040
1.0
1070
    74
1070
     0
1000
MTEXTEND
  0
POINT
  5
A14
330
9C4
100
AcDbEntity
  8
DEFPOINTS
  6
CONTINUOUS
 62
     0
100
AcDbPoint
 10
238.8219023938874
 20
153.5223992147614
 30
0.0
  0
POINT
  5
A15
330
9C4
100
AcDbEntity
  8
DEFPOINTS
  6
CONTINUOUS
 62
     0
100
AcDbPoint
 10
233.9235023938874
 20
153.5223992147614
 30
0.0
  0
POINT
  5
A16
330
9C4
100
AcDbEntity
  8
DEFPOINTS
  6
CONTINUOUS
 62
     0
100
AcDbPoint
 10
233.9235023938874
 20
175.1519938766072
 30
0.0
  0
ENDBLK
  5
9D1
330
9C4
100
AcDbEntity
  8
0
100
AcDbBlockEnd
  0
ENDSEC
  0
SECTION
  2
ENTITIES
  0
LINE
  5
66C
330
1A
100
AcDbEntity
  8
ZUWAKU
100
AcDbLine
 10
104.3233009526605
 20
7.599999652471407
 30
0.0
 11
223.7121822931222
 21
7.599999652471403
 31
0.0
  0
LINE
  5
66D
330
1A
100
AcDbEntity
  8
ZUWAKU
100
AcDbLine
 10
104.3233009526605
 20
7.799999652471404
 30
0.0
 11
223.7121822931222
 21
7.799999652471408
 31
0.0
  0
LINE
  5
66E
330
1A
100
AcDbEntity
  8
ZUWAKU
100
AcDbLine
 10
104.3233009526605
 20
7.699999652471404
 30
0.0
 11
223.7121822931222
 21
7.699999652471404
 31
0.0
  0
LINE
  5
66F
330
1A
100
AcDbEntity
  8
ZUWAKU
100
AcDbLine
 10
0.0000003076265784
 20
15.39999965247139
 30
0.0
 11
398.7000003076265
 21
15.39999965247139
 31
0.0
  0
LINE
  5
670
330
1A
100
AcDbEntity
  8
ZUWAKU
100
AcDbLine
 10
0.0000003076265784
 20
15.29999965247139
 30
0.0
 11
398.7000003076265
 21
15.29999965247139
 31
0.0
  0
LINE
  5
671
330
1A
100
AcDbEntity
  8
ZUWAKU
100
AcDbLine
 10
0.0000003076265784
 20
15.19999965247139
 30
0.0
 11
398.7000003076265
 21
15.19999965247139
 31
0.0
  0
LINE
  5
672
330
1A
100
AcDbEntity
  8
ZUWAKU
100
AcDbLine
 10
0.0000003076265784
 20
15.09999965247138
 30
0.0
 11
398.7000003076265
 21
15.09999965247138
 31
0.0
  0
LINE
  5
673
330
1A
100
AcDbEntity
  8
ZUWAKU
100
AcDbLine
 10
0.0000003076265784
 20
14.99999965247138
 30
0.0
 11
398.7000003076265
 21
14.99999965247138
 31
0.0
  0
LWPOLYLINE
  5
674
330
1A
100
AcDbEntity
  8
ZUWAKU
100
AcDbPolyline
 90
        4
 70
     1
 43
0.0
 10
0.1000003076265443
 20
275.6999996524714
 10
0.1000003076265443
 20
0.0999996524714106
 10
398.7000003076265
 20
0.0999996524714222
 10
398.7000003076266
 20
275.6999996524714
  0
LWPOLYLINE
  5
675
330
1A
100
AcDbEntity
  8
ZUWAKU
100
AcDbPolyline
 90
        4
 70
     1
 43
0.0
 10
0.300000307626533
 20
275.4999996524714
 10
0.300000307626533
 20
0.2999996524713992
 10
398.5000003076267
 20
0.2999996524714223
 10
398.5000003076265
 20
275.4999996524714
  0
LWPOLYLINE
  5
676
330
1A
100
AcDbEntity
  8
ZUWAKU
100
AcDbPolyline
 90
        4
 70
     1
 43
0.0
 10
0.0000003076265784
 20
275.7999996524714
 10
0.0000003076265784
 20
-0.0000003475286121
 10
398.8000003076266
 20
-0.0000003475285784
 10
398.8000003076266
 20
275.7999996524714
  0
LWPOLYLINE
  5
677
330
1A
100
AcDbEntity
  8
ZUWAKU
100
AcDbPolyline
 90
        4
 70
     1
 43
0.0
 10
0.2000003076265671
 20
275.5999996524713
 10
0.2000003076265671
 20
0.1999996524714334
 10
398.6000003076266
 20
0.1999996524714218
 10
398.6000003076266
 20
275.5999996524713
  0
LWPOLYLINE
  5
678
330
1A
100
AcDbEntity
  8
ZUWAKU
100
AcDbPolyline
 90
        4
 70
     1
 43
0.0
 10
0.4000003076265557
 20
275.3999996524714
 10
0.4000003076265557
 20
0.399999652471422
 10
398.4000003076265
 20
0.399999652471422
 10
398.4000003076265
 20
275.3999996524714
  0
TEXT
  5
679
330
1A
100
AcDbEntity
  8
MOJI
100
AcDbText
 10
46.47889510171114
 20
6.370588717608768
 30
0.0
 40
3.0
  1
ライナートップ
 41
0.9
  7
ｽﾀｲﾙ1
100
AcDbText
  0
HATCH
  5
67A
330
1A
100
AcDbEntity
  8
ZUWAKU
100
AcDbHatch
 10
0.0
 20
0.0
 30
0.0
210
0.0
220
0.0
230
1.0
  2
ANSI37
 70
     0
 71
     0
 91
        8
 92
        7
 72
     1
 73
     1
 93
       24
 10
7.251131638186507
 20
8.822423892963179
 42
-0.1989123673796348
 10
7.046106385017139
 20
9.317398639793704
 42
0.0
 10
7.046106385017139
 20
9.962499652471393
 42
-0.4142135623730912
 10
7.308606385017128
 20
10.22499965247138
 42
0.0
 10
8.796106385017083
 20
10.22499965247138
 42
0.4142135623731546
 10
9.058606385017128
 20
10.48749965247138
 42
0.0
 10
9.058606385017128
 20
11.36249965247139
 42
0.4142135623731586
 10
8.796106385017083
 20
11.62499965247139
 42
0.0
 10
7.046106385017139
 20
11.62499965247139
 42
0.4142135623730928
 10
5.646106385017162
 20
10.2249996524714
 42
0.0
 10
5.646106385017162
 20
9.317398639793768
 42
0.1989123673796619
 10
6.261182144525378
 20
7.832474399301965
 42
0.0
 10
7.716081131847715
 20
6.377575411979636
 42
-0.1989123673796613
 10
7.921106385017139
 20
5.882600665149043
 42
0.0
 10
7.921106385017139
 20
5.237499652471385
 42
-0.4142135623730911
 10
7.658606385017151
 20
4.974999652471389
 42
0.0
 10
6.171106385017196
 20
4.974999652471389
 42
0.4142135623731526
 10
5.908606385017151
 20
4.712499652471395
 42
0.0
 10
5.908606385017151
 20
3.837499652471384
 42
0.4142135623731526
 10
6.171106385017196
 20
3.57499965247139
 42
0.0
 10
7.921106385017139
 20
3.57499965247139
 42
0.4142135623731044
 10
9.321106385017174
 20
4.974999652471378
 42
0.0
 10
9.321106385017174
 20
5.882600665149015
 42
0.1989123673796604
 10
8.706030625508901
 20
7.367524905640784
 42
0.0
 97
        0
 92
        7
 72
     1
 73
     1
 93
       16
 10
11.77110638501716
 20
9.524999652471393
 42
-0.4142135623730935
 10
12.47110638501715
 20
10.22499965247138
 42
0.0
 10
13.43360638501712
 20
10.22499965247138
 42
0.4142135623731546
 10
13.69610638501717
 20
10.48749965247138
 42
0.0
 10
13.69610638501717
 20
11.36249965247139
 42
0.4142135623730951
 10
13.43360638501718
 20
11.62499965247139
 42
0.0
 10
12.47110638501709
 20
11.62499965247137
 42
0.4142135623730892
 10
10.37110638501712
 20
9.524999652471358
 42
0.0
 10
10.37110638501712
 20
5.674999652471402
 42
0.4142135623730969
 10
12.47110638501715
 20
3.57499965247139
 42
0.0
 10
13.43360638501712
 20
3.57499965247139
 42
0.4142135623731526
 10
13.69610638501717
 20
3.837499652471384
 42
0.0
 10
13.69610638501717
 20
4.712499652471395
 42
0.4142135623730891
 10
13.43360638501718
 20
4.974999652471389
 42
0.0
 10
12.47110638501715
 20
4.974999652471389
 42
-0.4142135623730928
 10
11.77110638501716
 20
5.674999652471383
 42
0.0
 97
        0
 92
        7
 72
     1
 73
     1
 93
        2
 10
12.12110638501712
 20
7.599999652471389
 42
1.0
 10
13.87110638501712
 20
7.599999652471389
 42
1.0
 97
        0
 92
        7
 72
     1
 73
     1
 93
       26
 10
18.65742962610613
 20
9.602523249253103
 42
0.0
 10
19.18824944267504
 20
11.28345266838789
 42
0.5069206636600134
 10
18.93793399307736
 20
11.62499965247139
 42
0.0
 10
18.08848930327275
 20
11.62499965247139
 42
0.3272098845218764
 10
17.83817385367507
 20
11.44154663655487
 42
0.0
 10
16.90403891635918
 20
8.483452668387929
 42
-0.3272098845219541
 10
16.65372346676145
 20
8.299999652471388
 42
0.0
 10
16.58360638501721
 20
8.299999652471388
 42
-0.4142135623731526
 10
16.32110638501717
 20
8.562499652471382
 42
0.0
 10
16.32110638501717
 20
11.36249965247139
 42
0.4142135623730951
 10
16.05860638501718
 20
11.62499965247139
 42
0.0
 10
15.18360638501713
 20
11.62499965247139
 42
0.4142135623730871
 10
14.92110638501713
 20
11.3624996524714
 42
0.0
 10
14.92110638501713
 20
3.837499652471384
 42
0.4142135623730891
 10
15.18360638501713
 20
3.57499965247139
 42
0.0
 10
16.05860638501712
 20
3.57499965247139
 42
0.4142135623731526
 10
16.32110638501717
 20
3.837499652471384
 42
0.0
 10
16.32110638501717
 20
6.637499652471396
 42
-0.4142135623731526
 10
16.58360638501721
 20
6.89999965247139
 42
0.0
 10
16.6537234667615
 20
6.89999965247139
 42
-0.3272098845218915
 10
16.90403891635918
 20
6.716546636554852
 42
0.0
 10
17.83817385367507
 20
3.758452668387926
 42
0.3272098845218902
 10
18.08848930327275
 20
3.57499965247139
 42
0.0
 10
18.93793399307736
 20
3.57499965247139
 42
0.5069206636600335
 10
19.18824944267504
 20
3.916546636554894
 42
0.0
 10
18.02505375343821
 20
7.599999652471458
 42
0.0
 97
        0
 92
        7
 72
     1
 73
     1
 93
        8
 10
21.74610638501712
 20
11.36249965247139
 42
0.4142135623731546
 10
21.48360638501708
 20
11.62499965247139
 42
0.0
 10
20.60860638501719
 20
11.62499965247139
 42
0.4142135623731507
 10
20.34610638501715
 20
11.3624996524714
 42
0.0
 10
20.34610638501715
 20
3.837499652471384
 42
0.4142135623731526
 10
20.60860638501719
 20
3.57499965247139
 42
0.0
 10
21.48360638501708
 20
3.57499965247139
 42
0.4142135623731526
 10
21.74610638501712
 20
3.837499652471384
 42
0.0
 97
        0
 92
        7
 72
     1
 73
     1
 93
       24
 10
24.19610638501717
 20
9.962499652471393
 42
-0.4142135623731546
 10
24.45860638501722
 20
10.22499965247138
 42
0.0
 10
25.94610638501717
 20
10.22499965247138
 42
0.4142135623730911
 10
26.20860638501716
 20
10.48749965247138
 42
0.0
 10
26.20860638501716
 20
11.36249965247139
 42
0.4142135623730952
 10
25.94610638501717
 20
11.62499965247139
 42
0.0
 10
24.19610638501717
 20
11.62499965247139
 42
0.4142135623731048
 10
22.79610638501714
 20
10.2249996524714
 42
0.0
 10
22.79610638501714
 20
9.317398639793768
 42
0.1989123673796613
 10
23.41118214452541
 20
7.832474399301993
 42
0.0
 10
24.86608113184775
 20
6.377575411979659
 42
-0.1989123673796402
 10
25.07110638501717
 20
5.882600665149123
 42
0.0
 10
25.07110638501717
 20
5.237499652471385
 42
-0.4142135623730911
 10
24.80860638501718
 20
4.974999652471389
 42
0.0
 10
23.32110638501717
 20
4.974999652471389
 42
0.4142135623731526
 10
23.05860638501712
 20
4.712499652471395
 42
0.0
 10
23.05860638501712
 20
3.837499652471384
 42
0.4142135623730891
 10
23.32110638501711
 20
3.57499965247139
 42
0.0
 10
25.07110638501717
 20
3.57499965247139
 42
0.4142135623730925
 10
26.47110638501715
 20
4.974999652471378
 42
0.0
 10
26.47110638501715
 20
5.882600665149015
 42
0.1989123673796675
 10
25.85603062550887
 20
7.367524905640841
 42
0.0
 10
24.4011316381866
 20
8.822423892963099
 42
-0.1989123673796652
 10
24.19610638501717
 20
9.317398639793683
 42
0.0
 97
        0
 92
        7
 72
     1
 73
     1
 93
       16
 10
28.92110638501714
 20
11.36249965247138
 42
0.414213562373103
 10
28.65860638501715
 20
11.62499965247139
 42
0.0
 10
27.78360638501715
 20
11.62499965247139
 42
0.4142135623730871
 10
27.52110638501716
 20
11.3624996524714
 42
0.0
 10
27.52110638501716
 20
4.974999652471378
 42
0.4142135623730926
 10
28.92110638501714
 20
3.57499965247139
 42
0.0
 10
30.67110638501714
 20
3.57499965247139
 42
0.4142135623731044
 10
32.07110638501717
 20
4.974999652471378
 42
0.0
 10
32.07110638501717
 20
11.36249965247139
 42
0.4142135623730951
 10
31.80860638501718
 20
11.62499965247139
 42
0.0
 10
30.93360638501712
 20
11.62499965247139
 42
0.4142135623730871
 10
30.67110638501714
 20
11.3624996524714
 42
0.0
 10
30.67110638501714
 20
5.499999652471377
 42
-0.414213562373088
 10
30.14610638501716
 20
4.974999652471389
 42
0.0
 10
29.44610638501717
 20
4.974999652471389
 42
-0.4142135623731197
 10
28.92110638501714
 20
5.499999652471377
 42
0.0
 97
        0
 92
        7
 72
     1
 73
     1
 93
        8
 10
34.52110638501716
 20
11.3624996524714
 42
0.4142135623730871
 10
34.25860638501717
 20
11.62499965247139
 42
0.0
 10
33.38360638501717
 20
11.62499965247139
 42
0.4142135623731507
 10
33.12110638501712
 20
11.3624996524714
 42
0.0
 10
33.12110638501712
 20
3.837499652471384
 42
0.4142135623730891
 10
33.38360638501711
 20
3.57499965247139
 42
0.0
 10
34.25860638501717
 20
3.57499965247139
 42
0.4142135623730891
 10
34.52110638501716
 20
3.837499652471384
 42
0.0
 97
        0
 75
     0
 76
     1
 52
0.0
 41
0.1
 77
     0
 78
     2
 53
45.0
 43
-450.4711518597129
 44
-6.600000347528578
 45
-0.2245064030267288
 46
0.2245064030267288
 79
     0
 53
135.0
 43
-450.4711518597129
 44
-6.600000347528578
 45
-0.2245064030267288
 46
-0.2245064030267288
 79
     0
 47
0.057451373970553
 98
        8
 10
8.039927789138232
 20
7.583586475414165
 10
11.20225781084616
 20
9.422030743696893
 10
12.5821842504564
 20
7.755940475506747
 10
15.45703029844514
 20
8.100648475692139
 10
20.91923631710494
 20
8.330454609462947
 10
23.44910075519135
 20
9.709287810674993
 10
28.27884329382675
 20
9.364578610018895
 10
33.91354011743795
 20
9.594384743789703
  0
LINE
  5
67B
330
1A
100
AcDbEntity
  8
ZUWAKU
100
AcDbLine
 10
12.47110638501715
 20
11.62499965247137
 30
0.0
 11
13.43360638501712
 21
11.62499965247139
 31
0.0
  0
LINE
  5
67C
330
1A
100
AcDbEntity
  8
ZUWAKU
100
AcDbLine
 10
13.43360638501712
 20
10.22499965247138
 30
0.0
 11
12.47110638501715
 21
10.22499965247138
 31
0.0
  0
LINE
  5
67D
330
1A
100
AcDbEntity
  8
ZUWAKU
100
AcDbLine
 10
12.47110638501715
 20
4.974999652471389
 30
0.0
 11
13.43360638501712
 21
4.974999652471389
 31
0.0
  0
LINE
  5
67E
330
1A
100
AcDbEntity
  8
ZUWAKU
100
AcDbLine
 10
13.43360638501712
 20
3.57499965247139
 30
0.0
 11
12.47110638501715
 21
3.57499965247139
 31
0.0
  0
CIRCLE
  5
67F
330
1A
100
AcDbEntity
  8
ZUWAKU
100
AcDbCircle
 10
12.99610638501712
 20
7.599999652471389
 30
0.0
 40
0.875
  0
ARC
  5
680
330
1A
100
AcDbEntity
  8
ZUWAKU
100
AcDbCircle
 10
7.746106385017128
 20
9.31739863979374
 30
0.0
 40
0.7
100
AcDbArc
 50
180.0000000000016
 51
224.9999999999988
  0
LINE
  5
681
330
1A
100
AcDbEntity
  8
ZUWAKU
100
AcDbLine
 10
11.77110638501716
 20
9.52499965247139
 30
0.0
 11
11.77110638501716
 21
5.674999652471392
 31
0.0
  0
LINE
  5
682
330
1A
100
AcDbEntity
  8
ZUWAKU
100
AcDbLine
 10
10.37110638501712
 20
5.674999652471392
 30
0.0
 11
10.37110638501712
 21
9.524999652471368
 31
0.0
  0
ARC
  5
683
330
1A
100
AcDbEntity
  8
ZUWAKU
100
AcDbCircle
 10
7.746106385017128
 20
9.31739863979374
 30
0.0
 40
2.099999999999999
100
AcDbArc
 50
180.0
 51
225.0
  0
ARC
  5
684
330
1A
100
AcDbEntity
  8
ZUWAKU
100
AcDbCircle
 10
7.921106385017139
 20
4.974999652471389
 30
0.0
 40
1.399999999999999
100
AcDbArc
 50
270.0
 51
0.0
  0
ARC
  5
685
330
1A
100
AcDbEntity
  8
ZUWAKU
100
AcDbCircle
 10
12.47110638501715
 20
5.674999652471392
 30
0.0
 40
2.099999999999999
100
AcDbArc
 50
180.0
 51
270.0
  0
ARC
  5
686
330
1A
100
AcDbEntity
  8
ZUWAKU
100
AcDbCircle
 10
7.221106385017151
 20
5.882600665149041
 30
0.0
 40
2.099999999999999
100
AcDbArc
 50
0.0
 51
45.0
  0
LINE
  5
687
330
1A
100
AcDbEntity
  8
ZUWAKU
100
AcDbLine
 10
8.706030625508901
 20
7.367524905640802
 30
0.0
 11
7.251131638186564
 21
8.82242389296314
 31
0.0
  0
LINE
  5
688
330
1A
100
AcDbEntity
  8
ZUWAKU
100
AcDbLine
 10
7.921106385017139
 20
5.237499652471392
 30
0.0
 11
7.921106385017139
 21
5.882600665149062
 31
0.0
  0
ARC
  5
689
330
1A
100
AcDbEntity
  8
ZUWAKU
100
AcDbCircle
 10
7.658606385017151
 20
5.237499652471392
 30
0.0
 40
0.2625
100
AcDbArc
 50
270.0
 51
0.0
  0
ARC
  5
68A
330
1A
100
AcDbEntity
  8
ZUWAKU
100
AcDbCircle
 10
7.221106385017151
 20
5.882600665149062
 30
0.0
 40
0.7
100
AcDbArc
 50
0.0
 51
45.0
  0
LINE
  5
68B
330
1A
100
AcDbEntity
  8
ZUWAKU
100
AcDbLine
 10
5.908606385017151
 20
3.83749965247139
 30
0.0
 11
5.908606385017151
 21
4.71249965247139
 31
0.0
  0
ARC
  5
68C
330
1A
100
AcDbEntity
  8
ZUWAKU
100
AcDbCircle
 10
6.171106385017139
 20
3.83749965247139
 30
0.0
 40
0.2625
100
AcDbArc
 50
180.0
 51
270.0
  0
ARC
  5
68D
330
1A
100
AcDbEntity
  8
ZUWAKU
100
AcDbCircle
 10
6.171106385017139
 20
4.71249965247139
 30
0.0
 40
0.2625
100
AcDbArc
 50
90.0
 51
180.0
  0
LINE
  5
68E
330
1A
100
AcDbEntity
  8
ZUWAKU
100
AcDbLine
 10
6.171106385017139
 20
3.57499965247139
 30
0.0
 11
7.921106385017139
 21
3.57499965247139
 31
0.0
  0
LINE
  5
68F
330
1A
100
AcDbEntity
  8
ZUWAKU
100
AcDbLine
 10
6.171106385017139
 20
4.974999652471389
 30
0.0
 11
7.658606385017151
 21
4.974999652471389
 31
0.0
  0
LINE
  5
690
330
1A
100
AcDbEntity
  8
ZUWAKU
100
AcDbLine
 10
6.261182144525378
 20
7.832474399301979
 30
0.0
 11
7.716081131847715
 21
6.377575411979648
 31
0.0
  0
LINE
  5
691
330
1A
100
AcDbEntity
  8
ZUWAKU
100
AcDbLine
 10
9.321106385017174
 20
4.974999652471389
 30
0.0
 11
9.321106385017174
 21
5.882600665149062
 31
0.0
  0
ARC
  5
692
330
1A
100
AcDbEntity
  8
ZUWAKU
100
AcDbCircle
 10
12.47110638501715
 20
5.674999652471392
 30
0.0
 40
0.7
100
AcDbArc
 50
180.0
 51
270.0
  0
ARC
  5
693
330
1A
100
AcDbEntity
  8
ZUWAKU
100
AcDbCircle
 10
8.796106385017139
 20
11.36249965247138
 30
0.0
 40
0.2625
100
AcDbArc
 50
0.0
 51
90.0
  0
ARC
  5
694
330
1A
100
AcDbEntity
  8
ZUWAKU
100
AcDbCircle
 10
8.796106385017139
 20
10.48749965247138
 30
0.0
 40
0.2625
100
AcDbArc
 50
270.0
 51
0.0
  0
LINE
  5
695
330
1A
100
AcDbEntity
  8
ZUWAKU
100
AcDbLine
 10
7.046106385017139
 20
11.62499965247139
 30
0.0
 11
8.796106385017139
 21
11.62499965247139
 31
0.0
  0
ARC
  5
696
330
1A
100
AcDbEntity
  8
ZUWAKU
100
AcDbCircle
 10
7.308606385017128
 20
9.96249965247139
 30
0.0
 40
0.2625
100
AcDbArc
 50
90.0
 51
180.0
  0
LINE
  5
697
330
1A
100
AcDbEntity
  8
ZUWAKU
100
AcDbLine
 10
7.046106385017139
 20
9.96249965247139
 30
0.0
 11
7.046106385017139
 21
9.317398639793719
 31
0.0
  0
LINE
  5
698
330
1A
100
AcDbEntity
  8
ZUWAKU
100
AcDbLine
 10
8.796106385017139
 20
10.22499965247138
 30
0.0
 11
7.308606385017128
 21
10.22499965247138
 31
0.0
  0
LINE
  5
699
330
1A
100
AcDbEntity
  8
ZUWAKU
100
AcDbLine
 10
5.646106385017162
 20
10.22499965247138
 30
0.0
 11
5.646106385017162
 21
9.317398639793719
 31
0.0
  0
ARC
  5
69A
330
1A
100
AcDbEntity
  8
ZUWAKU
100
AcDbCircle
 10
7.046106385017139
 20
10.22499965247138
 30
0.0
 40
1.399999999999999
100
AcDbArc
 50
90.0
 51
180.0
  0
LINE
  5
69B
330
1A
100
AcDbEntity
  8
ZUWAKU
100
AcDbLine
 10
9.058606385017128
 20
11.36249965247138
 30
0.0
 11
9.058606385017128
 21
10.48749965247138
 31
0.0
  0
ARC
  5
69C
330
1A
100
AcDbEntity
  8
ZUWAKU
100
AcDbCircle
 10
12.47110638501715
 20
9.52499965247139
 30
0.0
 40
0.7
100
AcDbArc
 50
90.0
 51
180.0
  0
ARC
  5
69D
330
1A
100
AcDbEntity
  8
ZUWAKU
100
AcDbCircle
 10
12.47110638501715
 20
9.524999652471368
 30
0.0
 40
2.099999999999999
100
AcDbArc
 50
90.0
 51
180.0
  0
LINE
  5
69E
330
1A
100
AcDbEntity
  8
ZUWAKU
100
AcDbLine
 10
39.66331508162068
 20
14.99999965247138
 30
0.0
 11
39.66331508162079
 21
0.399999652471422
 31
0.0
  0
LINE
  5
69F
330
1A
100
AcDbEntity
  8
ZUWAKU
100
AcDbLine
 10
39.7633150816207
 20
14.99999965247138
 30
0.0
 11
39.76331508162081
 21
0.399999652471422
 31
0.0
  0
LINE
  5
6A0
330
1A
100
AcDbEntity
  8
ZUWAKU
100
AcDbLine
 10
39.56331508162077
 20
14.99999965247138
 30
0.0
 11
39.56331508162077
 21
0.399999652471422
 31
0.0
  0
LINE
  5
6A1
330
1A
100
AcDbEntity
  8
ZUWAKU
100
AcDbLine
 10
32.07110638501717
 20
4.974999652471389
 30
0.0
 11
32.07110638501717
 21
11.36249965247138
 31
0.0
  0
LINE
  5
6A2
330
1A
100
AcDbEntity
  8
ZUWAKU
100
AcDbLine
 10
30.67110638501714
 20
11.36249965247138
 30
0.0
 11
30.67110638501714
 21
5.499999652471387
 31
0.0
  0
LINE
  5
6A3
330
1A
100
AcDbEntity
  8
ZUWAKU
100
AcDbLine
 10
34.52110638501716
 20
3.83749965247139
 30
0.0
 11
34.52110638501716
 21
11.36249965247138
 31
0.0
  0
LINE
  5
6A4
330
1A
100
AcDbEntity
  8
ZUWAKU
100
AcDbLine
 10
33.12110638501712
 20
11.36249965247138
 30
0.0
 11
33.12110638501712
 21
3.83749965247139
 31
0.0
  0
ARC
  5
6A5
330
1A
100
AcDbEntity
  8
ZUWAKU
100
AcDbCircle
 10
24.89610638501716
 20
9.31739863979374
 30
0.0
 40
0.7
100
AcDbArc
 50
180.0000000000016
 51
224.9999999999988
  0
ARC
  5
6A6
330
1A
100
AcDbEntity
  8
ZUWAKU
100
AcDbCircle
 10
24.89610638501716
 20
9.31739863979374
 30
0.0
 40
2.099999999999999
100
AcDbArc
 50
180.0
 51
225.0
  0
LINE
  5
6A7
330
1A
100
AcDbEntity
  8
ZUWAKU
100
AcDbLine
 10
18.65742962610613
 20
9.602523249253103
 30
0.0
 11
18.02505375343821
 21
7.599999652471399
 31
0.0
  0
LINE
  5
6A8
330
1A
100
AcDbEntity
  8
ZUWAKU
100
AcDbLine
 10
20.34610638501715
 20
11.36249965247138
 30
0.0
 11
20.34610638501715
 21
3.83749965247139
 31
0.0
  0
LINE
  5
6A9
330
1A
100
AcDbEntity
  8
ZUWAKU
100
AcDbLine
 10
21.74610638501712
 20
3.83749965247139
 30
0.0
 11
21.74610638501712
 21
11.36249965247138
 31
0.0
  0
LINE
  5
6AA
330
1A
100
AcDbEntity
  8
ZUWAKU
100
AcDbLine
 10
27.52110638501716
 20
11.36249965247138
 30
0.0
 11
27.52110638501716
 21
4.974999652471389
 31
0.0
  0
LINE
  5
6AB
330
1A
100
AcDbEntity
  8
ZUWAKU
100
AcDbLine
 10
28.92110638501714
 20
5.499999652471387
 30
0.0
 11
28.92110638501714
 21
11.36249965247138
 31
0.0
  0
LINE
  5
6AC
330
1A
100
AcDbEntity
  8
ZUWAKU
100
AcDbLine
 10
16.32110638501717
 20
8.562499652471391
 30
0.0
 11
16.32110638501717
 21
11.36249965247138
 31
0.0
  0
LINE
  5
6AD
330
1A
100
AcDbEntity
  8
ZUWAKU
100
AcDbLine
 10
14.92110638501713
 20
11.36249965247138
 30
0.0
 11
14.92110638501713
 21
3.83749965247139
 31
0.0
  0
LINE
  5
6AE
330
1A
100
AcDbEntity
  8
ZUWAKU
100
AcDbLine
 10
17.83817385367507
 20
11.44154663655487
 30
0.0
 11
16.90403891635918
 21
8.483452668387904
 31
0.0
  0
LINE
  5
6AF
330
1A
100
AcDbEntity
  8
ZUWAKU
100
AcDbLine
 10
30.14610638501716
 20
4.974999652471389
 30
0.0
 11
29.44610638501717
 21
4.974999652471389
 31
0.0
  0
LINE
  5
6B0
330
1A
100
AcDbEntity
  8
ZUWAKU
100
AcDbLine
 10
28.92110638501714
 20
3.57499965247139
 30
0.0
 11
30.67110638501714
 21
3.57499965247139
 31
0.0
  0
LINE
  5
6B1
330
1A
100
AcDbEntity
  8
ZUWAKU
100
AcDbLine
 10
20.60860638501714
 20
3.57499965247139
 30
0.0
 11
21.48360638501713
 21
3.57499965247139
 31
0.0
  0
LINE
  5
6B2
330
1A
100
AcDbEntity
  8
ZUWAKU
100
AcDbLine
 10
17.83817385367507
 20
3.758452668387903
 30
0.0
 11
16.90403891635918
 21
6.716546636554873
 31
0.0
  0
ARC
  5
6B3
330
1A
100
AcDbEntity
  8
ZUWAKU
100
AcDbCircle
 10
16.6537234667615
 20
8.562499652471391
 30
0.0
 40
0.2625
100
AcDbArc
 50
270.0
 51
342.4744316262769
  0
LINE
  5
6B4
330
1A
100
AcDbEntity
  8
ZUWAKU
100
AcDbLine
 10
16.6537234667615
 20
8.299999652471388
 30
0.0
 11
16.58360638501716
 21
8.299999652471388
 31
0.0
  0
LINE
  5
6B5
330
1A
100
AcDbEntity
  8
ZUWAKU
100
AcDbLine
 10
16.58360638501716
 20
6.89999965247139
 30
0.0
 11
16.6537234667615
 21
6.89999965247139
 31
0.0
  0
ARC
  5
6B6
330
1A
100
AcDbEntity
  8
ZUWAKU
100
AcDbCircle
 10
16.58360638501716
 20
8.562499652471391
 30
0.0
 40
0.2625
100
AcDbArc
 50
180.0
 51
270.0
  0
LINE
  5
6B7
330
1A
100
AcDbEntity
  8
ZUWAKU
100
AcDbLine
 10
15.18360638501713
 20
3.57499965247139
 30
0.0
 11
16.05860638501712
 21
3.57499965247139
 31
0.0
  0
ARC
  5
6B8
330
1A
100
AcDbEntity
  8
ZUWAKU
100
AcDbCircle
 10
16.05860638501712
 20
3.83749965247139
 30
0.0
 40
0.2625
100
AcDbArc
 50
270.0
 51
0.0
  0
LINE
  5
6B9
330
1A
100
AcDbEntity
  8
ZUWAKU
100
AcDbLine
 10
16.32110638501717
 20
3.83749965247139
 30
0.0
 11
16.32110638501717
 21
6.63749965247139
 31
0.0
  0
LINE
  5
6BA
330
1A
100
AcDbEntity
  8
ZUWAKU
100
AcDbLine
 10
13.69610638501717
 20
4.71249965247139
 30
0.0
 11
13.69610638501717
 21
3.83749965247139
 31
0.0
  0
ARC
  5
6BB
330
1A
100
AcDbEntity
  8
ZUWAKU
100
AcDbCircle
 10
13.43360638501712
 20
3.83749965247139
 30
0.0
 40
0.2625
100
AcDbArc
 50
270.0
 51
0.0
  0
ARC
  5
6BC
330
1A
100
AcDbEntity
  8
ZUWAKU
100
AcDbCircle
 10
13.43360638501712
 20
4.71249965247139
 30
0.0
 40
0.2625
100
AcDbArc
 50
0.0
 51
90.0
  0
ARC
  5
6BD
330
1A
100
AcDbEntity
  8
ZUWAKU
100
AcDbCircle
 10
15.18360638501713
 20
3.83749965247139
 30
0.0
 40
0.2625
100
AcDbArc
 50
180.0
 51
270.0
  0
ARC
  5
6BE
330
1A
100
AcDbEntity
  8
ZUWAKU
100
AcDbCircle
 10
16.6537234667615
 20
6.63749965247139
 30
0.0
 40
0.2625
100
AcDbArc
 50
17.52556837372303
 51
90.0
  0
ARC
  5
6BF
330
1A
100
AcDbEntity
  8
ZUWAKU
100
AcDbCircle
 10
16.58360638501716
 20
6.63749965247139
 30
0.0
 40
0.2625
100
AcDbArc
 50
90.0
 51
180.0
  0
ARC
  5
6C0
330
1A
100
AcDbEntity
  8
ZUWAKU
100
AcDbCircle
 10
20.60860638501714
 20
3.83749965247139
 30
0.0
 40
0.2625
100
AcDbArc
 50
180.0
 51
270.0
  0
LINE
  5
6C1
330
1A
100
AcDbEntity
  8
ZUWAKU
100
AcDbLine
 10
18.08848930327281
 20
3.57499965247139
 30
0.0
 11
18.9379339930773
 21
3.57499965247139
 31
0.0
  0
ARC
  5
6C2
330
1A
100
AcDbEntity
  8
ZUWAKU
100
AcDbCircle
 10
18.9379339930773
 20
3.83749965247139
 30
0.0
 40
0.2625
100
AcDbArc
 50
270.0
 51
17.52556837372303
  0
LINE
  5
6C3
330
1A
100
AcDbEntity
  8
ZUWAKU
100
AcDbLine
 10
19.18824944267504
 20
3.916546636554876
 30
0.0
 11
18.02505375343821
 21
7.599999652471399
 31
0.0
  0
ARC
  5
6C4
330
1A
100
AcDbEntity
  8
ZUWAKU
100
AcDbCircle
 10
18.08848930327281
 20
3.83749965247139
 30
0.0
 40
0.2625
100
AcDbArc
 50
197.525568373723
 51
270.0
  0
ARC
  5
6C5
330
1A
100
AcDbEntity
  8
ZUWAKU
100
AcDbCircle
 10
28.92110638501714
 20
4.974999652471389
 30
0.0
 40
1.399999999999999
100
AcDbArc
 50
180.0
 51
270.0
  0
ARC
  5
6C6
330
1A
100
AcDbEntity
  8
ZUWAKU
100
AcDbCircle
 10
25.07110638501717
 20
4.974999652471389
 30
0.0
 40
1.399999999999999
100
AcDbArc
 50
270.0
 51
0.0
  0
LINE
  5
6C7
330
1A
100
AcDbEntity
  8
ZUWAKU
100
AcDbLine
 10
25.85603062550893
 20
7.367524905640802
 30
0.0
 11
24.40113163818654
 21
8.82242389296314
 31
0.0
  0
LINE
  5
6C8
330
1A
100
AcDbEntity
  8
ZUWAKU
100
AcDbLine
 10
25.07110638501717
 20
5.237499652471392
 30
0.0
 11
25.07110638501717
 21
5.882600665149062
 31
0.0
  0
ARC
  5
6C9
330
1A
100
AcDbEntity
  8
ZUWAKU
100
AcDbCircle
 10
24.37110638501712
 20
5.882600665149062
 30
0.0
 40
0.7
100
AcDbArc
 50
0.0
 51
45.0
  0
ARC
  5
6CA
330
1A
100
AcDbEntity
  8
ZUWAKU
100
AcDbCircle
 10
24.80860638501713
 20
5.237499652471392
 30
0.0
 40
0.2625
100
AcDbArc
 50
270.0
 51
0.0
  0
LINE
  5
6CB
330
1A
100
AcDbEntity
  8
ZUWAKU
100
AcDbLine
 10
23.05860638501712
 20
3.83749965247139
 30
0.0
 11
23.05860638501712
 21
4.71249965247139
 31
0.0
  0
ARC
  5
6CC
330
1A
100
AcDbEntity
  8
ZUWAKU
100
AcDbCircle
 10
23.32110638501717
 20
3.83749965247139
 30
0.0
 40
0.2625
100
AcDbArc
 50
180.0
 51
270.0
  0
ARC
  5
6CD
330
1A
100
AcDbEntity
  8
ZUWAKU
100
AcDbCircle
 10
21.48360638501713
 20
3.83749965247139
 30
0.0
 40
0.2625
100
AcDbArc
 50
270.0
 51
0.0
  0
ARC
  5
6CE
330
1A
100
AcDbEntity
  8
ZUWAKU
100
AcDbCircle
 10
23.32110638501717
 20
4.71249965247139
 30
0.0
 40
0.2625
100
AcDbArc
 50
90.0
 51
180.0
  0
LINE
  5
6CF
330
1A
100
AcDbEntity
  8
ZUWAKU
100
AcDbLine
 10
23.32110638501717
 20
4.974999652471389
 30
0.0
 11
24.80860638501713
 21
4.974999652471389
 31
0.0
  0
LINE
  5
6D0
330
1A
100
AcDbEntity
  8
ZUWAKU
100
AcDbLine
 10
23.32110638501717
 20
3.57499965247139
 30
0.0
 11
25.07110638501717
 21
3.57499965247139
 31
0.0
  0
LINE
  5
6D1
330
1A
100
AcDbEntity
  8
ZUWAKU
100
AcDbLine
 10
23.41118214452541
 20
7.832474399301979
 30
0.0
 11
24.86608113184775
 21
6.377575411979648
 31
0.0
  0
LINE
  5
6D2
330
1A
100
AcDbEntity
  8
ZUWAKU
100
AcDbLine
 10
26.47110638501715
 20
4.974999652471389
 30
0.0
 11
26.47110638501715
 21
5.882600665149062
 31
0.0
  0
ARC
  5
6D3
330
1A
100
AcDbEntity
  8
ZUWAKU
100
AcDbCircle
 10
24.37110638501712
 20
5.882600665149041
 30
0.0
 40
2.099999999999999
100
AcDbArc
 50
0.0
 51
45.0
  0
ARC
  5
6D4
330
1A
100
AcDbEntity
  8
ZUWAKU
100
AcDbCircle
 10
29.44610638501717
 20
5.499999652471387
 30
0.0
 40
0.525
100
AcDbArc
 50
180.0
 51
270.0
  0
ARC
  5
6D5
330
1A
100
AcDbEntity
  8
ZUWAKU
100
AcDbCircle
 10
30.67110638501714
 20
4.974999652471389
 30
0.0
 40
1.399999999999999
100
AcDbArc
 50
270.0
 51
0.0
  0
LINE
  5
6D6
330
1A
100
AcDbEntity
  8
ZUWAKU
100
AcDbLine
 10
33.38360638501717
 20
3.57499965247139
 30
0.0
 11
34.25860638501717
 21
3.57499965247139
 31
0.0
  0
ARC
  5
6D7
330
1A
100
AcDbEntity
  8
ZUWAKU
100
AcDbCircle
 10
33.38360638501717
 20
3.83749965247139
 30
0.0
 40
0.2625
100
AcDbArc
 50
180.0
 51
270.0
  0
ARC
  5
6D8
330
1A
100
AcDbEntity
  8
ZUWAKU
100
AcDbCircle
 10
30.14610638501716
 20
5.499999652471387
 30
0.0
 40
0.525
100
AcDbArc
 50
270.0
 51
0.0
  0
ARC
  5
6D9
330
1A
100
AcDbEntity
  8
ZUWAKU
100
AcDbCircle
 10
34.25860638501717
 20
3.83749965247139
 30
0.0
 40
0.2625
100
AcDbArc
 50
270.0
 51
0.0
  0
LINE
  5
6DA
330
1A
100
AcDbEntity
  8
ZUWAKU
100
AcDbLine
 10
21.48360638501713
 20
11.62499965247139
 30
0.0
 11
20.60860638501714
 21
11.62499965247139
 31
0.0
  0
ARC
  5
6DB
330
1A
100
AcDbEntity
  8
ZUWAKU
100
AcDbCircle
 10
16.05860638501712
 20
11.36249965247138
 30
0.0
 40
0.2625
100
AcDbArc
 50
0.0
 51
90.0
  0
LINE
  5
6DC
330
1A
100
AcDbEntity
  8
ZUWAKU
100
AcDbLine
 10
16.05860638501712
 20
11.62499965247139
 30
0.0
 11
15.18360638501713
 21
11.62499965247139
 31
0.0
  0
ARC
  5
6DD
330
1A
100
AcDbEntity
  8
ZUWAKU
100
AcDbCircle
 10
13.43360638501712
 20
11.36249965247138
 30
0.0
 40
0.2625
100
AcDbArc
 50
0.0
 51
90.0
  0
ARC
  5
6DE
330
1A
100
AcDbEntity
  8
ZUWAKU
100
AcDbCircle
 10
15.18360638501713
 20
11.36249965247138
 30
0.0
 40
0.2625
100
AcDbArc
 50
90.0
 51
180.0
  0
ARC
  5
6DF
330
1A
100
AcDbEntity
  8
ZUWAKU
100
AcDbCircle
 10
13.43360638501712
 20
10.48749965247138
 30
0.0
 40
0.2625
100
AcDbArc
 50
270.0
 51
0.0
  0
LINE
  5
6E0
330
1A
100
AcDbEntity
  8
ZUWAKU
100
AcDbLine
 10
13.69610638501717
 20
11.36249965247138
 30
0.0
 11
13.69610638501717
 21
10.48749965247138
 31
0.0
  0
ARC
  5
6E1
330
1A
100
AcDbEntity
  8
ZUWAKU
100
AcDbCircle
 10
20.60860638501714
 20
11.36249965247138
 30
0.0
 40
0.2625
100
AcDbArc
 50
90.0
 51
180.0
  0
LINE
  5
6E2
330
1A
100
AcDbEntity
  8
ZUWAKU
100
AcDbLine
 10
18.08848930327281
 20
11.62499965247139
 30
0.0
 11
18.9379339930773
 21
11.62499965247139
 31
0.0
  0
ARC
  5
6E3
330
1A
100
AcDbEntity
  8
ZUWAKU
100
AcDbCircle
 10
18.9379339930773
 20
11.36249965247138
 30
0.0
 40
0.2625
100
AcDbArc
 50
342.4744316262769
 51
90.0
  0
LINE
  5
6E4
330
1A
100
AcDbEntity
  8
ZUWAKU
100
AcDbLine
 10
19.18824944267504
 20
11.2834526683879
 30
0.0
 11
18.65742962610613
 21
9.602523249253103
 31
0.0
  0
ARC
  5
6E5
330
1A
100
AcDbEntity
  8
ZUWAKU
100
AcDbCircle
 10
18.08848930327281
 20
11.36249965247138
 30
0.0
 40
0.2625
100
AcDbArc
 50
90.0
 51
162.4744316262769
  0
LINE
  5
6E6
330
1A
100
AcDbEntity
  8
ZUWAKU
100
AcDbLine
 10
24.19610638501717
 20
11.62499965247139
 30
0.0
 11
25.94610638501717
 21
11.62499965247139
 31
0.0
  0
LINE
  5
6E7
330
1A
100
AcDbEntity
  8
ZUWAKU
100
AcDbLine
 10
25.94610638501717
 20
10.22499965247138
 30
0.0
 11
24.45860638501716
 21
10.22499965247138
 31
0.0
  0
ARC
  5
6E8
330
1A
100
AcDbEntity
  8
ZUWAKU
100
AcDbCircle
 10
24.45860638501716
 20
9.96249965247139
 30
0.0
 40
0.2625
100
AcDbArc
 50
90.0
 51
180.0
  0
LINE
  5
6E9
330
1A
100
AcDbEntity
  8
ZUWAKU
100
AcDbLine
 10
24.19610638501717
 20
9.96249965247139
 30
0.0
 11
24.19610638501717
 21
9.317398639793719
 31
0.0
  0
ARC
  5
6EA
330
1A
100
AcDbEntity
  8
ZUWAKU
100
AcDbCircle
 10
21.48360638501713
 20
11.36249965247138
 30
0.0
 40
0.2625
100
AcDbArc
 50
0.0
 51
90.0
  0
LINE
  5
6EB
330
1A
100
AcDbEntity
  8
ZUWAKU
100
AcDbLine
 10
22.79610638501714
 20
10.22499965247138
 30
0.0
 11
22.79610638501714
 21
9.317398639793719
 31
0.0
  0
ARC
  5
6EC
330
1A
100
AcDbEntity
  8
ZUWAKU
100
AcDbCircle
 10
24.19610638501717
 20
10.22499965247138
 30
0.0
 40
1.399999999999999
100
AcDbArc
 50
90.0
 51
180.0
  0
ARC
  5
6ED
330
1A
100
AcDbEntity
  8
ZUWAKU
100
AcDbCircle
 10
28.65860638501715
 20
11.36249965247138
 30
0.0
 40
0.2625
100
AcDbArc
 50
0.0
 51
90.0
  0
ARC
  5
6EE
330
1A
100
AcDbEntity
  8
ZUWAKU
100
AcDbCircle
 10
27.78360638501715
 20
11.36249965247138
 30
0.0
 40
0.2625
100
AcDbArc
 50
90.0
 51
180.0
  0
LINE
  5
6EF
330
1A
100
AcDbEntity
  8
ZUWAKU
100
AcDbLine
 10
28.65860638501715
 20
11.62499965247139
 30
0.0
 11
27.78360638501715
 21
11.62499965247139
 31
0.0
  0
ARC
  5
6F0
330
1A
100
AcDbEntity
  8
ZUWAKU
100
AcDbCircle
 10
25.94610638501717
 20
11.36249965247138
 30
0.0
 40
0.2625
100
AcDbArc
 50
0.0
 51
90.0
  0
ARC
  5
6F1
330
1A
100
AcDbEntity
  8
ZUWAKU
100
AcDbCircle
 10
25.94610638501717
 20
10.48749965247138
 30
0.0
 40
0.2625
100
AcDbArc
 50
270.0
 51
0.0
  0
LINE
  5
6F2
330
1A
100
AcDbEntity
  8
ZUWAKU
100
AcDbLine
 10
26.20860638501716
 20
11.36249965247138
 30
0.0
 11
26.20860638501716
 21
10.48749965247138
 31
0.0
  0
LINE
  5
6F3
330
1A
100
AcDbEntity
  8
ZUWAKU
100
AcDbLine
 10
34.25860638501717
 20
11.62499965247139
 30
0.0
 11
33.38360638501717
 21
11.62499965247139
 31
0.0
  0
ARC
  5
6F4
330
1A
100
AcDbEntity
  8
ZUWAKU
100
AcDbCircle
 10
33.38360638501717
 20
11.36249965247138
 30
0.0
 40
0.2625
100
AcDbArc
 50
90.0
 51
180.0
  0
ARC
  5
6F5
330
1A
100
AcDbEntity
  8
ZUWAKU
100
AcDbCircle
 10
31.80860638501712
 20
11.36249965247138
 30
0.0
 40
0.2625
100
AcDbArc
 50
0.0
 51
90.0
  0
LINE
  5
6F6
330
1A
100
AcDbEntity
  8
ZUWAKU
100
AcDbLine
 10
31.80860638501712
 20
11.62499965247139
 30
0.0
 11
30.93360638501712
 21
11.62499965247139
 31
0.0
  0
ARC
  5
6F7
330
1A
100
AcDbEntity
  8
ZUWAKU
100
AcDbCircle
 10
30.93360638501712
 20
11.36249965247138
 30
0.0
 40
0.2625
100
AcDbArc
 50
90.0
 51
180.0
  0
ARC
  5
6F8
330
1A
100
AcDbEntity
  8
ZUWAKU
100
AcDbCircle
 10
34.25860638501717
 20
11.36249965247138
 30
0.0
 40
0.2625
100
AcDbArc
 50
0.0
 51
90.0
  0
TEXT
  5
6F9
330
1A
100
AcDbEntity
  8
MOJI
100
AcDbText
 10
119.9136016480521
 20
1.602460181175098
 30
0.0
 40
2.799999999999999
  1
Ｘ４０－２,７００
 41
0.9
  7
ｽﾀｲﾙ1
100
AcDbText
  0
TEXT
  5
6FA
330
1A
100
AcDbEntity
  8
MOJI
100
AcDbText
 10
119.9136016480521
 20
9.002460181175081
 30
0.0
 40
2.799999999999999
  1
のきとい
 41
0.9
  7
ｽﾀｲﾙ1
100
AcDbText
  0
LINE
  5
6FB
330
1A
100
AcDbEntity
  8
ZUWAKU
100
AcDbLine
 10
104.1233009526605
 20
14.99999965247138
 30
0.0
 11
104.1233009526605
 21
0.399999652471422
 31
0.0
  0
LINE
  5
6FC
330
1A
100
AcDbEntity
  8
ZUWAKU
100
AcDbLine
 10
104.3233009526604
 20
14.99999965247138
 30
0.0
 11
104.3233009526605
 21
0.399999652471422
 31
0.0
  0
LINE
  5
6FD
330
1A
100
AcDbEntity
  8
ZUWAKU
100
AcDbLine
 10
104.2233009526604
 20
14.99999965247138
 30
0.0
 11
104.2233009526605
 21
0.399999652471422
 31
0.0
  0
TEXT
  5
6FE
330
1A
100
AcDbEntity
  8
ZUWAKU
100
AcDbText
 10
104.8620234637653
 20
4.827677921664196
 30
0.0
 40
2.0
  1
サイズ
 41
0.9
  7
ｽﾀｲﾙ1
100
AcDbText
  0
TEXT
  5
6FF
330
1A
100
AcDbEntity
  8
ZUWAKU
100
AcDbText
 10
104.8620234637652
 20
12.02767792166417
 30
0.0
 40
2.0
  1
品名
 41
0.9
  7
ｽﾀｲﾙ1
100
AcDbText
  0
LINE
  5
700
330
1A
100
AcDbEntity
  8
ZUWAKU
100
AcDbLine
 10
324.4086015627286
 20
7.599999652471403
 30
0.0
 11
348.6245055818972
 21
7.599999652471405
 31
0.0
  0
LINE
  5
701
330
1A
100
AcDbEntity
  8
ZUWAKU
100
AcDbLine
 10
324.4086015627288
 20
7.699999652471406
 30
0.0
 11
348.6245055818972
 21
7.699999652471404
 31
0.0
  0
LINE
  5
702
330
1A
100
AcDbEntity
  8
ZUWAKU
100
AcDbLine
 10
324.4086015627286
 20
7.799999652471404
 30
0.0
 11
348.6245055818972
 21
7.799999652471404
 31
0.0
  0
TEXT
  5
703
330
1A
100
AcDbEntity
  8
ZUWAKU
100
AcDbText
 10
329.1019691512778
 20
9.002460181175081
 30
0.0
 40
2.799999999999999
  1
　　．　　．　　
 41
0.9
  7
ｽﾀｲﾙ1
100
AcDbText
  0
LINE
  5
704
330
1A
100
AcDbEntity
  8
ZUWAKU
100
AcDbLine
 10
252.599590056697
 20
7.599999652471407
 30
0.0
 11
276.2634781906827
 21
7.599999652471407
 31
0.0
  0
LINE
  5
705
330
1A
100
AcDbEntity
  8
ZUWAKU
100
AcDbLine
 10
252.599590056697
 20
7.699999652471404
 30
0.0
 11
276.2634781906827
 21
7.699999652471404
 31
0.0
  0
LINE
  5
706
330
1A
100
AcDbEntity
  8
ZUWAKU
100
AcDbLine
 10
252.599590056697
 20
7.799999652471404
 30
0.0
 11
276.2634781906827
 21
7.799999652471404
 31
0.0
  0
TEXT
  5
707
330
1A
100
AcDbEntity
  8
MOJI
100
AcDbText
 10
231.2836394686208
 20
5.97130851330138
 30
0.0
 40
2.799999999999999
  1
ＣＡ２０□
 41
0.9
  7
ｽﾀｲﾙ1
100
AcDbText
  0
LINE
  5
708
330
1A
100
AcDbEntity
  8
ZUWAKU
100
AcDbLine
 10
223.8121822931221
 20
14.99999965247138
 30
0.0
 11
223.8121822931223
 21
0.399999652471422
 31
0.0
  0
LINE
  5
709
330
1A
100
AcDbEntity
  8
ZUWAKU
100
AcDbLine
 10
223.9121822931222
 20
14.99999965247138
 30
0.0
 11
223.9121822931223
 21
0.399999652471422
 31
0.0
  0
LINE
  5
70A
330
1A
100
AcDbEntity
  8
ZUWAKU
100
AcDbLine
 10
223.7121822931222
 20
14.99999965247138
 30
0.0
 11
223.7121822931222
 21
0.399999652471422
 31
0.0
  0
TEXT
  5
70B
330
1A
100
AcDbEntity
  8
MOJI
100
AcDbText
 10
264.020454293783
 20
9.002460181175081
 30
0.0
 40
2.799999999999999
  1
Ａ３
 41
0.9
  7
ｽﾀｲﾙ1
100
AcDbText
  0
LINE
  5
70C
330
1A
100
AcDbEntity
  8
ZUWAKU
100
AcDbLine
 10
252.4995900566969
 20
14.99999965247138
 30
0.0
 11
252.4995900566971
 21
0.399999652471422
 31
0.0
  0
LINE
  5
70D
330
1A
100
AcDbEntity
  8
ZUWAKU
100
AcDbLine
 10
252.599590056697
 20
14.99999965247138
 30
0.0
 11
252.5995900566971
 21
0.399999652471422
 31
0.0
  0
LINE
  5
70E
330
1A
100
AcDbEntity
  8
ZUWAKU
100
AcDbLine
 10
252.399590056697
 20
14.99999965247138
 30
0.0
 11
252.399590056697
 21
0.399999652471422
 31
0.0
  0
TEXT
  5
70F
330
1A
100
AcDbEntity
  8
ZUWAKU
100
AcDbText
 10
231.3468811353801
 20
1.307035108041134
 30
0.0
 40
1.5
  1
□には色品番が入ります
 41
0.9
  7
ｽﾀｲﾙ1
100
AcDbText
  0
TEXT
  5
710
330
1A
100
AcDbEntity
  8
ZUWAKU
100
AcDbText
 10
253.3383125678019
 20
4.827677921664196
 30
0.0
 40
2.0
  1
縮尺
 41
0.9
  7
ｽﾀｲﾙ1
100
AcDbText
  0
TEXT
  5
711
330
1A
100
AcDbEntity
  8
MOJI
100
AcDbText
 10
264.020454293783
 20
1.602460181175098
 30
0.0
 40
2.799999999999999
  1
１/１
 41
0.9
  7
ｽﾀｲﾙ1
100
AcDbText
  0
TEXT
  5
712
330
1A
100
AcDbEntity
  8
ZUWAKU
100
AcDbText
 10
224.650904804227
 20
12.02767792166417
 30
0.0
 40
2.0
  1
品番
 41
0.9
  7
ｽﾀｲﾙ1
100
AcDbText
  0
TEXT
  5
713
330
1A
100
AcDbEntity
  8
ZUWAKU
100
AcDbText
 10
253.3383125678018
 20
12.02767792166417
 30
0.0
 40
2.0
  1
用紙
 41
0.9
  7
ｽﾀｲﾙ1
100
AcDbText
  0
LINE
  5
714
330
1A
100
AcDbEntity
  8
ZUWAKU
100
AcDbLine
 10
324.3086015627287
 20
14.99999965247138
 30
0.0
 11
324.3086015627288
 21
0.399999652471422
 31
0.0
  0
LINE
  5
715
330
1A
100
AcDbEntity
  8
ZUWAKU
100
AcDbLine
 10
324.4086015627288
 20
14.99999965247138
 30
0.0
 11
324.4086015627289
 21
0.399999652471422
 31
0.0
  0
LINE
  5
716
330
1A
100
AcDbEntity
  8
ZUWAKU
100
AcDbLine
 10
324.2086015627288
 20
14.99999965247138
 30
0.0
 11
324.2086015627288
 21
0.399999652471422
 31
0.0
  0
LINE
  5
717
330
1A
100
AcDbEntity
  8
ZUWAKU
100
AcDbLine
 10
276.3634781906826
 20
14.99999965247138
 30
0.0
 11
276.3634781906828
 21
0.399999652471422
 31
0.0
  0
LINE
  5
718
330
1A
100
AcDbEntity
  8
ZUWAKU
100
AcDbLine
 10
276.4634781906827
 20
14.99999965247138
 30
0.0
 11
276.4634781906828
 21
0.399999652471422
 31
0.0
  0
LINE
  5
719
330
1A
100
AcDbEntity
  8
ZUWAKU
100
AcDbLine
 10
276.2634781906827
 20
14.99999965247138
 30
0.0
 11
276.2634781906827
 21
0.399999652471422
 31
0.0
  0
TEXT
  5
71A
330
1A
100
AcDbEntity
  8
ZUWAKU
100
AcDbText
 10
325.1473240738336
 20
12.02767792166417
 30
0.0
 40
2.0
  1
DATE
 41
0.9
  7
ｽﾀｲﾙ1
100
AcDbText
  0
LINE
  5
71B
330
1A
100
AcDbEntity
  8
ZUWAKU
100
AcDbLine
 10
348.6245055818972
 20
14.99999965247138
 30
0.0
 11
348.6245055818972
 21
0.399999652471422
 31
0.0
  0
LINE
  5
71C
330
1A
100
AcDbEntity
  8
ZUWAKU
100
AcDbLine
 10
348.7245055818972
 20
14.99999965247138
 30
0.0
 11
348.7245055818972
 21
0.399999652471422
 31
0.0
  0
LINE
  5
71D
330
1A
100
AcDbEntity
  8
ZUWAKU
100
AcDbLine
 10
348.8245055818971
 20
14.99999965247138
 30
0.0
 11
348.8245055818972
 21
0.399999652471422
 31
0.0
  0
LINE
  5
71E
330
1A
100
AcDbEntity
  8
ZUWAKU
100
AcDbLine
 10
348.9245055818971
 20
14.99999965247138
 30
0.0
 11
348.9245055818972
 21
0.399999652471422
 31
0.0
  0
TEXT
  5
71F
330
1A
100
AcDbEntity
  8
ZUWAKU
100
AcDbText
 10
354.2640424037484
 20
8.776919320314789
 30
0.0
 40
3.0
  1
積水化学工業株式会社
 41
0.9
  7
ｽﾀｲﾙ1
100
AcDbText
  0
TEXT
  5
720
330
1A
100
AcDbEntity
  8
ZUWAKU
100
AcDbText
 10
354.2640424037484
 20
3.32441980939842
 30
0.0
 40
3.0
  1
建材事業部
 41
0.9
  7
ｽﾀｲﾙ1
100
AcDbText
  0
DIMENSION
  5
94C
330
1A
100
AcDbEntity
  8
SUNPOU
  6
CONTINUOUS
100
AcDbDimension
  2
*D1
 10
172.0219023938874
 20
88.59835762593956
 30
0.0
 11
196.321912442972
 21
91.09835762593956
 31
0.0
 70
    32
  3
STANDARD
100
AcDbAlignedDimension
 13
220.6219224920566
 23
113.5224992147616
 33
0.0
 14
172.0219023938874
 24
113.5224992147616
 34
0.0
100
AcDbRotatedDimension
1001
ACAD
1000
DSTYLE
1002
{
1070
   140
1040
3.0
1070
    74
1070
     0
1070
   172
1070
     1
1070
    73
1070
     0
1070
   272
1070
     2
1070
    77
1070
     3
1070
   173
1070
     1
1070
   147
1040
1.0
1070
    42
1040
3.0
1070
    44
1040
1.5
1070
    43
1040
7.0
1070
   271
1070
     0
1070
   178
1070
     4
1070
   177
1070
     4
1070
   176
1070
     4
1070
   141
1040
150.0
1070
     7
1000
_OPEN
1070
     6
1000
_OPEN
1070
    41
1040
3.0
1002
}
  0
DIMENSION
  5
94D
330
1A
100
AcDbEntity
  8
SUNPOU
  6
CONTINUOUS
100
AcDbDimension
  2
*D2
 10
153.8220023938873
 20
185.8772666481669
 30
0.0
 11
196.3219523938874
 21
188.377266648167
 31
0.0
 70
    32
  3
STANDARD
100
AcDbAlignedDimension
 13
238.8219023938874
 23
153.5223992147614
 33
0.0
 14
153.8220023938873
 24
153.5224992147616
 34
0.0
100
AcDbRotatedDimension
1001
ACAD
1000
DSTYLE
1002
{
1070
   140
1040
3.0
1070
    74
1070
     0
1070
   172
1070
     1
1070
    73
1070
     0
1070
   272
1070
     2
1070
    77
1070
     3
1070
   173
1070
     1
1070
   147
1040
1.0
1070
    42
1040
3.0
1070
    44
1040
1.5
1070
    43
1040
7.0
1070
   271
1070
     0
1070
   178
1070
     4
1070
   177
1070
     4
1070
   176
1070
     4
1070
   141
1040
150.0
1070
     7
1000
_OPEN
1070
     6
1000
_OPEN
1070
    41
1040
3.0
1002
}
  0
LINE
  5
94E
330
1A
100
AcDbEntity
  8
SEIHIN
  6
CONTINUOUS
 62
     3
 48
8.0
100
AcDbLine
 10
215.8219023938875
 20
114.7224992147616
 30
0.0
 11
176.8219023938874
 21
114.7224992147616
 31
0.0
  0
LINE
  5
94F
330
1A
100
AcDbEntity
  8
SEIHIN
  6
CONTINUOUS
 62
     3
 48
8.0
100
AcDbLine
 10
172.0219023938874
 20
113.5224992147616
 30
0.0
 11
220.6219224920566
 21
113.5224992147616
 31
0.0
  0
LINE
  5
950
330
1A
100
AcDbEntity
  8
SEIHIN
  6
CONTINUOUS
 62
     3
 48
8.0
100
AcDbLine
 10
157.7383023938873
 20
152.3224992147616
 30
0.0
 11
158.6770023938874
 21
147.7224992147616
 31
0.0
  0
LINE
  5
951
330
1A
100
AcDbEntity
  8
SEIHIN
  6
CONTINUOUS
 62
     3
 48
8.0
100
AcDbLine
 10
155.0220023938873
 20
152.3224992147616
 30
0.0
 11
155.0220023938873
 21
147.7224992147616
 31
0.0
  0
LINE
  5
952
330
1A
100
AcDbEntity
  8
SEIHIN
  6
CONTINUOUS
 62
     3
 48
8.0
100
AcDbLine
 10
153.8219023938874
 20
146.5224992147616
 30
0.0
 11
153.8220023938873
 21
153.5224992147616
 31
0.0
  0
LINE
  5
953
330
1A
100
AcDbEntity
  8
SEIHIN
  6
CONTINUOUS
 62
     3
 48
8.0
100
AcDbLine
 10
158.7204023938873
 20
153.5224992147616
 30
0.0
 11
164.9545023938873
 21
122.9750992147615
 31
0.0
  0
LINE
  5
954
330
1A
100
AcDbEntity
  8
SEIHIN
  6
CONTINUOUS
 62
     3
 48
8.0
100
AcDbLine
 10
158.9220023938874
 20
146.5224992147616
 30
0.0
 11
163.9219023938874
 21
122.0224992147616
 31
0.0
  0
ARC
  5
955
330
1A
100
AcDbEntity
  8
SEIHIN
  6
CONTINUOUS
 62
     3
 48
8.0
100
AcDbCircle
 10
161.2375982810173
 20
111.3551035307324
 30
0.0
 40
10.99994632941524
100
AcDbArc
 50
11.36374015671871
 51
75.87555169639223
  0
LINE
  5
956
330
1A
100
AcDbEntity
  8
SEIHIN
  6
CONTINUOUS
 62
     3
 48
8.0
100
AcDbLine
 10
175.6219023938873
 20
114.7224992147616
 30
0.0
 11
175.6219023938873
 21
119.2224992147615
 31
0.0
  0
LINE
  5
957
330
1A
100
AcDbEntity
  8
SEIHIN
  6
CONTINUOUS
 62
     3
 48
8.0
100
AcDbLine
 10
176.8219023938874
 20
114.7224992147616
 30
0.0
 11
176.8219023938874
 21
120.4224992147615
 31
0.0
  0
ARC
  5
958
330
1A
100
AcDbEntity
  8
SEIHIN
  6
CONTINUOUS
 62
     3
 48
8.0
100
AcDbCircle
 10
161.2375980327619
 20
111.3551073860693
 30
0.0
 40
12.19993877054614
100
AcDbArc
 50
16.02263637925408
 51
40.15603560521599
  0
LINE
  5
959
330
1A
100
AcDbEntity
  8
SEIHIN
  6
CONTINUOUS
 62
     3
 48
8.0
100
AcDbLine
 10
175.6219023938873
 20
114.7224992147616
 30
0.0
 11
172.9636023938873
 21
114.7224992147616
 31
0.0
  0
LINE
  5
95A
330
1A
100
AcDbEntity
  8
SEIHIN
  6
CONTINUOUS
 62
     3
 48
8.0
100
AcDbLine
 10
170.5619023938873
 20
119.2224992147615
 30
0.0
 11
175.6219023938873
 21
119.2224992147615
 31
0.0
  0
LINE
  5
95B
330
1A
100
AcDbEntity
  8
SEIHIN
  6
CONTINUOUS
 62
     3
 48
8.0
100
AcDbLine
 10
169.3998023938874
 20
120.4224992147615
 30
0.0
 11
176.8219023938874
 21
120.4224992147615
 31
0.0
  0
ARC
  5
95C
330
1A
100
AcDbEntity
  8
SEIHIN
  6
CONTINUOUS
 62
     3
 48
8.0
100
AcDbCircle
 10
161.2375606069112
 20
111.3551232096506
 30
0.0
 40
12.19997945109428
100
AcDbArc
 50
48.00719042627278
 51
72.26181654228044
  0
LINE
  5
95D
330
1A
100
AcDbEntity
  8
SEIHIN
  6
CONTINUOUS
 62
     3
 48
8.0
100
AcDbLine
 10
158.6770023938874
 20
147.7224992147616
 30
0.0
 11
155.0220023938873
 21
147.7224992147616
 31
0.0
  0
LINE
  5
95E
330
1A
100
AcDbEntity
  8
SEIHIN
  6
CONTINUOUS
 62
     3
 48
8.0
100
AcDbLine
 10
153.8219023938874
 20
146.5224992147616
 30
0.0
 11
158.9220023938874
 21
146.5224992147616
 31
0.0
  0
LINE
  5
95F
330
1A
100
AcDbEntity
  8
CENTER_L
  6
CENTER
 48
5.0
100
AcDbLine
 10
196.3219023938875
 20
106.5224992147616
 30
0.0
 11
196.3219023938874
 21
121.7224992147616
 31
0.0
  0
LINE
  5
960
330
1A
100
AcDbEntity
  8
SEIHIN
  6
CONTINUOUS
 62
     3
 48
8.0
100
AcDbLine
 10
153.8220023938873
 20
153.5224992147616
 30
0.0
 11
158.7204023938873
 21
153.5224992147616
 31
0.0
  0
LINE
  5
961
330
1A
100
AcDbEntity
  8
SEIHIN
  6
CONTINUOUS
 62
     3
 48
8.0
100
AcDbLine
 10
157.7383023938873
 20
152.3224992147616
 30
0.0
 11
155.0220023938873
 21
152.3224992147616
 31
0.0
  0
LINE
  5
962
330
1A
100
AcDbEntity
  8
SEIHIN
  6
CONTINUOUS
 62
     3
 48
8.0
100
AcDbLine
 10
237.6219023938873
 20
152.3223992147615
 30
0.0
 11
237.6219023938873
 21
147.7223992147616
 31
0.0
  0
LINE
  5
963
330
1A
100
AcDbEntity
  8
SEIHIN
  6
CONTINUOUS
 62
     3
 48
8.0
100
AcDbLine
 10
234.9056023938873
 20
152.3223992147615
 30
0.0
 11
233.9668023938874
 21
147.7223992147616
 31
0.0
  0
LINE
  5
964
330
1A
100
AcDbEntity
  8
SEIHIN
  6
CONTINUOUS
 62
     3
 48
8.0
100
AcDbLine
 10
238.8219023938874
 20
146.5223992147614
 30
0.0
 11
238.8219023938874
 21
153.5223992147614
 31
0.0
  0
DIMENSION
  5
965
330
1A
100
AcDbEntity
  8
SUNPOU
  6
CONTINUOUS
100
AcDbDimension
  2
*D3
 10
257.5597407990384
 20
146.5223992147614
 30
0.0
 11
255.0597407990383
 21
150.0223992147615
 31
0.0
 70
    32
  3
STANDARD
100
AcDbAlignedDimension
 13
238.8219023938874
 23
153.5223992147614
 33
0.0
 14
238.8219023938874
 24
146.5223992147614
 34
0.0
 50
90.0
100
AcDbRotatedDimension
1001
ACAD
1000
DSTYLE
1002
{
1070
   140
1040
3.0
1070
    74
1070
     0
1070
   172
1070
     1
1070
    73
1070
     0
1070
   272
1070
     2
1070
    77
1070
     3
1070
   173
1070
     1
1070
   147
1040
1.0
1070
    42
1040
3.0
1070
    44
1040
1.5
1070
    43
1040
7.0
1070
   271
1070
     0
1070
   178
1070
     4
1070
   177
1070
     4
1070
   176
1070
     4
1070
   141
1040
150.0
1070
     7
1000
_OPEN
1070
     6
1000
_OPEN
1070
    41
1040
3.0
1002
}
  0
DIMENSION
  5
966
330
1A
100
AcDbEntity
  8
SUNPOU
  6
CONTINUOUS
100
AcDbDimension
  2
*D4
 10
266.6424892552983
 20
113.5224992147616
 30
0.0
 11
264.1424892552982
 21
133.5224492147615
 31
0.0
 70
    32
  3
STANDARD
100
AcDbAlignedDimension
 13
238.8219023938874
 23
153.5223992147614
 33
0.0
 14
220.6219023938873
 24
113.5224992147616
 34
0.0
 50
90.0
100
AcDbRotatedDimension
1001
ACAD
1000
DSTYLE
1002
{
1070
   140
1040
3.0
1070
    74
1070
     0
1070
   172
1070
     1
1070
    73
1070
     0
1070
   272
1070
     2
1070
    77
1070
     3
1070
   173
1070
     1
1070
   147
1040
1.0
1070
    42
1040
3.0
1070
    44
1040
1.5
1070
    43
1040
7.0
1070
   271
1070
     0
1070
   178
1070
     4
1070
   177
1070
     4
1070
   176
1070
     4
1070
   141
1040
150.0
1070
     7
1000
_OPEN
1070
     6
1000
_OPEN
1070
    41
1040
3.0
1002
}
  0
LINE
  5
967
330
1A
100
AcDbEntity
  8
SEIHIN
  6
CONTINUOUS
 62
     3
 48
8.0
100
AcDbLine
 10
233.9235023938874
 20
153.5223992147614
 30
0.0
 11
227.6893023938874
 21
122.9749992147616
 31
0.0
  0
DIMENSION
  5
968
330
1A
100
AcDbEntity
  8
SUNPOU
  6
CONTINUOUS
100
AcDbDimension
  2
*D5
 10
251.5415824416088
 20
113.5224992147616
 30
0.0
 11
249.0415824416087
 21
117.7724465080185
 31
0.0
 70
    32
  3
STANDARD
100
AcDbAlignedDimension
 13
228.7218808808432
 23
122.0223938012753
 33
0.0
 14
220.6219224920566
 24
113.5224992147616
 34
0.0
 50
90.0
100
AcDbRotatedDimension
1001
ACAD
1000
DSTYLE
1002
{
1070
   140
1040
3.0
1070
    74
1070
     0
1070
   172
1070
     1
1070
    73
1070
     0
1070
   272
1070
     2
1070
    77
1070
     3
1070
   173
1070
     1
1070
   147
1040
1.0
1070
    42
1040
3.0
1070
    44
1040
1.5
1070
    43
1040
7.0
1070
   271
1070
     0
1070
   178
1070
     4
1070
   177
1070
     4
1070
   176
1070
     4
1070
   141
1040
150.0
1070
     7
1000
_OPEN
1070
     6
1000
_OPEN
1070
    41
1040
3.0
1002
}
  0
DIMENSION
  5
969
330
1A
100
AcDbEntity
  8
SUNPOU
100
AcDbDimension
  2
*D6
 10
231.5738735131318
 20
135.9971006596364
 30
0.0
 11
242.8516183895835
 21
136.2470416560075
 31
0.0
 70
    33
  1
t<>
  3
STANDARD
100
AcDbAlignedDimension
 13
230.0439782412242
 23
134.5128428801771
 33
0.0
 14
231.2219023938874
 24
134.2724492147615
 34
0.0
1001
ACAD
1000
DSTYLE
1002
{
1070
   140
1040
3.0
1070
    74
1070
     0
1070
   172
1070
     1
1070
    73
1070
     0
1070
   272
1070
     2
1070
    77
1070
     3
1070
   173
1070
     1
1070
   147
1040
1.0
1070
    42
1040
3.0
1070
    44
1040
1.5
1070
    43
1040
7.0
1070
   271
1070
     1
1070
   178
1070
     4
1070
   177
1070
     4
1070
   176
1070
     4
1070
   141
1040
150.0
1070
     7
1000
_OPEN
1070
     6
1000
_OPEN
1070
    41
1040
3.0
1002
}
  0
LINE
  5
96A
330
1A
100
AcDbEntity
  8
SEIHIN
  6
CONTINUOUS
 62
     3
 48
8.0
100
AcDbLine
 10
233.7219023938874
 20
146.5223992147614
 30
0.0
 11
228.7219023938874
 21
122.0224992147616
 31
0.0
  0
LINE
  5
96B
330
1A
100
AcDbEntity
  8
SEIHIN
  6
CONTINUOUS
 62
     3
 48
8.0
100
AcDbLine
 10
217.0219023938874
 20
114.7224992147616
 30
0.0
 11
217.0219023938874
 21
119.2224992147615
 31
0.0
  0
LINE
  5
96C
330
1A
100
AcDbEntity
  8
SEIHIN
  6
CONTINUOUS
 62
     3
 48
8.0
100
AcDbLine
 10
215.8219023938874
 20
114.7223992147615
 30
0.0
 11
215.8219023938874
 21
120.4224992147615
 31
0.0
  0
ARC
  5
96D
330
1A
100
AcDbEntity
  8
SEIHIN
  6
CONTINUOUS
 62
     3
 48
8.0
100
AcDbCircle
 10
231.4062065067574
 20
111.3550035307323
 30
0.0
 40
10.99994632941526
100
AcDbArc
 50
104.1244483036077
 51
168.6362598432793
  0
ARC
  5
96E
330
1A
100
AcDbEntity
  8
SEIHIN
  6
CONTINUOUS
 62
     3
 48
8.0
100
AcDbCircle
 10
231.4062793775581
 20
111.3551434556269
 30
0.0
 40
12.19997101530972
100
AcDbArc
 50
139.8443138052131
 51
163.9780719705774
  0
LINE
  5
96F
330
1A
100
AcDbEntity
  8
SEIHIN
  6
CONTINUOUS
 62
     3
 48
8.0
100
AcDbLine
 10
217.0219023938874
 20
114.7224992147616
 30
0.0
 11
219.6802023938874
 21
114.7224992147616
 31
0.0
  0
LINE
  5
970
330
1A
100
AcDbEntity
  8
SEIHIN
  6
CONTINUOUS
 62
     3
 48
8.0
100
AcDbLine
 10
223.2440023938874
 20
120.4223992147616
 30
0.0
 11
215.8219023938874
 21
120.4224992147615
 31
0.0
  0
LINE
  5
971
330
1A
100
AcDbEntity
  8
SEIHIN
  6
CONTINUOUS
 62
     3
 48
8.0
100
AcDbLine
 10
222.0819023938874
 20
119.2224992147615
 30
0.0
 11
217.0219023938874
 21
119.2224992147615
 31
0.0
  0
ARC
  5
972
330
1A
100
AcDbEntity
  8
SEIHIN
  6
CONTINUOUS
 62
     3
 48
8.0
100
AcDbCircle
 10
231.4062441808637
 20
111.355023209651
 30
0.0
 40
12.19997945109404
100
AcDbArc
 50
107.7381834577211
 51
131.9928095737272
  0
LINE
  5
973
330
1A
100
AcDbEntity
  8
SEIHIN
  6
CONTINUOUS
 62
     3
 48
8.0
100
AcDbLine
 10
238.8219023938874
 20
146.5223992147614
 30
0.0
 11
233.7219023938874
 21
146.5223992147614
 31
0.0
  0
LINE
  5
974
330
1A
100
AcDbEntity
  8
SEIHIN
  6
CONTINUOUS
 62
     3
 48
8.0
100
AcDbLine
 10
233.9668023938874
 20
147.7223992147616
 30
0.0
 11
237.6219023938873
 21
147.7223992147616
 31
0.0
  0
DIMENSION
  5
975
330
1A
100
AcDbEntity
  8
SUNPOU
  6
CONTINUOUS
100
AcDbDimension
  2
*D7
 10
233.9235023938874
 20
175.1519938766072
 30
0.0
 11
236.3727023938874
 21
177.6519938766072
 31
0.0
 70
    32
  3
STANDARD
100
AcDbAlignedDimension
 13
238.8219023938874
 23
153.5223992147614
 33
0.0
 14
233.9235023938874
 24
153.5223992147614
 34
0.0
100
AcDbRotatedDimension
1001
ACAD
1000
DSTYLE
1002
{
1070
   140
1040
3.0
1070
    74
1070
     0
1070
   172
1070
     1
1070
    73
1070
     0
1070
   272
1070
     2
1070
    77
1070
     3
1070
   173
1070
     1
1070
   147
1040
1.0
1070
    42
1040
3.0
1070
    44
1040
1.5
1070
    43
1040
7.0
1070
   271
1070
     0
1070
   178
1070
     4
1070
   177
1070
     4
1070
   176
1070
     4
1070
   141
1040
150.0
1070
     7
1000
_OPEN
1070
     6
1000
_OPEN
1070
    41
1040
3.0
1002
}
  0
LINE
  5
976
330
1A
100
AcDbEntity
  8
SEIHIN
  6
CONTINUOUS
 62
     3
 48
8.0
100
AcDbLine
 10
238.8219023938874
 20
153.5223992147614
 30
0.0
 11
233.9235023938874
 21
153.5223992147614
 31
0.0
  0
LINE
  5
977
330
1A
100
AcDbEntity
  8
SEIHIN
  6
CONTINUOUS
 62
     3
 48
8.0
100
AcDbLine
 10
234.9056023938873
 20
152.3223992147615
 30
0.0
 11
237.6219023938873
 21
152.3223992147615
 31
0.0
  0
VIEWPORT
  5
22
330
17
100
AcDbEntity
 67
     1
  8
0
100
AcDbViewport
 10
313.6808219178082
 20
148.5
 30
0.0
 40
627.3616438356165
 41
297.0
 68
     2
 69
     1
1001
ACAD
1000
MVIEW
1002
{
1070
    16
1010
0.0
1020
0.0
1030
0.0
1010
0.0
1020
0.0
1030
1.0
1040
0.0
1040
297.0
1040
313.6808219178082
1040
148.5
1040
50.0
1040
0.0
1040
0.0
1070
     0
1070
   100
1070
     1
1070
     0
1070
     0
1070
     0
1070
     0
1070
     0
1040
0.0
1040
0.0
1040
0.0
1040
1.0
1040
1.0
1040
10.0
1040
10.0
1070
     0
1002
{
1002
}
1002
}
  0
VIEWPORT
  5
64
330
17
100
AcDbEntity
 67
     1
  8
VIEWPORT
100
AcDbViewport
 10
210.0
 20
148.5
 30
0.0
 40
420.0
 41
297.0
 68
     1
 69
     2
1001
ACAD
1000
MVIEW
1002
{
1070
    16
1010
0.0
1020
0.0
1030
0.0
1010
0.0
1020
0.0
1030
1.0
1040
0.0
1040
302.9399999999998
1040
210.0
1040
148.5
1040
50.0
1040
0.0
1040
0.0
1070
     0
1070
   100
1070
     1
1070
     0
1070
     0
1070
     0
1070
     0
1070
     0
1040
0.0
1040
0.0
1040
0.0
1040
5.0
1040
5.0
1040
0.0
1040
0.0
1070
     0
1002
{
1002
}
1002
}
  0
ENDSEC
  0
SECTION
  2
OBJECTS
  0
DICTIONARY
  5
C
330
0
100
AcDbDictionary
  3
ACAD_GROUP
350
D
  3
ACAD_LAYOUT
350
4B1
  3
ACAD_MLINESTYLE
350
E
  3
ACAD_PLOTSETTINGS
350
4B2
  3
ACAD_PLOTSTYLENAME
350
4AF
  3
ACDBHEADERROUNDTRIPXREC
350
A1E
  0
DICTIONARY
  5
520
330
1A
100
AcDbDictionary
280
     1
  3
ACAD_LAYOUTSELFREF
360
A40
  0
DICTIONARY
  5
51E
330
17
100
AcDbDictionary
280
     1
  3
ACAD_LAYOUTSELFREF
360
A3F
  0
DICTIONARY
  5
D
102
{ACAD_REACTORS
330
C
102
}
330
C
100
AcDbDictionary
  0
DICTIONARY
  5
4B1
102
{ACAD_REACTORS
330
C
102
}
330
C
100
AcDbDictionary
  0
DICTIONARY
  5
E
102
{ACAD_REACTORS
330
C
102
}
330
C
100
AcDbDictionary
  3
STANDARD
350
13
  0
DICTIONARY
  5
4B2
102
{ACAD_REACTORS
330
C
102
}
330
C
100
AcDbDictionary
  0
ACDBDICTIONARYWDFLT
  5
4AF
102
{ACAD_REACTORS
330
C
102
}
330
C
100
AcDbDictionary
281
     1
  3
Normal
350
4B0
100
AcDbDictionaryWithDefault
340
4B0
1001
ACAD
1000
TREAT_AS_HARD
1070
     0
1000
TREAT_AS_HARD
1070
     0
1000
TREAT_AS_HARD
1070
     0
  0
DICTIONARY
  5
A1E
102
{ACAD_REACTORS
330
C
102
}
330
C
100
AcDbDictionary
  3
TSTACKALIGN
350
A1F
  3
TSTACKSIZE
350
A20
  3
HYPERLINKBASE
350
A21
  3
STYLESHEET
350
A22
  3
LAYOUTDICT
350
A23
  3
PLOTSETDICT
350
A24
  3
PLOTSTYLNAMDICT
350
A25
  3
LWETCUNION
350
A26
  3
INSUNITS
350
A27
  3
CEPSNTYPE
350
A28
  3
FINGERPRINTGUID
350
A29
  3
VERSIONGUID
350
A2A
  3
PSVPSCALE
350
A2B
  3
DIMSTYLEDATA
350
A2C
  3
PUCSORTHOREF
350
A2D
  3
PUCSORTHOVIEW
350
A2E
  3
PUCSBASE
350
A2F
  3
PUCSORGTOP
350
A30
  3
PUCSORGBOTTOM
350
A31
  3
PUCSORGLEFT
350
A32
  3
PUCSORGRIGHT
350
A33
  3
PUCSORGFRONT
350
A34
  3
PUCSORGBACK
350
A35
  3
UCSORTHOREF
350
A36
  3
UCSORTHOVIEW
350
A37
  3
UCSBASE
350
A38
  3
UCSORGTOP
350
A39
  3
UCSORGBOTTOM
350
A3A
  3
UCSORGLEFT
350
A3B
  3
UCSORGRIGHT
350
A3C
  3
UCSORGFRONT
350
A3D
  3
UCSORGBACK
350
A3E
  0
XRECORD
  5
A40
102
{ACAD_REACTORS
330
520
102
}
330
520
100
AcDbXrecord
340
1A
  0
XRECORD
  5
A3F
102
{ACAD_REACTORS
330
51E
102
}
330
51E
100
AcDbXrecord
340
17
  0
MLINESTYLE
  5
13
102
{ACAD_REACTORS
330
E
102
}
330
E
100
AcDbMlineStyle
  2
STANDARD
 70
     0
  3

 62
     0
 51
90.0
 52
90.0
 71
     2
 49
0.5
 62
   256
  6
BYLAYER
 49
-0.5
 62
   256
  6
BYLAYER
  0
ACDBPLACEHOLDER
  5
4B0
102
{ACAD_REACTORS
330
4AF
102
}
330
4AF
100
AcDbPlaceHolder
280
     0
  0
XRECORD
  5
A1F
102
{ACAD_REACTORS
330
A1E
102
}
330
A1E
100
AcDbXrecord
 90
        1
  0
XRECORD
  5
A20
102
{ACAD_REACTORS
330
A1E
102
}
330
A1E
100
AcDbXrecord
 90
       70
  0
XRECORD
  5
A21
102
{ACAD_REACTORS
330
A1E
102
}
330
A1E
100
AcDbXrecord
  1

  0
XRECORD
  5
A22
102
{ACAD_REACTORS
330
A1E
102
}
330
A1E
100
AcDbXrecord
  1
systemprinter.ctb
  0
XRECORD
  5
A23
102
{ACAD_REACTORS
330
A1E
102
}
330
A1E
100
AcDbXrecord
340
4B1
  0
XRECORD
  5
A24
102
{ACAD_REACTORS
330
A1E
102
}
330
A1E
100
AcDbXrecord
340
4B2
  0
XRECORD
  5
A25
102
{ACAD_REACTORS
330
A1E
102
}
330
A1E
100
AcDbXrecord
340
4AF
  0
XRECORD
  5
A26
102
{ACAD_REACTORS
330
A1E
102
}
330
A1E
100
AcDbXrecord
 90
    10781
  0
XRECORD
  5
A27
102
{ACAD_REACTORS
330
A1E
102
}
330
A1E
100
AcDbXrecord
 90
        0
  0
XRECORD
  5
A28
102
{ACAD_REACTORS
330
A1E
102
}
330
A1E
100
AcDbXrecord
 90
        0
  0
XRECORD
  5
A29
102
{ACAD_REACTORS
330
A1E
102
}
330
A1E
100
AcDbXrecord
  1
{5A2975E0-A988-11D4-932C-0050DA99388B}
  0
XRECORD
  5
A2A
102
{ACAD_REACTORS
330
A1E
102
}
330
A1E
100
AcDbXrecord
  1
{CAA162CF-060F-4C75-938C-969FEA78F1C9}
  0
XRECORD
  5
A2B
102
{ACAD_REACTORS
330
A1E
102
}
330
A1E
100
AcDbXrecord
 40
0.0
  0
XRECORD
  5
A2C
102
{ACAD_REACTORS
330
A1E
102
}
330
A1E
100
AcDbXrecord
1000
DSTYLE
1002
{
1070
   341
340
B2
1070
   343
340
B2
1070
   344
340
B2
1070
   371
 70
    -1
1070
   372
 70
    -1
1002
}
  0
XRECORD
  5
A2D
102
{ACAD_REACTORS
330
A1E
102
}
330
A1E
100
AcDbXrecord
340
0
  0
XRECORD
  5
A2E
102
{ACAD_REACTORS
330
A1E
102
}
330
A1E
100
AcDbXrecord
 70
     0
  0
XRECORD
  5
A2F
102
{ACAD_REACTORS
330
A1E
102
}
330
A1E
100
AcDbXrecord
340
0
  0
XRECORD
  5
A30
102
{ACAD_REACTORS
330
A1E
102
}
330
A1E
100
AcDbXrecord
 10
0.0
 20
0.0
 30
0.0
  0
XRECORD
  5
A31
102
{ACAD_REACTORS
330
A1E
102
}
330
A1E
100
AcDbXrecord
 10
0.0
 20
0.0
 30
0.0
  0
XRECORD
  5
A32
102
{ACAD_REACTORS
330
A1E
102
}
330
A1E
100
AcDbXrecord
 10
0.0
 20
0.0
 30
0.0
  0
XRECORD
  5
A33
102
{ACAD_REACTORS
330
A1E
102
}
330
A1E
100
AcDbXrecord
 10
0.0
 20
0.0
 30
0.0
  0
XRECORD
  5
A34
102
{ACAD_REACTORS
330
A1E
102
}
330
A1E
100
AcDbXrecord
 10
0.0
 20
0.0
 30
0.0
  0
XRECORD
  5
A35
102
{ACAD_REACTORS
330
A1E
102
}
330
A1E
100
AcDbXrecord
 10
0.0
 20
0.0
 30
0.0
  0
XRECORD
  5
A36
102
{ACAD_REACTORS
330
A1E
102
}
330
A1E
100
AcDbXrecord
340
0
  0
XRECORD
  5
A37
102
{ACAD_REACTORS
330
A1E
102
}
330
A1E
100
AcDbXrecord
 70
     0
  0
XRECORD
  5
A38
102
{ACAD_REACTORS
330
A1E
102
}
330
A1E
100
AcDbXrecord
340
0
  0
XRECORD
  5
A39
102
{ACAD_REACTORS
330
A1E
102
}
330
A1E
100
AcDbXrecord
 10
0.0
 20
0.0
 30
0.0
  0
XRECORD
  5
A3A
102
{ACAD_REACTORS
330
A1E
102
}
330
A1E
100
AcDbXrecord
 10
0.0
 20
0.0
 30
0.0
  0
XRECORD
  5
A3B
102
{ACAD_REACTORS
330
A1E
102
}
330
A1E
100
AcDbXrecord
 10
0.0
 20
0.0
 30
0.0
  0
XRECORD
  5
A3C
102
{ACAD_REACTORS
330
A1E
102
}
330
A1E
100
AcDbXrecord
 10
0.0
 20
0.0
 30
0.0
  0
XRECORD
  5
A3D
102
{ACAD_REACTORS
330
A1E
102
}
330
A1E
100
AcDbXrecord
 10
0.0
 20
0.0
 30
0.0
  0
XRECORD
  5
A3E
102
{ACAD_REACTORS
330
A1E
102
}
330
A1E
100
AcDbXrecord
 10
0.0
 20
0.0
 30
0.0
  0
ENDSEC
  0
EOF
