  0
SECTION
  2
HEADER
  9
$ACADVER
  1
AC1014
  9
$ACADMAINTVER
 70
     9
  9
$DWGCODEPAGE
  3
ANSI_932
  9
$INSBASE
 10
0.0
 20
0.0
 30
0.0
  9
$EXTMIN
 10
-0.0128164049386896
 20
-0.0090630292066862
 30
-0.0015258207003583
  9
$EXTMAX
 10
398.8000497813338
 20
275.8226172440017
 30
0.0000000349246037
  9
$LIMMIN
 10
0.0
 20
0.0
  9
$LIMMAX
 10
420.0
 20
297.0
  9
$ORTHOMODE
 70
     0
  9
$REGENMODE
 70
     1
  9
$FILLMODE
 70
     1
  9
$QTEXTMODE
 70
     0
  9
$MIRRTEXT
 70
     1
  9
$DRAGMODE
 70
     2
  9
$LTSCALE
 40
1.0
  9
$OSMODE
 70
    37
  9
$ATTMODE
 70
     1
  9
$TEXTSIZE
 40
2.5
  9
$TRACEWID
 40
1.0
  9
$TEXTSTYLE
  7
STANDARD
  9
$CLAYER
  8
SEIHIN
  9
$CELTYPE
  6
BYLAYER
  9
$CECOLOR
 62
   256
  9
$CELTSCALE
 40
1.0
  9
$DELOBJ
 70
     1
  9
$DISPSILH
 70
     0
  9
$DIMSCALE
 40
1.0
  9
$DIMASZ
 40
3.0
  9
$DIMEXO
 40
3.0
  9
$DIMDLI
 40
7.0
  9
$DIMRND
 40
0.0
  9
$DIMDLE
 40
0.0
  9
$DIMEXE
 40
1.5
  9
$DIMTP
 40
0.0
  9
$DIMTM
 40
0.0
  9
$DIMTXT
 40
3.0
  9
$DIMCEN
 40
150.0
  9
$DIMTSZ
 40
0.0
  9
$DIMTOL
 70
     0
  9
$DIMLIM
 70
     0
  9
$DIMTIH
 70
     0
  9
$DIMTOH
 70
     0
  9
$DIMSE1
 70
     0
  9
$DIMSE2
 70
     0
  9
$DIMTAD
 70
     3
  9
$DIMZIN
 70
     0
  9
$DIMBLK
  1

  9
$DIMASO
 70
     1
  9
$DIMSHO
 70
     1
  9
$DIMPOST
  1

  9
$DIMAPOST
  1

  9
$DIMALT
 70
     0
  9
$DIMALTD
 70
     2
  9
$DIMALTF
 40
25.4
  9
$DIMLFAC
 40
1.0
  9
$DIMTOFL
 70
     1
  9
$DIMTVP
 40
0.0
  9
$DIMTIX
 70
     0
  9
$DIMSOXD
 70
     0
  9
$DIMSAH
 70
     1
  9
$DIMBLK1
  1
OPEN
  9
$DIMBLK2
  1
OPEN
  9
$DIMSTYLE
  2
STANDARD
  9
$DIMCLRD
 70
   256
  9
$DIMCLRE
 70
   256
  9
$DIMCLRT
 70
   256
  9
$DIMTFAC
 40
1.0
  9
$DIMGAP
 40
1.0
  9
$DIMJUST
 70
     0
  9
$DIMSD1
 70
     0
  9
$DIMSD2
 70
     0
  9
$DIMTOLJ
 70
     1
  9
$DIMTZIN
 70
     0
  9
$DIMALTZ
 70
     0
  9
$DIMALTTZ
 70
     0
  9
$DIMFIT
 70
     3
  9
$DIMUPT
 70
     1
  9
$DIMUNIT
 70
     2
  9
$DIMDEC
 70
     0
  9
$DIMTDEC
 70
     0
  9
$DIMALTU
 70
     2
  9
$DIMALTTD
 70
     2
  9
$DIMTXSTY
  7
STANDARD
  9
$DIMAUNIT
 70
     0
  9
$LUNITS
 70
     2
  9
$LUPREC
 70
     4
  9
$SKETCHINC
 40
1.0
  9
$FILLETRAD
 40
0.3
  9
$AUNITS
 70
     0
  9
$AUPREC
 70
     0
  9
$MENU
  1
.
  9
$ELEVATION
 40
0.0
  9
$PELEVATION
 40
0.0
  9
$THICKNESS
 40
0.0
  9
$LIMCHECK
 70
     0
  9
$BLIPMODE
 70
     0
  9
$CHAMFERA
 40
10.0
  9
$CHAMFERB
 40
10.0
  9
$CHAMFERC
 40
20.0
  9
$CHAMFERD
 40
0.0
  9
$SKPOLY
 70
     0
  9
$TDCREATE
 40
2451094.495386573
  9
$TDUPDATE
 40
2454484.376985613
  9
$TDINDWG
 40
0.0984628125
  9
$TDUSRTIMER
 40
0.0984628125
  9
$USRTIMER
 70
     1
  9
$ANGBASE
 50
0.0
  9
$ANGDIR
 70
     0
  9
$PDMODE
 70
     0
  9
$PDSIZE
 40
0.0
  9
$PLINEWID
 40
0.0
  9
$COORDS
 70
     1
  9
$SPLFRAME
 70
     0
  9
$SPLINETYPE
 70
     6
  9
$SPLINESEGS
 70
     8
  9
$ATTDIA
 70
     0
  9
$ATTREQ
 70
     1
  9
$HANDLING
 70
 10241
  9
$HANDSEED
  5
1075
  9
$SURFTAB1
 70
     6
  9
$SURFTAB2
 70
     6
  9
$SURFTYPE
 70
     6
  9
$SURFU
 70
     6
  9
$SURFV
 70
     6
  9
$UCSNAME
  2

  9
$UCSORG
 10
0.0
 20
0.0
 30
0.0
  9
$UCSXDIR
 10
1.0
 20
0.0
 30
0.0
  9
$UCSYDIR
 10
0.0
 20
1.0
 30
0.0
  9
$PUCSNAME
  2

  9
$PUCSORG
 10
0.0
 20
0.0
 30
0.0
  9
$PUCSXDIR
 10
1.0
 20
0.0
 30
0.0
  9
$PUCSYDIR
 10
0.0
 20
1.0
 30
0.0
  9
$USERI1
 70
     0
  9
$USERI2
 70
     0
  9
$USERI3
 70
     0
  9
$USERI4
 70
     0
  9
$USERI5
 70
     0
  9
$USERR1
 40
0.0
  9
$USERR2
 40
0.0
  9
$USERR3
 40
0.0
  9
$USERR4
 40
0.0
  9
$USERR5
 40
0.0
  9
$WORLDVIEW
 70
     1
  9
$SHADEDGE
 70
     3
  9
$SHADEDIF
 70
    70
  9
$TILEMODE
 70
     1
  9
$MAXACTVP
 70
    16
  9
$PINSBASE
 10
0.0
 20
0.0
 30
0.0
  9
$PLIMCHECK
 70
     0
  9
$PEXTMIN
 10
0.0
 20
0.0
 30
0.0
  9
$PEXTMAX
 10
420.0
 20
297.0
 30
0.0
  9
$PLIMMIN
 10
0.0
 20
0.0
  9
$PLIMMAX
 10
420.0
 20
297.0
  9
$UNITMODE
 70
     0
  9
$VISRETAIN
 70
     0
  9
$PLINEGEN
 70
     0
  9
$PSLTSCALE
 70
     1
  9
$TREEDEPTH
 70
  3020
  9
$PICKSTYLE
 70
     1
  9
$CMLSTYLE
  2
STANDARD
  9
$CMLJUST
 70
     0
  9
$CMLSCALE
 40
1.0
  9
$PROXYGRAPHICS
 70
     1
  9
$MEASUREMENT
 70
     1
  0
ENDSEC
  0
SECTION
  2
CLASSES
  0
CLASS
  1
ACDBDICTIONARYWDFLT
  2
AcDbDictionaryWithDefault
  3
AutoCAD 2000
 90
        0
280
     0
281
     0
  0
CLASS
  1
ACDBPLACEHOLDER
  2
AcDbPlaceHolder
  3
AutoCAD 2000
 90
        0
280
     0
281
     0
  0
CLASS
  1
LAYOUT
  2
AcDbLayout
  3
AutoCAD 2000
 90
        0
280
     0
281
     0
  0
CLASS
  1
LONG_TRANSACTION
  2
AcDbLongTransaction
  3
AutoCAD 2000
 90
        0
280
     0
281
     0
  0
CLASS
  1
LWPOLYLINE
  2
AcDbPolyline
  3
AutoCAD 2000
 90
        0
280
     0
281
     1
  0
CLASS
  1
HATCH
  2
AcDbHatch
  3
AutoCAD 2000
 90
        0
280
     0
281
     1
  0
CLASS
  1
XRECORD
  2
AcDbXrecord
  3
AutoCAD 2000
 90
        0
280
     0
281
     0
  0
CLASS
  1
LONG_TRANSACTION
  2
AcDbLongTransaction
  3
AutoCAD 2000
 90
        0
280
     0
281
     0
  0
CLASS
  1
LWPOLYLINE
  2
AcDbPolyline
  3
AutoCAD 2000
 90
        0
280
     0
281
     1
  0
CLASS
  1
HATCH
  2
AcDbHatch
  3
AutoCAD 2000
 90
        0
280
     0
281
     1
  0
CLASS
  1
XRECORD
  2
AcDbXrecord
  3
AutoCAD 2000
 90
        0
280
     0
281
     0
  0
CLASS
  1
LONG_TRANSACTION
  2
AcDbLongTransaction
  3
AutoCAD 2000
 90
        0
280
     0
281
     0
  0
CLASS
  1
LWPOLYLINE
  2
AcDbPolyline
  3
AutoCAD 2000
 90
        0
280
     0
281
     1
  0
CLASS
  1
HATCH
  2
AcDbHatch
  3
AutoCAD 2000
 90
        0
280
     0
281
     1
  0
CLASS
  1
XRECORD
  2
AcDbXrecord
  3
AutoCAD 2000
 90
        0
280
     0
281
     0
  0
CLASS
  1
LONG_TRANSACTION
  2
AcDbLongTransaction
  3
AutoCAD 2000
 90
        0
280
     0
281
     0
  0
CLASS
  1
LWPOLYLINE
  2
AcDbPolyline
  3
AutoCAD 2000
 90
        0
280
     0
281
     1
  0
CLASS
  1
HATCH
  2
AcDbHatch
  3
AutoCAD 2000
 90
        0
280
     0
281
     1
  0
CLASS
  1
XRECORD
  2
AcDbXrecord
  3
AutoCAD 2000
 90
        0
280
     0
281
     0
  0
CLASS
  1
LONG_TRANSACTION
  2
AcDbLongTransaction
  3
AutoCAD 2000
 90
        0
280
     0
281
     0
  0
CLASS
  1
LWPOLYLINE
  2
AcDbPolyline
  3
AutoCAD 2000
 90
        0
280
     0
281
     1
  0
CLASS
  1
HATCH
  2
AcDbHatch
  3
AutoCAD 2000
 90
        0
280
     0
281
     1
  0
CLASS
  1
XRECORD
  2
AcDbXrecord
  3
AutoCAD 2000
 90
        0
280
     0
281
     0
  0
CLASS
  1
LONG_TRANSACTION
  2
AcDbLongTransaction
  3
AutoCAD 2000
 90
        0
280
     0
281
     0
  0
CLASS
  1
LWPOLYLINE
  2
AcDbPolyline
  3
AutoCAD 2000
 90
        0
280
     0
281
     1
  0
CLASS
  1
HATCH
  2
AcDbHatch
  3
AutoCAD 2000
 90
        0
280
     0
281
     1
  0
CLASS
  1
XRECORD
  2
AcDbXrecord
  3
AutoCAD 2000
 90
        0
280
     0
281
     0
  0
ENDSEC
  0
SECTION
  2
TABLES
  0
TABLE
  2
VPORT
  5
8
330
0
100
AcDbSymbolTable
 70
     2
  0
VPORT
  5
103D
330
8
100
AcDbSymbolTableRecord
100
AcDbViewportTableRecord
  2
*ACTIVE
 70
     0
 10
0.0
 20
0.0
 11
1.0
 21
1.0
 12
212.0622017444471
 22
139.126891007293
 13
0.0
 23
0.0
 14
5.0
 24
5.0
 15
0.0
 25
0.0
 16
0.0
 26
0.0
 36
1.0
 17
0.0
 27
0.0
 37
0.0
 40
419.0702328505339
 41
1.57015306122449
 42
50.0
 43
0.0
 44
0.0
 50
0.0
 51
0.0
 71
     0
 72
   100
 73
     1
 74
     0
 75
     0
 76
     0
 77
     0
 78
     0
  0
ENDTAB
  0
TABLE
  2
LTYPE
  5
5
330
0
100
AcDbSymbolTable
 70
     2
  0
LTYPE
  5
14
330
5
100
AcDbSymbolTableRecord
100
AcDbLinetypeTableRecord
  2
BYBLOCK
 70
     0
  3

 72
    65
 73
     0
 40
0.0
  0
LTYPE
  5
15
330
5
100
AcDbSymbolTableRecord
100
AcDbLinetypeTableRecord
  2
BYLAYER
 70
     0
  3

 72
    65
 73
     0
 40
0.0
  0
LTYPE
  5
16
330
5
100
AcDbSymbolTableRecord
100
AcDbLinetypeTableRecord
  2
CONTINUOUS
 70
     0
  3
Solid line
 72
    65
 73
     0
 40
0.0
  0
LTYPE
  5
120
330
5
100
AcDbSymbolTableRecord
100
AcDbLinetypeTableRecord
  2
CENTER
 70
     0
  3
____ _ ____ _ ____ _ ____ _ ____ _ ____ _ ____ 
 72
    65
 73
     4
 40
2.0
 49
1.25
 74
     0
 49
-0.25
 74
     0
 49
0.25
 74
     0
 49
-0.25
 74
     0
  0
ENDTAB
  0
TABLE
  2
LAYER
  5
2
102
{ACAD_XDICTIONARY
360
FCE
102
}
330
0
100
AcDbSymbolTable
 70
     9
  0
LAYER
  5
F
330
2
100
AcDbSymbolTableRecord
100
AcDbLayerTableRecord
  2
0
 70
     0
 62
     7
  6
CONTINUOUS
  0
LAYER
  5
62
330
2
100
AcDbSymbolTableRecord
100
AcDbLayerTableRecord
  2
VIEWPORT
 70
     0
 62
     7
  6
CONTINUOUS
  0
LAYER
  5
6B
330
2
100
AcDbSymbolTableRecord
100
AcDbLayerTableRecord
  2
ZUWAKU
 70
     0
 62
     7
  6
CONTINUOUS
  0
LAYER
  5
134
330
2
100
AcDbSymbolTableRecord
100
AcDbLayerTableRecord
  2
SEIHIN
 70
     0
 62
     3
  6
CONTINUOUS
  0
LAYER
  5
207
330
2
100
AcDbSymbolTableRecord
100
AcDbLayerTableRecord
  2
CENTER_L
 70
     0
 62
     1
  6
CENTER
  0
LAYER
  5
208
330
2
100
AcDbSymbolTableRecord
100
AcDbLayerTableRecord
  2
SUNPOU
 70
     0
 62
     4
  6
CONTINUOUS
  0
LAYER
  5
20E
330
2
100
AcDbSymbolTableRecord
100
AcDbLayerTableRecord
  2
DEFPOINTS
 70
     0
 62
     7
  6
CONTINUOUS
  0
LAYER
  5
BC1
330
2
100
AcDbSymbolTableRecord
100
AcDbLayerTableRecord
  2
MOJI
 70
     0
 62
     2
  6
CONTINUOUS
  0
LAYER
  5
E7B
330
2
100
AcDbSymbolTableRecord
100
AcDbLayerTableRecord
  2
KEIJYO
 70
     0
 62
    -7
  6
CONTINUOUS
  0
ENDTAB
  0
TABLE
  2
STYLE
  5
3
330
0
100
AcDbSymbolTable
 70
     2
  0
STYLE
  5
10
330
3
100
AcDbSymbolTableRecord
100
AcDbTextStyleTableRecord
  2
STANDARD
 70
     0
 40
0.0
 41
1.0
 50
0.0
 71
     0
 42
2.5
  3
TXT
  4
bigfont.shx
  0
STYLE
  5
BC2
330
3
100
AcDbSymbolTableRecord
100
AcDbTextStyleTableRecord
  2
ｽﾀｲﾙ1
 70
     0
 40
0.0
 41
1.0
 50
0.0
 71
     0
 42
2.5
  3
MS PGothic.ttf
  4

1001
ACAD
1000
MS PGothic
1071
    32818
  0
ENDTAB
  0
TABLE
  2
VIEW
  5
6
330
0
100
AcDbSymbolTable
 70
     0
  0
ENDTAB
  0
TABLE
  2
UCS
  5
7
330
0
100
AcDbSymbolTable
 70
     0
  0
ENDTAB
  0
TABLE
  2
APPID
  5
9
330
0
100
AcDbSymbolTable
 70
     1
  0
APPID
  5
11
330
9
100
AcDbSymbolTableRecord
100
AcDbRegAppTableRecord
  2
ACAD
 70
     0
  0
ENDTAB
  0
TABLE
  2
DIMSTYLE
  5
A
330
0
100
AcDbSymbolTable
 70
     1
  0
DIMSTYLE
105
1D
102
{ACAD_REACTORS
330
878
330
8BE
330
8CB
330
8D8
330
8E5
330
8F2
330
8FF
330
90C
330
8A1
330
8AF
330
A2B
102
}
330
A
100
AcDbSymbolTableRecord
100
AcDbDimStyleTableRecord
  2
STANDARD
 70
     0
  3

  4

  5

  6

  7

 40
1.0
 41
0.18
 42
0.0625
 43
0.38
 44
0.18
 45
0.0
 46
0.0
 47
0.0
 48
0.0
140
0.18
141
0.09
142
0.0
143
25.4
144
1.0
145
0.0
146
1.0
147
0.09
 71
     0
 72
     0
 73
     1
 74
     1
 75
     0
 76
     0
 77
     0
 78
     0
170
     0
171
     2
172
     0
173
     0
174
     0
175
     0
176
     0
177
     0
178
     0
270
     2
271
     4
272
     4
273
     2
274
     2
340
10
275
     0
280
     0
281
     0
282
     0
283
     1
284
     0
285
     0
286
     0
287
     3
288
     0
  0
ENDTAB
  0
TABLE
  2
BLOCK_RECORD
  5
1
330
0
100
AcDbSymbolTable
 70
    15
  0
BLOCK_RECORD
  5
1A
102
{ACAD_XDICTIONARY
360
64B
102
}
330
1
100
AcDbSymbolTableRecord
100
AcDbBlockTableRecord
  2
*MODEL_SPACE
  0
BLOCK_RECORD
  5
17
102
{ACAD_XDICTIONARY
360
649
102
}
330
1
100
AcDbSymbolTableRecord
100
AcDbBlockTableRecord
  2
*PAPER_SPACE
  0
BLOCK_RECORD
  5
B2
330
1
100
AcDbSymbolTableRecord
100
AcDbBlockTableRecord
  2
_OPEN
  0
BLOCK_RECORD
  5
879
330
1
100
AcDbSymbolTableRecord
100
AcDbBlockTableRecord
  2
*D1
  0
BLOCK_RECORD
  5
8A2
330
1
100
AcDbSymbolTableRecord
100
AcDbBlockTableRecord
  2
*D4
  0
BLOCK_RECORD
  5
8B0
330
1
100
AcDbSymbolTableRecord
100
AcDbBlockTableRecord
  2
*D5
  0
BLOCK_RECORD
  5
8BF
330
1
100
AcDbSymbolTableRecord
100
AcDbBlockTableRecord
  2
*D6
  0
BLOCK_RECORD
  5
8CC
330
1
100
AcDbSymbolTableRecord
100
AcDbBlockTableRecord
  2
*D7
  0
BLOCK_RECORD
  5
8D9
330
1
100
AcDbSymbolTableRecord
100
AcDbBlockTableRecord
  2
*D8
  0
BLOCK_RECORD
  5
8E6
330
1
100
AcDbSymbolTableRecord
100
AcDbBlockTableRecord
  2
*D9
  0
BLOCK_RECORD
  5
8F3
330
1
100
AcDbSymbolTableRecord
100
AcDbBlockTableRecord
  2
*D10
  0
BLOCK_RECORD
  5
900
330
1
100
AcDbSymbolTableRecord
100
AcDbBlockTableRecord
  2
*D11
  0
BLOCK_RECORD
  5
90D
330
1
100
AcDbSymbolTableRecord
100
AcDbBlockTableRecord
  2
*D12
  0
BLOCK_RECORD
  5
A2C
330
1
100
AcDbSymbolTableRecord
100
AcDbBlockTableRecord
  2
*D13
  0
BLOCK_RECORD
  5
E42
330
1
100
AcDbSymbolTableRecord
100
AcDbBlockTableRecord
  2
CLUMP2
  0
ENDTAB
  0
ENDSEC
  0
SECTION
  2
BLOCKS
  0
BLOCK
  5
1B
330
1A
100
AcDbEntity
  8
0
100
AcDbBlockBegin
  2
*MODEL_SPACE
 70
     0
 10
0.0
 20
0.0
 30
0.0
  3
*MODEL_SPACE
  1

  0
ENDBLK
  5
1C
330
1A
100
AcDbEntity
  8
0
100
AcDbBlockEnd
  0
BLOCK
  5
18
330
17
100
AcDbEntity
 67
     1
  8
0
100
AcDbBlockBegin
  2
*PAPER_SPACE
 70
     0
 10
0.0
 20
0.0
 30
0.0
  3
*PAPER_SPACE
  1

  0
ENDBLK
  5
19
330
17
100
AcDbEntity
 67
     1
  8
0
100
AcDbBlockEnd
  0
BLOCK
  5
B3
330
B2
100
AcDbEntity
  8
0
100
AcDbBlockBegin
  2
_OPEN
 70
     0
 10
0.0
 20
0.0
 30
0.0
  3
_OPEN
  1

  0
LINE
  5
B4
330
B2
100
AcDbEntity
  8
0
  6
BYBLOCK
 62
     0
100
AcDbLine
 10
-1.0
 20
0.1666666666666666
 30
0.0
 11
0.0
 21
0.0
 31
0.0
  0
LINE
  5
B5
330
B2
100
AcDbEntity
  8
0
  6
BYBLOCK
 62
     0
100
AcDbLine
 10
0.0
 20
0.0
 30
0.0
 11
-1.0
 21
-0.1666666666666666
 31
0.0
  0
LINE
  5
B6
330
B2
100
AcDbEntity
  8
0
  6
BYBLOCK
 62
     0
100
AcDbLine
 10
0.0
 20
0.0
 30
0.0
 11
-1.0
 21
0.0
 31
0.0
  0
ENDBLK
  5
B7
330
B2
100
AcDbEntity
  8
0
100
AcDbBlockEnd
  0
BLOCK
  5
883
330
879
100
AcDbEntity
  8
0
100
AcDbBlockBegin
  2
*D1
 70
     1
 10
0.0
 20
0.0
 30
0.0
  3
*D1
  1

  0
LINE
  5
D10
330
879
100
AcDbEntity
  8
SUNPOU
100
AcDbLine
 10
127.413427625956
 20
199.1869052611748
 30
0.0
 11
127.413427625956
 21
232.4748875698678
 31
0.0
  0
LINE
  5
D11
330
879
100
AcDbEntity
  8
SUNPOU
100
AcDbLine
 10
289.1692800442048
 20
148.1869052611747
 30
0.0
 11
289.1692800442048
 21
232.4748875698678
 31
0.0
  0
LINE
  5
D12
330
879
100
AcDbEntity
  8
SUNPOU
100
AcDbLine
 10
130.413427625956
 20
230.9748875698678
 30
0.0
 11
286.1692800442048
 21
230.9748875698678
 31
0.0
  0
INSERT
  5
D13
330
879
100
AcDbEntity
  8
SUNPOU
100
AcDbBlockReference
  2
_OPEN
 10
127.413427625956
 20
230.9748875698678
 30
0.0
 41
3.0
 42
3.0
 43
3.0
 50
180.0
  0
INSERT
  5
D14
330
879
100
AcDbEntity
  8
SUNPOU
100
AcDbBlockReference
  2
_OPEN
 10
289.1692800442048
 20
230.9748875698678
 30
0.0
 41
3.0
 42
3.0
 43
3.0
  0
MTEXT
  5
D15
330
879
100
AcDbEntity
  8
SUNPOU
100
AcDbMText
 10
208.2885154155044
 20
233.4748875698678
 30
0.0
 40
3.0
 41
0.0
 71
     5
 72
     1
  1
\A1;162
1001
ACAD
1000
MTEXTBEGIN
1070
    73
1070
     1
1070
    44
1040
1.0
1070
    74
1070
     0
1000
MTEXTEND
  0
POINT
  5
D16
330
879
100
AcDbEntity
  8
DEFPOINTS
 62
     0
100
AcDbPoint
 10
127.413427625956
 20
196.1869052611748
 30
0.0
  0
POINT
  5
D17
330
879
100
AcDbEntity
  8
DEFPOINTS
 62
     0
100
AcDbPoint
 10
289.1692800442048
 20
145.1869052611747
 30
0.0
  0
POINT
  5
D18
330
879
100
AcDbEntity
  8
DEFPOINTS
 62
     0
100
AcDbPoint
 10
289.1692800442048
 20
230.9748875698678
 30
0.0
  0
ENDBLK
  5
884
330
879
100
AcDbEntity
  8
0
100
AcDbBlockEnd
  0
BLOCK
  5
8AD
330
8A2
100
AcDbEntity
  8
0
100
AcDbBlockBegin
  2
*D4
 70
     1
 10
0.0
 20
0.0
 30
0.0
  3
*D4
  1

  0
LINE
  5
1061
330
8A2
100
AcDbEntity
  8
SUNPOU
100
AcDbLine
 10
140.124475786944
 20
200.5764735232009
 30
0.0
 11
191.8813011684806
 21
200.5764735232009
 31
0.0
  0
LINE
  5
1062
330
8A2
100
AcDbEntity
  8
SUNPOU
100
AcDbLine
 10
160.7161404295709
 20
184.6869052611749
 30
0.0
 11
191.8813011684806
 21
184.6869052611749
 31
0.0
  0
LINE
  5
1063
330
8A2
100
AcDbEntity
  8
SUNPOU
100
AcDbLine
 10
190.3813011684806
 20
197.5764735232009
 30
0.0
 11
190.3813011684805
 21
187.6869052611749
 31
0.0
  0
MTEXT
  5
1064
330
8A2
100
AcDbEntity
  8
SUNPOU
100
AcDbMText
 10
187.4118256111467
 20
192.4681160871066
 30
0.0
 40
3.0
 41
0.0
 71
     5
 72
     1
  1
\A1;16
 11
0.0000000000000001
 21
1.0
 31
0.0
  0
INSERT
  5
1065
330
8A2
100
AcDbEntity
  8
SUNPOU
100
AcDbBlockReference
  2
_OPEN
 10
190.3813011684806
 20
200.5764735232009
 30
0.0
 41
3.0
 42
3.0
 43
3.0
 50
90.0
  0
INSERT
  5
1066
330
8A2
100
AcDbEntity
  8
SUNPOU
100
AcDbBlockReference
  2
_OPEN
 10
190.3813011684805
 20
184.6869052611749
 30
0.0
 41
3.0
 42
3.0
 43
3.0
 50
270.0
  0
POINT
  5
1067
330
8A2
100
AcDbEntity
  8
DEFPOINTS
 62
     0
100
AcDbPoint
 10
137.124475786944
 20
200.5764735232009
 30
0.0
  0
POINT
  5
1068
330
8A2
100
AcDbEntity
  8
DEFPOINTS
 62
     0
100
AcDbPoint
 10
157.7161404295709
 20
184.6869052611749
 30
0.0
  0
POINT
  5
1069
330
8A2
100
AcDbEntity
  8
DEFPOINTS
 62
     0
100
AcDbPoint
 10
190.3813011684805
 20
184.6869052611749
 30
0.0
  0
ENDBLK
  5
8AE
330
8A2
100
AcDbEntity
  8
0
100
AcDbBlockEnd
  0
BLOCK
  5
8BC
330
8B0
100
AcDbEntity
  8
0
100
AcDbBlockBegin
  2
*D5
 70
     1
 10
0.0
 20
0.0
 30
0.0
  3
*D5
  1

  0
LINE
  5
106A
330
8B0
100
AcDbEntity
  8
SUNPOU
100
AcDbLine
 10
134.1244757869438
 20
200.5764735232009
 30
0.0
 11
103.2149098702457
 21
200.5764735232009
 31
0.0
  0
LINE
  5
106B
330
8B0
100
AcDbEntity
  8
SUNPOU
100
AcDbLine
 10
125.288427625956
 20
191.1904286450711
 30
0.0
 11
103.2149098702457
 21
191.1904286450711
 31
0.0
  0
LINE
  5
106C
330
8B0
100
AcDbEntity
  8
SUNPOU
100
AcDbLine
 10
104.7149098702457
 20
203.5764735232009
 30
0.0
 11
104.7149098702457
 21
206.5764735232009
 31
0.0
  0
LINE
  5
106D
330
8B0
100
AcDbEntity
  8
SUNPOU
100
AcDbLine
 10
104.7149098702457
 20
188.1904286450711
 30
0.0
 11
104.7149098702457
 21
185.1904286450711
 31
0.0
  0
MTEXT
  5
106E
330
8B0
100
AcDbEntity
  8
SUNPOU
100
AcDbMText
 10
102.2688346556156
 20
196.0539405679319
 30
0.0
 40
3.0
 41
0.0
 71
     5
 72
     1
  1
\A1;9
 11
0.0000000000000001
 21
1.0
 31
0.0
  0
LINE
  5
106F
330
8B0
100
AcDbEntity
  8
SUNPOU
100
AcDbLine
 10
104.7149098702457
 20
200.5764735232009
 30
0.0
 11
104.7149098702457
 21
191.1904286450711
 31
0.0
  0
INSERT
  5
1070
330
8B0
100
AcDbEntity
  8
SUNPOU
100
AcDbBlockReference
  2
_OPEN
 10
104.7149098702457
 20
200.5764735232009
 30
0.0
 41
3.0
 42
3.0
 43
3.0
 50
270.0
  0
INSERT
  5
1071
330
8B0
100
AcDbEntity
  8
SUNPOU
100
AcDbBlockReference
  2
_OPEN
 10
104.7149098702457
 20
191.1904286450711
 30
0.0
 41
3.0
 42
3.0
 43
3.0
 50
90.0
  0
POINT
  5
1072
330
8B0
100
AcDbEntity
  8
DEFPOINTS
 62
     0
100
AcDbPoint
 10
137.1244757869438
 20
200.5764735232009
 30
0.0
  0
POINT
  5
1073
330
8B0
100
AcDbEntity
  8
DEFPOINTS
 62
     0
100
AcDbPoint
 10
128.288427625956
 20
191.1904286450711
 30
0.0
  0
POINT
  5
1074
330
8B0
100
AcDbEntity
  8
DEFPOINTS
 62
     0
100
AcDbPoint
 10
104.7149098702457
 20
191.1904286450711
 30
0.0
  0
ENDBLK
  5
8BD
330
8B0
100
AcDbEntity
  8
0
100
AcDbBlockEnd
  0
BLOCK
  5
8C9
330
8BF
100
AcDbEntity
  8
0
100
AcDbBlockBegin
  2
*D6
 70
     1
 10
0.0
 20
0.0
 30
0.0
  3
*D6
  1

  0
LINE
  5
101A
330
8BF
100
AcDbEntity
  8
SUNPOU
100
AcDbLine
 10
134.1244757869438
 20
200.5764735232009
 30
0.0
 11
94.06411657733867
 21
200.5764735232009
 31
0.0
  0
LINE
  5
101B
330
8BF
100
AcDbEntity
  8
SUNPOU
100
AcDbLine
 10
168.4134276259559
 20
88.18690526117487
 30
0.0
 11
94.06411657733864
 21
88.18690526117491
 31
0.0
  0
LINE
  5
101C
330
8BF
100
AcDbEntity
  8
SUNPOU
100
AcDbLine
 10
95.56411657733866
 20
197.5764735232009
 30
0.0
 11
95.56411657733864
 21
91.18690526117489
 31
0.0
  0
INSERT
  5
101D
330
8BF
100
AcDbEntity
  8
SUNPOU
100
AcDbBlockReference
  2
_OPEN
 10
95.56411657733866
 20
200.5764735232009
 30
0.0
 41
3.0
 42
3.0
 43
3.0
 50
90.0
  0
INSERT
  5
101E
330
8BF
100
AcDbEntity
  8
SUNPOU
100
AcDbBlockReference
  2
_OPEN
 10
95.56411657733864
 20
88.18690526117491
 30
0.0
 41
3.0
 42
3.0
 43
3.0
 50
270.0
  0
MTEXT
  5
101F
330
8BF
100
AcDbEntity
  8
SUNPOU
100
AcDbMText
 10
93.06411657733864
 20
144.3816893921879
 30
0.0
 40
3.0
 41
0.0
 71
     5
 72
     1
  1
\A1;112
 11
0.0000000000000001
 21
1.0
 31
0.0
1001
ACAD
1000
MTEXTBEGIN
1070
    73
1070
     1
1070
    44
1040
1.0
1070
    74
1070
     0
1000
MTEXTEND
  0
POINT
  5
1020
330
8BF
100
AcDbEntity
  8
DEFPOINTS
 62
     0
100
AcDbPoint
 10
137.1244757869438
 20
200.5764735232009
 30
0.0
  0
POINT
  5
1021
330
8BF
100
AcDbEntity
  8
DEFPOINTS
 62
     0
100
AcDbPoint
 10
171.4134276259559
 20
88.18690526117487
 30
0.0
  0
POINT
  5
1022
330
8BF
100
AcDbEntity
  8
DEFPOINTS
 62
     0
100
AcDbPoint
 10
95.56411657733864
 20
88.18690526117491
 30
0.0
  0
ENDBLK
  5
8CA
330
8BF
100
AcDbEntity
  8
0
100
AcDbBlockEnd
  0
BLOCK
  5
8D6
330
8CC
100
AcDbEntity
  8
0
100
AcDbBlockBegin
  2
*D7
 70
     1
 10
0.0
 20
0.0
 30
0.0
  3
*D7
  1

  0
LINE
  5
1023
330
8CC
100
AcDbEntity
  8
SUNPOU
100
AcDbLine
 10
134.124475786944
 20
200.5764735232009
 30
0.0
 11
84.83161206754358
 21
200.5764735232009
 31
0.0
  0
LINE
  5
1024
330
8CC
100
AcDbEntity
  8
SUNPOU
100
AcDbLine
 10
234.9134276259584
 20
65.18690526117507
 30
0.0
 11
84.83161206754356
 21
65.18690526117513
 31
0.0
  0
LINE
  5
1025
330
8CC
100
AcDbEntity
  8
SUNPOU
100
AcDbLine
 10
86.33161206754358
 20
197.5764735232009
 30
0.0
 11
86.33161206754357
 21
68.18690526117513
 31
0.0
  0
INSERT
  5
1026
330
8CC
100
AcDbEntity
  8
SUNPOU
100
AcDbBlockReference
  2
_OPEN
 10
86.33161206754358
 20
200.5764735232009
 30
0.0
 41
3.0
 42
3.0
 43
3.0
 50
90.0
  0
INSERT
  5
1027
330
8CC
100
AcDbEntity
  8
SUNPOU
100
AcDbBlockReference
  2
_OPEN
 10
86.33161206754357
 20
65.18690526117513
 30
0.0
 41
3.0
 42
3.0
 43
3.0
 50
270.0
  0
MTEXT
  5
1028
330
8CC
100
AcDbEntity
  8
SUNPOU
100
AcDbMText
 10
83.83161206754357
 20
132.8816893921879
 30
0.0
 40
3.0
 41
0.0
 71
     5
 72
     1
  1
\A1;135
 11
0.0000000000000001
 21
1.0
 31
0.0
1001
ACAD
1000
MTEXTBEGIN
1070
    73
1070
     1
1070
    44
1040
1.0
1070
    74
1070
     0
1000
MTEXTEND
  0
POINT
  5
1029
330
8CC
100
AcDbEntity
  8
DEFPOINTS
 62
     0
100
AcDbPoint
 10
137.124475786944
 20
200.5764735232009
 30
0.0
  0
POINT
  5
102A
330
8CC
100
AcDbEntity
  8
DEFPOINTS
 62
     0
100
AcDbPoint
 10
237.9134276259584
 20
65.18690526117507
 30
0.0
  0
POINT
  5
102B
330
8CC
100
AcDbEntity
  8
DEFPOINTS
 62
     0
100
AcDbPoint
 10
86.33161206754357
 20
65.18690526117513
 30
0.0
  0
ENDBLK
  5
8D7
330
8CC
100
AcDbEntity
  8
0
100
AcDbBlockEnd
  0
BLOCK
  5
8E3
330
8D9
100
AcDbEntity
  8
0
100
AcDbBlockBegin
  2
*D8
 70
     1
 10
0.0
 20
0.0
 30
0.0
  3
*D8
  1

  0
LINE
  5
D22
330
8D9
100
AcDbEntity
  8
SUNPOU
100
AcDbLine
 10
171.4134276259559
 20
85.18690526117486
 30
0.0
 11
171.4134276259559
 21
40.03076024122299
 31
0.0
  0
LINE
  5
D23
330
8D9
100
AcDbEntity
  8
SUNPOU
100
AcDbLine
 10
190.4137425629845
 20
63.31565233669619
 30
0.0
 11
190.4137425629845
 21
40.03076024122299
 31
0.0
  0
LINE
  5
D24
330
8D9
100
AcDbEntity
  8
SUNPOU
100
AcDbLine
 10
174.4134276259559
 20
41.53076024122299
 30
0.0
 11
187.4137425629845
 21
41.53076024122299
 31
0.0
  0
INSERT
  5
D25
330
8D9
100
AcDbEntity
  8
SUNPOU
100
AcDbBlockReference
  2
_OPEN
 10
171.4134276259559
 20
41.53076024122299
 30
0.0
 41
3.0
 42
3.0
 43
3.0
 50
180.0
  0
INSERT
  5
D26
330
8D9
100
AcDbEntity
  8
SUNPOU
100
AcDbBlockReference
  2
_OPEN
 10
190.4137425629845
 20
41.53076024122299
 30
0.0
 41
3.0
 42
3.0
 43
3.0
  0
MTEXT
  5
D27
330
8D9
100
AcDbEntity
  8
SUNPOU
100
AcDbMText
 10
180.9135850944702
 20
44.03076024122299
 30
0.0
 40
3.0
 41
0.0
 71
     5
 72
     1
  1
\A1;19
1001
ACAD
1000
MTEXTBEGIN
1070
    73
1070
     1
1070
    44
1040
1.0
1070
    74
1070
     0
1000
MTEXTEND
  0
POINT
  5
D28
330
8D9
100
AcDbEntity
  8
DEFPOINTS
 62
     0
100
AcDbPoint
 10
171.4134276259559
 20
88.18690526117487
 30
0.0
  0
POINT
  5
D29
330
8D9
100
AcDbEntity
  8
DEFPOINTS
 62
     0
100
AcDbPoint
 10
190.4137425629845
 20
66.31565233669618
 30
0.0
  0
POINT
  5
D2A
330
8D9
100
AcDbEntity
  8
DEFPOINTS
 62
     0
100
AcDbPoint
 10
190.4137425629845
 20
41.53076024122299
 30
0.0
  0
ENDBLK
  5
8E4
330
8D9
100
AcDbEntity
  8
0
100
AcDbBlockEnd
  0
BLOCK
  5
8F0
330
8E6
100
AcDbEntity
  8
0
100
AcDbBlockBegin
  2
*D9
 70
     1
 10
0.0
 20
0.0
 30
0.0
  3
*D9
  1

  0
LINE
  5
CFE
330
8E6
100
AcDbEntity
  8
SUNPOU
100
AcDbLine
 10
285.4133684504642
 20
63.31566449904937
 30
0.0
 11
285.4133684504642
 21
40.03076024122299
 31
0.0
  0
LINE
  5
CFF
330
8E6
100
AcDbEntity
  8
SUNPOU
100
AcDbLine
 10
190.4137425629845
 20
63.31565233669619
 30
0.0
 11
190.4137425629845
 21
40.03076024122299
 31
0.0
  0
LINE
  5
D00
330
8E6
100
AcDbEntity
  8
SUNPOU
100
AcDbLine
 10
282.4133684504642
 20
41.53076024122299
 30
0.0
 11
193.4137425629845
 21
41.53076024122299
 31
0.0
  0
INSERT
  5
D01
330
8E6
100
AcDbEntity
  8
SUNPOU
100
AcDbBlockReference
  2
_OPEN
 10
285.4133684504642
 20
41.53076024122299
 30
0.0
 41
3.0
 42
3.0
 43
3.0
  0
INSERT
  5
D02
330
8E6
100
AcDbEntity
  8
SUNPOU
100
AcDbBlockReference
  2
_OPEN
 10
190.4137425629845
 20
41.53076024122299
 30
0.0
 41
3.0
 42
3.0
 43
3.0
 50
180.0
  0
MTEXT
  5
D03
330
8E6
100
AcDbEntity
  8
SUNPOU
100
AcDbMText
 10
237.9135555067243
 20
44.03076024122299
 30
0.0
 40
3.0
 41
0.0
 71
     5
 72
     1
  1
\A1;95
1001
ACAD
1000
MTEXTBEGIN
1070
    73
1070
     1
1070
    44
1040
1.0
1070
    74
1070
     0
1000
MTEXTEND
  0
POINT
  5
D04
330
8E6
100
AcDbEntity
  8
DEFPOINTS
 62
     0
100
AcDbPoint
 10
285.4133684504642
 20
66.31566449904937
 30
0.0
  0
POINT
  5
D05
330
8E6
100
AcDbEntity
  8
DEFPOINTS
 62
     0
100
AcDbPoint
 10
190.4137425629845
 20
66.31565233669618
 30
0.0
  0
POINT
  5
D06
330
8E6
100
AcDbEntity
  8
DEFPOINTS
 62
     0
100
AcDbPoint
 10
190.4137425629845
 20
41.53076024122299
 30
0.0
  0
ENDBLK
  5
8F1
330
8E6
100
AcDbEntity
  8
0
100
AcDbBlockEnd
  0
BLOCK
  5
8FD
330
8F3
100
AcDbEntity
  8
0
100
AcDbBlockBegin
  2
*D10
 70
     1
 10
0.0
 20
0.0
 30
0.0
  3
*D10
  1

  0
LINE
  5
D66
330
8F3
100
AcDbEntity
  8
SUNPOU
100
AcDbLine
 10
289.1636032050528
 20
147.9487117158857
 30
0.0
 11
289.1636032050528
 21
175.9809312258529
 31
0.0
  0
LINE
  5
D67
330
8F3
100
AcDbEntity
  8
SUNPOU
100
AcDbLine
 10
274.2580962537921
 20
133.7266708924468
 30
0.0
 11
274.2580962537921
 21
175.9809312258529
 31
0.0
  0
LINE
  5
D68
330
8F3
100
AcDbEntity
  8
SUNPOU
100
AcDbLine
 10
286.1636032050528
 20
174.4809312258529
 30
0.0
 11
277.2580962537921
 21
174.4809312258529
 31
0.0
  0
INSERT
  5
D69
330
8F3
100
AcDbEntity
  8
SUNPOU
100
AcDbBlockReference
  2
_OPEN
 10
289.1636032050528
 20
174.4809312258529
 30
0.0
 41
3.0
 42
3.0
 43
3.0
  0
INSERT
  5
D6A
330
8F3
100
AcDbEntity
  8
SUNPOU
100
AcDbBlockReference
  2
_OPEN
 10
274.2580962537921
 20
174.4809312258529
 30
0.0
 41
3.0
 42
3.0
 43
3.0
 50
180.0
  0
MTEXT
  5
D6B
330
8F3
100
AcDbEntity
  8
SUNPOU
100
AcDbMText
 10
281.7108497294224
 20
176.9809312258529
 30
0.0
 40
3.0
 41
0.0
 71
     5
 72
     1
  1
\A1;15
1001
ACAD
1000
MTEXTBEGIN
1070
    73
1070
     1
1070
    44
1040
1.0
1070
    74
1070
     0
1000
MTEXTEND
  0
POINT
  5
D6C
330
8F3
100
AcDbEntity
  8
DEFPOINTS
 62
     0
100
AcDbPoint
 10
289.1636032050528
 20
144.9487117158857
 30
0.0
  0
POINT
  5
D6D
330
8F3
100
AcDbEntity
  8
DEFPOINTS
 62
     0
100
AcDbPoint
 10
274.2580962537921
 20
130.7266708924468
 30
0.0
  0
POINT
  5
D6E
330
8F3
100
AcDbEntity
  8
DEFPOINTS
 62
     0
100
AcDbPoint
 10
274.2580962537921
 20
174.4809312258529
 30
0.0
  0
ENDBLK
  5
8FE
330
8F3
100
AcDbEntity
  8
0
100
AcDbBlockEnd
  0
BLOCK
  5
90A
330
900
100
AcDbEntity
  8
0
100
AcDbBlockBegin
  2
*D11
 70
     1
 10
0.0
 20
0.0
 30
0.0
  3
*D11
  1

  0
LINE
  5
D5D
330
900
100
AcDbEntity
  8
SUNPOU
100
AcDbLine
 10
279.4134276259561
 20
150.1869052611748
 30
0.0
 11
244.0749128139587
 21
150.1869052611748
 31
0.0
  0
LINE
  5
D5E
330
900
100
AcDbEntity
  8
SUNPOU
100
AcDbLine
 10
271.7580962537921
 20
130.2266708924467
 30
0.0
 11
244.0749128139587
 21
130.2266708924467
 31
0.0
  0
LINE
  5
D5F
330
900
100
AcDbEntity
  8
SUNPOU
100
AcDbLine
 10
245.5749128139587
 20
147.1869052611748
 30
0.0
 11
245.5749128139587
 21
133.2266708924467
 31
0.0
  0
INSERT
  5
D60
330
900
100
AcDbEntity
  8
SUNPOU
100
AcDbBlockReference
  2
_OPEN
 10
245.5749128139587
 20
150.1869052611748
 30
0.0
 41
3.0
 42
3.0
 43
3.0
 50
90.0
  0
INSERT
  5
D61
330
900
100
AcDbEntity
  8
SUNPOU
100
AcDbBlockReference
  2
_OPEN
 10
245.5749128139587
 20
130.2266708924467
 30
0.0
 41
3.0
 42
3.0
 43
3.0
 50
270.0
  0
MTEXT
  5
D62
330
900
100
AcDbEntity
  8
SUNPOU
100
AcDbMText
 10
243.0749128139586
 20
140.2067880768108
 30
0.0
 40
3.0
 41
0.0
 71
     5
 72
     1
  1
\A1;20
 11
0.0000000000000001
 21
1.0
 31
0.0
1001
ACAD
1000
MTEXTBEGIN
1070
    73
1070
     1
1070
    44
1040
1.0
1070
    74
1070
     0
1000
MTEXTEND
  0
POINT
  5
D63
330
900
100
AcDbEntity
  8
DEFPOINTS
 62
     0
100
AcDbPoint
 10
282.4134276259561
 20
150.1869052611748
 30
0.0
  0
POINT
  5
D64
330
900
100
AcDbEntity
  8
DEFPOINTS
 62
     0
100
AcDbPoint
 10
274.7580962537921
 20
130.2266708924467
 30
0.0
  0
POINT
  5
D65
330
900
100
AcDbEntity
  8
DEFPOINTS
 62
     0
100
AcDbPoint
 10
245.5749128139587
 20
130.2266708924467
 30
0.0
  0
ENDBLK
  5
90B
330
900
100
AcDbEntity
  8
0
100
AcDbBlockEnd
  0
BLOCK
  5
917
330
90D
100
AcDbEntity
  8
0
100
AcDbBlockBegin
  2
*D12
 70
     1
 10
0.0
 20
0.0
 30
0.0
  3
*D12
  1

  0
LINE
  5
D54
330
90D
100
AcDbEntity
  8
SUNPOU
100
AcDbLine
 10
285.4134276259561
 20
150.1869052611748
 30
0.0
 11
315.9594051339018
 21
150.1869052611748
 31
0.0
  0
LINE
  5
D55
330
90D
100
AcDbEntity
  8
SUNPOU
100
AcDbLine
 10
240.9134276259584
 20
65.18690526117507
 30
0.0
 11
315.9594051339017
 21
65.18690526117506
 31
0.0
  0
LINE
  5
D56
330
90D
100
AcDbEntity
  8
SUNPOU
100
AcDbLine
 10
314.4594051339018
 20
147.1869052611748
 30
0.0
 11
314.4594051339018
 21
68.18690526117506
 31
0.0
  0
INSERT
  5
D57
330
90D
100
AcDbEntity
  8
SUNPOU
100
AcDbBlockReference
  2
_OPEN
 10
314.4594051339018
 20
150.1869052611748
 30
0.0
 41
3.0
 42
3.0
 43
3.0
 50
90.0
  0
INSERT
  5
D58
330
90D
100
AcDbEntity
  8
SUNPOU
100
AcDbBlockReference
  2
_OPEN
 10
314.4594051339018
 20
65.18690526117506
 30
0.0
 41
3.0
 42
3.0
 43
3.0
 50
270.0
  0
MTEXT
  5
D59
330
90D
100
AcDbEntity
  8
SUNPOU
100
AcDbMText
 10
311.9594051339017
 20
107.6869052611748
 30
0.0
 40
3.0
 41
0.0
 71
     5
 72
     1
  1
\A1;85
 11
0.0000000000000001
 21
1.0
 31
0.0
1001
ACAD
1000
MTEXTBEGIN
1070
    73
1070
     1
1070
    44
1040
1.0
1070
    74
1070
     0
1000
MTEXTEND
  0
POINT
  5
D5A
330
90D
100
AcDbEntity
  8
DEFPOINTS
 62
     0
100
AcDbPoint
 10
282.4134276259561
 20
150.1869052611748
 30
0.0
  0
POINT
  5
D5B
330
90D
100
AcDbEntity
  8
DEFPOINTS
 62
     0
100
AcDbPoint
 10
237.9134276259584
 20
65.18690526117507
 30
0.0
  0
POINT
  5
D5C
330
90D
100
AcDbEntity
  8
DEFPOINTS
 62
     0
100
AcDbPoint
 10
314.4594051339018
 20
65.18690526117506
 30
0.0
  0
ENDBLK
  5
918
330
90D
100
AcDbEntity
  8
0
100
AcDbBlockEnd
  0
BLOCK
  5
A38
330
A2C
100
AcDbEntity
  8
0
100
AcDbBlockBegin
  2
*D13
 70
     1
 10
0.0
 20
0.0
 30
0.0
  3
*D13
  1

  0
LINE
  5
D6F
330
A2C
100
AcDbEntity
  8
SUNPOU
100
AcDbLine
 10
286.0352796400476
 20
109.7930200485466
 30
0.0
 11
286.3948665177732
 21
117.3326579072556
 31
0.0
  0
LINE
  5
D70
330
A2C
100
AcDbEntity
  8
SUNPOU
100
AcDbLine
 10
287.4836333566936
 20
109.7239439204128
 30
0.0
 11
287.8432202344192
 21
117.2635817791217
 31
0.0
  0
LINE
  5
D71
330
A2C
100
AcDbEntity
  8
SUNPOU
100
AcDbLine
 10
283.3268145576777
 20
115.9772770861747
 30
0.0
 11
280.3302206611689
 21
116.1201932133481
 31
0.0
  0
LINE
  5
D72
330
A2C
100
AcDbEntity
  8
SUNPOU
100
AcDbLine
 10
290.7683560673413
 20
115.6223687036939
 30
0.0
 11
303.753596285546
 21
115.0030654859422
 31
0.0
  0
LINE
  5
D73
330
A2C
100
AcDbEntity
  8
SUNPOU
100
AcDbLine
 10
286.3234084541864
 20
115.8343609590012
 30
0.0
 11
287.7717621708325
 21
115.7652848308674
 31
0.0
  0
INSERT
  5
D74
330
A2C
100
AcDbEntity
  8
SUNPOU
100
AcDbBlockReference
  2
_OPEN
 10
286.3234084541864
 20
115.8343609590012
 30
0.0
 41
3.0
 42
3.0
 43
3.0
 50
357.2694695658242
  0
INSERT
  5
D75
330
A2C
100
AcDbEntity
  8
SUNPOU
100
AcDbBlockReference
  2
_OPEN
 10
287.7717621708325
 20
115.7652848308674
 30
0.0
 41
3.0
 42
3.0
 43
3.0
 50
177.2694695658242
  0
MTEXT
  5
D76
330
A2C
100
AcDbEntity
  8
SUNPOU
100
AcDbMText
 10
298.8783698973426
 20
117.7384206116553
 30
0.0
 40
3.0
 41
0.0
 71
     5
 72
     1
  1
\A1;t1.5
 11
0.998864632169597
 21
-0.0476387090578207
 31
0.0
1001
ACAD
1000
MTEXTBEGIN
1070
    73
1070
     1
1070
    44
1040
1.0
1070
    74
1070
     0
1000
MTEXTEND
  0
POINT
  5
D77
330
A2C
100
AcDbEntity
  8
DEFPOINTS
 62
     0
100
AcDbPoint
 10
285.8923635128742
 20
106.7964261520378
 30
0.0
  0
POINT
  5
D78
330
A2C
100
AcDbEntity
  8
DEFPOINTS
 62
     0
100
AcDbPoint
 10
287.3407172295202
 20
106.727350023904
 30
0.0
  0
POINT
  5
D79
330
A2C
100
AcDbEntity
  8
DEFPOINTS
 62
     0
100
AcDbPoint
 10
287.7717621708325
 20
115.7652848308674
 30
0.0
  0
ENDBLK
  5
A39
330
A2C
100
AcDbEntity
  8
0
100
AcDbBlockEnd
  0
BLOCK
  5
E45
330
E42
100
AcDbEntity
  8
0
100
AcDbBlockBegin
  2
CLUMP2
 70
     0
 10
0.0
 20
0.0
 30
0.0
  3
CLUMP2
  1

  0
LINE
  5
E43
330
E42
100
AcDbEntity
  8
KEIJYO
100
AcDbLine
 10
279.4130086931
 20
177.7139147656999
 30
0.0
 11
279.4143720519
 21
177.7128412631
 31
0.0
  0
LINE
  5
E44
330
E42
100
AcDbEntity
  8
KEIJYO
100
AcDbLine
 10
279.4143720519
 20
177.7128412631
 30
0.0
 11
279.4149239915
 21
177.7109553654999
 31
0.0
  0
ENDBLK
  5
E46
330
E42
100
AcDbEntity
  8
0
100
AcDbBlockEnd
  0
ENDSEC
  0
SECTION
  2
ENTITIES
  0
ARC
  5
1A0
330
1A
100
AcDbEntity
  8
SEIHIN
 62
     3
 48
5.0
100
AcDbCircle
 10
237.9134276259582
 20
1065.186905261175
 30
0.0
 40
1000.0
100
AcDbArc
 50
267.4079512493355
 51
272.4608848439002
  0
ARC
  5
1A1
330
1A
100
AcDbEntity
  8
SEIHIN
 62
     3
 48
5.0
100
AcDbCircle
 10
237.9134276259547
 20
1065.186905261171
 30
0.0
 40
998.5499999999968
100
AcDbArc
 50
267.4079512493357
 51
272.4608848439004
  0
ARC
  5
1B0
330
1A
100
AcDbEntity
  8
SEIHIN
 62
     3
 48
5.0
100
AcDbCircle
 10
402.7691495116959
 20
227.3793258548554
 30
0.0
 40
269.8499999999997
100
AcDbArc
 50
186.4623226967913
 51
210.8898984615994
  0
ARC
  5
1B1
330
1A
100
AcDbEntity
  8
SEIHIN
 62
     3
 48
5.0
100
AcDbCircle
 10
402.7691495116962
 20
227.379325854855
 30
0.0
 40
268.3999999999999
100
AcDbArc
 50
193.6615652934893
 51
209.4397501856001
  0
LINE
  5
1B8
330
1A
100
AcDbEntity
  8
SEIHIN
 62
     3
 48
5.0
100
AcDbLine
 10
184.5256078011995
 20
90.35592851626585
 30
0.0
 11
190.0539435977112
 21
68.36236593914311
 31
0.0
  0
LINE
  5
1B9
330
1A
100
AcDbEntity
  8
SEIHIN
 62
     3
 48
5.0
100
AcDbLine
 10
191.4601985569701
 20
68.7158443537033
 30
0.0
 11
185.610748810643
 21
91.98690526117486
 31
0.0
  0
ARC
  5
1BA
330
1A
100
AcDbEntity
  8
SEIHIN
 62
     3
 48
5.0
100
AcDbCircle
 10
192.8179619659095
 20
69.05713385741673
 30
0.0
 40
2.849999999999993
100
AcDbArc
 50
194.1096416474922
 51
267.407951249336
  0
ARC
  5
1BB
330
1A
100
AcDbEntity
  8
SEIHIN
 62
     3
 48
5.0
100
AcDbCircle
 10
192.8179619659098
 20
69.05713385741662
 30
0.0
 40
1.400000000000117
100
AcDbArc
 50
194.1096416474893
 51
267.4079512493254
  0
LINE
  5
1BD
330
1A
100
AcDbEntity
  8
SEIHIN
 62
     3
 48
5.0
100
AcDbLine
 10
172.0545868211348
 20
88.43730990394796
 30
0.0
 11
184.5256078011995
 21
90.35592851626585
 31
0.0
  0
LINE
  5
1BE
330
1A
100
AcDbEntity
  8
SEIHIN
 62
     3
 48
5.0
100
AcDbLine
 10
185.610748810643
 20
91.98690526117486
 30
0.0
 11
172.9134276259561
 21
96.05650107707036
 31
0.0
  0
LINE
  5
1C0
330
1A
100
AcDbEntity
  8
SEIHIN
 62
     3
 48
5.0
100
AcDbLine
 10
172.9134276259561
 20
96.05650107707036
 30
0.0
 11
169.0268292284389
 21
95.45856286206776
 31
0.0
  0
LINE
  5
1D7
330
1A
100
AcDbEntity
  8
SEIHIN
 62
     3
 48
5.0
100
AcDbLine
 10
160.5253408597139
 20
194.1291114151406
 30
0.0
 11
137.0258963442923
 21
195.695741049502
 31
0.0
  0
LINE
  5
1D8
330
1A
100
AcDbEntity
  8
SEIHIN
 62
     3
 48
5.0
100
AcDbLine
 10
158.654483546388
 20
185.3411999023475
 30
0.0
 11
161.3971649660072
 21
192.7856208984566
 31
0.0
  0
ARC
  5
1D9
330
1A
100
AcDbEntity
  8
SEIHIN
 62
     3
 48
5.0
100
AcDbCircle
 10
145.9086077126577
 20
182.4369052611748
 30
0.0
 40
7.75
100
AcDbArc
 50
90.0
 51
270.0
  0
LINE
  5
1DB
330
1A
100
AcDbEntity
  8
SEIHIN
 62
     3
 48
5.0
100
AcDbLine
 10
141.9627826199465
 20
163.9869052611749
 30
0.0
 11
145.5919338031646
 21
163.9869052611749
 31
0.0
  0
ARC
  5
1DC
330
1A
100
AcDbEntity
  8
SEIHIN
 62
     3
 48
5.0
100
AcDbCircle
 10
174.9134276259561
 20
123.4869052611748
 30
0.0
 40
50.0000000000001
100
AcDbArc
 50
114.1825544130737
 51
125.9040685833171
  0
ARC
  5
1DD
330
1A
100
AcDbEntity
  8
SEIHIN
 62
     3
 48
5.0
100
AcDbCircle
 10
152.913427625956
 20
171.6869052611748
 30
0.0
 40
2.999999999999994
100
AcDbArc
 50
300.3919007961616
 51
90.0
  0
LINE
  5
1DE
330
1A
100
AcDbEntity
  8
SEIHIN
 62
     3
 48
5.0
100
AcDbLine
 10
152.913427625956
 20
174.6869052611748
 30
0.0
 11
145.9086077126577
 21
174.6869052611748
 31
0.0
  0
LINE
  5
1E0
330
1A
100
AcDbEntity
  8
SEIHIN
 62
     3
 48
5.0
100
AcDbLine
 10
127.5634276259559
 20
195.8657086496063
 30
0.0
 11
127.563427625956
 21
191.9869052611748
 31
0.0
  0
LINE
  5
1E1
330
1A
100
AcDbEntity
  8
SEIHIN
 62
     3
 48
5.0
100
AcDbLine
 10
129.0134276259561
 20
191.9869052611748
 30
0.0
 11
129.0134276259561
 21
194.5166828810191
 31
0.0
  0
ARC
  5
1E2
330
1A
100
AcDbEntity
  8
SEIHIN
 62
     3
 48
5.0
100
AcDbCircle
 10
128.363427625956
 20
191.9869052611748
 30
0.0
 40
0.8000000000000113
100
AcDbArc
 50
180.0
 51
264.6206210088929
  0
ARC
  5
1E3
330
1A
100
AcDbEntity
  8
SEIHIN
 62
     3
 48
5.0
100
AcDbCircle
 10
128.2134276259562
 20
191.9869052611748
 30
0.0
 40
0.7999999999999497
100
AcDbArc
 50
275.3793789911034
 51
0.0000000000040711
  0
LINE
  5
1E4
330
1A
100
AcDbEntity
  8
SEIHIN
 62
     3
 48
5.0
100
AcDbLine
 10
136.9789598708503
 20
200.3947895896559
 30
0.0
 11
127.7679117098622
 21
196.1840247160614
 31
0.0
  0
ARC
  5
1E5
330
1A
100
AcDbEntity
  8
SEIHIN
 62
     3
 48
5.0
100
AcDbCircle
 10
134.1369311113045
 20
196.9514810858896
 30
0.0
 40
0.5000000000000142
100
AcDbArc
 50
6.462322696799515
 51
114.5671713205976
  0
LINE
  5
1E6
330
1A
100
AcDbEntity
  8
SEIHIN
 62
     3
 48
5.0
100
AcDbLine
 10
129.5976678656884
 20
195.4261573566049
 30
0.0
 11
133.9290512311706
 21
197.4062183236825
 31
0.0
  0
ARC
  5
1E7
330
1A
100
AcDbEntity
  8
SEIHIN
 62
     3
 48
5.0
100
AcDbCircle
 10
127.9134276259559
 20
195.8657086496062
 30
0.0
 40
0.3500000000000361
100
AcDbArc
 50
114.5671713205935
 51
179.9999999999906
  0
ARC
  5
1E8
330
1A
100
AcDbEntity
  8
SEIHIN
 62
     3
 48
5.0
100
AcDbCircle
 10
130.0134276259561
 20
194.5166828810191
 30
0.0
 40
1.0
100
AcDbArc
 50
114.5671713205982
 51
180.0
  0
LINE
  5
1E9
330
1A
100
AcDbEntity
  8
SEIHIN
 62
     3
 48
5.0
100
AcDbLine
 10
136.4455461251114
 20
196.5277095127034
 30
0.0
 11
137.4602537124939
 21
199.9777153098039
 31
0.0
  0
ARC
  5
1EA
330
1A
100
AcDbEntity
  8
SEIHIN
 62
     3
 48
5.0
100
AcDbCircle
 10
137.0691337011328
 20
196.3443014021089
 30
0.0
 40
0.6500000000000153
100
AcDbArc
 50
163.6104596659653
 51
266.185925165705
  0
ARC
  5
1EB
330
1A
100
AcDbEntity
  8
SEIHIN
 62
     3
 48
5.0
100
AcDbCircle
 10
137.124475786944
 20
200.0764735232009
 30
0.0
 40
0.3499999999999718
100
AcDbArc
 50
343.6104596659581
 51
114.5671713206078
  0
LINE
  5
1EC
330
1A
100
AcDbEntity
  8
SEIHIN
 62
     3
 48
5.0
100
AcDbLine
 10
145.9086077126577
 20
190.1869052611749
 30
0.0
 11
153.5056141137815
 21
190.1869052611749
 31
0.0
  0
LINE
  5
1ED
330
1A
100
AcDbEntity
  8
SEIHIN
 62
     3
 48
5.0
100
AcDbLine
 10
154.4439572305986
 20
188.8411999023475
 30
0.0
 11
153.1613207183715
 21
185.3597579405885
 31
0.0
  0
LINE
  5
1EE
330
1A
100
AcDbEntity
  8
SEIHIN
 62
     3
 48
5.0
100
AcDbLine
 10
157.7161404295709
 20
184.6869052611749
 30
0.0
 11
153.6304922767801
 21
184.6869052611749
 31
0.0
  0
LINE
  5
1EF
330
1A
100
AcDbEntity
  8
SEIHIN
 62
     3
 48
5.0
100
AcDbLine
 10
153.6304922767801
 20
184.6869052611749
 30
0.0
 11
157.7161404295709
 21
184.6869052611749
 31
0.0
  0
ARC
  5
1F0
330
1A
100
AcDbEntity
  8
SEIHIN
 62
     3
 48
5.0
100
AcDbCircle
 10
153.6304922767801
 20
185.1869052611748
 30
0.0
 40
0.5000000000000016
100
AcDbArc
 50
159.7751405688335
 51
270.0
  0
ARC
  5
1F1
330
1A
100
AcDbEntity
  8
SEIHIN
 62
     3
 48
5.0
100
AcDbCircle
 10
157.7161404295709
 20
185.6869052611749
 30
0.0
 40
1.0
100
AcDbArc
 50
270.0
 51
339.775140568832
  0
ARC
  5
1F2
330
1A
100
AcDbEntity
  8
SEIHIN
 62
     3
 48
5.0
100
AcDbCircle
 10
153.5056141137815
 20
189.1869052611749
 30
0.0
 40
1.0
100
AcDbArc
 50
339.775140568832
 51
90.0
  0
ARC
  5
1F3
330
1A
100
AcDbEntity
  8
SEIHIN
 62
     3
 48
5.0
100
AcDbCircle
 10
160.4588218491901
 20
193.131326257284
 30
0.0
 40
1.000000000000012
100
AcDbArc
 50
339.775140568832
 51
86.18592516570867
  0
LINE
  5
1F5
330
1A
100
AcDbEntity
  8
SEIHIN
 62
     3
 48
5.0
100
AcDbLine
 10
285.6304028532048
 20
70.86633333851342
 30
0.0
 11
289.1636032050528
 21
144.9487117158857
 31
0.0
  0
LINE
  5
1F6
330
1A
100
AcDbEntity
  8
SEIHIN
 62
     3
 48
5.0
100
AcDbLine
 10
280.413427625956
 20
147.1869052611748
 30
0.0
 11
274.2900900594618
 21
130.9026544202795
 31
0.0
  0
LINE
  5
1FB
330
1A
100
AcDbEntity
  8
SEIHIN
 62
     3
 48
5.0
100
AcDbLine
 10
287.1834566152408
 20
133.8674207759098
 30
0.0
 11
284.1820491365589
 21
70.93540946664724
 31
0.0
  0
ARC
  5
1FC
330
1A
100
AcDbEntity
  8
SEIHIN
 62
     3
 48
5.0
100
AcDbCircle
 10
280.6360796923569
 20
71.10452688380236
 30
0.0
 40
4.999999999999955
100
AcDbArc
 50
272.460884843901
 51
357.2694695658261
  0
ARC
  5
1FD
330
1A
100
AcDbEntity
  8
SEIHIN
 62
     3
 48
5.0
100
AcDbCircle
 10
280.6360796923568
 20
71.10452688380259
 30
0.0
 40
3.550000000000105
100
AcDbArc
 50
272.4608848438969
 51
357.2694695658229
  0
LINE
  5
1FE
330
1A
100
AcDbEntity
  8
SEIHIN
 62
     3
 48
5.0
100
AcDbLine
 10
274.7970810806866
 20
130.2281930260655
 30
0.0
 11
283.4429909861245
 21
130.9243806718271
 31
0.0
  0
ARC
  5
1FF
330
1A
100
AcDbEntity
  8
SEIHIN
 62
     3
 48
5.0
100
AcDbCircle
 10
274.7580962537921
 20
130.7266708924468
 30
0.0
 40
0.5000000000000164
100
AcDbArc
 50
159.3923236851503
 51
274.4718708705016
  0
ARC
  5
201
330
1A
100
AcDbEntity
  8
SEIHIN
 62
     3
 48
5.0
100
AcDbCircle
 10
284.1692800442048
 20
145.1869052611747
 30
0.0
 40
5.000000000000023
100
AcDbArc
 50
357.2694695658252
 51
90.0
  0
LINE
  5
202
330
1A
100
AcDbEntity
  8
SEIHIN
 62
     3
 48
5.0
100
AcDbLine
 10
282.4134276259561
 20
147.1869052611748
 30
0.0
 11
280.413427625956
 21
147.1869052611748
 31
0.0
  0
LINE
  5
203
330
1A
100
AcDbEntity
  8
SEIHIN
 62
     3
 48
5.0
100
AcDbLine
 10
282.9134276259561
 20
150.1869052611748
 30
0.0
 11
284.172600237837
 21
150.1869052611749
 31
0.0
  0
LINE
  5
204
330
1A
100
AcDbEntity
  8
SEIHIN
 62
     3
 48
5.0
100
AcDbLine
 10
284.1692800442048
 20
150.1869052611748
 30
0.0
 11
282.4134276259561
 21
150.1869052611748
 31
0.0
  0
LINE
  5
205
330
1A
100
AcDbEntity
  8
SEIHIN
 62
     3
 48
5.0
100
AcDbLine
 10
282.4134276259561
 20
147.1869052611748
 30
0.0
 11
282.4134276259561
 21
149.6869052611748
 31
0.0
  0
LINE
  5
206
330
1A
100
AcDbEntity
  8
SEIHIN
 62
     3
 48
5.0
100
AcDbLine
 10
282.4134276259561
 20
150.1869052611748
 30
0.0
 11
282.4134276259561
 21
147.1869052611748
 31
0.0
  0
LINE
  5
213
330
1A
100
AcDbEntity
  8
CENTER_L
 48
5.0
100
AcDbLine
 10
237.9134276259585
 20
73.63690526117455
 30
0.0
 11
237.9134276259585
 21
58.18690526117484
 31
0.0
  0
ARC
  5
326
330
1A
100
AcDbEntity
  8
SEIHIN
 62
     3
 48
5.0
100
AcDbCircle
 10
192.7797844287657
 20
69.20901682602056
 30
0.0
 40
3.000000000000021
100
AcDbArc
 50
194.1096416474911
 51
267.4053647623788
  0
LINE
  5
327
330
1A
100
AcDbEntity
  8
SEIHIN
 62
     3
 48
5.0
100
AcDbLine
 10
189.8702914096095
 20
68.47768217520628
 30
0.0
 11
184.3767000909923
 21
90.33301963777232
 31
0.0
  0
ARC
  5
32A
330
1A
100
AcDbEntity
  8
SEIHIN
 62
     3
 48
5.0
100
AcDbCircle
 10
402.769149511696
 20
227.3793258548551
 30
0.0
 40
269.9999999999998
100
AcDbArc
 50
187.7034584471829
 51
210.8554091627522
  0
LINE
  5
32B
330
1A
100
AcDbEntity
  8
SEIHIN
 62
     3
 48
5.0
100
AcDbLine
 10
135.2058697224655
 20
191.1869052611748
 30
0.0
 11
135.354515989015
 21
191.2070121615047
 31
0.0
  0
ARC
  5
32D
330
1A
100
AcDbEntity
  8
SEIHIN
 62
     3
 48
5.0
100
AcDbCircle
 10
171.9253382145188
 20
89.2774258469511
 30
0.0
 40
0.8500000000000081
100
AcDbArc
 50
210.8898984616033
 51
278.7461622625587
  0
LINE
  5
32E
330
1A
100
AcDbEntity
  8
SEIHIN
 62
     3
 48
5.0
100
AcDbLine
 10
171.9943065361827
 20
88.42803601395546
 30
0.0
 11
184.5256078011996
 21
90.35592851626576
 31
0.0
  0
LINE
  5
32F
330
1A
100
AcDbEntity
  8
SEIHIN
 62
     3
 48
5.0
100
AcDbLine
 10
184.5256078011996
 20
90.35592851626576
 30
0.0
 11
190.0267364509358
 21
68.47060503806433
 31
0.0
  0
ARC
  5
330
330
1A
100
AcDbEntity
  8
SEIHIN
 62
     3
 48
5.0
100
AcDbCircle
 10
192.936229470092
 20
69.20193968887864
 30
0.0
 40
3.00000000000003
100
AcDbArc
 50
194.1096416474916
 51
267.4143645693354
  0
LINE
  5
331
330
1A
100
AcDbEntity
  8
SEIHIN
 62
     3
100
AcDbLine
 10
172.7962234841091
 20
94.57141026024393
 30
0.0
 11
182.3944126135753
 21
91.49511174394293
 31
0.0
  0
LINE
  5
332
330
1A
100
AcDbEntity
  8
SEIHIN
 62
     3
100
AcDbLine
 10
169.793405966769
 20
94.10943833449927
 30
0.0
 11
172.7962234841091
 21
94.57141026024393
 31
0.0
  0
LINE
  5
333
330
1A
100
AcDbEntity
  8
SEIHIN
 62
     3
100
AcDbLine
 10
172.2333452491563
 20
89.93187061095522
 30
0.0
 11
182.3944126135753
 21
91.49511174394293
 31
0.0
  0
ARC
  5
334
330
1A
100
AcDbEntity
  8
SEIHIN
 62
     3
100
AcDbCircle
 10
402.7691495116965
 20
227.379325854854
 30
0.0
 40
268.3999999999995
100
AcDbArc
 50
209.7709948155258
 51
210.8037652804984
  0
ARC
  5
337
330
1A
100
AcDbEntity
  8
SEIHIN
 62
     3
 48
5.0
100
AcDbCircle
 10
171.8422493519288
 20
89.4164077116061
 30
0.0
 40
1.0
100
AcDbArc
 50
210.8554091627546
 51
278.7461622625554
  0
ARC
  5
77A
330
1A
100
AcDbEntity
  8
SEIHIN
 62
     3
 48
5.0
100
AcDbCircle
 10
127.913427625956
 20
195.8657086496063
 30
0.0
 40
0.3500000000000512
100
AcDbArc
 50
114.5671713205977
 51
179.9999999999953
  0
LINE
  5
77B
330
1A
100
AcDbEntity
  8
SEIHIN
 62
     3
 48
5.0
100
AcDbLine
 10
127.7679117098623
 20
196.1840247160614
 30
0.0
 11
136.9789598708503
 21
200.394789589656
 31
0.0
  0
ARC
  5
77C
330
1A
100
AcDbEntity
  8
SEIHIN
 62
     3
 48
5.0
100
AcDbCircle
 10
137.1244757869441
 20
200.0764735232009
 30
0.0
 40
0.3499999999999963
100
AcDbArc
 50
343.6104596659684
 51
114.5671713206016
  0
LINE
  5
77D
330
1A
100
AcDbEntity
  8
SEIHIN
 62
     3
 48
5.0
100
AcDbLine
 10
137.460253712494
 20
199.9777153098039
 30
0.0
 11
136.4455461251114
 21
196.5277095127034
 31
0.0
  0
ARC
  5
77E
330
1A
100
AcDbEntity
  8
SEIHIN
 62
     3
 48
5.0
100
AcDbCircle
 10
137.0691337011327
 20
196.3443014021089
 30
0.0
 40
0.6499999999999897
100
AcDbArc
 50
163.610459665967
 51
266.1859251657125
  0
LINE
  5
77F
330
1A
100
AcDbEntity
  8
SEIHIN
 62
     3
 48
5.0
100
AcDbLine
 10
137.0258963442923
 20
195.6957410495021
 30
0.0
 11
160.5694210944274
 21
194.1261727328264
 31
0.0
  0
ARC
  5
780
330
1A
100
AcDbEntity
  8
SEIHIN
 62
     3
 48
5.0
100
AcDbCircle
 10
160.585319759559
 20
193.2153388174548
 30
0.0
 40
0.9109726609201931
100
AcDbArc
 50
341.901912695747
 51
90.999999999998
  0
ARC
  5
781
330
1A
100
AcDbEntity
  8
SEIHIN
 62
     3
 48
5.0
100
AcDbCircle
 10
160.5128799354822
 20
193.2780553486483
 30
0.0
 40
0.9999999999999694
100
AcDbArc
 50
339.7751405688293
 51
86.18592516570856
  0
LINE
  5
782
330
1A
100
AcDbEntity
  8
SEIHIN
 62
     3
 48
5.0
100
AcDbLine
 10
160.579398946006
 20
194.2758405065049
 30
0.0
 11
137.0358741958708
 21
195.8454088231805
 31
0.0
  0
ARC
  5
783
330
1A
100
AcDbEntity
  8
SEIHIN
 62
     3
 48
5.0
100
AcDbCircle
 10
137.0691337011327
 20
196.3443014021089
 30
0.0
 40
0.4999999999999859
100
AcDbArc
 50
163.6104596659659
 51
266.1859251657118
  0
LINE
  5
784
330
1A
100
AcDbEntity
  8
SEIHIN
 62
     3
 48
5.0
100
AcDbLine
 10
136.5894509503471
 20
196.4853845641046
 30
0.0
 11
137.6041585377297
 21
199.9353903612051
 31
0.0
  0
ARC
  5
785
330
1A
100
AcDbEntity
  8
SEIHIN
 62
     3
 48
5.0
100
AcDbCircle
 10
137.124475786944
 20
200.0764735232009
 30
0.0
 40
0.4999999999999904
100
AcDbArc
 50
343.6104596659659
 51
114.5671713205976
  0
LINE
  5
786
330
1A
100
AcDbEntity
  8
SEIHIN
 62
     3
 48
5.0
100
AcDbLine
 10
136.9165959068102
 20
200.5312107609938
 30
0.0
 11
127.7055477458221
 21
196.3204458873993
 31
0.0
  0
ARC
  5
787
330
1A
100
AcDbEntity
  8
SEIHIN
 62
     3
 48
5.0
100
AcDbCircle
 10
127.913427625956
 20
195.8657086496064
 30
0.0
 40
0.5000000000000259
100
AcDbArc
 50
114.5671713206005
 51
180.0
  0
LINE
  5
788
330
1A
100
AcDbEntity
  8
SEIHIN
 62
     3
 48
5.0
100
AcDbLine
 10
127.413427625956
 20
195.8657086496064
 30
0.0
 11
127.413427625956
 21
191.9869052611748
 31
0.0
  0
ARC
  5
789
330
1A
100
AcDbEntity
  8
SEIHIN
 62
     3
 48
5.0
100
AcDbCircle
 10
128.213427625956
 20
191.9869052611748
 30
0.0
 40
0.8000000000000113
100
AcDbArc
 50
180.0
 51
275.3793789911113
  0
ARC
  5
78A
330
1A
100
AcDbEntity
  8
SEIHIN
 62
     3
 48
5.0
100
AcDbCircle
 10
128.3634276259559
 20
191.9869052611748
 30
0.0
 40
0.7999999999999858
100
AcDbArc
 50
180.0
 51
264.6206210088907
  0
LINE
  5
78B
330
1A
100
AcDbEntity
  8
SEIHIN
 62
     3
 48
5.0
100
AcDbLine
 10
127.563427625956
 20
191.9869052611748
 30
0.0
 11
127.563427625956
 21
191.9869052611748
 31
0.0
  0
LINE
  5
78C
330
1A
100
AcDbEntity
  8
SEIHIN
 62
     3
 48
5.0
100
AcDbLine
 10
127.563427625956
 20
191.9869052611748
 30
0.0
 11
127.563427625956
 21
195.8657086496064
 31
0.0
  0
LINE
  5
793
330
1A
100
AcDbEntity
  8
SEIHIN
 62
     3
 48
5.0
100
AcDbLine
 10
156.1608712635083
 20
191.6369052611748
 30
0.0
 11
158.4331861933302
 21
192.8153697429901
 31
0.0
  0
LINE
  5
794
330
1A
100
AcDbEntity
  8
SEIHIN
 62
     3
 48
5.0
100
AcDbLine
 10
136.4175048166371
 20
194.2830818347697
 30
0.0
 11
158.4331861933302
 21
192.8153697429901
 31
0.0
  0
LINE
  5
795
330
1A
100
AcDbEntity
  8
SEIHIN
 62
     3
 48
5.0
100
AcDbLine
 10
156.1608712635083
 20
191.6369052611748
 30
0.0
 11
145.9086077126577
 21
191.6369052611748
 31
0.0
  0
ARC
  5
796
330
1A
100
AcDbEntity
  8
SEIHIN
 62
     3
 48
5.0
100
AcDbCircle
 10
402.7691495116962
 20
227.3793258548552
 30
0.0
 40
268.3999999999999
100
AcDbArc
 50
187.0831364575803
 51
188.8135555510475
  0
ARC
  5
797
330
1A
100
AcDbEntity
  8
SEIHIN
 62
     3
 48
5.0
100
AcDbCircle
 10
145.9086077126577
 20
182.4369052611748
 30
0.0
 40
9.199999999999999
100
AcDbArc
 50
90.00000000000019
 51
155.4788332680991
  0
LINE
  5
798
330
1A
100
AcDbEntity
  8
SEIHIN
 62
     3
 48
5.0
100
AcDbLine
 10
157.4023611911976
 20
186.1369052611749
 30
0.0
 11
154.9929151133459
 21
186.1369052611749
 31
0.0
  0
LINE
  5
799
330
1A
100
AcDbEntity
  8
SEIHIN
 62
     3
 48
5.0
100
AcDbLine
 10
159.4566153158453
 20
191.7127378852185
 30
0.0
 11
157.4023611911976
 21
186.1369052611749
 31
0.0
  0
LINE
  5
79A
330
1A
100
AcDbEntity
  8
SEIHIN
 62
     3
 48
5.0
100
AcDbLine
 10
156.4780560319734
 20
190.1680020403067
 30
0.0
 11
154.9929151133459
 21
186.1369052611749
 31
0.0
  0
LINE
  5
79B
330
1A
100
AcDbEntity
  8
SEIHIN
 62
     3
 48
5.0
100
AcDbLine
 10
156.4780560319734
 20
190.1680020403067
 30
0.0
 11
159.4566153158453
 21
191.7127378852185
 31
0.0
  0
LINE
  5
79C
330
1A
100
AcDbEntity
  8
SEIHIN
 62
     3
 48
5.0
100
AcDbLine
 10
145.1258463209894
 20
165.4369052611748
 30
0.0
 11
141.614604211417
 21
165.4369052611748
 31
0.0
  0
ARC
  5
79D
330
1A
100
AcDbEntity
  8
SEIHIN
 62
     3
 48
5.0
100
AcDbCircle
 10
174.913427625956
 20
123.4869052611748
 30
0.0
 40
51.45
100
AcDbArc
 50
114.2851310492159
 51
125.3775497528538
  0
ARC
  5
79E
330
1A
100
AcDbEntity
  8
SEIHIN
 62
     3
 48
5.0
100
AcDbCircle
 10
402.7691495116962
 20
227.3793258548552
 30
0.0
 40
268.3999999999999
100
AcDbArc
 50
191.3218735060688
 51
193.3432323890816
  0
ARC
  5
79F
330
1A
100
AcDbEntity
  8
SEIHIN
 62
     3
 48
5.0
100
AcDbCircle
 10
152.913427625956
 20
171.6869052611748
 30
0.0
 40
1.55
100
AcDbArc
 50
302.8047584538188
 51
90.00000000000024
  0
ARC
  5
7A0
330
1A
100
AcDbEntity
  8
SEIHIN
 62
     3
 48
5.0
100
AcDbCircle
 10
402.7691495116962
 20
227.3793258548552
 30
0.0
 40
268.3999999999999
100
AcDbArc
 50
191.0353970918771
 51
191.3218735060688
  0
LINE
  5
7A1
330
1A
100
AcDbEntity
  8
SEIHIN
 62
     3
 48
5.0
100
AcDbLine
 10
152.913427625956
 20
173.2369052611749
 30
0.0
 11
145.9086077126577
 21
173.2369052611749
 31
0.0
  0
ARC
  5
7A2
330
1A
100
AcDbEntity
  8
SEIHIN
 62
     3
 48
5.0
100
AcDbCircle
 10
145.9086077126577
 20
182.4369052611748
 30
0.0
 40
9.199999999999999
100
AcDbArc
 50
224.3701193748257
 51
269.9999999999997
  0
LINE
  5
7BC
330
1A
100
AcDbEntity
  8
SEIHIN
 62
     3
 48
5.0
100
AcDbLine
 10
276.1729666466808
 20
131.7902255918635
 30
0.0
 11
282.0514377416379
 21
132.2499675252517
 31
0.0
  0
LINE
  5
7BD
330
1A
100
AcDbEntity
  8
SEIHIN
 62
     3
 48
5.0
100
AcDbLine
 10
287.7128648455071
 20
144.9677878440196
 30
0.0
 11
287.2818926837617
 21
135.9313790426237
 31
0.0
  0
LINE
  5
7BE
330
1A
100
AcDbEntity
  8
SEIHIN
 62
     3
 48
5.0
100
AcDbLine
 10
281.3985101181023
 20
145.6869052611748
 30
0.0
 11
276.1729666466808
 21
131.7902255918635
 31
0.0
  0
ARC
  5
7BF
330
1A
100
AcDbEntity
  8
SEIHIN
 62
     3
 48
5.0
100
AcDbCircle
 10
284.1668954013051
 20
145.1369052611748
 30
0.0
 40
3.549999999999999
100
AcDbArc
 50
357.2694695658256
 51
90.00000000000024
  0
LINE
  5
7C0
330
1A
100
AcDbEntity
  8
SEIHIN
 62
     3
 48
5.0
100
AcDbLine
 10
281.3985101181023
 20
145.6869052611748
 30
0.0
 11
283.9134276259561
 21
145.6869052611748
 31
0.0
  0
LINE
  5
7C1
330
1A
100
AcDbEntity
  8
SEIHIN
 62
     3
 48
5.0
100
AcDbLine
 10
283.913427625956
 20
148.6869052611748
 30
0.0
 11
284.1668954013051
 21
148.6869052611748
 31
0.0
  0
LINE
  5
7C2
330
1A
100
AcDbEntity
  8
SEIHIN
 62
     3
 48
5.0
100
AcDbLine
 10
283.913427625956
 20
148.6869052611748
 30
0.0
 11
283.9134276259561
 21
145.6869052611748
 31
0.0
  0
LINE
  5
7CC
330
1A
100
AcDbEntity
  8
SEIHIN
 62
     3
 48
5.0
100
AcDbLine
 10
284.4186324681142
 20
133.9898334954971
 30
0.0
 11
286.8604063294532
 21
134.1807991084559
 31
0.0
  0
LINE
  5
7CD
330
1A
100
AcDbEntity
  8
SEIHIN
 62
     3
 48
5.0
100
AcDbLine
 10
283.0311749777718
 20
135.3357512486485
 30
0.0
 11
287.0056241902476
 21
135.6465839355123
 31
0.0
  0
LINE
  5
7CE
330
1A
100
AcDbEntity
  8
SEIHIN
 62
     3
 48
5.0
100
AcDbLine
 10
283.7147626300166
 20
131.1736879589243
 30
0.0
 11
284.1461729967526
 21
133.740471619068
 31
0.0
  0
ARC
  5
7D3
330
1A
100
AcDbEntity
  8
SEIHIN
 62
     3
 48
5.0
100
AcDbCircle
 10
286.9822332941109
 20
135.9456706553411
 30
0.0
 40
0.3
100
AcDbArc
 50
274.4718708705011
 51
357.2694695658251
  0
ARC
  5
7D4
330
1A
100
AcDbEntity
  8
SEIHIN
 62
     3
 48
5.0
100
AcDbCircle
 10
286.8837972255899
 20
133.8817123886272
 30
0.0
 40
0.3
100
AcDbArc
 50
357.2694695658248
 51
94.47187087049931
  0
LINE
  5
83F
330
1A
100
AcDbEntity
  8
SEIHIN
 62
     3
 48
5.0
100
AcDbLine
 10
282.3238972129995
 20
132.4993294016809
 30
0.0
 11
282.7587155064102
 21
135.0863893722193
 31
0.0
  0
ARC
  5
840
330
1A
100
AcDbEntity
  8
SEIHIN
 62
     3
 48
5.0
100
AcDbCircle
 10
283.4189122625183
 20
131.2234128023239
 30
0.0
 40
0.3
100
AcDbArc
 50
274.6036493410974
 51
350.4592240732516
  0
ARC
  5
841
330
1A
100
AcDbEntity
  8
SEIHIN
 62
     3
 48
5.0
100
AcDbCircle
 10
282.0280468455012
 20
132.5490542450805
 30
0.0
 40
0.3
100
AcDbArc
 50
274.4718708705006
 51
350.4592240732511
  0
ARC
  5
842
330
1A
100
AcDbEntity
  8
SEIHIN
 62
     3
 48
5.0
100
AcDbCircle
 10
283.0545658739085
 20
135.0366645288197
 30
0.0
 40
0.3
100
AcDbArc
 50
94.47187087050073
 51
170.4592240732523
  0
ARC
  5
843
330
1A
100
AcDbEntity
  8
SEIHIN
 62
     3
 48
5.0
100
AcDbCircle
 10
284.4420233642509
 20
133.6907467756684
 30
0.0
 40
0.3
100
AcDbArc
 50
94.47187087050068
 51
170.4592240732504
  0
DIMENSION
  5
878
330
1A
100
AcDbEntity
  8
SUNPOU
100
AcDbDimension
  2
*D1
 10
289.1692800442048
 20
230.9748875698678
 30
0.0
 11
208.2885154155044
 21
230.9748875698678
 31
0.0
 70
   160
  3
STANDARD
100
AcDbAlignedDimension
 13
127.413427625956
 23
196.1869052611748
 33
0.0
 14
289.1692800442048
 24
145.1869052611747
 34
0.0
100
AcDbRotatedDimension
1001
ACAD
1000
DSTYLE
1002
{
1070
    41
1040
3.0
1070
    42
1040
3.0
1070
    43
1040
7.0
1070
    44
1040
1.5
1070
    73
1070
     0
1070
    74
1070
     0
1070
    77
1070
     3
1070
   140
1040
3.0
1070
   141
1040
150.0
1070
   147
1040
1.0
1070
   172
1070
     1
1070
   173
1070
     1
1070
   176
1070
   256
1070
   177
1070
   256
1070
   178
1070
   256
1070
   271
1070
     0
1070
   272
1070
     0
1070
   288
1070
     1
1070
   341
1005
B2
1070
     6
1000
OPEN
1070
     7
1000
OPEN
1070
   371
1070
    -1
1070
   372
1070
    -1
1002
}
  0
DIMENSION
  5
8A1
330
1A
100
AcDbEntity
  8
SUNPOU
100
AcDbDimension
  2
*D4
 10
190.3813011684805
 20
184.6869052611749
 30
0.0
 11
187.4118256111467
 21
192.4681160871066
 31
0.0
 70
   160
  3
STANDARD
100
AcDbAlignedDimension
 13
137.124475786944
 23
200.5764735232009
 33
0.0
 14
157.7161404295709
 24
184.6869052611749
 34
0.0
 50
90.0
100
AcDbRotatedDimension
1001
ACAD
1000
DSTYLE
1002
{
1070
   287
1070
     5
1070
   287
1070
     5
1070
    41
1040
3.0
1070
    42
1040
3.0
1070
    43
1040
7.0
1070
    44
1040
1.5
1070
    73
1070
     0
1070
    74
1070
     0
1070
    77
1070
     3
1070
   140
1040
3.0
1070
   141
1040
150.0
1070
   147
1040
1.0
1070
   172
1070
     1
1070
   173
1070
     1
1070
   176
1070
   256
1070
   177
1070
   256
1070
   178
1070
   256
1070
   271
1070
     0
1070
   272
1070
     0
1070
   279
1070
     2
1070
   288
1070
     1
1070
   341
1005
B2
1070
     6
1000
OPEN
1070
     7
1000
OPEN
1070
   371
1070
    -1
1070
   372
1070
    -1
1002
}
  0
DIMENSION
  5
8AF
330
1A
100
AcDbEntity
  8
SUNPOU
100
AcDbDimension
  2
*D5
 10
104.7149098702457
 20
191.1904286450711
 30
0.0
 11
102.2688346556156
 21
196.0539405679319
 31
0.0
 70
   160
  3
STANDARD
100
AcDbAlignedDimension
 13
137.1244757869438
 23
200.5764735232009
 33
0.0
 14
128.288427625956
 24
191.1904286450711
 34
0.0
 50
90.0
100
AcDbRotatedDimension
1001
ACAD
1000
DSTYLE
1002
{
1070
   287
1070
     5
1070
   287
1070
     5
1070
    41
1040
3.0
1070
    42
1040
3.0
1070
    43
1040
7.0
1070
    44
1040
1.5
1070
    73
1070
     0
1070
    74
1070
     0
1070
    77
1070
     3
1070
   140
1040
3.0
1070
   141
1040
150.0
1070
   147
1040
1.0
1070
   172
1070
     1
1070
   173
1070
     1
1070
   176
1070
   256
1070
   177
1070
   256
1070
   178
1070
   256
1070
   271
1070
     0
1070
   272
1070
     0
1070
   279
1070
     2
1070
   288
1070
     1
1070
   341
1005
B2
1070
     6
1000
OPEN
1070
     7
1000
OPEN
1070
   371
1070
    -1
1070
   372
1070
    -1
1002
}
  0
DIMENSION
  5
8BE
330
1A
100
AcDbEntity
  8
SUNPOU
100
AcDbDimension
  2
*D6
 10
95.56411657733864
 20
88.18690526117491
 30
0.0
 11
95.56411657733864
 21
144.3816893921879
 31
0.0
 70
   160
  3
STANDARD
100
AcDbAlignedDimension
 13
137.1244757869438
 23
200.5764735232009
 33
0.0
 14
171.4134276259559
 24
88.18690526117487
 34
0.0
 50
90.0
100
AcDbRotatedDimension
1001
ACAD
1000
DSTYLE
1002
{
1070
    41
1040
3.0
1070
    42
1040
3.0
1070
    43
1040
7.0
1070
    44
1040
1.5
1070
    73
1070
     0
1070
    74
1070
     0
1070
    77
1070
     3
1070
   140
1040
3.0
1070
   141
1040
150.0
1070
   147
1040
1.0
1070
   172
1070
     1
1070
   173
1070
     1
1070
   176
1070
   256
1070
   177
1070
   256
1070
   178
1070
   256
1070
   271
1070
     0
1070
   272
1070
     0
1070
   288
1070
     1
1070
   341
1005
B2
1070
     6
1000
OPEN
1070
     7
1000
OPEN
1070
   371
1070
    -1
1070
   372
1070
    -1
1002
}
  0
DIMENSION
  5
8CB
330
1A
100
AcDbEntity
  8
SUNPOU
100
AcDbDimension
  2
*D7
 10
86.33161206754357
 20
65.18690526117513
 30
0.0
 11
86.33161206754357
 21
132.8816893921879
 31
0.0
 70
   160
  3
STANDARD
100
AcDbAlignedDimension
 13
137.124475786944
 23
200.5764735232009
 33
0.0
 14
237.9134276259584
 24
65.18690526117507
 34
0.0
 50
90.0
100
AcDbRotatedDimension
1001
ACAD
1000
DSTYLE
1002
{
1070
    41
1040
3.0
1070
    42
1040
3.0
1070
    43
1040
7.0
1070
    44
1040
1.5
1070
    73
1070
     0
1070
    74
1070
     0
1070
    77
1070
     3
1070
   140
1040
3.0
1070
   141
1040
150.0
1070
   147
1040
1.0
1070
   172
1070
     1
1070
   173
1070
     1
1070
   176
1070
   256
1070
   177
1070
   256
1070
   178
1070
   256
1070
   271
1070
     0
1070
   272
1070
     0
1070
   288
1070
     1
1070
   341
1005
B2
1070
     6
1000
OPEN
1070
     7
1000
OPEN
1070
   371
1070
    -1
1070
   372
1070
    -1
1002
}
  0
DIMENSION
  5
8D8
330
1A
100
AcDbEntity
  8
SUNPOU
100
AcDbDimension
  2
*D8
 10
190.4137425629845
 20
41.53076024122299
 30
0.0
 11
180.9135850944702
 21
41.53076024122299
 31
0.0
 70
   160
  3
STANDARD
100
AcDbAlignedDimension
 13
171.4134276259559
 23
88.18690526117487
 33
0.0
 14
190.4137425629845
 24
66.31565233669618
 34
0.0
100
AcDbRotatedDimension
1001
ACAD
1000
DSTYLE
1002
{
1070
    41
1040
3.0
1070
    42
1040
3.0
1070
    43
1040
7.0
1070
    44
1040
1.5
1070
    73
1070
     0
1070
    74
1070
     0
1070
    77
1070
     3
1070
   140
1040
3.0
1070
   141
1040
150.0
1070
   147
1040
1.0
1070
   172
1070
     1
1070
   173
1070
     1
1070
   176
1070
   256
1070
   177
1070
   256
1070
   178
1070
   256
1070
   271
1070
     0
1070
   272
1070
     0
1070
   288
1070
     1
1070
   341
1005
B2
1070
     6
1000
OPEN
1070
     7
1000
OPEN
1070
   371
1070
    -1
1070
   372
1070
    -1
1002
}
  0
DIMENSION
  5
8E5
330
1A
100
AcDbEntity
  8
SUNPOU
100
AcDbDimension
  2
*D9
 10
190.4137425629845
 20
41.53076024122299
 30
0.0
 11
237.9135555067243
 21
41.53076024122299
 31
0.0
 70
   160
  3
STANDARD
100
AcDbAlignedDimension
 13
285.4133684504642
 23
66.31566449904937
 33
0.0
 14
190.4137425629845
 24
66.31565233669618
 34
0.0
100
AcDbRotatedDimension
1001
ACAD
1000
DSTYLE
1002
{
1070
    41
1040
3.0
1070
    42
1040
3.0
1070
    43
1040
7.0
1070
    44
1040
1.5
1070
    73
1070
     0
1070
    74
1070
     0
1070
    77
1070
     3
1070
   140
1040
3.0
1070
   141
1040
150.0
1070
   147
1040
1.0
1070
   172
1070
     1
1070
   173
1070
     1
1070
   176
1070
   256
1070
   177
1070
   256
1070
   178
1070
   256
1070
   271
1070
     0
1070
   272
1070
     0
1070
   288
1070
     1
1070
   341
1005
B2
1070
     6
1000
OPEN
1070
     7
1000
OPEN
1070
   371
1070
    -1
1070
   372
1070
    -1
1002
}
  0
DIMENSION
  5
8F2
330
1A
100
AcDbEntity
  8
SUNPOU
100
AcDbDimension
  2
*D10
 10
274.2580962537921
 20
174.4809312258529
 30
0.0
 11
281.7108497294224
 21
174.4809312258529
 31
0.0
 70
   160
  3
STANDARD
100
AcDbAlignedDimension
 13
289.1636032050528
 23
144.9487117158857
 33
0.0
 14
274.2580962537921
 24
130.7266708924468
 34
0.0
100
AcDbRotatedDimension
1001
ACAD
1000
DSTYLE
1002
{
1070
    41
1040
3.0
1070
    42
1040
3.0
1070
    43
1040
7.0
1070
    44
1040
1.5
1070
    73
1070
     0
1070
    74
1070
     0
1070
    77
1070
     3
1070
   140
1040
3.0
1070
   141
1040
150.0
1070
   147
1040
1.0
1070
   172
1070
     1
1070
   173
1070
     1
1070
   176
1070
   256
1070
   177
1070
   256
1070
   178
1070
   256
1070
   271
1070
     0
1070
   272
1070
     0
1070
   288
1070
     1
1070
   341
1005
B2
1070
     6
1000
OPEN
1070
     7
1000
OPEN
1070
   371
1070
    -1
1070
   372
1070
    -1
1002
}
  0
DIMENSION
  5
8FF
330
1A
100
AcDbEntity
  8
SUNPOU
100
AcDbDimension
  2
*D11
 10
245.5749128139587
 20
130.2266708924467
 30
0.0
 11
245.5749128139586
 21
140.2067880768108
 31
0.0
 70
   160
  3
STANDARD
100
AcDbAlignedDimension
 13
282.4134276259561
 23
150.1869052611748
 33
0.0
 14
274.7580962537921
 24
130.2266708924467
 34
0.0
 50
90.0
100
AcDbRotatedDimension
1001
ACAD
1000
DSTYLE
1002
{
1070
    41
1040
3.0
1070
    42
1040
3.0
1070
    43
1040
7.0
1070
    44
1040
1.5
1070
    73
1070
     0
1070
    74
1070
     0
1070
    77
1070
     3
1070
   140
1040
3.0
1070
   141
1040
150.0
1070
   147
1040
1.0
1070
   172
1070
     1
1070
   173
1070
     1
1070
   176
1070
   256
1070
   177
1070
   256
1070
   178
1070
   256
1070
   271
1070
     0
1070
   272
1070
     0
1070
   288
1070
     1
1070
   341
1005
B2
1070
     6
1000
OPEN
1070
     7
1000
OPEN
1070
   371
1070
    -1
1070
   372
1070
    -1
1002
}
  0
DIMENSION
  5
90C
330
1A
100
AcDbEntity
  8
SUNPOU
100
AcDbDimension
  2
*D12
 10
314.4594051339018
 20
65.18690526117506
 30
0.0
 11
314.4594051339018
 21
107.6869052611748
 31
0.0
 70
   160
  3
STANDARD
100
AcDbAlignedDimension
 13
282.4134276259561
 23
150.1869052611748
 33
0.0
 14
237.9134276259584
 24
65.18690526117507
 34
0.0
 50
90.0
100
AcDbRotatedDimension
1001
ACAD
1000
DSTYLE
1002
{
1070
    41
1040
3.0
1070
    42
1040
3.0
1070
    43
1040
7.0
1070
    44
1040
1.5
1070
    73
1070
     0
1070
    74
1070
     0
1070
    77
1070
     3
1070
   140
1040
3.0
1070
   141
1040
150.0
1070
   147
1040
1.0
1070
   172
1070
     1
1070
   173
1070
     1
1070
   176
1070
   256
1070
   177
1070
   256
1070
   178
1070
   256
1070
   271
1070
     0
1070
   272
1070
     0
1070
   288
1070
     1
1070
   341
1005
B2
1070
     6
1000
OPEN
1070
     7
1000
OPEN
1070
   371
1070
    -1
1070
   372
1070
    -1
1002
}
  0
DIMENSION
  5
A2B
330
1A
100
AcDbEntity
  8
SUNPOU
100
AcDbDimension
  2
*D13
 10
287.7717621708325
 20
115.7652848308674
 30
0.0
 11
298.759273124698
 21
115.2412590312313
 31
0.0
 70
   161
  1
t<>
  3
STANDARD
100
AcDbAlignedDimension
 13
285.8923635128742
 23
106.7964261520379
 33
0.0
 14
287.3407172295202
 24
106.727350023904
 34
0.0
1001
ACAD
1000
DSTYLE
1002
{
1070
    41
1040
3.0
1070
    42
1040
3.0
1070
    43
1040
7.0
1070
    44
1040
1.5
1070
    73
1070
     0
1070
    74
1070
     0
1070
    77
1070
     3
1070
   140
1040
3.0
1070
   141
1040
150.0
1070
   147
1040
1.0
1070
   172
1070
     1
1070
   173
1070
     1
1070
   176
1070
   256
1070
   177
1070
   256
1070
   178
1070
   256
1070
   271
1070
     1
1070
   272
1070
     0
1070
   288
1070
     1
1070
   341
1005
B2
1070
     6
1000
OPEN
1070
     7
1000
OPEN
1070
   371
1070
    -1
1070
   372
1070
    -1
1002
}
  0
LINE
  5
D7A
330
1A
100
AcDbEntity
  8
SUNPOU
100
AcDbLine
 10
200.7701667574872
 20
155.8495620213036
 30
0.0
 11
151.0831548739093
 21
138.2549178445466
 31
0.0
  0
MTEXT
  5
D7B
330
1A
100
AcDbEntity
  8
SUNPOU
100
AcDbMText
 10
194.0441424634349
 20
156.1199269521277
 30
0.0
 40
3.0
 41
0.0
 71
     5
 72
     1
  1
\A1;R270
 11
0.9426441746733591
 21
0.3337992809374844
 31
0.0
1001
ACAD
1000
MTEXTBEGIN
1070
    73
1070
     1
1070
    44
1040
1.0
1070
    74
1070
     0
1000
MTEXTEND
  0
INSERT
  5
D7C
330
1A
100
AcDbEntity
  8
SUNPOU
100
AcDbBlockReference
  2
_OPEN
 10
148.2552223498893
 20
137.2535200017341
 30
0.0
 41
3.0
 42
3.0
 43
3.0
 50
199.4995393754898
  0
LWPOLYLINE
  5
D87
330
1A
100
AcDbEntity
  8
ZUWAKU
100
AcDbPolyline
 90
        4
 70
     1
 43
0.0
 10
0.4000004316886816
 20
275.4000000752883
 10
0.4000004316886816
 20
0.4000000752883466
 10
398.4000004316886
 20
0.4000000752883466
 10
398.4000004316886
 20
275.4000000752883
  0
LWPOLYLINE
  5
D88
330
1A
100
AcDbEntity
  8
ZUWAKU
100
AcDbPolyline
 90
        4
 70
     1
 43
0.0
 10
0.200000431688693
 20
275.6000000752883
 10
0.200000431688693
 20
0.2000000752883579
 10
398.6000004316887
 20
0.2000000752883464
 10
398.6000004316887
 20
275.6000000752883
  0
LWPOLYLINE
  5
D89
330
1A
100
AcDbEntity
  8
ZUWAKU
100
AcDbPolyline
 90
        4
 70
     1
 43
0.0
 10
0.0000004316887043
 20
275.8000000752883
 10
0.0000004316887043
 20
0.0000000752883125
 10
398.8000004316887
 20
0.0000000752883462
 10
398.8000004316887
 20
275.8000000752883
  0
LWPOLYLINE
  5
D8A
330
1A
100
AcDbEntity
  8
ZUWAKU
100
AcDbPolyline
 90
        4
 70
     1
 43
0.0
 10
0.3000004316886589
 20
275.5000000752883
 10
0.3000004316886589
 20
0.3000000752883238
 10
398.5000004316887
 20
0.3000000752883469
 10
398.5000004316887
 20
275.5000000752883
  0
LWPOLYLINE
  5
D8B
330
1A
100
AcDbEntity
  8
ZUWAKU
100
AcDbPolyline
 90
        4
 70
     1
 43
0.0
 10
0.1000004316886702
 20
275.7000000752883
 10
0.1000004316886702
 20
0.1000000752883352
 10
398.7000004316886
 20
0.1000000752883468
 10
398.7000004316887
 20
275.7000000752883
  0
LINE
  5
D8C
330
1A
100
AcDbEntity
  8
ZUWAKU
100
AcDbLine
 10
0.0000004316887043
 20
15.00000007528831
 30
0.0
 11
398.7000004316886
 21
15.00000007528831
 31
0.0
  0
LINE
  5
D8D
330
1A
100
AcDbEntity
  8
ZUWAKU
100
AcDbLine
 10
0.0000004316887043
 20
15.10000007528831
 30
0.0
 11
398.7000004316886
 21
15.10000007528831
 31
0.0
  0
LINE
  5
D8E
330
1A
100
AcDbEntity
  8
ZUWAKU
100
AcDbLine
 10
0.0000004316887043
 20
15.20000007528831
 30
0.0
 11
398.7000004316886
 21
15.20000007528831
 31
0.0
  0
LINE
  5
D8F
330
1A
100
AcDbEntity
  8
ZUWAKU
100
AcDbLine
 10
0.0000004316887043
 20
15.30000007528831
 30
0.0
 11
398.7000004316886
 21
15.30000007528831
 31
0.0
  0
LINE
  5
D90
330
1A
100
AcDbEntity
  8
ZUWAKU
100
AcDbLine
 10
0.0000004316887043
 20
15.40000007528831
 30
0.0
 11
398.7000004316886
 21
15.40000007528831
 31
0.0
  0
LINE
  5
D91
330
1A
100
AcDbEntity
  8
ZUWAKU
100
AcDbLine
 10
104.3233010767227
 20
7.700000075288329
 30
0.0
 11
223.7121824171844
 21
7.700000075288329
 31
0.0
  0
LINE
  5
D92
330
1A
100
AcDbEntity
  8
ZUWAKU
100
AcDbLine
 10
104.3233010767227
 20
7.800000075288329
 30
0.0
 11
223.7121824171844
 21
7.800000075288332
 31
0.0
  0
LINE
  5
D93
330
1A
100
AcDbEntity
  8
ZUWAKU
100
AcDbLine
 10
104.3233010767227
 20
7.600000075288331
 30
0.0
 11
223.7121824171844
 21
7.600000075288328
 31
0.0
  0
TEXT
  5
D94
330
1A
100
AcDbEntity
  8
MOJI
100
AcDbText
 10
46.47889522577327
 20
6.370589140425693
 30
0.0
 40
3.0
  1
アートフェイスＨ１６０
 41
0.9
  7
ｽﾀｲﾙ1
100
AcDbText
  0
CIRCLE
  5
D95
330
1A
100
AcDbEntity
  8
ZUWAKU
100
AcDbCircle
 10
12.99610650907925
 20
7.600000075288313
 30
0.0
 40
0.875
  0
LINE
  5
D96
330
1A
100
AcDbEntity
  8
ZUWAKU
100
AcDbLine
 10
13.43360650907925
 20
3.575000075288315
 30
0.0
 11
12.47110650907927
 21
3.575000075288315
 31
0.0
  0
LINE
  5
D97
330
1A
100
AcDbEntity
  8
ZUWAKU
100
AcDbLine
 10
12.47110650907927
 20
4.975000075288313
 30
0.0
 11
13.43360650907925
 21
4.975000075288313
 31
0.0
  0
LINE
  5
D98
330
1A
100
AcDbEntity
  8
ZUWAKU
100
AcDbLine
 10
13.43360650907925
 20
10.22500007528831
 30
0.0
 11
12.47110650907927
 21
10.22500007528831
 31
0.0
  0
LINE
  5
D99
330
1A
100
AcDbEntity
  8
ZUWAKU
100
AcDbLine
 10
12.47110650907927
 20
11.62500007528829
 30
0.0
 11
13.43360650907925
 21
11.62500007528831
 31
0.0
  0
HATCH
  5
D9A
330
1A
100
AcDbEntity
  8
ZUWAKU
100
AcDbHatch
 10
0.0
 20
0.0
 30
0.0
210
0.0
220
0.0
230
1.0
  2
ANSI37
 70
     0
 71
     0
 91
        8
 92
        7
 72
     1
 73
     1
 93
       24
 10
7.251131762248633
 20
8.822424315780104
 42
-0.1989123673796348
 10
7.046106509079265
 20
9.317399062610629
 42
0.0
 10
7.046106509079265
 20
9.962500075288318
 42
-0.4142135623730912
 10
7.308606509079254
 20
10.22500007528831
 42
0.0
 10
8.796106509079208
 20
10.22500007528831
 42
0.4142135623731546
 10
9.058606509079254
 20
10.4875000752883
 42
0.0
 10
9.058606509079254
 20
11.36250007528831
 42
0.4142135623731586
 10
8.796106509079208
 20
11.62500007528831
 42
0.0
 10
7.046106509079265
 20
11.62500007528831
 42
0.4142135623730928
 10
5.646106509079288
 20
10.22500007528832
 42
0.0
 10
5.646106509079288
 20
9.317399062610693
 42
0.1989123673796619
 10
6.261182268587504
 20
7.832474822118889
 42
0.0
 10
7.716081255909841
 20
6.37757583479656
 42
-0.1989123673796613
 10
7.921106509079265
 20
5.882601087965968
 42
0.0
 10
7.921106509079265
 20
5.237500075288309
 42
-0.4142135623730911
 10
7.658606509079277
 20
4.975000075288313
 42
0.0
 10
6.171106509079322
 20
4.975000075288313
 42
0.4142135623731526
 10
5.908606509079277
 20
4.712500075288319
 42
0.0
 10
5.908606509079277
 20
3.837500075288309
 42
0.4142135623731526
 10
6.171106509079322
 20
3.575000075288315
 42
0.0
 10
7.921106509079265
 20
3.575000075288315
 42
0.4142135623731044
 10
9.321106509079299
 20
4.975000075288303
 42
0.0
 10
9.321106509079299
 20
5.882601087965939
 42
0.1989123673796604
 10
8.706030749571027
 20
7.367525328457709
 42
0.0
 97
        0
 92
        7
 72
     1
 73
     1
 93
       16
 10
11.77110650907928
 20
9.525000075288318
 42
-0.4142135623730935
 10
12.47110650907927
 20
10.22500007528831
 42
0.0
 10
13.43360650907925
 20
10.22500007528831
 42
0.4142135623731546
 10
13.69610650907929
 20
10.4875000752883
 42
0.0
 10
13.69610650907929
 20
11.36250007528831
 42
0.4142135623730951
 10
13.43360650907931
 20
11.62500007528831
 42
0.0
 10
12.47110650907922
 20
11.62500007528829
 42
0.4142135623730892
 10
10.37110650907925
 20
9.525000075288282
 42
0.0
 10
10.37110650907925
 20
5.675000075288327
 42
0.4142135623730969
 10
12.47110650907927
 20
3.575000075288315
 42
0.0
 10
13.43360650907925
 20
3.575000075288315
 42
0.4142135623731526
 10
13.69610650907929
 20
3.837500075288309
 42
0.0
 10
13.69610650907929
 20
4.712500075288319
 42
0.4142135623730891
 10
13.43360650907931
 20
4.975000075288313
 42
0.0
 10
12.47110650907927
 20
4.975000075288313
 42
-0.4142135623730928
 10
11.77110650907928
 20
5.675000075288307
 42
0.0
 97
        0
 92
        7
 72
     1
 73
     1
 93
        2
 10
12.12110650907925
 20
7.600000075288313
 42
1.0
 10
13.87110650907925
 20
7.600000075288313
 42
1.0
 97
        0
 92
        7
 72
     1
 73
     1
 93
       26
 10
18.65742975016826
 20
9.602523672070027
 42
0.0
 10
19.18824956673716
 20
11.28345309120482
 42
0.5069206636600134
 10
18.93793411713949
 20
11.62500007528831
 42
0.0
 10
18.08848942733487
 20
11.62500007528831
 42
0.3272098845218764
 10
17.83817397773719
 20
11.44154705937179
 42
0.0
 10
16.9040390404213
 20
8.483453091204854
 42
-0.3272098845219541
 10
16.65372359082357
 20
8.300000075288313
 42
0.0
 10
16.58360650907934
 20
8.300000075288313
 42
-0.4142135623731526
 10
16.3211065090793
 20
8.562500075288307
 42
0.0
 10
16.3211065090793
 20
11.36250007528831
 42
0.4142135623730951
 10
16.05860650907931
 20
11.62500007528831
 42
0.0
 10
15.18360650907925
 20
11.62500007528831
 42
0.4142135623730871
 10
14.92110650907926
 20
11.36250007528832
 42
0.0
 10
14.92110650907926
 20
3.837500075288309
 42
0.4142135623730891
 10
15.18360650907925
 20
3.575000075288315
 42
0.0
 10
16.05860650907925
 20
3.575000075288315
 42
0.4142135623731526
 10
16.3211065090793
 20
3.837500075288309
 42
0.0
 10
16.3211065090793
 20
6.63750007528832
 42
-0.4142135623731526
 10
16.58360650907934
 20
6.900000075288314
 42
0.0
 10
16.65372359082363
 20
6.900000075288314
 42
-0.3272098845218915
 10
16.9040390404213
 20
6.716547059371777
 42
0.0
 10
17.83817397773719
 20
3.758453091204851
 42
0.3272098845218902
 10
18.08848942733487
 20
3.575000075288315
 42
0.0
 10
18.93793411713949
 20
3.575000075288315
 42
0.5069206636600335
 10
19.18824956673716
 20
3.916547059371819
 42
0.0
 10
18.02505387750034
 20
7.600000075288383
 42
0.0
 97
        0
 92
        7
 72
     1
 73
     1
 93
        8
 10
21.74610650907925
 20
11.36250007528831
 42
0.4142135623731546
 10
21.48360650907921
 20
11.62500007528831
 42
0.0
 10
20.60860650907932
 20
11.62500007528831
 42
0.4142135623731507
 10
20.34610650907927
 20
11.36250007528832
 42
0.0
 10
20.34610650907927
 20
3.837500075288309
 42
0.4142135623731526
 10
20.60860650907932
 20
3.575000075288315
 42
0.0
 10
21.48360650907921
 20
3.575000075288315
 42
0.4142135623731526
 10
21.74610650907925
 20
3.837500075288309
 42
0.0
 97
        0
 92
        7
 72
     1
 73
     1
 93
       24
 10
24.1961065090793
 20
9.962500075288318
 42
-0.4142135623731546
 10
24.45860650907934
 20
10.22500007528831
 42
0.0
 10
25.9461065090793
 20
10.22500007528831
 42
0.4142135623730911
 10
26.20860650907928
 20
10.4875000752883
 42
0.0
 10
26.20860650907928
 20
11.36250007528831
 42
0.4142135623730952
 10
25.9461065090793
 20
11.62500007528831
 42
0.0
 10
24.1961065090793
 20
11.62500007528831
 42
0.4142135623731048
 10
22.79610650907926
 20
10.22500007528832
 42
0.0
 10
22.79610650907926
 20
9.317399062610693
 42
0.1989123673796613
 10
23.41118226858753
 20
7.832474822118918
 42
0.0
 10
24.86608125590987
 20
6.377575834796584
 42
-0.1989123673796402
 10
25.0711065090793
 20
5.882601087966047
 42
0.0
 10
25.0711065090793
 20
5.237500075288309
 42
-0.4142135623730911
 10
24.80860650907931
 20
4.975000075288313
 42
0.0
 10
23.32110650907929
 20
4.975000075288313
 42
0.4142135623731526
 10
23.05860650907925
 20
4.712500075288319
 42
0.0
 10
23.05860650907925
 20
3.837500075288309
 42
0.4142135623730891
 10
23.32110650907924
 20
3.575000075288315
 42
0.0
 10
25.0711065090793
 20
3.575000075288315
 42
0.4142135623730925
 10
26.47110650907928
 20
4.975000075288303
 42
0.0
 10
26.47110650907928
 20
5.882601087965939
 42
0.1989123673796675
 10
25.856030749571
 20
7.367525328457766
 42
0.0
 10
24.40113176224872
 20
8.822424315780024
 42
-0.1989123673796652
 10
24.1961065090793
 20
9.317399062610608
 42
0.0
 97
        0
 92
        7
 72
     1
 73
     1
 93
       16
 10
28.92110650907926
 20
11.36250007528831
 42
0.414213562373103
 10
28.65860650907928
 20
11.62500007528831
 42
0.0
 10
27.78360650907927
 20
11.62500007528831
 42
0.4142135623730871
 10
27.52110650907928
 20
11.36250007528832
 42
0.0
 10
27.52110650907928
 20
4.975000075288303
 42
0.4142135623730926
 10
28.92110650907926
 20
3.575000075288315
 42
0.0
 10
30.67110650907926
 20
3.575000075288315
 42
0.4142135623731044
 10
32.0711065090793
 20
4.975000075288303
 42
0.0
 10
32.0711065090793
 20
11.36250007528831
 42
0.4142135623730951
 10
31.80860650907931
 20
11.62500007528831
 42
0.0
 10
30.93360650907925
 20
11.62500007528831
 42
0.4142135623730871
 10
30.67110650907926
 20
11.36250007528832
 42
0.0
 10
30.67110650907926
 20
5.500000075288301
 42
-0.414213562373088
 10
30.14610650907929
 20
4.975000075288313
 42
0.0
 10
29.4461065090793
 20
4.975000075288313
 42
-0.4142135623731197
 10
28.92110650907926
 20
5.500000075288301
 42
0.0
 97
        0
 92
        7
 72
     1
 73
     1
 93
        8
 10
34.52110650907929
 20
11.36250007528832
 42
0.4142135623730871
 10
34.2586065090793
 20
11.62500007528831
 42
0.0
 10
33.38360650907929
 20
11.62500007528831
 42
0.4142135623731507
 10
33.12110650907925
 20
11.36250007528832
 42
0.0
 10
33.12110650907925
 20
3.837500075288309
 42
0.4142135623730891
 10
33.38360650907924
 20
3.575000075288315
 42
0.0
 10
34.2586065090793
 20
3.575000075288315
 42
0.4142135623730891
 10
34.52110650907929
 20
3.837500075288309
 42
0.0
 97
        0
 75
     0
 76
     1
 52
0.0
 41
0.1
 77
     0
 78
     2
 53
45.0
 43
-450.4711517356508
 44
-6.599999924711653
 45
-0.2245064030267288
 46
0.2245064030267288
 79
     0
 53
135.0
 43
-450.4711517356508
 44
-6.599999924711653
 45
-0.2245064030267288
 46
-0.2245064030267288
 79
     0
 47
0.057451373970553
 98
        8
 10
8.039927913200358
 20
7.583586898231089
 10
11.20225793490828
 20
9.422031166513818
 10
12.58218437451853
 20
7.755940898323672
 10
15.45703042250727
 20
8.100648898509064
 10
20.91923644116707
 20
8.330455032279871
 10
23.44910087925347
 20
9.709288233491918
 10
28.27884341788887
 20
9.36457903283582
 10
33.91354024150007
 20
9.594385166606627
  0
ARC
  5
D9B
330
1A
100
AcDbEntity
  8
ZUWAKU
100
AcDbCircle
 10
7.746106509079254
 20
9.317399062610665
 30
0.0
 40
2.099999999999999
100
AcDbArc
 50
180.0
 51
225.0
  0
LINE
  5
D9C
330
1A
100
AcDbEntity
  8
ZUWAKU
100
AcDbLine
 10
10.37110650907925
 20
5.675000075288316
 30
0.0
 11
10.37110650907925
 21
9.525000075288293
 31
0.0
  0
LINE
  5
D9D
330
1A
100
AcDbEntity
  8
ZUWAKU
100
AcDbLine
 10
11.77110650907928
 20
9.525000075288314
 30
0.0
 11
11.77110650907928
 21
5.675000075288316
 31
0.0
  0
ARC
  5
D9E
330
1A
100
AcDbEntity
  8
ZUWAKU
100
AcDbCircle
 10
7.746106509079254
 20
9.317399062610665
 30
0.0
 40
0.7
100
AcDbArc
 50
180.0000000000016
 51
224.9999999999988
  0
ARC
  5
D9F
330
1A
100
AcDbEntity
  8
ZUWAKU
100
AcDbCircle
 10
12.47110650907927
 20
5.675000075288316
 30
0.0
 40
2.099999999999999
100
AcDbArc
 50
180.0
 51
270.0
  0
ARC
  5
DA0
330
1A
100
AcDbEntity
  8
ZUWAKU
100
AcDbCircle
 10
7.921106509079265
 20
4.975000075288313
 30
0.0
 40
1.399999999999999
100
AcDbArc
 50
270.0
 51
0.0
  0
ARC
  5
DA1
330
1A
100
AcDbEntity
  8
ZUWAKU
100
AcDbCircle
 10
7.221106509079277
 20
5.882601087965966
 30
0.0
 40
2.099999999999999
100
AcDbArc
 50
0.0
 51
45.0
  0
LINE
  5
DA2
330
1A
100
AcDbEntity
  8
ZUWAKU
100
AcDbLine
 10
6.261182268587504
 20
7.832474822118904
 30
0.0
 11
7.716081255909841
 21
6.377575834796573
 31
0.0
  0
LINE
  5
DA3
330
1A
100
AcDbEntity
  8
ZUWAKU
100
AcDbLine
 10
6.171106509079265
 20
4.975000075288313
 30
0.0
 11
7.658606509079277
 21
4.975000075288313
 31
0.0
  0
LINE
  5
DA4
330
1A
100
AcDbEntity
  8
ZUWAKU
100
AcDbLine
 10
6.171106509079265
 20
3.575000075288315
 30
0.0
 11
7.921106509079265
 21
3.575000075288315
 31
0.0
  0
ARC
  5
DA5
330
1A
100
AcDbEntity
  8
ZUWAKU
100
AcDbCircle
 10
6.171106509079265
 20
4.712500075288314
 30
0.0
 40
0.2625
100
AcDbArc
 50
90.0
 51
180.0
  0
ARC
  5
DA6
330
1A
100
AcDbEntity
  8
ZUWAKU
100
AcDbCircle
 10
6.171106509079265
 20
3.837500075288314
 30
0.0
 40
0.2625
100
AcDbArc
 50
180.0
 51
270.0
  0
LINE
  5
DA7
330
1A
100
AcDbEntity
  8
ZUWAKU
100
AcDbLine
 10
5.908606509079277
 20
3.837500075288314
 30
0.0
 11
5.908606509079277
 21
4.712500075288314
 31
0.0
  0
ARC
  5
DA8
330
1A
100
AcDbEntity
  8
ZUWAKU
100
AcDbCircle
 10
7.221106509079277
 20
5.882601087965987
 30
0.0
 40
0.7
100
AcDbArc
 50
0.0
 51
45.0
  0
ARC
  5
DA9
330
1A
100
AcDbEntity
  8
ZUWAKU
100
AcDbCircle
 10
7.658606509079277
 20
5.237500075288316
 30
0.0
 40
0.2625
100
AcDbArc
 50
270.0
 51
0.0
  0
LINE
  5
DAA
330
1A
100
AcDbEntity
  8
ZUWAKU
100
AcDbLine
 10
7.921106509079265
 20
5.237500075288316
 30
0.0
 11
7.921106509079265
 21
5.882601087965987
 31
0.0
  0
LINE
  5
DAB
330
1A
100
AcDbEntity
  8
ZUWAKU
100
AcDbLine
 10
8.706030749571027
 20
7.367525328457727
 30
0.0
 11
7.251131762248689
 21
8.822424315780065
 31
0.0
  0
ARC
  5
DAC
330
1A
100
AcDbEntity
  8
ZUWAKU
100
AcDbCircle
 10
12.47110650907927
 20
5.675000075288316
 30
0.0
 40
0.7
100
AcDbArc
 50
180.0
 51
270.0
  0
LINE
  5
DAD
330
1A
100
AcDbEntity
  8
ZUWAKU
100
AcDbLine
 10
9.321106509079299
 20
4.975000075288313
 30
0.0
 11
9.321106509079299
 21
5.882601087965987
 31
0.0
  0
ARC
  5
DAE
330
1A
100
AcDbEntity
  8
ZUWAKU
100
AcDbCircle
 10
8.796106509079265
 20
10.48750007528831
 30
0.0
 40
0.2625
100
AcDbArc
 50
270.0
 51
0.0
  0
ARC
  5
DAF
330
1A
100
AcDbEntity
  8
ZUWAKU
100
AcDbCircle
 10
8.796106509079265
 20
11.36250007528831
 30
0.0
 40
0.2625
100
AcDbArc
 50
0.0
 51
90.0
  0
ARC
  5
DB0
330
1A
100
AcDbEntity
  8
ZUWAKU
100
AcDbCircle
 10
7.046106509079265
 20
10.22500007528831
 30
0.0
 40
1.399999999999999
100
AcDbArc
 50
90.0
 51
180.0
  0
LINE
  5
DB1
330
1A
100
AcDbEntity
  8
ZUWAKU
100
AcDbLine
 10
5.646106509079288
 20
10.22500007528831
 30
0.0
 11
5.646106509079288
 21
9.317399062610643
 31
0.0
  0
LINE
  5
DB2
330
1A
100
AcDbEntity
  8
ZUWAKU
100
AcDbLine
 10
8.796106509079265
 20
10.22500007528831
 30
0.0
 11
7.308606509079254
 21
10.22500007528831
 31
0.0
  0
LINE
  5
DB3
330
1A
100
AcDbEntity
  8
ZUWAKU
100
AcDbLine
 10
7.046106509079265
 20
9.962500075288314
 30
0.0
 11
7.046106509079265
 21
9.317399062610643
 31
0.0
  0
ARC
  5
DB4
330
1A
100
AcDbEntity
  8
ZUWAKU
100
AcDbCircle
 10
7.308606509079254
 20
9.962500075288314
 30
0.0
 40
0.2625
100
AcDbArc
 50
90.0
 51
180.0
  0
LINE
  5
DB5
330
1A
100
AcDbEntity
  8
ZUWAKU
100
AcDbLine
 10
7.046106509079265
 20
11.62500007528831
 30
0.0
 11
8.796106509079265
 21
11.62500007528831
 31
0.0
  0
ARC
  5
DB6
330
1A
100
AcDbEntity
  8
ZUWAKU
100
AcDbCircle
 10
12.47110650907927
 20
9.525000075288293
 30
0.0
 40
2.099999999999999
100
AcDbArc
 50
90.0
 51
180.0
  0
ARC
  5
DB7
330
1A
100
AcDbEntity
  8
ZUWAKU
100
AcDbCircle
 10
12.47110650907927
 20
9.525000075288314
 30
0.0
 40
0.7
100
AcDbArc
 50
90.0
 51
180.0
  0
LINE
  5
DB8
330
1A
100
AcDbEntity
  8
ZUWAKU
100
AcDbLine
 10
9.058606509079254
 20
11.36250007528831
 30
0.0
 11
9.058606509079254
 21
10.48750007528831
 31
0.0
  0
LINE
  5
DB9
330
1A
100
AcDbEntity
  8
ZUWAKU
100
AcDbLine
 10
17.83817397773719
 20
11.44154705937179
 30
0.0
 11
16.9040390404213
 21
8.483453091204829
 31
0.0
  0
LINE
  5
DBA
330
1A
100
AcDbEntity
  8
ZUWAKU
100
AcDbLine
 10
14.92110650907926
 20
11.36250007528831
 30
0.0
 11
14.92110650907926
 21
3.837500075288314
 31
0.0
  0
LINE
  5
DBB
330
1A
100
AcDbEntity
  8
ZUWAKU
100
AcDbLine
 10
16.3211065090793
 20
8.562500075288316
 30
0.0
 11
16.3211065090793
 21
11.36250007528831
 31
0.0
  0
LINE
  5
DBC
330
1A
100
AcDbEntity
  8
ZUWAKU
100
AcDbLine
 10
28.92110650907926
 20
5.500000075288312
 30
0.0
 11
28.92110650907926
 21
11.36250007528831
 31
0.0
  0
LINE
  5
DBD
330
1A
100
AcDbEntity
  8
ZUWAKU
100
AcDbLine
 10
27.52110650907928
 20
11.36250007528831
 30
0.0
 11
27.52110650907928
 21
4.975000075288313
 31
0.0
  0
LINE
  5
DBE
330
1A
100
AcDbEntity
  8
ZUWAKU
100
AcDbLine
 10
21.74610650907925
 20
3.837500075288314
 30
0.0
 11
21.74610650907925
 21
11.36250007528831
 31
0.0
  0
LINE
  5
DBF
330
1A
100
AcDbEntity
  8
ZUWAKU
100
AcDbLine
 10
20.34610650907927
 20
11.36250007528831
 30
0.0
 11
20.34610650907927
 21
3.837500075288314
 31
0.0
  0
LINE
  5
DC0
330
1A
100
AcDbEntity
  8
ZUWAKU
100
AcDbLine
 10
18.65742975016826
 20
9.602523672070027
 30
0.0
 11
18.02505387750034
 21
7.600000075288324
 31
0.0
  0
ARC
  5
DC1
330
1A
100
AcDbEntity
  8
ZUWAKU
100
AcDbCircle
 10
24.89610650907929
 20
9.317399062610665
 30
0.0
 40
2.099999999999999
100
AcDbArc
 50
180.0
 51
225.0
  0
ARC
  5
DC2
330
1A
100
AcDbEntity
  8
ZUWAKU
100
AcDbCircle
 10
24.89610650907929
 20
9.317399062610665
 30
0.0
 40
0.7
100
AcDbArc
 50
180.0000000000016
 51
224.9999999999988
  0
LINE
  5
DC3
330
1A
100
AcDbEntity
  8
ZUWAKU
100
AcDbLine
 10
33.12110650907925
 20
11.36250007528831
 30
0.0
 11
33.12110650907925
 21
3.837500075288314
 31
0.0
  0
LINE
  5
DC4
330
1A
100
AcDbEntity
  8
ZUWAKU
100
AcDbLine
 10
34.52110650907929
 20
3.837500075288314
 30
0.0
 11
34.52110650907929
 21
11.36250007528831
 31
0.0
  0
LINE
  5
DC5
330
1A
100
AcDbEntity
  8
ZUWAKU
100
AcDbLine
 10
30.67110650907926
 20
11.36250007528831
 30
0.0
 11
30.67110650907926
 21
5.500000075288312
 31
0.0
  0
LINE
  5
DC6
330
1A
100
AcDbEntity
  8
ZUWAKU
100
AcDbLine
 10
32.0711065090793
 20
4.975000075288313
 30
0.0
 11
32.0711065090793
 21
11.36250007528831
 31
0.0
  0
LINE
  5
DC7
330
1A
100
AcDbEntity
  8
ZUWAKU
100
AcDbLine
 10
39.56331520568289
 20
15.00000007528831
 30
0.0
 11
39.56331520568289
 21
0.4000000752883466
 31
0.0
  0
LINE
  5
DC8
330
1A
100
AcDbEntity
  8
ZUWAKU
100
AcDbLine
 10
39.76331520568283
 20
15.00000007528831
 30
0.0
 11
39.76331520568294
 21
0.4000000752883466
 31
0.0
  0
LINE
  5
DC9
330
1A
100
AcDbEntity
  8
ZUWAKU
100
AcDbLine
 10
39.6633152056828
 20
15.00000007528831
 30
0.0
 11
39.66331520568292
 21
0.4000000752883466
 31
0.0
  0
LINE
  5
DCA
330
1A
100
AcDbEntity
  8
ZUWAKU
100
AcDbLine
 10
28.92110650907926
 20
3.575000075288315
 30
0.0
 11
30.67110650907926
 21
3.575000075288315
 31
0.0
  0
LINE
  5
DCB
330
1A
100
AcDbEntity
  8
ZUWAKU
100
AcDbLine
 10
30.14610650907929
 20
4.975000075288313
 30
0.0
 11
29.4461065090793
 21
4.975000075288313
 31
0.0
  0
LINE
  5
DCC
330
1A
100
AcDbEntity
  8
ZUWAKU
100
AcDbLine
 10
20.60860650907926
 20
3.575000075288315
 30
0.0
 11
21.48360650907926
 21
3.575000075288315
 31
0.0
  0
LINE
  5
DCD
330
1A
100
AcDbEntity
  8
ZUWAKU
100
AcDbLine
 10
17.83817397773719
 20
3.758453091204827
 30
0.0
 11
16.9040390404213
 21
6.716547059371798
 31
0.0
  0
ARC
  5
DCE
330
1A
100
AcDbEntity
  8
ZUWAKU
100
AcDbCircle
 10
16.58360650907928
 20
6.637500075288315
 30
0.0
 40
0.2625
100
AcDbArc
 50
90.0
 51
180.0
  0
ARC
  5
DCF
330
1A
100
AcDbEntity
  8
ZUWAKU
100
AcDbCircle
 10
16.65372359082363
 20
6.637500075288315
 30
0.0
 40
0.2625
100
AcDbArc
 50
17.52556837372303
 51
90.0
  0
ARC
  5
DD0
330
1A
100
AcDbEntity
  8
ZUWAKU
100
AcDbCircle
 10
15.18360650907925
 20
3.837500075288314
 30
0.0
 40
0.2625
100
AcDbArc
 50
180.0
 51
270.0
  0
ARC
  5
DD1
330
1A
100
AcDbEntity
  8
ZUWAKU
100
AcDbCircle
 10
13.43360650907925
 20
4.712500075288314
 30
0.0
 40
0.2625
100
AcDbArc
 50
0.0
 51
90.0
  0
ARC
  5
DD2
330
1A
100
AcDbEntity
  8
ZUWAKU
100
AcDbCircle
 10
13.43360650907925
 20
3.837500075288314
 30
0.0
 40
0.2625
100
AcDbArc
 50
270.0
 51
0.0
  0
LINE
  5
DD3
330
1A
100
AcDbEntity
  8
ZUWAKU
100
AcDbLine
 10
13.69610650907929
 20
4.712500075288314
 30
0.0
 11
13.69610650907929
 21
3.837500075288314
 31
0.0
  0
LINE
  5
DD4
330
1A
100
AcDbEntity
  8
ZUWAKU
100
AcDbLine
 10
16.3211065090793
 20
3.837500075288314
 30
0.0
 11
16.3211065090793
 21
6.637500075288315
 31
0.0
  0
ARC
  5
DD5
330
1A
100
AcDbEntity
  8
ZUWAKU
100
AcDbCircle
 10
16.05860650907925
 20
3.837500075288314
 30
0.0
 40
0.2625
100
AcDbArc
 50
270.0
 51
0.0
  0
LINE
  5
DD6
330
1A
100
AcDbEntity
  8
ZUWAKU
100
AcDbLine
 10
15.18360650907925
 20
3.575000075288315
 30
0.0
 11
16.05860650907925
 21
3.575000075288315
 31
0.0
  0
ARC
  5
DD7
330
1A
100
AcDbEntity
  8
ZUWAKU
100
AcDbCircle
 10
16.58360650907928
 20
8.562500075288316
 30
0.0
 40
0.2625
100
AcDbArc
 50
180.0
 51
270.0
  0
LINE
  5
DD8
330
1A
100
AcDbEntity
  8
ZUWAKU
100
AcDbLine
 10
16.58360650907928
 20
6.900000075288314
 30
0.0
 11
16.65372359082363
 21
6.900000075288314
 31
0.0
  0
LINE
  5
DD9
330
1A
100
AcDbEntity
  8
ZUWAKU
100
AcDbLine
 10
16.65372359082363
 20
8.300000075288313
 30
0.0
 11
16.58360650907928
 21
8.300000075288313
 31
0.0
  0
ARC
  5
DDA
330
1A
100
AcDbEntity
  8
ZUWAKU
100
AcDbCircle
 10
16.65372359082363
 20
8.562500075288316
 30
0.0
 40
0.2625
100
AcDbArc
 50
270.0
 51
342.4744316262769
  0
ARC
  5
DDB
330
1A
100
AcDbEntity
  8
ZUWAKU
100
AcDbCircle
 10
18.08848942733493
 20
3.837500075288314
 30
0.0
 40
0.2625
100
AcDbArc
 50
197.525568373723
 51
270.0
  0
LINE
  5
DDC
330
1A
100
AcDbEntity
  8
ZUWAKU
100
AcDbLine
 10
19.18824956673716
 20
3.916547059371801
 30
0.0
 11
18.02505387750034
 21
7.600000075288324
 31
0.0
  0
ARC
  5
DDD
330
1A
100
AcDbEntity
  8
ZUWAKU
100
AcDbCircle
 10
18.93793411713943
 20
3.837500075288314
 30
0.0
 40
0.2625
100
AcDbArc
 50
270.0
 51
17.52556837372303
  0
LINE
  5
DDE
330
1A
100
AcDbEntity
  8
ZUWAKU
100
AcDbLine
 10
18.08848942733493
 20
3.575000075288315
 30
0.0
 11
18.93793411713943
 21
3.575000075288315
 31
0.0
  0
ARC
  5
DDF
330
1A
100
AcDbEntity
  8
ZUWAKU
100
AcDbCircle
 10
20.60860650907926
 20
3.837500075288314
 30
0.0
 40
0.2625
100
AcDbArc
 50
180.0
 51
270.0
  0
ARC
  5
DE0
330
1A
100
AcDbEntity
  8
ZUWAKU
100
AcDbCircle
 10
25.0711065090793
 20
4.975000075288313
 30
0.0
 40
1.399999999999999
100
AcDbArc
 50
270.0
 51
0.0
  0
ARC
  5
DE1
330
1A
100
AcDbEntity
  8
ZUWAKU
100
AcDbCircle
 10
28.92110650907926
 20
4.975000075288313
 30
0.0
 40
1.399999999999999
100
AcDbArc
 50
180.0
 51
270.0
  0
LINE
  5
DE2
330
1A
100
AcDbEntity
  8
ZUWAKU
100
AcDbLine
 10
25.85603074957106
 20
7.367525328457727
 30
0.0
 11
24.40113176224866
 21
8.822424315780065
 31
0.0
  0
LINE
  5
DE3
330
1A
100
AcDbEntity
  8
ZUWAKU
100
AcDbLine
 10
23.41118226858753
 20
7.832474822118904
 30
0.0
 11
24.86608125590987
 21
6.377575834796573
 31
0.0
  0
LINE
  5
DE4
330
1A
100
AcDbEntity
  8
ZUWAKU
100
AcDbLine
 10
23.32110650907929
 20
3.575000075288315
 30
0.0
 11
25.0711065090793
 21
3.575000075288315
 31
0.0
  0
LINE
  5
DE5
330
1A
100
AcDbEntity
  8
ZUWAKU
100
AcDbLine
 10
23.32110650907929
 20
4.975000075288313
 30
0.0
 11
24.80860650907925
 21
4.975000075288313
 31
0.0
  0
ARC
  5
DE6
330
1A
100
AcDbEntity
  8
ZUWAKU
100
AcDbCircle
 10
23.32110650907929
 20
4.712500075288314
 30
0.0
 40
0.2625
100
AcDbArc
 50
90.0
 51
180.0
  0
ARC
  5
DE7
330
1A
100
AcDbEntity
  8
ZUWAKU
100
AcDbCircle
 10
21.48360650907926
 20
3.837500075288314
 30
0.0
 40
0.2625
100
AcDbArc
 50
270.0
 51
0.0
  0
ARC
  5
DE8
330
1A
100
AcDbEntity
  8
ZUWAKU
100
AcDbCircle
 10
23.32110650907929
 20
3.837500075288314
 30
0.0
 40
0.2625
100
AcDbArc
 50
180.0
 51
270.0
  0
LINE
  5
DE9
330
1A
100
AcDbEntity
  8
ZUWAKU
100
AcDbLine
 10
23.05860650907925
 20
3.837500075288314
 30
0.0
 11
23.05860650907925
 21
4.712500075288314
 31
0.0
  0
ARC
  5
DEA
330
1A
100
AcDbEntity
  8
ZUWAKU
100
AcDbCircle
 10
24.80860650907925
 20
5.237500075288316
 30
0.0
 40
0.2625
100
AcDbArc
 50
270.0
 51
0.0
  0
ARC
  5
DEB
330
1A
100
AcDbEntity
  8
ZUWAKU
100
AcDbCircle
 10
24.37110650907925
 20
5.882601087965987
 30
0.0
 40
0.7
100
AcDbArc
 50
0.0
 51
45.0
  0
LINE
  5
DEC
330
1A
100
AcDbEntity
  8
ZUWAKU
100
AcDbLine
 10
25.0711065090793
 20
5.237500075288316
 30
0.0
 11
25.0711065090793
 21
5.882601087965987
 31
0.0
  0
ARC
  5
DED
330
1A
100
AcDbEntity
  8
ZUWAKU
100
AcDbCircle
 10
29.4461065090793
 20
5.500000075288312
 30
0.0
 40
0.525
100
AcDbArc
 50
180.0
 51
270.0
  0
ARC
  5
DEE
330
1A
100
AcDbEntity
  8
ZUWAKU
100
AcDbCircle
 10
24.37110650907925
 20
5.882601087965966
 30
0.0
 40
2.099999999999999
100
AcDbArc
 50
0.0
 51
45.0
  0
LINE
  5
DEF
330
1A
100
AcDbEntity
  8
ZUWAKU
100
AcDbLine
 10
26.47110650907928
 20
4.975000075288313
 30
0.0
 11
26.47110650907928
 21
5.882601087965987
 31
0.0
  0
ARC
  5
DF0
330
1A
100
AcDbEntity
  8
ZUWAKU
100
AcDbCircle
 10
30.67110650907926
 20
4.975000075288313
 30
0.0
 40
1.399999999999999
100
AcDbArc
 50
270.0
 51
0.0
  0
LINE
  5
DF1
330
1A
100
AcDbEntity
  8
ZUWAKU
100
AcDbLine
 10
33.38360650907929
 20
3.575000075288315
 30
0.0
 11
34.2586065090793
 21
3.575000075288315
 31
0.0
  0
ARC
  5
DF2
330
1A
100
AcDbEntity
  8
ZUWAKU
100
AcDbCircle
 10
30.14610650907929
 20
5.500000075288312
 30
0.0
 40
0.525
100
AcDbArc
 50
270.0
 51
0.0
  0
ARC
  5
DF3
330
1A
100
AcDbEntity
  8
ZUWAKU
100
AcDbCircle
 10
33.38360650907929
 20
3.837500075288314
 30
0.0
 40
0.2625
100
AcDbArc
 50
180.0
 51
270.0
  0
ARC
  5
DF4
330
1A
100
AcDbEntity
  8
ZUWAKU
100
AcDbCircle
 10
34.2586065090793
 20
3.837500075288314
 30
0.0
 40
0.2625
100
AcDbArc
 50
270.0
 51
0.0
  0
LINE
  5
DF5
330
1A
100
AcDbEntity
  8
ZUWAKU
100
AcDbLine
 10
21.48360650907926
 20
11.62500007528831
 30
0.0
 11
20.60860650907926
 21
11.62500007528831
 31
0.0
  0
LINE
  5
DF6
330
1A
100
AcDbEntity
  8
ZUWAKU
100
AcDbLine
 10
13.69610650907929
 20
11.36250007528831
 30
0.0
 11
13.69610650907929
 21
10.48750007528831
 31
0.0
  0
ARC
  5
DF7
330
1A
100
AcDbEntity
  8
ZUWAKU
100
AcDbCircle
 10
13.43360650907925
 20
10.48750007528831
 30
0.0
 40
0.2625
100
AcDbArc
 50
270.0
 51
0.0
  0
ARC
  5
DF8
330
1A
100
AcDbEntity
  8
ZUWAKU
100
AcDbCircle
 10
15.18360650907925
 20
11.36250007528831
 30
0.0
 40
0.2625
100
AcDbArc
 50
90.0
 51
180.0
  0
ARC
  5
DF9
330
1A
100
AcDbEntity
  8
ZUWAKU
100
AcDbCircle
 10
13.43360650907925
 20
11.36250007528831
 30
0.0
 40
0.2625
100
AcDbArc
 50
0.0
 51
90.0
  0
LINE
  5
DFA
330
1A
100
AcDbEntity
  8
ZUWAKU
100
AcDbLine
 10
16.05860650907925
 20
11.62500007528831
 30
0.0
 11
15.18360650907925
 21
11.62500007528831
 31
0.0
  0
ARC
  5
DFB
330
1A
100
AcDbEntity
  8
ZUWAKU
100
AcDbCircle
 10
16.05860650907925
 20
11.36250007528831
 30
0.0
 40
0.2625
100
AcDbArc
 50
0.0
 51
90.0
  0
ARC
  5
DFC
330
1A
100
AcDbEntity
  8
ZUWAKU
100
AcDbCircle
 10
18.08848942733493
 20
11.36250007528831
 30
0.0
 40
0.2625
100
AcDbArc
 50
90.0
 51
162.4744316262769
  0
LINE
  5
DFD
330
1A
100
AcDbEntity
  8
ZUWAKU
100
AcDbLine
 10
19.18824956673716
 20
11.28345309120483
 30
0.0
 11
18.65742975016826
 21
9.602523672070027
 31
0.0
  0
ARC
  5
DFE
330
1A
100
AcDbEntity
  8
ZUWAKU
100
AcDbCircle
 10
18.93793411713943
 20
11.36250007528831
 30
0.0
 40
0.2625
100
AcDbArc
 50
342.4744316262769
 51
90.0
  0
LINE
  5
DFF
330
1A
100
AcDbEntity
  8
ZUWAKU
100
AcDbLine
 10
18.08848942733493
 20
11.62500007528831
 30
0.0
 11
18.93793411713943
 21
11.62500007528831
 31
0.0
  0
ARC
  5
E00
330
1A
100
AcDbEntity
  8
ZUWAKU
100
AcDbCircle
 10
20.60860650907926
 20
11.36250007528831
 30
0.0
 40
0.2625
100
AcDbArc
 50
90.0
 51
180.0
  0
LINE
  5
E01
330
1A
100
AcDbEntity
  8
ZUWAKU
100
AcDbLine
 10
25.9461065090793
 20
10.22500007528831
 30
0.0
 11
24.45860650907929
 21
10.22500007528831
 31
0.0
  0
LINE
  5
E02
330
1A
100
AcDbEntity
  8
ZUWAKU
100
AcDbLine
 10
24.1961065090793
 20
11.62500007528831
 30
0.0
 11
25.9461065090793
 21
11.62500007528831
 31
0.0
  0
ARC
  5
E03
330
1A
100
AcDbEntity
  8
ZUWAKU
100
AcDbCircle
 10
24.1961065090793
 20
10.22500007528831
 30
0.0
 40
1.399999999999999
100
AcDbArc
 50
90.0
 51
180.0
  0
LINE
  5
E04
330
1A
100
AcDbEntity
  8
ZUWAKU
100
AcDbLine
 10
22.79610650907926
 20
10.22500007528831
 30
0.0
 11
22.79610650907926
 21
9.317399062610643
 31
0.0
  0
ARC
  5
E05
330
1A
100
AcDbEntity
  8
ZUWAKU
100
AcDbCircle
 10
21.48360650907926
 20
11.36250007528831
 30
0.0
 40
0.2625
100
AcDbArc
 50
0.0
 51
90.0
  0
LINE
  5
E06
330
1A
100
AcDbEntity
  8
ZUWAKU
100
AcDbLine
 10
24.1961065090793
 20
9.962500075288314
 30
0.0
 11
24.1961065090793
 21
9.317399062610643
 31
0.0
  0
ARC
  5
E07
330
1A
100
AcDbEntity
  8
ZUWAKU
100
AcDbCircle
 10
24.45860650907929
 20
9.962500075288314
 30
0.0
 40
0.2625
100
AcDbArc
 50
90.0
 51
180.0
  0
LINE
  5
E08
330
1A
100
AcDbEntity
  8
ZUWAKU
100
AcDbLine
 10
26.20860650907928
 20
11.36250007528831
 30
0.0
 11
26.20860650907928
 21
10.48750007528831
 31
0.0
  0
ARC
  5
E09
330
1A
100
AcDbEntity
  8
ZUWAKU
100
AcDbCircle
 10
25.9461065090793
 20
10.48750007528831
 30
0.0
 40
0.2625
100
AcDbArc
 50
270.0
 51
0.0
  0
ARC
  5
E0A
330
1A
100
AcDbEntity
  8
ZUWAKU
100
AcDbCircle
 10
25.9461065090793
 20
11.36250007528831
 30
0.0
 40
0.2625
100
AcDbArc
 50
0.0
 51
90.0
  0
LINE
  5
E0B
330
1A
100
AcDbEntity
  8
ZUWAKU
100
AcDbLine
 10
28.65860650907928
 20
11.62500007528831
 30
0.0
 11
27.78360650907927
 21
11.62500007528831
 31
0.0
  0
ARC
  5
E0C
330
1A
100
AcDbEntity
  8
ZUWAKU
100
AcDbCircle
 10
27.78360650907927
 20
11.36250007528831
 30
0.0
 40
0.2625
100
AcDbArc
 50
90.0
 51
180.0
  0
ARC
  5
E0D
330
1A
100
AcDbEntity
  8
ZUWAKU
100
AcDbCircle
 10
28.65860650907928
 20
11.36250007528831
 30
0.0
 40
0.2625
100
AcDbArc
 50
0.0
 51
90.0
  0
LINE
  5
E0E
330
1A
100
AcDbEntity
  8
ZUWAKU
100
AcDbLine
 10
34.2586065090793
 20
11.62500007528831
 30
0.0
 11
33.38360650907929
 21
11.62500007528831
 31
0.0
  0
ARC
  5
E0F
330
1A
100
AcDbEntity
  8
ZUWAKU
100
AcDbCircle
 10
30.93360650907925
 20
11.36250007528831
 30
0.0
 40
0.2625
100
AcDbArc
 50
90.0
 51
180.0
  0
LINE
  5
E10
330
1A
100
AcDbEntity
  8
ZUWAKU
100
AcDbLine
 10
31.80860650907925
 20
11.62500007528831
 30
0.0
 11
30.93360650907925
 21
11.62500007528831
 31
0.0
  0
ARC
  5
E11
330
1A
100
AcDbEntity
  8
ZUWAKU
100
AcDbCircle
 10
31.80860650907925
 20
11.36250007528831
 30
0.0
 40
0.2625
100
AcDbArc
 50
0.0
 51
90.0
  0
ARC
  5
E12
330
1A
100
AcDbEntity
  8
ZUWAKU
100
AcDbCircle
 10
33.38360650907929
 20
11.36250007528831
 30
0.0
 40
0.2625
100
AcDbArc
 50
90.0
 51
180.0
  0
ARC
  5
E13
330
1A
100
AcDbEntity
  8
ZUWAKU
100
AcDbCircle
 10
34.2586065090793
 20
11.36250007528831
 30
0.0
 40
0.2625
100
AcDbArc
 50
0.0
 51
90.0
  0
LINE
  5
E14
330
1A
100
AcDbEntity
  8
ZUWAKU
100
AcDbLine
 10
104.2233010767225
 20
15.00000007528831
 30
0.0
 11
104.2233010767226
 21
0.4000000752883466
 31
0.0
  0
LINE
  5
E15
330
1A
100
AcDbEntity
  8
ZUWAKU
100
AcDbLine
 10
104.3233010767226
 20
15.00000007528831
 30
0.0
 11
104.3233010767227
 21
0.4000000752883466
 31
0.0
  0
LINE
  5
E16
330
1A
100
AcDbEntity
  8
ZUWAKU
100
AcDbLine
 10
104.1233010767226
 20
15.00000007528831
 30
0.0
 11
104.1233010767226
 21
0.4000000752883466
 31
0.0
  0
TEXT
  5
E17
330
1A
100
AcDbEntity
  8
MOJI
100
AcDbText
 10
119.9136017721142
 20
9.002460603992005
 30
0.0
 40
2.799999999999999
  1
のきとい
 41
0.9
  7
ｽﾀｲﾙ1
100
AcDbText
  0
TEXT
  5
E18
330
1A
100
AcDbEntity
  8
ZUWAKU
100
AcDbText
 10
104.8620235878274
 20
4.827678344481121
 30
0.0
 40
2.0
  1
サイズ
 41
0.9
  7
ｽﾀｲﾙ1
100
AcDbText
  0
TEXT
  5
E19
330
1A
100
AcDbEntity
  8
MOJI
100
AcDbText
 10
119.9136017721142
 20
1.602460603992023
 30
0.0
 40
2.799999999999999
  1
Ｈ１６０－４,０００
 41
0.9
  7
ｽﾀｲﾙ1
100
AcDbText
  0
TEXT
  5
E1A
330
1A
100
AcDbEntity
  8
ZUWAKU
100
AcDbText
 10
104.8620235878273
 20
12.0276783444811
 30
0.0
 40
2.0
  1
品名
 41
0.9
  7
ｽﾀｲﾙ1
100
AcDbText
  0
TEXT
  5
E1B
330
1A
100
AcDbEntity
  8
ZUWAKU
100
AcDbText
 10
329.1019692753399
 20
9.002460603992005
 30
0.0
 40
2.799999999999999
  1
　　．　　．　　
 41
0.9
  7
ｽﾀｲﾙ1
100
AcDbText
  0
LINE
  5
E1C
330
1A
100
AcDbEntity
  8
ZUWAKU
100
AcDbLine
 10
324.4086016867908
 20
7.800000075288329
 30
0.0
 11
348.6245057059593
 21
7.800000075288329
 31
0.0
  0
LINE
  5
E1D
330
1A
100
AcDbEntity
  8
ZUWAKU
100
AcDbLine
 10
324.4086016867909
 20
7.700000075288331
 30
0.0
 11
348.6245057059593
 21
7.700000075288329
 31
0.0
  0
LINE
  5
E1E
330
1A
100
AcDbEntity
  8
ZUWAKU
100
AcDbLine
 10
324.4086016867908
 20
7.600000075288328
 30
0.0
 11
348.6245057059593
 21
7.600000075288329
 31
0.0
  0
LINE
  5
E1F
330
1A
100
AcDbEntity
  8
ZUWAKU
100
AcDbLine
 10
252.5995901807591
 20
7.800000075288329
 30
0.0
 11
276.2634783147449
 21
7.800000075288329
 31
0.0
  0
LINE
  5
E20
330
1A
100
AcDbEntity
  8
ZUWAKU
100
AcDbLine
 10
252.5995901807591
 20
7.700000075288329
 30
0.0
 11
276.2634783147449
 21
7.700000075288329
 31
0.0
  0
LINE
  5
E21
330
1A
100
AcDbEntity
  8
ZUWAKU
100
AcDbLine
 10
252.5995901807591
 20
7.600000075288331
 30
0.0
 11
276.2634783147449
 21
7.600000075288331
 31
0.0
  0
LINE
  5
E22
330
1A
100
AcDbEntity
  8
ZUWAKU
100
AcDbLine
 10
252.3995901807592
 20
15.00000007528831
 30
0.0
 11
252.3995901807592
 21
0.4000000752883466
 31
0.0
  0
LINE
  5
E23
330
1A
100
AcDbEntity
  8
ZUWAKU
100
AcDbLine
 10
252.5995901807591
 20
15.00000007528831
 30
0.0
 11
252.5995901807592
 21
0.4000000752883466
 31
0.0
  0
LINE
  5
E24
330
1A
100
AcDbEntity
  8
ZUWAKU
100
AcDbLine
 10
252.4995901807591
 20
15.00000007528831
 30
0.0
 11
252.4995901807592
 21
0.4000000752883466
 31
0.0
  0
TEXT
  5
E25
330
1A
100
AcDbEntity
  8
MOJI
100
AcDbText
 10
264.0204544178451
 20
9.002460603992005
 30
0.0
 40
2.799999999999999
  1
Ａ３
 41
0.9
  7
ｽﾀｲﾙ1
100
AcDbText
  0
LINE
  5
E26
330
1A
100
AcDbEntity
  8
ZUWAKU
100
AcDbLine
 10
223.7121824171844
 20
15.00000007528831
 30
0.0
 11
223.7121824171844
 21
0.4000000752883466
 31
0.0
  0
LINE
  5
E27
330
1A
100
AcDbEntity
  8
ZUWAKU
100
AcDbLine
 10
223.9121824171843
 20
15.00000007528831
 30
0.0
 11
223.9121824171844
 21
0.4000000752883466
 31
0.0
  0
LINE
  5
E28
330
1A
100
AcDbEntity
  8
ZUWAKU
100
AcDbLine
 10
223.8121824171843
 20
15.00000007528831
 30
0.0
 11
223.8121824171844
 21
0.4000000752883466
 31
0.0
  0
TEXT
  5
E29
330
1A
100
AcDbEntity
  8
MOJI
100
AcDbText
 10
231.6232164271897
 20
5.971308936118305
 30
0.0
 40
2.799999999999999
  1
ＣＡ８１□
 41
0.9
  7
ｽﾀｲﾙ1
100
AcDbText
  0
TEXT
  5
E2A
330
1A
100
AcDbEntity
  8
ZUWAKU
100
AcDbText
 10
230.6528771429501
 20
1.307035530858058
 30
0.0
 40
1.5
  1
□には色品番が入ります
 41
0.9
  7
ｽﾀｲﾙ1
100
AcDbText
  0
TEXT
  5
E2B
330
1A
100
AcDbEntity
  8
ZUWAKU
100
AcDbText
 10
253.338312691864
 20
4.827678344481121
 30
0.0
 40
2.0
  1
縮尺
 41
0.9
  7
ｽﾀｲﾙ1
100
AcDbText
  0
TEXT
  5
E2C
330
1A
100
AcDbEntity
  8
MOJI
100
AcDbText
 10
264.0204544178451
 20
1.602460603992023
 30
0.0
 40
2.799999999999999
  1
１/１
 41
0.9
  7
ｽﾀｲﾙ1
100
AcDbText
  0
TEXT
  5
E2D
330
1A
100
AcDbEntity
  8
ZUWAKU
100
AcDbText
 10
224.6509049282891
 20
12.0276783444811
 30
0.0
 40
2.0
  1
品番
 41
0.9
  7
ｽﾀｲﾙ1
100
AcDbText
  0
TEXT
  5
E2E
330
1A
100
AcDbEntity
  8
ZUWAKU
100
AcDbText
 10
253.3383126918639
 20
12.0276783444811
 30
0.0
 40
2.0
  1
用紙
 41
0.9
  7
ｽﾀｲﾙ1
100
AcDbText
  0
LINE
  5
E2F
330
1A
100
AcDbEntity
  8
ZUWAKU
100
AcDbLine
 10
276.2634783147449
 20
15.00000007528831
 30
0.0
 11
276.2634783147449
 21
0.4000000752883466
 31
0.0
  0
LINE
  5
E30
330
1A
100
AcDbEntity
  8
ZUWAKU
100
AcDbLine
 10
276.4634783147448
 20
15.00000007528831
 30
0.0
 11
276.4634783147449
 21
0.4000000752883466
 31
0.0
  0
LINE
  5
E31
330
1A
100
AcDbEntity
  8
ZUWAKU
100
AcDbLine
 10
276.3634783147448
 20
15.00000007528831
 30
0.0
 11
276.3634783147449
 21
0.4000000752883466
 31
0.0
  0
LINE
  5
E32
330
1A
100
AcDbEntity
  8
ZUWAKU
100
AcDbLine
 10
324.2086016867909
 20
15.00000007528831
 30
0.0
 11
324.2086016867909
 21
0.4000000752883466
 31
0.0
  0
LINE
  5
E33
330
1A
100
AcDbEntity
  8
ZUWAKU
100
AcDbLine
 10
324.4086016867909
 20
15.00000007528831
 30
0.0
 11
324.408601686791
 21
0.4000000752883466
 31
0.0
  0
LINE
  5
E34
330
1A
100
AcDbEntity
  8
ZUWAKU
100
AcDbLine
 10
324.3086016867909
 20
15.00000007528831
 30
0.0
 11
324.308601686791
 21
0.4000000752883466
 31
0.0
  0
TEXT
  5
E35
330
1A
100
AcDbEntity
  8
ZUWAKU
100
AcDbText
 10
325.1473241978957
 20
12.0276783444811
 30
0.0
 40
2.0
  1
DATE
 41
0.9
  7
ｽﾀｲﾙ1
100
AcDbText
  0
TEXT
  5
E36
330
1A
100
AcDbEntity
  8
ZUWAKU
100
AcDbText
 10
354.2640425278106
 20
8.776919743131713
 30
0.0
 40
3.0
  1
積水化学工業株式会社
 41
0.9
  7
ｽﾀｲﾙ1
100
AcDbText
  0
LINE
  5
E37
330
1A
100
AcDbEntity
  8
ZUWAKU
100
AcDbLine
 10
348.9245057059592
 20
15.00000007528831
 30
0.0
 11
348.9245057059594
 21
0.4000000752883466
 31
0.0
  0
LINE
  5
E38
330
1A
100
AcDbEntity
  8
ZUWAKU
100
AcDbLine
 10
348.8245057059592
 20
15.00000007528831
 30
0.0
 11
348.8245057059593
 21
0.4000000752883466
 31
0.0
  0
LINE
  5
E39
330
1A
100
AcDbEntity
  8
ZUWAKU
100
AcDbLine
 10
348.7245057059593
 20
15.00000007528831
 30
0.0
 11
348.7245057059593
 21
0.4000000752883466
 31
0.0
  0
LINE
  5
E3A
330
1A
100
AcDbEntity
  8
ZUWAKU
100
AcDbLine
 10
348.6245057059593
 20
15.00000007528831
 30
0.0
 11
348.6245057059593
 21
0.4000000752883466
 31
0.0
  0
TEXT
  5
E3B
330
1A
100
AcDbEntity
  8
ZUWAKU
100
AcDbText
 10
354.2640425278106
 20
3.324420232215345
 30
0.0
 40
3.0
  1
建材事業部
 41
0.9
  7
ｽﾀｲﾙ1
100
AcDbText
  0
LINE
  5
FD8
330
1A
100
AcDbEntity
  8
KEIJYO
 62
   251
100
AcDbLine
 10
153.6651398362698
 20
188.8411999023475
 30
0.0
 11
155.2227746249275
 21
188.8411999023475
 31
0.0
  0
LINE
  5
FD9
330
1A
100
AcDbEntity
  8
KEIJYO
 62
   251
100
AcDbLine
 10
154.4439572305984
 20
189.6200172966763
 30
0.0
 11
154.4439572305984
 21
188.0623825080188
 31
0.0
  0
CIRCLE
  5
FDA
330
1A
100
AcDbEntity
  8
KEIJYO
 62
   251
100
AcDbCircle
 10
154.4439572305984
 20
188.8411999023475
 30
0.0
 40
0.7788173943287319
  0
CIRCLE
  5
100E
330
1A
100
AcDbEntity
  8
KEIJYO
 62
   251
100
AcDbCircle
 10
137.1244757869438
 20
200.5764735232009
 30
0.0
 40
0.7788173943287319
  0
LINE
  5
100F
330
1A
100
AcDbEntity
  8
KEIJYO
 62
   251
100
AcDbLine
 10
136.3456583926152
 20
200.5764735232009
 30
0.0
 11
137.9032931812729
 21
200.5764735232009
 31
0.0
  0
LINE
  5
1010
330
1A
100
AcDbEntity
  8
KEIJYO
 62
   251
100
AcDbLine
 10
137.1244757869438
 20
201.3552909175297
 30
0.0
 11
137.1244757869438
 21
199.7976561288722
 31
0.0
  0
VIEWPORT
  5
22
330
17
100
AcDbEntity
 67
     1
  8
0
100
AcDbViewport
 10
313.6808219178082
 20
148.5
 30
0.0
 40
627.3616438356165
 41
297.0
 68
     2
 69
     1
1001
ACAD
1000
MVIEW
1002
{
1070
    16
1010
0.0
1020
0.0
1030
0.0
1010
0.0
1020
0.0
1030
1.0
1040
0.0
1040
297.0
1040
313.6808219178082
1040
148.5
1040
50.0
1040
0.0
1040
0.0
1070
     0
1070
   100
1070
     1
1070
     0
1070
     0
1070
     0
1070
     0
1070
     0
1040
0.0
1040
0.0
1040
0.0
1040
1.0
1040
1.0
1040
10.0
1040
10.0
1070
     0
1002
{
1002
}
1002
}
  0
VIEWPORT
  5
64
330
17
100
AcDbEntity
 67
     1
  8
VIEWPORT
100
AcDbViewport
 10
210.0
 20
148.5
 30
0.0
 40
420.0
 41
297.0
 68
     1
 69
     2
1001
ACAD
1000
MVIEW
1002
{
1070
    16
1010
0.0
1020
0.0
1030
0.0
1010
0.0
1020
0.0
1030
1.0
1040
0.0
1040
302.9399999999998
1040
210.0
1040
148.5
1040
50.0
1040
0.0
1040
0.0
1070
     0
1070
   100
1070
     1
1070
     0
1070
     0
1070
     0
1070
     0
1070
     0
1040
0.0
1040
0.0
1040
0.0
1040
5.0
1040
5.0
1040
0.0
1040
0.0
1070
     0
1002
{
1002
}
1002
}
  0
ENDSEC
  0
SECTION
  2
OBJECTS
  0
DICTIONARY
  5
C
330
0
100
AcDbDictionary
  3
ACAD_GROUP
350
D
  3
ACAD_LAYOUT
350
352
  3
ACAD_MLINESTYLE
350
E
  3
ACAD_PLOTSETTINGS
350
353
  3
ACAD_PLOTSTYLENAME
350
350
  3
ACDBHEADERROUNDTRIPXREC
350
103E
  0
DICTIONARY
  5
FCE
330
2
100
AcDbDictionary
280
     1
  3
ACAD_LAYERFILTERS
360
FCF
  0
DICTIONARY
  5
64B
330
1A
100
AcDbDictionary
280
     1
  3
ACAD_LAYOUTSELFREF
360
1060
  0
DICTIONARY
  5
649
330
17
100
AcDbDictionary
280
     1
  3
ACAD_LAYOUTSELFREF
360
105F
  0
DICTIONARY
  5
D
102
{ACAD_REACTORS
330
C
102
}
330
C
100
AcDbDictionary
  3
*A1
350
FAF
  0
DICTIONARY
  5
352
102
{ACAD_REACTORS
330
C
102
}
330
C
100
AcDbDictionary
  0
DICTIONARY
  5
E
102
{ACAD_REACTORS
330
C
102
}
330
C
100
AcDbDictionary
  3
STANDARD
350
13
  0
DICTIONARY
  5
353
102
{ACAD_REACTORS
330
C
102
}
330
C
100
AcDbDictionary
  0
ACDBDICTIONARYWDFLT
  5
350
102
{ACAD_REACTORS
330
C
102
}
330
C
100
AcDbDictionary
281
     1
  3
Normal
350
351
100
AcDbDictionaryWithDefault
340
351
1001
ACAD
1000
TREAT_AS_HARD
1070
     0
1000
TREAT_AS_HARD
1070
     0
1000
TREAT_AS_HARD
1070
     0
1000
TREAT_AS_HARD
1070
     0
1000
TREAT_AS_HARD
1070
     0
  0
DICTIONARY
  5
103E
102
{ACAD_REACTORS
330
C
102
}
330
C
100
AcDbDictionary
  3
TSTACKALIGN
350
103F
  3
TSTACKSIZE
350
1040
  3
HYPERLINKBASE
350
1041
  3
STYLESHEET
350
1042
  3
LAYOUTDICT
350
1043
  3
PLOTSETDICT
350
1044
  3
PLOTSTYLNAMDICT
350
1045
  3
LWETCUNION
350
1046
  3
INSUNITS
350
1047
  3
CEPSNTYPE
350
1048
  3
FINGERPRINTGUID
350
1049
  3
VERSIONGUID
350
104A
  3
PSVPSCALE
350
104B
  3
DIMSTYLEDATA
350
104C
  3
PUCSORTHOREF
350
104D
  3
PUCSORTHOVIEW
350
104E
  3
PUCSBASE
350
104F
  3
PUCSORGTOP
350
1050
  3
PUCSORGBOTTOM
350
1051
  3
PUCSORGLEFT
350
1052
  3
PUCSORGRIGHT
350
1053
  3
PUCSORGFRONT
350
1054
  3
PUCSORGBACK
350
1055
  3
UCSORTHOREF
350
1056
  3
UCSORTHOVIEW
350
1057
  3
UCSBASE
350
1058
  3
UCSORGTOP
350
1059
  3
UCSORGBOTTOM
350
105A
  3
UCSORGLEFT
350
105B
  3
UCSORGRIGHT
350
105C
  3
UCSORGFRONT
350
105D
  3
UCSORGBACK
350
105E
  0
DICTIONARY
  5
FCF
102
{ACAD_REACTORS
330
FCE
102
}
330
FCE
100
AcDbDictionary
280
     1
  3
50
360
FD0
  0
XRECORD
  5
1060
102
{ACAD_REACTORS
330
64B
102
}
330
64B
100
AcDbXrecord
340
1A
  0
XRECORD
  5
105F
102
{ACAD_REACTORS
330
649
102
}
330
649
100
AcDbXrecord
340
17
  0
GROUP
  5
FAF
102
{ACAD_REACTORS
330
D
102
}
330
D
100
AcDbGroup
300

 70
     1
 71
     1
  0
MLINESTYLE
  5
13
102
{ACAD_REACTORS
330
E
102
}
330
E
100
AcDbMlineStyle
  2
STANDARD
 70
     0
  3

 62
     0
 51
90.0
 52
90.0
 71
     2
 49
0.5
 62
   256
  6
BYLAYER
 49
-0.5
 62
   256
  6
BYLAYER
  0
ACDBPLACEHOLDER
  5
351
102
{ACAD_REACTORS
330
350
102
}
330
350
100
AcDbPlaceHolder
280
     0
  0
XRECORD
  5
103F
102
{ACAD_REACTORS
330
103E
102
}
330
103E
100
AcDbXrecord
 90
        1
  0
XRECORD
  5
1040
102
{ACAD_REACTORS
330
103E
102
}
330
103E
100
AcDbXrecord
 90
       70
  0
XRECORD
  5
1041
102
{ACAD_REACTORS
330
103E
102
}
330
103E
100
AcDbXrecord
  1

  0
XRECORD
  5
1042
102
{ACAD_REACTORS
330
103E
102
}
330
103E
100
AcDbXrecord
  1
systemprinter.ctb
  0
XRECORD
  5
1043
102
{ACAD_REACTORS
330
103E
102
}
330
103E
100
AcDbXrecord
340
352
  0
XRECORD
  5
1044
102
{ACAD_REACTORS
330
103E
102
}
330
103E
100
AcDbXrecord
340
353
  0
XRECORD
  5
1045
102
{ACAD_REACTORS
330
103E
102
}
330
103E
100
AcDbXrecord
340
350
  0
XRECORD
  5
1046
102
{ACAD_REACTORS
330
103E
102
}
330
103E
100
AcDbXrecord
 90
    10781
  0
XRECORD
  5
1047
102
{ACAD_REACTORS
330
103E
102
}
330
103E
100
AcDbXrecord
 90
        0
  0
XRECORD
  5
1048
102
{ACAD_REACTORS
330
103E
102
}
330
103E
100
AcDbXrecord
 90
        0
  0
XRECORD
  5
1049
102
{ACAD_REACTORS
330
103E
102
}
330
103E
100
AcDbXrecord
  1
{FE2B4833-B477-44F5-8DA5-88CB8407FFE5}
  0
XRECORD
  5
104A
102
{ACAD_REACTORS
330
103E
102
}
330
103E
100
AcDbXrecord
  1
{B7584B9E-2597-4D73-ACD3-71E3784E4372}
  0
XRECORD
  5
104B
102
{ACAD_REACTORS
330
103E
102
}
330
103E
100
AcDbXrecord
 40
0.0
  0
XRECORD
  5
104C
102
{ACAD_REACTORS
330
103E
102
}
330
103E
100
AcDbXrecord
1000
DSTYLE
1002
{
1070
   341
340
B2
1070
   343
340
B2
1070
   344
340
B2
1070
   371
 70
    -1
1070
   372
 70
    -1
1002
}
  0
XRECORD
  5
104D
102
{ACAD_REACTORS
330
103E
102
}
330
103E
100
AcDbXrecord
340
0
  0
XRECORD
  5
104E
102
{ACAD_REACTORS
330
103E
102
}
330
103E
100
AcDbXrecord
 70
     0
  0
XRECORD
  5
104F
102
{ACAD_REACTORS
330
103E
102
}
330
103E
100
AcDbXrecord
340
0
  0
XRECORD
  5
1050
102
{ACAD_REACTORS
330
103E
102
}
330
103E
100
AcDbXrecord
 10
0.0
 20
0.0
 30
0.0
  0
XRECORD
  5
1051
102
{ACAD_REACTORS
330
103E
102
}
330
103E
100
AcDbXrecord
 10
0.0
 20
0.0
 30
0.0
  0
XRECORD
  5
1052
102
{ACAD_REACTORS
330
103E
102
}
330
103E
100
AcDbXrecord
 10
0.0
 20
0.0
 30
0.0
  0
XRECORD
  5
1053
102
{ACAD_REACTORS
330
103E
102
}
330
103E
100
AcDbXrecord
 10
0.0
 20
0.0
 30
0.0
  0
XRECORD
  5
1054
102
{ACAD_REACTORS
330
103E
102
}
330
103E
100
AcDbXrecord
 10
0.0
 20
0.0
 30
0.0
  0
XRECORD
  5
1055
102
{ACAD_REACTORS
330
103E
102
}
330
103E
100
AcDbXrecord
 10
0.0
 20
0.0
 30
0.0
  0
XRECORD
  5
1056
102
{ACAD_REACTORS
330
103E
102
}
330
103E
100
AcDbXrecord
340
0
  0
XRECORD
  5
1057
102
{ACAD_REACTORS
330
103E
102
}
330
103E
100
AcDbXrecord
 70
     0
  0
XRECORD
  5
1058
102
{ACAD_REACTORS
330
103E
102
}
330
103E
100
AcDbXrecord
340
0
  0
XRECORD
  5
1059
102
{ACAD_REACTORS
330
103E
102
}
330
103E
100
AcDbXrecord
 10
0.0
 20
0.0
 30
0.0
  0
XRECORD
  5
105A
102
{ACAD_REACTORS
330
103E
102
}
330
103E
100
AcDbXrecord
 10
0.0
 20
0.0
 30
0.0
  0
XRECORD
  5
105B
102
{ACAD_REACTORS
330
103E
102
}
330
103E
100
AcDbXrecord
 10
0.0
 20
0.0
 30
0.0
  0
XRECORD
  5
105C
102
{ACAD_REACTORS
330
103E
102
}
330
103E
100
AcDbXrecord
 10
0.0
 20
0.0
 30
0.0
  0
XRECORD
  5
105D
102
{ACAD_REACTORS
330
103E
102
}
330
103E
100
AcDbXrecord
 10
0.0
 20
0.0
 30
0.0
  0
XRECORD
  5
105E
102
{ACAD_REACTORS
330
103E
102
}
330
103E
100
AcDbXrecord
 10
0.0
 20
0.0
 30
0.0
  0
XRECORD
  5
FD0
102
{ACAD_REACTORS
330
FCF
102
}
330
FCF
100
AcDbXrecord
  1
50
  1
*-50
  1
*
  1
*
 70
     0
  1
*
  1
*
  0
ENDSEC
  0
EOF
