  0
SECTION
  2
HEADER
  9
$ACADVER
  1
AC1014
  9
$ACADMAINTVER
 70
     9
  9
$DWGCODEPAGE
  3
ANSI_932
  9
$INSBASE
 10
0.0
 20
0.0
 30
0.0
  9
$EXTMIN
 10
460.9872960581526
 20
23.98456873260022
 30
-0.0015258207003583
  9
$EXTMAX
 10
859.8151662881312
 20
299.8093880754819
 30
0.0000000349246037
  9
$LIMMIN
 10
0.0
 20
0.0
  9
$LIMMAX
 10
420.0
 20
297.0
  9
$ORTHOMODE
 70
     0
  9
$REGENMODE
 70
     1
  9
$FILLMODE
 70
     1
  9
$QTEXTMODE
 70
     0
  9
$MIRRTEXT
 70
     1
  9
$DRAGMODE
 70
     2
  9
$LTSCALE
 40
1.0
  9
$OSMODE
 70
    37
  9
$ATTMODE
 70
     1
  9
$TEXTSIZE
 40
2.5
  9
$TRACEWID
 40
1.0
  9
$TEXTSTYLE
  7
STANDARD
  9
$CLAYER
  8
KEIJYO
  9
$CELTYPE
  6
BYLAYER
  9
$CECOLOR
 62
   256
  9
$CELTSCALE
 40
1.0
  9
$DELOBJ
 70
     1
  9
$DISPSILH
 70
     0
  9
$DIMSCALE
 40
1.0
  9
$DIMASZ
 40
3.0
  9
$DIMEXO
 40
3.0
  9
$DIMDLI
 40
7.0
  9
$DIMRND
 40
0.0
  9
$DIMDLE
 40
0.0
  9
$DIMEXE
 40
1.5
  9
$DIMTP
 40
0.0
  9
$DIMTM
 40
0.0
  9
$DIMTXT
 40
3.0
  9
$DIMCEN
 40
150.0
  9
$DIMTSZ
 40
0.0
  9
$DIMTOL
 70
     0
  9
$DIMLIM
 70
     0
  9
$DIMTIH
 70
     0
  9
$DIMTOH
 70
     0
  9
$DIMSE1
 70
     0
  9
$DIMSE2
 70
     0
  9
$DIMTAD
 70
     3
  9
$DIMZIN
 70
     0
  9
$DIMBLK
  1

  9
$DIMASO
 70
     1
  9
$DIMSHO
 70
     1
  9
$DIMPOST
  1

  9
$DIMAPOST
  1

  9
$DIMALT
 70
     0
  9
$DIMALTD
 70
     2
  9
$DIMALTF
 40
25.4
  9
$DIMLFAC
 40
1.0
  9
$DIMTOFL
 70
     1
  9
$DIMTVP
 40
0.0
  9
$DIMTIX
 70
     0
  9
$DIMSOXD
 70
     0
  9
$DIMSAH
 70
     1
  9
$DIMBLK1
  1
OPEN
  9
$DIMBLK2
  1
OPEN
  9
$DIMSTYLE
  2
STANDARD
  9
$DIMCLRD
 70
   256
  9
$DIMCLRE
 70
   256
  9
$DIMCLRT
 70
   256
  9
$DIMTFAC
 40
1.0
  9
$DIMGAP
 40
1.0
  9
$DIMJUST
 70
     0
  9
$DIMSD1
 70
     0
  9
$DIMSD2
 70
     0
  9
$DIMTOLJ
 70
     1
  9
$DIMTZIN
 70
     0
  9
$DIMALTZ
 70
     0
  9
$DIMALTTZ
 70
     0
  9
$DIMFIT
 70
     3
  9
$DIMUPT
 70
     1
  9
$DIMUNIT
 70
     2
  9
$DIMDEC
 70
     0
  9
$DIMTDEC
 70
     0
  9
$DIMALTU
 70
     2
  9
$DIMALTTD
 70
     2
  9
$DIMTXSTY
  7
STANDARD
  9
$DIMAUNIT
 70
     0
  9
$LUNITS
 70
     2
  9
$LUPREC
 70
     4
  9
$SKETCHINC
 40
1.0
  9
$FILLETRAD
 40
0.3
  9
$AUNITS
 70
     0
  9
$AUPREC
 70
     0
  9
$MENU
  1
.
  9
$ELEVATION
 40
0.0
  9
$PELEVATION
 40
0.0
  9
$THICKNESS
 40
0.0
  9
$LIMCHECK
 70
     0
  9
$BLIPMODE
 70
     0
  9
$CHAMFERA
 40
10.0
  9
$CHAMFERB
 40
10.0
  9
$CHAMFERC
 40
20.0
  9
$CHAMFERD
 40
0.0
  9
$SKPOLY
 70
     0
  9
$TDCREATE
 40
2451094.495386573
  9
$TDUPDATE
 40
2454484.375534201
  9
$TDINDWG
 40
0.1020305324
  9
$TDUSRTIMER
 40
0.1020305324
  9
$USRTIMER
 70
     1
  9
$ANGBASE
 50
0.0
  9
$ANGDIR
 70
     0
  9
$PDMODE
 70
     0
  9
$PDSIZE
 40
0.0
  9
$PLINEWID
 40
0.0
  9
$COORDS
 70
     1
  9
$SPLFRAME
 70
     0
  9
$SPLINETYPE
 70
     6
  9
$SPLINESEGS
 70
     8
  9
$ATTDIA
 70
     0
  9
$ATTREQ
 70
     1
  9
$HANDLING
 70
 10241
  9
$HANDSEED
  5
19D2
  9
$SURFTAB1
 70
     6
  9
$SURFTAB2
 70
     6
  9
$SURFTYPE
 70
     6
  9
$SURFU
 70
     6
  9
$SURFV
 70
     6
  9
$UCSNAME
  2

  9
$UCSORG
 10
0.0
 20
0.0
 30
0.0
  9
$UCSXDIR
 10
1.0
 20
0.0
 30
0.0
  9
$UCSYDIR
 10
0.0
 20
1.0
 30
0.0
  9
$PUCSNAME
  2

  9
$PUCSORG
 10
0.0
 20
0.0
 30
0.0
  9
$PUCSXDIR
 10
1.0
 20
0.0
 30
0.0
  9
$PUCSYDIR
 10
0.0
 20
1.0
 30
0.0
  9
$USERI1
 70
     0
  9
$USERI2
 70
     0
  9
$USERI3
 70
     0
  9
$USERI4
 70
     0
  9
$USERI5
 70
     0
  9
$USERR1
 40
0.0
  9
$USERR2
 40
0.0
  9
$USERR3
 40
0.0
  9
$USERR4
 40
0.0
  9
$USERR5
 40
0.0
  9
$WORLDVIEW
 70
     1
  9
$SHADEDGE
 70
     3
  9
$SHADEDIF
 70
    70
  9
$TILEMODE
 70
     1
  9
$MAXACTVP
 70
    16
  9
$PINSBASE
 10
0.0
 20
0.0
 30
0.0
  9
$PLIMCHECK
 70
     0
  9
$PEXTMIN
 10
0.0
 20
0.0
 30
0.0
  9
$PEXTMAX
 10
420.0
 20
297.0
 30
0.0
  9
$PLIMMIN
 10
0.0
 20
0.0
  9
$PLIMMAX
 10
420.0
 20
297.0
  9
$UNITMODE
 70
     0
  9
$VISRETAIN
 70
     0
  9
$PLINEGEN
 70
     0
  9
$PSLTSCALE
 70
     1
  9
$TREEDEPTH
 70
  3020
  9
$PICKSTYLE
 70
     1
  9
$CMLSTYLE
  2
STANDARD
  9
$CMLJUST
 70
     0
  9
$CMLSCALE
 40
1.0
  9
$PROXYGRAPHICS
 70
     1
  9
$MEASUREMENT
 70
     1
  0
ENDSEC
  0
SECTION
  2
CLASSES
  0
CLASS
  1
ACDBDICTIONARYWDFLT
  2
AcDbDictionaryWithDefault
  3
AutoCAD 2000
 90
        0
280
     0
281
     0
  0
CLASS
  1
ACDBPLACEHOLDER
  2
AcDbPlaceHolder
  3
AutoCAD 2000
 90
        0
280
     0
281
     0
  0
CLASS
  1
LAYOUT
  2
AcDbLayout
  3
AutoCAD 2000
 90
        0
280
     0
281
     0
  0
CLASS
  1
LONG_TRANSACTION
  2
AcDbLongTransaction
  3
AutoCAD 2000
 90
        0
280
     0
281
     0
  0
CLASS
  1
LWPOLYLINE
  2
AcDbPolyline
  3
AutoCAD 2000
 90
        0
280
     0
281
     1
  0
CLASS
  1
HATCH
  2
AcDbHatch
  3
AutoCAD 2000
 90
        0
280
     0
281
     1
  0
CLASS
  1
XRECORD
  2
AcDbXrecord
  3
AutoCAD 2000
 90
        0
280
     0
281
     0
  0
CLASS
  1
LONG_TRANSACTION
  2
AcDbLongTransaction
  3
AutoCAD 2000
 90
        0
280
     0
281
     0
  0
CLASS
  1
LWPOLYLINE
  2
AcDbPolyline
  3
AutoCAD 2000
 90
        0
280
     0
281
     1
  0
CLASS
  1
HATCH
  2
AcDbHatch
  3
AutoCAD 2000
 90
        0
280
     0
281
     1
  0
CLASS
  1
XRECORD
  2
AcDbXrecord
  3
AutoCAD 2000
 90
        0
280
     0
281
     0
  0
CLASS
  1
LONG_TRANSACTION
  2
AcDbLongTransaction
  3
AutoCAD 2000
 90
        0
280
     0
281
     0
  0
CLASS
  1
LWPOLYLINE
  2
AcDbPolyline
  3
AutoCAD 2000
 90
        0
280
     0
281
     1
  0
CLASS
  1
HATCH
  2
AcDbHatch
  3
AutoCAD 2000
 90
        0
280
     0
281
     1
  0
CLASS
  1
XRECORD
  2
AcDbXrecord
  3
AutoCAD 2000
 90
        0
280
     0
281
     0
  0
CLASS
  1
LONG_TRANSACTION
  2
AcDbLongTransaction
  3
AutoCAD 2000
 90
        0
280
     0
281
     0
  0
CLASS
  1
LWPOLYLINE
  2
AcDbPolyline
  3
AutoCAD 2000
 90
        0
280
     0
281
     1
  0
CLASS
  1
HATCH
  2
AcDbHatch
  3
AutoCAD 2000
 90
        0
280
     0
281
     1
  0
CLASS
  1
XRECORD
  2
AcDbXrecord
  3
AutoCAD 2000
 90
        0
280
     0
281
     0
  0
CLASS
  1
LONG_TRANSACTION
  2
AcDbLongTransaction
  3
AutoCAD 2000
 90
        0
280
     0
281
     0
  0
CLASS
  1
LWPOLYLINE
  2
AcDbPolyline
  3
AutoCAD 2000
 90
        0
280
     0
281
     1
  0
CLASS
  1
HATCH
  2
AcDbHatch
  3
AutoCAD 2000
 90
        0
280
     0
281
     1
  0
CLASS
  1
XRECORD
  2
AcDbXrecord
  3
AutoCAD 2000
 90
        0
280
     0
281
     0
  0
CLASS
  1
LONG_TRANSACTION
  2
AcDbLongTransaction
  3
AutoCAD 2000
 90
        0
280
     0
281
     0
  0
CLASS
  1
LWPOLYLINE
  2
AcDbPolyline
  3
AutoCAD 2000
 90
        0
280
     0
281
     1
  0
CLASS
  1
HATCH
  2
AcDbHatch
  3
AutoCAD 2000
 90
        0
280
     0
281
     1
  0
CLASS
  1
XRECORD
  2
AcDbXrecord
  3
AutoCAD 2000
 90
        0
280
     0
281
     0
  0
ENDSEC
  0
SECTION
  2
TABLES
  0
TABLE
  2
VPORT
  5
8
330
0
100
AcDbSymbolTable
 70
     2
  0
VPORT
  5
19AE
330
8
100
AcDbSymbolTableRecord
100
AcDbViewportTableRecord
  2
*ACTIVE
 70
     0
 10
0.0
 20
0.0
 11
1.0
 21
1.0
 12
684.8587142480686
 22
170.7839264472234
 13
0.0
 23
0.0
 14
5.0
 24
5.0
 15
0.0
 25
0.0
 16
0.0
 26
0.0
 36
1.0
 17
0.0
 27
0.0
 37
0.0
 40
307.8385268319502
 41
1.570153061224489
 42
50.0
 43
0.0
 44
0.0
 50
0.0
 51
0.0
 71
     0
 72
   100
 73
     1
 74
     0
 75
     0
 76
     0
 77
     0
 78
     0
  0
ENDTAB
  0
TABLE
  2
LTYPE
  5
5
330
0
100
AcDbSymbolTable
 70
     5
  0
LTYPE
  5
14
330
5
100
AcDbSymbolTableRecord
100
AcDbLinetypeTableRecord
  2
BYBLOCK
 70
     0
  3

 72
    65
 73
     0
 40
0.0
  0
LTYPE
  5
15
330
5
100
AcDbSymbolTableRecord
100
AcDbLinetypeTableRecord
  2
BYLAYER
 70
     0
  3

 72
    65
 73
     0
 40
0.0
  0
LTYPE
  5
16
330
5
100
AcDbSymbolTableRecord
100
AcDbLinetypeTableRecord
  2
CONTINUOUS
 70
     0
  3
Solid line
 72
    65
 73
     0
 40
0.0
  0
LTYPE
  5
120
330
5
100
AcDbSymbolTableRecord
100
AcDbLinetypeTableRecord
  2
CENTER
 70
     0
  3
____ _ ____ _ ____ _ ____ _ ____ _ ____ _ ____ 
 72
    65
 73
     4
 40
2.0
 49
1.25
 74
     0
 49
-0.25
 74
     0
 49
0.25
 74
     0
 49
-0.25
 74
     0
  0
LTYPE
  5
17D3
330
5
100
AcDbSymbolTableRecord
100
AcDbLinetypeTableRecord
  2
CENTER2
 70
     0
  3
___ _ ___ _ ___ _ ___ _ ___ _ ___ _ ___ _ ___ _
 72
    65
 73
     4
 40
1.125
 49
0.75
 74
     0
 49
-0.125
 74
     0
 49
0.125
 74
     0
 49
-0.125
 74
     0
  0
LTYPE
  5
17D4
330
5
100
AcDbSymbolTableRecord
100
AcDbLinetypeTableRecord
  2
HIDDEN2
 70
     0
  3
_ _ _ _ _ _ _ _ _ _ _ _ _ _ _ _ _ _ _ _ _ _ _ _
 72
    65
 73
     2
 40
0.1875
 49
0.125
 74
     0
 49
-0.0625
 74
     0
  0
LTYPE
  5
17D5
330
5
100
AcDbSymbolTableRecord
100
AcDbLinetypeTableRecord
  2
TEN2
 70
     0
  3
.........................................
 72
    65
 73
     2
 40
0.2
 49
0.1
 74
     0
 49
-0.1
 74
     0
  0
ENDTAB
  0
TABLE
  2
LAYER
  5
2
330
0
100
AcDbSymbolTable
 70
    17
  0
LAYER
  5
F
330
2
100
AcDbSymbolTableRecord
100
AcDbLayerTableRecord
  2
0
 70
     0
 62
     7
  6
CONTINUOUS
  0
LAYER
  5
62
330
2
100
AcDbSymbolTableRecord
100
AcDbLayerTableRecord
  2
VIEWPORT
 70
     0
 62
     7
  6
CONTINUOUS
  0
LAYER
  5
6B
330
2
100
AcDbSymbolTableRecord
100
AcDbLayerTableRecord
  2
ZUWAKU
 70
     0
 62
     7
  6
CONTINUOUS
  0
LAYER
  5
134
330
2
100
AcDbSymbolTableRecord
100
AcDbLayerTableRecord
  2
SEIHIN
 70
     0
 62
     3
  6
CONTINUOUS
  0
LAYER
  5
207
330
2
100
AcDbSymbolTableRecord
100
AcDbLayerTableRecord
  2
CENTER_L0
 70
     0
 62
     1
  6
CENTER
  0
LAYER
  5
208
330
2
100
AcDbSymbolTableRecord
100
AcDbLayerTableRecord
  2
SUNPOU
 70
     0
 62
     4
  6
CONTINUOUS
  0
LAYER
  5
20E
330
2
100
AcDbSymbolTableRecord
100
AcDbLayerTableRecord
  2
DEFPOINTS
 70
     0
 62
     7
  6
CONTINUOUS
  0
LAYER
  5
BC1
330
2
100
AcDbSymbolTableRecord
100
AcDbLayerTableRecord
  2
MOJI
 70
     0
 62
     2
  6
CONTINUOUS
  0
LAYER
  5
E7B
330
2
100
AcDbSymbolTableRecord
100
AcDbLayerTableRecord
  2
KEIJYO
 70
     0
 62
    -7
  6
CONTINUOUS
  0
LAYER
  5
17D6
330
2
100
AcDbSymbolTableRecord
100
AcDbLayerTableRecord
  2
D1
 70
     0
 62
    11
  6
CONTINUOUS
  0
LAYER
  5
17D7
330
2
100
AcDbSymbolTableRecord
100
AcDbLayerTableRecord
  2
C2
 70
     0
 62
     1
  6
CONTINUOUS
  0
LAYER
  5
17D8
330
2
100
AcDbSymbolTableRecord
100
AcDbLayerTableRecord
  2
C4
 70
     0
 62
     3
  6
CONTINUOUS
  0
LAYER
  5
17D9
330
2
100
AcDbSymbolTableRecord
100
AcDbLayerTableRecord
  2
C5
 70
     0
 62
     4
  6
CONTINUOUS
  0
LAYER
  5
17DA
330
2
100
AcDbSymbolTableRecord
100
AcDbLayerTableRecord
  2
C6
 70
     0
 62
     2
  6
CONTINUOUS
  0
LAYER
  5
17DB
330
2
100
AcDbSymbolTableRecord
100
AcDbLayerTableRecord
  2
製品
 70
     0
 62
     3
  6
CONTINUOUS
  0
LAYER
  5
17DC
330
2
100
AcDbSymbolTableRecord
100
AcDbLayerTableRecord
  2
CENTER_L
 70
     0
 62
     1
  6
CENTER
  0
LAYER
  5
17DD
330
2
100
AcDbSymbolTableRecord
100
AcDbLayerTableRecord
  2
CENTERL
 70
     0
 62
     1
  6
CENTER2
  0
ENDTAB
  0
TABLE
  2
STYLE
  5
3
330
0
100
AcDbSymbolTable
 70
     5
  0
STYLE
  5
10
330
3
100
AcDbSymbolTableRecord
100
AcDbTextStyleTableRecord
  2
STANDARD
 70
     0
 40
0.0
 41
1.0
 50
0.0
 71
     0
 42
2.5
  3
TXT
  4
bigfont.shx
  0
STYLE
  5
BC2
330
3
100
AcDbSymbolTableRecord
100
AcDbTextStyleTableRecord
  2
ｽﾀｲﾙ1
 70
     0
 40
0.0
 41
1.0
 50
0.0
 71
     0
 42
2.5
  3
MS PGothic.ttf
  4

1001
ACAD
1000
MS PGothic
1071
    32818
  0
STYLE
  5
17DE
330
3
100
AcDbSymbolTableRecord
100
AcDbTextStyleTableRecord
  2
SUNPOU
 70
     0
 40
0.0
 41
0.8
 50
0.0
 71
     0
 42
0.2
  3
romans.shx
  4
bigfont.shx
  0
STYLE
  5
17DF
330
3
100
AcDbSymbolTableRecord
100
AcDbTextStyleTableRecord
  2
KANJI
 70
     0
 40
0.0
 41
1.0
 50
0.0
 71
     0
 42
10.0
  3
romans.shx
  4
bigfont.shx
  0
STYLE
  5
17E0
330
3
100
AcDbSymbolTableRecord
100
AcDbTextStyleTableRecord
  2
DIMTEXT
 70
     0
 40
0.0
 41
0.8
 50
0.0
 71
     0
 42
2.5
  3
romans.shx
  4
bigfont.shx
  0
ENDTAB
  0
TABLE
  2
VIEW
  5
6
330
0
100
AcDbSymbolTable
 70
     0
  0
ENDTAB
  0
TABLE
  2
UCS
  5
7
330
0
100
AcDbSymbolTable
 70
     0
  0
ENDTAB
  0
TABLE
  2
APPID
  5
9
330
0
100
AcDbSymbolTable
 70
     2
  0
APPID
  5
11
330
9
100
AcDbSymbolTableRecord
100
AcDbRegAppTableRecord
  2
ACAD
 70
     0
  0
APPID
  5
17E4
330
9
100
AcDbSymbolTableRecord
100
AcDbRegAppTableRecord
  2
ACAD_PSEXT
 70
     0
  0
ENDTAB
  0
TABLE
  2
DIMSTYLE
  5
A
330
0
100
AcDbSymbolTable
 70
     4
  0
DIMSTYLE
105
1D
102
{ACAD_REACTORS
330
124F
330
1250
330
1251
330
1252
330
1257
330
12E6
330
12F7
330
1303
330
1304
330
1348
330
1349
330
134A
330
136A
102
}
330
A
100
AcDbSymbolTableRecord
100
AcDbDimStyleTableRecord
  2
STANDARD
 70
     0
  3

  4

  5

  6

  7

 40
1.0
 41
0.18
 42
0.0625
 43
0.38
 44
0.18
 45
0.0
 46
0.0
 47
0.0
 48
0.0
140
0.18
141
0.09
142
0.0
143
25.4
144
1.0
145
0.0
146
1.0
147
0.09
 71
     0
 72
     0
 73
     1
 74
     1
 75
     0
 76
     0
 77
     0
 78
     0
170
     0
171
     2
172
     0
173
     0
174
     0
175
     0
176
     0
177
     0
178
     0
270
     2
271
     4
272
     4
273
     2
274
     2
340
10
275
     0
280
     0
281
     0
282
     0
283
     1
284
     0
285
     0
286
     0
287
     3
288
     0
  0
DIMSTYLE
105
17E1
330
A
100
AcDbSymbolTableRecord
100
AcDbDimStyleTableRecord
  2
SEKISUI
 70
     0
  3

  4

  5

  6
OPEN
  7
OPEN
 40
1.0
 41
3.0
 42
0.625
 43
6.0
 44
3.0
 45
0.0
 46
0.0
 47
0.0
 48
0.0
140
3.0
141
2.5
142
0.0
143
0.0394
144
1.0
145
0.0
146
1.0
147
1.0
 71
     0
 72
     0
 73
     0
 74
     0
 75
     0
 76
     0
 77
     1
 78
     8
170
     0
171
     4
172
     1
173
     1
174
     0
175
     0
176
     2
177
     2
178
     7
270
     2
271
     4
272
     4
273
     8
274
     4
340
17DE
275
     0
280
     0
281
     0
282
     0
283
     1
284
     8
285
     0
286
     0
287
     3
288
     0
  0
DIMSTYLE
105
17E2
330
A
100
AcDbSymbolTableRecord
100
AcDbDimStyleTableRecord
  2
YA2
 70
     0
  3

  4

  5

  6
OPEN
  7
OPEN
 40
1.0
 41
2.0
 42
1.0
 43
6.0
 44
1.5
 45
0.0
 46
0.0
 47
0.0
 48
0.0
140
2.0
141
2.5
142
0.0
143
0.0394
144
1.0
145
0.0
146
1.0
147
0.5
 71
     0
 72
     0
 73
     0
 74
     0
 75
     0
 76
     0
 77
     1
 78
     8
170
     0
171
     4
172
     1
173
     1
174
     0
175
     0
176
   256
177
   256
178
     7
270
     2
271
     4
272
     4
273
     8
274
     4
340
17DE
275
     0
280
     0
281
     0
282
     0
283
     1
284
     8
285
     0
286
     0
287
     3
288
     0
  0
DIMSTYLE
105
17E3
330
A
100
AcDbSymbolTableRecord
100
AcDbDimStyleTableRecord
  2
YA
 70
     0
  3

  4

  5

  6
OPEN
  7
OPEN
 40
1.0
 41
3.0
 42
1.0
 43
6.0
 44
1.5
 45
0.0
 46
0.0
 47
0.0
 48
0.0
140
3.0
141
2.5
142
0.0
143
0.0394
144
1.0
145
0.0
146
1.0
147
1.0
 71
     0
 72
     0
 73
     0
 74
     0
 75
     0
 76
     0
 77
     1
 78
     8
170
     0
171
     4
172
     1
173
     1
174
     0
175
     0
176
   256
177
   256
178
     7
270
     2
271
     4
272
     4
273
     8
274
     4
340
17E0
275
     0
280
     0
281
     0
282
     0
283
     1
284
     8
285
     0
286
     0
287
     3
288
     0
  0
ENDTAB
  0
TABLE
  2
BLOCK_RECORD
  5
1
330
0
100
AcDbSymbolTable
 70
    20
  0
BLOCK_RECORD
  5
1A
102
{ACAD_XDICTIONARY
360
64B
102
}
330
1
100
AcDbSymbolTableRecord
100
AcDbBlockTableRecord
  2
*MODEL_SPACE
  0
BLOCK_RECORD
  5
17
102
{ACAD_XDICTIONARY
360
649
102
}
330
1
100
AcDbSymbolTableRecord
100
AcDbBlockTableRecord
  2
*PAPER_SPACE
  0
BLOCK_RECORD
  5
B2
330
1
100
AcDbSymbolTableRecord
100
AcDbBlockTableRecord
  2
_OPEN
  0
BLOCK_RECORD
  5
E42
330
1
100
AcDbSymbolTableRecord
100
AcDbBlockTableRecord
  2
CLUMP2
  0
BLOCK_RECORD
  5
141C
330
1
100
AcDbSymbolTableRecord
100
AcDbBlockTableRecord
  2
*D2
  0
BLOCK_RECORD
  5
1428
330
1
100
AcDbSymbolTableRecord
100
AcDbBlockTableRecord
  2
*D3
  0
BLOCK_RECORD
  5
1434
330
1
100
AcDbSymbolTableRecord
100
AcDbBlockTableRecord
  2
*D4
  0
BLOCK_RECORD
  5
1440
330
1
100
AcDbSymbolTableRecord
100
AcDbBlockTableRecord
  2
*D5
  0
BLOCK_RECORD
  5
144C
330
1
100
AcDbSymbolTableRecord
100
AcDbBlockTableRecord
  2
*D6
  0
BLOCK_RECORD
  5
1458
330
1
100
AcDbSymbolTableRecord
100
AcDbBlockTableRecord
  2
*D7
  0
BLOCK_RECORD
  5
1470
330
1
100
AcDbSymbolTableRecord
100
AcDbBlockTableRecord
  2
*D8
  0
BLOCK_RECORD
  5
147C
330
1
100
AcDbSymbolTableRecord
100
AcDbBlockTableRecord
  2
*D9
  0
BLOCK_RECORD
  5
1488
330
1
100
AcDbSymbolTableRecord
100
AcDbBlockTableRecord
  2
*D10
  0
BLOCK_RECORD
  5
1494
330
1
100
AcDbSymbolTableRecord
100
AcDbBlockTableRecord
  2
*D11
  0
BLOCK_RECORD
  5
14A0
330
1
100
AcDbSymbolTableRecord
100
AcDbBlockTableRecord
  2
*D12
  0
BLOCK_RECORD
  5
14AC
330
1
100
AcDbSymbolTableRecord
100
AcDbBlockTableRecord
  2
*D13
  0
BLOCK_RECORD
  5
14B8
330
1
100
AcDbSymbolTableRecord
100
AcDbBlockTableRecord
  2
*D14
  0
BLOCK_RECORD
  5
1582
330
1
100
AcDbSymbolTableRecord
100
AcDbBlockTableRecord
  2
20061005_10361524
1001
ACAD
1000
DesignCenter Data
1002
{
1070
     1
1070
     4
1002
}
  0
BLOCK_RECORD
  5
15A0
330
1
100
AcDbSymbolTableRecord
100
AcDbBlockTableRecord
  2
20070823_10093536
1001
ACAD
1000
DesignCenter Data
1002
{
1070
     1
1070
     4
1002
}
  0
BLOCK_RECORD
  5
1640
330
1
100
AcDbSymbolTableRecord
100
AcDbBlockTableRecord
  2
20070903_11423425
1001
ACAD
1000
DesignCenter Data
1002
{
1070
     1
1070
     4
1002
}
  0
BLOCK_RECORD
  5
16AF
330
1
100
AcDbSymbolTableRecord
100
AcDbBlockTableRecord
  2
20070903_11472863
1001
ACAD
1000
DesignCenter Data
1002
{
1070
     1
1070
     4
1002
}
  0
BLOCK_RECORD
  5
16B7
330
1
100
AcDbSymbolTableRecord
100
AcDbBlockTableRecord
  2
20070907_16034824
1001
ACAD
1000
DesignCenter Data
1002
{
1070
     1
1070
     4
1002
}
  0
ENDTAB
  0
ENDSEC
  0
SECTION
  2
BLOCKS
  0
BLOCK
  5
1B
330
1A
100
AcDbEntity
  8
0
100
AcDbBlockBegin
  2
*MODEL_SPACE
 70
     0
 10
0.0
 20
0.0
 30
0.0
  3
*MODEL_SPACE
  1

  0
ENDBLK
  5
1C
330
1A
100
AcDbEntity
  8
0
100
AcDbBlockEnd
  0
BLOCK
  5
18
330
17
100
AcDbEntity
 67
     1
  8
0
100
AcDbBlockBegin
  2
*PAPER_SPACE
 70
     0
 10
0.0
 20
0.0
 30
0.0
  3
*PAPER_SPACE
  1

  0
ENDBLK
  5
19
330
17
100
AcDbEntity
 67
     1
  8
0
100
AcDbBlockEnd
  0
BLOCK
  5
B3
330
B2
100
AcDbEntity
  8
0
100
AcDbBlockBegin
  2
_OPEN
 70
     0
 10
0.0
 20
0.0
 30
0.0
  3
_OPEN
  1

  0
LINE
  5
B4
330
B2
100
AcDbEntity
  8
0
  6
BYBLOCK
 62
     0
100
AcDbLine
 10
-1.0
 20
0.1666666666666666
 30
0.0
 11
0.0
 21
0.0
 31
0.0
  0
LINE
  5
B5
330
B2
100
AcDbEntity
  8
0
  6
BYBLOCK
 62
     0
100
AcDbLine
 10
0.0
 20
0.0
 30
0.0
 11
-1.0
 21
-0.1666666666666666
 31
0.0
  0
LINE
  5
B6
330
B2
100
AcDbEntity
  8
0
  6
BYBLOCK
 62
     0
100
AcDbLine
 10
0.0
 20
0.0
 30
0.0
 11
-1.0
 21
0.0
 31
0.0
  0
ENDBLK
  5
B7
330
B2
100
AcDbEntity
  8
0
100
AcDbBlockEnd
  0
BLOCK
  5
E45
330
E42
100
AcDbEntity
  8
0
100
AcDbBlockBegin
  2
CLUMP2
 70
     0
 10
0.0
 20
0.0
 30
0.0
  3
CLUMP2
  1

  0
LINE
  5
E43
330
E42
100
AcDbEntity
  8
KEIJYO
100
AcDbLine
 10
279.4130086931
 20
177.7139147656999
 30
0.0
 11
279.4143720519
 21
177.7128412631
 31
0.0
  0
LINE
  5
E44
330
E42
100
AcDbEntity
  8
KEIJYO
100
AcDbLine
 10
279.4143720519
 20
177.7128412631
 30
0.0
 11
279.4149239915
 21
177.7109553654999
 31
0.0
  0
ENDBLK
  5
E46
330
E42
100
AcDbEntity
  8
0
100
AcDbBlockEnd
  0
BLOCK
  5
1426
330
141C
100
AcDbEntity
  8
0
100
AcDbBlockBegin
  2
*D2
 70
     1
 10
0.0
 20
0.0
 30
0.0
  3
*D2
  1

  0
LINE
  5
14C6
330
141C
100
AcDbEntity
  8
SUNPOU
100
AcDbLine
 10
588.8320547875389
 20
218.9223331169558
 30
0.0
 11
588.8320547875389
 21
248.0632670541177
 31
0.0
  0
LINE
  5
14C7
330
141C
100
AcDbEntity
  8
SUNPOU
100
AcDbLine
 10
734.0236814788198
 20
177.224247835436
 30
0.0
 11
734.0236814788198
 21
248.0632670541177
 31
0.0
  0
LINE
  5
14C8
330
141C
100
AcDbEntity
  8
SUNPOU
100
AcDbLine
 10
591.8320547875389
 20
246.5632670541177
 30
0.0
 11
731.0236814788198
 21
246.5632670541177
 31
0.0
  0
INSERT
  5
14C9
330
141C
100
AcDbEntity
  8
SUNPOU
100
AcDbBlockReference
  2
_OPEN
 10
588.8320547875389
 20
246.5632670541177
 30
0.0
 41
3.0
 42
3.0
 43
3.0
 50
180.0
  0
INSERT
  5
14CA
330
141C
100
AcDbEntity
  8
SUNPOU
100
AcDbBlockReference
  2
_OPEN
 10
734.0236814788198
 20
246.5632670541177
 30
0.0
 41
3.0
 42
3.0
 43
3.0
  0
MTEXT
  5
14CB
330
141C
100
AcDbEntity
  8
SUNPOU
100
AcDbMText
 10
661.4278681331793
 20
249.0632670541177
 30
0.0
 40
3.0
 41
0.0
 71
     5
 72
     1
  1
\A1;145
1001
ACAD
1000
MTEXTBEGIN
1070
    73
1070
     1
1070
    44
1040
1.0
1070
    74
1070
     0
1000
MTEXTEND
  0
POINT
  5
14CC
330
141C
100
AcDbEntity
  8
DEFPOINTS
 62
     0
100
AcDbPoint
 10
588.8320547875389
 20
215.9223331169558
 30
0.0
  0
POINT
  5
14CD
330
141C
100
AcDbEntity
  8
DEFPOINTS
 62
     0
100
AcDbPoint
 10
734.0236814788198
 20
174.224247835436
 30
0.0
  0
POINT
  5
14CE
330
141C
100
AcDbEntity
  8
DEFPOINTS
 62
     0
100
AcDbPoint
 10
734.0236814788198
 20
246.5632670541177
 30
0.0
  0
ENDBLK
  5
1427
330
141C
100
AcDbEntity
  8
0
100
AcDbBlockEnd
  0
BLOCK
  5
1432
330
1428
100
AcDbEntity
  8
0
100
AcDbBlockBegin
  2
*D3
 70
     1
 10
0.0
 20
0.0
 30
0.0
  3
*D3
  1

  0
LINE
  5
1992
330
1428
100
AcDbEntity
  8
SUNPOU
100
AcDbLine
 10
593.854917694778
 20
219.926996284654
 30
0.0
 11
550.2796089459038
 21
219.9269962846541
 31
0.0
  0
LINE
  5
1993
330
1428
100
AcDbEntity
  8
SUNPOU
100
AcDbLine
 10
678.656163447895
 20
109.479852853908
 30
0.0
 11
550.2796089459038
 21
109.479852853908
 31
0.0
  0
LINE
  5
1994
330
1428
100
AcDbEntity
  8
SUNPOU
100
AcDbLine
 10
551.7796089459038
 20
216.9269962846541
 30
0.0
 11
551.7796089459038
 21
112.479852853908
 31
0.0
  0
INSERT
  5
1995
330
1428
100
AcDbEntity
  8
SUNPOU
100
AcDbBlockReference
  2
_OPEN
 10
551.7796089459038
 20
219.9269962846541
 30
0.0
 41
3.0
 42
3.0
 43
3.0
 50
90.0
  0
INSERT
  5
1996
330
1428
100
AcDbEntity
  8
SUNPOU
100
AcDbBlockReference
  2
_OPEN
 10
551.7796089459038
 20
109.479852853908
 30
0.0
 41
3.0
 42
3.0
 43
3.0
 50
270.0
  0
MTEXT
  5
1997
330
1428
100
AcDbEntity
  8
SUNPOU
100
AcDbMText
 10
549.2796089459038
 20
164.7034245692811
 30
0.0
 40
3.0
 41
0.0
 71
     5
 72
     1
  1
\A1;110
 11
0.0000000000000001
 21
1.0
 31
0.0
1001
ACAD
1000
MTEXTBEGIN
1070
    73
1070
     1
1070
    44
1040
1.0
1070
    74
1070
     0
1000
MTEXTEND
  0
POINT
  5
1998
330
1428
100
AcDbEntity
  8
DEFPOINTS
 62
     0
100
AcDbPoint
 10
596.8549176947781
 20
219.926996284654
 30
0.0
  0
POINT
  5
1999
330
1428
100
AcDbEntity
  8
DEFPOINTS
 62
     0
100
AcDbPoint
 10
681.656163447895
 20
109.479852853908
 30
0.0
  0
POINT
  5
199A
330
1428
100
AcDbEntity
  8
DEFPOINTS
 62
     0
100
AcDbPoint
 10
551.7796089459038
 20
109.479852853908
 30
0.0
  0
ENDBLK
  5
1433
330
1428
100
AcDbEntity
  8
0
100
AcDbBlockEnd
  0
BLOCK
  5
143E
330
1434
100
AcDbEntity
  8
0
100
AcDbBlockBegin
  2
*D4
 70
     1
 10
0.0
 20
0.0
 30
0.0
  3
*D4
  1

  0
LINE
  5
14D8
330
1434
100
AcDbEntity
  8
SUNPOU
100
AcDbLine
 10
616.3270546760592
 20
124.4732360990508
 30
0.0
 11
560.5742746508099
 21
124.4732360990508
 31
0.0
  0
LINE
  5
14D9
330
1434
100
AcDbEntity
  8
SUNPOU
100
AcDbLine
 10
678.656163447895
 20
109.4818212687756
 30
0.0
 11
560.5742746508099
 21
109.4818212687757
 31
0.0
  0
LINE
  5
14DA
330
1434
100
AcDbEntity
  8
SUNPOU
100
AcDbLine
 10
562.0742746508098
 20
121.4732360990508
 30
0.0
 11
562.0742746508098
 21
112.4818212687757
 31
0.0
  0
INSERT
  5
14DB
330
1434
100
AcDbEntity
  8
SUNPOU
100
AcDbBlockReference
  2
_OPEN
 10
562.0742746508098
 20
124.4732360990508
 30
0.0
 41
3.0
 42
3.0
 43
3.0
 50
90.0
  0
INSERT
  5
14DC
330
1434
100
AcDbEntity
  8
SUNPOU
100
AcDbBlockReference
  2
_OPEN
 10
562.0742746508098
 20
109.4818212687757
 30
0.0
 41
3.0
 42
3.0
 43
3.0
 50
270.0
  0
MTEXT
  5
14DD
330
1434
100
AcDbEntity
  8
SUNPOU
100
AcDbMText
 10
559.5742746508099
 20
116.9775286839134
 30
0.0
 40
3.0
 41
0.0
 71
     5
 72
     1
  1
\A1;15
 11
0.0000000000000001
 21
1.0
 31
0.0
1001
ACAD
1000
MTEXTBEGIN
1070
    73
1070
     1
1070
    44
1040
1.0
1070
    74
1070
     0
1000
MTEXTEND
  0
POINT
  5
14DE
330
1434
100
AcDbEntity
  8
DEFPOINTS
 62
     0
100
AcDbPoint
 10
619.3270546760592
 20
124.4732360990508
 30
0.0
  0
POINT
  5
14DF
330
1434
100
AcDbEntity
  8
DEFPOINTS
 62
     0
100
AcDbPoint
 10
681.656163447895
 20
109.4818212687756
 30
0.0
  0
POINT
  5
14E0
330
1434
100
AcDbEntity
  8
DEFPOINTS
 62
     0
100
AcDbPoint
 10
562.0742746508098
 20
109.4818212687757
 30
0.0
  0
ENDBLK
  5
143F
330
1434
100
AcDbEntity
  8
0
100
AcDbBlockEnd
  0
BLOCK
  5
144A
330
1440
100
AcDbEntity
  8
0
100
AcDbBlockBegin
  2
*D5
 70
     1
 10
0.0
 20
0.0
 30
0.0
  3
*D5
  1

  0
LINE
  5
14E1
330
1440
100
AcDbEntity
  8
SUNPOU
100
AcDbLine
 10
730.7095602854153
 20
106.479852853908
 30
0.0
 11
730.7095602854153
 21
88.74948373043299
 31
0.0
  0
LINE
  5
14E2
330
1440
100
AcDbEntity
  8
SUNPOU
100
AcDbLine
 10
632.6551362629482
 20
107.7804626024311
 30
0.0
 11
632.6551362629482
 21
88.74948373043299
 31
0.0
  0
LINE
  5
14E3
330
1440
100
AcDbEntity
  8
SUNPOU
100
AcDbLine
 10
727.7095602854153
 20
90.24948373043299
 30
0.0
 11
635.6551362629481
 21
90.24948373043299
 31
0.0
  0
INSERT
  5
14E4
330
1440
100
AcDbEntity
  8
SUNPOU
100
AcDbBlockReference
  2
_OPEN
 10
730.7095602854153
 20
90.24948373043299
 30
0.0
 41
3.0
 42
3.0
 43
3.0
  0
INSERT
  5
14E5
330
1440
100
AcDbEntity
  8
SUNPOU
100
AcDbBlockReference
  2
_OPEN
 10
632.6551362629482
 20
90.24948373043299
 30
0.0
 41
3.0
 42
3.0
 43
3.0
 50
180.0
  0
MTEXT
  5
14E6
330
1440
100
AcDbEntity
  8
SUNPOU
100
AcDbMText
 10
681.6823482741817
 20
92.74948373043299
 30
0.0
 40
3.0
 41
0.0
 71
     5
 72
     1
  1
\A1;98
1001
ACAD
1000
MTEXTBEGIN
1070
    73
1070
     1
1070
    44
1040
1.0
1070
    74
1070
     0
1000
MTEXTEND
  0
POINT
  5
14E7
330
1440
100
AcDbEntity
  8
DEFPOINTS
 62
     0
100
AcDbPoint
 10
730.7095602854153
 20
109.479852853908
 30
0.0
  0
POINT
  5
14E8
330
1440
100
AcDbEntity
  8
DEFPOINTS
 62
     0
100
AcDbPoint
 10
632.6551362629482
 20
110.7804626024311
 30
0.0
  0
POINT
  5
14E9
330
1440
100
AcDbEntity
  8
DEFPOINTS
 62
     0
100
AcDbPoint
 10
632.6551362629482
 20
90.24948373043299
 30
0.0
  0
ENDBLK
  5
144B
330
1440
100
AcDbEntity
  8
0
100
AcDbBlockEnd
  0
BLOCK
  5
1456
330
144C
100
AcDbEntity
  8
0
100
AcDbBlockBegin
  2
*D6
 70
     1
 10
0.0
 20
0.0
 30
0.0
  3
*D6
  1

  0
LINE
  5
1989
330
144C
100
AcDbEntity
  8
SUNPOU
100
AcDbLine
 10
593.854917694778
 20
219.926996284654
 30
0.0
 11
560.5742746508099
 21
219.9269962846541
 31
0.0
  0
LINE
  5
198A
330
144C
100
AcDbEntity
  8
SUNPOU
100
AcDbLine
 10
616.3270546760592
 20
124.4732360990508
 30
0.0
 11
560.5742746508099
 21
124.4732360990508
 31
0.0
  0
LINE
  5
198B
330
144C
100
AcDbEntity
  8
SUNPOU
100
AcDbLine
 10
562.0742746508098
 20
216.9269962846541
 30
0.0
 11
562.0742746508098
 21
127.4732360990508
 31
0.0
  0
INSERT
  5
198C
330
144C
100
AcDbEntity
  8
SUNPOU
100
AcDbBlockReference
  2
_OPEN
 10
562.0742746508098
 20
219.9269962846541
 30
0.0
 41
3.0
 42
3.0
 43
3.0
 50
90.0
  0
INSERT
  5
198D
330
144C
100
AcDbEntity
  8
SUNPOU
100
AcDbBlockReference
  2
_OPEN
 10
562.0742746508098
 20
124.4732360990508
 30
0.0
 41
3.0
 42
3.0
 43
3.0
 50
270.0
  0
MTEXT
  5
198E
330
144C
100
AcDbEntity
  8
SUNPOU
100
AcDbMText
 10
559.5742746508099
 20
172.2001161918525
 30
0.0
 40
3.0
 41
0.0
 71
     5
 72
     1
  1
\A1;95
 11
0.0000000000000001
 21
1.0
 31
0.0
1001
ACAD
1000
MTEXTBEGIN
1070
    73
1070
     1
1070
    44
1040
1.0
1070
    74
1070
     0
1000
MTEXTEND
  0
POINT
  5
198F
330
144C
100
AcDbEntity
  8
DEFPOINTS
 62
     0
100
AcDbPoint
 10
596.8549176947781
 20
219.926996284654
 30
0.0
  0
POINT
  5
1990
330
144C
100
AcDbEntity
  8
DEFPOINTS
 62
     0
100
AcDbPoint
 10
619.3270546760592
 20
124.4732360990508
 30
0.0
  0
POINT
  5
1991
330
144C
100
AcDbEntity
  8
DEFPOINTS
 62
     0
100
AcDbPoint
 10
562.0742746508098
 20
124.4732360990508
 30
0.0
  0
ENDBLK
  5
1457
330
144C
100
AcDbEntity
  8
0
100
AcDbBlockEnd
  0
BLOCK
  5
1462
330
1458
100
AcDbEntity
  8
0
100
AcDbBlockBegin
  2
*D7
 70
     1
 10
0.0
 20
0.0
 30
0.0
  3
*D7
  1

  0
LINE
  5
14F3
330
1458
100
AcDbEntity
  8
SUNPOU
100
AcDbLine
 10
632.6551362629482
 20
107.7804626024311
 30
0.0
 11
632.6551362629482
 21
88.74948373043299
 31
0.0
  0
LINE
  5
14F4
330
1458
100
AcDbEntity
  8
SUNPOU
100
AcDbLine
 10
619.3270546760592
 20
121.4732360990508
 30
0.0
 11
619.3270546760592
 21
88.74948373043299
 31
0.0
  0
LINE
  5
14F5
330
1458
100
AcDbEntity
  8
SUNPOU
100
AcDbLine
 10
629.6551362629482
 20
90.24948373043299
 30
0.0
 11
622.3270546760592
 21
90.24948373043299
 31
0.0
  0
INSERT
  5
14F6
330
1458
100
AcDbEntity
  8
SUNPOU
100
AcDbBlockReference
  2
_OPEN
 10
632.6551362629482
 20
90.24948373043299
 30
0.0
 41
3.0
 42
3.0
 43
3.0
  0
INSERT
  5
14F7
330
1458
100
AcDbEntity
  8
SUNPOU
100
AcDbBlockReference
  2
_OPEN
 10
619.3270546760592
 20
90.24948373043299
 30
0.0
 41
3.0
 42
3.0
 43
3.0
 50
180.0
  0
MTEXT
  5
14F8
330
1458
100
AcDbEntity
  8
SUNPOU
100
AcDbMText
 10
625.9910954695037
 20
92.74948373043299
 30
0.0
 40
3.0
 41
0.0
 71
     5
 72
     1
  1
\A1;13
1001
ACAD
1000
MTEXTBEGIN
1070
    73
1070
     1
1070
    44
1040
1.0
1070
    74
1070
     0
1000
MTEXTEND
  0
POINT
  5
14F9
330
1458
100
AcDbEntity
  8
DEFPOINTS
 62
     0
100
AcDbPoint
 10
632.6551362629482
 20
110.7804626024311
 30
0.0
  0
POINT
  5
14FA
330
1458
100
AcDbEntity
  8
DEFPOINTS
 62
     0
100
AcDbPoint
 10
619.3270546760592
 20
124.4732360990508
 30
0.0
  0
POINT
  5
14FB
330
1458
100
AcDbEntity
  8
DEFPOINTS
 62
     0
100
AcDbPoint
 10
619.3270546760592
 20
90.24948373043299
 30
0.0
  0
ENDBLK
  5
1463
330
1458
100
AcDbEntity
  8
0
100
AcDbBlockEnd
  0
BLOCK
  5
147A
330
1470
100
AcDbEntity
  8
0
100
AcDbBlockBegin
  2
*D8
 70
     1
 10
0.0
 20
0.0
 30
0.0
  3
*D8
  1

  0
LINE
  5
199B
330
1470
100
AcDbEntity
  8
SUNPOU
100
AcDbLine
 10
596.8549176947781
 20
222.926996284654
 30
0.0
 11
596.8549176947781
 21
236.4153968979973
 31
0.0
  0
LINE
  5
199C
330
1470
100
AcDbEntity
  8
SUNPOU
100
AcDbLine
 10
614.3305180785179
 20
217.3287388107743
 30
0.0
 11
614.3305180785179
 21
236.4153968979973
 31
0.0
  0
LINE
  5
199D
330
1470
100
AcDbEntity
  8
SUNPOU
100
AcDbLine
 10
599.8549176947781
 20
234.9153968979972
 30
0.0
 11
611.3305180785179
 21
234.9153968979972
 31
0.0
  0
INSERT
  5
199E
330
1470
100
AcDbEntity
  8
SUNPOU
100
AcDbBlockReference
  2
_OPEN
 10
596.8549176947781
 20
234.9153968979972
 30
0.0
 41
3.0
 42
3.0
 43
3.0
 50
180.0
  0
INSERT
  5
199F
330
1470
100
AcDbEntity
  8
SUNPOU
100
AcDbBlockReference
  2
_OPEN
 10
614.3305180785179
 20
234.9153968979972
 30
0.0
 41
3.0
 42
3.0
 43
3.0
  0
MTEXT
  5
19A0
330
1470
100
AcDbEntity
  8
SUNPOU
100
AcDbMText
 10
605.5927178866479
 20
237.4153968979973
 30
0.0
 40
3.0
 41
0.0
 71
     5
 72
     1
  1
\A1;17
1001
ACAD
1000
MTEXTBEGIN
1070
    73
1070
     1
1070
    44
1040
1.0
1070
    74
1070
     0
1000
MTEXTEND
  0
POINT
  5
19A1
330
1470
100
AcDbEntity
  8
DEFPOINTS
 62
     0
100
AcDbPoint
 10
596.8549176947781
 20
219.926996284654
 30
0.0
  0
POINT
  5
19A2
330
1470
100
AcDbEntity
  8
DEFPOINTS
 62
     0
100
AcDbPoint
 10
614.3305180785179
 20
214.3287388107743
 30
0.0
  0
POINT
  5
19A3
330
1470
100
AcDbEntity
  8
DEFPOINTS
 62
     0
100
AcDbPoint
 10
614.3305180785179
 20
234.9153968979972
 30
0.0
  0
ENDBLK
  5
147B
330
1470
100
AcDbEntity
  8
0
100
AcDbBlockEnd
  0
BLOCK
  5
1486
330
147C
100
AcDbEntity
  8
0
100
AcDbBlockBegin
  2
*D9
 70
     1
 10
0.0
 20
0.0
 30
0.0
  3
*D9
  1

  0
LINE
  5
1977
330
147C
100
AcDbEntity
  8
SUNPOU
100
AcDbLine
 10
588.8320547875389
 20
218.9223331169558
 30
0.0
 11
588.8320547875389
 21
236.4153968979973
 31
0.0
  0
LINE
  5
1978
330
147C
100
AcDbEntity
  8
SUNPOU
100
AcDbLine
 10
596.8549176947781
 20
222.926996284654
 30
0.0
 11
596.8549176947781
 21
236.4153968979973
 31
0.0
  0
LINE
  5
1979
330
147C
100
AcDbEntity
  8
SUNPOU
100
AcDbLine
 10
591.8320547875389
 20
234.9153968979972
 30
0.0
 11
593.854917694778
 21
234.9153968979972
 31
0.0
  0
INSERT
  5
197A
330
147C
100
AcDbEntity
  8
SUNPOU
100
AcDbBlockReference
  2
_OPEN
 10
588.8320547875389
 20
234.9153968979972
 30
0.0
 41
3.0
 42
3.0
 43
3.0
 50
180.0
  0
INSERT
  5
197B
330
147C
100
AcDbEntity
  8
SUNPOU
100
AcDbBlockReference
  2
_OPEN
 10
596.8549176947781
 20
234.9153968979972
 30
0.0
 41
3.0
 42
3.0
 43
3.0
  0
MTEXT
  5
197C
330
147C
100
AcDbEntity
  8
SUNPOU
100
AcDbMText
 10
592.8434862411585
 20
237.4153968979973
 30
0.0
 40
3.0
 41
0.0
 71
     5
 72
     1
  1
\A1;8
1001
ACAD
1000
MTEXTBEGIN
1070
    73
1070
     1
1070
    44
1040
1.0
1070
    74
1070
     0
1000
MTEXTEND
  0
POINT
  5
197D
330
147C
100
AcDbEntity
  8
DEFPOINTS
 62
     0
100
AcDbPoint
 10
588.8320547875389
 20
215.9223331169558
 30
0.0
  0
POINT
  5
197E
330
147C
100
AcDbEntity
  8
DEFPOINTS
 62
     0
100
AcDbPoint
 10
596.8549176947781
 20
219.926996284654
 30
0.0
  0
POINT
  5
197F
330
147C
100
AcDbEntity
  8
DEFPOINTS
 62
     0
100
AcDbPoint
 10
596.8549176947781
 20
234.9153968979972
 30
0.0
  0
ENDBLK
  5
1487
330
147C
100
AcDbEntity
  8
0
100
AcDbBlockEnd
  0
BLOCK
  5
1492
330
1488
100
AcDbEntity
  8
0
100
AcDbBlockBegin
  2
*D10
 70
     1
 10
0.0
 20
0.0
 30
0.0
  3
*D10
  1

  0
LINE
  5
1980
330
1488
100
AcDbEntity
  8
SUNPOU
100
AcDbLine
 10
593.854917694778
 20
219.926996284654
 30
0.0
 11
570.5355367999809
 21
219.9269962846541
 31
0.0
  0
LINE
  5
1981
330
1488
100
AcDbEntity
  8
SUNPOU
100
AcDbLine
 10
586.4820547875389
 20
208.1998520385517
 30
0.0
 11
570.5355367999809
 21
208.1998520385518
 31
0.0
  0
LINE
  5
1982
330
1488
100
AcDbEntity
  8
SUNPOU
100
AcDbLine
 10
572.0355367999809
 20
216.9269962846541
 30
0.0
 11
572.0355367999809
 21
211.1998520385518
 31
0.0
  0
INSERT
  5
1983
330
1488
100
AcDbEntity
  8
SUNPOU
100
AcDbBlockReference
  2
_OPEN
 10
572.0355367999809
 20
219.9269962846541
 30
0.0
 41
3.0
 42
3.0
 43
3.0
 50
90.0
  0
INSERT
  5
1984
330
1488
100
AcDbEntity
  8
SUNPOU
100
AcDbBlockReference
  2
_OPEN
 10
572.0355367999809
 20
208.1998520385518
 30
0.0
 41
3.0
 42
3.0
 43
3.0
 50
270.0
  0
MTEXT
  5
1985
330
1488
100
AcDbEntity
  8
SUNPOU
100
AcDbMText
 10
569.5355367999809
 20
214.063424161603
 30
0.0
 40
3.0
 41
0.0
 71
     5
 72
     1
  1
\A1;12
 11
0.0000000000000001
 21
1.0
 31
0.0
1001
ACAD
1000
MTEXTBEGIN
1070
    73
1070
     1
1070
    44
1040
1.0
1070
    74
1070
     0
1000
MTEXTEND
  0
POINT
  5
1986
330
1488
100
AcDbEntity
  8
DEFPOINTS
 62
     0
100
AcDbPoint
 10
596.8549176947781
 20
219.926996284654
 30
0.0
  0
POINT
  5
1987
330
1488
100
AcDbEntity
  8
DEFPOINTS
 62
     0
100
AcDbPoint
 10
589.4820547875389
 20
208.1998520385517
 30
0.0
  0
POINT
  5
1988
330
1488
100
AcDbEntity
  8
DEFPOINTS
 62
     0
100
AcDbPoint
 10
572.0355367999809
 20
208.1998520385518
 30
0.0
  0
ENDBLK
  5
1493
330
1488
100
AcDbEntity
  8
0
100
AcDbBlockEnd
  0
BLOCK
  5
149E
330
1494
100
AcDbEntity
  8
0
100
AcDbBlockBegin
  2
*D11
 70
     1
 10
0.0
 20
0.0
 30
0.0
  3
*D11
  1

  0
LINE
  5
1520
330
1494
100
AcDbEntity
  8
SUNPOU
100
AcDbLine
 10
724.2927041374389
 20
179.4798520385517
 30
0.0
 11
712.1747183761335
 21
179.4798520385517
 31
0.0
  0
LINE
  5
1521
330
1494
100
AcDbEntity
  8
SUNPOU
100
AcDbLine
 10
719.2927041374389
 20
164.4798520385517
 30
0.0
 11
712.1747183761335
 21
164.4798520385517
 31
0.0
  0
LINE
  5
1522
330
1494
100
AcDbEntity
  8
SUNPOU
100
AcDbLine
 10
713.6747183761335
 20
176.4798520385517
 30
0.0
 11
713.6747183761335
 21
167.4798520385517
 31
0.0
  0
INSERT
  5
1523
330
1494
100
AcDbEntity
  8
SUNPOU
100
AcDbBlockReference
  2
_OPEN
 10
713.6747183761335
 20
179.4798520385517
 30
0.0
 41
3.0
 42
3.0
 43
3.0
 50
90.0
  0
INSERT
  5
1524
330
1494
100
AcDbEntity
  8
SUNPOU
100
AcDbBlockReference
  2
_OPEN
 10
713.6747183761335
 20
164.4798520385517
 30
0.0
 41
3.0
 42
3.0
 43
3.0
 50
270.0
  0
MTEXT
  5
1525
330
1494
100
AcDbEntity
  8
SUNPOU
100
AcDbMText
 10
711.1747183761336
 20
171.9798520385518
 30
0.0
 40
3.0
 41
0.0
 71
     5
 72
     1
  1
\A1;15
 11
0.0000000000000001
 21
1.0
 31
0.0
1001
ACAD
1000
MTEXTBEGIN
1070
    73
1070
     1
1070
    44
1040
1.0
1070
    74
1070
     0
1000
MTEXTEND
  0
POINT
  5
1526
330
1494
100
AcDbEntity
  8
DEFPOINTS
 62
     0
100
AcDbPoint
 10
727.2927041374389
 20
179.4798520385517
 30
0.0
  0
POINT
  5
1527
330
1494
100
AcDbEntity
  8
DEFPOINTS
 62
     0
100
AcDbPoint
 10
722.2927041374389
 20
164.4798520385517
 30
0.0
  0
POINT
  5
1528
330
1494
100
AcDbEntity
  8
DEFPOINTS
 62
     0
100
AcDbPoint
 10
713.6747183761335
 20
164.4798520385517
 30
0.0
  0
ENDBLK
  5
149F
330
1494
100
AcDbEntity
  8
0
100
AcDbBlockEnd
  0
BLOCK
  5
14AA
330
14A0
100
AcDbEntity
  8
0
100
AcDbBlockBegin
  2
*D12
 70
     1
 10
0.0
 20
0.0
 30
0.0
  3
*D12
  1

  0
LINE
  5
1529
330
14A0
100
AcDbEntity
  8
SUNPOU
100
AcDbLine
 10
734.0236814788198
 20
177.224247835436
 30
0.0
 11
734.0236814788198
 21
191.773475015877
 31
0.0
  0
LINE
  5
152A
330
14A0
100
AcDbEntity
  8
SUNPOU
100
AcDbLine
 10
722.2927041374389
 20
167.4798520385517
 30
0.0
 11
722.2927041374389
 21
191.773475015877
 31
0.0
  0
LINE
  5
152B
330
14A0
100
AcDbEntity
  8
SUNPOU
100
AcDbLine
 10
731.0236814788198
 20
190.273475015877
 30
0.0
 11
725.2927041374389
 21
190.273475015877
 31
0.0
  0
INSERT
  5
152C
330
14A0
100
AcDbEntity
  8
SUNPOU
100
AcDbBlockReference
  2
_OPEN
 10
734.0236814788198
 20
190.273475015877
 30
0.0
 41
3.0
 42
3.0
 43
3.0
  0
INSERT
  5
152D
330
14A0
100
AcDbEntity
  8
SUNPOU
100
AcDbBlockReference
  2
_OPEN
 10
722.2927041374389
 20
190.273475015877
 30
0.0
 41
3.0
 42
3.0
 43
3.0
 50
180.0
  0
MTEXT
  5
152E
330
14A0
100
AcDbEntity
  8
SUNPOU
100
AcDbMText
 10
728.1581928081293
 20
192.773475015877
 30
0.0
 40
3.0
 41
0.0
 71
     5
 72
     1
  1
\A1;12
1001
ACAD
1000
MTEXTBEGIN
1070
    73
1070
     1
1070
    44
1040
1.0
1070
    74
1070
     0
1000
MTEXTEND
  0
POINT
  5
152F
330
14A0
100
AcDbEntity
  8
DEFPOINTS
 62
     0
100
AcDbPoint
 10
734.0236814788198
 20
174.224247835436
 30
0.0
  0
POINT
  5
1530
330
14A0
100
AcDbEntity
  8
DEFPOINTS
 62
     0
100
AcDbPoint
 10
722.2927041374389
 20
164.4798520385517
 30
0.0
  0
POINT
  5
1531
330
14A0
100
AcDbEntity
  8
DEFPOINTS
 62
     0
100
AcDbPoint
 10
722.2927041374389
 20
190.273475015877
 30
0.0
  0
ENDBLK
  5
14AB
330
14A0
100
AcDbEntity
  8
0
100
AcDbBlockEnd
  0
BLOCK
  5
14B6
330
14AC
100
AcDbEntity
  8
0
100
AcDbBlockBegin
  2
*D13
 70
     1
 10
0.0
 20
0.0
 30
0.0
  3
*D13
  1

  0
LINE
  5
1532
330
14AC
100
AcDbEntity
  8
SUNPOU
100
AcDbLine
 10
730.2927041374389
 20
179.4798520385517
 30
0.0
 11
758.9143992641359
 21
179.4798520385517
 31
0.0
  0
LINE
  5
1533
330
14AC
100
AcDbEntity
  8
SUNPOU
100
AcDbLine
 10
684.6561634478949
 20
109.4818212687756
 30
0.0
 11
758.9143992641359
 21
109.4818212687756
 31
0.0
  0
LINE
  5
1534
330
14AC
100
AcDbEntity
  8
SUNPOU
100
AcDbLine
 10
757.4143992641359
 20
176.4798520385517
 30
0.0
 11
757.4143992641359
 21
112.4818212687756
 31
0.0
  0
INSERT
  5
1535
330
14AC
100
AcDbEntity
  8
SUNPOU
100
AcDbBlockReference
  2
_OPEN
 10
757.4143992641359
 20
179.4798520385517
 30
0.0
 41
3.0
 42
3.0
 43
3.0
 50
90.0
  0
INSERT
  5
1536
330
14AC
100
AcDbEntity
  8
SUNPOU
100
AcDbBlockReference
  2
_OPEN
 10
757.4143992641359
 20
109.4818212687756
 30
0.0
 41
3.0
 42
3.0
 43
3.0
 50
270.0
  0
MTEXT
  5
1537
330
14AC
100
AcDbEntity
  8
SUNPOU
100
AcDbMText
 10
754.9143992641359
 20
144.4808366536638
 30
0.0
 40
3.0
 41
0.0
 71
     5
 72
     1
  1
\A1;70
 11
0.0000000000000001
 21
1.0
 31
0.0
1001
ACAD
1000
MTEXTBEGIN
1070
    73
1070
     1
1070
    44
1040
1.0
1070
    74
1070
     0
1000
MTEXTEND
  0
POINT
  5
1538
330
14AC
100
AcDbEntity
  8
DEFPOINTS
 62
     0
100
AcDbPoint
 10
727.2927041374389
 20
179.4798520385517
 30
0.0
  0
POINT
  5
1539
330
14AC
100
AcDbEntity
  8
DEFPOINTS
 62
     0
100
AcDbPoint
 10
681.656163447895
 20
109.4818212687756
 30
0.0
  0
POINT
  5
153A
330
14AC
100
AcDbEntity
  8
DEFPOINTS
 62
     0
100
AcDbPoint
 10
757.4143992641359
 20
109.4818212687756
 30
0.0
  0
ENDBLK
  5
14B7
330
14AC
100
AcDbEntity
  8
0
100
AcDbBlockEnd
  0
BLOCK
  5
14C4
330
14B8
100
AcDbEntity
  8
0
100
AcDbBlockBegin
  2
*D14
 70
     1
 10
0.0
 20
0.0
 30
0.0
  3
*D14
  1

  0
LINE
  5
153B
330
14B8
100
AcDbEntity
  8
SUNPOU
100
AcDbLine
 10
731.1406998526122
 20
143.3325012130501
 30
0.0
 11
731.0640185916756
 21
141.834462500526
 31
0.0
  0
LINE
  5
153C
330
14B8
100
AcDbEntity
  8
SUNPOU
100
AcDbLine
 10
732.4390000701209
 20
143.2660441202389
 30
0.0
 11
732.3623188091842
 21
141.7680054077148
 31
0.0
  0
LINE
  5
153D
330
14B8
100
AcDbEntity
  8
SUNPOU
100
AcDbLine
 10
727.9912599056904
 20
140.4897863098751
 30
0.0
 11
724.9951824806418
 21
140.6431488317485
 31
0.0
  0
LINE
  5
153E
330
14B8
100
AcDbEntity
  8
SUNPOU
100
AcDbLine
 10
735.2817149732958
 20
140.1166041733172
 30
0.0
 11
748.2647171485055
 21
139.4520332451993
 31
0.0
  0
LINE
  5
153F
330
14B8
100
AcDbEntity
  8
SUNPOU
100
AcDbLine
 10
730.9873373307388
 20
140.3364237880018
 30
0.0
 11
732.2856375482474
 21
140.2699666951906
 31
0.0
  0
INSERT
  5
1540
330
14B8
100
AcDbEntity
  8
SUNPOU
100
AcDbBlockReference
  2
_OPEN
 10
730.9873373307388
 20
140.3364237880018
 30
0.0
 41
3.0
 42
3.0
 43
3.0
 50
357.0697143351245
  0
INSERT
  5
1541
330
14B8
100
AcDbEntity
  8
SUNPOU
100
AcDbBlockReference
  2
_OPEN
 10
732.2856375482474
 20
140.2699666951906
 30
0.0
 41
3.0
 42
3.0
 43
3.0
 50
177.0697143351245
  0
MTEXT
  5
1542
330
14B8
100
AcDbEntity
  8
SUNPOU
100
AcDbMText
 10
743.3990568749861
 20
142.2043686358619
 30
0.0
 40
3.0
 41
0.0
 71
     5
 72
     1
  1
\A1;t1.3
 11
0.9986924750161328
 21
-0.0511208406244569
 31
0.0
1001
ACAD
1000
MTEXTBEGIN
1070
    73
1070
     1
1070
    44
1040
1.0
1070
    74
1070
     0
1000
MTEXTEND
  0
POINT
  5
1543
330
14B8
100
AcDbEntity
  8
DEFPOINTS
 62
     0
100
AcDbPoint
 10
730.9873373307388
 20
140.3364237880017
 30
0.0
  0
POINT
  5
1544
330
14B8
100
AcDbEntity
  8
DEFPOINTS
 62
     0
100
AcDbPoint
 10
732.2856375482474
 20
140.2699666951905
 30
0.0
  0
POINT
  5
1545
330
14B8
100
AcDbEntity
  8
DEFPOINTS
 62
     0
100
AcDbPoint
 10
732.2856375482474
 20
140.2699666951906
 30
0.0
  0
ENDBLK
  5
14C5
330
14B8
100
AcDbEntity
  8
0
100
AcDbBlockEnd
  0
BLOCK
  5
1586
330
1582
100
AcDbEntity
  8
0
100
AcDbBlockBegin
  2
20061005_10361524
 70
     0
 10
0.0
 20
0.0
 30
0.0
  3
20061005_10361524
  1

  0
LINE
  5
1583
330
1582
100
AcDbEntity
  8
C2
100
AcDbLine
 10
12.0
 20
6.0
 30
0.0
 11
0.0
 21
6.0
 31
0.0
  0
LINE
  5
1584
330
1582
100
AcDbEntity
  8
C2
100
AcDbLine
 10
6.0
 20
12.0
 30
0.0
 11
6.0
 21
0.0
 31
0.0
  0
CIRCLE
  5
1585
330
1582
100
AcDbEntity
  8
C2
100
AcDbCircle
 10
6.0
 20
6.0
 30
0.0
 40
1.0
  0
ENDBLK
  5
1587
330
1582
100
AcDbEntity
  8
0
100
AcDbBlockEnd
  0
BLOCK
  5
163E
330
15A0
100
AcDbEntity
  8
0
100
AcDbBlockBegin
  2
20070823_10093536
 70
     0
 10
0.0
 20
0.0
 30
0.0
  3
20070823_10093536
  1

  0
LINE
  5
15A1
330
15A0
100
AcDbEntity
  8
SEIHIN
 48
0.5
100
AcDbLine
 10
130.4
 20
90.01212614982206
 30
0.0
 11
130.4
 21
75.97806405178108
 31
0.0
  0
ARC
  5
15A2
330
15A0
100
AcDbEntity
  8
SEIHIN
 48
0.5
100
AcDbCircle
 10
979.6664399157316
 20
361.0573367223178
 30
0.0
 40
999.8000000000011
100
AcDbArc
 50
195.8108447710415
 51
200.0478728188227
  0
LINE
  5
15A3
330
15A0
100
AcDbEntity
  8
SEIHIN
 48
0.5
100
AcDbLine
 10
129.2000000000002
 20
89.51506987497419
 30
0.0
 11
129.2000000000002
 21
77.9949688622969
 31
0.0
  0
LINE
  5
15A4
330
15A0
100
AcDbEntity
  8
SEIHIN
 48
0.5
100
AcDbLine
 10
130.5999999999999
 20
90.09496886229658
 30
0.0
 11
130.5999999999999
 21
75.97806405178108
 31
0.0
  0
LINE
  5
15A5
330
15A0
100
AcDbEntity
  8
SEIHIN
 48
0.5
100
AcDbLine
 10
125.7004482961028
 20
91.69496886229671
 30
0.0
 11
124.6110134307677
 21
77.9949688622969
 31
0.0
  0
LINE
  5
15A6
330
15A0
100
AcDbEntity
  8
SEIHIN
 48
0.5
100
AcDbLine
 10
124.4710650042079
 20
92.63460413837719
 30
0.0
 11
117.8453506709915
 21
9.314077823904426
 31
0.0
  0
ARC
  5
15A7
330
15A0
100
AcDbEntity
  8
SEIHIN
 48
0.5
100
AcDbCircle
 10
979.6664399157316
 20
361.0573367223178
 30
0.0
 40
1000.000000000001
100
AcDbArc
 50
195.8108447710415
 51
200.0478728188227
  0
ARC
  5
15A8
330
15A0
100
AcDbEntity
  8
SEIHIN
 48
0.5
100
AcDbCircle
 10
979.6664399157316
 20
361.0573367223178
 30
0.0
 40
998.6000000000013
100
AcDbArc
 50
195.8219949179074
 51
199.9513743718397
  0
ARC
  5
15A9
330
15A0
100
AcDbEntity
  8
SEIHIN
 48
0.5
100
AcDbCircle
 10
85.0
 20
1005.594968862296
 30
0.0
 40
999.7999999999997
100
AcDbArc
 50
268.1300946705987
 51
271.8459516885246
  0
ARC
  5
15AA
330
15A0
100
AcDbEntity
  8
SEIHIN
 48
0.5
100
AcDbCircle
 10
85.0
 20
1005.594968862296
 30
0.0
 40
998.5999999999997
100
AcDbArc
 50
268.1852259688981
 51
271.773983013799
  0
ARC
  5
15AB
330
15A0
100
AcDbEntity
  8
SEIHIN
 48
0.5
100
AcDbCircle
 10
85.0
 20
1005.594968862296
 30
0.0
 40
999.9999999999996
100
AcDbArc
 50
268.1300946705987
 51
271.8459516885246
  0
ARC
  5
15AC
330
15A0
100
AcDbEntity
  8
SEIHIN
 48
0.5
100
AcDbCircle
 10
41.19932456234301
 20
18.59496886229635
 30
0.0
 40
1.0
100
AcDbArc
 50
200.0478728188227
 51
270.0
  0
LINE
  5
15AD
330
15A0
100
AcDbEntity
  8
SEIHIN
 48
0.5
100
AcDbLine
 10
47.42321434257064
 20
16.99159770569553
 30
0.0
 11
50.73621326440115
 21
7.531467716926044
 31
0.0
  0
LINE
  5
15AE
330
15A0
100
AcDbEntity
  8
SEIHIN
 48
0.5
100
AcDbLine
 10
48.22753467314123
 20
18.32549289846247
 30
0.0
 11
51.55159142320963
 21
8.833787743207494
 31
0.0
  0
LINE
  5
15AF
330
15A0
100
AcDbEntity
  8
SEIHIN
 48
0.5
100
AcDbLine
 10
47.23445482768283
 20
16.92549289846238
 30
0.0
 11
50.54745374951335
 21
7.465362909692885
 31
0.0
  0
ARC
  5
15B0
330
15A0
100
AcDbEntity
  8
SEIHIN
 48
0.5
100
AcDbCircle
 10
52.43504889839096
 20
8.126410982024481
 30
0.0
 40
1.800000000000189
100
AcDbArc
 50
199.30058543077
 51
268.1300946705726
  0
ARC
  5
15B1
330
15A0
100
AcDbEntity
  8
SEIHIN
 48
0.5
100
AcDbCircle
 10
52.43504889839096
 20
8.126410982024481
 30
0.0
 40
2.000000000000188
100
AcDbArc
 50
199.30058543077
 51
268.1300946705726
  0
ARC
  5
15B2
330
15A0
100
AcDbEntity
  8
SEIHIN
 48
0.5
100
AcDbCircle
 10
53.43918657208724
 20
9.49483581553909
 30
0.0
 40
2.00000000000015
100
AcDbArc
 50
199.30058543077
 51
268.1852259688981
  0
LINE
  5
15B3
330
15A0
100
AcDbEntity
  8
SEIHIN
 48
0.5
100
AcDbLine
 10
46.2906572532438
 20
17.79496886229662
 30
0.0
 11
41.19932456234346
 21
17.7949688622964
 31
0.0
  0
LINE
  5
15B4
330
15A0
100
AcDbEntity
  8
SEIHIN
 48
0.5
100
AcDbLine
 10
46.2906572532438
 20
17.59496886229658
 30
0.0
 11
41.19932456234346
 21
17.59496886229635
 31
0.0
  0
LINE
  5
15B5
330
15A0
100
AcDbEntity
  8
SEIHIN
 48
0.5
100
AcDbLine
 10
47.28373709870266
 20
18.99496886229644
 30
0.0
 11
42.87983349704563
 21
18.99496886229644
 31
0.0
  0
ARC
  5
15B6
330
15A0
100
AcDbEntity
  8
SEIHIN
 48
0.5
100
AcDbCircle
 10
41.19932456234301
 20
18.59496886229635
 30
0.0
 40
0.8000000000000007
100
AcDbArc
 50
200.0478728188227
 51
270.0
  0
ARC
  5
15B7
330
15A0
100
AcDbEntity
  8
SEIHIN
 48
0.5
100
AcDbCircle
 10
42.87983349704563
 20
20.99496886229644
 30
0.0
 40
2.000000000000107
100
AcDbArc
 50
199.9513743718519
 51
270.0
  0
ARC
  5
15B8
330
15A0
100
AcDbEntity
  8
SEIHIN
 48
0.5
100
AcDbCircle
 10
46.2906572532438
 20
16.59496886229658
 30
0.0
 40
1.199999999999999
100
AcDbArc
 50
19.30058543077009
 51
90.0
  0
ARC
  5
15B9
330
15A0
100
AcDbEntity
  8
SEIHIN
 48
0.5
100
AcDbCircle
 10
46.2906572532438
 20
16.59496886229658
 30
0.0
 40
1.0
100
AcDbArc
 50
19.30058543077009
 51
90.0
  0
ARC
  5
15BA
330
15A0
100
AcDbEntity
  8
SEIHIN
 48
0.5
100
AcDbCircle
 10
47.28373709870266
 20
17.99496886229644
 30
0.0
 40
1.0
100
AcDbArc
 50
19.30058543077009
 51
90.0
  0
LINE
  5
15BB
330
15A0
100
AcDbEntity
  8
SEIHIN
 48
0.5
100
AcDbLine
 10
124.4152727995005
 20
76.79496886229663
 30
0.0
 11
118.9422723355
 21
7.970196732634349
 31
0.0
  0
LINE
  5
15BC
330
15A0
100
AcDbEntity
  8
SEIHIN
 48
0.5
100
AcDbLine
 10
124.5999999999999
 20
76.59496886229681
 30
0.0
 11
119.1416429631822
 21
7.954342622202148
 31
0.0
  0
LINE
  5
15BD
330
15A0
100
AcDbEntity
  8
CENTERL
100
AcDbLine
 10
85.0
 20
11.89439135711541
 30
0.0
 11
85.0
 21
0.0
 31
0.0
  0
ARC
  5
15BE
330
15A0
100
AcDbEntity
  8
SEIHIN
 48
0.5
100
AcDbCircle
 10
115.8516443941693
 20
9.472618928226211
 30
0.0
 40
1.999999999999996
100
AcDbArc
 50
271.773983013799
 51
355.4533617064136
  0
ARC
  5
15BF
330
15A0
100
AcDbEntity
  8
SEIHIN
 48
0.5
100
AcDbCircle
 10
117.14793668636
 20
8.112883726523932
 30
0.0
 40
1.799999999999997
100
AcDbArc
 50
271.8459516885246
 51
355.4533617064136
  0
ARC
  5
15C0
330
15A0
100
AcDbEntity
  8
SEIHIN
 48
0.5
100
AcDbCircle
 10
117.14793668636
 20
8.112883726523932
 30
0.0
 40
1.999999999999998
100
AcDbArc
 50
271.8459516885246
 51
355.4533617064136
  0
LINE
  5
15C1
330
15A0
100
AcDbEntity
  8
SEIHIN
 48
0.5
100
AcDbLine
 10
124.4152727995005
 20
76.79496886229663
 30
0.0
 11
128.1553967929894
 21
76.79496886229663
 31
0.0
  0
LINE
  5
15C2
330
15A0
100
AcDbEntity
  8
SEIHIN
 48
0.5
100
AcDbLine
 10
124.6110134307673
 20
77.9949688622969
 30
0.0
 11
129.2000000000002
 21
77.9949688622969
 31
0.0
  0
LINE
  5
15C3
330
15A0
100
AcDbEntity
  8
SEIHIN
 48
0.5
100
AcDbLine
 10
124.6000000000003
 20
76.59496886229681
 30
0.0
 11
128.0999999999999
 21
76.59496886229681
 31
0.0
  0
ARC
  5
15C4
330
15A0
100
AcDbEntity
  8
SEIHIN
 48
0.5
100
AcDbCircle
 10
130.0999999999999
 20
75.97806405178108
 30
0.0
 40
0.3000000000000169
100
AcDbArc
 50
239.0362434679237
 51
0.0
  0
LINE
  5
15C5
330
15A0
100
AcDbEntity
  8
SEIHIN
 48
0.5
100
AcDbLine
 10
128.1553967929894
 20
76.79496886229663
 30
0.0
 11
129.9456512733718
 21
75.72081617406752
 31
0.0
  0
ARC
  5
15C6
330
15A0
100
AcDbEntity
  8
SEIHIN
 48
0.5
100
AcDbCircle
 10
130.0999999999999
 20
75.97806405178108
 30
0.0
 40
0.5000000000000169
100
AcDbArc
 50
239.0362434679237
 51
0.0
  0
LINE
  5
15C7
330
15A0
100
AcDbEntity
  8
SEIHIN
 48
0.5
100
AcDbLine
 10
128.0999999999999
 20
76.59496886229681
 30
0.0
 11
129.8427521222865
 21
75.54931758892507
 31
0.0
  0
ARC
  5
15C8
330
15A0
100
AcDbEntity
  8
SEIHIN
 48
0.5
100
AcDbCircle
 10
16.5
 20
95.59496886229657
 30
0.0
 40
1.199999999999999
100
AcDbArc
 50
0.0
 51
90.0
  0
LINE
  5
15C9
330
15A0
100
AcDbEntity
  8
SEIHIN
 48
0.5
100
AcDbLine
 10
17.90000000000054
 20
97.9949688622969
 30
0.0
 11
6.691326070968898
 21
97.99496886229645
 31
0.0
  0
ARC
  5
15CA
330
15A0
100
AcDbEntity
  8
SEIHIN
 48
0.5
100
AcDbCircle
 10
16.5
 20
95.59496886229657
 30
0.0
 40
1.0
100
AcDbArc
 50
0.0
 51
90.0
  0
LINE
  5
15CB
330
15A0
100
AcDbEntity
  8
SEIHIN
 48
0.5
100
AcDbLine
 10
0.1883483823189635
 20
110.6622361416962
 30
0.0
 11
5.117241567711971
 21
96.86133522259638
 31
0.0
  0
LINE
  5
15CC
330
15A0
100
AcDbEntity
  8
SEIHIN
 48
0.5
100
AcDbLine
 10
0.0
 20
110.5949688622965
 30
0.0
 11
4.928893185393008
 21
96.79406794319675
 31
0.0
  0
ARC
  5
15CD
330
15A0
100
AcDbEntity
  8
SEIHIN
 48
0.5
100
AcDbCircle
 10
12.20535553410536
 20
101.3949688622965
 30
0.0
 40
6.999999999999959
100
AcDbArc
 50
105.8737907964524
 51
199.6538240580533
  0
LINE
  5
15CE
330
15A0
100
AcDbEntity
  8
SEIHIN
 48
0.5
100
AcDbLine
 10
16.5
 20
96.79496886229664
 30
0.0
 11
5.211415758871225
 21
96.79496886229641
 31
0.0
  0
LINE
  5
15CF
330
15A0
100
AcDbEntity
  8
SEIHIN
 48
0.5
100
AcDbLine
 10
16.5
 20
96.59496886229659
 30
0.0
 11
5.211415758871225
 21
96.59496886229636
 31
0.0
  0
ARC
  5
15D0
330
15A0
100
AcDbEntity
  8
SEIHIN
 48
0.5
100
AcDbCircle
 10
6.691326070968898
 20
98.99496886229645
 30
0.0
 40
0.999999999999979
100
AcDbArc
 50
199.6538240580533
 51
270.0
  0
LINE
  5
15D1
330
15A0
100
AcDbEntity
  8
SEIHIN
 48
0.5
100
AcDbLine
 10
5.61316215294164
 20
99.04061408330949
 30
0.0
 11
5.74958415937408
 21
98.6586324652983
 31
0.0
  0
ARC
  5
15D2
330
15A0
100
AcDbEntity
  8
SEIHIN
 48
0.5
100
AcDbCircle
 10
5.211415758871225
 20
96.89496886229632
 30
0.0
 40
0.1
100
AcDbArc
 50
199.6538240580533
 51
270.0
  0
ARC
  5
15D3
330
15A0
100
AcDbEntity
  8
SEIHIN
 48
0.5
100
AcDbCircle
 10
5.211415758871225
 20
96.89496886229632
 30
0.0
 40
0.3
100
AcDbArc
 50
199.6538240580533
 51
270.0
  0
ARC
  5
15D4
330
15A0
100
AcDbEntity
  8
SEIHIN
 48
0.5
100
AcDbCircle
 10
2.0
 20
114.0334160494876
 30
0.0
 40
1.8
100
AcDbArc
 50
75.96375653206641
 51
180.0
  0
LINE
  5
15D5
330
15A0
100
AcDbEntity
  8
SEIHIN
 48
0.5
100
AcDbLine
 10
2.43656412506516
 20
115.7796725497491
 30
0.0
 11
3.699941795844551
 21
115.4638281320546
 31
0.0
  0
ARC
  5
15D6
330
15A0
100
AcDbEntity
  8
SEIHIN
 48
0.5
100
AcDbCircle
 10
3.675688233340679
 20
115.3668138820401
 30
0.0
 40
0.3000000000000382
100
AcDbArc
 50
354.2894068625158
 51
75.96375653206641
  0
ARC
  5
15D7
330
15A0
100
AcDbEntity
  8
SEIHIN
 48
0.5
100
AcDbCircle
 10
2.0
 20
114.0334160494876
 30
0.0
 40
2.0
100
AcDbArc
 50
75.96375653206641
 51
180.0
  0
LINE
  5
15D8
330
15A0
100
AcDbEntity
  8
SEIHIN
 48
0.5
100
AcDbLine
 10
4.135640503373906
 20
112.3238992419585
 30
0.0
 11
14.68001365532018
 21
110.6633680369277
 31
0.0
  0
LINE
  5
15D9
330
15A0
100
AcDbEntity
  8
SEIHIN
 48
0.5
100
AcDbLine
 10
3.948964780711776
 20
111.1385080936161
 30
0.0
 11
10.74666827059854
 21
110.0680036070198
 31
0.0
  0
ARC
  5
15DA
330
15A0
100
AcDbEntity
  8
SEIHIN
 48
0.5
100
AcDbCircle
 10
12.20535553410536
 20
101.3949688622965
 30
0.0
 40
8.299999999999959
100
AcDbArc
 50
100.7153641846204
 51
167.1519097861781
  0
LINE
  5
15DB
330
15A0
100
AcDbEntity
  8
SEIHIN
 48
0.5
100
AcDbLine
 10
4.166753131742552
 20
112.5214644321008
 30
0.0
 11
14.71112628368882
 21
110.8609332270698
 31
0.0
  0
LINE
  5
15DC
330
15A0
100
AcDbEntity
  8
SEIHIN
 48
0.5
100
AcDbLine
 10
1.40000000000009
 20
110.8374681115458
 30
0.0
 11
4.11316215294164
 21
103.2406140833097
 31
0.0
  0
ARC
  5
15DD
330
15A0
100
AcDbEntity
  8
SEIHIN
 48
0.5
100
AcDbCircle
 10
3.675688233340679
 20
115.3668138820401
 30
0.0
 40
0.1000000000000382
100
AcDbArc
 50
354.2894068625158
 51
75.96375653206641
  0
LINE
  5
15DE
330
15A0
100
AcDbEntity
  8
SEIHIN
 48
0.5
100
AcDbLine
 10
0.1999999999998181
 20
110.5949688622965
 30
0.0
 11
0.1999999999998181
 21
114.0334160494876
 31
0.0
  0
LINE
  5
15DF
330
15A0
100
AcDbEntity
  8
SEIHIN
 48
0.5
100
AcDbLine
 10
3.775191947511757
 20
115.3568634616367
 30
0.0
 11
3.548008605011091
 21
113.08503003663
 31
0.0
  0
ARC
  5
15E0
330
15A0
100
AcDbEntity
  8
SEIHIN
 48
0.5
100
AcDbCircle
 10
4.244534636612115
 20
113.0153774178586
 30
0.0
 40
0.699999999999911
100
AcDbArc
 50
174.2894068625029
 51
261.050541915804
  0
LINE
  5
15E1
330
15A0
100
AcDbEntity
  8
SEIHIN
 48
0.5
100
AcDbLine
 10
3.747016043053008
 20
113.0651292928259
 30
0.0
 11
3.747016034308217
 21
113.0651292053794
 31
0.0
  0
LINE
  5
15E2
330
15A0
100
AcDbEntity
  8
SEIHIN
 48
0.5
100
AcDbLine
 10
3.974199385553674
 20
115.3369627178324
 30
0.0
 11
3.747016043053008
 21
113.0651292928259
 31
0.0
  0
ARC
  5
15E3
330
15A0
100
AcDbEntity
  8
SEIHIN
 48
0.5
100
AcDbCircle
 10
4.244534636612115
 20
113.0153774178586
 30
0.0
 40
0.499999999999911
100
AcDbArc
 50
174.2894068625029
 51
261.050541915804
  0
LINE
  5
15E4
330
15A0
100
AcDbEntity
  8
SEIHIN
 48
0.5
100
AcDbLine
 10
2.486545088923321
 20
114.5302456210995
 30
0.0
 11
2.353963944108727
 21
113.204434172952
 31
0.0
  0
LINE
  5
15E5
330
15A0
100
AcDbEntity
  8
SEIHIN
 48
0.5
100
AcDbLine
 10
2.145521375022326
 20
114.6155015495748
 30
0.0
 11
2.486545088923321
 21
114.5302456210995
 31
0.0
  0
LINE
  5
15E6
330
15A0
100
AcDbEntity
  8
SEIHIN
 48
0.5
100
AcDbLine
 10
3.747016043053008
 20
113.0651292928259
 30
0.0
 11
3.747016034308217
 21
113.0651292053794
 31
0.0
  0
ARC
  5
15E7
330
15A0
100
AcDbEntity
  8
SEIHIN
 48
0.5
100
AcDbCircle
 10
2.000000000000454
 20
114.033416049488
 30
0.0
 40
0.6
100
AcDbArc
 50
75.96375653206641
 51
180.0
  0
LINE
  5
15E8
330
15A0
100
AcDbEntity
  8
SEIHIN
 48
0.5
100
AcDbLine
 10
1.40000000000009
 20
110.8374681115458
 30
0.0
 11
1.400000000000545
 21
114.033416049488
 31
0.0
  0
ARC
  5
15E9
330
15A0
100
AcDbEntity
  8
SEIHIN
 48
0.5
100
AcDbCircle
 10
4.244534636612115
 20
113.0153774178586
 30
0.0
 40
1.899999999999974
100
AcDbArc
 50
174.2894162891099
 51
261.0505453838271
  0
LINE
  5
15EA
330
15A0
100
AcDbEntity
  8
SEIHIN
 48
0.5
100
AcDbLine
 10
0.0
 20
110.5949688622965
 30
0.0
 11
0.0
 21
114.0334160494876
 31
0.0
  0
ARC
  5
15EB
330
15A0
100
AcDbEntity
  8
SEIHIN
 48
0.5
100
AcDbCircle
 10
14.4217673408666
 20
108.6926245396889
 30
0.0
 40
1.987591781739181
100
AcDbArc
 50
5.56239935394873
 51
82.53449589101725
  0
ARC
  5
15EC
330
15A0
100
AcDbEntity
  8
SEIHIN
 48
0.5
100
AcDbCircle
 10
14.40000000000009
 20
108.8852813256466
 30
0.0
 40
2.000000000000039
100
AcDbArc
 50
0.0
 51
81.05054191577774
  0
LINE
  5
15ED
330
15A0
100
AcDbEntity
  8
SEIHIN
 48
0.5
100
AcDbLine
 10
12.12964659691715
 20
109.8502117446073
 30
0.0
 11
12.01646662136499
 21
109.156984394347
 31
0.0
  0
ARC
  5
15EE
330
15A0
100
AcDbEntity
  8
SEIHIN
 48
0.5
100
AcDbCircle
 10
10.70099954058559
 20
106.6852347388628
 30
0.0
 40
2.799999999999993
100
AcDbArc
 50
350.7273982228033
 51
61.97805737579793
  0
ARC
  5
15EF
330
15A0
100
AcDbEntity
  8
SEIHIN
 48
0.5
100
AcDbCircle
 10
14.50000000000045
 20
108.8695332941504
 30
0.0
 40
0.6
100
AcDbArc
 50
0.0
 51
81.05054191577774
  0
ARC
  5
15F0
330
15A0
100
AcDbEntity
  8
SEIHIN
 48
0.5
100
AcDbCircle
 10
10.70099954058559
 20
106.6852347388628
 30
0.0
 40
1.499999999999993
100
AcDbArc
 50
350.7273982228033
 51
105.8737918367162
  0
LINE
  5
15F1
330
15A0
100
AcDbEntity
  8
SEIHIN
 48
0.5
100
AcDbLine
 10
16.40000000000009
 20
105.4949687977223
 30
0.0
 11
16.40000000000009
 21
108.8852813256466
 31
0.0
  0
LINE
  5
15F2
330
15A0
100
AcDbEntity
  8
SEIHIN
 48
0.5
100
AcDbLine
 10
14.40000000000009
 20
103.4949688622964
 30
0.0
 11
12.28825262807095
 21
103.4949688622964
 31
0.0
  0
LINE
  5
15F3
330
15A0
100
AcDbEntity
  8
SEIHIN
 48
0.5
100
AcDbLine
 10
12.28825262807095
 20
103.4949688622964
 30
0.0
 11
12.28825258656979
 21
103.4949688622964
 31
0.0
  0
ARC
  5
15F4
330
15A0
100
AcDbEntity
  8
SEIHIN
 48
0.5
100
AcDbCircle
 10
12.28825271784944
 20
103.9949688622964
 30
0.0
 40
0.5000000000000746
100
AcDbArc
 50
170.7273982228033
 51
270.0
  0
LINE
  5
15F5
330
15A0
100
AcDbEntity
  8
SEIHIN
 48
0.5
100
AcDbLine
 10
12.18139888828682
 20
106.4435370530525
 30
0.0
 11
11.79478627697062
 21
104.0755348087427
 31
0.0
  0
ARC
  5
15F6
330
15A0
100
AcDbEntity
  8
SEIHIN
 48
0.5
100
AcDbCircle
 10
14.40000000000009
 20
105.4949688622964
 30
0.0
 40
2.0
100
AcDbArc
 50
270.0
 51
0.0
  0
LINE
  5
15F7
330
15A0
100
AcDbEntity
  8
SEIHIN
 48
0.5
100
AcDbLine
 10
13.46441163329518
 20
106.2340655844795
 30
0.0
 11
13.22945706640803
 21
104.7949688622964
 31
0.0
  0
LINE
  5
15F8
330
15A0
100
AcDbEntity
  8
SEIHIN
 48
0.5
100
AcDbLine
 10
14.40000000000009
 20
104.7949688622964
 30
0.0
 11
13.22945706640803
 21
104.7949688622964
 31
0.0
  0
ARC
  5
15F9
330
15A0
100
AcDbEntity
  8
SEIHIN
 48
0.5
100
AcDbCircle
 10
14.40000000000009
 20
105.4949688622964
 30
0.0
 40
0.7
100
AcDbArc
 50
270.0
 51
0.0
  0
LINE
  5
15FA
330
15A0
100
AcDbEntity
  8
SEIHIN
 48
0.5
100
AcDbLine
 10
15.10000000000036
 20
105.4949687977223
 30
0.0
 11
15.10000000000036
 21
108.8695332941504
 31
0.0
  0
LINE
  5
15FB
330
15A0
100
AcDbEntity
  8
SEIHIN
 48
0.5
100
AcDbLine
 10
10.74666827059854
 20
110.0680036070198
 30
0.0
 11
10.66213568884404
 21
109.5502415437701
 31
0.0
  0
LINE
  5
15FC
330
15A0
100
AcDbEntity
  8
SEIHIN
 48
0.5
100
AcDbLine
 10
12.12964659691715
 20
109.8502117446073
 30
0.0
 11
14.59333788510685
 21
109.4622288645775
 31
0.0
  0
LINE
  5
15FD
330
15A0
100
AcDbEntity
  8
SEIHIN
 48
0.5
100
AcDbLine
 10
2.485071250072451
 20
115.9737010497783
 30
0.0
 11
3.748448920851842
 21
115.6578566320836
 31
0.0
  0
LINE
  5
15FE
330
15A0
100
AcDbEntity
  8
SEIHIN
 48
0.5
100
AcDbLine
 10
17.69999999999981
 20
95.59496886229657
 30
0.0
 11
17.69999999999981
 21
88.59496886229591
 31
0.0
  0
LINE
  5
15FF
330
15A0
100
AcDbEntity
  8
SEIHIN
 48
0.5
100
AcDbLine
 10
17.5
 20
95.59496886229657
 30
0.0
 11
17.5
 21
88.59496886229591
 31
0.0
  0
LINE
  5
1600
330
15A0
100
AcDbEntity
  8
SEIHIN
 48
0.5
100
AcDbLine
 10
18.90000000000054
 20
88.78943936448672
 30
0.0
 11
18.90000000000054
 21
96.9949688622969
 31
0.0
  0
LINE
  5
1601
330
15A0
100
AcDbEntity
  8
SEIHIN
 48
0.5
100
AcDbLine
 10
17.50000000000045
 20
88.59496886229454
 30
0.0
 11
17.5
 21
95.59496886229657
 31
0.0
  0
ARC
  5
1602
330
15A0
100
AcDbEntity
  8
SEIHIN
 48
0.5
100
AcDbCircle
 10
17.90000000000054
 20
96.9949688622969
 30
0.0
 40
1.0
100
AcDbArc
 50
0.0
 51
90.0
  0
LINE
  5
1603
330
15A0
100
AcDbEntity
  8
SEIHIN
 48
0.5
100
AcDbLine
 10
127.517157287526
 20
92.89496886229654
 30
0.0
 11
130.4
 21
90.01212614982206
 31
0.0
  0
LINE
  5
1604
330
15A0
100
AcDbEntity
  8
SEIHIN
 48
0.5
100
AcDbLine
 10
127.6000000000003
 20
93.09496886229657
 30
0.0
 11
130.5999999999999
 21
90.09496886229658
 31
0.0
  0
LINE
  5
1605
330
15A0
100
AcDbEntity
  8
SEIHIN
 48
0.5
100
AcDbLine
 10
127.0201010126779
 20
91.69496886229671
 30
0.0
 11
129.2000000000002
 21
89.51506987497419
 31
0.0
  0
LINE
  5
1606
330
15A0
100
AcDbEntity
  8
SEIHIN
 48
0.5
100
AcDbLine
 10
124.9694915734135
 20
92.89496886229676
 30
0.0
 11
127.517157287526
 21
92.89496886229654
 31
0.0
  0
LINE
  5
1607
330
15A0
100
AcDbEntity
  8
SEIHIN
 48
0.5
100
AcDbLine
 10
124.9694915734135
 20
93.09496886229657
 30
0.0
 11
127.6000000000003
 21
93.09496886229657
 31
0.0
  0
LINE
  5
1608
330
15A0
100
AcDbEntity
  8
SEIHIN
 48
0.5
100
AcDbLine
 10
125.7004482961024
 20
91.69496886229671
 30
0.0
 11
127.0201010126779
 21
91.69496886229671
 31
0.0
  0
ARC
  5
1609
330
15A0
100
AcDbEntity
  8
SEIHIN
 48
0.5
100
AcDbCircle
 10
124.9317049864198
 20
92.36004394557994
 30
0.0
 40
0.5362578602510446
100
AcDbArc
 50
85.95939245689283
 51
149.2033357951991
  0
ARC
  5
160A
330
15A0
100
AcDbEntity
  8
SEIHIN
 48
0.5
100
AcDbCircle
 10
124.9694915734135
 20
92.59496886229658
 30
0.0
 40
0.5
100
AcDbArc
 50
90.0
 51
175.4533617064136
  0
CIRCLE
  5
160B
330
15A0
100
AcDbEntity
  8
KEIJYO
 62
   251
100
AcDbCircle
 10
11.69883344150093
 20
107.8052023750842
 30
0.0
 40
0.7788173943287319
  0
LINE
  5
160C
330
15A0
100
AcDbEntity
  8
KEIJYO
 62
   251
100
AcDbLine
 10
11.69883344150093
 20
108.584019769413
 30
0.0
 11
11.69883344150093
 21
107.0263849807556
 31
0.0
  0
LINE
  5
160D
330
15A0
100
AcDbEntity
  8
KEIJYO
 62
   251
100
AcDbLine
 10
10.92001604717234
 20
107.8052023750842
 30
0.0
 11
12.47765083582999
 21
107.8052023750842
 31
0.0
  0
LINE
  5
160E
330
15A0
100
AcDbEntity
  8
SEIHIN
  6
TEN2
 48
0.5
100
AcDbLine
 10
0.1883483823189635
 20
130.6622361416962
 30
0.0
 11
3.4980866963906
 21
121.3949688622965
 31
0.0
  0
LINE
  5
160F
330
15A0
100
AcDbEntity
  8
SEIHIN
  6
TEN2
 48
0.5
100
AcDbLine
 10
0.0
 20
130.5949688622965
 30
0.0
 11
3.28571428571513
 21
121.3949688622965
 31
0.0
  0
ARC
  5
1610
330
15A0
100
AcDbEntity
  8
SEIHIN
  6
TEN2
 48
0.5
100
AcDbCircle
 10
12.20535553410536
 20
121.3949688622965
 30
0.0
 40
6.999999999999959
100
AcDbArc
 50
105.8737907964524
 51
180.0
  0
ARC
  5
1611
330
15A0
100
AcDbEntity
  8
SEIHIN
  6
TEN2
 48
0.5
100
AcDbCircle
 10
2.0
 20
134.0334160494876
 30
0.0
 40
1.8
100
AcDbArc
 50
75.96375653206641
 51
180.0
  0
LINE
  5
1612
330
15A0
100
AcDbEntity
  8
SEIHIN
  6
TEN2
 48
0.5
100
AcDbLine
 10
2.43656412506516
 20
135.7796725497491
 30
0.0
 11
3.699941795844551
 21
135.4638281320546
 31
0.0
  0
ARC
  5
1613
330
15A0
100
AcDbEntity
  8
SEIHIN
  6
TEN2
 48
0.5
100
AcDbCircle
 10
3.675688233340679
 20
135.3668138820401
 30
0.0
 40
0.3000000000000382
100
AcDbArc
 50
354.2894068625158
 51
75.96375653206641
  0
ARC
  5
1614
330
15A0
100
AcDbEntity
  8
SEIHIN
  6
TEN2
 48
0.5
100
AcDbCircle
 10
2.0
 20
134.0334160494876
 30
0.0
 40
2.0
100
AcDbArc
 50
75.96375653206641
 51
180.0
  0
LINE
  5
1615
330
15A0
100
AcDbEntity
  8
SEIHIN
  6
TEN2
 48
0.5
100
AcDbLine
 10
4.135640503373906
 20
132.3238992419585
 30
0.0
 11
14.68001365532018
 21
130.6633680369277
 31
0.0
  0
LINE
  5
1616
330
15A0
100
AcDbEntity
  8
SEIHIN
  6
TEN2
 48
0.5
100
AcDbLine
 10
3.948964780711776
 20
131.1385080936161
 30
0.0
 11
10.74666827059854
 21
130.0680036070198
 31
0.0
  0
ARC
  5
1617
330
15A0
100
AcDbEntity
  8
SEIHIN
  6
TEN2
 48
0.5
100
AcDbCircle
 10
12.20535553410536
 20
121.3949688622965
 30
0.0
 40
8.299999999999959
100
AcDbArc
 50
100.7153641846204
 51
167.1519097861781
  0
LINE
  5
1618
330
15A0
100
AcDbEntity
  8
SEIHIN
  6
TEN2
 48
0.5
100
AcDbLine
 10
4.166753131742552
 20
132.5214644321008
 30
0.0
 11
14.71112628368882
 21
130.8609332270698
 31
0.0
  0
LINE
  5
1619
330
15A0
100
AcDbEntity
  8
SEIHIN
  6
TEN2
 48
0.5
100
AcDbLine
 10
1.40000000000009
 20
130.8374681115458
 30
0.0
 11
4.11316215294164
 21
123.2406140833097
 31
0.0
  0
ARC
  5
161A
330
15A0
100
AcDbEntity
  8
SEIHIN
  6
TEN2
 48
0.5
100
AcDbCircle
 10
3.675688233340679
 20
135.3668138820401
 30
0.0
 40
0.1000000000000382
100
AcDbArc
 50
354.2894068625158
 51
75.96375653206641
  0
LINE
  5
161B
330
15A0
100
AcDbEntity
  8
SEIHIN
  6
TEN2
 48
0.5
100
AcDbLine
 10
0.1999999999998181
 20
130.5949688622965
 30
0.0
 11
0.1999999999998181
 21
134.0334160494876
 31
0.0
  0
LINE
  5
161C
330
15A0
100
AcDbEntity
  8
SEIHIN
  6
TEN2
 48
0.5
100
AcDbLine
 10
3.775191947511757
 20
135.3568634616367
 30
0.0
 11
3.548008605011091
 21
133.08503003663
 31
0.0
  0
ARC
  5
161D
330
15A0
100
AcDbEntity
  8
SEIHIN
  6
TEN2
 48
0.5
100
AcDbCircle
 10
4.244534636612115
 20
133.0153774178586
 30
0.0
 40
0.699999999999911
100
AcDbArc
 50
174.2894068625029
 51
261.050541915804
  0
LINE
  5
161E
330
15A0
100
AcDbEntity
  8
SEIHIN
  6
TEN2
 48
0.5
100
AcDbLine
 10
3.747016043053008
 20
133.0651292928259
 30
0.0
 11
3.747016034308217
 21
133.0651292053794
 31
0.0
  0
LINE
  5
161F
330
15A0
100
AcDbEntity
  8
SEIHIN
  6
TEN2
 48
0.5
100
AcDbLine
 10
3.974199385553674
 20
135.3369627178324
 30
0.0
 11
3.747016043053008
 21
133.0651292928259
 31
0.0
  0
ARC
  5
1620
330
15A0
100
AcDbEntity
  8
SEIHIN
  6
TEN2
 48
0.5
100
AcDbCircle
 10
4.244534636612115
 20
133.0153774178586
 30
0.0
 40
0.499999999999911
100
AcDbArc
 50
174.2894068625029
 51
261.050541915804
  0
LINE
  5
1621
330
15A0
100
AcDbEntity
  8
SEIHIN
  6
TEN2
 48
0.5
100
AcDbLine
 10
2.486545088923321
 20
134.5302456210995
 30
0.0
 11
2.353963944108727
 21
133.204434172952
 31
0.0
  0
LINE
  5
1622
330
15A0
100
AcDbEntity
  8
SEIHIN
  6
TEN2
 48
0.5
100
AcDbLine
 10
2.145521375022326
 20
134.6155015495749
 30
0.0
 11
2.486545088923321
 21
134.5302456210995
 31
0.0
  0
LINE
  5
1623
330
15A0
100
AcDbEntity
  8
SEIHIN
  6
TEN2
 48
0.5
100
AcDbLine
 10
3.747016043053008
 20
133.0651292928259
 30
0.0
 11
3.747016034308217
 21
133.0651292053794
 31
0.0
  0
ARC
  5
1624
330
15A0
100
AcDbEntity
  8
SEIHIN
  6
TEN2
 48
0.5
100
AcDbCircle
 10
2.000000000000454
 20
134.0334160494881
 30
0.0
 40
0.6
100
AcDbArc
 50
75.96375653206641
 51
180.0
  0
LINE
  5
1625
330
15A0
100
AcDbEntity
  8
SEIHIN
  6
TEN2
 48
0.5
100
AcDbLine
 10
1.40000000000009
 20
130.8374681115458
 30
0.0
 11
1.400000000000545
 21
134.0334160494881
 31
0.0
  0
ARC
  5
1626
330
15A0
100
AcDbEntity
  8
SEIHIN
  6
TEN2
 48
0.5
100
AcDbCircle
 10
4.244534636612115
 20
133.0153774178586
 30
0.0
 40
1.899999999999974
100
AcDbArc
 50
174.2894162891099
 51
261.0505453838271
  0
LINE
  5
1627
330
15A0
100
AcDbEntity
  8
SEIHIN
  6
TEN2
 48
0.5
100
AcDbLine
 10
0.0
 20
130.5949688622965
 30
0.0
 11
0.0
 21
134.0334160494876
 31
0.0
  0
ARC
  5
1628
330
15A0
100
AcDbEntity
  8
SEIHIN
  6
TEN2
 48
0.5
100
AcDbCircle
 10
14.4217673408666
 20
128.6926245396889
 30
0.0
 40
1.987591781739181
100
AcDbArc
 50
5.56239935394873
 51
82.53449589101725
  0
ARC
  5
1629
330
15A0
100
AcDbEntity
  8
SEIHIN
  6
TEN2
 48
0.5
100
AcDbCircle
 10
14.40000000000009
 20
128.8852813256466
 30
0.0
 40
2.000000000000039
100
AcDbArc
 50
0.0
 51
81.05054191577774
  0
LINE
  5
162A
330
15A0
100
AcDbEntity
  8
SEIHIN
  6
TEN2
 48
0.5
100
AcDbLine
 10
12.12964659691715
 20
129.8502117446073
 30
0.0
 11
12.01646662136499
 21
129.156984394347
 31
0.0
  0
ARC
  5
162B
330
15A0
100
AcDbEntity
  8
SEIHIN
  6
TEN2
 48
0.5
100
AcDbCircle
 10
10.70099954058559
 20
126.6852347388628
 30
0.0
 40
2.799999999999993
100
AcDbArc
 50
350.7273982228033
 51
61.97805737579793
  0
ARC
  5
162C
330
15A0
100
AcDbEntity
  8
SEIHIN
  6
TEN2
 48
0.5
100
AcDbCircle
 10
14.50000000000045
 20
128.8695332941504
 30
0.0
 40
0.6
100
AcDbArc
 50
0.0
 51
81.05054191577774
  0
ARC
  5
162D
330
15A0
100
AcDbEntity
  8
SEIHIN
  6
TEN2
 48
0.5
100
AcDbCircle
 10
10.70099954058559
 20
126.6852347388628
 30
0.0
 40
1.499999999999993
100
AcDbArc
 50
350.7273982228033
 51
105.8737918367162
  0
LINE
  5
162E
330
15A0
100
AcDbEntity
  8
SEIHIN
  6
TEN2
 48
0.5
100
AcDbLine
 10
16.40000000000009
 20
125.4949687977223
 30
0.0
 11
16.40000000000009
 21
128.8852813256466
 31
0.0
  0
LINE
  5
162F
330
15A0
100
AcDbEntity
  8
SEIHIN
  6
TEN2
 48
0.5
100
AcDbLine
 10
14.40000000000009
 20
123.4949688622964
 30
0.0
 11
12.28825262807095
 21
123.4949688622964
 31
0.0
  0
LINE
  5
1630
330
15A0
100
AcDbEntity
  8
SEIHIN
  6
TEN2
 48
0.5
100
AcDbLine
 10
12.28825262807095
 20
123.4949688622964
 30
0.0
 11
12.28825258656979
 21
123.4949688622964
 31
0.0
  0
ARC
  5
1631
330
15A0
100
AcDbEntity
  8
SEIHIN
  6
TEN2
 48
0.5
100
AcDbCircle
 10
12.28825271784944
 20
123.9949688622964
 30
0.0
 40
0.5000000000000746
100
AcDbArc
 50
170.7273982228033
 51
270.0
  0
LINE
  5
1632
330
15A0
100
AcDbEntity
  8
SEIHIN
  6
TEN2
 48
0.5
100
AcDbLine
 10
12.18139888828682
 20
126.4435370530525
 30
0.0
 11
11.79478627697062
 21
124.0755348087427
 31
0.0
  0
ARC
  5
1633
330
15A0
100
AcDbEntity
  8
SEIHIN
  6
TEN2
 48
0.5
100
AcDbCircle
 10
14.40000000000009
 20
125.4949688622964
 30
0.0
 40
2.0
100
AcDbArc
 50
270.0
 51
0.0
  0
LINE
  5
1634
330
15A0
100
AcDbEntity
  8
SEIHIN
  6
TEN2
 48
0.5
100
AcDbLine
 10
13.46441163329518
 20
126.2340655844796
 30
0.0
 11
13.22945706640803
 21
124.7949688622963
 31
0.0
  0
LINE
  5
1635
330
15A0
100
AcDbEntity
  8
SEIHIN
  6
TEN2
 48
0.5
100
AcDbLine
 10
14.40000000000009
 20
124.7949688622963
 30
0.0
 11
13.22945706640803
 21
124.7949688622963
 31
0.0
  0
ARC
  5
1636
330
15A0
100
AcDbEntity
  8
SEIHIN
  6
TEN2
 48
0.5
100
AcDbCircle
 10
14.40000000000009
 20
125.4949688622964
 30
0.0
 40
0.7
100
AcDbArc
 50
270.0
 51
0.0
  0
LINE
  5
1637
330
15A0
100
AcDbEntity
  8
SEIHIN
  6
TEN2
 48
0.5
100
AcDbLine
 10
15.10000000000036
 20
125.4949687977223
 30
0.0
 11
15.10000000000036
 21
128.8695332941504
 31
0.0
  0
LINE
  5
1638
330
15A0
100
AcDbEntity
  8
SEIHIN
  6
TEN2
 48
0.5
100
AcDbLine
 10
10.74666827059854
 20
130.0680036070198
 30
0.0
 11
10.66213568884404
 21
129.5502415437701
 31
0.0
  0
LINE
  5
1639
330
15A0
100
AcDbEntity
  8
SEIHIN
  6
TEN2
 48
0.5
100
AcDbLine
 10
12.12964659691715
 20
129.8502117446073
 30
0.0
 11
14.59333788510685
 21
129.4622288645775
 31
0.0
  0
LINE
  5
163A
330
15A0
100
AcDbEntity
  8
SEIHIN
  6
TEN2
 48
0.5
100
AcDbLine
 10
2.485071250072451
 20
135.9737010497783
 30
0.0
 11
3.748448920851842
 21
135.6578566320836
 31
0.0
  0
CIRCLE
  5
163B
330
15A0
100
AcDbEntity
  8
KEIJYO
 62
   251
100
AcDbCircle
 10
11.69883344150093
 20
127.8052023750842
 30
0.0
 40
0.7788173943287319
  0
LINE
  5
163C
330
15A0
100
AcDbEntity
  8
KEIJYO
 62
   251
100
AcDbLine
 10
11.69883344150093
 20
128.584019769413
 30
0.0
 11
11.69883344150093
 21
127.0263849807556
 31
0.0
  0
LINE
  5
163D
330
15A0
100
AcDbEntity
  8
KEIJYO
 62
   251
100
AcDbLine
 10
10.92001604717234
 20
127.8052023750842
 30
0.0
 11
12.47765083582999
 21
127.8052023750842
 31
0.0
  0
ENDBLK
  5
163F
330
15A0
100
AcDbEntity
  8
0
100
AcDbBlockEnd
  0
BLOCK
  5
16AD
330
1640
100
AcDbEntity
  8
0
100
AcDbBlockBegin
  2
20070903_11423425
 70
     0
 10
0.0
 20
0.0
 30
0.0
  3
20070903_11423425
  1

  0
ELLIPSE
  5
1641
330
1640
100
AcDbEntity
  8
SEIHIN
100
AcDbEllipse
 10
4.021488151951189
 20
47.49908304389987
 30
0.0
 11
0.8304739677647035
 21
0.562258249783696
 31
0.0
210
0.0
220
0.0
230
1.0
 40
0.9971019713999998
 41
5.309555717830323
 42
7.256814896528897
  0
ELLIPSE
  5
1642
330
1640
100
AcDbEntity
  8
SEIHIN
100
AcDbEllipse
 10
4.830282275451054
 20
44.40072924740002
 30
0.0
 11
0.1269852371232503
 21
1.810067803828644
 31
0.0
210
0.0
220
0.0
230
1.0
 40
0.4109045829
 41
0.9078618176775846
 42
0.9089838527552593
  0
ELLIPSE
  5
1643
330
1640
100
AcDbEntity
  8
SEIHIN
100
AcDbEllipse
 10
120.4148084679511
 20
23.89804418859989
 30
0.0
 11
0.5398053330624748
 21
21.24951808779611
 31
0.0
210
0.0
220
0.0
230
1.0
 40
0.3189748058
 41
0.8619029107961704
 42
0.8619135538355722
  0
ELLIPSE
  5
1644
330
1640
100
AcDbEntity
  8
SEIHIN
100
AcDbEllipse
 10
4.830282275451054
 20
44.40072924740002
 30
0.0
 11
1.727766897878922
 21
-0.5543394731551813
 31
0.0
210
0.0
220
0.0
230
1.0
 40
0.4109045829
 41
5.374201454424325
 42
5.375323489502008
  0
ELLIPSE
  5
1645
330
1640
100
AcDbEntity
  8
SEIHIN
100
AcDbEllipse
 10
5.717447687751018
 20
45.0013694738002
 30
0.0
 11
1.245710951647027
 21
0.843387374675558
 31
0.0
210
0.0
220
0.0
230
1.0
 40
0.9971019714000002
 41
2.167962508309376
 42
4.115222798870141
  0
ELLIPSE
  5
1646
330
1640
100
AcDbEntity
  8
SEIHIN
100
AcDbEllipse
 10
119.499871966251
 20
43.36273795279999
 30
0.0
 11
0.0
 21
5.004118918746229
 31
0.0
210
0.0
220
0.0
230
1.0
 40
0.9991768943
 41
3.141592653589793
 42
4.712388980384703
  0
ELLIPSE
  5
1647
330
1640
100
AcDbEntity
  8
SEIHIN
100
AcDbEllipse
 10
8.462910255951101
 20
43.80024149299993
 30
0.0
 11
0.5004189464670788
 21
0.0229424396555658
 31
0.0
210
0.0
220
0.0
230
1.0
 40
0.5982308411
 41
4.635901742192566
 42
4.635995460418492
  0
ELLIPSE
  5
1648
330
1640
100
AcDbEntity
  8
SEIHIN
100
AcDbEllipse
 10
10.56148107355102
 20
43.49954032990012
 30
0.0
 11
-0.0611483508330935
 21
0.4967145126496179
 31
0.0
210
0.0
220
0.0
230
1.0
 40
0.9990724364
 41
6.1608646861703
 42
6.405505928188878
  0
ELLIPSE
  5
1649
330
1640
100
AcDbEntity
  8
SEIHIN
100
AcDbEllipse
 10
8.462910255951101
 20
43.80024149299993
 30
0.0
 11
0.4910420467873848
 21
0.0991119861945151
 31
0.0
210
0.0
220
0.0
230
1.0
 40
0.5982308411000002
 41
4.788782500350801
 42
4.78887621857672
  0
ELLIPSE
  5
164A
330
1640
100
AcDbEntity
  8
SEIHIN
100
AcDbEllipse
 10
8.43826285895102
 20
44.00045490180014
 30
0.0
 11
-0.0611483508330937
 21
0.4967145126495903
 31
0.0
210
0.0
220
0.0
230
1.0
 40
0.9990724364
 41
3.019272032580543
 42
3.263913274599146
  0
ELLIPSE
  5
164B
330
1640
100
AcDbEntity
  8
SEIHIN
100
AcDbEllipse
 10
18.00274134605092
 20
35.0027413317
 30
0.0
 11
2.125198478113361
 21
2.125198478113305
 31
0.0
210
0.0
220
0.0
230
1.0
 40
0.9981751659000002
 41
2.357564017666683
 42
3.925621289512943
  0
ELLIPSE
  5
164C
330
1640
100
AcDbEntity
  8
SEIHIN
100
AcDbEllipse
 10
119.499871966251
 20
29.99542475610019
 30
0.0
 11
0.0
 21
5.00457285976077
 31
0.0
210
0.0
220
0.0
230
1.0
 40
0.9990862636999999
 41
4.712388980384703
 42
6.283185307179586
  0
ELLIPSE
  5
164D
330
1640
100
AcDbEntity
  8
SEIHIN
100
AcDbEllipse
 10
118.9798344934508
 20
26.84009424379997
 30
0.0
 11
-5.051433495857281
 21
10.35668274120403
 31
0.0
210
0.0
220
0.0
230
1.0
 40
0.9980102728
 41
0.195330483527315
 42
0.4531283365969852
  0
ELLIPSE
  5
164E
330
1640
100
AcDbEntity
  8
SEIHIN
100
AcDbEllipse
 10
118.905410850951
 20
26.99268104020006
 30
0.0
 11
-3.511018695992476
 21
7.198453025789518
 31
0.0
210
0.0
220
0.0
230
1.0
 40
0.9988692781000001
 41
5.830056990713707
 42
6.736313623645468
  0
ELLIPSE
  5
164F
330
1640
100
AcDbEntity
  8
SEIHIN
100
AcDbEllipse
 10
123.499871966251
 20
15.50200397469984
 30
0.0
 11
0.9771734725052567
 21
-0.3920989008268523
 31
0.0
210
0.0
220
0.0
230
1.0
 40
0.5418095893000001
 41
4.331830358846216
 42
4.332345524266091
  0
ELLIPSE
  5
1650
330
1640
100
AcDbEntity
  8
SEIHIN
100
AcDbEllipse
 10
123.499871966251
 20
15.98553931750006
 30
0.0
 11
0.0
 21
1.001333281962103
 31
0.0
210
0.0
220
0.0
230
1.0
 40
0.9986684932999999
 41
2.547474867286477
 42
4.712388980384676
  0
ELLIPSE
  5
1651
330
1640
100
AcDbEntity
  8
SEIHIN
100
AcDbEllipse
 10
112.665260579751
 20
14.11156665959993
 30
0.0
 11
0.5154363412154624
 21
0.8590605686924844
 31
0.0
210
0.0
220
0.0
230
1.0
 40
0.9981751658999998
 41
5.49915684476554
 42
7.067213769593654
  0
ELLIPSE
  5
1652
330
1640
100
AcDbEntity
  8
SEIHIN
100
AcDbEllipse
 10
117.342957320551
 20
30.19609558090019
 30
0.0
 11
8.114495942799806
 21
1.359901973422154
 31
0.0
210
0.0
220
0.0
230
1.0
 40
0.5677987581000002
 41
1.283789471022811
 42
1.284160734693637
  0
ELLIPSE
  5
1653
330
1640
100
AcDbEntity
  8
SEIHIN
100
AcDbEllipse
 10
118.9798344934508
 20
26.84009424379997
 30
0.0
 11
-5.051433495857281
 21
10.35668274120403
 31
0.0
210
0.0
220
0.0
230
1.0
 40
0.9980102728
 41
5.830056970582623
 42
6.124869556720769
  0
ELLIPSE
  5
1654
330
1640
100
AcDbEntity
  8
SEIHIN
100
AcDbEllipse
 10
118.8381156540692
 20
26.73401363746552
 30
0.0
 11
10.66971457797384
 21
6.612235688372294
 31
0.0
210
0.0
220
0.0
230
1.0
 40
0.9174748764606784
 41
1.319007870662899
 42
1.642916740794306
  0
ELLIPSE
  5
1655
330
1640
100
AcDbEntity
  8
SEIHIN
100
AcDbEllipse
 10
119.6584887022511
 20
25.4486859760002
 30
0.0
 11
16.07597459609776
 21
-9.898870404211352
 31
0.0
210
0.0
220
0.0
230
1.0
 40
0.3438026228000001
 41
2.262980432490255
 42
2.262991739698783
  0
ELLIPSE
  5
1656
330
1640
100
AcDbEntity
  8
SEIHIN
100
AcDbEllipse
 10
112.7860847596509
 20
13.62826993980002
 30
0.0
 11
0.8590605686924561
 21
-0.5154363412154908
 31
0.0
210
0.0
220
0.0
230
1.0
 40
0.9981751659
 41
5.499156671256463
 42
7.067213943102705
  0
ELLIPSE
  5
1657
330
1640
100
AcDbEntity
  8
SEIHIN
100
AcDbEllipse
 10
117.342957320551
 20
30.19609558090019
 30
0.0
 11
6.067276981726023
 21
5.557205035811619
 31
0.0
210
0.0
220
0.0
230
1.0
 40
0.5677987581
 41
1.857431918896151
 42
1.857803182566978
  0
LINE
  5
1658
330
1640
100
AcDbEntity
  8
SEIHIN
100
AcDbLine
 10
104.0900422752513
 20
50.62709655610001
 30
0.0
 11
112.1490316957508
 21
36.6685166955001
 31
0.0
  0
LINE
  5
1659
330
1640
100
AcDbEntity
  8
SEIHIN
100
AcDbLine
 10
115.0434015810508
 20
38.08980807659986
 30
0.0
 11
106.3232308745512
 21
53.19358780979996
 31
0.0
  0
ARC
  5
165A
330
1640
100
AcDbEntity
  8
SEIHIN
100
AcDbCircle
 10
24.13462408635109
 20
24.01864812340022
 30
0.0
 40
19.98134986716454
100
AcDbArc
 50
65.3813513760042
 51
89.99451321689269
  0
ARC
  5
165B
330
1640
100
AcDbEntity
  8
SEIHIN
100
AcDbCircle
 10
1.997621589751133
 20
43.62659973020003
 30
0.0
 40
1.997621589751123
100
AcDbArc
 50
179.5245380603011
 51
258.3016510887034
  0
ARC
  5
165C
330
1640
100
AcDbEntity
  8
SEIHIN
100
AcDbCircle
 10
58.49987196625102
 20
98.99999761579989
 30
0.0
 40
62.50000000000007
100
AcDbArc
 50
245.3781760470949
 51
316.2336437409866
  0
ARC
  5
165D
330
1640
100
AcDbEntity
  8
SEIHIN
100
AcDbCircle
 10
58.49987196625102
 20
98.99999761579989
 30
0.0
 40
65.85862141821522
100
AcDbArc
 50
247.7858949468058
 51
312.8841123347061
  0
LINE
  5
165E
330
1640
100
AcDbEntity
  8
SEIHIN
100
AcDbLine
 10
134.499871966251
 20
0.0
 30
0.0
 11
134.499871966251
 21
69.99999750409983
 31
0.0
  0
LINE
  5
165F
330
1640
100
AcDbEntity
  8
SEIHIN
100
AcDbLine
 10
124.4998721897511
 20
9.425986558200065
 30
0.0
 11
124.4998721897511
 21
60.57400861759993
 31
0.0
  0
LINE
  5
1660
330
1640
100
AcDbEntity
  8
SEIHIN
100
AcDbLine
 10
127.499871750251
 20
69.99999750409983
 30
0.0
 11
127.499871750251
 21
0.0
 31
0.0
  0
ARC
  5
1661
330
1640
100
AcDbEntity
  8
SEIHIN
100
AcDbCircle
 10
91.51831131685117
 20
124.3999976157999
 30
0.0
 40
115.0000000000001
100
AcDbArc
 50
233.4635473822
 51
270.0
  0
ARC
  5
1662
330
1640
100
AcDbEntity
  8
SEIHIN
100
AcDbCircle
 10
91.51831131685117
 20
124.3999976157999
 30
0.0
 40
111.6413785817851
100
AcDbArc
 50
231.9682038630935
 51
274.3279405420594
  0
LINE
  5
1663
330
1640
100
AcDbEntity
  8
SEIHIN
100
AcDbLine
 10
10.12075012594209
 20
39.14137557150002
 30
0.0
 11
27.93753319685106
 21
39.14137557150002
 31
0.0
  0
LINE
  5
1664
330
1640
100
AcDbEntity
  8
SEIHIN
100
AcDbLine
 10
17.99816810785091
 20
31.99999779460017
 30
0.0
 11
23.05489206015113
 21
31.99999779460017
 31
0.0
  0
ARC
  5
1665
330
1640
100
AcDbEntity
  8
SEIHIN
100
AcDbCircle
 10
91.47982906805532
 20
124.2834519088126
 30
0.0
 40
114.8834539022349
100
AcDbArc
 50
231.9549160539041
 51
233.4443644661001
  0
ARC
  5
1666
330
1640
100
AcDbEntity
  8
SEIHIN
100
AcDbCircle
 10
23.6709132437511
 20
37.63935670449995
 30
0.0
 40
1.502065404451235
100
AcDbArc
 50
90.45101955669807
 51
231.517195132996
  0
LINE
  5
1667
330
1640
100
AcDbEntity
  8
SEIHIN
100
AcDbLine
 10
1.99987911885114
 20
41.58620536330022
 30
0.0
 11
10.80575012865097
 21
38.93515281380018
 31
0.0
  0
LINE
  5
1668
330
1640
100
AcDbEntity
  8
SEIHIN
100
AcDbLine
 10
1.593837377451109
 20
41.67021252219979
 30
0.0
 11
1.99987911885114
 21
41.58620536330022
 31
0.0
  0
LINE
  5
1669
330
1640
100
AcDbEntity
  8
SEIHIN
100
AcDbLine
 10
1.592585679951071
 20
41.67047142980004
 30
0.0
 11
1.593837377451109
 21
41.67021252219979
 31
0.0
  0
ARC
  5
166A
330
1640
100
AcDbEntity
  8
SEIHIN
100
AcDbCircle
 10
11.99999763025107
 20
35.35082525029997
 30
0.0
 40
3.000000000000028
100
AcDbArc
 50
0.0
 51
68.62094975968883
  0
ARC
  5
166B
330
1640
100
AcDbEntity
  8
SEIHIN
100
AcDbCircle
 10
2.119034563755349
 20
10.09217200731268
 30
0.0
 40
30.11654609776517
100
AcDbArc
 50
51.95491605390443
 51
68.62094975968883
  0
ARC
  5
166C
330
1640
100
AcDbEntity
  8
SEIHIN
100
AcDbCircle
 10
2.157516812551193
 20
10.20871771430006
 30
0.0
 40
30.00000000000001
100
AcDbArc
 50
68.62094975968883
 51
73.24532616560919
  0
LINE
  5
166D
330
1640
100
AcDbEntity
  8
SEIHIN
100
AcDbLine
 10
17.99588823025101
 20
31.99999779460017
 30
0.0
 11
17.99816810785091
 21
31.99999779460017
 31
0.0
  0
ARC
  5
166E
330
1640
100
AcDbEntity
  8
SEIHIN
100
AcDbCircle
 10
27.93706931955103
 20
24.15959550269985
 30
0.0
 40
14.98178007598787
100
AcDbArc
 50
67.78765043579134
 51
89.99822596440708
  0
LINE
  5
166F
330
1640
100
AcDbEntity
  8
SEIHIN
100
AcDbLine
 10
119.7242251158511
 20
14.96883109209989
 30
0.0
 11
124.4998721897511
 21
9.099997580099852
 31
0.0
  0
ARC
  5
1670
330
1640
100
AcDbEntity
  8
SEIHIN
100
AcDbCircle
 10
120.499871966251
 20
15.59999761580002
 30
0.0
 40
1.000000000000026
100
AcDbArc
 50
55.90642142680782
 51
219.1362921994961
  0
LINE
  5
1671
330
1640
100
AcDbEntity
  8
SEIHIN
100
AcDbLine
 10
99.86763247555087
 20
15.63073322180002
 30
0.0
 11
112.599110093751
 21
31.92702308299999
 31
0.0
  0
LINE
  5
1672
330
1640
100
AcDbEntity
  8
SEIHIN
100
AcDbLine
 10
99.99987283055112
 20
9.399998933099823
 30
0.0
 11
113.0303198963513
 21
12.65760883689995
 31
0.0
  0
LINE
  5
1673
330
1640
100
AcDbEntity
  8
SEIHIN
100
AcDbLine
 10
112.4239804715509
 20
15.08296653630009
 30
0.0
 11
101.9287536412509
 21
12.45915889740013
 31
0.0
  0
LINE
  5
1674
330
1640
100
AcDbEntity
  8
SEIHIN
100
AcDbLine
 10
109.9132521570511
 20
33.94458256660005
 30
0.0
 11
93.96144920295114
 21
13.52627575400015
 31
0.0
  0
LINE
  5
1675
330
1640
100
AcDbEntity
  8
SEIHIN
100
AcDbLine
 10
91.51831069295099
 20
9.399998933099823
 30
0.0
 11
99.99987283055112
 21
9.399998933099823
 31
0.0
  0
ARC
  5
1676
330
1640
100
AcDbEntity
  8
SEIHIN
100
AcDbCircle
 10
92.38622337815128
 20
14.75862091480007
 30
0.0
 40
2.000002328176559
100
AcDbArc
 50
270.0383249900919
 51
321.9629425674088
  0
LINE
  5
1677
330
1640
100
AcDbEntity
  8
SEIHIN
100
AcDbLine
 10
92.38756248055073
 20
12.7586200833
 30
0.0
 11
91.51831069295099
 21
12.7586200833
 31
0.0
  0
ARC
  5
1678
330
1640
100
AcDbEntity
  8
SEIHIN
100
AcDbCircle
 10
101.4436819754512
 20
14.39944394700001
 30
0.0
 40
2.000000000000006
100
AcDbArc
 50
142.0012675574876
 51
284.036243467893
  0
LINE
  5
1679
330
1640
100
AcDbEntity
  8
SEIHIN
100
AcDbLine
 10
113.0303198963513
 20
12.65760883689995
 30
0.0
 11
113.031059366451
 21
12.65779510139987
 31
0.0
  0
LINE
  5
167A
330
1640
100
AcDbEntity
  8
SEIHIN
100
AcDbLine
 10
113.7574835241509
 20
13.86955007910001
 30
0.0
 11
113.6359217137508
 21
14.35580104589985
 31
0.0
  0
LINE
  5
167B
330
1640
100
AcDbEntity
  8
SEIHIN
100
AcDbLine
 10
113.6359217137508
 20
14.35580104589985
 30
0.0
 11
113.6357354492513
 21
14.35654237870017
 31
0.0
  0
LINE
  5
167C
330
1640
100
AcDbEntity
  8
SEIHIN
100
AcDbLine
 10
112.4247199416511
 20
15.08314907550015
 30
0.0
 11
112.4239804715509
 21
15.08296653630009
 31
0.0
  0
LINE
  5
167D
330
1640
100
AcDbEntity
  8
SEIHIN
100
AcDbLine
 10
113.7576679259511
 20
13.86881247159999
 30
0.0
 11
113.7574835241509
 21
13.86955007910001
 31
0.0
  0
ARC
  5
167E
330
1640
100
AcDbEntity
  8
SEIHIN
100
AcDbCircle
 10
111.7143567829509
 20
36.4194155427001
 30
0.0
 40
0.5009926787420655
100
AcDbArc
 50
307.3770530857984
 51
29.81592659180938
  0
ARC
  5
167F
330
1640
100
AcDbEntity
  8
SEIHIN
100
AcDbCircle
 10
111.7139541791509
 20
36.41939969379996
 30
0.0
 40
0.5010880310436922
100
AcDbArc
 50
307.4030737485025
 51
29.80833079539421
  0
LINE
  5
1680
330
1640
100
AcDbEntity
  8
SEIHIN
100
AcDbLine
 10
112.1490316957508
 20
36.6685166955001
 30
0.0
 11
112.148744848451
 21
36.66849061849984
 31
0.0
  0
ARC
  5
1681
330
1640
100
AcDbEntity
  8
SEIHIN
100
AcDbCircle
 10
115.476515857151
 20
38.34153913339992
 30
0.0
 40
0.5009555879137843
100
AcDbArc
 50
210.1656525556175
 51
286.770156106701
  0
ARC
  5
1682
330
1640
100
AcDbEntity
  8
SEIHIN
100
AcDbCircle
 10
115.4767662031511
 20
38.34187722820002
 30
0.0
 40
0.5010598835175199
100
AcDbArc
 50
210.1711652688905
 51
286.7428943696984
  0
LINE
  5
1683
330
1640
100
AcDbEntity
  8
SEIHIN
100
AcDbLine
 10
115.0434015810508
 20
38.08980807659986
 30
0.0
 11
115.043585982951
 21
38.09005208319991
 31
0.0
  0
LINE
  5
1684
330
1640
100
AcDbEntity
  8
SEIHIN
100
AcDbLine
 10
118.8994654015507
 20
34.99999828639988
 30
0.0
 11
119.4998723015507
 21
34.99999828639988
 31
0.0
  0
LINE
  5
1685
330
1640
100
AcDbEntity
  8
SEIHIN
100
AcDbLine
 10
119.4998723015507
 20
38.35861943660006
 30
0.0
 11
118.9631119862508
 21
38.35861943660006
 31
0.0
  0
LINE
  5
1686
330
1640
100
AcDbEntity
  8
SEIHIN
100
AcDbLine
 10
127.499871750251
 20
0.0
 30
0.0
 11
134.499871966251
 21
0.0
 31
0.0
  0
LINE
  5
1687
330
1640
100
AcDbEntity
  8
SEIHIN
100
AcDbLine
 10
124.4998721897511
 20
3.002740442799904
 30
0.0
 11
127.499871750251
 21
0.0
 31
0.0
  0
LINE
  5
1688
330
1640
100
AcDbEntity
  8
SEIHIN
100
AcDbLine
 10
124.4998721897511
 20
4.43283841020002
 30
0.0
 11
124.4998721897511
 21
9.425986558200065
 31
0.0
  0
LINE
  5
1689
330
1640
100
AcDbEntity
  8
SEIHIN
100
AcDbLine
 10
124.4998721897511
 20
3.002740442799904
 30
0.0
 11
124.4998721897511
 21
4.43283841020002
 31
0.0
  0
LINE
  5
168A
330
1640
100
AcDbEntity
  8
SEIHIN
100
AcDbLine
 10
122.9396675274513
 20
15.15607908369998
 30
0.0
 11
121.0604178279511
 21
16.42812043429989
 31
0.0
  0
LINE
  5
168B
330
1640
100
AcDbEntity
  8
SEIHIN
100
AcDbLine
 10
24.13321458995119
 20
43.99999789900016
 30
0.0
 11
10.56138598625102
 21
43.99999789900016
 31
0.0
  0
LINE
  5
168C
330
1640
100
AcDbEntity
  8
SEIHIN
100
AcDbLine
 10
8.438357946351061
 20
43.49999688569982
 30
0.0
 11
5.714068052250922
 21
43.49999688569982
 31
0.0
  0
ARC
  5
168D
330
1640
100
AcDbEntity
  8
SEIHIN
100
AcDbCircle
 10
4.996087288551052
 20
43.5992240037001
 30
0.0
 40
4.996216324857909
100
AcDbArc
 50
101.2246005722979
 51
179.4530805893922
  0
LINE
  5
168E
330
1640
100
AcDbEntity
  8
SEIHIN
100
AcDbLine
 10
0.0000985831509297
 20
43.64691488450012
 30
0.0
 11
0.000068780851052
 21
43.64317655570016
 31
0.0
  0
LINE
  5
168F
330
1640
100
AcDbEntity
  8
SEIHIN
100
AcDbLine
 10
4.322210189751103
 20
45.5558300017999
 30
0.0
 11
4.951650139751109
 21
47.12944291530016
 31
0.0
  0
LINE
  5
1690
330
1640
100
AcDbEntity
  8
SEIHIN
100
AcDbLine
 10
4.951650139751109
 20
47.12944291530016
 30
0.0
 11
4.952067372251121
 21
47.1304859966001
 31
0.0
  0
LINE
  5
1691
330
1640
100
AcDbEntity
  8
SEIHIN
100
AcDbLine
 10
4.023546215951
 20
48.49987104539991
 30
0.0
 11
4.024857518151065
 21
48.49999770520003
 31
0.0
  0
LINE
  5
1692
330
1640
100
AcDbEntity
  8
SEIHIN
100
AcDbLine
 10
10.56138598625102
 20
43.99999789900016
 30
0.0
 11
10.56134128275107
 21
43.99999789900016
 31
0.0
  0
LINE
  5
1693
330
1640
100
AcDbEntity
  8
SEIHIN
100
AcDbLine
 10
10.44023954575118
 20
43.98508928719979
 30
0.0
 11
10.440194842251
 21
43.9850781112998
 31
0.0
  0
LINE
  5
1694
330
1640
100
AcDbEntity
  8
SEIHIN
100
AcDbLine
 10
10.440194842251
 20
43.9850781112998
 30
0.0
 11
8.559549090251039
 21
43.51491667330015
 31
0.0
  0
LINE
  5
1695
330
1640
100
AcDbEntity
  8
SEIHIN
100
AcDbLine
 10
120.0510439024676
 20
64.55196510070641
 30
0.0
 11
122.6592993856672
 21
64.89874066020639
 31
0.0
  0
ARC
  5
1696
330
1640
100
AcDbEntity
  8
SEIHIN
100
AcDbCircle
 10
119.4991008416511
 20
55.87427097370005
 30
0.0
 40
5.00077284725768
100
AcDbArc
 50
359.9556359170092
 51
105.407711517892
  0
LINE
  5
1697
330
1640
100
AcDbEntity
  8
SEIHIN
100
AcDbLine
 10
127.499871750251
 20
69.99999750409983
 30
0.0
 11
117.497321081151
 21
63.98078717759995
 31
0.0
  0
ARC
  5
1698
330
1640
100
AcDbEntity
  8
SEIHIN
100
AcDbCircle
 10
125.2862368969511
 20
35.03278219319986
 30
0.0
 40
29.97823066361055
100
AcDbArc
 50
105.0486833941002
 51
136.2261482308105
  0
ARC
  5
1699
330
1640
100
AcDbEntity
  8
SEIHIN
100
AcDbCircle
 10
213.0658405713757
 20
-57.06431420664944
 30
0.0
 40
153.8411774579954
100
AcDbArc
 50
133.8956001593456
 51
135.5110114122765
  0
LINE
  5
169A
330
1640
100
AcDbEntity
  8
SEIHIN
100
AcDbLine
 10
103.6396751672512
 20
55.77213317159999
 30
0.0
 11
103.6352793246508
 21
55.76754547660016
 31
0.0
  0
ARC
  5
169B
330
1640
100
AcDbEntity
  8
SEIHIN
100
AcDbCircle
 10
103.6571976098509
 20
50.37461023160017
 30
0.0
 40
0.5011026325982227
100
AcDbArc
 50
30.25580538168977
 51
132.6283863938084
  0
ARC
  5
169C
330
1640
100
AcDbEntity
  8
SEIHIN
100
AcDbCircle
 10
125.2181049454509
 20
35.18796554300001
 30
0.0
 40
26.46306962756026
100
AcDbArc
 50
105.4453889311991
 51
135.3232698110076
  0
LINE
  5
169D
330
1640
100
AcDbEntity
  8
SEIHIN
100
AcDbLine
 10
106.4005995661511
 20
53.79430856559998
 30
0.0
 11
106.4006107420511
 21
53.79430763430014
 31
0.0
  0
ARC
  5
169E
330
1640
100
AcDbEntity
  8
SEIHIN
100
AcDbCircle
 10
106.757587579051
 20
53.44298831589981
 30
0.0
 40
0.5008656098752401
100
AcDbArc
 50
135.4584613790076
 51
209.8637368042888
  0
ARC
  5
169F
330
1640
100
AcDbEntity
  8
SEIHIN
100
AcDbCircle
 10
106.7576142235509
 20
53.44299232639992
 30
0.0
 40
0.5008731689641259
100
AcDbArc
 50
135.4601054523015
 51
209.8634007691898
  0
LINE
  5
16A0
330
1640
100
AcDbEntity
  8
SEIHIN
100
AcDbLine
 10
106.3232308745512
 20
53.19358780979996
 30
0.0
 11
106.3232495010508
 21
53.19359060379998
 31
0.0
  0
LINE
  5
16A1
330
1640
100
AcDbEntity
  8
SEIHIN
100
AcDbLine
 10
117.5026985377674
 20
63.98292630910646
 30
0.0
 11
120.0510439024676
 21
64.55196510070641
 31
0.0
  0
LINE
  5
16A2
330
1640
100
AcDbEntity
  8
SEIHIN
100
AcDbLine
 10
124.4998721897511
 20
65.56715647460009
 30
0.0
 11
124.4998721897511
 21
66.90416694620012
 31
0.0
  0
ARC
  5
16A3
330
1640
100
AcDbEntity
  8
SEIHIN
100
AcDbCircle
 10
122.4658054438271
 20
66.92367727011583
 30
0.0
 40
2.034160313154519
100
AcDbArc
 50
275.4583571032454
 51
359.4504482512308
  0
LINE
  5
16A4
330
1640
100
AcDbEntity
  8
SEIHIN
100
AcDbLine
 10
124.4998721897511
 20
60.57400861759993
 30
0.0
 11
124.4998721897511
 21
65.56715647460009
 31
0.0
  0
LINE
  5
16A5
330
1640
100
AcDbEntity
  8
SEIHIN
100
AcDbLine
 10
127.499871750251
 20
69.99999750409983
 30
0.0
 11
134.499871966251
 21
69.99999750409983
 31
0.0
  0
LINE
  5
16A6
330
1640
100
AcDbEntity
  8
SEIHIN
100
AcDbLine
 10
124.4998721897511
 20
66.90416694620012
 30
0.0
 11
127.4081583626509
 21
69.81644453479998
 31
0.0
  0
LINE
  5
16A7
330
1640
100
AcDbEntity
  8
製品
100
AcDbLine
 10
14.9999981512658
 20
34.99588674222946
 30
0.0
 11
14.99999763025107
 21
35.35082525029997
 31
0.0
  0
CIRCLE
  5
16A8
330
1640
100
AcDbEntity
  8
KEIJYO
 62
   251
100
AcDbCircle
 10
4.754086932049631
 20
48.18390276729292
 30
0.0
 40
0.7788173943287319
  0
LINE
  5
16A9
330
1640
100
AcDbEntity
  8
KEIJYO
 62
   251
100
AcDbLine
 10
3.975269537720805
 20
48.18390276729292
 30
0.0
 11
5.532904326378456
 21
48.18390276729292
 31
0.0
  0
LINE
  5
16AA
330
1640
100
AcDbEntity
  8
KEIJYO
 62
   251
100
AcDbLine
 10
4.754086932049631
 20
48.96272016162175
 30
0.0
 11
4.754086932049631
 21
47.40508537296432
 31
0.0
  0
LINE
  5
16AB
330
1640
100
AcDbEntity
  8
CENTER_L
  6
CENTER
 48
5.0
100
AcDbLine
 10
119.7264463642773
 20
12.00000000000022
 30
0.0
 11
143.5093900491392
 21
12.00000000000022
 31
0.0
  0
LINE
  5
16AC
330
1640
100
AcDbEntity
  8
CENTER_L
  6
CENTER
 48
5.0
100
AcDbLine
 10
119.7264463642773
 20
56.99999750409983
 30
0.0
 11
143.5093900491392
 21
56.99999750409983
 31
0.0
  0
ENDBLK
  5
16AE
330
1640
100
AcDbEntity
  8
0
100
AcDbBlockEnd
  0
BLOCK
  5
16B5
330
16AF
100
AcDbEntity
  8
0
100
AcDbBlockBegin
  2
20070903_11472863
 70
     0
 10
0.0
 20
0.0
 30
0.0
  3
20070903_11472863
  1

  0
INSERT
  5
16B0
330
16AF
100
AcDbEntity
  8
C4
100
AcDbBlockReference
  2
20070823_10093536
 10
6.0
 20
0.0
 30
0.0
  0
LINE
  5
16B1
330
16AF
100
AcDbEntity
  8
C4
100
AcDbLine
 10
8.0
 20
116.0334160494876
 30
0.0
 11
3.727312143435256
 21
116.0334160494876
 31
0.0
  0
INSERT
  5
16B2
330
16AF
100
AcDbEntity
  8
C5
100
AcDbBlockReference
  2
20061005_10361524
 10
0.0
 20
110.0334160494876
 30
0.0
  0
INSERT
  5
16B3
330
16AF
100
AcDbEntity
  8
C5
100
AcDbBlockReference
  2
20061005_10361524
 10
0.0
 20
130.0334160494876
 30
0.0
  0
INSERT
  5
16B4
330
16AF
100
AcDbEntity
  8
C4
100
AcDbBlockReference
  2
20070903_11423425
 10
12.9447465094513
 20
59.62129960779169
 30
0.0
  0
ENDBLK
  5
16B6
330
16AF
100
AcDbEntity
  8
0
100
AcDbBlockEnd
  0
BLOCK
  5
17B8
330
16B7
100
AcDbEntity
  8
0
100
AcDbBlockBegin
  2
20070907_16034824
 70
     0
 10
0.0
 20
0.0
 30
0.0
  3
20070907_16034824
  1

  0
ARC
  5
16B8
330
16B7
100
AcDbEntity
  8
C6
  6
HIDDEN2
 62
     4
100
AcDbCircle
 10
94.90866316200003
 20
1008.935088857954
 30
0.0
 40
998.7
100
AcDbArc
 50
267.2049303118076
 51
272.4402377039108
1001
ACAD
1000
ASC_BOUNDS
1002
{
1070
    19
1002
}
  0
ARC
  5
16B9
330
16B7
100
AcDbEntity
  8
C6
  6
HIDDEN2
 62
     4
100
AcDbCircle
 10
94.90866316200003
 20
1008.935088857954
 30
0.0
 40
1000.0
100
AcDbArc
 50
267.1989238835889
 51
272.4402377038977
  0
ARC
  5
16BA
330
16B7
100
AcDbEntity
  8
C6
  6
HIDDEN2
 62
     4
100
AcDbCircle
 10
235.4971483956167
 20
128.4038745074205
 30
0.0
 40
230.1
100
AcDbArc
 50
185.1735543155649
 51
206.8996058225246
  0
ARC
  5
16BB
330
16B7
100
AcDbEntity
  8
C6
  6
HIDDEN2
 62
     4
100
AcDbCircle
 10
235.4971483956167
 20
128.4038745074205
 30
0.0
 40
228.6999999999999
100
AcDbArc
 50
190.7590171585627
 51
204.3977449098981
1001
ACAD
1000
ASC_BOUNDS
1002
{
1070
    19
1002
}
  0
ARC
  5
16BC
330
16B7
100
AcDbEntity
  8
C6
  6
HIDDEN2
 62
     4
100
AcDbCircle
 10
235.4971483956167
 20
128.4038745074205
 30
0.0
 40
230.0
100
AcDbArc
 50
184.1110824023476
 51
206.9258810155899
  0
POINT
  5
16BD
330
16B7
100
AcDbEntity
  8
C6
  6
HIDDEN2
 62
     4
100
AcDbPoint
 10
15.9285599937009
 20
59.92296485232009
 30
0.0
  0
ARC
  5
16BE
330
16B7
100
AcDbEntity
  8
C6
  6
HIDDEN2
 62
     4
100
AcDbCircle
 10
235.4971483956167
 20
128.4038745074205
 30
0.0
 40
228.6999999999999
100
AcDbArc
 50
204.7558771521626
 51
206.7808054216451
  0
LINE
  5
16BF
330
16B7
100
AcDbEntity
  8
C6
  6
HIDDEN2
 62
     4
100
AcDbLine
 10
41.08877183752588
 20
26.8450888579548
 30
0.0
 11
44.64241466450016
 21
12.70677994055495
 31
0.0
1001
ACAD
1000
ASC_BOUNDS
1002
{
1070
    19
1002
}
  0
LINE
  5
16C0
330
16B7
100
AcDbEntity
  8
C6
  6
HIDDEN2
 62
     4
100
AcDbLine
 10
31.32823852812862
 20
25.35657350675637
 30
0.0
 11
39.31757999139085
 21
26.58570296270545
 31
0.0
  0
LINE
  5
16C1
330
16B7
100
AcDbEntity
  8
C6
  6
HIDDEN2
 62
     4
100
AcDbLine
 10
30.92013532200417
 20
23.97849375437158
 30
0.0
 11
39.66338986448181
 21
25.32360983775197
 31
0.0
  0
ARC
  5
16C2
330
16B7
100
AcDbEntity
  8
C6
  6
HIDDEN2
 62
     4
100
AcDbCircle
 10
30.82890101145699
 20
24.57151677296292
 30
0.0
 40
0.6
100
AcDbArc
 50
206.8996058225246
 51
278.7461622620629
  0
ARC
  5
16C3
330
16B7
100
AcDbEntity
  8
C6
  6
HIDDEN2
 62
     4
100
AcDbCircle
 10
30.87653886972975
 20
24.47766916317391
 30
0.0
 40
0.5
100
AcDbArc
 50
206.9258810155666
 51
278.7461622620629
  0
LINE
  5
16C4
330
16B7
100
AcDbEntity
  8
C6
  6
HIDDEN2
 62
     4
100
AcDbLine
 10
40.14725926943287
 20
24.84772887587587
 30
0.0
 11
43.27723762516462
 21
12.39498585910428
 31
0.0
  0
LINE
  5
16C5
330
16B7
100
AcDbEntity
  8
C6
  6
HIDDEN2
 62
     4
100
AcDbLine
 10
40.22433540730003
 20
24.95130733845485
 30
0.0
 11
43.38163055240011
 21
12.38988339185493
 31
0.0
  0
ARC
  5
16C6
330
16B7
100
AcDbEntity
  8
C6
  6
HIDDEN2
 62
     4
100
AcDbCircle
 10
46.1867396108671
 20
13.12628483708385
 30
0.0
 40
3.0
100
AcDbArc
 50
194.1089391540688
 51
267.1989238835889
  0
ARC
  5
16C7
330
16B7
100
AcDbEntity
  8
C6
  6
HIDDEN2
 62
     4
100
AcDbCircle
 10
46.29113245639996
 20
13.12118269465486
 30
0.0
 40
1.7
100
AcDbArc
 50
194.1089391537908
 51
267.2049303118076
1001
ACAD
1000
ASC_BOUNDS
1002
{
1070
    19
1002
}
  0
ARC
  5
16C8
330
16B7
100
AcDbEntity
  8
C6
  6
HIDDEN2
 62
     4
100
AcDbCircle
 10
46.29113245639996
 20
13.12118269465486
 30
0.0
 40
3.0
100
AcDbArc
 50
194.1089391537908
 51
267.2049303118076
  0
ARC
  5
16C9
330
16B7
100
AcDbEntity
  8
C6
  6
HIDDEN2
 62
     4
100
AcDbCircle
 10
39.56535887229233
 20
24.70146908028004
 30
0.0
 40
0.6
100
AcDbArc
 50
14.10893915406887
 51
98.74616226206295
  0
ARC
  5
16CA
330
16B7
100
AcDbEntity
  8
C6
  6
HIDDEN2
 62
     4
100
AcDbCircle
 10
39.7394184566001
 20
24.82942398895488
 30
0.0
 40
0.5
100
AcDbArc
 50
14.10893915379081
 51
98.74616226206295
  0
LINE
  5
16CB
330
16B7
100
AcDbEntity
  8
C6
  6
HIDDEN2
 62
     4
100
AcDbLine
 10
39.31757999139085
 20
26.58570296270545
 30
0.0
 11
31.64096462535349
 21
32.63508885795499
 31
0.0
  0
LINE
  5
16CC
330
16B7
100
AcDbEntity
  8
C6
  6
HIDDEN2
 62
     4
100
AcDbLine
 10
41.08877183752588
 20
26.8450888579548
 30
0.0
 11
32.09162669128113
 21
33.93508885795495
 31
0.0
1001
ACAD
1000
ASC_BOUNDS
1002
{
1070
    19
1002
}
  0
LINE
  5
16CD
330
16B7
100
AcDbEntity
  8
C6
  6
HIDDEN2
 62
     4
100
AcDbLine
 10
27.81462699521898
 20
32.63508885795499
 30
0.0
 11
31.64096462535349
 21
32.63508885795499
 31
0.0
  0
LINE
  5
16CE
330
16B7
100
AcDbEntity
  8
C6
  6
HIDDEN2
 62
     4
100
AcDbLine
 10
27.22007683488232
 20
33.93508885795495
 30
0.0
 11
32.09162669128113
 21
33.93508885795495
 31
0.0
1001
ACAD
1000
ASC_BOUNDS
1002
{
1070
    19
1002
}
  0
LINE
  5
16CF
330
16B7
100
AcDbEntity
  8
C6
  6
HIDDEN2
 62
     4
100
AcDbLine
 10
7.676428140295683
 20
115.1878061881793
 30
0.0
 11
25.03889831373271
 21
113.924939985276
 31
0.0
  0
LINE
  5
16D0
330
16B7
100
AcDbEntity
  8
C6
  6
HIDDEN2
 62
     4
100
AcDbLine
 10
15.95630153614161
 20
94.00508885795488
 30
0.0
 11
19.14164934990003
 21
94.00508885795488
 31
0.0
  0
LINE
  5
16D1
330
16B7
100
AcDbEntity
  8
C6
  6
HIDDEN2
 62
     4
100
AcDbLine
 10
15.95630153614161
 20
95.30508885795484
 30
0.0
 11
19.14164934990003
 21
95.30508885795484
 31
0.0
  0
LINE
  5
16D2
330
16B7
100
AcDbEntity
  8
C6
  6
HIDDEN2
 62
     4
100
AcDbLine
 10
15.95630153614161
 20
110.8050888579548
 30
0.0
 11
18.31064954919997
 21
110.8050888579548
 31
0.0
  0
LINE
  5
16D3
330
16B7
100
AcDbEntity
  8
C6
  6
HIDDEN2
 62
     4
100
AcDbLine
 10
15.95630153614161
 20
112.1050888579548
 30
0.0
 11
17.79006959063212
 21
112.1050888579548
 31
0.0
  0
ARC
  5
16D4
330
16B7
100
AcDbEntity
  8
C6
  6
HIDDEN2
 62
     4
100
AcDbCircle
 10
15.95630153614161
 20
103.0550888579548
 30
0.0
 40
7.75
100
AcDbArc
 50
90.0
 51
270.0
  0
ARC
  5
16D5
330
16B7
100
AcDbEntity
  8
C6
  6
HIDDEN2
 62
     4
100
AcDbCircle
 10
34.02064934990017
 20
51.96508885795492
 30
0.0
 40
40.0
100
AcDbArc
 50
110.4457276165026
 51
121.8655206455988
  0
ARC
  5
16D6
330
16B7
100
AcDbEntity
  8
C6
  6
HIDDEN2
 62
     4
100
AcDbCircle
 10
34.02064934990017
 20
51.96508885795492
 30
0.0
 40
41.29999999999999
100
AcDbArc
 50
110.0980420202027
 51
121.4513859801024
  0
LINE
  5
16D7
330
16B7
100
AcDbEntity
  8
C6
  6
HIDDEN2
 62
     4
100
AcDbLine
 10
7.606348878660355
 20
113.7892050095429
 30
0.0
 11
18.1340446434001
 21
113.023468853155
 31
0.0
  0
LINE
  5
16D8
330
16B7
100
AcDbEntity
  8
C6
  6
HIDDEN2
 62
     4
100
AcDbLine
 10
7.669173764454853
 20
115.088069665124
 30
0.0
 11
25.0161123667001
 21
113.8263331572547
 31
0.0
  0
LINE
  5
16D9
330
16B7
100
AcDbEntity
  8
C6
  6
HIDDEN2
 62
     4
100
AcDbLine
 10
0.2253227871754007
 20
115.8117434813175
 30
0.0
 11
7.956559003133634
 21
119.3460228942922
 31
0.0
  0
LINE
  5
16DA
330
16B7
100
AcDbEntity
  8
C6
  6
HIDDEN2
 62
     4
100
AcDbLine
 10
8.506609107870417
 20
118.869366574469
 30
0.0
 11
7.499063791661683
 21
115.443712499084
 31
0.0
  0
LINE
  5
16DB
330
16B7
100
AcDbEntity
  8
C6
  6
HIDDEN2
 62
     4
100
AcDbLine
 10
8.410672557712587
 20
118.897583206866
 30
0.0
 11
7.403127241503852
 21
115.4719291314811
 31
0.0
  0
LINE
  5
16DC
330
16B7
100
AcDbEntity
  8
C6
  6
HIDDEN2
 62
     4
100
AcDbLine
 10
0.2752720719206536
 20
115.7246238320303
 30
0.0
 11
7.998134979159885
 21
119.2550754467333
 31
0.0
  0
ARC
  5
16DD
330
16B7
100
AcDbEntity
  8
C6
  6
HIDDEN2
 62
     4
100
AcDbCircle
 10
235.4971483956167
 20
128.4038745074205
 30
0.0
 40
228.6999999999999
100
AcDbArc
 50
187.7980495073224
 51
190.4323643465006
  0
ARC
  5
16DE
330
16B7
100
AcDbEntity
  8
C6
  6
HIDDEN2
 62
     4
100
AcDbCircle
 10
15.95630153614161
 20
103.0550888579548
 30
0.0
 40
9.05
100
AcDbArc
 50
218.8885027707251
 51
270.0
  0
LINE
  5
16DF
330
16B7
100
AcDbEntity
  8
C6
  6
HIDDEN2
 62
     4
100
AcDbLine
 10
10.81745870361214
 20
85.71046705492859
 30
0.0
 11
12.90355549529999
 21
85.93667032145503
 31
0.0
  0
LINE
  5
16E0
330
16B7
100
AcDbEntity
  8
C6
  6
HIDDEN2
 62
     4
100
AcDbLine
 10
10.57770917948232
 20
86.99209040313963
 30
0.0
 11
12.47134461249993
 21
87.19742436565502
 31
0.0
  0
ARC
  5
16E1
330
16B7
100
AcDbEntity
  8
C6
  6
HIDDEN2
 62
     4
100
AcDbCircle
 10
0.7000000000000455
 20
108.3550888579547
 30
0.0
 40
0.7
100
AcDbArc
 50
180.0
 51
270.0
  0
ARC
  5
16E2
330
16B7
100
AcDbEntity
  8
C6
  6
HIDDEN2
 62
     4
100
AcDbCircle
 10
0.400000000000091
 20
115.451781489354
 30
0.0
 40
0.4
100
AcDbArc
 50
114.5671713203833
 51
180.0
  0
ARC
  5
16E3
330
16B7
100
AcDbEntity
  8
C6
  6
HIDDEN2
 62
     4
100
AcDbCircle
 10
0.400000000000091
 20
115.451781489354
 30
0.0
 40
0.3
100
AcDbArc
 50
114.5671713203833
 51
180.0
  0
ARC
  5
16E4
330
16B7
100
AcDbEntity
  8
C6
  6
HIDDEN2
 62
     4
100
AcDbCircle
 10
0.7500000000002274
 20
108.3050888579548
 30
0.0
 40
0.65
100
AcDbArc
 50
180.0
 51
0.0
  0
LINE
  5
16E5
330
16B7
100
AcDbEntity
  8
C6
  6
HIDDEN2
 62
     4
100
AcDbLine
 10
0.0000000000002274
 20
115.451781489354
 30
0.0
 11
0.0000000000002274
 21
108.3550888579547
 31
0.0
  0
LINE
  5
16E6
330
16B7
100
AcDbEntity
  8
C6
  6
HIDDEN2
 62
     4
100
AcDbLine
 10
0.1000000000001364
 20
115.451781489354
 30
0.0
 11
0.1000000000001364
 21
108.3050888579548
 31
0.0
  0
ARC
  5
16E7
330
16B7
100
AcDbEntity
  8
C6
  6
HIDDEN2
 62
     4
100
AcDbCircle
 10
15.95630153614161
 20
103.0550888579548
 30
0.0
 40
9.05
100
AcDbArc
 50
90.0
 51
154.284220192759
  0
ARC
  5
16E8
330
16B7
100
AcDbEntity
  8
C6
  6
HIDDEN2
 62
     4
100
AcDbCircle
 10
235.4971483956167
 20
128.4038745074205
 30
0.0
 40
228.6999999999999
100
AcDbArc
 50
183.7439173454093
 51
185.3746734561562
  0
LINE
  5
16E9
330
16B7
100
AcDbEntity
  8
C6
  6
HIDDEN2
 62
     4
100
AcDbLine
 10
5.998557654297883
 20
113.2250455753665
 30
0.0
 11
1.40000000000009
 21
112.2443240160721
 31
0.0
  0
LINE
  5
16EA
330
16B7
100
AcDbEntity
  8
C6
  6
HIDDEN2
 62
     4
100
AcDbLine
 10
1.40000000000009
 20
114.4881916546548
 30
0.0
 11
1.40000000000009
 21
112.2443240160721
 31
0.0
  0
LINE
  5
16EB
330
16B7
100
AcDbEntity
  8
C6
  6
HIDDEN2
 62
     4
100
AcDbLine
 10
6.088953363691189
 20
111.9150888579549
 30
0.0
 11
1.40000000000009
 21
110.9150888579549
 31
0.0
  0
LINE
  5
16EC
330
16B7
100
AcDbEntity
  8
C6
  6
HIDDEN2
 62
     4
100
AcDbLine
 10
1.40000000000009
 20
110.9150888579549
 30
0.0
 11
1.40000000000009
 21
108.3050888579548
 31
0.0
  0
LINE
  5
16ED
330
16B7
100
AcDbEntity
  8
C6
  6
HIDDEN2
 62
     4
100
AcDbLine
 10
6.34657461197662
 20
108.6550888579549
 30
0.0
 11
6.334546965818617
 21
107.6550888579549
 31
0.0
  0
LINE
  5
16EE
330
16B7
100
AcDbEntity
  8
C6
  6
HIDDEN2
 62
     4
100
AcDbLine
 10
1.692120119899982
 20
114.9429288924548
 30
0.0
 11
5.789249317827625
 21
116.8159022400955
 31
0.0
  0
ARC
  5
16EF
330
16B7
100
AcDbEntity
  8
C6
  6
HIDDEN2
 62
     4
100
AcDbCircle
 10
1.90000000000009
 20
114.4881916546548
 30
0.0
 40
0.5
100
AcDbArc
 50
114.5671713205982
 51
180.0
  0
ARC
  5
16F0
330
16B7
100
AcDbEntity
  8
C6
  6
HIDDEN2
 62
     4
100
AcDbCircle
 10
7.690936891977116
 20
115.3872792342899
 30
0.0
 40
0.2
100
AcDbArc
 50
163.610459667215
 51
265.8398945314754
  0
ARC
  5
16F1
330
16B7
100
AcDbEntity
  8
C6
  6
HIDDEN2
 62
     4
100
AcDbCircle
 10
7.690936891977116
 20
115.3872792342899
 30
0.0
 40
0.3
100
AcDbArc
 50
163.610459667215
 51
265.8398945314754
  0
ARC
  5
16F2
330
16B7
100
AcDbEntity
  8
C6
  6
HIDDEN2
 62
     4
100
AcDbCircle
 10
7.584585751137637
 20
113.489995440377
 30
0.0
 40
0.3
100
AcDbArc
 50
85.83989453139714
 51
183.7439173454093
  0
ARC
  5
16F3
330
16B7
100
AcDbEntity
  8
C6
  6
HIDDEN2
 62
     4
100
AcDbCircle
 10
235.4971483956167
 20
128.4038745074205
 30
0.0
 40
230.0
100
AcDbArc
 50
182.8879265935731
 51
183.7839798633352
  0
ARC
  5
16F4
330
16B7
100
AcDbEntity
  8
C6
  6
HIDDEN2
 62
     4
100
AcDbCircle
 10
8.122862907239323
 20
118.9822331040572
 30
0.0
 40
0.4
100
AcDbArc
 50
343.610459667215
 51
114.5671713203833
  0
ARC
  5
16F5
330
16B7
100
AcDbEntity
  8
C6
  6
HIDDEN2
 62
     4
100
AcDbCircle
 10
8.122862907239323
 20
118.9822331040572
 30
0.0
 40
0.3
100
AcDbArc
 50
343.610459667215
 51
114.5671713203833
  0
ARC
  5
16F6
330
16B7
100
AcDbEntity
  8
C6
  6
HIDDEN2
 62
     4
100
AcDbCircle
 10
19.14164934990003
 20
92.30508885795485
 30
0.0
 40
3.0
100
AcDbArc
 50
287.5817914224977
 51
90.00000476099703
  0
ARC
  5
16F7
330
16B7
100
AcDbEntity
  8
C6
  6
HIDDEN2
 62
     4
100
AcDbCircle
 10
19.14164934990003
 20
92.30508885795485
 30
0.0
 40
1.7
100
AcDbArc
 50
293.8424792123982
 51
89.99999617319568
  0
LINE
  5
16F8
330
16B7
100
AcDbEntity
  8
C6
  6
HIDDEN2
 62
     4
100
AcDbLine
 10
18.31064934990013
 20
94.00508885795488
 30
0.0
 11
19.14164934990003
 21
94.00508885795488
 31
0.0
  0
LINE
  5
16F9
330
16B7
100
AcDbEntity
  8
C6
  6
HIDDEN2
 62
     4
100
AcDbLine
 10
25.48978896911239
 20
113.3136844385355
 30
0.0
 11
23.72869853280008
 21
105.6925159264549
 31
0.0
  0
ARC
  5
16FA
330
16B7
100
AcDbEntity
  8
C6
  6
HIDDEN2
 62
     4
100
AcDbCircle
 10
21.15694488070016
 20
107.1050888579547
 30
0.0
 40
0.5
100
AcDbArc
 50
159.4667908809965
 51
270.0
  0
LINE
  5
16FB
330
16B7
100
AcDbEntity
  8
C6
  6
HIDDEN2
 62
     4
100
AcDbLine
 10
18.81360802850008
 20
105.9804639707549
 30
0.0
 11
20.11473199270017
 21
109.4543386324548
 31
0.0
  0
ARC
  5
16FC
330
16B7
100
AcDbEntity
  8
C6
  6
HIDDEN2
 62
     4
100
AcDbCircle
 10
22.20768147669991
 20
107.1050888579547
 30
0.0
 40
0.5
100
AcDbArc
 50
270.0
 51
346.9885444269018
  0
LINE
  5
16FD
330
16B7
100
AcDbEntity
  8
C6
  6
HIDDEN2
 62
     4
100
AcDbLine
 10
18.31064934990013
 20
95.30508885795484
 30
0.0
 11
19.14164934990003
 21
95.30508885795484
 31
0.0
  0
LINE
  5
16FE
330
16B7
100
AcDbEntity
  8
C6
  6
HIDDEN2
 62
     4
100
AcDbLine
 10
23.2415359982001
 20
105.3050888579548
 30
0.0
 11
19.28184255290011
 21
105.3050888579548
 31
0.0
  0
ARC
  5
16FF
330
16B7
100
AcDbEntity
  8
C6
  6
HIDDEN2
 62
     4
100
AcDbCircle
 10
19.28184255290011
 20
105.8050888579548
 30
0.0
 40
0.5
100
AcDbArc
 50
159.4667908809965
 51
270.0
  0
ARC
  5
1700
330
16B7
100
AcDbEntity
  8
C6
  6
HIDDEN2
 62
     4
100
AcDbCircle
 10
23.2415359982001
 20
105.8050888579548
 30
0.0
 40
0.5
100
AcDbArc
 50
270.0
 51
346.9885444269018
  0
LINE
  5
1701
330
16B7
100
AcDbEntity
  8
C6
  6
HIDDEN2
 62
     4
100
AcDbLine
 10
22.20768147669991
 20
106.6050888579547
 30
0.0
 11
21.15694488070016
 21
106.6050888579547
 31
0.0
  0
ARC
  5
1702
330
16B7
100
AcDbEntity
  8
C6
  6
HIDDEN2
 62
     4
100
AcDbCircle
 10
23.37142119860004
 20
112.1412053126548
 30
0.0
 40
0.5
100
AcDbArc
 50
346.9885444269018
 51
85.8398945316061
  0
ARC
  5
1703
330
16B7
100
AcDbEntity
  8
C6
  6
HIDDEN2
 62
     4
100
AcDbCircle
 10
19.17826294400015
 20
109.8050888579548
 30
0.0
 40
2.299999999999999
100
AcDbArc
 50
339.466798025397
 51
90.00000290150941
  0
LINE
  5
1704
330
16B7
100
AcDbEntity
  8
C6
  6
HIDDEN2
 62
     4
100
AcDbLine
 10
19.17826282750002
 20
112.1050888579548
 30
0.0
 11
19.48542267600009
 21
112.925175832155
 31
0.0
  0
LINE
  5
1705
330
16B7
100
AcDbEntity
  8
C6
  6
HIDDEN2
 62
     4
100
AcDbLine
 10
17.78433254760011
 20
112.0897715100547
 30
0.0
 11
18.1340446434001
 21
113.023468853155
 31
0.0
  0
LINE
  5
1706
330
16B7
100
AcDbEntity
  8
C6
  6
HIDDEN2
 62
     4
100
AcDbLine
 10
20.68871035630013
 20
107.2804639707549
 30
0.0
 11
21.3321417561001
 21
108.9983633392548
 31
0.0
  0
ARC
  5
1707
330
16B7
100
AcDbEntity
  8
C6
  6
HIDDEN2
 62
     4
100
AcDbCircle
 10
19.17826294400015
 20
109.8050888579548
 30
0.0
 40
1.0
100
AcDbArc
 50
339.4667908809965
 51
90.0
  0
LINE
  5
1708
330
16B7
100
AcDbEntity
  8
C6
  6
HIDDEN2
 62
     4
100
AcDbLine
 10
19.17826294400015
 20
110.8050888579548
 30
0.0
 11
18.31064954919997
 21
110.8050888579548
 31
0.0
  0
LINE
  5
1709
330
16B7
100
AcDbEntity
  8
C6
  6
HIDDEN2
 62
     4
100
AcDbLine
 10
23.85858373309997
 20
112.0286323811549
 30
0.0
 11
22.69484401130012
 21
106.9925159264548
 31
0.0
  0
LINE
  5
170A
330
16B7
100
AcDbEntity
  8
C6
  6
HIDDEN2
 62
     4
100
AcDbLine
 10
19.48542267600009
 20
112.925175832155
 30
0.0
 11
23.4076930778001
 21
112.6398879279549
 31
0.0
  0
ARC
  5
170B
330
16B7
100
AcDbEntity
  8
C6
  6
HIDDEN2
 62
     4
100
AcDbCircle
 10
25.00262643452902
 20
113.4262573699993
 30
0.0
 40
0.5
100
AcDbArc
 50
346.988544427066
 51
85.83989453148857
  0
ARC
  5
170C
330
16B7
100
AcDbEntity
  8
C6
  6
HIDDEN2
 62
     4
100
AcDbCircle
 10
24.97984048750004
 20
113.3276505419548
 30
0.0
 40
0.5
100
AcDbArc
 50
346.9885444269018
 51
85.8398945316061
  0
LINE
  5
170D
330
16B7
100
AcDbEntity
  8
C6
  6
HIDDEN2
 62
     4
100
AcDbLine
 10
143.9933264737001
 20
73.7459417476548
 30
0.0
 11
143.6095405001001
 21
66.24833100425485
 31
0.0
  0
LINE
  5
170E
330
16B7
100
AcDbEntity
  8
C6
  6
HIDDEN2
 62
     4
100
AcDbLine
 10
136.5606493499001
 20
75.93508885795495
 30
0.0
 11
133.5606493499001
 21
63.93508885795495
 31
0.0
1001
ACAD
1000
ASC_BOUNDS
1002
{
1070
    19
1002
}
  0
LINE
  5
170F
330
16B7
100
AcDbEntity
  8
C6
  6
HIDDEN2
 62
     4
100
AcDbLine
 10
137.5756586782999
 20
74.635088857955
 30
0.0
 11
135.2701003377001
 21
65.41285549565486
 31
0.0
  0
LINE
  5
1710
330
16B7
100
AcDbEntity
  8
C6
  6
HIDDEN2
 62
     4
100
AcDbLine
 10
145.2916266912
 20
73.67948465485483
 30
0.0
 11
142.2665467406527
 21
14.58177526403778
 31
0.0
  0
LINE
  5
1711
330
16B7
100
AcDbEntity
  8
C6
  6
HIDDEN2
 62
     4
100
AcDbLine
 10
143.5423185633001
 20
64.93508885795495
 30
0.0
 11
140.9682465231001
 21
14.6482323568548
 31
0.0
1001
ACAD
1000
ASC_BOUNDS
1002
{
1070
    19
1002
}
  0
LINE
  5
1712
330
16B7
100
AcDbEntity
  8
C6
  6
HIDDEN2
 62
     4
100
AcDbLine
 10
92.92410866035629
 20
0.0
 30
0.0
 11
92.92410866035629
 21
22.13345017218398
 31
0.0
  0
ARC
  5
1713
330
16B7
100
AcDbEntity
  8
C6
  6
HIDDEN2
 62
     4
100
AcDbCircle
 10
137.2730843655001
 20
14.83737946715496
 30
0.0
 40
3.7
100
AcDbArc
 50
272.4402377039108
 51
357.0697143352042
1001
ACAD
1000
ASC_BOUNDS
1002
{
1070
    19
1002
}
  0
ARC
  5
1714
330
16B7
100
AcDbEntity
  8
C6
  6
HIDDEN2
 62
     4
100
AcDbCircle
 10
137.2730843655001
 20
14.83737946715496
 30
0.0
 40
5.0
100
AcDbArc
 50
272.4402377039108
 51
357.0697143352042
  0
LINE
  5
1715
330
16B7
100
AcDbEntity
  8
C6
  6
HIDDEN2
 62
     4
100
AcDbLine
 10
135.2701003377001
 20
65.41285549565486
 30
0.0
 11
143.6095405001001
 21
66.24833100425485
 31
0.0
  0
LINE
  5
1716
330
16B7
100
AcDbEntity
  8
C6
  6
HIDDEN2
 62
     4
100
AcDbLine
 10
133.5606493499001
 20
63.93508885795495
 30
0.0
 11
143.5423185633001
 21
64.93508885795495
 31
0.0
1001
ACAD
1000
ASC_BOUNDS
1002
{
1070
    19
1002
}
  0
LINE
  5
1717
330
16B7
100
AcDbEntity
  8
C6
  6
HIDDEN2
 62
     4
100
AcDbLine
 10
139.8606493499
 20
74.635088857955
 30
0.0
 11
137.5756586782999
 21
74.635088857955
 31
0.0
  0
LINE
  5
1718
330
16B7
100
AcDbEntity
  8
C6
  6
HIDDEN2
 62
     4
100
AcDbLine
 10
138.5606493499001
 20
78.93508885795495
 30
0.0
 11
140.2981643161999
 21
78.93508885795495
 31
0.0
1001
ACAD
1000
ASC_BOUNDS
1002
{
1070
    19
1002
}
  0
LINE
  5
1719
330
16B7
100
AcDbEntity
  8
C6
  6
HIDDEN2
 62
     4
100
AcDbLine
 10
138.5606493499001
 20
78.93508885795495
 30
0.0
 11
138.5606493499001
 21
75.93508885795495
 31
0.0
1001
ACAD
1000
ASC_BOUNDS
1002
{
1070
    19
1002
}
  0
LINE
  5
171A
330
16B7
100
AcDbEntity
  8
C6
  6
HIDDEN2
 62
     4
100
AcDbLine
 10
138.5606493499001
 20
75.93508885795495
 30
0.0
 11
136.5606493499001
 21
75.93508885795495
 31
0.0
1001
ACAD
1000
ASC_BOUNDS
1002
{
1070
    19
1002
}
  0
ARC
  5
171B
330
16B7
100
AcDbEntity
  8
C6
  6
HIDDEN2
 62
     4
100
AcDbCircle
 10
140.2981643161999
 20
73.93508885795495
 30
0.0
 40
3.7
100
AcDbArc
 50
357.0697143352042
 51
90.0
  0
ARC
  5
171C
330
16B7
100
AcDbEntity
  8
C6
  6
HIDDEN2
 62
     4
100
AcDbCircle
 10
140.2981643161999
 20
73.93508885795495
 30
0.0
 40
5.0
100
AcDbArc
 50
357.0697143352042
 51
90.0
  0
LINE
  5
171D
330
16B7
100
AcDbEntity
  8
C6
  6
HIDDEN2
 62
     4
100
AcDbLine
 10
139.8606493499
 20
77.63508885795499
 30
0.0
 11
140.2981643161999
 21
77.63508885795499
 31
0.0
  0
LINE
  5
171E
330
16B7
100
AcDbEntity
  8
C6
  6
HIDDEN2
 62
     4
100
AcDbLine
 10
139.8606493499
 20
77.63508885795499
 30
0.0
 11
139.8606493499
 21
74.635088857955
 31
0.0
  0
LINE
  5
171F
330
16B7
100
AcDbEntity
  8
C6
  6
HIDDEN2
 62
     4
100
AcDbLine
 10
19.38500438411233
 20
109.4542415819717
 30
0.0
 11
20.84437733473441
 21
109.4542153244306
 31
0.0
  0
LINE
  5
1720
330
16B7
100
AcDbEntity
  8
C6
  6
HIDDEN2
 62
     4
100
AcDbLine
 10
20.11469085918724
 20
110.1839017999777
 30
0.0
 11
20.11469085918724
 21
108.7245288488832
 31
0.0
  0
CIRCLE
  5
1721
330
16B7
100
AcDbEntity
  8
C6
  6
HIDDEN2
 62
     4
100
AcDbCircle
 10
20.11469085918724
 20
109.4542153244306
 30
0.0
 40
0.7296864755473437
  0
ARC
  5
1722
330
16B7
100
AcDbEntity
  8
C6
  6
HIDDEN2
 62
     4
100
AcDbCircle
 10
235.4971483956167
 20
148.4038745074206
 30
0.0
 40
230.1
100
AcDbArc
 50
185.1735543155649
 51
185.7613902527791
  0
ARC
  5
1723
330
16B7
100
AcDbEntity
  8
C6
  6
HIDDEN2
 62
     4
100
AcDbCircle
 10
235.4971483956167
 20
148.4038745074206
 30
0.0
 40
230.0
100
AcDbArc
 50
184.1110824023476
 51
185.763903687732
  0
LINE
  5
1724
330
16B7
100
AcDbEntity
  8
C6
  6
HIDDEN2
 62
     4
100
AcDbLine
 10
7.676428140295683
 20
135.1878061881793
 30
0.0
 11
25.03889831373271
 21
133.924939985276
 31
0.0
  0
LINE
  5
1725
330
16B7
100
AcDbEntity
  8
C6
  6
HIDDEN2
 62
     4
100
AcDbLine
 10
15.95630153614161
 20
130.8050888579548
 30
0.0
 11
18.31064954919997
 21
130.8050888579548
 31
0.0
  0
LINE
  5
1726
330
16B7
100
AcDbEntity
  8
C6
  6
HIDDEN2
 62
     4
100
AcDbLine
 10
15.95630153614161
 20
132.1050888579547
 30
0.0
 11
17.79006959063212
 21
132.1050888579547
 31
0.0
  0
ARC
  5
1727
330
16B7
100
AcDbEntity
  8
C6
  6
HIDDEN2
 62
     4
100
AcDbCircle
 10
15.95630153614161
 20
123.0550888579548
 30
0.0
 40
7.75
100
AcDbArc
 50
90.0
 51
163.1227305613734
  0
LINE
  5
1728
330
16B7
100
AcDbEntity
  8
C6
  6
HIDDEN2
 62
     4
100
AcDbLine
 10
7.606348878660355
 20
133.7892050095429
 30
0.0
 11
18.1340446434001
 21
133.023468853155
 31
0.0
  0
LINE
  5
1729
330
16B7
100
AcDbEntity
  8
C6
  6
HIDDEN2
 62
     4
100
AcDbLine
 10
7.669173764454853
 20
135.088069665124
 30
0.0
 11
25.0161123667001
 21
133.8263331572548
 31
0.0
  0
LINE
  5
172A
330
16B7
100
AcDbEntity
  8
C6
  6
HIDDEN2
 62
     4
100
AcDbLine
 10
0.2253227871754007
 20
135.8117434813175
 30
0.0
 11
7.956559003133634
 21
139.3460228942922
 31
0.0
  0
LINE
  5
172B
330
16B7
100
AcDbEntity
  8
C6
  6
HIDDEN2
 62
     4
100
AcDbLine
 10
8.506609107870417
 20
138.869366574469
 30
0.0
 11
7.499063791661683
 21
135.443712499084
 31
0.0
  0
LINE
  5
172C
330
16B7
100
AcDbEntity
  8
C6
  6
HIDDEN2
 62
     4
100
AcDbLine
 10
8.410672557712587
 20
138.8975832068661
 30
0.0
 11
7.403127241503852
 21
135.4719291314811
 31
0.0
  0
LINE
  5
172D
330
16B7
100
AcDbEntity
  8
C6
  6
HIDDEN2
 62
     4
100
AcDbLine
 10
0.2752720719206536
 20
135.7246238320303
 30
0.0
 11
7.998134979159885
 21
139.2550754467333
 31
0.0
  0
ARC
  5
172E
330
16B7
100
AcDbEntity
  8
C6
  6
HIDDEN2
 62
     4
100
AcDbCircle
 10
0.7000000000000455
 20
128.3550888579547
 30
0.0
 40
0.7
100
AcDbArc
 50
180.0
 51
270.0
  0
ARC
  5
172F
330
16B7
100
AcDbEntity
  8
C6
  6
HIDDEN2
 62
     4
100
AcDbCircle
 10
0.400000000000091
 20
135.451781489354
 30
0.0
 40
0.4
100
AcDbArc
 50
114.5671713203833
 51
180.0
  0
ARC
  5
1730
330
16B7
100
AcDbEntity
  8
C6
  6
HIDDEN2
 62
     4
100
AcDbCircle
 10
0.400000000000091
 20
135.451781489354
 30
0.0
 40
0.3
100
AcDbArc
 50
114.5671713203833
 51
180.0
  0
ARC
  5
1731
330
16B7
100
AcDbEntity
  8
C6
  6
HIDDEN2
 62
     4
100
AcDbCircle
 10
0.7500000000002274
 20
128.3050888579548
 30
0.0
 40
0.65
100
AcDbArc
 50
180.0
 51
0.0
  0
LINE
  5
1732
330
16B7
100
AcDbEntity
  8
C6
  6
HIDDEN2
 62
     4
100
AcDbLine
 10
0.0000000000002274
 20
135.451781489354
 30
0.0
 11
0.0000000000002274
 21
128.3550888579547
 31
0.0
  0
LINE
  5
1733
330
16B7
100
AcDbEntity
  8
C6
  6
HIDDEN2
 62
     4
100
AcDbLine
 10
0.1000000000001364
 20
135.451781489354
 30
0.0
 11
0.1000000000001364
 21
128.3050888579548
 31
0.0
  0
ARC
  5
1734
330
16B7
100
AcDbEntity
  8
C6
  6
HIDDEN2
 62
     4
100
AcDbCircle
 10
15.95630153614161
 20
123.0550888579548
 30
0.0
 40
9.05
100
AcDbArc
 50
90.0
 51
154.284220192759
  0
ARC
  5
1735
330
16B7
100
AcDbEntity
  8
C6
  6
HIDDEN2
 62
     4
100
AcDbCircle
 10
235.4971483956167
 20
148.4038745074206
 30
0.0
 40
228.6999999999999
100
AcDbArc
 50
183.7439173454093
 51
185.3746734561562
  0
LINE
  5
1736
330
16B7
100
AcDbEntity
  8
C6
  6
HIDDEN2
 62
     4
100
AcDbLine
 10
5.998557654297883
 20
133.2250455753664
 30
0.0
 11
1.40000000000009
 21
132.2443240160721
 31
0.0
  0
LINE
  5
1737
330
16B7
100
AcDbEntity
  8
C6
  6
HIDDEN2
 62
     4
100
AcDbLine
 10
1.40000000000009
 20
134.4881916546548
 30
0.0
 11
1.40000000000009
 21
132.2443240160721
 31
0.0
  0
LINE
  5
1738
330
16B7
100
AcDbEntity
  8
C6
  6
HIDDEN2
 62
     4
100
AcDbLine
 10
6.088953363691189
 20
131.9150888579549
 30
0.0
 11
1.40000000000009
 21
130.9150888579549
 31
0.0
  0
LINE
  5
1739
330
16B7
100
AcDbEntity
  8
C6
  6
HIDDEN2
 62
     4
100
AcDbLine
 10
1.40000000000009
 20
130.9150888579549
 30
0.0
 11
1.40000000000009
 21
128.3050888579548
 31
0.0
  0
LINE
  5
173A
330
16B7
100
AcDbEntity
  8
C6
  6
HIDDEN2
 62
     4
100
AcDbLine
 10
6.34657461197662
 20
128.6550888579549
 30
0.0
 11
6.334546965818617
 21
127.6550888579549
 31
0.0
  0
LINE
  5
173B
330
16B7
100
AcDbEntity
  8
C6
  6
HIDDEN2
 62
     4
100
AcDbLine
 10
1.692120119899982
 20
134.9429288924548
 30
0.0
 11
5.789249317827625
 21
136.8159022400955
 31
0.0
  0
ARC
  5
173C
330
16B7
100
AcDbEntity
  8
C6
  6
HIDDEN2
 62
     4
100
AcDbCircle
 10
1.90000000000009
 20
134.4881916546548
 30
0.0
 40
0.5
100
AcDbArc
 50
114.5671713205982
 51
180.0
  0
ARC
  5
173D
330
16B7
100
AcDbEntity
  8
C6
  6
HIDDEN2
 62
     4
100
AcDbCircle
 10
7.690936891977116
 20
135.3872792342899
 30
0.0
 40
0.2
100
AcDbArc
 50
163.610459667215
 51
265.8398945314754
  0
ARC
  5
173E
330
16B7
100
AcDbEntity
  8
C6
  6
HIDDEN2
 62
     4
100
AcDbCircle
 10
7.690936891977116
 20
135.3872792342899
 30
0.0
 40
0.3
100
AcDbArc
 50
163.610459667215
 51
265.8398945314754
  0
ARC
  5
173F
330
16B7
100
AcDbEntity
  8
C6
  6
HIDDEN2
 62
     4
100
AcDbCircle
 10
7.584585751137637
 20
133.489995440377
 30
0.0
 40
0.3
100
AcDbArc
 50
85.83989453139714
 51
183.7439173454093
  0
ARC
  5
1740
330
16B7
100
AcDbEntity
  8
C6
  6
HIDDEN2
 62
     4
100
AcDbCircle
 10
235.4971483956167
 20
148.4038745074206
 30
0.0
 40
230.0
100
AcDbArc
 50
182.8879265935731
 51
183.7839798633352
  0
ARC
  5
1741
330
16B7
100
AcDbEntity
  8
C6
  6
HIDDEN2
 62
     4
100
AcDbCircle
 10
8.122862907239323
 20
138.9822331040572
 30
0.0
 40
0.4
100
AcDbArc
 50
343.610459667215
 51
114.5671713203833
  0
ARC
  5
1742
330
16B7
100
AcDbEntity
  8
C6
  6
HIDDEN2
 62
     4
100
AcDbCircle
 10
8.122862907239323
 20
138.9822331040572
 30
0.0
 40
0.3
100
AcDbArc
 50
343.610459667215
 51
114.5671713203833
  0
LINE
  5
1743
330
16B7
100
AcDbEntity
  8
C6
  6
HIDDEN2
 62
     4
100
AcDbLine
 10
25.48978896911239
 20
133.3136844385355
 30
0.0
 11
23.72869853280008
 21
125.6925159264549
 31
0.0
  0
ARC
  5
1744
330
16B7
100
AcDbEntity
  8
C6
  6
HIDDEN2
 62
     4
100
AcDbCircle
 10
21.15694488070016
 20
127.1050888579547
 30
0.0
 40
0.5
100
AcDbArc
 50
159.4667908809965
 51
270.0
  0
LINE
  5
1745
330
16B7
100
AcDbEntity
  8
C6
  6
HIDDEN2
 62
     4
100
AcDbLine
 10
18.81360802850008
 20
125.9804639707549
 30
0.0
 11
20.11473199270017
 21
129.4543386324549
 31
0.0
  0
ARC
  5
1746
330
16B7
100
AcDbEntity
  8
C6
  6
HIDDEN2
 62
     4
100
AcDbCircle
 10
22.20768147669991
 20
127.1050888579547
 30
0.0
 40
0.5
100
AcDbArc
 50
270.0
 51
346.9885444269018
  0
LINE
  5
1747
330
16B7
100
AcDbEntity
  8
C6
  6
HIDDEN2
 62
     4
100
AcDbLine
 10
23.2415359982001
 20
125.3050888579548
 30
0.0
 11
19.28184255290011
 21
125.3050888579548
 31
0.0
  0
ARC
  5
1748
330
16B7
100
AcDbEntity
  8
C6
  6
HIDDEN2
 62
     4
100
AcDbCircle
 10
19.28184255290011
 20
125.8050888579548
 30
0.0
 40
0.5
100
AcDbArc
 50
159.4667908809965
 51
270.0
  0
ARC
  5
1749
330
16B7
100
AcDbEntity
  8
C6
  6
HIDDEN2
 62
     4
100
AcDbCircle
 10
23.2415359982001
 20
125.8050888579548
 30
0.0
 40
0.5
100
AcDbArc
 50
270.0
 51
346.9885444269018
  0
LINE
  5
174A
330
16B7
100
AcDbEntity
  8
C6
  6
HIDDEN2
 62
     4
100
AcDbLine
 10
22.20768147669991
 20
126.6050888579548
 30
0.0
 11
21.15694488070016
 21
126.6050888579548
 31
0.0
  0
ARC
  5
174B
330
16B7
100
AcDbEntity
  8
C6
  6
HIDDEN2
 62
     4
100
AcDbCircle
 10
23.37142119860004
 20
132.1412053126548
 30
0.0
 40
0.5
100
AcDbArc
 50
346.9885444269018
 51
85.8398945316061
  0
ARC
  5
174C
330
16B7
100
AcDbEntity
  8
C6
  6
HIDDEN2
 62
     4
100
AcDbCircle
 10
19.17826294400015
 20
129.8050888579548
 30
0.0
 40
2.299999999999999
100
AcDbArc
 50
339.466798025397
 51
90.00000290150941
  0
LINE
  5
174D
330
16B7
100
AcDbEntity
  8
C6
  6
HIDDEN2
 62
     4
100
AcDbLine
 10
19.17826282750002
 20
132.1050888579547
 30
0.0
 11
19.48542267600009
 21
132.9251758321549
 31
0.0
  0
LINE
  5
174E
330
16B7
100
AcDbEntity
  8
C6
  6
HIDDEN2
 62
     4
100
AcDbLine
 10
17.78433254760011
 20
132.0897715100547
 30
0.0
 11
18.1340446434001
 21
133.023468853155
 31
0.0
  0
LINE
  5
174F
330
16B7
100
AcDbEntity
  8
C6
  6
HIDDEN2
 62
     4
100
AcDbLine
 10
20.68871035630013
 20
127.2804639707549
 30
0.0
 11
21.3321417561001
 21
128.9983633392548
 31
0.0
  0
ARC
  5
1750
330
16B7
100
AcDbEntity
  8
C6
  6
HIDDEN2
 62
     4
100
AcDbCircle
 10
19.17826294400015
 20
129.8050888579548
 30
0.0
 40
1.0
100
AcDbArc
 50
339.4667908809965
 51
90.0
  0
LINE
  5
1751
330
16B7
100
AcDbEntity
  8
C6
  6
HIDDEN2
 62
     4
100
AcDbLine
 10
19.17826294400015
 20
130.8050888579548
 30
0.0
 11
18.31064954919997
 21
130.8050888579548
 31
0.0
  0
LINE
  5
1752
330
16B7
100
AcDbEntity
  8
C6
  6
HIDDEN2
 62
     4
100
AcDbLine
 10
23.85858373309997
 20
132.0286323811549
 30
0.0
 11
22.69484401130012
 21
126.9925159264548
 31
0.0
  0
LINE
  5
1753
330
16B7
100
AcDbEntity
  8
C6
  6
HIDDEN2
 62
     4
100
AcDbLine
 10
19.48542267600009
 20
132.9251758321549
 30
0.0
 11
23.4076930778001
 21
132.6398879279549
 31
0.0
  0
ARC
  5
1754
330
16B7
100
AcDbEntity
  8
C6
  6
HIDDEN2
 62
     4
100
AcDbCircle
 10
25.00262643452902
 20
133.4262573699993
 30
0.0
 40
0.5
100
AcDbArc
 50
346.988544427066
 51
85.83989453148857
  0
ARC
  5
1755
330
16B7
100
AcDbEntity
  8
C6
  6
HIDDEN2
 62
     4
100
AcDbCircle
 10
24.97984048750004
 20
133.3276505419548
 30
0.0
 40
0.5
100
AcDbArc
 50
346.9885444269018
 51
85.8398945316061
  0
LINE
  5
1756
330
16B7
100
AcDbEntity
  8
C6
  6
HIDDEN2
 62
     4
100
AcDbLine
 10
19.38500438411233
 20
129.4542415819716
 30
0.0
 11
20.84437733473441
 21
129.4542153244305
 31
0.0
  0
LINE
  5
1757
330
16B7
100
AcDbEntity
  8
C6
  6
HIDDEN2
 62
     4
100
AcDbLine
 10
20.11469085918724
 20
130.1839017999777
 30
0.0
 11
20.11469085918724
 21
128.7245288488832
 31
0.0
  0
CIRCLE
  5
1758
330
16B7
100
AcDbEntity
  8
C6
  6
HIDDEN2
 62
     4
100
AcDbCircle
 10
20.11469085918724
 20
129.4542153244305
 30
0.0
 40
0.7296864755473437
  0
INSERT
  5
1759
330
16B7
100
AcDbEntity
  8
C6
  6
HIDDEN2
 62
     4
100
AcDbBlockReference
  2
20061005_10361524
 10
2.122862907239323
 20
113.3822331040572
 30
0.0
  0
INSERT
  5
175A
330
16B7
100
AcDbEntity
  8
C6
  6
HIDDEN2
 62
     4
100
AcDbBlockReference
  2
20061005_10361524
 10
2.122862907239323
 20
133.3822331040572
 30
0.0
  0
ARC
  5
175B
330
16B7
100
AcDbEntity
  8
C6
  6
HIDDEN2
 62
     4
100
AcDbCircle
 10
77.16666013683994
 20
112.6290338327735
 30
0.0
 40
37.9999999621277
100
AcDbArc
 50
211.75333043763
 51
322.9461836114471
  0
ARC
  5
175C
330
16B7
100
AcDbEntity
  8
C6
  6
HIDDEN2
 62
     4
100
AcDbCircle
 10
71.86003973683978
 20
93.34588673277341
 30
0.0
 40
38.00000003265383
100
AcDbArc
 50
204.8282500950444
 51
254.613376495784
  0
ARC
  5
175D
330
16B7
100
AcDbEntity
  8
C6
  6
HIDDEN2
 62
     4
100
AcDbCircle
 10
71.86003973683978
 20
93.34588673277341
 30
0.0
 40
33.00000000072407
100
AcDbArc
 50
203.3137343321929
 51
254.6133765798005
  0
ARC
  5
175E
330
16B7
100
AcDbEntity
  8
C6
  6
HIDDEN2
 62
     4
100
AcDbCircle
 10
77.16666013683994
 20
112.6290338327735
 30
0.0
 40
42.99999998695902
100
AcDbArc
 50
211.7533237086979
 51
305.7172656493564
  0
ARC
  5
175F
330
16B7
100
AcDbEntity
  8
C6
  6
HIDDEN2
 62
     4
100
AcDbCircle
 10
19.01664493683983
 20
103.3790924327734
 30
0.0
 40
6.750000000000017
100
AcDbArc
 50
90.0
 51
269.9999940582117
  0
ARC
  5
1760
330
16B7
100
AcDbEntity
  8
C6
  6
HIDDEN2
 62
     4
100
AcDbCircle
 10
21.69000368524325
 20
92.62909243277347
 30
0.0
 40
4.000000020652752
100
AcDbArc
 50
330.2159705597514
 51
90.0000243506963
  0
LINE
  5
1761
330
16B7
100
AcDbEntity
  8
C6
  6
HIDDEN2
 62
     4
100
AcDbLine
 10
40.13262103683973
 20
100.2604086327733
 30
0.0
 11
44.85443563683975
 21
92.63103033277326
 31
0.0
  0
LINE
  5
1762
330
16B7
100
AcDbEntity
  8
C6
  6
HIDDEN2
 62
     4
100
AcDbLine
 10
25.26665003683979
 20
78.54990201349124
 30
0.0
 11
35.55721753357374
 21
78.54990201349124
 31
0.0
  0
LINE
  5
1763
330
16B7
100
AcDbEntity
  8
C6
  6
HIDDEN2
 62
     4
100
AcDbLine
 10
29.58743723683983
 20
95.42062373277355
 30
0.0
 11
37.28768591651101
 21
77.55263785889366
 31
0.0
  0
LINE
  5
1764
330
16B7
100
AcDbEntity
  8
C6
  6
HIDDEN2
 62
     4
100
AcDbLine
 10
25.1616194855967
 20
90.64216417539757
 30
0.0
 11
21.84326078556728
 21
84.61881622975813
 31
0.0
  0
ARC
  5
1765
330
16B7
100
AcDbEntity
  8
C6
  6
HIDDEN2
 62
     4
100
AcDbCircle
 10
25.26665003683979
 20
82.54990201349125
 30
0.0
 40
4.0
100
AcDbArc
 50
148.8534686845234
 51
270.0
  0
LINE
  5
1766
330
16B7
100
AcDbEntity
  8
C6
  6
HIDDEN2
 62
     4
100
AcDbLine
 10
19.01664423683973
 20
96.62909243277347
 30
0.0
 11
27.75073423683989
 21
96.62909243277347
 31
0.0
  0
ARC
  5
1767
330
16B7
100
AcDbEntity
  8
C6
  6
HIDDEN2
 62
     4
100
AcDbCircle
 10
27.75073423683989
 20
94.62909243277346
 30
0.0
 40
1.999999992827478
100
AcDbArc
 50
23.31381865122899
 51
90.00001718873447
  0
LINE
  5
1768
330
16B7
100
AcDbEntity
  8
C6
  6
HIDDEN2
 62
     4
100
AcDbLine
 10
35.31506263683991
 20
94.76373613277344
 30
0.0
 11
41.55443913683984
 21
80.28562043277345
 31
0.0
  0
ARC
  5
1769
330
16B7
100
AcDbEntity
  8
C6
  6
HIDDEN2
 62
     4
100
AcDbCircle
 10
35.55721753357374
 20
76.54990201349125
 30
0.0
 40
2.0
100
AcDbArc
 50
24.82825009504445
 51
90.0
  0
LINE
  5
176A
330
16B7
100
AcDbEntity
  8
C6
  6
HIDDEN2
 62
     4
100
AcDbLine
 10
37.08373593683973
 20
95.68576503277341
 30
0.0
 11
40.60282713683977
 21
89.99971403277328
 31
0.0
  0
ARC
  5
176B
330
16B7
100
AcDbEntity
  8
C6
  6
HIDDEN2
 62
     4
100
AcDbCircle
 10
36.23341423683973
 20
95.15950173277344
 30
0.0
 40
1.000000031445915
100
AcDbArc
 50
31.75332601790613
 51
203.3137302472848
  0
CIRCLE
  5
176C
330
16B7
100
AcDbEntity
  8
C6
  6
HIDDEN2
 62
     4
100
AcDbCircle
 10
20.11469085918656
 20
109.4542153244306
 30
0.0
 40
0.7788173943287319
  0
LINE
  5
176D
330
16B7
100
AcDbEntity
  8
C6
  6
HIDDEN2
 62
     4
100
AcDbLine
 10
20.11469085918656
 20
110.2330327187592
 30
0.0
 11
20.11469085918656
 21
108.6753979301018
 31
0.0
  0
LINE
  5
176E
330
16B7
100
AcDbEntity
  8
C6
  6
HIDDEN2
 62
     4
100
AcDbLine
 10
20.44814443683981
 20
102.6290924327734
 30
0.0
 11
35.88101253683976
 21
102.6290924327734
 31
0.0
  0
LINE
  5
176F
330
16B7
100
AcDbEntity
  8
C6
  6
HIDDEN2
 62
     4
100
AcDbLine
 10
20.11469083683982
 20
109.4542153327734
 30
0.0
 11
18.57446143683978
 21
105.3286007327733
 31
0.0
  0
ARC
  5
1770
330
16B7
100
AcDbEntity
  8
C6
  6
HIDDEN2
 62
     4
100
AcDbCircle
 10
20.44814443683981
 20
104.6290924327734
 30
0.0
 40
2.000000004515706
100
AcDbArc
 50
159.5277337563923
 51
269.9999713521005
  0
ARC
  5
1771
330
16B7
100
AcDbEntity
  8
C6
  6
HIDDEN2
 62
     4
100
AcDbCircle
 10
19.6462701368398
 20
109.6290924327734
 30
0.0
 40
0.4999999761464608
100
AcDbArc
 50
339.5277163292235
 51
90.0
  0
LINE
  5
1772
330
16B7
100
AcDbEntity
  8
C6
  6
HIDDEN2
 62
     4
100
AcDbLine
 10
19.6462701368398
 20
110.1290924327734
 30
0.0
 11
19.01664493683983
 21
110.1290924327734
 31
0.0
  0
ARC
  5
1773
330
16B7
100
AcDbEntity
  8
C6
  6
HIDDEN2
 62
     4
100
AcDbCircle
 10
35.88101253683976
 20
97.62909243277347
 30
0.0
 40
4.999999978972496
100
AcDbArc
 50
31.75332054288022
 51
89.999995416334
  0
LINE
  5
1774
330
16B7
100
AcDbEntity
  8
C6
  6
HIDDEN2
 62
     4
100
AcDbLine
 10
19.33587346485796
 20
109.4542153244306
 30
0.0
 11
20.89350825351562
 21
109.4542153244306
 31
0.0
  0
LINE
  5
1775
330
16B7
100
AcDbEntity
  8
C6
  6
HIDDEN2
 62
     4
100
AcDbLine
 10
149.8666500368399
 20
62.62887253277341
 30
0.0
 11
149.8666500368399
 21
36.12887253277341
 31
0.0
  0
LINE
  5
1776
330
16B7
100
AcDbEntity
  8
C6
  6
HIDDEN2
 62
     4
100
AcDbLine
 10
152.8666500368399
 20
35.62887253277341
 30
0.0
 11
152.8666500368399
 21
59.62896963277358
 31
0.0
  0
LINE
  5
1777
330
16B7
100
AcDbEntity
  8
C6
  6
HIDDEN2
 62
     4
100
AcDbLine
 10
147.4775431368398
 20
52.16606483277343
 30
0.0
 11
149.8666500368399
 21
43.62887253277341
 31
0.0
  0
LINE
  5
1778
330
16B7
100
AcDbEntity
  8
C6
  6
HIDDEN2
 62
     4
100
AcDbLine
 10
156.8665688368398
 20
37.62887253277341
 30
0.0
 11
156.8665688368398
 21
123.6289725327733
 31
0.0
  0
LINE
  5
1779
330
16B7
100
AcDbEntity
  8
C6
  6
HIDDEN2
 62
     4
100
AcDbLine
 10
156.8665688368398
 20
37.62887253277341
 30
0.0
 11
152.8666500368399
 21
35.62887253277341
 31
0.0
  0
ARC
  5
177A
330
16B7
100
AcDbEntity
  8
C6
  6
HIDDEN2
 62
     4
100
AcDbCircle
 10
150.3666500368399
 20
36.12887253277341
 30
0.0
 40
0.5
100
AcDbArc
 50
180.0
 51
270.0
  0
LINE
  5
177B
330
16B7
100
AcDbEntity
  8
C6
  6
HIDDEN2
 62
     4
100
AcDbLine
 10
152.8666500368399
 20
35.62887253277341
 30
0.0
 11
150.3666500368399
 21
35.62887253277341
 31
0.0
  0
LINE
  5
177C
330
16B7
100
AcDbEntity
  8
C6
  6
HIDDEN2
 62
     4
100
AcDbLine
 10
108.2953493368397
 20
59.62898653277358
 30
0.0
 11
115.9948645368397
 21
60.56631883277356
 31
0.0
  0
LINE
  5
177D
330
16B7
100
AcDbEntity
  8
C6
  6
HIDDEN2
 62
     4
100
AcDbLine
 10
103.6157528368398
 20
77.55207023277359
 30
0.0
 11
116.6365307368398
 21
62.20596273277357
 31
0.0
  0
ARC
  5
177E
330
16B7
100
AcDbEntity
  8
C6
  6
HIDDEN2
 62
     4
100
AcDbCircle
 10
139.4161111368398
 20
65.62897223277338
 30
0.0
 40
35.00000002024044
100
AcDbArc
 50
90.00000049109962
 51
142.9461834702693
  0
ARC
  5
177F
330
16B7
100
AcDbEntity
  8
C6
  6
HIDDEN2
 62
     4
100
AcDbCircle
 10
139.4161111368398
 20
65.62897223277338
 30
0.0
 40
39.99999998020622
100
AcDbArc
 50
90.00000042971381
 51
142.9461835312803
  0
LINE
  5
1780
330
16B7
100
AcDbEntity
  8
C6
  6
HIDDEN2
 62
     4
100
AcDbLine
 10
107.4310064368398
 20
80.7837659327734
 30
0.0
 11
120.6472581368398
 21
65.20727573277333
 31
0.0
  0
LINE
  5
1781
330
16B7
100
AcDbEntity
  8
C6
  6
HIDDEN2
 62
     4
100
AcDbLine
 10
112.7359880368396
 20
54.62897973277342
 30
0.0
 11
133.4707846368398
 21
57.15321583277347
 31
0.0
  0
LINE
  5
1782
330
16B7
100
AcDbEntity
  8
C6
  6
HIDDEN2
 62
     4
100
AcDbLine
 10
112.7359880368396
 20
54.62897973277342
 30
0.0
 11
77.16657193683977
 21
54.62903383277359
 31
0.0
  0
LINE
  5
1783
330
16B7
100
AcDbEntity
  8
C6
  6
HIDDEN2
 62
     4
100
AcDbLine
 10
108.2953493368397
 20
59.62898653277358
 30
0.0
 11
77.16657953683989
 21
59.62903383277359
 31
0.0
  0
ARC
  5
1784
330
16B7
100
AcDbEntity
  8
C6
  6
HIDDEN2
 62
     4
100
AcDbCircle
 10
77.16666013683994
 20
112.6290338327735
 30
0.0
 40
52.99999999017543
100
AcDbArc
 50
254.6133765186053
 51
269.9999128671727
  0
ARC
  5
1785
330
16B7
100
AcDbEntity
  8
C6
  6
HIDDEN2
 62
     4
100
AcDbCircle
 10
77.16666013683994
 20
112.6290338327735
 30
0.0
 40
57.9999999946558
100
AcDbArc
 50
254.6133765640864
 51
269.9999140563276
  0
ARC
  5
1786
330
16B7
100
AcDbEntity
  8
C6
  6
HIDDEN2
 62
     4
100
AcDbCircle
 10
77.16666013683994
 20
112.6290338327735
 30
0.0
 40
43.0000000024102
100
AcDbArc
 50
314.8421450374817
 51
322.946183545423
  0
ARC
  5
1787
330
16B7
100
AcDbEntity
  8
C6
  6
HIDDEN2
 62
     4
100
AcDbCircle
 10
77.16666013683994
 20
112.6290338327735
 30
0.0
 40
43.00000000068138
100
AcDbArc
 50
305.7172656493564
 51
314.8421456027887
  0
ARC
  5
1788
330
16B7
100
AcDbEntity
  8
C6
  6
HIDDEN2
 62
     4
100
AcDbCircle
 10
102.8532397368399
 20
76.9050974327734
 30
0.0
 40
1.000000030492406
100
AcDbArc
 50
40.31375012251339
 51
125.7172637824653
  0
ARC
  5
1789
330
16B7
100
AcDbEntity
  8
C6
  6
HIDDEN2
 62
     4
100
AcDbCircle
 10
108.1935223368398
 20
81.43073543277347
 30
0.0
 40
1.000000010170451
100
AcDbArc
 50
134.8421239329905
 51
220.3135021568683
  0
ARC
  5
178A
330
16B7
100
AcDbEntity
  8
C6
  6
HIDDEN2
 62
     4
100
AcDbCircle
 10
143.2383187368398
 20
95.62897223277337
 30
0.0
 40
4.999999968791364
100
AcDbArc
 50
2.816868130603418
 51
90.0
  0
LINE
  5
178B
330
16B7
100
AcDbEntity
  8
C6
  6
HIDDEN2
 62
     4
100
AcDbLine
 10
149.8666500368399
 20
62.62887253277341
 30
0.0
 11
146.9605812368397
 21
121.7204581327733
 31
0.0
  0
LINE
  5
178C
330
16B7
100
AcDbEntity
  8
C6
  6
HIDDEN2
 62
     4
100
AcDbLine
 10
151.8690839368398
 20
62.6576416327735
 30
0.0
 11
148.8690956368398
 21
123.6289725327733
 31
0.0
  0
ARC
  5
178D
330
16B7
100
AcDbEntity
  8
C6
  6
HIDDEN2
 62
     4
100
AcDbCircle
 10
143.4234873368398
 20
91.85106183277326
 30
0.0
 40
4.999999990175512
100
AcDbArc
 50
274.8740065102774
 51
2.81548444734493
  0
ARC
  5
178E
330
16B7
100
AcDbEntity
  8
C6
  6
HIDDEN2
 62
     4
100
AcDbCircle
 10
146.1253347368397
 20
77.62897253277339
 30
0.0
 40
3.000000001513865
100
AcDbArc
 50
2.81548444734493
 51
90.0
  0
LINE
  5
178F
330
16B7
100
AcDbEntity
  8
C6
  6
HIDDEN2
 62
     4
100
AcDbLine
 10
148.6107423368398
 20
80.62897253277339
 30
0.0
 11
145.8127500368398
 21
80.62897253277339
 31
0.0
  0
ARC
  5
1790
330
16B7
100
AcDbEntity
  8
C6
  6
HIDDEN2
 62
     4
100
AcDbCircle
 10
148.3665500368397
 20
75.18570403277346
 30
0.0
 40
2.999999998074809
100
AcDbArc
 50
180.0
 51
233.4253702037183
  0
LINE
  5
1791
330
16B7
100
AcDbEntity
  8
C6
  6
HIDDEN2
 62
     4
100
AcDbLine
 10
161.8665688368398
 20
80.62897253277339
 30
0.0
 11
141.8665688368398
 21
80.62897253277339
 31
0.0
  0
LINE
  5
1792
330
16B7
100
AcDbEntity
  8
C6
  6
HIDDEN2
 62
     4
100
AcDbLine
 10
131.7026852368399
 20
77.26279033277347
 30
0.0
 11
126.6280838368397
 21
62.58539913277338
 31
0.0
  0
LINE
  5
1793
330
16B7
100
AcDbEntity
  8
C6
  6
HIDDEN2
 62
     4
100
AcDbLine
 10
127.1806215368399
 20
79.48510063277359
 30
0.0
 11
122.3548769368396
 21
65.52748373277342
 31
0.0
  0
LINE
  5
1794
330
16B7
100
AcDbEntity
  8
C6
  6
HIDDEN2
 62
     4
100
AcDbLine
 10
127.1610603368396
 20
61.92568173277329
 30
0.0
 11
137.3061265368398
 21
63.16073333277341
 31
0.0
  0
ARC
  5
1795
330
16B7
100
AcDbEntity
  8
C6
  6
HIDDEN2
 62
     4
100
AcDbCircle
 10
127.1006368368398
 20
62.42201733277358
 30
0.0
 40
0.4999999887799412
100
AcDbArc
 50
160.927541585394
 51
276.9409874842263
  0
LINE
  5
1796
330
16B7
100
AcDbEntity
  8
C6
  6
HIDDEN2
 62
     4
100
AcDbLine
 10
122.3548769368396
 20
65.52748373277342
 30
0.0
 11
120.8436788368396
 21
61.15660923277352
 31
0.0
  0
ARC
  5
1797
330
16B7
100
AcDbEntity
  8
C6
  6
HIDDEN2
 62
     4
100
AcDbCircle
 10
115.8740176368398
 20
61.55898993277339
 30
0.0
 40
0.99999999753361
100
AcDbArc
 50
276.9409995518147
 51
40.31375012251339
  0
LINE
  5
1798
330
16B7
100
AcDbEntity
  8
C6
  6
HIDDEN2
 62
     4
100
AcDbLine
 10
115.9948648368397
 20
60.56631883277356
 30
0.0
 11
120.8436788368396
 21
61.15660923277352
 31
0.0
  0
LINE
  5
1799
330
16B7
100
AcDbEntity
  8
C6
  6
HIDDEN2
 62
     4
100
AcDbLine
 10
126.60063684806
 20
62.42201733277358
 30
0.0
 11
126.6006368480598
 21
56.31685001760212
 31
0.0
  0
ARC
  5
179A
330
16B7
100
AcDbEntity
  8
C6
  6
HIDDEN2
 62
     4
100
AcDbCircle
 10
121.4097712368397
 20
65.85424853277351
 30
0.0
 40
1.000000012575719
100
AcDbArc
 50
220.3137501225134
 51
340.9274709880259
  0
LINE
  5
179B
330
16B7
100
AcDbEntity
  8
C6
  6
HIDDEN2
 62
     4
100
AcDbLine
 10
137.8665500368399
 20
62.66439773277358
 30
0.0
 11
137.8665500368399
 21
62.11657163277329
 31
0.0
  0
ARC
  5
179C
330
16B7
100
AcDbEntity
  8
C6
  6
HIDDEN2
 62
     4
100
AcDbCircle
 10
132.8665500368399
 20
62.11657163277329
 30
0.0
 40
5.000000012461504
100
AcDbArc
 50
276.9409832111385
 51
0.0
  0
ARC
  5
179D
330
16B7
100
AcDbEntity
  8
C6
  6
HIDDEN2
 62
     4
100
AcDbCircle
 10
137.3665500368399
 20
62.66439773277358
 30
0.0
 40
0.4999999760409623
100
AcDbArc
 50
0.0
 51
96.94101161939048
  0
ARC
  5
179E
330
16B7
100
AcDbEntity
  8
C6
  6
HIDDEN2
 62
     4
100
AcDbCircle
 10
136.6316827368398
 20
76.21746493277356
 30
0.0
 40
9.99999999715634
100
AcDbArc
 50
94.87400651027749
 51
160.9275454565727
  0
LINE
  5
179F
330
16B7
100
AcDbEntity
  8
C6
  6
HIDDEN2
 62
     4
100
AcDbLine
 10
146.1253347368397
 20
80.62897253277339
 30
0.0
 11
136.4282170368398
 21
80.62897253277339
 31
0.0
  0
ARC
  5
17A0
330
16B7
100
AcDbEntity
  8
C6
  6
HIDDEN2
 62
     4
100
AcDbCircle
 10
136.4282157368397
 20
75.62897253277339
 30
0.0
 40
4.999999978876629
100
AcDbArc
 50
89.99998510309854
 51
160.9275300466875
  0
LINE
  5
17A1
330
16B7
100
AcDbEntity
  8
C6
  6
HIDDEN2
 62
     4
100
AcDbLine
 10
145.3665500368397
 20
77.62897253277339
 30
0.0
 11
145.3665500368397
 21
75.18570403277346
 31
0.0
  0
ARC
  5
17A2
330
16B7
100
AcDbEntity
  8
C6
  6
HIDDEN2
 62
     4
100
AcDbCircle
 10
142.3665500368397
 20
77.62897253277339
 30
0.0
 40
3.0
100
AcDbArc
 50
0.0
 51
90.0
  0
LINE
  5
17A3
330
16B7
100
AcDbEntity
  8
C6
  6
HIDDEN2
 62
     4
100
AcDbLine
 10
143.8483118368399
 20
86.86914213277356
 30
0.0
 11
135.7820337368398
 21
86.18130433277343
 31
0.0
  0
LINE
  5
17A4
330
16B7
100
AcDbEntity
  8
C6
  6
HIDDEN2
 62
     4
100
AcDbLine
 10
156.8665688368398
 20
63.62898523277346
 30
0.0
 11
153.8666500368399
 21
61.8289696327734
 31
0.0
  0
LINE
  5
17A5
330
16B7
100
AcDbEntity
  8
C6
  6
HIDDEN2
 62
     4
100
AcDbLine
 10
151.8666500368399
 20
62.69856003277351
 30
0.0
 11
151.8666500368399
 21
59.62896963277358
 31
0.0
  0
LINE
  5
17A6
330
16B7
100
AcDbEntity
  8
C6
  6
HIDDEN2
 62
     4
100
AcDbLine
 10
149.8666500368399
 20
62.62887253277341
 30
0.0
 11
148.0619036368398
 21
60.46321683277352
 31
0.0
  0
LINE
  5
17A7
330
16B7
100
AcDbEntity
  8
C6
  6
HIDDEN2
 62
     4
100
AcDbLine
 10
151.8666500368399
 20
59.62896963277358
 30
0.0
 11
153.8666500368399
 21
59.62896963277358
 31
0.0
  0
LINE
  5
17A8
330
16B7
100
AcDbEntity
  8
C6
  6
HIDDEN2
 62
     4
100
AcDbLine
 10
153.8666500368399
 20
61.8289696327734
 30
0.0
 11
153.8666500368399
 21
59.62896963277358
 31
0.0
  0
LINE
  5
17A9
330
16B7
100
AcDbEntity
  8
C6
  6
HIDDEN2
 62
     4
100
AcDbLine
 10
147.3665500368397
 20
58.54264273277346
 30
0.0
 11
147.3665500368397
 21
52.97454443277326
 31
0.0
  0
LINE
  5
17AA
330
16B7
100
AcDbEntity
  8
C6
  6
HIDDEN2
 62
     4
100
AcDbLine
 10
147.4775431368398
 20
52.16606483277343
 30
0.0
 11
147.4775430684633
 21
52.16606511788388
 31
0.0
  0
LINE
  5
17AB
330
16B7
100
AcDbEntity
  8
C6
  6
HIDDEN2
 62
     4
100
AcDbLine
 10
147.3665500368397
 20
52.97428766066428
 30
0.0
 11
147.3665500368397
 21
52.97454443277326
 31
0.0
  0
ARC
  5
17AC
330
16B7
100
AcDbEntity
  8
C6
  6
HIDDEN2
 62
     4
100
AcDbCircle
 10
150.3665500368397
 20
52.97454443277326
 30
0.0
 40
3.000000010988652
100
AcDbArc
 50
180.0
 51
195.6341114152922
  0
ARC
  5
17AD
330
16B7
100
AcDbEntity
  8
C6
  6
HIDDEN2
 62
     4
100
AcDbCircle
 10
150.3665500368397
 20
58.54264273277346
 30
0.0
 40
2.999999991885308
100
AcDbArc
 50
140.1939090317853
 51
180.0
  0
LINE
  5
17AE
330
16B7
100
AcDbEntity
  8
C6
  6
HIDDEN2
 62
     4
100
AcDbLine
 10
149.8666500368399
 20
61.62896963277359
 30
0.0
 11
151.8666500368399
 21
59.62896963277358
 31
0.0
  0
LINE
  5
17AF
330
16B7
100
AcDbEntity
  8
C6
  6
HIDDEN2
 62
     4
100
AcDbLine
 10
146.5789420368398
 20
72.77645983277358
 30
0.0
 11
149.4732126368399
 21
70.62897253277339
 31
0.0
  0
LINE
  5
17B0
330
16B7
100
AcDbEntity
  8
C6
  6
HIDDEN2
 62
     4
100
AcDbLine
 10
139.4161108368398
 20
105.6289725327733
 30
0.0
 11
147.7523348368397
 21
105.6289725327733
 31
0.0
  0
LINE
  5
17B1
330
16B7
100
AcDbEntity
  8
C6
  6
HIDDEN2
 62
     4
100
AcDbLine
 10
146.9605812368397
 20
121.7204581327733
 30
0.0
 11
132.9542587368398
 21
106.1213725327734
 31
0.0
  0
LINE
  5
17B2
330
16B7
100
AcDbEntity
  8
C6
  6
HIDDEN2
 62
     4
100
AcDbLine
 10
161.8665688368398
 20
113.6289725327733
 30
0.0
 11
141.3665688368398
 21
113.6289725327733
 31
0.0
  0
LINE
  5
17B3
330
16B7
100
AcDbEntity
  8
C6
  6
HIDDEN2
 62
     4
100
AcDbLine
 10
132.9542587368398
 20
106.1213725327734
 30
0.0
 11
131.8666490368398
 21
104.9100825327732
 31
0.0
  0
LINE
  5
17B4
330
16B7
100
AcDbEntity
  8
C6
  6
HIDDEN2
 62
     4
100
AcDbLine
 10
139.4161108368398
 20
100.6289725327733
 30
0.0
 11
142.5520028368398
 21
100.6289725327733
 31
0.0
  0
LINE
  5
17B5
330
16B7
100
AcDbEntity
  8
C6
  6
HIDDEN2
 62
     4
100
AcDbLine
 10
139.4161108368398
 20
100.6289722327733
 30
0.0
 11
143.2383187368398
 21
100.6289722327733
 31
0.0
  0
LINE
  5
17B6
330
16B7
100
AcDbEntity
  8
C6
  6
HIDDEN2
 62
     4
100
AcDbLine
 10
148.8690956368398
 20
123.6289725327733
 30
0.0
 11
156.8666761368399
 21
123.6289725327733
 31
0.0
  0
LINE
  5
17B7
330
16B7
100
AcDbEntity
  8
C6
  6
HIDDEN2
 62
     4
100
AcDbLine
 10
146.9605812368397
 20
121.7204581327733
 30
0.0
 11
148.8690956368398
 21
123.6289725327733
 31
0.0
  0
ENDBLK
  5
17B9
330
16B7
100
AcDbEntity
  8
0
100
AcDbBlockEnd
  0
ENDSEC
  0
SECTION
  2
ENTITIES
  0
LINE
  5
1241
330
1A
100
AcDbEntity
  8
ZUWAKU
100
AcDbLine
 10
565.3122262555743
 20
31.60023820025321
 30
0.0
 11
684.7011075960359
 21
31.60023820025321
 31
0.0
  0
LINE
  5
1242
330
1A
100
AcDbEntity
  8
ZUWAKU
100
AcDbLine
 10
565.3122262555743
 20
31.80023820025321
 30
0.0
 11
684.7011075960359
 21
31.80023820025321
 31
0.0
  0
LINE
  5
1243
330
1A
100
AcDbEntity
  8
ZUWAKU
100
AcDbLine
 10
565.3122262555743
 20
31.70023820025321
 30
0.0
 11
684.7011075960359
 21
31.70023820025321
 31
0.0
  0
LINE
  5
1244
330
1A
100
AcDbEntity
  8
ZUWAKU
100
AcDbLine
 10
460.9889256105402
 20
39.4002382002532
 30
0.0
 11
859.6889256105402
 21
39.4002382002532
 31
0.0
  0
LINE
  5
1245
330
1A
100
AcDbEntity
  8
ZUWAKU
100
AcDbLine
 10
460.9889256105402
 20
39.30023820025319
 30
0.0
 11
859.6889256105402
 21
39.30023820025319
 31
0.0
  0
LINE
  5
1246
330
1A
100
AcDbEntity
  8
ZUWAKU
100
AcDbLine
 10
460.9889256105402
 20
39.20023820025319
 30
0.0
 11
859.6889256105402
 21
39.20023820025319
 31
0.0
  0
LINE
  5
1247
330
1A
100
AcDbEntity
  8
ZUWAKU
100
AcDbLine
 10
460.9889256105402
 20
39.10023820025319
 30
0.0
 11
859.6889256105402
 21
39.10023820025319
 31
0.0
  0
LINE
  5
1248
330
1A
100
AcDbEntity
  8
ZUWAKU
100
AcDbLine
 10
460.9889256105402
 20
39.00023820025319
 30
0.0
 11
859.6889256105402
 21
39.00023820025319
 31
0.0
  0
LWPOLYLINE
  5
1249
330
1A
100
AcDbEntity
  8
ZUWAKU
100
AcDbPolyline
 90
        4
 70
     1
 43
0.0
 10
461.0889256105402
 20
299.7002382002532
 10
461.0889256105402
 20
24.10023820025321
 10
859.6889256105402
 20
24.10023820025323
 10
859.6889256105402
 20
299.7002382002532
  0
LWPOLYLINE
  5
124A
330
1A
100
AcDbEntity
  8
ZUWAKU
100
AcDbPolyline
 90
        4
 70
     1
 43
0.0
 10
461.2889256105402
 20
299.5002382002532
 10
461.2889256105402
 20
24.3002382002532
 10
859.4889256105403
 20
24.30023820025322
 10
859.4889256105401
 20
299.5002382002532
  0
LWPOLYLINE
  5
124B
330
1A
100
AcDbEntity
  8
ZUWAKU
100
AcDbPolyline
 90
        4
 70
     1
 43
0.0
 10
460.9889256105402
 20
299.8002382002532
 10
460.9889256105402
 20
24.00023820025319
 10
859.7889256105403
 20
24.00023820025323
 10
859.7889256105403
 20
299.8002382002532
  0
LWPOLYLINE
  5
124C
330
1A
100
AcDbEntity
  8
ZUWAKU
100
AcDbPolyline
 90
        4
 70
     1
 43
0.0
 10
461.1889256105402
 20
299.6002382002532
 10
461.1889256105402
 20
24.20023820025324
 10
859.5889256105403
 20
24.20023820025322
 10
859.5889256105403
 20
299.6002382002532
  0
LWPOLYLINE
  5
124D
330
1A
100
AcDbEntity
  8
ZUWAKU
100
AcDbPolyline
 90
        4
 70
     1
 43
0.0
 10
461.3889256105402
 20
299.4002382002532
 10
461.3889256105402
 20
24.40023820025322
 10
859.3889256105402
 20
24.40023820025322
 10
859.3889256105402
 20
299.4002382002532
  0
LINE
  5
124E
330
1A
100
AcDbEntity
  8
SUNPOU
100
AcDbLine
 10
677.9305077492751
 20
183.3197623667093
 30
0.0
 11
607.5245528908299
 21
161.3609572892878
 31
0.0
  0
DIMENSION
  5
124F
330
1A
100
AcDbEntity
  8
SUNPOU
100
AcDbDimension
  2
*D2
 10
734.0236814788198
 20
246.5632670541177
 30
0.0
 11
661.4278681331793
 21
249.0632670541177
 31
0.0
 70
    32
  3
STANDARD
100
AcDbAlignedDimension
 13
588.8320547875389
 23
215.9223331169558
 33
0.0
 14
734.0236814788198
 24
174.224247835436
 34
0.0
100
AcDbRotatedDimension
1001
ACAD
1000
DSTYLE
1002
{
1070
   372
1070
    -1
1070
   371
1070
    -1
1070
    41
1040
3.0
1070
    42
1040
3.0
1070
    43
1040
7.0
1070
    44
1040
1.5
1070
    73
1070
     0
1070
    74
1070
     0
1070
    77
1070
     3
1070
   140
1040
3.0
1070
   141
1040
150.0
1070
   147
1040
1.0
1070
   172
1070
     1
1070
   173
1070
     1
1070
   176
1070
   256
1070
   177
1070
   256
1070
   178
1070
   256
1070
   271
1070
     0
1070
   272
1070
     2
1070
     6
1000
OPEN
1070
     7
1000
OPEN
1002
}
  0
DIMENSION
  5
1250
330
1A
100
AcDbEntity
  8
SUNPOU
100
AcDbDimension
  2
*D3
 10
551.7796089459038
 20
109.479852853908
 30
0.0
 11
549.2796089459038
 21
164.7034245692811
 31
0.0
 70
    32
  3
STANDARD
100
AcDbAlignedDimension
 13
596.8549176947781
 23
219.926996284654
 33
0.0
 14
681.656163447895
 24
109.479852853908
 34
0.0
 50
90.0
100
AcDbRotatedDimension
1001
ACAD
1000
DSTYLE
1002
{
1070
   372
1070
    -1
1070
   371
1070
    -1
1070
    41
1040
3.0
1070
    42
1040
3.0
1070
    43
1040
7.0
1070
    44
1040
1.5
1070
    73
1070
     0
1070
    74
1070
     0
1070
    77
1070
     3
1070
   140
1040
3.0
1070
   141
1040
150.0
1070
   147
1040
1.0
1070
   172
1070
     1
1070
   173
1070
     1
1070
   176
1070
   256
1070
   177
1070
   256
1070
   178
1070
   256
1070
   271
1070
     0
1070
   272
1070
     2
1070
     6
1000
OPEN
1070
     7
1000
OPEN
1002
}
  0
DIMENSION
  5
1251
330
1A
100
AcDbEntity
  8
SUNPOU
100
AcDbDimension
  2
*D4
 10
562.0742746508098
 20
109.4818212687757
 30
0.0
 11
559.5742746508099
 21
116.9775286839134
 31
0.0
 70
    32
  3
STANDARD
100
AcDbAlignedDimension
 13
619.3270546760592
 23
124.4732360990508
 33
0.0
 14
681.656163447895
 24
109.4818212687756
 34
0.0
 50
90.0
100
AcDbRotatedDimension
1001
ACAD
1000
DSTYLE
1002
{
1070
   372
1070
    -1
1070
   371
1070
    -1
1070
    41
1040
3.0
1070
    42
1040
3.0
1070
    43
1040
7.0
1070
    44
1040
1.5
1070
    73
1070
     0
1070
    74
1070
     0
1070
    77
1070
     3
1070
   140
1040
3.0
1070
   141
1040
150.0
1070
   147
1040
1.0
1070
   172
1070
     1
1070
   173
1070
     1
1070
   176
1070
   256
1070
   177
1070
   256
1070
   178
1070
   256
1070
   271
1070
     0
1070
   272
1070
     2
1070
     6
1000
OPEN
1070
     7
1000
OPEN
1002
}
  0
DIMENSION
  5
1252
330
1A
100
AcDbEntity
  8
SUNPOU
100
AcDbDimension
  2
*D5
 10
632.6551362629482
 20
90.24948373043299
 30
0.0
 11
681.6823482741817
 21
92.74948373043299
 31
0.0
 70
    32
  3
STANDARD
100
AcDbAlignedDimension
 13
730.7095602854153
 23
109.479852853908
 33
0.0
 14
632.6551362629482
 24
110.7804626024311
 34
0.0
100
AcDbRotatedDimension
1001
ACAD
1000
DSTYLE
1002
{
1070
   372
1070
    -1
1070
   371
1070
    -1
1070
    41
1040
3.0
1070
    42
1040
3.0
1070
    43
1040
7.0
1070
    44
1040
1.5
1070
    73
1070
     0
1070
    74
1070
     0
1070
    77
1070
     3
1070
   140
1040
3.0
1070
   141
1040
150.0
1070
   147
1040
1.0
1070
   172
1070
     1
1070
   173
1070
     1
1070
   176
1070
   256
1070
   177
1070
   256
1070
   178
1070
   256
1070
   271
1070
     0
1070
   272
1070
     2
1070
     6
1000
OPEN
1070
     7
1000
OPEN
1002
}
  0
ARC
  5
1253
330
1A
100
AcDbEntity
  8
SEIHIN
  6
CONTINUOUS
 62
     3
 48
0.5
100
AcDbCircle
 10
683.6407179495388
 20
1109.479852038551
 30
0.0
 40
998.7
100
AcDbArc
 50
267.204930311801
 51
272.440237703901
1001
ACAD
1000
ASC_BOUNDS
1002
{
1070
    19
1002
}
  0
ARC
  5
1254
330
1A
100
AcDbEntity
  8
SEIHIN
  6
CONTINUOUS
 62
     3
 48
0.5
100
AcDbCircle
 10
683.6407179495388
 20
1109.479852038551
 30
0.0
 40
1000.0
100
AcDbArc
 50
267.1989238835954
 51
272.4402377038945
  0
MTEXT
  5
1255
330
1A
100
AcDbEntity
  8
SUNPOU
  6
CONTINUOUS
 62
     4
100
AcDbMText
 10
640.3347140565358
 20
174.2128397151684
 30
0.0
 40
3.0
 41
0.0
 71
     5
 72
     5
  1
\A1;R230
 11
0.9546460365300692
 21
0.2977430854569584
 31
0.0
1001
ACAD
1000
MTEXTBEGIN
1070
    73
1070
     1
1070
    44
1040
1.0
1070
    74
1070
     0
1000
MTEXTEND
1000
MTEXTBEGIN
1070
    73
1070
     1
1070
    44
1040
1.0
1070
    74
1070
     0
1000
MTEXTEND
1000
MTEXTBEGIN
1070
    73
1070
     1
1070
    44
1040
1.0
1070
    74
1070
     0
1000
MTEXTEND
1000
MTEXTBEGIN
1070
    73
1070
     1
1070
    44
1040
1.0
1070
    74
1070
     0
1000
MTEXTEND
1000
MTEXTBEGIN
1070
    73
1070
     1
1070
    44
1040
1.0
1070
    74
1070
     0
1000
MTEXTEND
  0
ARC
  5
1256
330
1A
100
AcDbEntity
  8
SEIHIN
100
AcDbCircle
 10
824.2292031831555
 20
228.9486376880174
 30
0.0
 40
230.1
100
AcDbArc
 50
185.1735543155708
 51
206.8996058225306
  0
DIMENSION
  5
1257
330
1A
100
AcDbEntity
  8
SUNPOU
100
AcDbDimension
  2
*D6
 10
562.0742746508098
 20
124.4732360990508
 30
0.0
 11
559.5742746508099
 21
172.2001161918525
 31
0.0
 70
    32
  3
STANDARD
100
AcDbAlignedDimension
 13
596.8549176947781
 23
219.926996284654
 33
0.0
 14
619.3270546760592
 24
124.4732360990508
 34
0.0
 50
90.0
100
AcDbRotatedDimension
1001
ACAD
1000
DSTYLE
1002
{
1070
   372
1070
    -1
1070
   371
1070
    -1
1070
    41
1040
3.0
1070
    42
1040
3.0
1070
    43
1040
7.0
1070
    44
1040
1.5
1070
    73
1070
     0
1070
    74
1070
     0
1070
    77
1070
     3
1070
   140
1040
3.0
1070
   141
1040
150.0
1070
   147
1040
1.0
1070
   172
1070
     1
1070
   173
1070
     1
1070
   176
1070
   256
1070
   177
1070
   256
1070
   178
1070
   256
1070
   271
1070
     0
1070
   272
1070
     2
1070
     6
1000
OPEN
1070
     7
1000
OPEN
1002
}
  0
ARC
  5
1258
330
1A
100
AcDbEntity
  8
SEIHIN
100
AcDbCircle
 10
824.2292031831555
 20
228.9486376880174
 30
0.0
 40
228.6999999999999
100
AcDbArc
 50
190.7590171585627
 51
204.3977449099035
1001
ACAD
1000
ASC_BOUNDS
1002
{
1070
    19
1002
}
  0
ARC
  5
1259
330
1A
100
AcDbEntity
  8
SEIHIN
100
AcDbCircle
 10
824.2292031831555
 20
228.9486376880174
 30
0.0
 40
230.0
100
AcDbArc
 50
184.1110824023488
 51
206.925881015579
  0
TEXT
  5
125A
330
1A
100
AcDbEntity
  8
MOJI
100
AcDbText
 10
507.4678204046248
 20
30.37082726539057
 30
0.0
 40
3.0
  1
アートフェイスＨ１２０
 41
0.9
  7
ｽﾀｲﾙ1
100
AcDbText
  0
HATCH
  5
125B
330
1A
100
AcDbEntity
  8
ZUWAKU
100
AcDbHatch
 10
0.0
 20
0.0
 30
0.0
210
0.0
220
0.0
230
1.0
  2
ANSI37
 70
     0
 71
     0
 91
        8
 92
        7
 72
     1
 73
     1
 93
       24
 10
468.2400569411002
 20
32.82266244074498
 42
-0.1989123673796348
 10
468.0350316879308
 20
33.31763718757551
 42
0.0
 10
468.0350316879308
 20
33.96273820025319
 42
-0.4142135623730912
 10
468.2975316879308
 20
34.22523820025319
 42
0.0
 10
469.7850316879307
 20
34.22523820025319
 42
0.4142135623731546
 10
470.0475316879308
 20
34.48773820025319
 42
0.0
 10
470.0475316879308
 20
35.3627382002532
 42
0.4142135623731586
 10
469.7850316879307
 20
35.62523820025319
 42
0.0
 10
468.0350316879308
 20
35.62523820025319
 42
0.4142135623730928
 10
466.6350316879309
 20
34.2252382002532
 42
0.0
 10
466.6350316879309
 20
33.31763718757557
 42
0.1989123673796619
 10
467.250107447439
 20
31.83271294708377
 42
0.0
 10
468.7050064347614
 20
30.37781395976144
 42
-0.1989123673796613
 10
468.9100316879308
 20
29.88283921293085
 42
0.0
 10
468.9100316879308
 20
29.23773820025319
 42
-0.4142135623730911
 10
468.6475316879308
 20
28.97523820025319
 42
0.0
 10
467.1600316879309
 20
28.97523820025319
 42
0.4142135623731526
 10
466.8975316879308
 20
28.7127382002532
 42
0.0
 10
466.8975316879308
 20
27.83773820025319
 42
0.4142135623731526
 10
467.1600316879309
 20
27.57523820025319
 42
0.0
 10
468.9100316879308
 20
27.57523820025319
 42
0.4142135623731044
 10
470.3100316879308
 20
28.97523820025318
 42
0.0
 10
470.3100316879308
 20
29.88283921293081
 42
0.1989123673796604
 10
469.6949559284226
 20
31.36776345342259
 42
0.0
 97
        0
 92
        7
 72
     1
 73
     1
 93
       16
 10
472.7600316879308
 20
33.5252382002532
 42
-0.4142135623730935
 10
473.4600316879308
 20
34.22523820025319
 42
0.0
 10
474.4225316879307
 20
34.22523820025319
 42
0.4142135623731546
 10
474.6850316879308
 20
34.48773820025319
 42
0.0
 10
474.6850316879308
 20
35.3627382002532
 42
0.4142135623730951
 10
474.4225316879308
 20
35.62523820025319
 42
0.0
 10
473.4600316879308
 20
35.62523820025317
 42
0.4142135623730892
 10
471.3600316879308
 20
33.52523820025316
 42
0.0
 10
471.3600316879308
 20
29.6752382002532
 42
0.4142135623730969
 10
473.4600316879308
 20
27.57523820025319
 42
0.0
 10
474.4225316879307
 20
27.57523820025319
 42
0.4142135623731526
 10
474.6850316879308
 20
27.83773820025319
 42
0.0
 10
474.6850316879308
 20
28.7127382002532
 42
0.4142135623730891
 10
474.4225316879308
 20
28.97523820025319
 42
0.0
 10
473.4600316879308
 20
28.97523820025319
 42
-0.4142135623730928
 10
472.7600316879308
 20
29.67523820025319
 42
0.0
 97
        0
 92
        7
 72
     1
 73
     1
 93
        2
 10
473.1100316879308
 20
31.60023820025319
 42
1.0
 10
474.8600316879308
 20
31.60023820025319
 42
1.0
 97
        0
 92
        7
 72
     1
 73
     1
 93
       26
 10
479.6463549290198
 20
33.60276179703491
 42
0.0
 10
480.1771747455886
 20
35.2836912161697
 42
0.5069206636600134
 10
479.9268592959911
 20
35.62523820025319
 42
0.0
 10
479.0774146061864
 20
35.62523820025319
 42
0.3272098845218764
 10
478.8270991565887
 20
35.44178518433668
 42
0.0
 10
477.8929642192728
 20
32.48369121616973
 42
-0.3272098845219541
 10
477.6426487696751
 20
32.30023820025319
 42
0.0
 10
477.5725316879309
 20
32.30023820025319
 42
-0.4142135623731526
 10
477.3100316879308
 20
32.56273820025318
 42
0.0
 10
477.3100316879308
 20
35.3627382002532
 42
0.4142135623730951
 10
477.0475316879308
 20
35.62523820025319
 42
0.0
 10
476.1725316879307
 20
35.62523820025319
 42
0.4142135623730871
 10
475.9100316879308
 20
35.3627382002532
 42
0.0
 10
475.9100316879308
 20
27.83773820025319
 42
0.4142135623730891
 10
476.1725316879307
 20
27.57523820025319
 42
0.0
 10
477.0475316879307
 20
27.57523820025319
 42
0.4142135623731526
 10
477.3100316879308
 20
27.83773820025319
 42
0.0
 10
477.3100316879308
 20
30.6377382002532
 42
-0.4142135623731526
 10
477.5725316879309
 20
30.90023820025319
 42
0.0
 10
477.6426487696752
 20
30.90023820025319
 42
-0.3272098845218915
 10
477.8929642192728
 20
30.71678518433666
 42
0.0
 10
478.8270991565887
 20
27.75869121616973
 42
0.3272098845218902
 10
479.0774146061864
 20
27.57523820025319
 42
0.0
 10
479.9268592959911
 20
27.57523820025319
 42
0.5069206636600335
 10
480.1771747455886
 20
27.9167851843367
 42
0.0
 10
479.0139790563519
 20
31.60023820025326
 42
0.0
 97
        0
 92
        7
 72
     1
 73
     1
 93
        8
 10
482.7350316879308
 20
35.3627382002532
 42
0.4142135623731546
 10
482.4725316879307
 20
35.62523820025319
 42
0.0
 10
481.5975316879309
 20
35.62523820025319
 42
0.4142135623731507
 10
481.3350316879308
 20
35.3627382002532
 42
0.0
 10
481.3350316879308
 20
27.83773820025319
 42
0.4142135623731526
 10
481.5975316879309
 20
27.57523820025319
 42
0.0
 10
482.4725316879307
 20
27.57523820025319
 42
0.4142135623731526
 10
482.7350316879308
 20
27.83773820025319
 42
0.0
 97
        0
 92
        7
 72
     1
 73
     1
 93
       24
 10
485.1850316879308
 20
33.96273820025319
 42
-0.4142135623731546
 10
485.4475316879309
 20
34.22523820025319
 42
0.0
 10
486.9350316879308
 20
34.22523820025319
 42
0.4142135623730911
 10
487.1975316879308
 20
34.48773820025319
 42
0.0
 10
487.1975316879308
 20
35.3627382002532
 42
0.4142135623730952
 10
486.9350316879308
 20
35.62523820025319
 42
0.0
 10
485.1850316879308
 20
35.62523820025319
 42
0.4142135623731048
 10
483.7850316879308
 20
34.2252382002532
 42
0.0
 10
483.7850316879308
 20
33.31763718757557
 42
0.1989123673796613
 10
484.400107447439
 20
31.83271294708379
 42
0.0
 10
485.8550064347614
 20
30.37781395976146
 42
-0.1989123673796402
 10
486.0600316879308
 20
29.88283921293092
 42
0.0
 10
486.0600316879308
 20
29.23773820025319
 42
-0.4142135623730911
 10
485.7975316879309
 20
28.97523820025319
 42
0.0
 10
484.3100316879308
 20
28.97523820025319
 42
0.4142135623731526
 10
484.0475316879308
 20
28.7127382002532
 42
0.0
 10
484.0475316879308
 20
27.83773820025319
 42
0.4142135623730891
 10
484.3100316879308
 20
27.57523820025319
 42
0.0
 10
486.0600316879308
 20
27.57523820025319
 42
0.4142135623730925
 10
487.4600316879308
 20
28.97523820025318
 42
0.0
 10
487.4600316879308
 20
29.88283921293081
 42
0.1989123673796675
 10
486.8449559284226
 20
31.36776345342264
 42
0.0
 10
485.3900569411003
 20
32.8226624407449
 42
-0.1989123673796652
 10
485.1850316879308
 20
33.31763718757548
 42
0.0
 97
        0
 92
        7
 72
     1
 73
     1
 93
       16
 10
489.9100316879308
 20
35.36273820025319
 42
0.414213562373103
 10
489.6475316879308
 20
35.62523820025319
 42
0.0
 10
488.7725316879308
 20
35.62523820025319
 42
0.4142135623730871
 10
488.5100316879309
 20
35.3627382002532
 42
0.0
 10
488.5100316879309
 20
28.97523820025318
 42
0.4142135623730926
 10
489.9100316879308
 20
27.57523820025319
 42
0.0
 10
491.6600316879308
 20
27.57523820025319
 42
0.4142135623731044
 10
493.0600316879308
 20
28.97523820025318
 42
0.0
 10
493.0600316879308
 20
35.3627382002532
 42
0.4142135623730951
 10
492.7975316879308
 20
35.62523820025319
 42
0.0
 10
491.9225316879308
 20
35.62523820025319
 42
0.4142135623730871
 10
491.6600316879308
 20
35.3627382002532
 42
0.0
 10
491.6600316879308
 20
29.50023820025318
 42
-0.414213562373088
 10
491.1350316879308
 20
28.97523820025319
 42
0.0
 10
490.4350316879308
 20
28.97523820025319
 42
-0.4142135623731197
 10
489.9100316879308
 20
29.50023820025318
 42
0.0
 97
        0
 92
        7
 72
     1
 73
     1
 93
        8
 10
495.5100316879308
 20
35.3627382002532
 42
0.4142135623730871
 10
495.2475316879308
 20
35.62523820025319
 42
0.0
 10
494.3725316879308
 20
35.62523820025319
 42
0.4142135623731507
 10
494.1100316879308
 20
35.3627382002532
 42
0.0
 10
494.1100316879308
 20
27.83773820025319
 42
0.4142135623730891
 10
494.3725316879308
 20
27.57523820025319
 42
0.0
 10
495.2475316879308
 20
27.57523820025319
 42
0.4142135623730891
 10
495.5100316879308
 20
27.83773820025319
 42
0.0
 97
        0
 75
     0
 76
     1
 52
0.0
 41
0.1
 77
     0
 78
     2
 53
45.0
 43
10.51777344320078
 44
17.40023820025322
 45
-0.2245064030267288
 46
0.2245064030267288
 79
     0
 53
135.0
 43
10.51777344320078
 44
17.40023820025322
 45
-0.2245064030267288
 46
-0.2245064030267288
 79
     0
 47
0.057451373970553
 98
        8
 10
469.0288530920518
 20
31.58382502319597
 10
472.1911831137598
 20
33.42226929147869
 10
473.5711095533701
 20
31.75617902328855
 10
476.4459556013588
 20
32.10088702347394
 10
481.9081616200186
 20
32.33069315724475
 10
484.438026058105
 20
33.7095263584568
 10
489.2677685967404
 20
33.3648171578007
 10
494.9024654203516
 20
33.59462329157151
  0
LINE
  5
125C
330
1A
100
AcDbEntity
  8
ZUWAKU
100
AcDbLine
 10
473.4600316879308
 20
35.62523820025317
 30
0.0
 11
474.4225316879307
 21
35.62523820025319
 31
0.0
  0
LINE
  5
125D
330
1A
100
AcDbEntity
  8
ZUWAKU
100
AcDbLine
 10
474.4225316879307
 20
34.22523820025319
 30
0.0
 11
473.4600316879308
 21
34.22523820025319
 31
0.0
  0
LINE
  5
125E
330
1A
100
AcDbEntity
  8
ZUWAKU
100
AcDbLine
 10
473.4600316879308
 20
28.97523820025319
 30
0.0
 11
474.4225316879307
 21
28.97523820025319
 31
0.0
  0
LINE
  5
125F
330
1A
100
AcDbEntity
  8
ZUWAKU
100
AcDbLine
 10
474.4225316879307
 20
27.57523820025319
 30
0.0
 11
473.4600316879308
 21
27.57523820025319
 31
0.0
  0
CIRCLE
  5
1260
330
1A
100
AcDbEntity
  8
ZUWAKU
100
AcDbCircle
 10
473.9850316879308
 20
31.60023820025319
 30
0.0
 40
0.875
  0
ARC
  5
1261
330
1A
100
AcDbEntity
  8
ZUWAKU
100
AcDbCircle
 10
468.7350316879308
 20
33.31763718757554
 30
0.0
 40
0.7
100
AcDbArc
 50
180.0000000000016
 51
224.9999999999991
  0
LINE
  5
1262
330
1A
100
AcDbEntity
  8
ZUWAKU
100
AcDbLine
 10
472.7600316879308
 20
33.5252382002532
 30
0.0
 11
472.7600316879308
 21
29.6752382002532
 31
0.0
  0
LINE
  5
1263
330
1A
100
AcDbEntity
  8
ZUWAKU
100
AcDbLine
 10
471.3600316879308
 20
29.6752382002532
 30
0.0
 11
471.3600316879308
 21
33.52523820025317
 31
0.0
  0
ARC
  5
1264
330
1A
100
AcDbEntity
  8
ZUWAKU
100
AcDbCircle
 10
468.7350316879308
 20
33.31763718757554
 30
0.0
 40
2.099999999999999
100
AcDbArc
 50
180.0
 51
224.9999999999997
  0
ARC
  5
1265
330
1A
100
AcDbEntity
  8
ZUWAKU
100
AcDbCircle
 10
468.9100316879308
 20
28.97523820025319
 30
0.0
 40
1.399999999999999
100
AcDbArc
 50
270.0
 51
0.0
  0
ARC
  5
1266
330
1A
100
AcDbEntity
  8
ZUWAKU
100
AcDbCircle
 10
473.4600316879308
 20
29.6752382002532
 30
0.0
 40
2.099999999999999
100
AcDbArc
 50
180.0
 51
270.0
  0
ARC
  5
1267
330
1A
100
AcDbEntity
  8
ZUWAKU
100
AcDbCircle
 10
468.2100316879308
 20
29.88283921293085
 30
0.0
 40
2.099999999999999
100
AcDbArc
 50
0.0
 51
44.99999999999971
  0
LINE
  5
1268
330
1A
100
AcDbEntity
  8
ZUWAKU
100
AcDbLine
 10
469.6949559284226
 20
31.3677634534226
 30
0.0
 11
468.2400569411002
 21
32.82266244074495
 31
0.0
  0
LINE
  5
1269
330
1A
100
AcDbEntity
  8
ZUWAKU
100
AcDbLine
 10
468.9100316879308
 20
29.23773820025319
 30
0.0
 11
468.9100316879308
 21
29.88283921293087
 31
0.0
  0
ARC
  5
126A
330
1A
100
AcDbEntity
  8
ZUWAKU
100
AcDbCircle
 10
468.6475316879308
 20
29.23773820025319
 30
0.0
 40
0.2625
100
AcDbArc
 50
270.0
 51
0.0
  0
ARC
  5
126B
330
1A
100
AcDbEntity
  8
ZUWAKU
100
AcDbCircle
 10
468.2100316879308
 20
29.88283921293087
 30
0.0
 40
0.7
100
AcDbArc
 50
0.0
 51
44.99999999999971
  0
LINE
  5
126C
330
1A
100
AcDbEntity
  8
ZUWAKU
100
AcDbLine
 10
466.8975316879308
 20
27.83773820025319
 30
0.0
 11
466.8975316879308
 21
28.71273820025319
 31
0.0
  0
ARC
  5
126D
330
1A
100
AcDbEntity
  8
ZUWAKU
100
AcDbCircle
 10
467.1600316879308
 20
27.83773820025319
 30
0.0
 40
0.2625
100
AcDbArc
 50
180.0
 51
270.0
  0
ARC
  5
126E
330
1A
100
AcDbEntity
  8
ZUWAKU
100
AcDbCircle
 10
467.1600316879308
 20
28.71273820025319
 30
0.0
 40
0.2625
100
AcDbArc
 50
90.0
 51
180.0
  0
LINE
  5
126F
330
1A
100
AcDbEntity
  8
ZUWAKU
100
AcDbLine
 10
467.1600316879308
 20
27.57523820025319
 30
0.0
 11
468.9100316879308
 21
27.57523820025319
 31
0.0
  0
LINE
  5
1270
330
1A
100
AcDbEntity
  8
ZUWAKU
100
AcDbLine
 10
467.1600316879308
 20
28.97523820025319
 30
0.0
 11
468.6475316879308
 21
28.97523820025319
 31
0.0
  0
LINE
  5
1271
330
1A
100
AcDbEntity
  8
ZUWAKU
100
AcDbLine
 10
467.250107447439
 20
31.83271294708378
 30
0.0
 11
468.7050064347614
 21
30.37781395976145
 31
0.0
  0
LINE
  5
1272
330
1A
100
AcDbEntity
  8
ZUWAKU
100
AcDbLine
 10
470.3100316879308
 20
28.97523820025319
 30
0.0
 11
470.3100316879308
 21
29.88283921293087
 31
0.0
  0
ARC
  5
1273
330
1A
100
AcDbEntity
  8
ZUWAKU
100
AcDbCircle
 10
473.4600316879308
 20
29.6752382002532
 30
0.0
 40
0.7
100
AcDbArc
 50
180.0
 51
270.0
  0
ARC
  5
1274
330
1A
100
AcDbEntity
  8
ZUWAKU
100
AcDbCircle
 10
469.7850316879308
 20
35.36273820025319
 30
0.0
 40
0.2625
100
AcDbArc
 50
0.0
 51
90.0
  0
ARC
  5
1275
330
1A
100
AcDbEntity
  8
ZUWAKU
100
AcDbCircle
 10
469.7850316879308
 20
34.48773820025319
 30
0.0
 40
0.2625
100
AcDbArc
 50
270.0
 51
0.0
  0
LINE
  5
1276
330
1A
100
AcDbEntity
  8
ZUWAKU
100
AcDbLine
 10
468.0350316879308
 20
35.62523820025319
 30
0.0
 11
469.7850316879308
 21
35.62523820025319
 31
0.0
  0
ARC
  5
1277
330
1A
100
AcDbEntity
  8
ZUWAKU
100
AcDbCircle
 10
468.2975316879308
 20
33.96273820025319
 30
0.0
 40
0.2625
100
AcDbArc
 50
90.0
 51
180.0
  0
LINE
  5
1278
330
1A
100
AcDbEntity
  8
ZUWAKU
100
AcDbLine
 10
468.0350316879308
 20
33.96273820025319
 30
0.0
 11
468.0350316879308
 21
33.31763718757553
 31
0.0
  0
LINE
  5
1279
330
1A
100
AcDbEntity
  8
ZUWAKU
100
AcDbLine
 10
469.7850316879308
 20
34.22523820025319
 30
0.0
 11
468.2975316879308
 21
34.22523820025319
 31
0.0
  0
LINE
  5
127A
330
1A
100
AcDbEntity
  8
ZUWAKU
100
AcDbLine
 10
466.6350316879309
 20
34.22523820025319
 30
0.0
 11
466.6350316879309
 21
33.31763718757553
 31
0.0
  0
ARC
  5
127B
330
1A
100
AcDbEntity
  8
ZUWAKU
100
AcDbCircle
 10
468.0350316879308
 20
34.22523820025319
 30
0.0
 40
1.399999999999999
100
AcDbArc
 50
90.0
 51
180.0
  0
LINE
  5
127C
330
1A
100
AcDbEntity
  8
ZUWAKU
100
AcDbLine
 10
470.0475316879308
 20
35.36273820025319
 30
0.0
 11
470.0475316879308
 21
34.48773820025319
 31
0.0
  0
ARC
  5
127D
330
1A
100
AcDbEntity
  8
ZUWAKU
100
AcDbCircle
 10
473.4600316879308
 20
33.5252382002532
 30
0.0
 40
0.7
100
AcDbArc
 50
90.0
 51
180.0
  0
ARC
  5
127E
330
1A
100
AcDbEntity
  8
ZUWAKU
100
AcDbCircle
 10
473.4600316879308
 20
33.52523820025317
 30
0.0
 40
2.099999999999999
100
AcDbArc
 50
90.0
 51
180.0
  0
LINE
  5
127F
330
1A
100
AcDbEntity
  8
ZUWAKU
100
AcDbLine
 10
500.6522403845344
 20
39.00023820025319
 30
0.0
 11
500.6522403845345
 21
24.40023820025322
 31
0.0
  0
LINE
  5
1280
330
1A
100
AcDbEntity
  8
ZUWAKU
100
AcDbLine
 10
500.7522403845343
 20
39.00023820025319
 30
0.0
 11
500.7522403845345
 21
24.40023820025322
 31
0.0
  0
LINE
  5
1281
330
1A
100
AcDbEntity
  8
ZUWAKU
100
AcDbLine
 10
500.5522403845344
 20
39.00023820025319
 30
0.0
 11
500.5522403845344
 21
24.40023820025322
 31
0.0
  0
LINE
  5
1282
330
1A
100
AcDbEntity
  8
ZUWAKU
100
AcDbLine
 10
493.0600316879308
 20
28.97523820025319
 30
0.0
 11
493.0600316879308
 21
35.36273820025319
 31
0.0
  0
LINE
  5
1283
330
1A
100
AcDbEntity
  8
ZUWAKU
100
AcDbLine
 10
491.6600316879308
 20
35.36273820025319
 30
0.0
 11
491.6600316879308
 21
29.50023820025319
 31
0.0
  0
LINE
  5
1284
330
1A
100
AcDbEntity
  8
ZUWAKU
100
AcDbLine
 10
495.5100316879308
 20
27.83773820025319
 30
0.0
 11
495.5100316879308
 21
35.36273820025319
 31
0.0
  0
LINE
  5
1285
330
1A
100
AcDbEntity
  8
ZUWAKU
100
AcDbLine
 10
494.1100316879308
 20
35.36273820025319
 30
0.0
 11
494.1100316879308
 21
27.83773820025319
 31
0.0
  0
ARC
  5
1286
330
1A
100
AcDbEntity
  8
ZUWAKU
100
AcDbCircle
 10
485.8850316879308
 20
33.31763718757554
 30
0.0
 40
0.7
100
AcDbArc
 50
180.0000000000016
 51
224.9999999999991
  0
ARC
  5
1287
330
1A
100
AcDbEntity
  8
ZUWAKU
100
AcDbCircle
 10
485.8850316879308
 20
33.31763718757554
 30
0.0
 40
2.099999999999999
100
AcDbArc
 50
180.0
 51
224.9999999999997
  0
LINE
  5
1288
330
1A
100
AcDbEntity
  8
ZUWAKU
100
AcDbLine
 10
479.6463549290198
 20
33.60276179703491
 30
0.0
 11
479.0139790563519
 21
31.6002382002532
 31
0.0
  0
LINE
  5
1289
330
1A
100
AcDbEntity
  8
ZUWAKU
100
AcDbLine
 10
481.3350316879308
 20
35.36273820025319
 30
0.0
 11
481.3350316879308
 21
27.83773820025319
 31
0.0
  0
LINE
  5
128A
330
1A
100
AcDbEntity
  8
ZUWAKU
100
AcDbLine
 10
482.7350316879308
 20
27.83773820025319
 30
0.0
 11
482.7350316879308
 21
35.36273820025319
 31
0.0
  0
LINE
  5
128B
330
1A
100
AcDbEntity
  8
ZUWAKU
100
AcDbLine
 10
488.5100316879309
 20
35.36273820025319
 30
0.0
 11
488.5100316879309
 21
28.97523820025319
 31
0.0
  0
LINE
  5
128C
330
1A
100
AcDbEntity
  8
ZUWAKU
100
AcDbLine
 10
489.9100316879308
 20
29.50023820025319
 30
0.0
 11
489.9100316879308
 21
35.36273820025319
 31
0.0
  0
LINE
  5
128D
330
1A
100
AcDbEntity
  8
ZUWAKU
100
AcDbLine
 10
477.3100316879308
 20
32.56273820025319
 30
0.0
 11
477.3100316879308
 21
35.36273820025319
 31
0.0
  0
LINE
  5
128E
330
1A
100
AcDbEntity
  8
ZUWAKU
100
AcDbLine
 10
475.9100316879308
 20
35.36273820025319
 30
0.0
 11
475.9100316879308
 21
27.83773820025319
 31
0.0
  0
LINE
  5
128F
330
1A
100
AcDbEntity
  8
ZUWAKU
100
AcDbLine
 10
478.8270991565887
 20
35.44178518433668
 30
0.0
 11
477.8929642192728
 21
32.48369121616971
 31
0.0
  0
LINE
  5
1290
330
1A
100
AcDbEntity
  8
ZUWAKU
100
AcDbLine
 10
491.1350316879308
 20
28.97523820025319
 30
0.0
 11
490.4350316879308
 21
28.97523820025319
 31
0.0
  0
LINE
  5
1291
330
1A
100
AcDbEntity
  8
ZUWAKU
100
AcDbLine
 10
489.9100316879308
 20
27.57523820025319
 30
0.0
 11
491.6600316879308
 21
27.57523820025319
 31
0.0
  0
LINE
  5
1292
330
1A
100
AcDbEntity
  8
ZUWAKU
100
AcDbLine
 10
481.5975316879308
 20
27.57523820025319
 30
0.0
 11
482.4725316879308
 21
27.57523820025319
 31
0.0
  0
LINE
  5
1293
330
1A
100
AcDbEntity
  8
ZUWAKU
100
AcDbLine
 10
478.8270991565887
 20
27.7586912161697
 30
0.0
 11
477.8929642192728
 21
30.71678518433667
 31
0.0
  0
ARC
  5
1294
330
1A
100
AcDbEntity
  8
ZUWAKU
100
AcDbCircle
 10
477.6426487696752
 20
32.56273820025319
 30
0.0
 40
0.2625
100
AcDbArc
 50
270.0
 51
342.4744316262771
  0
LINE
  5
1295
330
1A
100
AcDbEntity
  8
ZUWAKU
100
AcDbLine
 10
477.6426487696752
 20
32.30023820025319
 30
0.0
 11
477.5725316879309
 21
32.30023820025319
 31
0.0
  0
LINE
  5
1296
330
1A
100
AcDbEntity
  8
ZUWAKU
100
AcDbLine
 10
477.5725316879309
 20
30.90023820025319
 30
0.0
 11
477.6426487696752
 21
30.90023820025319
 31
0.0
  0
ARC
  5
1297
330
1A
100
AcDbEntity
  8
ZUWAKU
100
AcDbCircle
 10
477.5725316879309
 20
32.56273820025319
 30
0.0
 40
0.2625
100
AcDbArc
 50
180.0
 51
270.0
  0
LINE
  5
1298
330
1A
100
AcDbEntity
  8
ZUWAKU
100
AcDbLine
 10
476.1725316879307
 20
27.57523820025319
 30
0.0
 11
477.0475316879307
 21
27.57523820025319
 31
0.0
  0
ARC
  5
1299
330
1A
100
AcDbEntity
  8
ZUWAKU
100
AcDbCircle
 10
477.0475316879307
 20
27.83773820025319
 30
0.0
 40
0.2625
100
AcDbArc
 50
270.0
 51
0.0
  0
LINE
  5
129A
330
1A
100
AcDbEntity
  8
ZUWAKU
100
AcDbLine
 10
477.3100316879308
 20
27.83773820025319
 30
0.0
 11
477.3100316879308
 21
30.63773820025319
 31
0.0
  0
LINE
  5
129B
330
1A
100
AcDbEntity
  8
ZUWAKU
100
AcDbLine
 10
474.6850316879308
 20
28.71273820025319
 30
0.0
 11
474.6850316879308
 21
27.83773820025319
 31
0.0
  0
ARC
  5
129C
330
1A
100
AcDbEntity
  8
ZUWAKU
100
AcDbCircle
 10
474.4225316879307
 20
27.83773820025319
 30
0.0
 40
0.2625
100
AcDbArc
 50
270.0
 51
0.0
  0
ARC
  5
129D
330
1A
100
AcDbEntity
  8
ZUWAKU
100
AcDbCircle
 10
474.4225316879307
 20
28.71273820025319
 30
0.0
 40
0.2625
100
AcDbArc
 50
0.0
 51
90.0
  0
ARC
  5
129E
330
1A
100
AcDbEntity
  8
ZUWAKU
100
AcDbCircle
 10
476.1725316879307
 20
27.83773820025319
 30
0.0
 40
0.2625
100
AcDbArc
 50
180.0
 51
270.0
  0
ARC
  5
129F
330
1A
100
AcDbEntity
  8
ZUWAKU
100
AcDbCircle
 10
477.6426487696752
 20
30.63773820025319
 30
0.0
 40
0.2625
100
AcDbArc
 50
17.52556837372284
 51
90.0
  0
ARC
  5
12A0
330
1A
100
AcDbEntity
  8
ZUWAKU
100
AcDbCircle
 10
477.5725316879309
 20
30.63773820025319
 30
0.0
 40
0.2625
100
AcDbArc
 50
90.0
 51
180.0
  0
ARC
  5
12A1
330
1A
100
AcDbEntity
  8
ZUWAKU
100
AcDbCircle
 10
481.5975316879308
 20
27.83773820025319
 30
0.0
 40
0.2625
100
AcDbArc
 50
180.0
 51
270.0
  0
LINE
  5
12A2
330
1A
100
AcDbEntity
  8
ZUWAKU
100
AcDbLine
 10
479.0774146061864
 20
27.57523820025319
 30
0.0
 11
479.926859295991
 21
27.57523820025319
 31
0.0
  0
ARC
  5
12A3
330
1A
100
AcDbEntity
  8
ZUWAKU
100
AcDbCircle
 10
479.926859295991
 20
27.83773820025319
 30
0.0
 40
0.2625
100
AcDbArc
 50
270.0
 51
17.52556837372284
  0
LINE
  5
12A4
330
1A
100
AcDbEntity
  8
ZUWAKU
100
AcDbLine
 10
480.1771747455886
 20
27.91678518433668
 30
0.0
 11
479.0139790563519
 21
31.6002382002532
 31
0.0
  0
ARC
  5
12A5
330
1A
100
AcDbEntity
  8
ZUWAKU
100
AcDbCircle
 10
479.0774146061864
 20
27.83773820025319
 30
0.0
 40
0.2625
100
AcDbArc
 50
197.5255683737228
 51
270.0
  0
ARC
  5
12A6
330
1A
100
AcDbEntity
  8
ZUWAKU
100
AcDbCircle
 10
489.9100316879308
 20
28.97523820025319
 30
0.0
 40
1.399999999999999
100
AcDbArc
 50
180.0
 51
270.0
  0
ARC
  5
12A7
330
1A
100
AcDbEntity
  8
ZUWAKU
100
AcDbCircle
 10
486.0600316879308
 20
28.97523820025319
 30
0.0
 40
1.399999999999999
100
AcDbArc
 50
270.0
 51
0.0
  0
LINE
  5
12A8
330
1A
100
AcDbEntity
  8
ZUWAKU
100
AcDbLine
 10
486.8449559284226
 20
31.3677634534226
 30
0.0
 11
485.3900569411002
 21
32.82266244074495
 31
0.0
  0
LINE
  5
12A9
330
1A
100
AcDbEntity
  8
ZUWAKU
100
AcDbLine
 10
486.0600316879308
 20
29.23773820025319
 30
0.0
 11
486.0600316879308
 21
29.88283921293087
 31
0.0
  0
ARC
  5
12AA
330
1A
100
AcDbEntity
  8
ZUWAKU
100
AcDbCircle
 10
485.3600316879307
 20
29.88283921293087
 30
0.0
 40
0.7
100
AcDbArc
 50
0.0
 51
44.99999999999971
  0
ARC
  5
12AB
330
1A
100
AcDbEntity
  8
ZUWAKU
100
AcDbCircle
 10
485.7975316879308
 20
29.23773820025319
 30
0.0
 40
0.2625
100
AcDbArc
 50
270.0
 51
0.0
  0
LINE
  5
12AC
330
1A
100
AcDbEntity
  8
ZUWAKU
100
AcDbLine
 10
484.0475316879308
 20
27.83773820025319
 30
0.0
 11
484.0475316879308
 21
28.71273820025319
 31
0.0
  0
ARC
  5
12AD
330
1A
100
AcDbEntity
  8
ZUWAKU
100
AcDbCircle
 10
484.3100316879308
 20
27.83773820025319
 30
0.0
 40
0.2625
100
AcDbArc
 50
180.0
 51
270.0
  0
ARC
  5
12AE
330
1A
100
AcDbEntity
  8
ZUWAKU
100
AcDbCircle
 10
482.4725316879308
 20
27.83773820025319
 30
0.0
 40
0.2625
100
AcDbArc
 50
270.0
 51
0.0
  0
ARC
  5
12AF
330
1A
100
AcDbEntity
  8
ZUWAKU
100
AcDbCircle
 10
484.3100316879308
 20
28.71273820025319
 30
0.0
 40
0.2625
100
AcDbArc
 50
90.0
 51
180.0
  0
LINE
  5
12B0
330
1A
100
AcDbEntity
  8
ZUWAKU
100
AcDbLine
 10
484.3100316879308
 20
28.97523820025319
 30
0.0
 11
485.7975316879308
 21
28.97523820025319
 31
0.0
  0
LINE
  5
12B1
330
1A
100
AcDbEntity
  8
ZUWAKU
100
AcDbLine
 10
484.3100316879308
 20
27.57523820025319
 30
0.0
 11
486.0600316879308
 21
27.57523820025319
 31
0.0
  0
LINE
  5
12B2
330
1A
100
AcDbEntity
  8
ZUWAKU
100
AcDbLine
 10
484.400107447439
 20
31.83271294708378
 30
0.0
 11
485.8550064347614
 21
30.37781395976145
 31
0.0
  0
LINE
  5
12B3
330
1A
100
AcDbEntity
  8
ZUWAKU
100
AcDbLine
 10
487.4600316879308
 20
28.97523820025319
 30
0.0
 11
487.4600316879308
 21
29.88283921293087
 31
0.0
  0
ARC
  5
12B4
330
1A
100
AcDbEntity
  8
ZUWAKU
100
AcDbCircle
 10
485.3600316879307
 20
29.88283921293085
 30
0.0
 40
2.099999999999999
100
AcDbArc
 50
0.0
 51
44.99999999999971
  0
ARC
  5
12B5
330
1A
100
AcDbEntity
  8
ZUWAKU
100
AcDbCircle
 10
490.4350316879308
 20
29.50023820025319
 30
0.0
 40
0.525
100
AcDbArc
 50
180.0
 51
270.0
  0
ARC
  5
12B6
330
1A
100
AcDbEntity
  8
ZUWAKU
100
AcDbCircle
 10
491.6600316879308
 20
28.97523820025319
 30
0.0
 40
1.399999999999999
100
AcDbArc
 50
270.0
 51
0.0
  0
LINE
  5
12B7
330
1A
100
AcDbEntity
  8
ZUWAKU
100
AcDbLine
 10
494.3725316879308
 20
27.57523820025319
 30
0.0
 11
495.2475316879308
 21
27.57523820025319
 31
0.0
  0
ARC
  5
12B8
330
1A
100
AcDbEntity
  8
ZUWAKU
100
AcDbCircle
 10
494.3725316879308
 20
27.83773820025319
 30
0.0
 40
0.2625
100
AcDbArc
 50
180.0
 51
270.0
  0
ARC
  5
12B9
330
1A
100
AcDbEntity
  8
ZUWAKU
100
AcDbCircle
 10
491.1350316879308
 20
29.50023820025319
 30
0.0
 40
0.525
100
AcDbArc
 50
270.0
 51
0.0
  0
ARC
  5
12BA
330
1A
100
AcDbEntity
  8
ZUWAKU
100
AcDbCircle
 10
495.2475316879308
 20
27.83773820025319
 30
0.0
 40
0.2625
100
AcDbArc
 50
270.0
 51
0.0
  0
LINE
  5
12BB
330
1A
100
AcDbEntity
  8
ZUWAKU
100
AcDbLine
 10
482.4725316879308
 20
35.62523820025319
 30
0.0
 11
481.5975316879308
 21
35.62523820025319
 31
0.0
  0
ARC
  5
12BC
330
1A
100
AcDbEntity
  8
ZUWAKU
100
AcDbCircle
 10
477.0475316879307
 20
35.36273820025319
 30
0.0
 40
0.2625
100
AcDbArc
 50
0.0
 51
90.0
  0
LINE
  5
12BD
330
1A
100
AcDbEntity
  8
ZUWAKU
100
AcDbLine
 10
477.0475316879307
 20
35.62523820025319
 30
0.0
 11
476.1725316879307
 21
35.62523820025319
 31
0.0
  0
ARC
  5
12BE
330
1A
100
AcDbEntity
  8
ZUWAKU
100
AcDbCircle
 10
474.4225316879307
 20
35.36273820025319
 30
0.0
 40
0.2625
100
AcDbArc
 50
0.0
 51
90.0
  0
ARC
  5
12BF
330
1A
100
AcDbEntity
  8
ZUWAKU
100
AcDbCircle
 10
476.1725316879307
 20
35.36273820025319
 30
0.0
 40
0.2625
100
AcDbArc
 50
90.0
 51
180.0
  0
ARC
  5
12C0
330
1A
100
AcDbEntity
  8
ZUWAKU
100
AcDbCircle
 10
474.4225316879307
 20
34.48773820025319
 30
0.0
 40
0.2625
100
AcDbArc
 50
270.0
 51
0.0
  0
LINE
  5
12C1
330
1A
100
AcDbEntity
  8
ZUWAKU
100
AcDbLine
 10
474.6850316879308
 20
35.36273820025319
 30
0.0
 11
474.6850316879308
 21
34.48773820025319
 31
0.0
  0
ARC
  5
12C2
330
1A
100
AcDbEntity
  8
ZUWAKU
100
AcDbCircle
 10
481.5975316879308
 20
35.36273820025319
 30
0.0
 40
0.2625
100
AcDbArc
 50
90.0
 51
180.0
  0
LINE
  5
12C3
330
1A
100
AcDbEntity
  8
ZUWAKU
100
AcDbLine
 10
479.0774146061864
 20
35.62523820025319
 30
0.0
 11
479.926859295991
 21
35.62523820025319
 31
0.0
  0
ARC
  5
12C4
330
1A
100
AcDbEntity
  8
ZUWAKU
100
AcDbCircle
 10
479.926859295991
 20
35.36273820025319
 30
0.0
 40
0.2625
100
AcDbArc
 50
342.4744316262771
 51
90.0
  0
LINE
  5
12C5
330
1A
100
AcDbEntity
  8
ZUWAKU
100
AcDbLine
 10
480.1771747455886
 20
35.28369121616971
 30
0.0
 11
479.6463549290198
 21
33.60276179703491
 31
0.0
  0
ARC
  5
12C6
330
1A
100
AcDbEntity
  8
ZUWAKU
100
AcDbCircle
 10
479.0774146061864
 20
35.36273820025319
 30
0.0
 40
0.2625
100
AcDbArc
 50
90.0
 51
162.4744316262771
  0
LINE
  5
12C7
330
1A
100
AcDbEntity
  8
ZUWAKU
100
AcDbLine
 10
485.1850316879308
 20
35.62523820025319
 30
0.0
 11
486.9350316879308
 21
35.62523820025319
 31
0.0
  0
LINE
  5
12C8
330
1A
100
AcDbEntity
  8
ZUWAKU
100
AcDbLine
 10
486.9350316879308
 20
34.22523820025319
 30
0.0
 11
485.4475316879308
 21
34.22523820025319
 31
0.0
  0
ARC
  5
12C9
330
1A
100
AcDbEntity
  8
ZUWAKU
100
AcDbCircle
 10
485.4475316879308
 20
33.96273820025319
 30
0.0
 40
0.2625
100
AcDbArc
 50
90.0
 51
180.0
  0
LINE
  5
12CA
330
1A
100
AcDbEntity
  8
ZUWAKU
100
AcDbLine
 10
485.1850316879308
 20
33.96273820025319
 30
0.0
 11
485.1850316879308
 21
33.31763718757553
 31
0.0
  0
ARC
  5
12CB
330
1A
100
AcDbEntity
  8
ZUWAKU
100
AcDbCircle
 10
482.4725316879308
 20
35.36273820025319
 30
0.0
 40
0.2625
100
AcDbArc
 50
0.0
 51
90.0
  0
LINE
  5
12CC
330
1A
100
AcDbEntity
  8
ZUWAKU
100
AcDbLine
 10
483.7850316879308
 20
34.22523820025319
 30
0.0
 11
483.7850316879308
 21
33.31763718757553
 31
0.0
  0
ARC
  5
12CD
330
1A
100
AcDbEntity
  8
ZUWAKU
100
AcDbCircle
 10
485.1850316879308
 20
34.22523820025319
 30
0.0
 40
1.399999999999999
100
AcDbArc
 50
90.0
 51
180.0
  0
ARC
  5
12CE
330
1A
100
AcDbEntity
  8
ZUWAKU
100
AcDbCircle
 10
489.6475316879308
 20
35.36273820025319
 30
0.0
 40
0.2625
100
AcDbArc
 50
0.0
 51
90.0
  0
ARC
  5
12CF
330
1A
100
AcDbEntity
  8
ZUWAKU
100
AcDbCircle
 10
488.7725316879308
 20
35.36273820025319
 30
0.0
 40
0.2625
100
AcDbArc
 50
90.0
 51
180.0
  0
LINE
  5
12D0
330
1A
100
AcDbEntity
  8
ZUWAKU
100
AcDbLine
 10
489.6475316879308
 20
35.62523820025319
 30
0.0
 11
488.7725316879308
 21
35.62523820025319
 31
0.0
  0
ARC
  5
12D1
330
1A
100
AcDbEntity
  8
ZUWAKU
100
AcDbCircle
 10
486.9350316879308
 20
35.36273820025319
 30
0.0
 40
0.2625
100
AcDbArc
 50
0.0
 51
90.0
  0
ARC
  5
12D2
330
1A
100
AcDbEntity
  8
ZUWAKU
100
AcDbCircle
 10
486.9350316879308
 20
34.48773820025319
 30
0.0
 40
0.2625
100
AcDbArc
 50
270.0
 51
0.0
  0
LINE
  5
12D3
330
1A
100
AcDbEntity
  8
ZUWAKU
100
AcDbLine
 10
487.1975316879308
 20
35.36273820025319
 30
0.0
 11
487.1975316879308
 21
34.48773820025319
 31
0.0
  0
LINE
  5
12D4
330
1A
100
AcDbEntity
  8
ZUWAKU
100
AcDbLine
 10
495.2475316879308
 20
35.62523820025319
 30
0.0
 11
494.3725316879308
 21
35.62523820025319
 31
0.0
  0
ARC
  5
12D5
330
1A
100
AcDbEntity
  8
ZUWAKU
100
AcDbCircle
 10
494.3725316879308
 20
35.36273820025319
 30
0.0
 40
0.2625
100
AcDbArc
 50
90.0
 51
180.0
  0
ARC
  5
12D6
330
1A
100
AcDbEntity
  8
ZUWAKU
100
AcDbCircle
 10
492.7975316879308
 20
35.36273820025319
 30
0.0
 40
0.2625
100
AcDbArc
 50
0.0
 51
90.0
  0
LINE
  5
12D7
330
1A
100
AcDbEntity
  8
ZUWAKU
100
AcDbLine
 10
492.7975316879308
 20
35.62523820025319
 30
0.0
 11
491.9225316879308
 21
35.62523820025319
 31
0.0
  0
ARC
  5
12D8
330
1A
100
AcDbEntity
  8
ZUWAKU
100
AcDbCircle
 10
491.9225316879308
 20
35.36273820025319
 30
0.0
 40
0.2625
100
AcDbArc
 50
90.0
 51
180.0
  0
ARC
  5
12D9
330
1A
100
AcDbEntity
  8
ZUWAKU
100
AcDbCircle
 10
495.2475316879308
 20
35.36273820025319
 30
0.0
 40
0.2625
100
AcDbArc
 50
0.0
 51
90.0
  0
TEXT
  5
12DA
330
1A
100
AcDbEntity
  8
MOJI
100
AcDbText
 10
580.9025269509658
 20
25.6026987289569
 30
0.0
 40
2.799999999999999
  1
Ｈ１２０－３,６００ ・ ４,０００
 41
0.9
  7
ｽﾀｲﾙ1
100
AcDbText
  0
TEXT
  5
12DB
330
1A
100
AcDbEntity
  8
MOJI
100
AcDbText
 10
580.9025269509658
 20
33.00269872895688
 30
0.0
 40
2.799999999999999
  1
のきとい
 41
0.9
  7
ｽﾀｲﾙ1
100
AcDbText
  0
LINE
  5
12DC
330
1A
100
AcDbEntity
  8
ZUWAKU
100
AcDbLine
 10
565.1122262555742
 20
39.00023820025319
 30
0.0
 11
565.1122262555742
 21
24.40023820025322
 31
0.0
  0
LINE
  5
12DD
330
1A
100
AcDbEntity
  8
ZUWAKU
100
AcDbLine
 10
565.3122262555741
 20
39.00023820025319
 30
0.0
 11
565.3122262555743
 21
24.40023820025322
 31
0.0
  0
LINE
  5
12DE
330
1A
100
AcDbEntity
  8
ZUWAKU
100
AcDbLine
 10
565.2122262555741
 20
39.00023820025319
 30
0.0
 11
565.2122262555742
 21
24.40023820025322
 31
0.0
  0
TEXT
  5
12DF
330
1A
100
AcDbEntity
  8
ZUWAKU
100
AcDbText
 10
565.850948766679
 20
28.827916469446
 30
0.0
 40
2.0
  1
サイズ
 41
0.9
  7
ｽﾀｲﾙ1
100
AcDbText
  0
TEXT
  5
12E0
330
1A
100
AcDbEntity
  8
ZUWAKU
100
AcDbText
 10
565.8509487666789
 20
36.02791646944598
 30
0.0
 40
2.0
  1
品名
 41
0.9
  7
ｽﾀｲﾙ1
100
AcDbText
  0
INSERT
  5
12E1
330
1A
100
AcDbEntity
  8
SUNPOU
  6
CONTINUOUS
 62
     4
100
AcDbBlockReference
  2
_OPEN
 10
604.6606147812397
 20
160.4677280329169
 30
0.0
 41
3.0
 42
3.0
 43
3.0
 50
197.3220979178828
  0
POINT
  5
12E2
330
1A
100
AcDbEntity
  8
SUNPOU
  6
CONTINUOUS
 62
     4
100
AcDbPoint
 10
604.6606147812397
 20
160.4677280329169
 30
0.0
  0
ARC
  5
12E3
330
1A
100
AcDbEntity
  8
SEIHIN
100
AcDbCircle
 10
824.2292031831555
 20
228.9486376880174
 30
0.0
 40
228.6999999999999
100
AcDbArc
 50
204.7558771521648
 51
206.7808054216335
  0
LINE
  5
12E4
330
1A
100
AcDbEntity
  8
SEIHIN
  6
CONTINUOUS
 62
     3
 48
0.5
100
AcDbLine
 10
629.8208266250648
 20
127.3898520385517
 30
0.0
 11
633.3744694520389
 21
113.2515431211517
 31
0.0
1001
ACAD
1000
ASC_BOUNDS
1002
{
1070
    19
1002
}
  0
LINE
  5
12E5
330
1A
100
AcDbEntity
  8
SEIHIN
  6
CONTINUOUS
 62
     3
 48
0.5
100
AcDbLine
 10
620.0602933156674
 20
125.9013366873531
 30
0.0
 11
628.0496347789296
 21
127.1304661433023
 31
0.0
  0
DIMENSION
  5
12E6
330
1A
100
AcDbEntity
  8
SUNPOU
100
AcDbDimension
  2
*D7
 10
619.3270546760592
 20
90.24948373043299
 30
0.0
 11
625.9910954695037
 21
92.74948373043299
 31
0.0
 70
    32
  3
STANDARD
100
AcDbAlignedDimension
 13
632.6551362629482
 23
110.7804626024311
 33
0.0
 14
619.3270546760592
 24
124.4732360990508
 34
0.0
100
AcDbRotatedDimension
1001
ACAD
1000
DSTYLE
1002
{
1070
   372
1070
    -1
1070
   371
1070
    -1
1070
    41
1040
3.0
1070
    42
1040
3.0
1070
    43
1040
7.0
1070
    44
1040
1.5
1070
    73
1070
     0
1070
    74
1070
     0
1070
    77
1070
     3
1070
   140
1040
3.0
1070
   141
1040
150.0
1070
   147
1040
1.0
1070
   172
1070
     1
1070
   173
1070
     1
1070
   176
1070
   256
1070
   177
1070
   256
1070
   178
1070
   256
1070
   271
1070
     0
1070
   272
1070
     2
1070
     6
1000
OPEN
1070
     7
1000
OPEN
1002
}
  0
LINE
  5
12E7
330
1A
100
AcDbEntity
  8
SEIHIN
  6
CONTINUOUS
 62
     3
 48
0.5
100
AcDbLine
 10
619.6521901095429
 20
124.5232569349685
 30
0.0
 11
628.3954446520206
 21
125.8683730183489
 31
0.0
  0
ARC
  5
12E8
330
1A
100
AcDbEntity
  8
SEIHIN
100
AcDbCircle
 10
619.5609557989958
 20
125.1162799535597
 30
0.0
 40
0.6
100
AcDbArc
 50
206.8996058225257
 51
278.7461622620563
  0
ARC
  5
12E9
330
1A
100
AcDbEntity
  8
SEIHIN
100
AcDbCircle
 10
619.6085936572686
 20
125.0224323437708
 30
0.0
 40
0.5
100
AcDbArc
 50
206.9258810155759
 51
278.7461622620596
  0
LINE
  5
12EA
330
1A
100
AcDbEntity
  8
SEIHIN
  6
CONTINUOUS
 62
     3
 48
0.5
100
AcDbLine
 10
628.8793140569715
 20
125.3924920564727
 30
0.0
 11
632.0092924127034
 21
112.9397490397012
 31
0.0
  0
LINE
  5
12EB
330
1A
100
AcDbEntity
  8
SEIHIN
  6
CONTINUOUS
 62
     3
 48
0.5
100
AcDbLine
 10
628.9563901948388
 20
125.4960705190517
 30
0.0
 11
632.1136853399389
 21
112.9346465724517
 31
0.0
  0
ARC
  5
12EC
330
1A
100
AcDbEntity
  8
SEIHIN
  6
CONTINUOUS
 62
     3
 48
0.5
100
AcDbCircle
 10
634.9187943984059
 20
113.6710480176808
 30
0.0
 40
3.0
100
AcDbArc
 50
194.1089391540641
 51
267.1989238835922
  0
ARC
  5
12ED
330
1A
100
AcDbEntity
  8
SEIHIN
  6
CONTINUOUS
 62
     3
 48
0.5
100
AcDbCircle
 10
635.0231872439389
 20
113.6659458752518
 30
0.0
 40
1.7
100
AcDbArc
 50
194.1089391537999
 51
267.204930311801
1001
ACAD
1000
ASC_BOUNDS
1002
{
1070
    19
1002
}
  0
ARC
  5
12EE
330
1A
100
AcDbEntity
  8
SEIHIN
  6
CONTINUOUS
 62
     3
 48
0.5
100
AcDbCircle
 10
635.0231872439389
 20
113.6659458752518
 30
0.0
 40
3.0
100
AcDbArc
 50
194.1089391537999
 51
267.204930311801
  0
ARC
  5
12EF
330
1A
100
AcDbEntity
  8
SEIHIN
  6
CONTINUOUS
 62
     3
 48
0.5
100
AcDbCircle
 10
628.297413659831
 20
125.2462322608768
 30
0.0
 40
0.6
100
AcDbArc
 50
14.10893915406413
 51
98.74616226205642
  0
ARC
  5
12F0
330
1A
100
AcDbEntity
  8
SEIHIN
  6
CONTINUOUS
 62
     3
 48
0.5
100
AcDbCircle
 10
628.4714732441389
 20
125.3741871695518
 30
0.0
 40
0.5
100
AcDbArc
 50
14.1089391537997
 51
98.74616226205642
  0
LINE
  5
12F1
330
1A
100
AcDbEntity
  8
SEIHIN
100
AcDbLine
 10
628.0496347789296
 20
127.1304661433023
 30
0.0
 11
620.3730194128922
 21
133.1798520385517
 31
0.0
  0
LINE
  5
12F2
330
1A
100
AcDbEntity
  8
SEIHIN
100
AcDbLine
 10
629.8208266250647
 20
127.3898520385517
 30
0.0
 11
620.8236814788198
 21
134.4798520385517
 31
0.0
1001
ACAD
1000
ASC_BOUNDS
1002
{
1070
    19
1002
}
  0
LINE
  5
12F3
330
1A
100
AcDbEntity
  8
SEIHIN
100
AcDbLine
 10
616.5466817827578
 20
133.1798520385517
 30
0.0
 11
620.3730194128922
 21
133.1798520385517
 31
0.0
  0
LINE
  5
12F4
330
1A
100
AcDbEntity
  8
SEIHIN
100
AcDbLine
 10
615.9521316224211
 20
134.4798520385517
 30
0.0
 11
620.8236814788198
 21
134.4798520385517
 31
0.0
1001
ACAD
1000
ASC_BOUNDS
1002
{
1070
    19
1002
}
  0
LINE
  5
12F5
330
1A
100
AcDbEntity
  8
SEIHIN
  6
CONTINUOUS
 62
     3
 48
0.5
100
AcDbLine
 10
596.4084829278345
 20
215.7325693687762
 30
0.0
 11
613.7709531012715
 21
214.4697031658728
 31
0.0
  0
DIMENSION
  5
12F7
330
1A
100
AcDbEntity
  8
SUNPOU
100
AcDbDimension
  2
*D8
 10
614.3305180785179
 20
234.9153968979972
 30
0.0
 11
605.5927178866479
 21
237.4153968979973
 31
0.0
 70
    32
  3
STANDARD
100
AcDbAlignedDimension
 13
596.8549176947781
 23
219.926996284654
 33
0.0
 14
614.3305180785179
 24
214.3287388107743
 34
0.0
100
AcDbRotatedDimension
1001
ACAD
1000
DSTYLE
1002
{
1070
   372
1070
    -1
1070
   371
1070
    -1
1070
    41
1040
3.0
1070
    42
1040
3.0
1070
    43
1040
7.0
1070
    44
1040
1.5
1070
    73
1070
     0
1070
    74
1070
     0
1070
    77
1070
     3
1070
   140
1040
3.0
1070
   141
1040
150.0
1070
   147
1040
1.0
1070
   172
1070
     1
1070
   173
1070
     1
1070
   176
1070
   256
1070
   177
1070
   256
1070
   178
1070
   256
1070
   271
1070
     0
1070
   272
1070
     2
1070
     6
1000
OPEN
1070
     7
1000
OPEN
1002
}
  0
LINE
  5
12F8
330
1A
100
AcDbEntity
  8
SEIHIN
100
AcDbLine
 10
604.6883563236803
 20
194.5498520385517
 30
0.0
 11
607.8737041374388
 21
194.5498520385517
 31
0.0
  0
LINE
  5
12F9
330
1A
100
AcDbEntity
  8
SEIHIN
100
AcDbLine
 10
604.6883563236803
 20
195.8498520385517
 30
0.0
 11
607.8737041374388
 21
195.8498520385517
 31
0.0
  0
LINE
  5
12FA
330
1A
100
AcDbEntity
  8
SEIHIN
100
AcDbLine
 10
604.6883563236803
 20
211.3498520385517
 30
0.0
 11
607.0427043367389
 21
211.3498520385517
 31
0.0
  0
LINE
  5
12FB
330
1A
100
AcDbEntity
  8
SEIHIN
100
AcDbLine
 10
604.6883563236803
 20
212.6498520385517
 30
0.0
 11
606.5221243781707
 21
212.6498520385517
 31
0.0
  0
ARC
  5
12FC
330
1A
100
AcDbEntity
  8
SEIHIN
  6
CONTINUOUS
 62
     3
 48
0.5
100
AcDbCircle
 10
604.6883563236803
 20
203.5998520385517
 30
0.0
 40
7.75
100
AcDbArc
 50
90.0
 51
270.0
  0
ARC
  5
12FD
330
1A
100
AcDbEntity
  8
SEIHIN
  6
CONTINUOUS
 62
     3
 48
0.5
100
AcDbCircle
 10
622.7527041374388
 20
152.5098520385517
 30
0.0
 40
40.0
100
AcDbArc
 50
110.4457276164991
 51
121.8655206455994
  0
ARC
  5
12FE
330
1A
100
AcDbEntity
  8
SEIHIN
  6
CONTINUOUS
 62
     3
 48
0.5
100
AcDbCircle
 10
622.7527041374388
 20
152.5098520385517
 30
0.0
 40
41.29999999999999
100
AcDbArc
 50
110.0980420201991
 51
121.4513859800991
  0
LINE
  5
12FF
330
1A
100
AcDbEntity
  8
SEIHIN
  6
CONTINUOUS
 62
     3
 48
0.5
100
AcDbLine
 10
596.3384036661991
 20
214.3339681901398
 30
0.0
 11
606.8660994309388
 21
213.5682320337517
 31
0.0
  0
LINE
  5
1300
330
1A
100
AcDbEntity
  8
SEIHIN
  6
CONTINUOUS
 62
     3
 48
0.5
100
AcDbLine
 10
596.4012285519937
 20
215.6328328457209
 30
0.0
 11
613.7481671542388
 21
214.3710963378517
 31
0.0
  0
LINE
  5
1301
330
1A
100
AcDbEntity
  8
SEIHIN
  6
CONTINUOUS
 62
     3
 48
0.5
100
AcDbLine
 10
588.957377574714
 20
216.3565066619144
 30
0.0
 11
596.6886137906723
 21
219.890786074889
 31
0.0
  0
LINE
  5
1302
330
1A
100
AcDbEntity
  8
SEIHIN
  6
CONTINUOUS
 62
     3
 48
0.5
100
AcDbLine
 10
597.238663895409
 20
219.4141297550658
 30
0.0
 11
596.2311185792004
 21
215.988475679681
 31
0.0
  0
DIMENSION
  5
1303
330
1A
100
AcDbEntity
  8
SUNPOU
100
AcDbDimension
  2
*D9
 10
596.8549176947781
 20
234.9153968979972
 30
0.0
 11
592.8434862411585
 21
237.4153968979973
 31
0.0
 70
    32
  3
STANDARD
100
AcDbAlignedDimension
 13
588.8320547875389
 23
215.9223331169558
 33
0.0
 14
596.8549176947781
 24
219.926996284654
 34
0.0
100
AcDbRotatedDimension
1001
ACAD
1000
DSTYLE
1002
{
1070
   372
1070
    -1
1070
   371
1070
    -1
1070
    41
1040
3.0
1070
    42
1040
3.0
1070
    43
1040
7.0
1070
    44
1040
1.5
1070
    73
1070
     0
1070
    74
1070
     0
1070
    77
1070
     3
1070
   140
1040
3.0
1070
   141
1040
150.0
1070
   147
1040
1.0
1070
   172
1070
     1
1070
   173
1070
     1
1070
   176
1070
   256
1070
   177
1070
   256
1070
   178
1070
   256
1070
   271
1070
     0
1070
   272
1070
     2
1070
     6
1000
OPEN
1070
     7
1000
OPEN
1002
}
  0
DIMENSION
  5
1304
330
1A
100
AcDbEntity
  8
SUNPOU
100
AcDbDimension
  2
*D10
 10
572.0355367999809
 20
208.1998520385518
 30
0.0
 11
569.5355367999809
 21
214.063424161603
 31
0.0
 70
    32
  3
STANDARD
100
AcDbAlignedDimension
 13
596.8549176947781
 23
219.926996284654
 33
0.0
 14
589.4820547875389
 24
208.1998520385517
 34
0.0
 50
90.0
100
AcDbRotatedDimension
1001
ACAD
1000
DSTYLE
1002
{
1070
   372
1070
    -1
1070
   371
1070
    -1
1070
    41
1040
3.0
1070
    42
1040
3.0
1070
    43
1040
7.0
1070
    44
1040
1.5
1070
    73
1070
     0
1070
    74
1070
     0
1070
    77
1070
     3
1070
   140
1040
3.0
1070
   141
1040
150.0
1070
   147
1040
1.0
1070
   172
1070
     1
1070
   173
1070
     1
1070
   176
1070
   256
1070
   177
1070
   256
1070
   178
1070
   256
1070
   271
1070
     0
1070
   272
1070
     2
1070
     6
1000
OPEN
1070
     7
1000
OPEN
1002
}
  0
LINE
  5
1305
330
1A
100
AcDbEntity
  8
SEIHIN
  6
CONTINUOUS
 62
     3
 48
0.5
100
AcDbLine
 10
597.1427273452514
 20
219.4423463874628
 30
0.0
 11
596.1351820290428
 21
216.016692312078
 31
0.0
  0
LINE
  5
1306
330
1A
100
AcDbEntity
  8
SEIHIN
  6
CONTINUOUS
 62
     3
 48
0.5
100
AcDbLine
 10
589.0073268594595
 20
216.2693870126271
 30
0.0
 11
596.7301897666987
 21
219.7998386273302
 31
0.0
  0
ARC
  5
1307
330
1A
100
AcDbEntity
  8
SEIHIN
100
AcDbCircle
 10
824.2292031831555
 20
228.9486376880174
 30
0.0
 40
228.6999999999999
100
AcDbArc
 50
187.7980495073241
 51
190.4323643464958
  0
ARC
  5
1308
330
1A
100
AcDbEntity
  8
SEIHIN
  6
CONTINUOUS
 62
     3
 48
0.5
100
AcDbCircle
 10
604.6883563236803
 20
203.5998520385517
 30
0.0
 40
9.05
100
AcDbArc
 50
218.8885027707273
 51
270.0
  0
LINE
  5
1309
330
1A
100
AcDbEntity
  8
SEIHIN
  6
CONTINUOUS
 62
     3
 48
0.5
100
AcDbLine
 10
599.5495134911509
 20
186.2552302355253
 30
0.0
 11
601.6356102828389
 21
186.4814335020517
 31
0.0
  0
LINE
  5
130A
330
1A
100
AcDbEntity
  8
SEIHIN
  6
CONTINUOUS
 62
     3
 48
0.5
100
AcDbLine
 10
599.3097639670211
 20
187.5368535837364
 30
0.0
 11
601.2033994000388
 21
187.7421875462517
 31
0.0
  0
ARC
  5
130B
330
1A
100
AcDbEntity
  8
SEIHIN
100
AcDbCircle
 10
589.4320547875388
 20
208.8998520385517
 30
0.0
 40
0.7
100
AcDbArc
 50
180.0
 51
270.0
  0
ARC
  5
130C
330
1A
100
AcDbEntity
  8
SEIHIN
  6
CONTINUOUS
 62
     3
 48
0.5
100
AcDbCircle
 10
589.1320547875388
 20
215.9965446699509
 30
0.0
 40
0.4
100
AcDbArc
 50
114.5671713203837
 51
180.0
  0
ARC
  5
130D
330
1A
100
AcDbEntity
  8
SEIHIN
  6
CONTINUOUS
 62
     3
 48
0.5
100
AcDbCircle
 10
589.1320547875388
 20
215.9965446699509
 30
0.0
 40
0.3
100
AcDbArc
 50
114.5671713203837
 51
180.0
  0
ARC
  5
130E
330
1A
100
AcDbEntity
  8
SEIHIN
 48
0.5
100
AcDbCircle
 10
589.4820547875389
 20
208.8498520385518
 30
0.0
 40
0.65
100
AcDbArc
 50
180.0
 51
0.0
  0
LINE
  5
130F
330
1A
100
AcDbEntity
  8
SEIHIN
  6
CONTINUOUS
 62
     3
 48
0.5
100
AcDbLine
 10
588.7320547875389
 20
215.9965446699509
 30
0.0
 11
588.7320547875389
 21
208.8998520385517
 31
0.0
  0
LINE
  5
1310
330
1A
100
AcDbEntity
  8
SEIHIN
  6
CONTINUOUS
 62
     3
 48
0.5
100
AcDbLine
 10
588.8320547875389
 20
215.9965446699509
 30
0.0
 11
588.8320547875389
 21
208.8498520385518
 31
0.0
  0
ARC
  5
1311
330
1A
100
AcDbEntity
  8
SEIHIN
  6
CONTINUOUS
 62
     3
 48
0.5
100
AcDbCircle
 10
604.6883563236803
 20
203.5998520385517
 30
0.0
 40
9.05
100
AcDbArc
 50
90.0
 51
154.2842201927621
  0
ARC
  5
1312
330
1A
100
AcDbEntity
  8
SEIHIN
100
AcDbCircle
 10
824.2292031831555
 20
228.9486376880174
 30
0.0
 40
228.6999999999999
100
AcDbArc
 50
183.7439173454106
 51
185.3746734561602
  0
LINE
  5
1313
330
1A
100
AcDbEntity
  8
SEIHIN
100
AcDbLine
 10
594.7306124418365
 20
213.7698087559633
 30
0.0
 11
590.1320547875388
 21
212.7890871966689
 31
0.0
  0
LINE
  5
1314
330
1A
100
AcDbEntity
  8
SEIHIN
  6
CONTINUOUS
 62
     3
 48
0.5
100
AcDbLine
 10
590.1320547875388
 20
215.0329548352518
 30
0.0
 11
590.1320547875388
 21
212.7890871966689
 31
0.0
  0
LINE
  5
1315
330
1A
100
AcDbEntity
  8
SEIHIN
100
AcDbLine
 10
594.8210081512299
 20
212.4598520385517
 30
0.0
 11
590.1320547875388
 21
211.4598520385517
 31
0.0
  0
LINE
  5
1316
330
1A
100
AcDbEntity
  8
SEIHIN
  6
CONTINUOUS
 62
     3
 48
0.5
100
AcDbLine
 10
590.1320547875388
 20
211.4598520385517
 30
0.0
 11
590.1320547875388
 21
208.8498520385518
 31
0.0
  0
LINE
  5
1317
330
1A
100
AcDbEntity
  8
SEIHIN
100
AcDbLine
 10
595.0786293995155
 20
209.1998520385517
 30
0.0
 11
595.0666017533574
 21
208.1998520385517
 31
0.0
  0
LINE
  5
1318
330
1A
100
AcDbEntity
  8
SEIHIN
  6
CONTINUOUS
 62
     3
 48
0.5
100
AcDbLine
 10
590.4241749074389
 20
215.4876920730517
 30
0.0
 11
594.5213041053665
 21
217.3606654206923
 31
0.0
  0
ARC
  5
1319
330
1A
100
AcDbEntity
  8
SEIHIN
  6
CONTINUOUS
 62
     3
 48
0.5
100
AcDbCircle
 10
590.6320547875388
 20
215.0329548352518
 30
0.0
 40
0.5
100
AcDbArc
 50
114.5671713205985
 51
180.0
  0
ARC
  5
131A
330
1A
100
AcDbEntity
  8
SEIHIN
  6
CONTINUOUS
 62
     3
 48
0.5
100
AcDbCircle
 10
596.422991679516
 20
215.9320424148868
 30
0.0
 40
0.2
100
AcDbArc
 50
163.6104596672128
 51
265.8398945314786
  0
ARC
  5
131B
330
1A
100
AcDbEntity
  8
SEIHIN
  6
CONTINUOUS
 62
     3
 48
0.5
100
AcDbCircle
 10
596.422991679516
 20
215.9320424148868
 30
0.0
 40
0.3
100
AcDbArc
 50
163.6104596672128
 51
265.8398945314786
  0
ARC
  5
131C
330
1A
100
AcDbEntity
  8
SEIHIN
100
AcDbCircle
 10
596.3166405386764
 20
214.0347586209739
 30
0.0
 40
0.3
100
AcDbArc
 50
85.83989453139057
 51
183.74391734541
  0
ARC
  5
131D
330
1A
100
AcDbEntity
  8
SEIHIN
100
AcDbCircle
 10
824.2292031831555
 20
228.9486376880174
 30
0.0
 40
230.0
100
AcDbArc
 50
182.8879265935681
 51
183.7839798633391
  0
ARC
  5
131E
330
1A
100
AcDbEntity
  8
SEIHIN
  6
CONTINUOUS
 62
     3
 48
0.5
100
AcDbCircle
 10
596.8549176947781
 20
219.526996284654
 30
0.0
 40
0.4
100
AcDbArc
 50
343.610459667213
 51
114.5671713203838
  0
ARC
  5
131F
330
1A
100
AcDbEntity
  8
SEIHIN
  6
CONTINUOUS
 62
     3
 48
0.5
100
AcDbCircle
 10
596.8549176947781
 20
219.526996284654
 30
0.0
 40
0.3
100
AcDbArc
 50
343.610459667213
 51
114.5671713203838
  0
ARC
  5
1320
330
1A
100
AcDbEntity
  8
SEIHIN
  6
CONTINUOUS
 62
     3
 48
0.5
100
AcDbCircle
 10
607.8737041374388
 20
192.8498520385517
 30
0.0
 40
3.0
100
AcDbArc
 50
287.5817914225009
 51
90.0000047610003
  0
ARC
  5
1321
330
1A
100
AcDbEntity
  8
SEIHIN
  6
CONTINUOUS
 62
     3
 48
0.5
100
AcDbCircle
 10
607.8737041374388
 20
192.8498520385517
 30
0.0
 40
1.7
100
AcDbArc
 50
293.8424792123986
 51
89.99999617319895
  0
LINE
  5
1322
330
1A
100
AcDbEntity
  8
SEIHIN
  6
CONTINUOUS
 62
     3
 48
0.5
100
AcDbLine
 10
607.0427041374389
 20
194.5498520385517
 30
0.0
 11
607.8737041374388
 21
194.5498520385517
 31
0.0
  0
LINE
  5
1323
330
1A
100
AcDbEntity
  8
SEIHIN
  6
CONTINUOUS
 62
     3
 48
0.5
100
AcDbLine
 10
614.2218437566512
 20
213.8584476191325
 30
0.0
 11
612.4607533203389
 21
206.2372791070517
 31
0.0
  0
ARC
  5
1324
330
1A
100
AcDbEntity
  8
SEIHIN
  6
CONTINUOUS
 62
     3
 48
0.5
100
AcDbCircle
 10
609.8889996682388
 20
207.6498520385517
 30
0.0
 40
0.5
100
AcDbArc
 50
159.4667908810001
 51
270.0
  0
LINE
  5
1325
330
1A
100
AcDbEntity
  8
SEIHIN
  6
CONTINUOUS
 62
     3
 48
0.5
100
AcDbLine
 10
607.5456628160388
 20
206.5252271513517
 30
0.0
 11
608.8467867802388
 21
209.9991018130517
 31
0.0
  0
ARC
  5
1326
330
1A
100
AcDbEntity
  8
SEIHIN
  6
CONTINUOUS
 62
     3
 48
0.5
100
AcDbCircle
 10
610.9397362642388
 20
207.6498520385517
 30
0.0
 40
0.5
100
AcDbArc
 50
270.0
 51
346.9885444268998
  0
LINE
  5
1327
330
1A
100
AcDbEntity
  8
SEIHIN
  6
CONTINUOUS
 62
     3
 48
0.5
100
AcDbLine
 10
607.0427041374389
 20
195.8498520385517
 30
0.0
 11
607.8737041374388
 21
195.8498520385517
 31
0.0
  0
LINE
  5
1328
330
1A
100
AcDbEntity
  8
SEIHIN
  6
CONTINUOUS
 62
     3
 48
0.5
100
AcDbLine
 10
611.9735907857389
 20
205.8498520385517
 30
0.0
 11
608.0138973404388
 21
205.8498520385517
 31
0.0
  0
ARC
  5
1329
330
1A
100
AcDbEntity
  8
SEIHIN
  6
CONTINUOUS
 62
     3
 48
0.5
100
AcDbCircle
 10
608.0138973404388
 20
206.3498520385517
 30
0.0
 40
0.5
100
AcDbArc
 50
159.4667908810001
 51
270.0
  0
ARC
  5
132A
330
1A
100
AcDbEntity
  8
SEIHIN
  6
CONTINUOUS
 62
     3
 48
0.5
100
AcDbCircle
 10
611.9735907857389
 20
206.3498520385517
 30
0.0
 40
0.5
100
AcDbArc
 50
270.0
 51
346.9885444268998
  0
LINE
  5
132B
330
1A
100
AcDbEntity
  8
SEIHIN
  6
CONTINUOUS
 62
     3
 48
0.5
100
AcDbLine
 10
610.9397362642388
 20
207.1498520385517
 30
0.0
 11
609.8889996682388
 21
207.1498520385517
 31
0.0
  0
ARC
  5
132C
330
1A
100
AcDbEntity
  8
SEIHIN
  6
CONTINUOUS
 62
     3
 48
0.5
100
AcDbCircle
 10
612.1034759861388
 20
212.6859684932517
 30
0.0
 40
0.5
100
AcDbArc
 50
346.9885444268998
 51
85.83989453159956
  0
ARC
  5
132D
330
1A
100
AcDbEntity
  8
SEIHIN
  6
CONTINUOUS
 62
     3
 48
0.5
100
AcDbCircle
 10
607.9103177315388
 20
210.3498520385516
 30
0.0
 40
2.299999999999999
100
AcDbArc
 50
339.4667980253998
 51
90.00000290149964
  0
LINE
  5
132E
330
1A
100
AcDbEntity
  8
SEIHIN
  6
CONTINUOUS
 62
     3
 48
0.5
100
AcDbLine
 10
607.9103176150388
 20
212.6498520385517
 30
0.0
 11
608.2174774635388
 21
213.4699390127518
 31
0.0
  0
LINE
  5
132F
330
1A
100
AcDbEntity
  8
SEIHIN
  6
CONTINUOUS
 62
     3
 48
0.5
100
AcDbLine
 10
606.5163873351389
 20
212.6345346906517
 30
0.0
 11
606.8660994309388
 21
213.5682320337517
 31
0.0
  0
LINE
  5
1330
330
1A
100
AcDbEntity
  8
SEIHIN
  6
CONTINUOUS
 62
     3
 48
0.5
100
AcDbLine
 10
609.4207651438389
 20
207.8252271513517
 30
0.0
 11
610.0641965436389
 21
209.5431265198517
 31
0.0
  0
ARC
  5
1331
330
1A
100
AcDbEntity
  8
SEIHIN
  6
CONTINUOUS
 62
     3
 48
0.5
100
AcDbCircle
 10
607.9103177315388
 20
210.3498520385516
 30
0.0
 40
1.0
100
AcDbArc
 50
339.4667908810002
 51
90.0
  0
LINE
  5
1332
330
1A
100
AcDbEntity
  8
SEIHIN
  6
CONTINUOUS
 62
     3
 48
0.5
100
AcDbLine
 10
607.9103177315388
 20
211.3498520385517
 30
0.0
 11
607.0427043367389
 21
211.3498520385517
 31
0.0
  0
LINE
  5
1333
330
1A
100
AcDbEntity
  8
SEIHIN
  6
CONTINUOUS
 62
     3
 48
0.5
100
AcDbLine
 10
612.5906385206389
 20
212.5733955617517
 30
0.0
 11
611.4268987988388
 21
207.5372791070518
 31
0.0
  0
LINE
  5
1334
330
1A
100
AcDbEntity
  8
SEIHIN
  6
CONTINUOUS
 62
     3
 48
0.5
100
AcDbLine
 10
608.2174774635388
 20
213.4699390127518
 30
0.0
 11
612.1397478653388
 21
213.1846511085517
 31
0.0
  0
ARC
  5
1335
330
1A
100
AcDbEntity
  8
SEIHIN
  6
CONTINUOUS
 62
     3
 48
0.5
100
AcDbCircle
 10
613.7346812220678
 20
213.9710205505962
 30
0.0
 40
0.5
100
AcDbArc
 50
346.988544427061
 51
85.83989453147875
  0
ARC
  5
1336
330
1A
100
AcDbEntity
  8
SEIHIN
  6
CONTINUOUS
 62
     3
 48
0.5
100
AcDbCircle
 10
613.7118952750388
 20
213.8724137225517
 30
0.0
 40
0.5
100
AcDbArc
 50
346.9885444268998
 51
85.83989453159956
  0
DIMENSION
  5
1348
330
1A
100
AcDbEntity
  8
SUNPOU
100
AcDbDimension
  2
*D11
 10
713.6747183761335
 20
164.4798520385517
 30
0.0
 11
711.1747183761336
 21
171.9798520385518
 31
0.0
 70
    32
  3
STANDARD
100
AcDbAlignedDimension
 13
727.2927041374389
 23
179.4798520385517
 33
0.0
 14
722.2927041374389
 24
164.4798520385517
 34
0.0
 50
90.0
100
AcDbRotatedDimension
1001
ACAD
1000
DSTYLE
1002
{
1070
   372
1070
    -1
1070
   371
1070
    -1
1070
    41
1040
3.0
1070
    42
1040
3.0
1070
    43
1040
7.0
1070
    44
1040
1.5
1070
    73
1070
     0
1070
    74
1070
     0
1070
    77
1070
     3
1070
   140
1040
3.0
1070
   141
1040
150.0
1070
   147
1040
1.0
1070
   172
1070
     1
1070
   173
1070
     1
1070
   176
1070
   256
1070
   177
1070
   256
1070
   178
1070
   256
1070
   271
1070
     0
1070
   272
1070
     2
1070
     6
1000
OPEN
1070
     7
1000
OPEN
1002
}
  0
DIMENSION
  5
1349
330
1A
100
AcDbEntity
  8
SUNPOU
100
AcDbDimension
  2
*D12
 10
722.2927041374389
 20
190.273475015877
 30
0.0
 11
728.1581928081293
 21
192.773475015877
 31
0.0
 70
    32
  3
STANDARD
100
AcDbAlignedDimension
 13
734.0236814788198
 23
174.224247835436
 33
0.0
 14
722.2927041374389
 24
164.4798520385517
 34
0.0
100
AcDbRotatedDimension
1001
ACAD
1000
DSTYLE
1002
{
1070
   372
1070
    -1
1070
   371
1070
    -1
1070
    41
1040
3.0
1070
    42
1040
3.0
1070
    43
1040
7.0
1070
    44
1040
1.5
1070
    73
1070
     0
1070
    74
1070
     0
1070
    77
1070
     3
1070
   140
1040
3.0
1070
   141
1040
150.0
1070
   147
1040
1.0
1070
   172
1070
     1
1070
   173
1070
     1
1070
   176
1070
   256
1070
   177
1070
   256
1070
   178
1070
   256
1070
   271
1070
     0
1070
   272
1070
     2
1070
     6
1000
OPEN
1070
     7
1000
OPEN
1002
}
  0
DIMENSION
  5
134A
330
1A
100
AcDbEntity
  8
SUNPOU
100
AcDbDimension
  2
*D13
 10
757.4143992641359
 20
109.4818212687756
 30
0.0
 11
754.9143992641359
 21
144.4808366536638
 31
0.0
 70
    32
  3
STANDARD
100
AcDbAlignedDimension
 13
727.2927041374389
 23
179.4798520385517
 33
0.0
 14
681.656163447895
 24
109.4818212687756
 34
0.0
 50
90.0
100
AcDbRotatedDimension
1001
ACAD
1000
DSTYLE
1002
{
1070
   372
1070
    -1
1070
   371
1070
    -1
1070
    41
1040
3.0
1070
    42
1040
3.0
1070
    43
1040
7.0
1070
    44
1040
1.5
1070
    73
1070
     0
1070
    74
1070
     0
1070
    77
1070
     3
1070
   140
1040
3.0
1070
   141
1040
150.0
1070
   147
1040
1.0
1070
   172
1070
     1
1070
   173
1070
     1
1070
   176
1070
   256
1070
   177
1070
   256
1070
   178
1070
   256
1070
   271
1070
     0
1070
   272
1070
     2
1070
     6
1000
OPEN
1070
     7
1000
OPEN
1002
}
1000
ASC_BOUNDS
1002
{
1070
    19
1002
}
  0
LINE
  5
134B
330
1A
100
AcDbEntity
  8
SEIHIN
  6
CONTINUOUS
 62
     3
 48
0.5
100
AcDbLine
 10
732.7253812612389
 20
174.2907049282517
 30
0.0
 11
732.3415952876389
 21
166.7930941848517
 31
0.0
  0
LINE
  5
134C
330
1A
100
AcDbEntity
  8
SEIHIN
  6
CONTINUOUS
 62
     3
 48
0.5
100
AcDbLine
 10
725.2927041374389
 20
176.4798520385517
 30
0.0
 11
722.2927041374389
 21
164.4798520385517
 31
0.0
1001
ACAD
1000
ASC_BOUNDS
1002
{
1070
    19
1002
}
  0
LINE
  5
134D
330
1A
100
AcDbEntity
  8
SEIHIN
  6
CONTINUOUS
 62
     3
 48
0.5
100
AcDbLine
 10
726.3077134658388
 20
175.1798520385517
 30
0.0
 11
724.0021551252389
 21
165.9576186762518
 31
0.0
  0
LINE
  5
134E
330
1A
100
AcDbEntity
  8
SEIHIN
  6
CONTINUOUS
 62
     3
 48
0.5
100
AcDbLine
 10
734.0236814787388
 20
174.2242478354517
 30
0.0
 11
730.9986015281915
 21
115.1265384446346
 31
0.0
  0
LINE
  5
134F
330
1A
100
AcDbEntity
  8
ZUWAKU
100
AcDbLine
 10
785.3975268656423
 20
31.60023820025321
 30
0.0
 11
809.6134308848109
 21
31.60023820025321
 31
0.0
  0
LINE
  5
1350
330
1A
100
AcDbEntity
  8
ZUWAKU
100
AcDbLine
 10
785.3975268656425
 20
31.70023820025321
 30
0.0
 11
809.6134308848109
 21
31.70023820025321
 31
0.0
  0
LINE
  5
1351
330
1A
100
AcDbEntity
  8
ZUWAKU
100
AcDbLine
 10
785.3975268656423
 20
31.80023820025321
 30
0.0
 11
809.6134308848109
 21
31.80023820025321
 31
0.0
  0
TEXT
  5
1352
330
1A
100
AcDbEntity
  8
ZUWAKU
100
AcDbText
 10
790.0908944541915
 20
33.00269872895688
 30
0.0
 40
2.799999999999999
  1
　　．　　．　　
 41
0.9
  7
ｽﾀｲﾙ1
100
AcDbText
  0
LINE
  5
1353
330
1A
100
AcDbEntity
  8
ZUWAKU
100
AcDbLine
 10
713.5885153596107
 20
31.60023820025321
 30
0.0
 11
737.2524034935964
 21
31.60023820025321
 31
0.0
  0
LINE
  5
1354
330
1A
100
AcDbEntity
  8
ZUWAKU
100
AcDbLine
 10
713.5885153596107
 20
31.70023820025321
 30
0.0
 11
737.2524034935964
 21
31.70023820025321
 31
0.0
  0
LINE
  5
1355
330
1A
100
AcDbEntity
  8
ZUWAKU
100
AcDbLine
 10
713.5885153596107
 20
31.80023820025321
 30
0.0
 11
737.2524034935964
 21
31.80023820025321
 31
0.0
  0
TEXT
  5
1356
330
1A
100
AcDbEntity
  8
MOJI
100
AcDbText
 10
688.7778294653486
 20
29.97154706108318
 30
0.0
 40
2.799999999999999
  1
ＣＡ９４・８４□
 41
0.9
  7
ｽﾀｲﾙ1
100
AcDbText
  0
LINE
  5
1357
330
1A
100
AcDbEntity
  8
ZUWAKU
100
AcDbLine
 10
684.8011075960358
 20
39.00023820025319
 30
0.0
 11
684.801107596036
 21
24.40023820025322
 31
0.0
  0
LINE
  5
1358
330
1A
100
AcDbEntity
  8
ZUWAKU
100
AcDbLine
 10
684.9011075960358
 20
39.00023820025319
 30
0.0
 11
684.901107596036
 21
24.40023820025322
 31
0.0
  0
LINE
  5
1359
330
1A
100
AcDbEntity
  8
ZUWAKU
100
AcDbLine
 10
684.7011075960359
 20
39.00023820025319
 30
0.0
 11
684.7011075960359
 21
24.40023820025322
 31
0.0
  0
TEXT
  5
135A
330
1A
100
AcDbEntity
  8
MOJI
100
AcDbText
 10
725.0093795966967
 20
33.00269872895688
 30
0.0
 40
2.799999999999999
  1
Ａ３
 41
0.9
  7
ｽﾀｲﾙ1
100
AcDbText
  0
LINE
  5
135B
330
1A
100
AcDbEntity
  8
ZUWAKU
100
AcDbLine
 10
713.4885153596107
 20
39.00023820025319
 30
0.0
 11
713.4885153596107
 21
24.40023820025322
 31
0.0
  0
LINE
  5
135C
330
1A
100
AcDbEntity
  8
ZUWAKU
100
AcDbLine
 10
713.5885153596107
 20
39.00023820025319
 30
0.0
 11
713.5885153596108
 21
24.40023820025322
 31
0.0
  0
LINE
  5
135D
330
1A
100
AcDbEntity
  8
ZUWAKU
100
AcDbLine
 10
713.3885153596107
 20
39.00023820025319
 30
0.0
 11
713.3885153596107
 21
24.40023820025322
 31
0.0
  0
TEXT
  5
135E
330
1A
100
AcDbEntity
  8
ZUWAKU
100
AcDbText
 10
692.3358064382938
 20
25.30727365582293
 30
0.0
 40
1.5
  1
□には色品番が入ります
 41
0.9
  7
ｽﾀｲﾙ1
100
AcDbText
  0
TEXT
  5
135F
330
1A
100
AcDbEntity
  8
ZUWAKU
100
AcDbText
 10
714.3272378707156
 20
28.827916469446
 30
0.0
 40
2.0
  1
縮尺
 41
0.9
  7
ｽﾀｲﾙ1
100
AcDbText
  0
TEXT
  5
1360
330
1A
100
AcDbEntity
  8
MOJI
100
AcDbText
 10
725.0093795966967
 20
25.6026987289569
 30
0.0
 40
2.799999999999999
  1
１/１
 41
0.9
  7
ｽﾀｲﾙ1
100
AcDbText
  0
TEXT
  5
1361
330
1A
100
AcDbEntity
  8
ZUWAKU
100
AcDbText
 10
685.6398301071407
 20
36.02791646944598
 30
0.0
 40
2.0
  1
品番
 41
0.9
  7
ｽﾀｲﾙ1
100
AcDbText
  0
TEXT
  5
1362
330
1A
100
AcDbEntity
  8
ZUWAKU
100
AcDbText
 10
714.3272378707155
 20
36.02791646944598
 30
0.0
 40
2.0
  1
用紙
 41
0.9
  7
ｽﾀｲﾙ1
100
AcDbText
  0
LINE
  5
1363
330
1A
100
AcDbEntity
  8
ZUWAKU
100
AcDbLine
 10
785.2975268656424
 20
39.00023820025319
 30
0.0
 11
785.2975268656425
 21
24.40023820025322
 31
0.0
  0
LINE
  5
1364
330
1A
100
AcDbEntity
  8
ZUWAKU
100
AcDbLine
 10
785.3975268656425
 20
39.00023820025319
 30
0.0
 11
785.3975268656426
 21
24.40023820025322
 31
0.0
  0
LINE
  5
1365
330
1A
100
AcDbEntity
  8
ZUWAKU
100
AcDbLine
 10
785.1975268656425
 20
39.00023820025319
 30
0.0
 11
785.1975268656425
 21
24.40023820025322
 31
0.0
  0
LINE
  5
1366
330
1A
100
AcDbEntity
  8
ZUWAKU
100
AcDbLine
 10
737.3524034935964
 20
39.00023820025319
 30
0.0
 11
737.3524034935964
 21
24.40023820025322
 31
0.0
  0
LINE
  5
1367
330
1A
100
AcDbEntity
  8
ZUWAKU
100
AcDbLine
 10
737.4524034935964
 20
39.00023820025319
 30
0.0
 11
737.4524034935965
 21
24.40023820025322
 31
0.0
  0
LINE
  5
1368
330
1A
100
AcDbEntity
  8
ZUWAKU
100
AcDbLine
 10
737.2524034935964
 20
39.00023820025319
 30
0.0
 11
737.2524034935964
 21
24.40023820025322
 31
0.0
  0
TEXT
  5
1369
330
1A
100
AcDbEntity
  8
ZUWAKU
100
AcDbText
 10
786.1362493767472
 20
36.02791646944598
 30
0.0
 40
2.0
  1
DATE
 41
0.9
  7
ｽﾀｲﾙ1
100
AcDbText
  0
DIMENSION
  5
136A
330
1A
100
AcDbEntity
  8
SUNPOU
100
AcDbDimension
  2
*D14
 10
732.2856375482474
 20
140.2699666951906
 30
0.0
 11
743.3990568749861
 21
142.2043686358619
 31
0.0
 70
    33
  1
t<>
  3
STANDARD
100
AcDbAlignedDimension
 13
730.9873373307389
 23
140.3364237880017
 33
0.0
 14
732.2856375482476
 24
140.2699666951905
 34
0.0
1001
ACAD
1000
DSTYLE
1002
{
1070
   372
1070
    -1
1070
   371
1070
    -1
1070
    41
1040
3.0
1070
    42
1040
3.0
1070
    43
1040
7.0
1070
    44
1040
1.5
1070
    73
1070
     0
1070
    74
1070
     0
1070
    77
1070
     3
1070
   140
1040
3.0
1070
   141
1040
150.0
1070
   147
1040
1.0
1070
   172
1070
     1
1070
   173
1070
     1
1070
   176
1070
   256
1070
   177
1070
   256
1070
   178
1070
   256
1070
   271
1070
     1
1070
   272
1070
     2
1070
     6
1000
OPEN
1070
     7
1000
OPEN
1002
}
  0
LINE
  5
136B
330
1A
100
AcDbEntity
  8
SEIHIN
  6
CONTINUOUS
 62
     3
 48
0.5
100
AcDbLine
 10
732.2743733508389
 20
165.4798520385517
 30
0.0
 11
729.7003013106388
 21
115.1929955374517
 31
0.0
1001
ACAD
1000
ASC_BOUNDS
1002
{
1070
    19
1002
}
  0
LINE
  5
136C
330
1A
100
AcDbEntity
  8
CENTER_L0
  6
CENTER
 62
     1
 48
5.0
100
AcDbLine
 10
681.656163447895
 20
100.5447631805969
 30
0.0
 11
681.656163447895
 21
122.6782133527809
 31
0.0
  0
ARC
  5
136D
330
1A
100
AcDbEntity
  8
SEIHIN
  6
CONTINUOUS
 62
     3
 48
0.5
100
AcDbCircle
 10
726.0051391530389
 20
115.3821426477517
 30
0.0
 40
3.7
100
AcDbArc
 50
272.440237703901
 51
357.0697143352
1001
ACAD
1000
ASC_BOUNDS
1002
{
1070
    19
1002
}
  0
ARC
  5
136E
330
1A
100
AcDbEntity
  8
SEIHIN
  6
CONTINUOUS
 62
     3
 48
0.5
100
AcDbCircle
 10
726.0051391530389
 20
115.3821426477517
 30
0.0
 40
5.0
100
AcDbArc
 50
272.440237703901
 51
357.0697143352
  0
LINE
  5
136F
330
1A
100
AcDbEntity
  8
SEIHIN
  6
CONTINUOUS
 62
     3
 48
0.5
100
AcDbLine
 10
724.0021551252389
 20
165.9576186762518
 30
0.0
 11
732.3415952876389
 21
166.7930941848517
 31
0.0
  0
LINE
  5
1370
330
1A
100
AcDbEntity
  8
SEIHIN
  6
CONTINUOUS
 62
     3
 48
0.5
100
AcDbLine
 10
722.2927041374389
 20
164.4798520385517
 30
0.0
 11
732.2743733508389
 21
165.4798520385517
 31
0.0
1001
ACAD
1000
ASC_BOUNDS
1002
{
1070
    19
1002
}
  0
LINE
  5
1371
330
1A
100
AcDbEntity
  8
ZUWAKU
100
AcDbLine
 10
809.6134308848109
 20
39.00023820025319
 30
0.0
 11
809.6134308848109
 21
24.40023820025322
 31
0.0
  0
LINE
  5
1372
330
1A
100
AcDbEntity
  8
ZUWAKU
100
AcDbLine
 10
809.7134308848108
 20
39.00023820025319
 30
0.0
 11
809.7134308848108
 21
24.40023820025322
 31
0.0
  0
LINE
  5
1373
330
1A
100
AcDbEntity
  8
ZUWAKU
100
AcDbLine
 10
809.8134308848107
 20
39.00023820025319
 30
0.0
 11
809.8134308848109
 21
24.40023820025322
 31
0.0
  0
LINE
  5
1374
330
1A
100
AcDbEntity
  8
ZUWAKU
100
AcDbLine
 10
809.9134308848109
 20
39.00023820025319
 30
0.0
 11
809.9134308848109
 21
24.40023820025322
 31
0.0
  0
TEXT
  5
1375
330
1A
100
AcDbEntity
  8
ZUWAKU
100
AcDbText
 10
815.252967706662
 20
32.77715786809659
 30
0.0
 40
3.0
  1
積水化学工業株式会社
 41
0.9
  7
ｽﾀｲﾙ1
100
AcDbText
  0
TEXT
  5
1376
330
1A
100
AcDbEntity
  8
ZUWAKU
100
AcDbText
 10
815.252967706662
 20
27.32465835718022
 30
0.0
 40
3.0
  1
建材事業部
 41
0.9
  7
ｽﾀｲﾙ1
100
AcDbText
  0
LINE
  5
13B9
330
1A
100
AcDbEntity
  8
SEIHIN
  6
CONTINUOUS
 62
     3
 48
0.5
100
AcDbLine
 10
728.5927041374389
 20
175.1798520385517
 30
0.0
 11
726.3077134658388
 21
175.1798520385517
 31
0.0
  0
LINE
  5
13BA
330
1A
100
AcDbEntity
  8
SEIHIN
  6
CONTINUOUS
 62
     3
 48
0.5
100
AcDbLine
 10
727.2927041374389
 20
179.4798520385517
 30
0.0
 11
729.0302191037389
 21
179.4798520385517
 31
0.0
1001
ACAD
1000
ASC_BOUNDS
1002
{
1070
    19
1002
}
  0
LINE
  5
13BB
330
1A
100
AcDbEntity
  8
SEIHIN
  6
CONTINUOUS
 62
     3
 48
0.5
100
AcDbLine
 10
727.2927041374389
 20
179.4798520385517
 30
0.0
 11
727.2927041374389
 21
176.4798520385517
 31
0.0
1001
ACAD
1000
ASC_BOUNDS
1002
{
1070
    19
1002
}
  0
LINE
  5
13BC
330
1A
100
AcDbEntity
  8
SEIHIN
  6
CONTINUOUS
 62
     3
 48
0.5
100
AcDbLine
 10
727.2927041374389
 20
176.4798520385517
 30
0.0
 11
725.2927041374389
 21
176.4798520385517
 31
0.0
1001
ACAD
1000
ASC_BOUNDS
1002
{
1070
    19
1002
}
  0
ARC
  5
13BD
330
1A
100
AcDbEntity
  8
SEIHIN
  6
CONTINUOUS
 62
     3
 48
0.5
100
AcDbCircle
 10
729.0302191037389
 20
174.4798520385517
 30
0.0
 40
3.7
100
AcDbArc
 50
357.0697143352
 51
90.0
  0
ARC
  5
13BE
330
1A
100
AcDbEntity
  8
SEIHIN
  6
CONTINUOUS
 62
     3
 48
0.5
100
AcDbCircle
 10
729.0302191037389
 20
174.4798520385517
 30
0.0
 40
5.0
100
AcDbArc
 50
357.0697143352
 51
90.0
  0
LINE
  5
13BF
330
1A
100
AcDbEntity
  8
SEIHIN
  6
CONTINUOUS
 62
     3
 48
0.5
100
AcDbLine
 10
728.5927041374389
 20
178.1798520385517
 30
0.0
 11
729.0302191037389
 21
178.1798520385517
 31
0.0
  0
LINE
  5
13C0
330
1A
100
AcDbEntity
  8
SEIHIN
  6
CONTINUOUS
 62
     3
 48
0.5
100
AcDbLine
 10
728.5927041374389
 20
178.1798520385517
 30
0.0
 11
728.5927041374389
 21
175.1798520385517
 31
0.0
  0
LINE
  5
1554
330
1A
100
AcDbEntity
  8
KEIJYO
 62
   251
100
AcDbLine
 10
596.1251489526769
 20
219.9270094141829
 30
0.0
 11
597.5845219032988
 21
219.9269831566417
 31
0.0
  0
LINE
  5
1555
330
1A
100
AcDbEntity
  8
KEIJYO
 62
   251
100
AcDbLine
 10
596.8548354277516
 20
220.6566696321889
 30
0.0
 11
596.8548354277516
 21
219.1972966810943
 31
0.0
  0
CIRCLE
  5
1556
330
1A
100
AcDbEntity
  8
KEIJYO
 62
   251
100
AcDbCircle
 10
596.8548354277516
 20
219.9269831566417
 30
0.0
 40
0.7296864755473437
  0
CIRCLE
  5
19A4
330
1A
100
AcDbEntity
  8
KEIJYO
 62
   251
100
AcDbCircle
 10
608.8467867799984
 20
209.9990886842697
 30
0.0
 40
0.7296864755473437
  0
LINE
  5
19A5
330
1A
100
AcDbEntity
  8
KEIJYO
 62
   251
100
AcDbLine
 10
608.8467867799984
 20
210.7287751598169
 30
0.0
 11
608.8467867799984
 21
209.2694022087223
 31
0.0
  0
LINE
  5
19A6
330
1A
100
AcDbEntity
  8
KEIJYO
 62
   251
100
AcDbLine
 10
608.1171003049235
 20
209.9991149418109
 30
0.0
 11
609.5764732555456
 21
209.9990886842697
 31
0.0
  0
VIEWPORT
  5
22
330
17
100
AcDbEntity
 67
     1
  8
0
100
AcDbViewport
 10
313.6808219178082
 20
148.5
 30
0.0
 40
627.3616438356165
 41
297.0
 68
     2
 69
     1
1001
ACAD
1000
MVIEW
1002
{
1070
    16
1010
0.0
1020
0.0
1030
0.0
1010
0.0
1020
0.0
1030
1.0
1040
0.0
1040
297.0
1040
313.6808219178082
1040
148.5
1040
50.0
1040
0.0
1040
0.0
1070
     0
1070
   100
1070
     1
1070
     0
1070
     0
1070
     0
1070
     0
1070
     0
1040
0.0
1040
0.0
1040
0.0
1040
1.0
1040
1.0
1040
10.0
1040
10.0
1070
     0
1002
{
1002
}
1002
}
  0
VIEWPORT
  5
64
330
17
100
AcDbEntity
 67
     1
  8
VIEWPORT
100
AcDbViewport
 10
210.0
 20
148.5
 30
0.0
 40
420.0
 41
297.0
 68
     1
 69
     2
1001
ACAD
1000
MVIEW
1002
{
1070
    16
1010
0.0
1020
0.0
1030
0.0
1010
0.0
1020
0.0
1030
1.0
1040
0.0
1040
302.9399999999998
1040
210.0
1040
148.5
1040
50.0
1040
0.0
1040
0.0
1070
     0
1070
   100
1070
     1
1070
     0
1070
     0
1070
     0
1070
     0
1070
     0
1040
0.0
1040
0.0
1040
0.0
1040
5.0
1040
5.0
1040
0.0
1040
0.0
1070
     0
1002
{
1002
}
1002
}
  0
ENDSEC
  0
SECTION
  2
OBJECTS
  0
DICTIONARY
  5
C
330
0
100
AcDbDictionary
  3
ACAD_GROUP
350
D
  3
ACAD_LAYOUT
350
352
  3
ACAD_MLINESTYLE
350
E
  3
ACAD_PLOTSETTINGS
350
353
  3
ACAD_PLOTSTYLENAME
350
350
  3
ACDBHEADERROUNDTRIPXREC
350
19AF
  0
DICTIONARY
  5
64B
330
1A
100
AcDbDictionary
280
     1
  3
ACAD_LAYOUTSELFREF
360
19D1
  0
DICTIONARY
  5
649
330
17
100
AcDbDictionary
280
     1
  3
ACAD_LAYOUTSELFREF
360
19D0
  0
DICTIONARY
  5
D
102
{ACAD_REACTORS
330
C
102
}
330
C
100
AcDbDictionary
  3
*A1
350
FAF
  3
*A2
350
1546
  0
DICTIONARY
  5
352
102
{ACAD_REACTORS
330
C
102
}
330
C
100
AcDbDictionary
  0
DICTIONARY
  5
E
102
{ACAD_REACTORS
330
C
102
}
330
C
100
AcDbDictionary
  3
STANDARD
350
13
  0
DICTIONARY
  5
353
102
{ACAD_REACTORS
330
C
102
}
330
C
100
AcDbDictionary
  0
ACDBDICTIONARYWDFLT
  5
350
102
{ACAD_REACTORS
330
C
102
}
330
C
100
AcDbDictionary
281
     1
  3
Normal
350
351
100
AcDbDictionaryWithDefault
340
351
1001
ACAD
1000
TREAT_AS_HARD
1070
     0
1000
TREAT_AS_HARD
1070
     0
1000
TREAT_AS_HARD
1070
     0
1000
TREAT_AS_HARD
1070
     0
1000
TREAT_AS_HARD
1070
     0
  0
DICTIONARY
  5
19AF
102
{ACAD_REACTORS
330
C
102
}
330
C
100
AcDbDictionary
  3
TSTACKALIGN
350
19B0
  3
TSTACKSIZE
350
19B1
  3
HYPERLINKBASE
350
19B2
  3
STYLESHEET
350
19B3
  3
LAYOUTDICT
350
19B4
  3
PLOTSETDICT
350
19B5
  3
PLOTSTYLNAMDICT
350
19B6
  3
LWETCUNION
350
19B7
  3
INSUNITS
350
19B8
  3
CEPSNTYPE
350
19B9
  3
FINGERPRINTGUID
350
19BA
  3
VERSIONGUID
350
19BB
  3
PSVPSCALE
350
19BC
  3
DIMSTYLEDATA
350
19BD
  3
PUCSORTHOREF
350
19BE
  3
PUCSORTHOVIEW
350
19BF
  3
PUCSBASE
350
19C0
  3
PUCSORGTOP
350
19C1
  3
PUCSORGBOTTOM
350
19C2
  3
PUCSORGLEFT
350
19C3
  3
PUCSORGRIGHT
350
19C4
  3
PUCSORGFRONT
350
19C5
  3
PUCSORGBACK
350
19C6
  3
UCSORTHOREF
350
19C7
  3
UCSORTHOVIEW
350
19C8
  3
UCSBASE
350
19C9
  3
UCSORGTOP
350
19CA
  3
UCSORGBOTTOM
350
19CB
  3
UCSORGLEFT
350
19CC
  3
UCSORGRIGHT
350
19CD
  3
UCSORGFRONT
350
19CE
  3
UCSORGBACK
350
19CF
  0
XRECORD
  5
19D1
102
{ACAD_REACTORS
330
64B
102
}
330
64B
100
AcDbXrecord
340
1A
  0
XRECORD
  5
19D0
102
{ACAD_REACTORS
330
649
102
}
330
649
100
AcDbXrecord
340
17
  0
GROUP
  5
FAF
102
{ACAD_REACTORS
330
D
102
}
330
D
100
AcDbGroup
300

 70
     1
 71
     1
  0
GROUP
  5
1546
102
{ACAD_REACTORS
330
D
102
}
330
D
100
AcDbGroup
300

 70
     1
 71
     1
  0
MLINESTYLE
  5
13
102
{ACAD_REACTORS
330
E
102
}
330
E
100
AcDbMlineStyle
  2
STANDARD
 70
     0
  3

 62
     0
 51
90.0
 52
90.0
 71
     2
 49
0.5
 62
   256
  6
BYLAYER
 49
-0.5
 62
   256
  6
BYLAYER
  0
ACDBPLACEHOLDER
  5
351
102
{ACAD_REACTORS
330
350
102
}
330
350
100
AcDbPlaceHolder
280
     0
  0
XRECORD
  5
19B0
102
{ACAD_REACTORS
330
19AF
102
}
330
19AF
100
AcDbXrecord
 90
        1
  0
XRECORD
  5
19B1
102
{ACAD_REACTORS
330
19AF
102
}
330
19AF
100
AcDbXrecord
 90
       70
  0
XRECORD
  5
19B2
102
{ACAD_REACTORS
330
19AF
102
}
330
19AF
100
AcDbXrecord
  1

  0
XRECORD
  5
19B3
102
{ACAD_REACTORS
330
19AF
102
}
330
19AF
100
AcDbXrecord
  1
systemprinter.ctb
  0
XRECORD
  5
19B4
102
{ACAD_REACTORS
330
19AF
102
}
330
19AF
100
AcDbXrecord
340
352
  0
XRECORD
  5
19B5
102
{ACAD_REACTORS
330
19AF
102
}
330
19AF
100
AcDbXrecord
340
353
  0
XRECORD
  5
19B6
102
{ACAD_REACTORS
330
19AF
102
}
330
19AF
100
AcDbXrecord
340
350
  0
XRECORD
  5
19B7
102
{ACAD_REACTORS
330
19AF
102
}
330
19AF
100
AcDbXrecord
 90
    10781
  0
XRECORD
  5
19B8
102
{ACAD_REACTORS
330
19AF
102
}
330
19AF
100
AcDbXrecord
 90
        0
  0
XRECORD
  5
19B9
102
{ACAD_REACTORS
330
19AF
102
}
330
19AF
100
AcDbXrecord
 90
        0
  0
XRECORD
  5
19BA
102
{ACAD_REACTORS
330
19AF
102
}
330
19AF
100
AcDbXrecord
  1
{FE2B4833-B477-44F5-8DA5-88CB8407FFE5}
  0
XRECORD
  5
19BB
102
{ACAD_REACTORS
330
19AF
102
}
330
19AF
100
AcDbXrecord
  1
{04EA6969-3581-42E1-B1FB-B465230B665D}
  0
XRECORD
  5
19BC
102
{ACAD_REACTORS
330
19AF
102
}
330
19AF
100
AcDbXrecord
 40
0.0
  0
XRECORD
  5
19BD
102
{ACAD_REACTORS
330
19AF
102
}
330
19AF
100
AcDbXrecord
1000
DSTYLE
1002
{
1070
   341
340
B2
1070
   343
340
B2
1070
   344
340
B2
1070
   371
 70
    -1
1070
   372
 70
    -1
1002
}
  0
XRECORD
  5
19BE
102
{ACAD_REACTORS
330
19AF
102
}
330
19AF
100
AcDbXrecord
340
0
  0
XRECORD
  5
19BF
102
{ACAD_REACTORS
330
19AF
102
}
330
19AF
100
AcDbXrecord
 70
     0
  0
XRECORD
  5
19C0
102
{ACAD_REACTORS
330
19AF
102
}
330
19AF
100
AcDbXrecord
340
0
  0
XRECORD
  5
19C1
102
{ACAD_REACTORS
330
19AF
102
}
330
19AF
100
AcDbXrecord
 10
0.0
 20
0.0
 30
0.0
  0
XRECORD
  5
19C2
102
{ACAD_REACTORS
330
19AF
102
}
330
19AF
100
AcDbXrecord
 10
0.0
 20
0.0
 30
0.0
  0
XRECORD
  5
19C3
102
{ACAD_REACTORS
330
19AF
102
}
330
19AF
100
AcDbXrecord
 10
0.0
 20
0.0
 30
0.0
  0
XRECORD
  5
19C4
102
{ACAD_REACTORS
330
19AF
102
}
330
19AF
100
AcDbXrecord
 10
0.0
 20
0.0
 30
0.0
  0
XRECORD
  5
19C5
102
{ACAD_REACTORS
330
19AF
102
}
330
19AF
100
AcDbXrecord
 10
0.0
 20
0.0
 30
0.0
  0
XRECORD
  5
19C6
102
{ACAD_REACTORS
330
19AF
102
}
330
19AF
100
AcDbXrecord
 10
0.0
 20
0.0
 30
0.0
  0
XRECORD
  5
19C7
102
{ACAD_REACTORS
330
19AF
102
}
330
19AF
100
AcDbXrecord
340
0
  0
XRECORD
  5
19C8
102
{ACAD_REACTORS
330
19AF
102
}
330
19AF
100
AcDbXrecord
 70
     0
  0
XRECORD
  5
19C9
102
{ACAD_REACTORS
330
19AF
102
}
330
19AF
100
AcDbXrecord
340
0
  0
XRECORD
  5
19CA
102
{ACAD_REACTORS
330
19AF
102
}
330
19AF
100
AcDbXrecord
 10
0.0
 20
0.0
 30
0.0
  0
XRECORD
  5
19CB
102
{ACAD_REACTORS
330
19AF
102
}
330
19AF
100
AcDbXrecord
 10
0.0
 20
0.0
 30
0.0
  0
XRECORD
  5
19CC
102
{ACAD_REACTORS
330
19AF
102
}
330
19AF
100
AcDbXrecord
 10
0.0
 20
0.0
 30
0.0
  0
XRECORD
  5
19CD
102
{ACAD_REACTORS
330
19AF
102
}
330
19AF
100
AcDbXrecord
 10
0.0
 20
0.0
 30
0.0
  0
XRECORD
  5
19CE
102
{ACAD_REACTORS
330
19AF
102
}
330
19AF
100
AcDbXrecord
 10
0.0
 20
0.0
 30
0.0
  0
XRECORD
  5
19CF
102
{ACAD_REACTORS
330
19AF
102
}
330
19AF
100
AcDbXrecord
 10
0.0
 20
0.0
 30
0.0
  0
ENDSEC
  0
EOF
