  0
SECTION
  2
HEADER
  9
$ACADVER
  1
AC1012
  9
$DWGCODEPAGE
  3
dos932
  9
$INSBASE
 10
0.0
 20
0.0
 30
0.0
  9
$EXTMIN
 10
-0.0191515125782189
 20
-0.0047971537724152
 30
-0.0000000000112498
  9
$EXTMAX
 10
398.8317739601266
 20
275.8213056532181
 30
0.0000000000002956
  9
$LIMMIN
 10
0.0
 20
0.0
  9
$LIMMAX
 10
420.0
 20
297.0
  9
$ORTHOMODE
 70
     1
  9
$REGENMODE
 70
     1
  9
$FILLMODE
 70
     1
  9
$QTEXTMODE
 70
     0
  9
$MIRRTEXT
 70
     1
  9
$DRAGMODE
 70
     2
  9
$LTSCALE
 40
1.0
  9
$OSMODE
 70
    63
  9
$ATTMODE
 70
     1
  9
$TEXTSIZE
 40
2.5
  9
$TRACEWID
 40
1.0
  9
$TEXTSTYLE
  7
STANDARD
  9
$CLAYER
  8
0
  9
$CELTYPE
  6
BYLAYER
  9
$CECOLOR
 62
   256
  9
$CELTSCALE
 40
1.0
  9
$DELOBJ
 70
     1
  9
$DISPSILH
 70
     0
  9
$DIMSCALE
 40
1.0
  9
$DIMASZ
 40
3.0
  9
$DIMEXO
 40
3.0
  9
$DIMDLI
 40
7.0
  9
$DIMRND
 40
0.0
  9
$DIMDLE
 40
0.0
  9
$DIMEXE
 40
1.5
  9
$DIMTP
 40
0.0
  9
$DIMTM
 40
0.0
  9
$DIMTXT
 40
3.0
  9
$DIMCEN
 40
150.0
  9
$DIMTSZ
 40
0.0
  9
$DIMTOL
 70
     0
  9
$DIMLIM
 70
     0
  9
$DIMTIH
 70
     0
  9
$DIMTOH
 70
     0
  9
$DIMSE1
 70
     0
  9
$DIMSE2
 70
     0
  9
$DIMTAD
 70
     3
  9
$DIMZIN
 70
     0
  9
$DIMBLK
  1

  9
$DIMASO
 70
     1
  9
$DIMSHO
 70
     1
  9
$DIMPOST
  1

  9
$DIMAPOST
  1

  9
$DIMALT
 70
     0
  9
$DIMALTD
 70
     2
  9
$DIMALTF
 40
25.4
  9
$DIMLFAC
 40
1.0
  9
$DIMTOFL
 70
     1
  9
$DIMTVP
 40
0.0
  9
$DIMTIX
 70
     0
  9
$DIMSOXD
 70
     0
  9
$DIMSAH
 70
     1
  9
$DIMBLK1
  1
OPEN
  9
$DIMBLK2
  1
OPEN
  9
$DIMSTYLE
  2
STANDARD
  9
$DIMCLRD
 70
   256
  9
$DIMCLRE
 70
   256
  9
$DIMCLRT
 70
   256
  9
$DIMTFAC
 40
1.0
  9
$DIMGAP
 40
1.0
  9
$DIMJUST
 70
     0
  9
$DIMSD1
 70
     0
  9
$DIMSD2
 70
     0
  9
$DIMTOLJ
 70
     1
  9
$DIMTZIN
 70
     0
  9
$DIMALTZ
 70
     0
  9
$DIMALTTZ
 70
     0
  9
$DIMFIT
 70
     3
  9
$DIMUPT
 70
     1
  9
$DIMUNIT
 70
     2
  9
$DIMDEC
 70
     0
  9
$DIMTDEC
 70
     0
  9
$DIMALTU
 70
     2
  9
$DIMALTTD
 70
     2
  9
$DIMTXSTY
  7
STANDARD
  9
$DIMAUNIT
 70
     0
  9
$LUNITS
 70
     2
  9
$LUPREC
 70
     4
  9
$SKETCHINC
 40
1.0
  9
$FILLETRAD
 40
0.3
  9
$AUNITS
 70
     0
  9
$AUPREC
 70
     0
  9
$MENU
  1
.
  9
$ELEVATION
 40
0.0
  9
$PELEVATION
 40
0.0
  9
$THICKNESS
 40
0.0
  9
$LIMCHECK
 70
     0
  9
$BLIPMODE
 70
     0
  9
$CHAMFERA
 40
10.0
  9
$CHAMFERB
 40
10.0
  9
$CHAMFERC
 40
20.0
  9
$CHAMFERD
 40
0.0
  9
$SKPOLY
 70
     0
  9
$TDCREATE
 40
2451094.495386573
  9
$TDUPDATE
 40
2456203.618057743
  9
$TDINDWG
 40
0.1080348727
  9
$TDUSRTIMER
 40
0.1080348727
  9
$USRTIMER
 70
     1
  9
$ANGBASE
 50
0.0
  9
$ANGDIR
 70
     0
  9
$PDMODE
 70
     0
  9
$PDSIZE
 40
0.0
  9
$PLINEWID
 40
0.0
  9
$COORDS
 70
     0
  9
$SPLFRAME
 70
     0
  9
$SPLINETYPE
 70
     6
  9
$SPLINESEGS
 70
     8
  9
$ATTDIA
 70
     0
  9
$ATTREQ
 70
     1
  9
$HANDLING
 70
 10241
  9
$HANDSEED
  5
1A24
  9
$SURFTAB1
 70
     6
  9
$SURFTAB2
 70
     6
  9
$SURFTYPE
 70
     6
  9
$SURFU
 70
     6
  9
$SURFV
 70
     6
  9
$UCSNAME
  2

  9
$UCSORG
 10
0.0
 20
0.0
 30
0.0
  9
$UCSXDIR
 10
1.0
 20
0.0
 30
0.0
  9
$UCSYDIR
 10
0.0
 20
1.0
 30
0.0
  9
$PUCSNAME
  2

  9
$PUCSORG
 10
0.0
 20
0.0
 30
0.0
  9
$PUCSXDIR
 10
1.0
 20
0.0
 30
0.0
  9
$PUCSYDIR
 10
0.0
 20
1.0
 30
0.0
  9
$USERI1
 70
     0
  9
$USERI2
 70
     0
  9
$USERI3
 70
     0
  9
$USERI4
 70
     0
  9
$USERI5
 70
     0
  9
$USERR1
 40
0.0
  9
$USERR2
 40
0.0
  9
$USERR3
 40
0.0
  9
$USERR4
 40
0.0
  9
$USERR5
 40
0.0
  9
$WORLDVIEW
 70
     1
  9
$SHADEDGE
 70
     3
  9
$SHADEDIF
 70
    70
  9
$TILEMODE
 70
     1
  9
$MAXACTVP
 70
    16
  9
$PINSBASE
 10
0.0
 20
0.0
 30
0.0
  9
$PLIMCHECK
 70
     0
  9
$PEXTMIN
 10
0.0
 20
0.0
 30
0.0
  9
$PEXTMAX
 10
420.0
 20
297.0
 30
0.0
  9
$PLIMMIN
 10
0.0
 20
0.0
  9
$PLIMMAX
 10
420.0
 20
297.0
  9
$UNITMODE
 70
     0
  9
$VISRETAIN
 70
     0
  9
$PLINEGEN
 70
     0
  9
$PSLTSCALE
 70
     1
  9
$TREEDEPTH
 70
  3020
  9
$PICKSTYLE
 70
     1
  9
$CMLSTYLE
  2
STANDARD
  9
$CMLJUST
 70
     0
  9
$CMLSCALE
 40
1.0
  9
$SAVEIMAGES
 70
     1
  0
ENDSEC
  0
SECTION
  2
CLASSES
  0
CLASS
  1
ACDBDICTIONARYWDFLT
  2
AcDbDictionaryWithDefault
  3
AutoCAD 2000
 90
    32768
280
     0
281
     0
  0
CLASS
  1
ACDBPLACEHOLDER
  2
AcDbPlaceHolder
  3
AutoCAD 2000
 90
    32768
280
     0
281
     0
  0
CLASS
  1
LAYOUT
  2
AcDbLayout
  3
AutoCAD 2000
 90
    32768
280
     0
281
     0
  0
CLASS
  1
LONG_TRANSACTION
  2
AcDbLongTransaction
  3
AutoCAD 2000
 90
    32768
280
     0
281
     0
  0
CLASS
  1
LWPOLYLINE
  2
AcDbPolyline
  3
AutoCAD 2000
 90
    32768
280
     0
281
     1
  0
CLASS
  1
HATCH
  2
AcDbHatch
  3
AutoCAD 2000
 90
    32768
280
     0
281
     1
  0
CLASS
  1
XRECORD
  2
AcDbXrecord
  3
AutoCAD 2000
 90
    32768
280
     0
281
     0
  0
CLASS
  1
LONG_TRANSACTION
  2
AcDbLongTransaction
  3
AutoCAD 2000
 90
    32768
280
     0
281
     0
  0
CLASS
  1
LWPOLYLINE
  2
AcDbPolyline
  3
AutoCAD 2000
 90
    32768
280
     0
281
     1
  0
CLASS
  1
HATCH
  2
AcDbHatch
  3
AutoCAD 2000
 90
    32768
280
     0
281
     1
  0
CLASS
  1
XRECORD
  2
AcDbXrecord
  3
AutoCAD 2000
 90
    32768
280
     0
281
     0
  0
CLASS
  1
LONG_TRANSACTION
  2
AcDbLongTransaction
  3
AutoCAD 2000
 90
    32768
280
     0
281
     0
  0
CLASS
  1
LWPOLYLINE
  2
AcDbPolyline
  3
AutoCAD 2000
 90
    32768
280
     0
281
     1
  0
CLASS
  1
HATCH
  2
AcDbHatch
  3
AutoCAD 2000
 90
    32768
280
     0
281
     1
  0
CLASS
  1
XRECORD
  2
AcDbXrecord
  3
AutoCAD 2000
 90
    32768
280
     0
281
     0
  0
CLASS
  1
LONG_TRANSACTION
  2
AcDbLongTransaction
  3
AutoCAD 2000
 90
    32768
280
     0
281
     0
  0
CLASS
  1
LWPOLYLINE
  2
AcDbPolyline
  3
AutoCAD 2000
 90
    32768
280
     0
281
     1
  0
CLASS
  1
HATCH
  2
AcDbHatch
  3
AutoCAD 2000
 90
    32768
280
     0
281
     1
  0
CLASS
  1
XRECORD
  2
AcDbXrecord
  3
AutoCAD 2000
 90
    32768
280
     0
281
     0
  0
CLASS
  1
LONG_TRANSACTION
  2
AcDbLongTransaction
  3
AutoCAD 2000
 90
    32768
280
     0
281
     0
  0
CLASS
  1
LWPOLYLINE
  2
AcDbPolyline
  3
AutoCAD 2000
 90
    32768
280
     0
281
     1
  0
CLASS
  1
HATCH
  2
AcDbHatch
  3
AutoCAD 2000
 90
    32768
280
     0
281
     1
  0
CLASS
  1
XRECORD
  2
AcDbXrecord
  3
AutoCAD 2000
 90
    32768
280
     0
281
     0
  0
CLASS
  1
LONG_TRANSACTION
  2
AcDbLongTransaction
  3
AutoCAD 2000
 90
    32768
280
     0
281
     0
  0
CLASS
  1
LWPOLYLINE
  2
AcDbPolyline
  3
AutoCAD 2000
 90
    32768
280
     0
281
     1
  0
CLASS
  1
HATCH
  2
AcDbHatch
  3
AutoCAD 2000
 90
    32768
280
     0
281
     1
  0
CLASS
  1
XRECORD
  2
AcDbXrecord
  3
AutoCAD 2000
 90
    32768
280
     0
281
     0
  0
CLASS
  1
LONG_TRANSACTION
  2
AcDbLongTransaction
  3
AutoCAD 2000
 90
    32768
280
     0
281
     0
  0
CLASS
  1
LWPOLYLINE
  2
AcDbPolyline
  3
AutoCAD 2000
 90
    32768
280
     0
281
     1
  0
CLASS
  1
HATCH
  2
AcDbHatch
  3
AutoCAD 2000
 90
    32768
280
     0
281
     1
  0
CLASS
  1
XRECORD
  2
AcDbXrecord
  3
AutoCAD 2000
 90
    32768
280
     0
281
     0
  0
CLASS
  1
LONG_TRANSACTION
  2
AcDbLongTransaction
  3
AutoCAD 2000
 90
    32768
280
     0
281
     0
  0
CLASS
  1
LWPOLYLINE
  2
AcDbPolyline
  3
AutoCAD 2000
 90
    32768
280
     0
281
     1
  0
CLASS
  1
HATCH
  2
AcDbHatch
  3
AutoCAD 2000
 90
    32768
280
     0
281
     1
  0
CLASS
  1
XRECORD
  2
AcDbXrecord
  3
AutoCAD 2000
 90
    32768
280
     0
281
     0
  0
ENDSEC
  0
SECTION
  2
TABLES
  0
TABLE
  2
VPORT
  5
8
330
0
100
AcDbSymbolTable
 70
     3
  0
VPORT
  5
19FC
330
8
100
AcDbSymbolTableRecord
100
AcDbViewportTableRecord
  2
*ACTIVE
 70
     0
 10
0.0
 20
0.0
 11
1.0
 21
1.0
 12
209.9904242437109
 22
148.4976014231137
 13
0.0
 23
0.0
 14
5.0
 24
5.0
 15
0.0
 25
0.0
 16
0.0
 26
0.0
 36
1.0
 17
0.0
 27
0.0
 37
0.0
 40
299.2748975141834
 41
1.557397959183673
 42
50.0
 43
0.0
 44
0.0
 50
0.0
 51
0.0
 71
     0
 72
   100
 73
     1
 74
     0
 75
     0
 76
     0
 77
     0
 78
     0
  0
ENDTAB
  0
TABLE
  2
LTYPE
  5
5
330
0
100
AcDbSymbolTable
 70
     2
  0
LTYPE
  5
14
330
5
100
AcDbSymbolTableRecord
100
AcDbLinetypeTableRecord
  2
BYBLOCK
 70
     0
  3

 72
    65
 73
     0
 40
0.0
  0
LTYPE
  5
15
330
5
100
AcDbSymbolTableRecord
100
AcDbLinetypeTableRecord
  2
BYLAYER
 70
     0
  3

 72
    65
 73
     0
 40
0.0
  0
LTYPE
  5
16
330
5
100
AcDbSymbolTableRecord
100
AcDbLinetypeTableRecord
  2
CONTINUOUS
 70
     0
  3
Solid line
 72
    65
 73
     0
 40
0.0
  0
LTYPE
  5
120
330
5
100
AcDbSymbolTableRecord
100
AcDbLinetypeTableRecord
  2
CENTER
 70
     0
  3
____ _ ____ _ ____ _ ____ _ ____ _ ____ _ ____ 
 72
    65
 73
     4
 40
2.0
 49
1.25
 74
     0
 49
-0.25
 74
     0
 49
0.25
 74
     0
 49
-0.25
 74
     0
  0
ENDTAB
  0
TABLE
  2
LAYER
  5
2
330
0
100
AcDbSymbolTable
 70
     9
  0
LAYER
  5
F
330
2
100
AcDbSymbolTableRecord
100
AcDbLayerTableRecord
  2
0
 70
     0
 62
     7
  6
CONTINUOUS
  0
LAYER
  5
62
330
2
100
AcDbSymbolTableRecord
100
AcDbLayerTableRecord
  2
VIEWPORT
 70
     0
 62
     7
  6
CONTINUOUS
  0
LAYER
  5
6B
330
2
100
AcDbSymbolTableRecord
100
AcDbLayerTableRecord
  2
ZUWAKU
 70
     0
 62
     7
  6
CONTINUOUS
  0
LAYER
  5
134
330
2
100
AcDbSymbolTableRecord
100
AcDbLayerTableRecord
  2
SEIHIN
 70
     0
 62
     3
  6
CONTINUOUS
  0
LAYER
  5
207
330
2
100
AcDbSymbolTableRecord
100
AcDbLayerTableRecord
  2
CENTER_L
 70
     0
 62
     1
  6
CENTER
  0
LAYER
  5
208
330
2
100
AcDbSymbolTableRecord
100
AcDbLayerTableRecord
  2
SUNPOU
 70
     0
 62
     4
  6
CONTINUOUS
  0
LAYER
  5
20E
330
2
100
AcDbSymbolTableRecord
100
AcDbLayerTableRecord
  2
DEFPOINTS
 70
     0
 62
     7
  6
CONTINUOUS
  0
LAYER
  5
BC1
330
2
100
AcDbSymbolTableRecord
100
AcDbLayerTableRecord
  2
MOJI
 70
     0
 62
     2
  6
CONTINUOUS
  0
LAYER
  5
E7B
330
2
100
AcDbSymbolTableRecord
100
AcDbLayerTableRecord
  2
KEIJYO
 70
     0
 62
     7
  6
CONTINUOUS
  0
ENDTAB
  0
TABLE
  2
STYLE
  5
3
330
0
100
AcDbSymbolTable
 70
     2
  0
STYLE
  5
10
330
3
100
AcDbSymbolTableRecord
100
AcDbTextStyleTableRecord
  2
STANDARD
 70
     0
 40
0.0
 41
1.0
 50
0.0
 71
     0
 42
2.5
  3
TXT
  4
bigfont.shx
  0
STYLE
  5
BC2
330
3
100
AcDbSymbolTableRecord
100
AcDbTextStyleTableRecord
  2
ｽﾀｲﾙ1
 70
     0
 40
0.0
 41
1.0
 50
0.0
 71
     0
 42
2.5
  3
MS PGothic.ttf
  4

1001
ACAD
1000
MS PGothic
1071
    32818
  0
ENDTAB
  0
TABLE
  2
VIEW
  5
6
330
0
100
AcDbSymbolTable
 70
     0
  0
ENDTAB
  0
TABLE
  2
UCS
  5
7
330
0
100
AcDbSymbolTable
 70
     0
  0
ENDTAB
  0
TABLE
  2
APPID
  5
9
330
0
100
AcDbSymbolTable
 70
     1
  0
APPID
  5
11
330
9
100
AcDbSymbolTableRecord
100
AcDbRegAppTableRecord
  2
ACAD
 70
     0
  0
ENDTAB
  0
TABLE
  2
DIMSTYLE
  5
A
330
0
100
AcDbSymbolTable
 70
     1
  0
DIMSTYLE
105
1D
102
{ACAD_REACTORS
330
1232
330
1245
330
1246
330
1247
330
1248
330
1249
330
124A
330
1250
330
1251
330
12E9
330
12EA
330
12EE
330
1308
330
1309
330
1327
330
132A
102
}
330
A
100
AcDbSymbolTableRecord
100
AcDbDimStyleTableRecord
  2
STANDARD
 70
     0
  3

  4

  5

  6

  7

 40
1.0
 41
0.18
 42
0.0625
 43
0.38
 44
0.18
 45
0.0
 46
0.0
 47
0.0
 48
0.0
140
0.18
141
0.09
142
0.0
143
25.4
144
1.0
145
0.0
146
1.0
147
0.09
 71
     0
 72
     0
 73
     1
 74
     1
 75
     0
 76
     0
 77
     0
 78
     0
170
     0
171
     2
172
     0
173
     0
174
     0
175
     0
176
     0
177
     0
178
     0
270
     2
271
     4
272
     4
273
     2
274
     2
340
10
275
     0
280
     0
281
     0
282
     0
283
     1
284
     0
285
     0
286
     0
287
     3
288
     0
  0
ENDTAB
  0
TABLE
  2
BLOCK_RECORD
  5
1
330
0
100
AcDbSymbolTable
 70
    18
  0
BLOCK_RECORD
  5
1A
102
{ACAD_XDICTIONARY
360
64B
102
}
330
1
100
AcDbSymbolTableRecord
100
AcDbBlockTableRecord
  2
*MODEL_SPACE
  0
BLOCK_RECORD
  5
17
102
{ACAD_XDICTIONARY
360
649
102
}
330
1
100
AcDbSymbolTableRecord
100
AcDbBlockTableRecord
  2
*PAPER_SPACE
  0
BLOCK_RECORD
  5
B2
330
1
100
AcDbSymbolTableRecord
100
AcDbBlockTableRecord
  2
_OPEN
  0
BLOCK_RECORD
  5
13E6
330
1
100
AcDbSymbolTableRecord
100
AcDbBlockTableRecord
  2
*D1
  0
BLOCK_RECORD
  5
13EE
330
1
100
AcDbSymbolTableRecord
100
AcDbBlockTableRecord
  2
*D2
  0
BLOCK_RECORD
  5
13FC
330
1
100
AcDbSymbolTableRecord
100
AcDbBlockTableRecord
  2
*D3
  0
BLOCK_RECORD
  5
1408
330
1
100
AcDbSymbolTableRecord
100
AcDbBlockTableRecord
  2
*D4
  0
BLOCK_RECORD
  5
1414
330
1
100
AcDbSymbolTableRecord
100
AcDbBlockTableRecord
  2
*D5
  0
BLOCK_RECORD
  5
1420
330
1
100
AcDbSymbolTableRecord
100
AcDbBlockTableRecord
  2
*D6
  0
BLOCK_RECORD
  5
142C
330
1
100
AcDbSymbolTableRecord
100
AcDbBlockTableRecord
  2
*D7
  0
BLOCK_RECORD
  5
1438
330
1
100
AcDbSymbolTableRecord
100
AcDbBlockTableRecord
  2
*D8
  0
BLOCK_RECORD
  5
1444
330
1
100
AcDbSymbolTableRecord
100
AcDbBlockTableRecord
  2
*D9
  0
BLOCK_RECORD
  5
1452
330
1
100
AcDbSymbolTableRecord
100
AcDbBlockTableRecord
  2
*D10
  0
BLOCK_RECORD
  5
145E
330
1
100
AcDbSymbolTableRecord
100
AcDbBlockTableRecord
  2
*D11
  0
BLOCK_RECORD
  5
146A
330
1
100
AcDbSymbolTableRecord
100
AcDbBlockTableRecord
  2
*D12
  0
BLOCK_RECORD
  5
1476
330
1
100
AcDbSymbolTableRecord
100
AcDbBlockTableRecord
  2
*D13
  0
BLOCK_RECORD
  5
1482
330
1
100
AcDbSymbolTableRecord
100
AcDbBlockTableRecord
  2
*D14
  0
BLOCK_RECORD
  5
148E
330
1
100
AcDbSymbolTableRecord
100
AcDbBlockTableRecord
  2
*D15
  0
BLOCK_RECORD
  5
149C
330
1
100
AcDbSymbolTableRecord
100
AcDbBlockTableRecord
  2
*D16
  0
BLOCK_RECORD
  5
17A2
330
1
100
AcDbSymbolTableRecord
100
AcDbBlockTableRecord
  2
*X17
  0
ENDTAB
  0
ENDSEC
  0
SECTION
  2
BLOCKS
  0
BLOCK
  5
1B
330
1A
100
AcDbEntity
  8
0
100
AcDbBlockBegin
  2
*MODEL_SPACE
 70
     0
 10
0.0
 20
0.0
 30
0.0
  3
*MODEL_SPACE
  1

  0
ENDBLK
  5
1C
330
1A
100
AcDbEntity
  8
0
100
AcDbBlockEnd
  0
BLOCK
  5
18
330
17
100
AcDbEntity
 67
     1
  8
0
100
AcDbBlockBegin
  2
*PAPER_SPACE
 70
     0
 10
0.0
 20
0.0
 30
0.0
  3
*PAPER_SPACE
  1

  0
ENDBLK
  5
19
330
17
100
AcDbEntity
 67
     1
  8
0
100
AcDbBlockEnd
  0
BLOCK
  5
B3
330
B2
100
AcDbEntity
  8
0
100
AcDbBlockBegin
  2
_OPEN
 70
     0
 10
0.0
 20
0.0
 30
0.0
  3
_OPEN
  1

  0
LINE
  5
B4
330
B2
100
AcDbEntity
  8
0
  6
BYBLOCK
 62
     0
100
AcDbLine
 10
-1.0
 20
0.1666666666666666
 30
0.0
 11
0.0
 21
0.0
 31
0.0
  0
LINE
  5
B5
330
B2
100
AcDbEntity
  8
0
  6
BYBLOCK
 62
     0
100
AcDbLine
 10
0.0
 20
0.0
 30
0.0
 11
-1.0
 21
-0.1666666666666666
 31
0.0
  0
LINE
  5
B6
330
B2
100
AcDbEntity
  8
0
  6
BYBLOCK
 62
     0
100
AcDbLine
 10
0.0
 20
0.0
 30
0.0
 11
-1.0
 21
0.0
 31
0.0
  0
ENDBLK
  5
B7
330
B2
100
AcDbEntity
  8
0
100
AcDbBlockEnd
  0
BLOCK
  5
13EC
330
13E6
100
AcDbEntity
  8
0
100
AcDbBlockBegin
  2
*D1
 70
     1
 10
0.0
 20
0.0
 30
0.0
  3
*D1
  1

  0
LINE
  5
1784
330
13E6
100
AcDbEntity
  8
SUNPOU
100
AcDbLine
 10
163.6661449576561
 20
140.24057503675
 30
0.0
 11
148.3052736796673
 21
142.3126835235477
 31
0.0
  0
MTEXT
  5
1785
330
13E6
100
AcDbEntity
  8
SUNPOU
100
AcDbMText
 10
157.8064562950474
 20
143.5536625359408
 30
0.0
 40
3.0
 41
0.0
 71
     5
 72
     1
  1
\A1;R250
 11
0.9910239534186317
 21
-0.133684418503077
 31
0.0
1001
ACAD
1000
MTEXTBEGIN
1070
    73
1070
     1
1070
    44
1040
1.0
1070
    74
1070
     0
1000
MTEXTEND
1000
MTEXTBEGIN
1070
    73
1070
     1
1070
    44
1040
1.0
1070
    74
1070
     0
1000
MTEXTEND
  0
INSERT
  5
1786
330
13E6
100
AcDbEntity
  8
SUNPOU
100
AcDbBlockReference
  2
_OPEN
 10
145.3322018194114
 20
142.713736779057
 30
0.0
 41
3.0
 42
3.0
 43
3.0
 50
172.317446930479
  0
POINT
  5
1787
330
13E6
100
AcDbEntity
  8
DEFPOINTS
 62
     0
100
AcDbPoint
 10
145.3322018194114
 20
142.713736779057
 30
0.0
  0
POINT
  5
1788
330
13E6
100
AcDbEntity
  8
DEFPOINTS
 62
     0
100
AcDbPoint
 10
393.0881901740689
 20
109.2926321532877
 30
0.0
  0
ENDBLK
  5
13ED
330
13E6
100
AcDbEntity
  8
0
100
AcDbBlockEnd
  0
BLOCK
  5
13FA
330
13EE
100
AcDbEntity
  8
0
100
AcDbBlockBegin
  2
*D2
 70
     1
 10
0.0
 20
0.0
 30
0.0
  3
*D2
  1

  0
LINE
  5
1721
330
13EE
100
AcDbEntity
  8
SUNPOU
100
AcDbLine
 10
285.5981099257279
 20
116.26489021752
 30
0.0
 11
285.6694261810395
 21
117.6581186280392
 31
0.0
  0
LINE
  5
1722
330
13EE
100
AcDbEntity
  8
SUNPOU
100
AcDbLine
 10
286.8964101432725
 20
116.1984331247084
 30
0.0
 11
286.9677263985841
 21
117.5916615352276
 31
0.0
  0
LINE
  5
1723
330
13EE
100
AcDbEntity
  8
SUNPOU
100
AcDbLine
 10
282.750030016926
 20
119.3095198624335
 30
0.0
 11
279.7539525918775
 21
119.4628823843036
 31
0.0
  0
LINE
  5
1724
330
13EE
100
AcDbEntity
  8
SUNPOU
100
AcDbLine
 10
290.0404850845678
 20
118.9363377258819
 30
0.0
 11
303.8859405943733
 21
118.2276197349277
 31
0.0
  0
LINE
  5
1725
330
13EE
100
AcDbEntity
  8
SUNPOU
100
AcDbLine
 10
285.7461074419746
 20
119.1561573405635
 30
0.0
 11
287.0444076595192
 21
119.0897002477519
 31
0.0
  0
INSERT
  5
1726
330
13EE
100
AcDbEntity
  8
SUNPOU
100
AcDbBlockReference
  2
_OPEN
 10
285.7461074419746
 20
119.1561573405635
 30
0.0
 41
3.0
 42
3.0
 43
3.0
 50
357.069714335188
  0
INSERT
  5
1727
330
13EE
100
AcDbEntity
  8
SUNPOU
100
AcDbBlockReference
  2
_OPEN
 10
287.0444076595192
 20
119.0897002477519
 30
0.0
 41
3.0
 42
3.0
 43
3.0
 50
177.069714335188
  0
MTEXT
  5
1728
330
13EE
100
AcDbEntity
  8
SUNPOU
100
AcDbMText
 10
299.0202803208507
 20
120.979955125585
 30
0.0
 40
3.0
 41
0.0
 71
     5
 72
     1
  1
\A1;t1.3
 11
0.9986924750161895
 21
-0.0511208406233508
 31
0.0
1001
ACAD
1000
MTEXTBEGIN
1070
    73
1070
     1
1070
    44
1040
1.0
1070
    74
1070
     0
1000
MTEXTEND
1000
MTEXTBEGIN
1070
    73
1070
     1
1070
    44
1040
1.0
1070
    74
1070
     0
1000
MTEXTEND
1000
MTEXTBEGIN
1070
    73
1070
     1
1070
    44
1040
1.0
1070
    74
1070
     0
1000
MTEXTEND
  0
POINT
  5
1729
330
13EE
100
AcDbEntity
  8
DEFPOINTS
 62
     0
100
AcDbPoint
 10
285.751472447598
 20
119.2609676425686
 30
0.0
  0
POINT
  5
172A
330
13EE
100
AcDbEntity
  8
DEFPOINTS
 62
     0
100
AcDbPoint
 10
287.0497726651426
 20
119.194510549757
 30
0.0
  0
POINT
  5
172B
330
13EE
100
AcDbEntity
  8
DEFPOINTS
 62
     0
100
AcDbPoint
 10
287.0444076595192
 20
119.0897002477519
 30
0.0
  0
ENDBLK
  5
13FB
330
13EE
100
AcDbEntity
  8
0
100
AcDbBlockEnd
  0
BLOCK
  5
1406
330
13FC
100
AcDbEntity
  8
0
100
AcDbBlockBegin
  2
*D3
 70
     1
 10
0.0
 20
0.0
 30
0.0
  3
*D3
  1

  0
LINE
  5
16E4
330
13FC
100
AcDbEntity
  8
SUNPOU
100
AcDbLine
 10
154.9033536933683
 20
193.0893469117102
 30
0.0
 11
96.70007704256207
 21
193.0893469117102
 31
0.0
  0
LINE
  5
16E5
330
13FC
100
AcDbEntity
  8
SUNPOU
100
AcDbLine
 10
222.7016084174203
 20
83.20256781710261
 30
0.0
 11
96.70007704256203
 21
83.20256781710263
 31
0.0
  0
LINE
  5
16E6
330
13FC
100
AcDbEntity
  8
SUNPOU
100
AcDbLine
 10
98.20007704256207
 20
190.0893469117102
 30
0.0
 11
98.20007704256205
 21
86.20256781710263
 31
0.0
  0
INSERT
  5
16E7
330
13FC
100
AcDbEntity
  8
SUNPOU
100
AcDbBlockReference
  2
_OPEN
 10
98.20007704256207
 20
193.0893469117102
 30
0.0
 41
3.0
 42
3.0
 43
3.0
 50
90.0
  0
INSERT
  5
16E8
330
13FC
100
AcDbEntity
  8
SUNPOU
100
AcDbBlockReference
  2
_OPEN
 10
98.20007704256205
 20
83.20256781710263
 30
0.0
 41
3.0
 42
3.0
 43
3.0
 50
270.0
  0
MTEXT
  5
16E9
330
13FC
100
AcDbEntity
  8
SUNPOU
100
AcDbMText
 10
95.70007704256203
 20
138.1459573644064
 30
0.0
 40
3.0
 41
0.0
 71
     5
 72
     1
  1
\A1;110
 11
0.0000000000000001
 21
1.0
 31
0.0
1001
ACAD
1000
MTEXTBEGIN
1070
    73
1070
     1
1070
    44
1040
1.0
1070
    74
1070
     0
1000
MTEXTEND
1000
MTEXTBEGIN
1070
    73
1070
     1
1070
    44
1040
1.0
1070
    74
1070
     0
1000
MTEXTEND
1000
MTEXTBEGIN
1070
    73
1070
     1
1070
    44
1040
1.0
1070
    74
1070
     0
1000
MTEXTEND
  0
POINT
  5
16EA
330
13FC
100
AcDbEntity
  8
DEFPOINTS
 62
     0
100
AcDbPoint
 10
157.9033536933683
 20
193.0893469117102
 30
0.0
  0
POINT
  5
16EB
330
13FC
100
AcDbEntity
  8
DEFPOINTS
 62
     0
100
AcDbPoint
 10
225.7016084174202
 20
83.20256781710259
 30
0.0
  0
POINT
  5
16EC
330
13FC
100
AcDbEntity
  8
DEFPOINTS
 62
     0
100
AcDbPoint
 10
98.20007704256205
 20
83.20256781710263
 30
0.0
  0
ENDBLK
  5
1407
330
13FC
100
AcDbEntity
  8
0
100
AcDbBlockEnd
  0
BLOCK
  5
1412
330
1408
100
AcDbEntity
  8
0
100
AcDbBlockBegin
  2
*D4
 70
     1
 10
0.0
 20
0.0
 30
0.0
  3
*D4
  1

  0
LINE
  5
16DB
330
1408
100
AcDbEntity
  8
SUNPOU
100
AcDbLine
 10
154.9033536933683
 20
193.0893469117102
 30
0.0
 11
106.936742622338
 21
193.0893469117102
 31
0.0
  0
LINE
  5
16DC
330
1408
100
AcDbEntity
  8
SUNPOU
100
AcDbLine
 10
140.0905668707419
 20
108.2025208344436
 30
0.0
 11
106.9367426223379
 21
108.2025208344436
 31
0.0
  0
LINE
  5
16DD
330
1408
100
AcDbEntity
  8
SUNPOU
100
AcDbLine
 10
108.436742622338
 20
190.0893469117102
 30
0.0
 11
108.436742622338
 21
111.2025208344436
 31
0.0
  0
INSERT
  5
16DE
330
1408
100
AcDbEntity
  8
SUNPOU
100
AcDbBlockReference
  2
_OPEN
 10
108.436742622338
 20
193.0893469117102
 30
0.0
 41
3.0
 42
3.0
 43
3.0
 50
90.0
  0
INSERT
  5
16DF
330
1408
100
AcDbEntity
  8
SUNPOU
100
AcDbBlockReference
  2
_OPEN
 10
108.436742622338
 20
108.2025208344436
 30
0.0
 41
3.0
 42
3.0
 43
3.0
 50
270.0
  0
MTEXT
  5
16E0
330
1408
100
AcDbEntity
  8
SUNPOU
100
AcDbMText
 10
105.9367426223379
 20
150.6459338730769
 30
0.0
 40
3.0
 41
0.0
 71
     5
 72
     1
  1
\A1;85
 11
0.0000000000000001
 21
1.0
 31
0.0
1001
ACAD
1000
MTEXTBEGIN
1070
    73
1070
     1
1070
    44
1040
1.0
1070
    74
1070
     0
1000
MTEXTEND
1000
MTEXTBEGIN
1070
    73
1070
     1
1070
    44
1040
1.0
1070
    74
1070
     0
1000
MTEXTEND
1000
MTEXTBEGIN
1070
    73
1070
     1
1070
    44
1040
1.0
1070
    74
1070
     0
1000
MTEXTEND
  0
POINT
  5
16E1
330
1408
100
AcDbEntity
  8
DEFPOINTS
 62
     0
100
AcDbPoint
 10
157.9033536933683
 20
193.0893469117102
 30
0.0
  0
POINT
  5
16E2
330
1408
100
AcDbEntity
  8
DEFPOINTS
 62
     0
100
AcDbPoint
 10
143.0905668707419
 20
108.2025208344436
 30
0.0
  0
POINT
  5
16E3
330
1408
100
AcDbEntity
  8
DEFPOINTS
 62
     0
100
AcDbPoint
 10
108.436742622338
 20
108.2025208344436
 30
0.0
  0
ENDBLK
  5
1413
330
1408
100
AcDbEntity
  8
0
100
AcDbBlockEnd
  0
BLOCK
  5
141E
330
1414
100
AcDbEntity
  8
0
100
AcDbBlockBegin
  2
*D5
 70
     1
 10
0.0
 20
0.0
 30
0.0
  3
*D5
  1

  0
LINE
  5
16D2
330
1414
100
AcDbEntity
  8
SUNPOU
100
AcDbLine
 10
286.5280818359122
 20
153.2025208344436
 30
0.0
 11
314.9014298138363
 21
153.2025208344436
 31
0.0
  0
LINE
  5
16D3
330
1414
100
AcDbEntity
  8
SUNPOU
100
AcDbLine
 10
228.7016084174203
 20
83.22180953901796
 30
0.0
 11
314.9014298138363
 21
83.22180953901794
 31
0.0
  0
LINE
  5
16D4
330
1414
100
AcDbEntity
  8
SUNPOU
100
AcDbLine
 10
313.4014298138363
 20
150.2025208344436
 30
0.0
 11
313.4014298138363
 21
86.22180953901795
 31
0.0
  0
INSERT
  5
16D5
330
1414
100
AcDbEntity
  8
SUNPOU
100
AcDbBlockReference
  2
_OPEN
 10
313.4014298138363
 20
153.2025208344436
 30
0.0
 41
3.0
 42
3.0
 43
3.0
 50
90.0
  0
INSERT
  5
16D6
330
1414
100
AcDbEntity
  8
SUNPOU
100
AcDbBlockReference
  2
_OPEN
 10
313.4014298138363
 20
83.22180953901794
 30
0.0
 41
3.0
 42
3.0
 43
3.0
 50
270.0
  0
MTEXT
  5
16D7
330
1414
100
AcDbEntity
  8
SUNPOU
100
AcDbMText
 10
310.9014298138363
 20
118.2121651867308
 30
0.0
 40
3.0
 41
0.0
 71
     5
 72
     1
  1
\A1;70
 11
0.0000000000000001
 21
1.0
 31
0.0
1001
ACAD
1000
MTEXTBEGIN
1070
    73
1070
     1
1070
    44
1040
1.0
1070
    74
1070
     0
1000
MTEXTEND
1000
MTEXTBEGIN
1070
    73
1070
     1
1070
    44
1040
1.0
1070
    74
1070
     0
1000
MTEXTEND
1000
MTEXTBEGIN
1070
    73
1070
     1
1070
    44
1040
1.0
1070
    74
1070
     0
1000
MTEXTEND
  0
POINT
  5
16D8
330
1414
100
AcDbEntity
  8
DEFPOINTS
 62
     0
100
AcDbPoint
 10
283.5280818359121
 20
153.2025208344436
 30
0.0
  0
POINT
  5
16D9
330
1414
100
AcDbEntity
  8
DEFPOINTS
 62
     0
100
AcDbPoint
 10
225.7016084174202
 20
83.22180953901796
 30
0.0
  0
POINT
  5
16DA
330
1414
100
AcDbEntity
  8
DEFPOINTS
 62
     0
100
AcDbPoint
 10
313.4014298138363
 20
83.22180953901794
 30
0.0
  0
ENDBLK
  5
141F
330
1414
100
AcDbEntity
  8
0
100
AcDbBlockEnd
  0
BLOCK
  5
142A
330
1420
100
AcDbEntity
  8
0
100
AcDbBlockBegin
  2
*D6
 70
     1
 10
0.0
 20
0.0
 30
0.0
  3
*D6
  1

  0
LINE
  5
16C9
330
1420
100
AcDbEntity
  8
SUNPOU
100
AcDbLine
 10
143.0905668707419
 20
111.2025208344436
 30
0.0
 11
143.0905668707419
 21
224.8028048604989
 31
0.0
  0
LINE
  5
16CA
330
1420
100
AcDbEntity
  8
SUNPOU
100
AcDbLine
 10
288.5215442122307
 20
150.9469166353892
 30
0.0
 11
288.5215442122307
 21
224.8028048604989
 31
0.0
  0
LINE
  5
16CB
330
1420
100
AcDbEntity
  8
SUNPOU
100
AcDbLine
 10
146.0905668707418
 20
223.302804860499
 30
0.0
 11
285.5215442122307
 21
223.302804860499
 31
0.0
  0
INSERT
  5
16CC
330
1420
100
AcDbEntity
  8
SUNPOU
100
AcDbBlockReference
  2
_OPEN
 10
143.0905668707419
 20
223.302804860499
 30
0.0
 41
3.0
 42
3.0
 43
3.0
 50
180.0
  0
INSERT
  5
16CD
330
1420
100
AcDbEntity
  8
SUNPOU
100
AcDbBlockReference
  2
_OPEN
 10
288.5215442122307
 20
223.302804860499
 30
0.0
 41
3.0
 42
3.0
 43
3.0
  0
MTEXT
  5
16CE
330
1420
100
AcDbEntity
  8
SUNPOU
100
AcDbMText
 10
215.8060555414863
 20
225.802804860499
 30
0.0
 40
3.0
 41
0.0
 71
     5
 72
     1
  1
\A1;145
1001
ACAD
1000
MTEXTBEGIN
1070
    73
1070
     1
1070
    44
1040
1.0
1070
    74
1070
     0
1000
MTEXTEND
1000
MTEXTBEGIN
1070
    73
1070
     1
1070
    44
1040
1.0
1070
    74
1070
     0
1000
MTEXTEND
1000
MTEXTBEGIN
1070
    73
1070
     1
1070
    44
1040
1.0
1070
    74
1070
     0
1000
MTEXTEND
  0
POINT
  5
16CF
330
1420
100
AcDbEntity
  8
DEFPOINTS
 62
     0
100
AcDbPoint
 10
143.0905668707419
 20
108.2025208344436
 30
0.0
  0
POINT
  5
16D0
330
1420
100
AcDbEntity
  8
DEFPOINTS
 62
     0
100
AcDbPoint
 10
288.5215442122307
 20
147.9469166353892
 30
0.0
  0
POINT
  5
16D1
330
1420
100
AcDbEntity
  8
DEFPOINTS
 62
     0
100
AcDbPoint
 10
288.5215442122307
 20
223.302804860499
 30
0.0
  0
ENDBLK
  5
142B
330
1420
100
AcDbEntity
  8
0
100
AcDbBlockEnd
  0
BLOCK
  5
1436
330
142C
100
AcDbEntity
  8
0
100
AcDbBlockBegin
  2
*D7
 70
     1
 10
0.0
 20
0.0
 30
0.0
  3
*D7
  1

  0
LINE
  5
16C0
330
142C
100
AcDbEntity
  8
SUNPOU
100
AcDbLine
 10
143.0905668707419
 20
111.2025208344436
 30
0.0
 11
143.0905668707419
 21
214.955446596888
 31
0.0
  0
LINE
  5
16C1
330
142C
100
AcDbEntity
  8
SUNPOU
100
AcDbLine
 10
157.9033536933683
 20
196.0893469117102
 30
0.0
 11
157.9033536933683
 21
214.955446596888
 31
0.0
  0
LINE
  5
16C2
330
142C
100
AcDbEntity
  8
SUNPOU
100
AcDbLine
 10
146.0905668707418
 20
213.4554465968879
 30
0.0
 11
154.9033536933683
 21
213.4554465968879
 31
0.0
  0
INSERT
  5
16C3
330
142C
100
AcDbEntity
  8
SUNPOU
100
AcDbBlockReference
  2
_OPEN
 10
143.0905668707419
 20
213.4554465968879
 30
0.0
 41
3.0
 42
3.0
 43
3.0
 50
180.0
  0
INSERT
  5
16C4
330
142C
100
AcDbEntity
  8
SUNPOU
100
AcDbBlockReference
  2
_OPEN
 10
157.9033536933683
 20
213.4554465968879
 30
0.0
 41
3.0
 42
3.0
 43
3.0
  0
MTEXT
  5
16C5
330
142C
100
AcDbEntity
  8
SUNPOU
100
AcDbMText
 10
150.4969602820551
 20
215.955446596888
 30
0.0
 40
3.0
 41
0.0
 71
     5
 72
     1
  1
\A1;15
1001
ACAD
1000
MTEXTBEGIN
1070
    73
1070
     1
1070
    44
1040
1.0
1070
    74
1070
     0
1000
MTEXTEND
1000
MTEXTBEGIN
1070
    73
1070
     1
1070
    44
1040
1.0
1070
    74
1070
     0
1000
MTEXTEND
1000
MTEXTBEGIN
1070
    73
1070
     1
1070
    44
1040
1.0
1070
    74
1070
     0
1000
MTEXTEND
  0
POINT
  5
16C6
330
142C
100
AcDbEntity
  8
DEFPOINTS
 62
     0
100
AcDbPoint
 10
143.0905668707419
 20
108.2025208344436
 30
0.0
  0
POINT
  5
16C7
330
142C
100
AcDbEntity
  8
DEFPOINTS
 62
     0
100
AcDbPoint
 10
157.9033536933683
 20
193.0893469117102
 30
0.0
  0
POINT
  5
16C8
330
142C
100
AcDbEntity
  8
DEFPOINTS
 62
     0
100
AcDbPoint
 10
157.9033536933683
 20
213.4554465968879
 30
0.0
  0
ENDBLK
  5
1437
330
142C
100
AcDbEntity
  8
0
100
AcDbBlockEnd
  0
BLOCK
  5
1442
330
1438
100
AcDbEntity
  8
0
100
AcDbBlockBegin
  2
*D8
 70
     1
 10
0.0
 20
0.0
 30
0.0
  3
*D8
  1

  0
LINE
  5
16FB
330
1438
100
AcDbEntity
  8
SUNPOU
100
AcDbLine
 10
140.0905668707419
 20
108.2025208344436
 30
0.0
 11
106.936742622338
 21
108.2025208344436
 31
0.0
  0
LINE
  5
16FC
330
1438
100
AcDbEntity
  8
SUNPOU
100
AcDbLine
 10
222.7016084174203
 20
83.20256781710261
 30
0.0
 11
106.9367426223379
 21
83.20256781710263
 31
0.0
  0
LINE
  5
16FD
330
1438
100
AcDbEntity
  8
SUNPOU
100
AcDbLine
 10
108.436742622338
 20
105.2025208344436
 30
0.0
 11
108.436742622338
 21
86.20256781710263
 31
0.0
  0
INSERT
  5
16FE
330
1438
100
AcDbEntity
  8
SUNPOU
100
AcDbBlockReference
  2
_OPEN
 10
108.436742622338
 20
108.2025208344436
 30
0.0
 41
3.0
 42
3.0
 43
3.0
 50
90.0
  0
INSERT
  5
16FF
330
1438
100
AcDbEntity
  8
SUNPOU
100
AcDbBlockReference
  2
_OPEN
 10
108.436742622338
 20
83.20256781710263
 30
0.0
 41
3.0
 42
3.0
 43
3.0
 50
270.0
  0
MTEXT
  5
1700
330
1438
100
AcDbEntity
  8
SUNPOU
100
AcDbMText
 10
105.9367426223379
 20
95.70254432577318
 30
0.0
 40
3.0
 41
0.0
 71
     5
 72
     1
  1
\A1;25
 11
0.0000000000000001
 21
1.0
 31
0.0
1001
ACAD
1000
MTEXTBEGIN
1070
    73
1070
     1
1070
    44
1040
1.0
1070
    74
1070
     0
1000
MTEXTEND
1000
MTEXTBEGIN
1070
    73
1070
     1
1070
    44
1040
1.0
1070
    74
1070
     0
1000
MTEXTEND
1000
MTEXTBEGIN
1070
    73
1070
     1
1070
    44
1040
1.0
1070
    74
1070
     0
1000
MTEXTEND
  0
POINT
  5
1701
330
1438
100
AcDbEntity
  8
DEFPOINTS
 62
     0
100
AcDbPoint
 10
143.0905668707419
 20
108.2025208344436
 30
0.0
  0
POINT
  5
1702
330
1438
100
AcDbEntity
  8
DEFPOINTS
 62
     0
100
AcDbPoint
 10
225.7016084174202
 20
83.20256781710259
 30
0.0
  0
POINT
  5
1703
330
1438
100
AcDbEntity
  8
DEFPOINTS
 62
     0
100
AcDbPoint
 10
108.436742622338
 20
83.20256781710263
 30
0.0
  0
ENDBLK
  5
1443
330
1438
100
AcDbEntity
  8
0
100
AcDbBlockEnd
  0
BLOCK
  5
1450
330
1444
100
AcDbEntity
  8
0
100
AcDbBlockBegin
  2
*D9
 70
     1
 10
0.0
 20
0.0
 30
0.0
  3
*D9
  1

  0
LINE
  5
1716
330
1444
100
AcDbEntity
  8
SUNPOU
100
AcDbLine
 10
154.8215442120419
 20
110.8025208344436
 30
0.0
 11
116.4754552154663
 21
110.8025208344436
 31
0.0
  0
LINE
  5
1717
330
1444
100
AcDbEntity
  8
SUNPOU
100
AcDbLine
 10
140.0905668707419
 20
108.2025208344436
 30
0.0
 11
116.4754552154663
 21
108.2025208344436
 31
0.0
  0
LINE
  5
1718
330
1444
100
AcDbEntity
  8
SUNPOU
100
AcDbLine
 10
117.9754552154663
 20
113.8025208344436
 30
0.0
 11
117.9754552154663
 21
116.8025208344436
 31
0.0
  0
LINE
  5
1719
330
1444
100
AcDbEntity
  8
SUNPOU
100
AcDbLine
 10
117.9754552154663
 20
105.2025208344436
 30
0.0
 11
117.9754552154663
 21
98.20252083444366
 31
0.0
  0
LINE
  5
171A
330
1444
100
AcDbEntity
  8
SUNPOU
100
AcDbLine
 10
117.9754552154663
 20
110.8025208344436
 30
0.0
 11
117.9754552154663
 21
108.2025208344436
 31
0.0
  0
INSERT
  5
171B
330
1444
100
AcDbEntity
  8
SUNPOU
100
AcDbBlockReference
  2
_OPEN
 10
117.9754552154663
 20
110.8025208344436
 30
0.0
 41
3.0
 42
3.0
 43
3.0
 50
270.0
  0
INSERT
  5
171C
330
1444
100
AcDbEntity
  8
SUNPOU
100
AcDbBlockReference
  2
_OPEN
 10
117.9754552154663
 20
108.2025208344436
 30
0.0
 41
3.0
 42
3.0
 43
3.0
 50
90.0
  0
MTEXT
  5
171D
330
1444
100
AcDbEntity
  8
SUNPOU
100
AcDbMText
 10
115.4754552154663
 20
100.2025208344436
 30
0.0
 40
3.0
 41
0.0
 71
     5
 72
     1
  1
\A1;3
 11
0.0000000000000001
 21
1.0
 31
0.0
1001
ACAD
1000
MTEXTBEGIN
1070
    73
1070
     1
1070
    44
1040
1.0
1070
    74
1070
     0
1000
MTEXTEND
1000
MTEXTBEGIN
1070
    73
1070
     1
1070
    44
1040
1.0
1070
    74
1070
     0
1000
MTEXTEND
1000
MTEXTBEGIN
1070
    73
1070
     1
1070
    44
1040
1.0
1070
    74
1070
     0
1000
MTEXTEND
  0
POINT
  5
171E
330
1444
100
AcDbEntity
  8
DEFPOINTS
 62
     0
100
AcDbPoint
 10
157.8215442120419
 20
110.8025208344436
 30
0.0
  0
POINT
  5
171F
330
1444
100
AcDbEntity
  8
DEFPOINTS
 62
     0
100
AcDbPoint
 10
143.0905668707419
 20
108.2025208344436
 30
0.0
  0
POINT
  5
1720
330
1444
100
AcDbEntity
  8
DEFPOINTS
 62
     0
100
AcDbPoint
 10
117.9754552154663
 20
108.2025208344436
 30
0.0
  0
ENDBLK
  5
1451
330
1444
100
AcDbEntity
  8
0
100
AcDbBlockEnd
  0
BLOCK
  5
145C
330
1452
100
AcDbEntity
  8
0
100
AcDbBlockBegin
  2
*D10
 70
     1
 10
0.0
 20
0.0
 30
0.0
  3
*D10
  1

  0
LINE
  5
16F2
330
1452
100
AcDbEntity
  8
SUNPOU
100
AcDbLine
 10
285.2905668707418
 20
82.36968914368389
 30
0.0
 11
285.2905668707418
 21
56.90291960607567
 31
0.0
  0
LINE
  5
16F3
330
1452
100
AcDbEntity
  8
SUNPOU
100
AcDbLine
 10
166.0905668707424
 20
81.6293187105332
 30
0.0
 11
166.0905668707424
 21
56.90291960607567
 31
0.0
  0
LINE
  5
16F4
330
1452
100
AcDbEntity
  8
SUNPOU
100
AcDbLine
 10
282.2905668707418
 20
58.40291960607567
 30
0.0
 11
169.0905668707424
 21
58.40291960607567
 31
0.0
  0
INSERT
  5
16F5
330
1452
100
AcDbEntity
  8
SUNPOU
100
AcDbBlockReference
  2
_OPEN
 10
285.2905668707418
 20
58.40291960607567
 30
0.0
 41
3.0
 42
3.0
 43
3.0
  0
INSERT
  5
16F6
330
1452
100
AcDbEntity
  8
SUNPOU
100
AcDbBlockReference
  2
_OPEN
 10
166.0905668707424
 20
58.40291960607567
 30
0.0
 41
3.0
 42
3.0
 43
3.0
 50
180.0
  0
MTEXT
  5
16F7
330
1452
100
AcDbEntity
  8
SUNPOU
100
AcDbMText
 10
230.6093410919083
 20
60.90291960607567
 30
0.0
 40
3.0
 41
0.0
 71
     5
 72
     1
  1
\A1;119
1001
ACAD
1000
MTEXTBEGIN
1070
    73
1070
     1
1070
    44
1040
1.0
1070
    74
1070
     0
1000
MTEXTEND
1000
MTEXTBEGIN
1070
    73
1070
     1
1070
    44
1040
1.0
1070
    74
1070
     0
1000
MTEXTEND
1000
MTEXTBEGIN
1070
    73
1070
     1
1070
    44
1040
1.0
1070
    74
1070
     0
1000
MTEXTEND
  0
POINT
  5
16F8
330
1452
100
AcDbEntity
  8
DEFPOINTS
 62
     0
100
AcDbPoint
 10
285.2905668707418
 20
85.3696891436839
 30
0.0
  0
POINT
  5
16F9
330
1452
100
AcDbEntity
  8
DEFPOINTS
 62
     0
100
AcDbPoint
 10
166.0905668707424
 20
84.62931871053319
 30
0.0
  0
POINT
  5
16FA
330
1452
100
AcDbEntity
  8
DEFPOINTS
 62
     0
100
AcDbPoint
 10
166.0905668707424
 20
58.40291960607567
 30
0.0
  0
ENDBLK
  5
145D
330
1452
100
AcDbEntity
  8
0
100
AcDbBlockEnd
  0
BLOCK
  5
1468
330
145E
100
AcDbEntity
  8
0
100
AcDbBlockBegin
  2
*D11
 70
     1
 10
0.0
 20
0.0
 30
0.0
  3
*D11
  1

  0
LINE
  5
1704
330
145E
100
AcDbEntity
  8
SUNPOU
100
AcDbLine
 10
166.0905668707424
 20
81.6293187105332
 30
0.0
 11
166.0905668707424
 21
56.90291960607567
 31
0.0
  0
LINE
  5
1705
330
145E
100
AcDbEntity
  8
SUNPOU
100
AcDbLine
 10
143.0905668707419
 20
105.2025208344436
 30
0.0
 11
143.0905668707419
 21
56.90291960607567
 31
0.0
  0
LINE
  5
1706
330
145E
100
AcDbEntity
  8
SUNPOU
100
AcDbLine
 10
163.0905668707424
 20
58.40291960607567
 30
0.0
 11
146.0905668707418
 21
58.40291960607567
 31
0.0
  0
INSERT
  5
1707
330
145E
100
AcDbEntity
  8
SUNPOU
100
AcDbBlockReference
  2
_OPEN
 10
166.0905668707424
 20
58.40291960607567
 30
0.0
 41
3.0
 42
3.0
 43
3.0
  0
INSERT
  5
1708
330
145E
100
AcDbEntity
  8
SUNPOU
100
AcDbBlockReference
  2
_OPEN
 10
143.0905668707419
 20
58.40291960607567
 30
0.0
 41
3.0
 42
3.0
 43
3.0
 50
180.0
  0
MTEXT
  5
1709
330
145E
100
AcDbEntity
  8
SUNPOU
100
AcDbMText
 10
154.5905668707421
 20
60.90291960607567
 30
0.0
 40
3.0
 41
0.0
 71
     5
 72
     1
  1
\A1;23
1001
ACAD
1000
MTEXTBEGIN
1070
    73
1070
     1
1070
    44
1040
1.0
1070
    74
1070
     0
1000
MTEXTEND
1000
MTEXTBEGIN
1070
    73
1070
     1
1070
    44
1040
1.0
1070
    74
1070
     0
1000
MTEXTEND
1000
MTEXTBEGIN
1070
    73
1070
     1
1070
    44
1040
1.0
1070
    74
1070
     0
1000
MTEXTEND
  0
POINT
  5
170A
330
145E
100
AcDbEntity
  8
DEFPOINTS
 62
     0
100
AcDbPoint
 10
166.0905668707424
 20
84.62931871053319
 30
0.0
  0
POINT
  5
170B
330
145E
100
AcDbEntity
  8
DEFPOINTS
 62
     0
100
AcDbPoint
 10
143.0905668707419
 20
108.2025208344436
 30
0.0
  0
POINT
  5
170C
330
145E
100
AcDbEntity
  8
DEFPOINTS
 62
     0
100
AcDbPoint
 10
143.0905668707419
 20
58.40291960607567
 30
0.0
  0
ENDBLK
  5
1469
330
145E
100
AcDbEntity
  8
0
100
AcDbBlockEnd
  0
BLOCK
  5
1474
330
146A
100
AcDbEntity
  8
0
100
AcDbBlockBegin
  2
*D12
 70
     1
 10
0.0
 20
0.0
 30
0.0
  3
*D12
  1

  0
LINE
  5
170D
330
146A
100
AcDbEntity
  8
SUNPOU
100
AcDbLine
 10
143.0905668707419
 20
105.2025208344436
 30
0.0
 11
143.0905668707419
 21
88.42346849271564
 31
0.0
  0
LINE
  5
170E
330
146A
100
AcDbEntity
  8
SUNPOU
100
AcDbLine
 10
157.8215442120419
 20
107.8025208344436
 30
0.0
 11
157.8215442120419
 21
88.42346849271564
 31
0.0
  0
LINE
  5
170F
330
146A
100
AcDbEntity
  8
SUNPOU
100
AcDbLine
 10
146.0905668707418
 20
89.92346849271564
 30
0.0
 11
154.8215442120419
 21
89.92346849271564
 31
0.0
  0
INSERT
  5
1710
330
146A
100
AcDbEntity
  8
SUNPOU
100
AcDbBlockReference
  2
_OPEN
 10
143.0905668707419
 20
89.92346849271564
 30
0.0
 41
3.0
 42
3.0
 43
3.0
 50
180.0
  0
INSERT
  5
1711
330
146A
100
AcDbEntity
  8
SUNPOU
100
AcDbBlockReference
  2
_OPEN
 10
157.8215442120419
 20
89.92346849271564
 30
0.0
 41
3.0
 42
3.0
 43
3.0
  0
MTEXT
  5
1712
330
146A
100
AcDbEntity
  8
SUNPOU
100
AcDbMText
 10
150.4560555413919
 20
92.42346849271564
 30
0.0
 40
3.0
 41
0.0
 71
     5
 72
     1
  1
\A1;15
1001
ACAD
1000
MTEXTBEGIN
1070
    73
1070
     1
1070
    44
1040
1.0
1070
    74
1070
     0
1000
MTEXTEND
1000
MTEXTBEGIN
1070
    73
1070
     1
1070
    44
1040
1.0
1070
    74
1070
     0
1000
MTEXTEND
1000
MTEXTBEGIN
1070
    73
1070
     1
1070
    44
1040
1.0
1070
    74
1070
     0
1000
MTEXTEND
  0
POINT
  5
1713
330
146A
100
AcDbEntity
  8
DEFPOINTS
 62
     0
100
AcDbPoint
 10
143.0905668707419
 20
108.2025208344436
 30
0.0
  0
POINT
  5
1714
330
146A
100
AcDbEntity
  8
DEFPOINTS
 62
     0
100
AcDbPoint
 10
157.8215442120419
 20
110.8025208344436
 30
0.0
  0
POINT
  5
1715
330
146A
100
AcDbEntity
  8
DEFPOINTS
 62
     0
100
AcDbPoint
 10
157.8215442120419
 20
89.92346849271564
 30
0.0
  0
ENDBLK
  5
1475
330
146A
100
AcDbEntity
  8
0
100
AcDbBlockEnd
  0
BLOCK
  5
1480
330
1476
100
AcDbEntity
  8
0
100
AcDbBlockBegin
  2
*D13
 70
     1
 10
0.0
 20
0.0
 30
0.0
  3
*D13
  1

  0
LINE
  5
172C
330
1476
100
AcDbEntity
  8
SUNPOU
100
AcDbLine
 10
160.9033536933683
 20
193.0893469117102
 30
0.0
 11
192.0192976940975
 21
193.0893469117102
 31
0.0
  0
LINE
  5
172D
330
1476
100
AcDbEntity
  8
SUNPOU
100
AcDbLine
 10
169.5401417987096
 20
179.5837460357088
 30
0.0
 11
192.0192976940975
 21
179.5837460357087
 31
0.0
  0
LINE
  5
172E
330
1476
100
AcDbEntity
  8
SUNPOU
100
AcDbLine
 10
190.5192976940975
 20
190.0893469117102
 30
0.0
 11
190.5192976940975
 21
182.5837460357087
 31
0.0
  0
INSERT
  5
172F
330
1476
100
AcDbEntity
  8
SUNPOU
100
AcDbBlockReference
  2
_OPEN
 10
190.5192976940975
 20
193.0893469117102
 30
0.0
 41
3.0
 42
3.0
 43
3.0
 50
90.0
  0
INSERT
  5
1730
330
1476
100
AcDbEntity
  8
SUNPOU
100
AcDbBlockReference
  2
_OPEN
 10
190.5192976940975
 20
179.5837460357088
 30
0.0
 41
3.0
 42
3.0
 43
3.0
 50
270.0
  0
MTEXT
  5
1731
330
1476
100
AcDbEntity
  8
SUNPOU
100
AcDbMText
 10
188.0192976940975
 20
186.3365464737095
 30
0.0
 40
3.0
 41
0.0
 71
     5
 72
     1
  1
\A1;14
 11
0.0000000000000001
 21
1.0
 31
0.0
1001
ACAD
1000
MTEXTBEGIN
1070
    73
1070
     1
1070
    44
1040
1.0
1070
    74
1070
     0
1000
MTEXTEND
1000
MTEXTBEGIN
1070
    73
1070
     1
1070
    44
1040
1.0
1070
    74
1070
     0
1000
MTEXTEND
1000
MTEXTBEGIN
1070
    73
1070
     1
1070
    44
1040
1.0
1070
    74
1070
     0
1000
MTEXTEND
  0
POINT
  5
1732
330
1476
100
AcDbEntity
  8
DEFPOINTS
 62
     0
100
AcDbPoint
 10
157.9033536933683
 20
193.0893469117102
 30
0.0
  0
POINT
  5
1733
330
1476
100
AcDbEntity
  8
DEFPOINTS
 62
     0
100
AcDbPoint
 10
166.5401417987096
 20
179.5837460357088
 30
0.0
  0
POINT
  5
1734
330
1476
100
AcDbEntity
  8
DEFPOINTS
 62
     0
100
AcDbPoint
 10
190.5192976940975
 20
179.5837460357088
 30
0.0
  0
ENDBLK
  5
1481
330
1476
100
AcDbEntity
  8
0
100
AcDbBlockEnd
  0
BLOCK
  5
148C
330
1482
100
AcDbEntity
  8
0
100
AcDbBlockBegin
  2
*D14
 70
     1
 10
0.0
 20
0.0
 30
0.0
  3
*D14
  1

  0
LINE
  5
1735
330
1482
100
AcDbEntity
  8
SUNPOU
100
AcDbLine
 10
157.9033536933683
 20
196.0893469117102
 30
0.0
 11
157.9033536933683
 21
214.955446596888
 31
0.0
  0
LINE
  5
1736
330
1482
100
AcDbEntity
  8
SUNPOU
100
AcDbLine
 10
168.8708366462293
 20
189.0798709097985
 30
0.0
 11
168.8708366462293
 21
214.955446596888
 31
0.0
  0
LINE
  5
1737
330
1482
100
AcDbEntity
  8
SUNPOU
100
AcDbLine
 10
160.9033536933683
 20
213.4554465968879
 30
0.0
 11
165.8708366462293
 21
213.4554465968879
 31
0.0
  0
INSERT
  5
1738
330
1482
100
AcDbEntity
  8
SUNPOU
100
AcDbBlockReference
  2
_OPEN
 10
157.9033536933683
 20
213.4554465968879
 30
0.0
 41
3.0
 42
3.0
 43
3.0
 50
180.0
  0
INSERT
  5
1739
330
1482
100
AcDbEntity
  8
SUNPOU
100
AcDbBlockReference
  2
_OPEN
 10
168.8708366462293
 20
213.4554465968879
 30
0.0
 41
3.0
 42
3.0
 43
3.0
  0
MTEXT
  5
173A
330
1482
100
AcDbEntity
  8
SUNPOU
100
AcDbMText
 10
163.3870951697988
 20
215.955446596888
 30
0.0
 40
3.0
 41
0.0
 71
     5
 72
     1
  1
\A1;11
1001
ACAD
1000
MTEXTBEGIN
1070
    73
1070
     1
1070
    44
1040
1.0
1070
    74
1070
     0
1000
MTEXTEND
1000
MTEXTBEGIN
1070
    73
1070
     1
1070
    44
1040
1.0
1070
    74
1070
     0
1000
MTEXTEND
1000
MTEXTBEGIN
1070
    73
1070
     1
1070
    44
1040
1.0
1070
    74
1070
     0
1000
MTEXTEND
  0
POINT
  5
173B
330
1482
100
AcDbEntity
  8
DEFPOINTS
 62
     0
100
AcDbPoint
 10
157.9033536933683
 20
193.0893469117102
 30
0.0
  0
POINT
  5
173C
330
1482
100
AcDbEntity
  8
DEFPOINTS
 62
     0
100
AcDbPoint
 10
168.8708366462293
 20
186.0798709097985
 30
0.0
  0
POINT
  5
173D
330
1482
100
AcDbEntity
  8
DEFPOINTS
 62
     0
100
AcDbPoint
 10
168.8708366462293
 20
213.4554465968879
 30
0.0
  0
ENDBLK
  5
148D
330
1482
100
AcDbEntity
  8
0
100
AcDbBlockEnd
  0
BLOCK
  5
149A
330
148E
100
AcDbEntity
  8
0
100
AcDbBlockBegin
  2
*D15
 70
     1
 10
0.0
 20
0.0
 30
0.0
  3
*D15
  1

  0
LINE
  5
173E
330
148E
100
AcDbEntity
  8
SUNPOU
100
AcDbLine
 10
288.5215442120419
 20
150.9469166312435
 30
0.0
 11
288.5215442120419
 21
170.0701884661784
 31
0.0
  0
LINE
  5
173F
330
148E
100
AcDbEntity
  8
SUNPOU
100
AcDbLine
 10
276.7905668707419
 20
141.2025208344436
 30
0.0
 11
276.7905668707419
 21
170.0701884661784
 31
0.0
  0
LINE
  5
1740
330
148E
100
AcDbEntity
  8
SUNPOU
100
AcDbLine
 10
291.5215442120419
 20
168.5701884661784
 30
0.0
 11
294.5215442120419
 21
168.5701884661784
 31
0.0
  0
LINE
  5
1741
330
148E
100
AcDbEntity
  8
SUNPOU
100
AcDbLine
 10
273.7905668707419
 20
168.5701884661784
 30
0.0
 11
270.7905668707419
 21
168.5701884661784
 31
0.0
  0
LINE
  5
1742
330
148E
100
AcDbEntity
  8
SUNPOU
100
AcDbLine
 10
288.5215442120419
 20
168.5701884661784
 30
0.0
 11
276.7905668707419
 21
168.5701884661784
 31
0.0
  0
INSERT
  5
1743
330
148E
100
AcDbEntity
  8
SUNPOU
100
AcDbBlockReference
  2
_OPEN
 10
288.5215442120419
 20
168.5701884661784
 30
0.0
 41
3.0
 42
3.0
 43
3.0
 50
180.0
  0
INSERT
  5
1744
330
148E
100
AcDbEntity
  8
SUNPOU
100
AcDbBlockReference
  2
_OPEN
 10
276.7905668707419
 20
168.5701884661784
 30
0.0
 41
3.0
 42
3.0
 43
3.0
  0
MTEXT
  5
1745
330
148E
100
AcDbEntity
  8
SUNPOU
100
AcDbMText
 10
282.6560555413919
 20
171.0701884661784
 30
0.0
 40
3.0
 41
0.0
 71
     5
 72
     1
  1
\A1;12
1001
ACAD
1000
MTEXTBEGIN
1070
    73
1070
     1
1070
    44
1040
1.0
1070
    74
1070
     0
1000
MTEXTEND
1000
MTEXTBEGIN
1070
    73
1070
     1
1070
    44
1040
1.0
1070
    74
1070
     0
1000
MTEXTEND
1000
MTEXTBEGIN
1070
    73
1070
     1
1070
    44
1040
1.0
1070
    74
1070
     0
1000
MTEXTEND
  0
POINT
  5
1746
330
148E
100
AcDbEntity
  8
DEFPOINTS
 62
     0
100
AcDbPoint
 10
288.5215442120419
 20
147.9469166312435
 30
0.0
  0
POINT
  5
1747
330
148E
100
AcDbEntity
  8
DEFPOINTS
 62
     0
100
AcDbPoint
 10
276.7905668707419
 20
138.2025208344436
 30
0.0
  0
POINT
  5
1748
330
148E
100
AcDbEntity
  8
DEFPOINTS
 62
     0
100
AcDbPoint
 10
276.7905668707419
 20
168.5701884661784
 30
0.0
  0
ENDBLK
  5
149B
330
148E
100
AcDbEntity
  8
0
100
AcDbBlockEnd
  0
BLOCK
  5
14A6
330
149C
100
AcDbEntity
  8
0
100
AcDbBlockBegin
  2
*D16
 70
     1
 10
0.0
 20
0.0
 30
0.0
  3
*D16
  1

  0
LINE
  5
1749
330
149C
100
AcDbEntity
  8
SUNPOU
100
AcDbLine
 10
278.7905668707419
 20
153.2025208344436
 30
0.0
 11
256.6466159698691
 21
153.2025208344436
 31
0.0
  0
LINE
  5
174A
330
149C
100
AcDbEntity
  8
SUNPOU
100
AcDbLine
 10
273.7905668707419
 20
138.2025208344436
 30
0.0
 11
256.6466159698691
 21
138.2025208344436
 31
0.0
  0
LINE
  5
174B
330
149C
100
AcDbEntity
  8
SUNPOU
100
AcDbLine
 10
258.1466159698691
 20
150.2025208344436
 30
0.0
 11
258.1466159698691
 21
141.2025208344436
 31
0.0
  0
INSERT
  5
174C
330
149C
100
AcDbEntity
  8
SUNPOU
100
AcDbBlockReference
  2
_OPEN
 10
258.1466159698691
 20
153.2025208344436
 30
0.0
 41
3.0
 42
3.0
 43
3.0
 50
90.0
  0
INSERT
  5
174D
330
149C
100
AcDbEntity
  8
SUNPOU
100
AcDbBlockReference
  2
_OPEN
 10
258.1466159698691
 20
138.2025208344436
 30
0.0
 41
3.0
 42
3.0
 43
3.0
 50
270.0
  0
MTEXT
  5
174E
330
149C
100
AcDbEntity
  8
SUNPOU
100
AcDbMText
 10
255.6466159698691
 20
144.5358541677769
 30
0.0
 40
3.0
 41
0.0
 71
     5
 72
     1
  1
\A1;15
 11
0.0000000000000001
 21
1.0
 31
0.0
1001
ACAD
1000
MTEXTBEGIN
1070
    73
1070
     1
1070
    44
1040
1.0
1070
    74
1070
     0
1000
MTEXTEND
1000
MTEXTBEGIN
1070
    73
1070
     1
1070
    44
1040
1.0
1070
    74
1070
     0
1000
MTEXTEND
1000
MTEXTBEGIN
1070
    73
1070
     1
1070
    44
1040
1.0
1070
    74
1070
     0
1000
MTEXTEND
  0
POINT
  5
174F
330
149C
100
AcDbEntity
  8
DEFPOINTS
 62
     0
100
AcDbPoint
 10
281.7905668707419
 20
153.2025208344436
 30
0.0
  0
POINT
  5
1750
330
149C
100
AcDbEntity
  8
DEFPOINTS
 62
     0
100
AcDbPoint
 10
276.7905668707419
 20
138.2025208344436
 30
0.0
  0
POINT
  5
1751
330
149C
100
AcDbEntity
  8
DEFPOINTS
 62
     0
100
AcDbPoint
 10
258.1466159698691
 20
138.2025208344436
 30
0.0
  0
ENDBLK
  5
14A7
330
149C
100
AcDbEntity
  8
0
100
AcDbBlockEnd
  0
BLOCK
  5
1936
330
17A2
100
AcDbEntity
  8
0
100
AcDbBlockBegin
  2
*X17
 70
     1
 10
0.0
 20
0.0
 30
0.0
  3
*X17
  1

  0
LINE
  5
17A3
330
17A2
100
AcDbEntity
  8
0
 62
     0
100
AcDbLine
 10
34.52110607739058
 20
11.30208453514254
 30
0.0
 11
34.19819061253312
 21
11.62500000000002
 31
0.0
  0
LINE
  5
17A4
330
17A2
100
AcDbEntity
  8
0
 62
     0
100
AcDbLine
 10
34.52110607739058
 20
10.85307172908909
 30
0.0
 11
33.74917780647965
 21
11.62500000000002
 31
0.0
  0
LINE
  5
17A5
330
17A2
100
AcDbEntity
  8
0
 62
     0
100
AcDbLine
 10
34.52110607739055
 20
10.40405892303562
 30
0.0
 11
33.31053910438308
 21
11.61462589604309
 31
0.0
  0
LINE
  5
17A6
330
17A2
100
AcDbEntity
  8
0
 62
     0
100
AcDbLine
 10
34.52110607739058
 20
9.955046116982202
 30
0.0
 11
33.12110607739055
 21
11.3550461169822
 31
0.0
  0
LINE
  5
17A7
330
17A2
100
AcDbEntity
  8
0
 62
     0
100
AcDbLine
 10
34.52110607739058
 20
9.506033310928728
 30
0.0
 11
33.12110607739055
 21
10.90603331092876
 31
0.0
  0
LINE
  5
17A8
330
17A2
100
AcDbEntity
  8
0
 62
     0
100
AcDbLine
 10
34.52110607739055
 20
9.057020504875254
 30
0.0
 11
33.12110607739052
 21
10.45702050487528
 31
0.0
  0
LINE
  5
17A9
330
17A2
100
AcDbEntity
  8
0
 62
     0
100
AcDbLine
 10
32.07110607739053
 20
11.05800769882185
 30
0.0
 11
31.50411377621239
 21
11.62500000000002
 31
0.0
  0
LINE
  5
17AA
330
17A2
100
AcDbEntity
  8
0
 62
     0
100
AcDbLine
 10
34.52110607739058
 20
8.608007698821836
 30
0.0
 11
33.12110607739055
 21
10.00800769882187
 31
0.0
  0
LINE
  5
17AB
330
17A2
100
AcDbEntity
  8
0
 62
     0
100
AcDbLine
 10
32.07110607739053
 20
10.6089948927684
 30
0.0
 11
31.05510097015891
 21
11.625
 31
0.0
  0
LINE
  5
17AC
330
17A2
100
AcDbEntity
  8
0
 62
     0
100
AcDbLine
 10
34.52110607739055
 20
8.158994892768362
 30
0.0
 11
33.12110607739055
 21
9.558994892768396
 31
0.0
  0
LINE
  5
17AD
330
17A2
100
AcDbEntity
  8
0
 62
     0
100
AcDbLine
 10
32.07110607739053
 20
10.15998208671493
 30
0.0
 11
30.718350594822
 21
11.51273756928347
 31
0.0
  0
LINE
  5
17AE
330
17A2
100
AcDbEntity
  8
0
 62
     0
100
AcDbLine
 10
34.52110607739055
 20
7.709982086714916
 30
0.0
 11
33.12110607739052
 21
9.109982086714921
 31
0.0
  0
LINE
  5
17AF
330
17A2
100
AcDbEntity
  8
0
 62
     0
100
AcDbLine
 10
32.07110607739053
 20
9.710969280661458
 30
0.0
 11
30.6711060773905
 21
11.11096928066149
 31
0.0
  0
LINE
  5
17B0
330
17A2
100
AcDbEntity
  8
0
 62
     0
100
AcDbLine
 10
34.52110607739058
 20
7.260969280661441
 30
0.0
 11
33.12110607739055
 21
8.660969280661475
 31
0.0
  0
LINE
  5
17B1
330
17A2
100
AcDbEntity
  8
0
 62
     0
100
AcDbLine
 10
32.07110607739056
 20
9.261956474607984
 30
0.0
 11
30.6711060773905
 21
10.66195647460807
 31
0.0
  0
LINE
  5
17B2
330
17A2
100
AcDbEntity
  8
0
 62
     0
100
AcDbLine
 10
34.52110607739055
 20
6.811956474607995
 30
0.0
 11
33.12110607739052
 21
8.21195647460803
 31
0.0
  0
LINE
  5
17B3
330
17A2
100
AcDbEntity
  8
0
 62
     0
100
AcDbLine
 10
32.07110607739056
 20
8.812943668554538
 30
0.0
 11
30.67110607739053
 21
10.21294366855457
 31
0.0
  0
LINE
  5
17B4
330
17A2
100
AcDbEntity
  8
0
 62
     0
100
AcDbLine
 10
34.52110607739055
 20
6.362943668554549
 30
0.0
 11
33.12110607739052
 21
7.762943668554584
 31
0.0
  0
LINE
  5
17B5
330
17A2
100
AcDbEntity
  8
0
 62
     0
100
AcDbLine
 10
32.07110607739053
 20
8.363930862501064
 30
0.0
 11
30.67110607739053
 21
9.763930862501098
 31
0.0
  0
LINE
  5
17B6
330
17A2
100
AcDbEntity
  8
0
 62
     0
100
AcDbLine
 10
34.52110607739053
 20
5.913930862501075
 30
0.0
 11
33.12110607739052
 21
7.313930862501109
 31
0.0
  0
LINE
  5
17B7
330
17A2
100
AcDbEntity
  8
0
 62
     0
100
AcDbLine
 10
32.07110607739056
 20
7.914918056447646
 30
0.0
 11
30.67110607739053
 21
9.314918056447652
 31
0.0
  0
LINE
  5
17B8
330
17A2
100
AcDbEntity
  8
0
 62
     0
100
AcDbLine
 10
28.92110607739053
 20
11.06491805644768
 30
0.0
 11
28.36102413383816
 21
11.62500000000002
 31
0.0
  0
LINE
  5
17B9
330
17A2
100
AcDbEntity
  8
0
 62
     0
100
AcDbLine
 10
34.52110607739055
 20
5.464918056447658
 30
0.0
 11
33.12110607739052
 21
6.864918056447663
 31
0.0
  0
LINE
  5
17BA
330
17A2
100
AcDbEntity
  8
0
 62
     0
100
AcDbLine
 10
32.07110607739056
 20
7.465905250394172
 30
0.0
 11
30.67110607739053
 21
8.865905250394206
 31
0.0
  0
LINE
  5
17BB
330
17A2
100
AcDbEntity
  8
0
 62
     0
100
AcDbLine
 10
28.92110607739056
 20
10.61590525039417
 30
0.0
 11
27.91201132778471
 21
11.62500000000002
 31
0.0
  0
LINE
  5
17BC
330
17A2
100
AcDbEntity
  8
0
 62
     0
100
AcDbLine
 10
34.52110607739055
 20
5.015905250394183
 30
0.0
 11
33.12110607739052
 21
6.415905250394217
 31
0.0
  0
LINE
  5
17BD
330
17A2
100
AcDbEntity
  8
0
 62
     0
100
AcDbLine
 10
32.07110607739053
 20
7.016892444340726
 30
0.0
 11
30.6711060773905
 21
8.416892444340732
 31
0.0
  0
LINE
  5
17BE
330
17A2
100
AcDbEntity
  8
0
 62
     0
100
AcDbLine
 10
28.92110607739053
 20
10.1668924443407
 30
0.0
 11
27.5712247157285
 21
11.51677380600276
 31
0.0
  0
LINE
  5
17BF
330
17A2
100
AcDbEntity
  8
0
 62
     0
100
AcDbLine
 10
34.52110607739053
 20
4.566892444340737
 30
0.0
 11
33.12110607739049
 21
5.966892444340743
 31
0.0
  0
LINE
  5
17C0
330
17A2
100
AcDbEntity
  8
0
 62
     0
100
AcDbLine
 10
32.07110607739056
 20
6.567879638287251
 30
0.0
 11
30.67110607739053
 21
7.967879638287286
 31
0.0
  0
LINE
  5
17C1
330
17A2
100
AcDbEntity
  8
0
 62
     0
100
AcDbLine
 10
28.92110607739056
 20
9.717879638287257
 30
0.0
 11
27.52110607739052
 21
11.11787963828729
 31
0.0
  0
LINE
  5
17C2
330
17A2
100
AcDbEntity
  8
0
 62
     0
100
AcDbLine
 10
34.52110607739055
 20
4.117879638287263
 30
0.0
 11
33.12110607739052
 21
5.517879638287297
 31
0.0
  0
LINE
  5
17C3
330
17A2
100
AcDbEntity
  8
0
 62
     0
100
AcDbLine
 10
32.07110607739053
 20
6.118866832233806
 30
0.0
 11
30.67110607739056
 21
7.518866832233811
 31
0.0
  0
LINE
  5
17C4
330
17A2
100
AcDbEntity
  8
0
 62
     0
100
AcDbLine
 10
28.92110607739056
 20
9.268866832233811
 30
0.0
 11
27.52110607739055
 21
10.66886683223381
 31
0.0
  0
LINE
  5
17C5
330
17A2
100
AcDbEntity
  8
0
 62
     0
100
AcDbLine
 10
34.48512339994564
 20
3.704849509678723
 30
0.0
 11
33.12110607739052
 21
5.068866832233851
 31
0.0
  0
LINE
  5
17C6
330
17A2
100
AcDbEntity
  8
0
 62
     0
100
AcDbLine
 10
32.07110607739056
 20
5.669854026180303
 30
0.0
 11
30.67110607739056
 21
7.069854026180337
 31
0.0
  0
LINE
  5
17C7
330
17A2
100
AcDbEntity
  8
0
 62
     0
100
AcDbLine
 10
28.92110607739053
 20
8.819854026180365
 30
0.0
 11
27.52110607739055
 21
10.21985402618034
 31
0.0
  0
LINE
  5
17C8
330
17A2
100
AcDbEntity
  8
0
 62
     0
100
AcDbLine
 10
34.16596010357091
 20
3.574999999999988
 30
0.0
 11
33.12110607739049
 21
4.619854026180405
 31
0.0
  0
LINE
  5
17C9
330
17A2
100
AcDbEntity
  8
0
 62
     0
100
AcDbLine
 10
28.92110607739053
 20
8.370841220126891
 30
0.0
 11
27.52110607739052
 21
9.770841220126868
 31
0.0
  0
LINE
  5
17CA
330
17A2
100
AcDbEntity
  8
0
 62
     0
100
AcDbLine
 10
32.07110607739056
 20
5.220841220126857
 30
0.0
 11
30.67110607739053
 21
6.620841220126862
 31
0.0
  0
LINE
  5
17CB
330
17A2
100
AcDbEntity
  8
0
 62
     0
100
AcDbLine
 10
26.20860607739055
 20
11.08334122012686
 30
0.0
 11
25.66694729751736
 21
11.62500000000002
 31
0.0
  0
LINE
  5
17CC
330
17A2
100
AcDbEntity
  8
0
 62
     0
100
AcDbLine
 10
33.71694729751746
 20
3.574999999999931
 30
0.0
 11
33.12110607739049
 21
4.170841220126931
 31
0.0
  0
LINE
  5
17CD
330
17A2
100
AcDbEntity
  8
0
 62
     0
100
AcDbLine
 10
28.92110607739053
 20
7.921828414073445
 30
0.0
 11
27.52110607739055
 21
9.321828414073451
 31
0.0
  0
LINE
  5
17CE
330
17A2
100
AcDbEntity
  8
0
 62
     0
100
AcDbLine
 10
26.20860607739058
 20
10.63432841407342
 30
0.0
 11
25.21793449146395
 21
11.62500000000005
 31
0.0
  0
LINE
  5
17CF
330
17A2
100
AcDbEntity
  8
0
 62
     0
100
AcDbLine
 10
32.05812692706777
 20
4.784807564396231
 30
0.0
 11
30.67110607739056
 21
6.171828414073445
 31
0.0
  0
LINE
  5
17D0
330
17A2
100
AcDbEntity
  8
0
 62
     0
100
AcDbLine
 10
28.92110607739056
 20
7.472815608019942
 30
0.0
 11
27.52110607739055
 21
8.872815608019976
 31
0.0
  0
LINE
  5
17D1
330
17A2
100
AcDbEntity
  8
0
 62
     0
100
AcDbLine
 10
26.11081580433361
 20
10.28310588107692
 30
0.0
 11
24.76892168541053
 21
11.625
 31
0.0
  0
LINE
  5
17D2
330
17A2
100
AcDbEntity
  8
0
 62
     0
100
AcDbLine
 10
31.96163427943915
 20
4.432287405971351
 30
0.0
 11
30.67110607739053
 21
5.722815608019971
 31
0.0
  0
LINE
  5
17D3
330
17A2
100
AcDbEntity
  8
0
 62
     0
100
AcDbLine
 10
28.92110607739056
 20
7.023802801966496
 30
0.0
 11
27.52110607739052
 21
8.42380280196653
 31
0.0
  0
LINE
  5
17D4
330
17A2
100
AcDbEntity
  8
0
 62
     0
100
AcDbLine
 10
25.71990887935703
 20
10.22499999999999
 30
0.0
 11
24.31990887935703
 21
11.62500000000002
 31
0.0
  0
LINE
  5
17D5
330
17A2
100
AcDbEntity
  8
0
 62
     0
100
AcDbLine
 10
31.79911834147736
 20
4.145790537879662
 30
0.0
 11
30.63534820781075
 21
5.309560671546307
 31
0.0
  0
LINE
  5
17D6
330
17A2
100
AcDbEntity
  8
0
 62
     0
100
AcDbLine
 10
28.92110607739059
 20
6.57478999591305
 30
0.0
 11
27.52110607739055
 21
7.974789995913084
 31
0.0
  0
LINE
  5
17D7
330
17A2
100
AcDbEntity
  8
0
 62
     0
100
AcDbLine
 10
25.27089607330362
 20
10.22500000000002
 30
0.0
 11
23.90211270871492
 21
11.59378336458871
 31
0.0
  0
LINE
  5
17D8
330
17A2
100
AcDbEntity
  8
0
 62
     0
100
AcDbLine
 10
31.58309744281484
 20
3.912798630488765
 30
0.0
 11
30.43455538857699
 21
5.061340684726616
 31
0.0
  0
LINE
  5
17D9
330
17A2
100
AcDbEntity
  8
0
 62
     0
100
AcDbLine
 10
28.92110607739056
 20
6.125777189859604
 30
0.0
 11
27.52110607739052
 21
7.52577718985961
 31
0.0
  0
LINE
  5
17DA
330
17A2
100
AcDbEntity
  8
0
 62
     0
100
AcDbLine
 10
24.82188326725014
 20
10.22500000000002
 30
0.0
 11
23.56979249644828
 21
11.47709077080188
 31
0.0
  0
LINE
  5
17DB
330
17A2
100
AcDbEntity
  8
0
 62
     0
100
AcDbLine
 10
31.31501627035183
 20
3.731866996898332
 30
0.0
 11
30.07188326725014
 21
4.974999999999994
 31
0.0
  0
LINE
  5
17DC
330
17A2
100
AcDbEntity
  8
0
 62
     0
100
AcDbLine
 10
28.92110607739056
 20
5.67676438380613
 30
0.0
 11
27.52110607739055
 21
7.076764383806107
 31
0.0
  0
LINE
  5
17DD
330
17A2
100
AcDbEntity
  8
0
 62
     0
100
AcDbLine
 10
24.38376537520574
 20
10.21410508599092
 30
0.0
 11
23.29849202784314
 21
11.29937843335352
 31
0.0
  0
LINE
  5
17DE
330
17A2
100
AcDbEntity
  8
0
 62
     0
100
AcDbLine
 10
30.98680999039618
 20
3.611060470800509
 30
0.0
 11
29.62287046119669
 21
4.974999999999994
 31
0.0
  0
LINE
  5
17DF
330
17A2
100
AcDbEntity
  8
0
 62
     0
100
AcDbLine
 10
24.19610607739056
 20
9.952751577752621
 30
0.0
 11
23.07943599832086
 21
11.06942165682232
 31
0.0
  0
LINE
  5
17E0
330
17A2
100
AcDbEntity
  8
0
 62
     0
100
AcDbLine
 10
30.5738576551432
 20
3.574999999999988
 30
0.0
 11
27.52110607739055
 21
6.627751577752661
 31
0.0
  0
LINE
  5
17E1
330
17A2
100
AcDbEntity
  8
0
 62
     0
100
AcDbLine
 10
24.19610607739059
 20
9.503738771699204
 30
0.0
 11
22.91355054214434
 21
10.78629430694544
 31
0.0
  0
LINE
  5
17E2
330
17A2
100
AcDbEntity
  8
0
 62
     0
100
AcDbLine
 10
30.12484484908978
 20
3.575000000000017
 30
0.0
 11
27.52110607739058
 21
6.178738771699215
 31
0.0
  0
LINE
  5
17E3
330
17A2
100
AcDbEntity
  8
0
 62
     0
100
AcDbLine
 10
24.29937821794246
 20
8.951453825093864
 30
0.0
 11
22.81246128246229
 21
10.438370760574
 31
0.0
  0
LINE
  5
17E4
330
17A2
100
AcDbEntity
  8
0
 62
     0
100
AcDbLine
 10
29.67583204303631
 20
3.574999999999988
 30
0.0
 11
27.52110607739055
 21
5.729725965645769
 31
0.0
  0
LINE
  5
17E5
330
17A2
100
AcDbEntity
  8
0
 62
     0
100
AcDbLine
 10
26.40790792873625
 20
6.3939113082466
 30
0.0
 11
22.79610607739053
 21
10.00571315959229
 31
0.0
  0
LINE
  5
17E6
330
17A2
100
AcDbEntity
  8
0
 62
     0
100
AcDbLine
 10
21.74610607739049
 20
11.05571315959233
 30
0.0
 11
21.17681923698285
 21
11.625
 31
0.0
  0
LINE
  5
17E7
330
17A2
100
AcDbEntity
  8
0
 62
     0
100
AcDbLine
 10
29.22681923698286
 20
3.574999999999988
 30
0.0
 11
27.52110607739055
 21
5.280713159592295
 31
0.0
  0
LINE
  5
17E8
330
17A2
100
AcDbEntity
  8
0
 62
     0
100
AcDbLine
 10
26.47110607739057
 20
5.88170035353886
 30
0.0
 11
22.79610607739056
 21
9.556700353538872
 31
0.0
  0
LINE
  5
17E9
330
17A2
100
AcDbEntity
  8
0
 62
     0
100
AcDbLine
 10
21.74610607739055
 20
10.60670035353885
 30
0.0
 11
20.72780643092937
 21
11.62500000000005
 31
0.0
  0
LINE
  5
17EA
330
17A2
100
AcDbEntity
  8
0
 62
     0
100
AcDbLine
 10
28.769582491557
 20
3.58322393937243
 30
0.0
 11
27.529330016763
 21
4.823476414166435
 31
0.0
  0
LINE
  5
17EB
330
17A2
100
AcDbEntity
  8
0
 62
     0
100
AcDbLine
 10
21.74610607739055
 20
10.15768754748541
 30
0.0
 11
20.39241113350289
 21
11.51138249137304
 31
0.0
  0
LINE
  5
17EC
330
17A2
100
AcDbEntity
  8
0
 62
     0
100
AcDbLine
 10
26.47110607739054
 20
5.432687547485386
 30
0.0
 11
22.80781141133172
 21
9.095982213544232
 31
0.0
  0
LINE
  5
17ED
330
17A2
100
AcDbEntity
  8
0
 62
     0
100
AcDbLine
 10
21.74610607739055
 20
9.708674741431934
 30
0.0
 11
20.34610607739054
 21
11.10867474143191
 31
0.0
  0
LINE
  5
17EE
330
17A2
100
AcDbEntity
  8
0
 62
     0
100
AcDbLine
 10
26.47110607739048
 20
4.983674741431968
 30
0.0
 11
22.96687112025173
 21
8.487909698570746
 31
0.0
  0
LINE
  5
17EF
330
17A2
100
AcDbEntity
  8
0
 62
     0
100
AcDbLine
 10
21.74610607739055
 20
9.259661935378488
 30
0.0
 11
20.34610607739057
 21
10.65966193537846
 31
0.0
  0
LINE
  5
17F0
330
17A2
100
AcDbEntity
  8
0
 62
     0
100
AcDbLine
 10
26.416825168596
 20
4.588942844173033
 30
0.0
 11
25.06900777407685
 21
5.936760238692187
 31
0.0
  0
LINE
  5
17F1
330
17A2
100
AcDbEntity
  8
0
 62
     0
100
AcDbLine
 10
21.74610607739055
 20
8.810649129325042
 30
0.0
 11
20.34610607739054
 21
10.21064912932502
 31
0.0
  0
LINE
  5
17F2
330
17A2
100
AcDbEntity
  8
0
 62
     0
100
AcDbLine
 10
19.20036262710203
 20
11.35639257961352
 30
0.0
 11
18.93175520671553
 21
11.62500000000005
 31
0.0
  0
LINE
  5
17F3
330
17A2
100
AcDbEntity
  8
0
 62
     0
100
AcDbLine
 10
26.28288731471522
 20
4.273867892000367
 30
0.0
 11
25.07110607739056
 21
5.485649129325025
 31
0.0
  0
LINE
  5
17F4
330
17A2
100
AcDbEntity
  8
0
 62
     0
100
AcDbLine
 10
21.74610607739052
 20
8.361636323271568
 30
0.0
 11
20.34610607739054
 21
9.761636323271574
 31
0.0
  0
LINE
  5
17F5
330
17A2
100
AcDbEntity
  8
0
 62
     0
100
AcDbLine
 10
19.10089879497573
 20
11.00684360568635
 30
0.0
 11
18.48274240066209
 21
11.62500000000002
 31
0.0
  0
LINE
  5
17F6
330
17A2
100
AcDbEntity
  8
0
 62
     0
100
AcDbLine
 10
26.09139391562758
 20
4.016348485034541
 30
0.0
 11
25.02246348594733
 21
5.085278914714791
 31
0.0
  0
LINE
  5
17F7
330
17A2
100
AcDbEntity
  8
0
 62
     0
100
AcDbLine
 10
21.74610607739052
 20
7.912623517218122
 30
0.0
 11
20.34610607739054
 21
9.312623517218099
 31
0.0
  0
LINE
  5
17F8
330
17A2
100
AcDbEntity
  8
0
 62
     0
100
AcDbLine
 10
18.99313572152294
 20
10.66559387308569
 30
0.0
 11
18.0385279397876
 21
11.62020165482104
 31
0.0
  0
LINE
  5
17F9
330
17A2
100
AcDbEntity
  8
0
 62
     0
100
AcDbLine
 10
25.84823443306976
 20
3.810495161538852
 30
0.0
 11
24.68372959460864
 21
4.974999999999994
 31
0.0
  0
LINE
  5
17FA
330
17A2
100
AcDbEntity
  8
0
 62
     0
100
AcDbLine
 10
21.74610607739058
 20
7.463610711164648
 30
0.0
 11
20.34610607739054
 21
8.863610711164653
 31
0.0
  0
LINE
  5
17FB
330
17A2
100
AcDbEntity
  8
0
 62
     0
100
AcDbLine
 10
18.88537264807013
 20
10.32434414048509
 30
0.0
 11
17.82137264807011
 21
11.38834414048511
 31
0.0
  0
LINE
  5
17FC
330
17A2
100
AcDbEntity
  8
0
 62
     0
100
AcDbLine
 10
25.55019245883957
 20
3.659524329715623
 30
0.0
 11
24.2347167885552
 21
4.975000000000022
 31
0.0
  0
LINE
  5
17FD
330
17A2
100
AcDbEntity
  8
0
 62
     0
100
AcDbLine
 10
21.74610607739058
 20
7.014597905111173
 30
0.0
 11
20.34610607739054
 21
8.414597905111207
 31
0.0
  0
LINE
  5
17FE
330
17A2
100
AcDbEntity
  8
0
 62
     0
100
AcDbLine
 10
18.7776095746172
 20
9.98309440788455
 30
0.0
 11
17.71360957461721
 21
11.04709440788454
 31
0.0
  0
LINE
  5
17FF
330
17A2
100
AcDbEntity
  8
0
 62
     0
100
AcDbLine
 10
25.18135613301584
 20
3.579347849485913
 30
0.0
 11
23.78570398250175
 21
4.974999999999994
 31
0.0
  0
LINE
  5
1800
330
17A2
100
AcDbEntity
  8
0
 62
     0
100
AcDbLine
 10
21.74610607739055
 20
6.565585099057727
 30
0.0
 11
20.34610607739051
 21
7.965585099057733
 31
0.0
  0
LINE
  5
1801
330
17A2
100
AcDbEntity
  8
0
 62
     0
100
AcDbLine
 10
18.66984650116441
 20
9.641844675283863
 30
0.0
 11
17.60584650116436
 21
10.70584467528388
 31
0.0
  0
LINE
  5
1802
330
17A2
100
AcDbEntity
  8
0
 62
     0
100
AcDbLine
 10
24.73669117644826
 20
3.574999999999988
 30
0.0
 11
23.33669117644828
 21
4.974999999999994
 31
0.0
  0
LINE
  5
1803
330
17A2
100
AcDbEntity
  8
0
 62
     0
100
AcDbLine
 10
21.74610607739058
 20
6.116572293004281
 30
0.0
 11
20.34610607739054
 21
7.516572293004315
 31
0.0
  0
LINE
  5
1804
330
17A2
100
AcDbEntity
  8
0
 62
     0
100
AcDbLine
 10
18.56208342771162
 20
9.300594942683233
 30
0.0
 11
17.49808342771155
 21
10.36459494268328
 31
0.0
  0
LINE
  5
1805
330
17A2
100
AcDbEntity
  8
0
 62
     0
100
AcDbLine
 10
24.28767837039484
 20
3.575000000000017
 30
0.0
 11
23.07087252174667
 21
4.791805848648181
 31
0.0
  0
LINE
  5
1806
330
17A2
100
AcDbEntity
  8
0
 62
     0
100
AcDbLine
 10
18.45432035425875
 20
8.959345210082631
 30
0.0
 11
17.39032035425873
 21
10.02334521008265
 31
0.0
  0
LINE
  5
1807
330
17A2
100
AcDbEntity
  8
0
 62
     0
100
AcDbLine
 10
21.74610607739055
 20
5.667559486950807
 30
0.0
 11
20.34610607739054
 21
7.067559486950841
 31
0.0
  0
LINE
  5
1808
330
17A2
100
AcDbEntity
  8
0
 62
     0
100
AcDbLine
 10
16.32110607739059
 20
11.09255948695079
 30
0.0
 11
15.78866556434135
 21
11.62500000000002
 31
0.0
  0
LINE
  5
1809
330
17A2
100
AcDbEntity
  8
0
 62
     0
100
AcDbLine
 10
23.83866556434142
 20
3.57499999999996
 30
0.0
 11
23.05860607739055
 21
4.355059486950835
 31
0.0
  0
LINE
  5
180A
330
17A2
100
AcDbEntity
  8
0
 62
     0
100
AcDbLine
 10
18.34655728080591
 20
8.618095477482
 30
0.0
 11
17.28255728080591
 21
9.682095477481993
 31
0.0
  0
LINE
  5
180B
330
17A2
100
AcDbEntity
  8
0
 62
     0
100
AcDbLine
 10
21.74610607739055
 20
5.218546680897361
 30
0.0
 11
20.34610607739051
 21
6.618546680897395
 31
0.0
  0
LINE
  5
180C
330
17A2
100
AcDbEntity
  8
0
 62
     0
100
AcDbLine
 10
16.32110607739056
 20
10.64354668089734
 30
0.0
 11
15.33965275828788
 21
11.625
 31
0.0
  0
LINE
  5
180D
330
17A2
100
AcDbEntity
  8
0
 62
     0
100
AcDbLine
 10
23.38965275828792
 20
3.574999999999988
 30
0.0
 11
23.05860607739052
 21
3.906046680897361
 31
0.0
  0
LINE
  5
180E
330
17A2
100
AcDbEntity
  8
0
 62
     0
100
AcDbLine
 10
18.23879420735306
 20
8.27684574488137
 30
0.0
 11
17.17479420735304
 21
9.340845744881391
 31
0.0
  0
LINE
  5
180F
330
17A2
100
AcDbEntity
  8
0
 62
     0
100
AcDbLine
 10
16.32110607739056
 20
10.19453387484386
 30
0.0
 11
14.9833836129417
 21
11.53225633929273
 31
0.0
  0
LINE
  5
1810
330
17A2
100
AcDbEntity
  8
0
 62
     0
100
AcDbLine
 10
21.74610607739055
 20
4.769533874843887
 30
0.0
 11
20.34610607739051
 21
6.169533874843921
 31
0.0
  0
LINE
  5
1811
330
17A2
100
AcDbEntity
  8
0
 62
     0
100
AcDbLine
 10
18.13103113390025
 20
7.935596012280768
 30
0.0
 11
17.06703113390025
 21
8.999596012280761
 31
0.0
  0
LINE
  5
1812
330
17A2
100
AcDbEntity
  8
0
 62
     0
100
AcDbLine
 10
16.32110607739056
 20
9.745521068790424
 30
0.0
 11
14.92110607739056
 21
11.14552106879045
 31
0.0
  0
LINE
  5
1813
330
17A2
100
AcDbEntity
  8
0
 62
     0
100
AcDbLine
 10
21.74610607739055
 20
4.320521068790469
 30
0.0
 11
20.34610607739051
 21
5.720521068790475
 31
0.0
  0
LINE
  5
1814
330
17A2
100
AcDbEntity
  8
0
 62
     0
100
AcDbLine
 10
18.0284868792043
 20
7.589127460923236
 30
0.0
 11
16.95926806044738
 21
8.658346279680159
 31
0.0
  0
LINE
  5
1815
330
17A2
100
AcDbEntity
  8
0
 62
     0
100
AcDbLine
 10
16.32110607739056
 20
9.296508262736978
 30
0.0
 11
14.92110607739053
 21
10.69650826273698
 31
0.0
  0
LINE
  5
1816
330
17A2
100
AcDbEntity
  8
0
 62
     0
100
AcDbLine
 10
21.74610607739058
 20
3.871508262736966
 30
0.0
 11
20.34610607739051
 21
5.271508262737029
 31
0.0
  0
LINE
  5
1817
330
17A2
100
AcDbEntity
  8
0
 62
     0
100
AcDbLine
 10
18.2357235589213
 20
6.932877975152763
 30
0.0
 11
16.81399431260507
 21
8.354607221468995
 31
0.0
  0
LINE
  5
1818
330
17A2
100
AcDbEntity
  8
0
 62
     0
100
AcDbLine
 10
16.32110607739056
 20
8.847495456683503
 30
0.0
 11
14.92110607739053
 21
10.24749545668353
 31
0.0
  0
LINE
  5
1819
330
17A2
100
AcDbEntity
  8
0
 62
     0
100
AcDbLine
 10
21.57658357872432
 20
3.592017955349717
 30
0.0
 11
20.34610607739054
 21
4.822495456683526
 31
0.0
  0
LINE
  5
181A
330
17A2
100
AcDbEntity
  8
0
 62
     0
100
AcDbLine
 10
18.44296023863833
 20
6.276628489382318
 30
0.0
 11
14.92110607739053
 21
9.798482650630091
 31
0.0
  0
LINE
  5
181B
330
17A2
100
AcDbEntity
  8
0
 62
     0
100
AcDbLine
 10
13.69610607739062
 20
11.02348265063002
 30
0.0
 11
13.09458872802062
 21
11.625
 31
0.0
  0
LINE
  5
181C
330
17A2
100
AcDbEntity
  8
0
 62
     0
100
AcDbLine
 10
21.14458872802066
 20
3.574999999999988
 30
0.0
 11
20.34610607739057
 21
4.37348265063008
 31
0.0
  0
LINE
  5
181D
330
17A2
100
AcDbEntity
  8
0
 62
     0
100
AcDbLine
 10
18.65019691835527
 20
5.620379003611873
 30
0.0
 11
14.92110607739053
 21
9.349469844576645
 31
0.0
  0
LINE
  5
181E
330
17A2
100
AcDbEntity
  8
0
 62
     0
100
AcDbLine
 10
13.69610607739056
 20
10.57446984457661
 30
0.0
 11
12.64557592196718
 21
11.625
 31
0.0
  0
LINE
  5
181F
330
17A2
100
AcDbEntity
  8
0
 62
     0
100
AcDbLine
 10
20.69557592196716
 20
3.575000000000017
 30
0.0
 11
20.34610607739054
 21
3.924469844576634
 31
0.0
  0
LINE
  5
1820
330
17A2
100
AcDbEntity
  8
0
 62
     0
100
AcDbLine
 10
13.56265272969551
 20
10.25891038621818
 30
0.0
 11
12.2125418705898
 21
11.60902124532387
 31
0.0
  0
LINE
  5
1821
330
17A2
100
AcDbEntity
  8
0
 62
     0
100
AcDbLine
 10
18.85743359807224
 20
4.964129517841456
 30
0.0
 11
14.92110607739053
 21
8.900457038523171
 31
0.0
  0
LINE
  5
1822
330
17A2
100
AcDbEntity
  8
0
 62
     0
100
AcDbLine
 10
16.48986053856134
 20
6.882689771298913
 30
0.0
 11
14.92110607739053
 21
8.451444232469725
 31
0.0
  0
LINE
  5
1823
330
17A2
100
AcDbEntity
  8
0
 62
     0
100
AcDbLine
 10
13.14755030986026
 20
10.22499999999999
 30
0.0
 11
11.84352033579617
 21
11.52902997406408
 31
0.0
  0
LINE
  5
1824
330
17A2
100
AcDbEntity
  8
0
 62
     0
100
AcDbLine
 10
19.06467027778924
 20
4.307880032071011
 30
0.0
 11
17.0185164316353
 21
6.354033878224925
 31
0.0
  0
LINE
  5
1825
330
17A2
100
AcDbEntity
  8
0
 62
     0
100
AcDbLine
 10
16.32110607739056
 20
6.602431426416245
 30
0.0
 11
14.92110607739056
 21
8.002431426416251
 31
0.0
  0
LINE
  5
1826
330
17A2
100
AcDbEntity
  8
0
 62
     0
100
AcDbLine
 10
12.69853750380679
 20
10.22499999999999
 30
0.0
 11
11.5241596278808
 21
11.39937787592597
 31
0.0
  0
LINE
  5
1827
330
17A2
100
AcDbEntity
  8
0
 62
     0
100
AcDbLine
 10
19.18218970664455
 20
3.741347797162234
 30
0.0
 11
17.22575311135227
 21
5.697784392454536
 31
0.0
  0
LINE
  5
1828
330
17A2
100
AcDbEntity
  8
0
 62
     0
100
AcDbLine
 10
16.32110607739053
 20
6.153418620362799
 30
0.0
 11
14.92110607739056
 21
7.553418620362776
 31
0.0
  0
LINE
  5
1829
330
17A2
100
AcDbEntity
  8
0
 62
     0
100
AcDbLine
 10
12.27698075253502
 20
10.19754394521831
 30
0.0
 11
11.24478514021353
 21
11.2297395575398
 31
0.0
  0
LINE
  5
182A
330
17A2
100
AcDbEntity
  8
0
 62
     0
100
AcDbLine
 10
18.89952469775337
 20
3.57499999999996
 30
0.0
 11
17.43298979106924
 21
5.041534906684091
 31
0.0
  0
LINE
  5
182B
330
17A2
100
AcDbEntity
  8
0
 62
     0
100
AcDbLine
 10
16.32110607739053
 20
5.704405814309325
 30
0.0
 11
14.92110607739053
 21
7.104405814309302
 31
0.0
  0
LINE
  5
182C
330
17A2
100
AcDbEntity
  8
0
 62
     0
100
AcDbLine
 10
11.99105265611555
 20
10.03445923558427
 30
0.0
 11
11.00095753590764
 21
11.02455435579221
 31
0.0
  0
LINE
  5
182D
330
17A2
100
AcDbEntity
  8
0
 62
     0
100
AcDbLine
 10
18.4505118916999
 20
3.57499999999996
 30
0.0
 11
17.64022647078627
 21
4.385285420913589
 31
0.0
  0
LINE
  5
182E
330
17A2
100
AcDbEntity
  8
0
 62
     0
100
AcDbLine
 10
13.86382064378935
 20
7.712678441857065
 30
0.0
 11
13.10878451924764
 21
8.467714566398797
 31
0.0
  0
LINE
  5
182F
330
17A2
100
AcDbEntity
  8
0
 62
     0
100
AcDbLine
 10
16.32110607739059
 20
5.25539300825585
 30
0.0
 11
14.92110607739056
 21
6.655393008255884
 31
0.0
  0
LINE
  5
1830
330
17A2
100
AcDbEntity
  8
0
 62
     0
100
AcDbLine
 10
11.81299187105105
 20
9.763507214595392
 30
0.0
 11
10.79127452290203
 21
10.78522456274441
 31
0.0
  0
LINE
  5
1831
330
17A2
100
AcDbEntity
  8
0
 62
     0
100
AcDbLine
 10
17.97633258354415
 20
3.600166502102297
 30
0.0
 11
17.85115549774849
 21
3.725343587897953
 31
0.0
  0
LINE
  5
1832
330
17A2
100
AcDbEntity
  8
0
 62
     0
100
AcDbLine
 10
13.82056381371845
 20
7.306922465874521
 30
0.0
 11
12.7030285432651
 21
8.424457736327866
 31
0.0
  0
LINE
  5
1833
330
17A2
100
AcDbEntity
  8
0
 62
     0
100
AcDbLine
 10
11.77110607739058
 20
9.356380202202387
 30
0.0
 11
10.61680501242119
 21
10.51068126717177
 31
0.0
  0
LINE
  5
1834
330
17A2
100
AcDbEntity
  8
0
 62
     0
100
AcDbLine
 10
16.32110607739056
 20
4.806380202202376
 30
0.0
 11
14.92110607739056
 21
6.20638020220241
 31
0.0
  0
LINE
  5
1835
330
17A2
100
AcDbEntity
  8
0
 62
     0
100
AcDbLine
 10
13.65463603406948
 20
7.023837439470014
 30
0.0
 11
12.41994351686059
 21
8.258529956678898
 31
0.0
  0
LINE
  5
1836
330
17A2
100
AcDbEntity
  8
0
 62
     0
100
AcDbLine
 10
11.77110607739058
 20
8.907367396148913
 30
0.0
 11
10.4815151588161
 21
10.19695831472338
 31
0.0
  0
LINE
  5
1837
330
17A2
100
AcDbEntity
  8
0
 62
     0
100
AcDbLine
 10
16.32110607739056
 20
4.35736739614893
 30
0.0
 11
14.92110607739053
 21
5.757367396148964
 31
0.0
  0
LINE
  5
1838
330
17A2
100
AcDbEntity
  8
0
 62
     0
100
AcDbLine
 10
11.77110607739058
 20
8.458354590095467
 30
0.0
 11
10.39415822235318
 21
9.835302445132896
 31
0.0
  0
LINE
  5
1839
330
17A2
100
AcDbEntity
  8
0
 62
     0
100
AcDbLine
 10
13.40371931300126
 20
6.82574135448479
 30
0.0
 11
12.22184743187537
 21
8.007613235610705
 31
0.0
  0
LINE
  5
183A
330
17A2
100
AcDbEntity
  8
0
 62
     0
100
AcDbLine
 10
9.05860607739055
 20
11.17085459009553
 30
0.0
 11
8.604460667486051
 21
11.62500000000002
 31
0.0
  0
LINE
  5
183B
330
17A2
100
AcDbEntity
  8
0
 62
     0
100
AcDbLine
 10
16.32110607739059
 20
3.908354590095484
 30
0.0
 11
14.92110607739056
 21
5.308354590095518
 31
0.0
  0
LINE
  5
183C
330
17A2
100
AcDbEntity
  8
0
 62
     0
100
AcDbLine
 10
11.77110607739058
 20
8.009341784042021
 30
0.0
 11
10.37110607739055
 21
9.409341784042055
 31
0.0
  0
LINE
  5
183D
330
17A2
100
AcDbEntity
  8
0
 62
     0
100
AcDbLine
 10
13.05355959178757
 20
6.72688826964503
 30
0.0
 11
12.12299434703561
 21
7.657453514396991
 31
0.0
  0
LINE
  5
183E
330
17A2
100
AcDbEntity
  8
0
 62
     0
100
AcDbLine
 10
9.058606077390521
 20
10.72184178404205
 30
0.0
 11
8.155447861432577
 21
11.625
 31
0.0
  0
LINE
  5
183F
330
17A2
100
AcDbEntity
  8
0
 62
     0
100
AcDbLine
 10
16.17715417675523
 20
3.603293684677367
 30
0.0
 11
14.92110607739053
 21
4.859341784042044
 31
0.0
  0
LINE
  5
1840
330
17A2
100
AcDbEntity
  8
0
 62
     0
100
AcDbLine
 10
11.77110607739058
 20
7.560328977988547
 30
0.0
 11
10.37110607739055
 21
8.960328977988581
 31
0.0
  0
LINE
  5
1841
330
17A2
100
AcDbEntity
  8
0
 62
     0
100
AcDbLine
 10
9.004089092255355
 20
10.32734596312377
 30
0.0
 11
7.706435055379074
 21
11.62500000000002
 31
0.0
  0
LINE
  5
1842
330
17A2
100
AcDbEntity
  8
0
 62
     0
100
AcDbLine
 10
15.75643505537914
 20
3.574999999999988
 30
0.0
 11
14.92110607739053
 21
4.410328977988598
 31
0.0
  0
LINE
  5
1843
330
17A2
100
AcDbEntity
  8
0
 62
     0
100
AcDbLine
 10
11.77110607739055
 20
7.111316171935101
 30
0.0
 11
10.37110607739052
 21
8.511316171935106
 31
0.0
  0
LINE
  5
1844
330
17A2
100
AcDbEntity
  8
0
 62
     0
100
AcDbLine
 10
8.657422249325662
 20
10.22499999999999
 30
0.0
 11
7.257422249325628
 21
11.62500000000002
 31
0.0
  0
LINE
  5
1845
330
17A2
100
AcDbEntity
  8
0
 62
     0
100
AcDbLine
 10
15.30742224932566
 20
3.57499999999996
 30
0.0
 11
14.92110607739053
 21
3.961316171935123
 31
0.0
  0
LINE
  5
1846
330
17A2
100
AcDbEntity
  8
0
 62
     0
100
AcDbLine
 10
11.77110607739061
 20
6.662303365881626
 30
0.0
 11
10.37110607739055
 21
8.062303365881689
 31
0.0
  0
LINE
  5
1847
330
17A2
100
AcDbEntity
  8
0
 62
     0
100
AcDbLine
 10
8.208409443272216
 20
10.22500000000002
 30
0.0
 11
6.825844807219795
 21
11.60756463605244
 31
0.0
  0
LINE
  5
1848
330
17A2
100
AcDbEntity
  8
0
 62
     0
100
AcDbLine
 10
13.69480485297208
 20
4.738604590300127
 30
0.0
 11
13.45971066769072
 21
4.97369877558151
 31
0.0
  0
LINE
  5
1849
330
17A2
100
AcDbEntity
  8
0
 62
     0
100
AcDbLine
 10
11.77110607739061
 20
6.213290559828152
 30
0.0
 11
10.37110607739055
 21
7.613290559828215
 31
0.0
  0
LINE
  5
184A
330
17A2
100
AcDbEntity
  8
0
 62
     0
100
AcDbLine
 10
7.759396637218742
 20
10.22499999999999
 30
0.0
 11
6.479277402980557
 21
11.5051192342382
 31
0.0
  0
LINE
  5
184B
330
17A2
100
AcDbEntity
  8
0
 62
     0
100
AcDbLine
 10
13.69610607739059
 20
4.288290559828169
 30
0.0
 11
13.00939663721877
 21
4.974999999999994
 31
0.0
  0
LINE
  5
184C
330
17A2
100
AcDbEntity
  8
0
 62
     0
100
AcDbLine
 10
11.77110607739058
 20
5.764277753774678
 30
0.0
 11
10.37110607739057
 21
7.164277753774712
 31
0.0
  0
LINE
  5
184D
330
17A2
100
AcDbEntity
  8
0
 62
     0
100
AcDbLine
 10
7.310383831165324
 20
10.22499999999993
 30
0.0
 11
6.197154073056935
 21
11.33822975810832
 31
0.0
  0
LINE
  5
184E
330
17A2
100
AcDbEntity
  8
0
 62
     0
100
AcDbLine
 10
13.69610607739056
 20
3.839277753774695
 30
0.0
 11
12.56038383116526
 21
4.975000000000022
 31
0.0
  0
LINE
  5
184F
330
17A2
100
AcDbEntity
  8
0
 62
     0
100
AcDbLine
 10
7.055237417358029
 20
10.03113360775384
 30
0.0
 11
5.96810766693656
 21
11.11826335817531
 31
0.0
  0
LINE
  5
1850
330
17A2
100
AcDbEntity
  8
0
 62
     0
100
AcDbLine
 10
13.50223968514439
 20
3.584131339967484
 30
0.0
 11
10.37110607739057
 21
6.715264947721294
 31
0.0
  0
LINE
  5
1851
330
17A2
100
AcDbEntity
  8
0
 62
     0
100
AcDbLine
 10
7.046106077390561
 20
9.591252141667837
 30
0.0
 11
5.791367065702075
 21
10.84599115335632
 31
0.0
  0
LINE
  5
1852
330
17A2
100
AcDbEntity
  8
0
 62
     0
100
AcDbLine
 10
13.06235821905843
 20
3.57499999999996
 30
0.0
 11
10.37110607739057
 21
6.26625214166782
 31
0.0
  0
LINE
  5
1853
330
17A2
100
AcDbEntity
  8
0
 62
     0
100
AcDbLine
 10
7.077173931458247
 20
9.111171481546676
 30
0.0
 11
5.675927014555156
 21
10.51241839844976
 31
0.0
  0
LINE
  5
1854
330
17A2
100
AcDbEntity
  8
0
 62
     0
100
AcDbLine
 10
12.61334541300493
 20
3.574999999999988
 30
0.0
 11
10.37110607739055
 21
5.817239335614345
 31
0.0
  0
LINE
  5
1855
330
17A2
100
AcDbEntity
  8
0
 62
     0
100
AcDbLine
 10
9.223294123001892
 20
6.516038483949586
 30
0.0
 11
5.646106077390527
 21
10.09322652956095
 31
0.0
  0
LINE
  5
1856
330
17A2
100
AcDbEntity
  8
0
 62
     0
100
AcDbLine
 10
12.13769656342316
 20
3.601636043528316
 30
0.0
 11
10.39774212091887
 21
5.3415904860326
 31
0.0
  0
LINE
  5
1857
330
17A2
100
AcDbEntity
  8
0
 62
     0
100
AcDbLine
 10
9.319241380044502
 20
5.97107842085353
 30
0.0
 11
5.646106077390527
 21
9.644213723507505
 31
0.0
  0
LINE
  5
1858
330
17A2
100
AcDbEntity
  8
0
 62
     0
100
AcDbLine
 10
11.45079260712236
 20
3.839527193775637
 30
0.0
 11
10.63563327116617
 21
4.654686529731861
 31
0.0
  0
LINE
  5
1859
330
17A2
100
AcDbEntity
  8
0
 62
     0
100
AcDbLine
 10
9.321106077390595
 20
5.520200917453962
 30
0.0
 11
5.649888301101725
 21
9.191418693742804
 31
0.0
  0
LINE
  5
185A
330
17A2
100
AcDbEntity
  8
0
 62
     0
100
AcDbLine
 10
9.321106077390538
 20
5.071188111400545
 30
0.0
 11
5.761533680263653
 21
8.630760508527401
 31
0.0
  0
LINE
  5
185B
330
17A2
100
AcDbEntity
  8
0
 62
     0
100
AcDbLine
 10
9.28484607932458
 20
4.658435303413085
 30
0.0
 11
7.903150257515051
 21
6.040131125222615
 31
0.0
  0
LINE
  5
185C
330
17A2
100
AcDbEntity
  8
0
 62
     0
100
AcDbLine
 10
9.163877109810158
 20
4.330391466874033
 30
0.0
 11
7.921106077390561
 21
5.57316249929363
 31
0.0
  0
LINE
  5
185D
330
17A2
100
AcDbEntity
  8
0
 62
     0
100
AcDbLine
 10
8.982817486119273
 20
4.062438284511443
 30
0.0
 11
7.903156561240194
 21
5.142099209390522
 31
0.0
  0
LINE
  5
185E
330
17A2
100
AcDbEntity
  8
0
 62
     0
100
AcDbLine
 10
8.749704299985836
 20
3.846538664591435
 30
0.0
 11
7.621242964577277
 21
4.975000000000022
 31
0.0
  0
LINE
  5
185F
330
17A2
100
AcDbEntity
  8
0
 62
     0
100
AcDbLine
 10
8.463072076119431
 20
3.684158082404394
 30
0.0
 11
7.172230158523802
 21
4.974999999999994
 31
0.0
  0
LINE
  5
1860
330
17A2
100
AcDbEntity
  8
0
 62
     0
100
AcDbLine
 10
8.110365781576462
 20
3.587851570893889
 30
0.0
 11
6.723217352470356
 21
4.974999999999994
 31
0.0
  0
LINE
  5
1861
330
17A2
100
AcDbEntity
  8
0
 62
     0
100
AcDbLine
 10
7.674204546416888
 20
3.574999999999988
 30
0.0
 11
6.274204546416882
 21
4.974999999999994
 31
0.0
  0
LINE
  5
1862
330
17A2
100
AcDbEntity
  8
0
 62
     0
100
AcDbLine
 10
7.22519174036347
 20
3.57499999999996
 30
0.0
 11
5.948529792954531
 21
4.851661947408928
 31
0.0
  0
LINE
  5
1863
330
17A2
100
AcDbEntity
  8
0
 62
     0
100
AcDbLine
 10
6.776178934309967
 20
3.574999999999988
 30
0.0
 11
5.908606077390572
 21
4.442572856919383
 31
0.0
  0
LINE
  5
1864
330
17A2
100
AcDbEntity
  8
0
 62
     0
100
AcDbLine
 10
6.32716612825655
 20
3.57499999999996
 30
0.0
 11
5.908606077390572
 21
3.993560050865937
 31
0.0
  0
LINE
  5
1865
330
17A2
100
AcDbEntity
  8
0
 62
     0
100
AcDbLine
 10
34.31694971972402
 20
3.581565888558742
 30
0.0
 11
34.51454018883191
 21
3.779156357666636
 31
0.0
  0
LINE
  5
1866
330
17A2
100
AcDbEntity
  8
0
 62
     0
100
AcDbLine
 10
33.86137102511185
 20
3.57499999999996
 30
0.0
 11
34.52110607739064
 21
4.234735052278779
 31
0.0
  0
LINE
  5
1867
330
17A2
100
AcDbEntity
  8
0
 62
     0
100
AcDbLine
 10
33.41235821905837
 20
3.574999999999988
 30
0.0
 11
34.52110607739064
 21
4.683747858332225
 31
0.0
  0
LINE
  5
1868
330
17A2
100
AcDbEntity
  8
0
 62
     0
100
AcDbLine
 10
33.13670485901647
 20
3.748359446011534
 30
0.0
 11
34.52110607739061
 21
5.132760664385699
 31
0.0
  0
LINE
  5
1869
330
17A2
100
AcDbEntity
  8
0
 62
     0
100
AcDbLine
 10
33.12110607739057
 20
4.181773470439111
 30
0.0
 11
34.52110607739061
 21
5.581773470439117
 31
0.0
  0
LINE
  5
186A
330
17A2
100
AcDbEntity
  8
0
 62
     0
100
AcDbLine
 10
33.1211060773906
 20
4.630786276492557
 30
0.0
 11
34.52110607739061
 21
6.030786276492591
 31
0.0
  0
LINE
  5
186B
330
17A2
100
AcDbEntity
  8
0
 62
     0
100
AcDbLine
 10
33.12110607739057
 20
5.079799082546031
 30
0.0
 11
34.52110607739061
 21
6.479799082546065
 31
0.0
  0
LINE
  5
186C
330
17A2
100
AcDbEntity
  8
0
 62
     0
100
AcDbLine
 10
33.12110607739057
 20
5.528811888599477
 30
0.0
 11
34.52110607739061
 21
6.928811888599511
 31
0.0
  0
LINE
  5
186D
330
17A2
100
AcDbEntity
  8
0
 62
     0
100
AcDbLine
 10
31.33438850842321
 20
3.742094319632116
 30
0.0
 11
31.90401175775849
 21
4.311717568967424
 31
0.0
  0
LINE
  5
186E
330
17A2
100
AcDbEntity
  8
0
 62
     0
100
AcDbLine
 10
33.12110607739057
 20
5.977824694652923
 30
0.0
 11
34.52110607739061
 21
7.377824694652957
 31
0.0
  0
LINE
  5
186F
330
17A2
100
AcDbEntity
  8
0
 62
     0
100
AcDbLine
 10
30.71910442516181
 20
3.575823042424161
 30
0.0
 11
32.07028303496648
 21
4.927001652228796
 31
0.0
  0
LINE
  5
1870
330
17A2
100
AcDbEntity
  8
0
 62
     0
100
AcDbLine
 10
33.12110607739057
 20
6.426837500706398
 30
0.0
 11
34.52110607739061
 21
7.826837500706403
 31
0.0
  0
LINE
  5
1871
330
17A2
100
AcDbEntity
  8
0
 62
     0
100
AcDbLine
 10
30.26926857668411
 20
3.574999999999931
 30
0.0
 11
32.07110607739062
 21
5.376837500706415
 31
0.0
  0
LINE
  5
1872
330
17A2
100
AcDbEntity
  8
0
 62
     0
100
AcDbLine
 10
33.12110607739057
 20
6.875850306759843
 30
0.0
 11
34.52110607739058
 21
8.275850306759878
 31
0.0
  0
LINE
  5
1873
330
17A2
100
AcDbEntity
  8
0
 62
     0
100
AcDbLine
 10
29.82025577063066
 20
3.574999999999931
 30
0.0
 11
32.07110607739059
 21
5.825850306759889
 31
0.0
  0
LINE
  5
1874
330
17A2
100
AcDbEntity
  8
0
 62
     0
100
AcDbLine
 10
33.12110607739057
 20
7.324863112813289
 30
0.0
 11
34.52110607739061
 21
8.724863112813324
 31
0.0
  0
LINE
  5
1875
330
17A2
100
AcDbEntity
  8
0
 62
     0
100
AcDbLine
 10
29.37124296457724
 20
3.57499999999996
 30
0.0
 11
32.07110607739062
 21
6.274863112813335
 31
0.0
  0
LINE
  5
1876
330
17A2
100
AcDbEntity
  8
0
 62
     0
100
AcDbLine
 10
30.61881047635006
 20
5.271580317826249
 30
0.0
 11
32.07110607739062
 21
6.723875918866781
 31
0.0
  0
LINE
  5
1877
330
17A2
100
AcDbEntity
  8
0
 62
     0
100
AcDbLine
 10
33.12110607739057
 20
7.773875918866735
 30
0.0
 11
34.52110607739061
 21
9.17387591886677
 31
0.0
  0
LINE
  5
1878
330
17A2
100
AcDbEntity
  8
0
 62
     0
100
AcDbLine
 10
28.92223015852374
 20
3.574999999999931
 30
0.0
 11
30.37452575956431
 21
5.027295601040464
 31
0.0
  0
LINE
  5
1879
330
17A2
100
AcDbEntity
  8
0
 62
     0
100
AcDbLine
 10
30.67110607739056
 20
5.772888724920221
 30
0.0
 11
32.07110607739059
 21
7.172888724920255
 31
0.0
  0
LINE
  5
187A
330
17A2
100
AcDbEntity
  8
0
 62
     0
100
AcDbLine
 10
33.12110607739055
 20
8.22288872492021
 30
0.0
 11
34.52110607739058
 21
9.622888724920244
 31
0.0
  0
LINE
  5
187B
330
17A2
100
AcDbEntity
  8
0
 62
     0
100
AcDbLine
 10
28.5291922281589
 20
3.630974875688536
 30
0.0
 11
29.87321735247033
 21
4.974999999999965
 31
0.0
  0
LINE
  5
187C
330
17A2
100
AcDbEntity
  8
0
 62
     0
100
AcDbLine
 10
30.67110607739056
 20
6.221901530973696
 30
0.0
 11
32.07110607739059
 21
7.621901530973701
 31
0.0
  0
LINE
  5
187D
330
17A2
100
AcDbEntity
  8
0
 62
     0
100
AcDbLine
 10
33.12110607739055
 20
8.671901530973684
 30
0.0
 11
34.52110607739058
 21
10.07190153097369
 31
0.0
  0
LINE
  5
187E
330
17A2
100
AcDbEntity
  8
0
 62
     0
100
AcDbLine
 10
28.21519879455383
 20
3.765994248136962
 30
0.0
 11
29.42464343923905
 21
4.975438892822182
 31
0.0
  0
LINE
  5
187F
330
17A2
100
AcDbEntity
  8
0
 62
     0
100
AcDbLine
 10
30.67110607739062
 20
6.67091433702717
 30
0.0
 11
32.07110607739059
 21
8.070914337027147
 31
0.0
  0
LINE
  5
1880
330
17A2
100
AcDbEntity
  8
0
 62
     0
100
AcDbLine
 10
33.12110607739057
 20
9.120914337027102
 30
0.0
 11
34.52110607739058
 21
10.52091433702713
 31
0.0
  0
LINE
  5
1881
330
17A2
100
AcDbEntity
  8
0
 62
     0
100
AcDbLine
 10
27.95856885387124
 20
3.958377113507793
 30
0.0
 11
29.1029041448827
 21
5.102712404519252
 31
0.0
  0
LINE
  5
1882
330
17A2
100
AcDbEntity
  8
0
 62
     0
100
AcDbLine
 10
30.67110607739062
 20
7.119927143080616
 30
0.0
 11
32.07110607739059
 21
8.519927143080622
 31
0.0
  0
LINE
  5
1883
330
17A2
100
AcDbEntity
  8
0
 62
     0
100
AcDbLine
 10
33.12110607739055
 20
9.569927143080576
 30
0.0
 11
34.52110607739058
 21
10.96992714308061
 31
0.0
  0
LINE
  5
1884
330
17A2
100
AcDbEntity
  8
0
 62
     0
100
AcDbLine
 10
27.75358676625873
 20
4.202407831948733
 30
0.0
 11
28.93428500567799
 21
5.383106071368018
 31
0.0
  0
LINE
  5
1885
330
17A2
100
AcDbEntity
  8
0
 62
     0
100
AcDbLine
 10
30.67110607739059
 20
7.56893994913409
 30
0.0
 11
32.07110607739062
 21
8.968939949134124
 31
0.0
  0
LINE
  5
1886
330
17A2
100
AcDbEntity
  8
0
 62
     0
100
AcDbLine
 10
33.12110607739055
 20
10.01893994913402
 30
0.0
 11
34.51603150061535
 21
11.41386537235885
 31
0.0
  0
LINE
  5
1887
330
17A2
100
AcDbEntity
  8
0
 62
     0
100
AcDbLine
 10
27.60362432704173
 20
4.501458198785229
 30
0.0
 11
28.92110607739059
 21
5.818939949134062
 31
0.0
  0
LINE
  5
1888
330
17A2
100
AcDbEntity
  8
0
 62
     0
100
AcDbLine
 10
30.67110607739062
 20
8.017952755187508
 30
0.0
 11
32.07110607739065
 21
9.417952755187542
 31
0.0
  0
LINE
  5
1889
330
17A2
100
AcDbEntity
  8
0
 62
     0
100
AcDbLine
 10
33.12110607739055
 20
10.46795275518746
 30
0.0
 11
34.27747432807561
 21
11.62432100587253
 31
0.0
  0
LINE
  5
188A
330
17A2
100
AcDbEntity
  8
0
 62
     0
100
AcDbLine
 10
27.5249175595635
 20
4.871764237360423
 30
0.0
 11
28.92110607739059
 21
6.267952755187508
 31
0.0
  0
LINE
  5
188B
330
17A2
100
AcDbEntity
  8
0
 62
     0
100
AcDbLine
 10
30.67110607739059
 20
8.466965561240982
 30
0.0
 11
32.07110607739062
 21
9.866965561241016
 31
0.0
  0
LINE
  5
188C
330
17A2
100
AcDbEntity
  8
0
 62
     0
100
AcDbLine
 10
33.12110607739057
 20
10.91696556124097
 30
0.0
 11
33.82914051614958
 21
11.62499999999997
 31
0.0
  0
LINE
  5
188D
330
17A2
100
AcDbEntity
  8
0
 62
     0
100
AcDbLine
 10
27.52110607739061
 20
5.316965561240976
 30
0.0
 11
28.92110607739059
 21
6.716965561240982
 31
0.0
  0
LINE
  5
188E
330
17A2
100
AcDbEntity
  8
0
 62
     0
100
AcDbLine
 10
30.67110607739059
 20
8.915978367294457
 30
0.0
 11
32.07110607739062
 21
10.31597836729446
 31
0.0
  0
LINE
  5
188F
330
17A2
100
AcDbEntity
  8
0
 62
     0
100
AcDbLine
 10
27.52110607739058
 20
5.765978367294451
 30
0.0
 11
28.92110607739061
 21
7.165978367294485
 31
0.0
  0
LINE
  5
1890
330
17A2
100
AcDbEntity
  8
0
 62
     0
100
AcDbLine
 10
33.1211294347643
 20
11.36600172466816
 30
0.0
 11
33.38010435272244
 21
11.62497664262627
 31
0.0
  0
LINE
  5
1891
330
17A2
100
AcDbEntity
  8
0
 62
     0
100
AcDbLine
 10
25.36032826203458
 20
3.605200551938423
 30
0.0
 11
26.44090552545216
 21
4.685777815356033
 31
0.0
  0
LINE
  5
1892
330
17A2
100
AcDbEntity
  8
0
 62
     0
100
AcDbLine
 10
27.52110607739058
 20
6.214991173347897
 30
0.0
 11
28.92110607739061
 21
7.614991173347931
 31
0.0
  0
LINE
  5
1893
330
17A2
100
AcDbEntity
  8
0
 62
     0
100
AcDbLine
 10
30.67110607739059
 20
9.364991173347902
 30
0.0
 11
32.07110607739059
 21
10.76499117334793
 31
0.0
  0
LINE
  5
1894
330
17A2
100
AcDbEntity
  8
0
 62
     0
100
AcDbLine
 10
24.88111490404264
 20
3.574999999999988
 30
0.0
 11
26.47110607739054
 21
5.164991173347857
 31
0.0
  0
LINE
  5
1895
330
17A2
100
AcDbEntity
  8
0
 62
     0
100
AcDbLine
 10
27.52110607739058
 20
6.664003979401343
 30
0.0
 11
28.92110607739061
 21
8.064003979401377
 31
0.0
  0
LINE
  5
1896
330
17A2
100
AcDbEntity
  8
0
 62
     0
100
AcDbLine
 10
30.67110607739059
 20
9.814003979401348
 30
0.0
 11
32.07110607739062
 21
11.21400397940138
 31
0.0
  0
LINE
  5
1897
330
17A2
100
AcDbEntity
  8
0
 62
     0
100
AcDbLine
 10
24.4321020979892
 20
3.57499999999996
 30
0.0
 11
26.4711060773906
 21
5.614003979401331
 31
0.0
  0
LINE
  5
1898
330
17A2
100
AcDbEntity
  8
0
 62
     0
100
AcDbLine
 10
27.52110607739058
 20
7.113016785454817
 30
0.0
 11
28.92110607739061
 21
8.513016785454823
 31
0.0
  0
LINE
  5
1899
330
17A2
100
AcDbEntity
  8
0
 62
     0
100
AcDbLine
 10
30.67110607739059
 20
10.26301678545479
 30
0.0
 11
31.97423734997355
 21
11.56614805803778
 31
0.0
  0
LINE
  5
189A
330
17A2
100
AcDbEntity
  8
0
 62
     0
100
AcDbLine
 10
23.98308929193575
 20
3.574999999999988
 30
0.0
 11
26.4639467771841
 21
6.055857485248338
 31
0.0
  0
LINE
  5
189B
330
17A2
100
AcDbEntity
  8
0
 62
     0
100
AcDbLine
 10
27.52110607739058
 20
7.562029591508263
 30
0.0
 11
28.92110607739059
 21
8.962029591508297
 31
0.0
  0
LINE
  5
189C
330
17A2
100
AcDbEntity
  8
0
 62
     0
100
AcDbLine
 10
30.67110607739056
 20
10.71202959150826
 30
0.0
 11
31.58407648588229
 21
11.625
 31
0.0
  0
LINE
  5
189D
330
17A2
100
AcDbEntity
  8
0
 62
     0
100
AcDbLine
 10
23.53407648588228
 20
3.574999999999988
 30
0.0
 11
26.39649059186973
 21
6.437414105987414
 31
0.0
  0
LINE
  5
189E
330
17A2
100
AcDbEntity
  8
0
 62
     0
100
AcDbLine
 10
27.52110607739058
 20
8.011042397561709
 30
0.0
 11
28.92110607739061
 21
9.411042397561743
 31
0.0
  0
LINE
  5
189F
330
17A2
100
AcDbEntity
  8
0
 62
     0
100
AcDbLine
 10
25.07110607739065
 20
5.561042397561749
 30
0.0
 11
26.27619686341046
 21
6.766133183581558
 31
0.0
  0
LINE
  5
18A0
330
17A2
100
AcDbEntity
  8
0
 62
     0
100
AcDbLine
 10
30.67110607739059
 20
11.16104239756171
 30
0.0
 11
31.13506367982887
 21
11.625
 31
0.0
  0
LINE
  5
18A1
330
17A2
100
AcDbEntity
  8
0
 62
     0
100
AcDbLine
 10
23.14919135639439
 20
3.639127676565522
 30
0.0
 11
24.48506367982884
 21
4.974999999999965
 31
0.0
  0
LINE
  5
18A2
330
17A2
100
AcDbEntity
  8
0
 62
     0
100
AcDbLine
 10
25.06117078982694
 20
6.000119916051517
 30
0.0
 11
26.11444721098013
 21
7.053396337204731
 31
0.0
  0
LINE
  5
18A3
330
17A2
100
AcDbEntity
  8
0
 62
     0
100
AcDbLine
 10
27.52110607739058
 20
8.460055203615155
 30
0.0
 11
28.92110607739059
 21
9.860055203615189
 31
0.0
  0
LINE
  5
18A4
330
17A2
100
AcDbEntity
  8
0
 62
     0
100
AcDbLine
 10
23.05860607739055
 20
3.997555203615149
 30
0.0
 11
24.03605087377536
 21
4.974999999999965
 31
0.0
  0
LINE
  5
18A5
330
17A2
100
AcDbEntity
  8
0
 62
     0
100
AcDbLine
 10
24.9239783712575
 20
6.311940303535578
 30
0.0
 11
25.91651165201622
 21
7.304473584294299
 31
0.0
  0
LINE
  5
18A6
330
17A2
100
AcDbEntity
  8
0
 62
     0
100
AcDbLine
 10
27.52110607739055
 20
8.909068009668629
 30
0.0
 11
28.92110607739059
 21
10.30906800966866
 31
0.0
  0
LINE
  5
18A7
330
17A2
100
AcDbEntity
  8
0
 62
     0
100
AcDbLine
 10
23.05860607739055
 20
4.446568009668595
 30
0.0
 11
23.58703806772191
 21
4.974999999999994
 31
0.0
  0
LINE
  5
18A8
330
17A2
100
AcDbEntity
  8
0
 62
     0
100
AcDbLine
 10
27.52110607739058
 20
9.358080815722075
 30
0.0
 11
28.92110607739061
 21
10.75808081572208
 31
0.0
  0
LINE
  5
18A9
330
17A2
100
AcDbEntity
  8
0
 62
     0
100
AcDbLine
 10
24.70334092269897
 20
6.540315661030433
 30
0.0
 11
25.69329041636013
 21
7.530265154691591
 31
0.0
  0
LINE
  5
18AA
330
17A2
100
AcDbEntity
  8
0
 62
     0
100
AcDbLine
 10
24.47883451967223
 20
6.76482206405717
 30
0.0
 11
25.46878401333339
 21
7.754771557718328
 31
0.0
  0
LINE
  5
18AB
330
17A2
100
AcDbEntity
  8
0
 62
     0
100
AcDbLine
 10
27.52110607739055
 20
9.807093621775521
 30
0.0
 11
28.92110607739059
 21
11.20709362177555
 31
0.0
  0
LINE
  5
18AC
330
17A2
100
AcDbEntity
  8
0
 62
     0
100
AcDbLine
 10
21.28901245561499
 20
3.57499999999996
 30
0.0
 11
21.74610607739058
 21
4.032093621775516
 31
0.0
  0
LINE
  5
18AD
330
17A2
100
AcDbEntity
  8
0
 62
     0
100
AcDbLine
 10
24.25432811664549
 20
6.989328467083907
 30
0.0
 11
25.24427761030665
 21
7.979277960745065
 31
0.0
  0
LINE
  5
18AE
330
17A2
100
AcDbEntity
  8
0
 62
     0
100
AcDbLine
 10
27.52110607739055
 20
10.25610642782899
 30
0.0
 11
28.82801562334126
 21
11.56301597377967
 31
0.0
  0
LINE
  5
18AF
330
17A2
100
AcDbEntity
  8
0
 62
     0
100
AcDbLine
 10
20.83999964956152
 20
3.57499999999996
 30
0.0
 11
21.7461060773906
 21
4.481106427829018
 31
0.0
  0
LINE
  5
18B0
330
17A2
100
AcDbEntity
  8
0
 62
     0
100
AcDbLine
 10
24.02982171361875
 20
7.213834870110645
 30
0.0
 11
25.01977120727991
 21
8.203784363771802
 31
0.0
  0
LINE
  5
18B1
330
17A2
100
AcDbEntity
  8
0
 62
     0
100
AcDbLine
 10
27.52110607739055
 20
10.70511923388244
 30
0.0
 11
28.44098684350811
 21
11.62500000000002
 31
0.0
  0
LINE
  5
18B2
330
17A2
100
AcDbEntity
  8
0
 62
     0
100
AcDbLine
 10
20.44679241243906
 20
3.630805568930952
 30
0.0
 11
21.74610607739058
 21
4.930119233882493
 31
0.0
  0
LINE
  5
18B3
330
17A2
100
AcDbEntity
  8
0
 62
     0
100
AcDbLine
 10
23.80531531059205
 20
7.438341273137353
 30
0.0
 11
24.7952648042532
 21
8.428290766798511
 31
0.0
  0
LINE
  5
18B4
330
17A2
100
AcDbEntity
  8
0
 62
     0
100
AcDbLine
 10
27.52110607739055
 20
11.15413203993588
 30
0.0
 11
27.99197403745469
 21
11.625
 31
0.0
  0
LINE
  5
18B5
330
17A2
100
AcDbEntity
  8
0
 62
     0
100
AcDbLine
 10
20.3461060773906
 20
3.979132039935933
 30
0.0
 11
21.7461060773906
 21
5.37913203993591
 31
0.0
  0
LINE
  5
18B6
330
17A2
100
AcDbEntity
  8
0
 62
     0
100
AcDbLine
 10
23.58080890756531
 20
7.662847676164091
 30
0.0
 11
24.57075840122647
 21
8.652797169825248
 31
0.0
  0
LINE
  5
18B7
330
17A2
100
AcDbEntity
  8
0
 62
     0
100
AcDbLine
 10
20.3461060773906
 20
4.428144845989407
 30
0.0
 11
21.74610607739058
 21
5.828144845989385
 31
0.0
  0
LINE
  5
18B8
330
17A2
100
AcDbEntity
  8
0
 62
     0
100
AcDbLine
 10
23.35731695704464
 20
7.888368531696926
 30
0.0
 11
24.34930372373566
 21
8.880355298387911
 31
0.0
  0
LINE
  5
18B9
330
17A2
100
AcDbEntity
  8
0
 62
     0
100
AcDbLine
 10
20.3461060773906
 20
4.877157652042853
 30
0.0
 11
21.74610607739058
 21
6.277157652042859
 31
0.0
  0
LINE
  5
18BA
330
17A2
100
AcDbEntity
  8
0
 62
     0
100
AcDbLine
 10
25.69394842534768
 20
10.22499999999996
 30
0.0
 11
26.20860607739061
 21
10.73965765204286
 31
0.0
  0
LINE
  5
18BB
330
17A2
100
AcDbEntity
  8
0
 62
     0
100
AcDbLine
 10
19.09977796503548
 20
3.630829539687738
 30
0.0
 11
19.14460414576299
 21
3.675655720415278
 31
0.0
  0
LINE
  5
18BC
330
17A2
100
AcDbEntity
  8
0
 62
     0
100
AcDbLine
 10
23.15831586763366
 20
8.138380248339359
 30
0.0
 11
24.20813300634296
 21
9.18819738704866
 31
0.0
  0
LINE
  5
18BD
330
17A2
100
AcDbEntity
  8
0
 62
     0
100
AcDbLine
 10
20.3461060773906
 20
5.326170458096299
 30
0.0
 11
21.7461060773906
 21
6.726170458096277
 31
0.0
  0
LINE
  5
18BE
330
17A2
100
AcDbEntity
  8
0
 62
     0
100
AcDbLine
 10
25.24493561929429
 20
10.22499999999999
 30
0.0
 11
26.20860607739061
 21
11.18867045809631
 31
0.0
  0
LINE
  5
18BF
330
17A2
100
AcDbEntity
  8
0
 62
     0
100
AcDbLine
 10
18.59493561929426
 20
3.57499999999996
 30
0.0
 11
19.12782516744749
 21
4.107889548153167
 31
0.0
  0
LINE
  5
18C0
330
17A2
100
AcDbEntity
  8
0
 62
     0
100
AcDbLine
 10
22.99539873543531
 20
8.424475922194488
 30
0.0
 11
24.19610607739062
 21
9.625183264149768
 31
0.0
  0
LINE
  5
18C1
330
17A2
100
AcDbEntity
  8
0
 62
     0
100
AcDbLine
 10
20.3461060773906
 20
5.775183264149745
 30
0.0
 11
21.74610607739058
 21
7.175183264149751
 31
0.0
  0
LINE
  5
18C2
330
17A2
100
AcDbEntity
  8
0
 62
     0
100
AcDbLine
 10
24.79592281324079
 20
10.22499999999996
 30
0.0
 11
26.12527161149165
 21
11.55434879825082
 31
0.0
  0
LINE
  5
18C3
330
17A2
100
AcDbEntity
  8
0
 62
     0
100
AcDbLine
 10
18.14592281324081
 20
3.57499999999996
 30
0.0
 11
19.02006209399468
 21
4.449139280753854
 31
0.0
  0
LINE
  5
18C4
330
17A2
100
AcDbEntity
  8
0
 62
     0
100
AcDbLine
 10
20.34610607739057
 20
6.22419607020322
 30
0.0
 11
21.74610607739058
 21
7.624196070203197
 31
0.0
  0
LINE
  5
18C5
330
17A2
100
AcDbEntity
  8
0
 62
     0
100
AcDbLine
 10
22.87370770410027
 20
8.751797696912916
 30
0.0
 11
25.74691000718735
 21
11.625
 31
0.0
  0
LINE
  5
18C6
330
17A2
100
AcDbEntity
  8
0
 62
     0
100
AcDbLine
 10
17.84991565791327
 20
3.728005650725918
 30
0.0
 11
18.91229902054183
 21
4.790389013354484
 31
0.0
  0
LINE
  5
18C7
330
17A2
100
AcDbEntity
  8
0
 62
     0
100
AcDbLine
 10
20.34610607739057
 20
6.673208876256694
 30
0.0
 11
21.74610607739055
 21
8.073208876256671
 31
0.0
  0
LINE
  5
18C8
330
17A2
100
AcDbEntity
  8
0
 62
     0
100
AcDbLine
 10
22.80435427455742
 20
9.131457073423547
 30
0.0
 11
25.2978972011339
 21
11.625
 31
0.0
  0
LINE
  5
18C9
330
17A2
100
AcDbEntity
  8
0
 62
     0
100
AcDbLine
 10
17.74053594708897
 20
4.067638745955093
 30
0.0
 11
18.80453594708896
 21
5.131638745955086
 31
0.0
  0
LINE
  5
18CA
330
17A2
100
AcDbEntity
  8
0
 62
     0
100
AcDbLine
 10
20.3461060773906
 20
7.122221682310112
 30
0.0
 11
21.74610607739058
 21
8.522221682310117
 31
0.0
  0
LINE
  5
18CB
330
17A2
100
AcDbEntity
  8
0
 62
     0
100
AcDbLine
 10
22.79610607739058
 20
9.5722216823101
 30
0.0
 11
24.84888439508046
 21
11.625
 31
0.0
  0
LINE
  5
18CC
330
17A2
100
AcDbEntity
  8
0
 62
     0
100
AcDbLine
 10
17.63277287363615
 20
4.408888478555695
 30
0.0
 11
18.6967728736362
 21
5.472888478555717
 31
0.0
  0
LINE
  5
18CD
330
17A2
100
AcDbEntity
  8
0
 62
     0
100
AcDbLine
 10
20.34610607739057
 20
7.571234488363586
 30
0.0
 11
21.74610607739058
 21
8.971234488363563
 31
0.0
  0
LINE
  5
18CE
330
17A2
100
AcDbEntity
  8
0
 62
     0
100
AcDbLine
 10
22.79610607739062
 20
10.0212344883636
 30
0.0
 11
24.39987158902701
 21
11.625
 31
0.0
  0
LINE
  5
18CF
330
17A2
100
AcDbEntity
  8
0
 62
     0
100
AcDbLine
 10
17.52500980018328
 20
4.750138211156297
 30
0.0
 11
18.58900980018336
 21
5.814138211156347
 31
0.0
  0
LINE
  5
18D0
330
17A2
100
AcDbEntity
  8
0
 62
     0
100
AcDbLine
 10
20.34610607739057
 20
8.020247294417032
 30
0.0
 11
21.7461060773906
 21
9.420247294417066
 31
0.0
  0
LINE
  5
18D1
330
17A2
100
AcDbEntity
  8
0
 62
     0
100
AcDbLine
 10
17.41724672673046
 20
5.091387943756956
 30
0.0
 11
18.48124672673051
 21
6.155387943756977
 31
0.0
  0
LINE
  5
18D2
330
17A2
100
AcDbEntity
  8
0
 62
     0
100
AcDbLine
 10
22.82276441245119
 20
10.49690562947768
 30
0.0
 11
23.92420044791285
 21
11.59834166493934
 31
0.0
  0
LINE
  5
18D3
330
17A2
100
AcDbEntity
  8
0
 62
     0
100
AcDbLine
 10
15.90085878297347
 20
3.57499999999996
 30
0.0
 11
16.32110607739056
 21
3.995247294417055
 31
0.0
  0
LINE
  5
18D4
330
17A2
100
AcDbEntity
  8
0
 62
     0
100
AcDbLine
 10
17.30948365327768
 20
5.432637676357558
 30
0.0
 11
18.3734836532777
 21
6.496637676357607
 31
0.0
  0
LINE
  5
18D5
330
17A2
100
AcDbEntity
  8
0
 62
     0
100
AcDbLine
 10
20.34610607739057
 20
8.469260100470478
 30
0.0
 11
21.7461060773906
 21
9.869260100470512
 31
0.0
  0
LINE
  5
18D6
330
17A2
100
AcDbEntity
  8
0
 62
     0
100
AcDbLine
 10
15.45184597692005
 20
3.574999999999931
 30
0.0
 11
16.32110607739059
 21
4.444260100470501
 31
0.0
  0
LINE
  5
18D7
330
17A2
100
AcDbEntity
  8
0
 62
     0
100
AcDbLine
 10
17.20172057982483
 20
5.773887408958188
 30
0.0
 11
18.26572057982486
 21
6.837887408958238
 31
0.0
  0
LINE
  5
18D8
330
17A2
100
AcDbEntity
  8
0
 62
     0
100
AcDbLine
 10
20.34610607739057
 20
8.918272906523952
 30
0.0
 11
21.7461060773906
 21
10.31827290652395
 31
0.0
  0
LINE
  5
18D9
330
17A2
100
AcDbEntity
  8
0
 62
     0
100
AcDbLine
 10
15.04340804469222
 20
3.615574873825607
 30
0.0
 11
16.32110607739059
 21
4.893272906523947
 31
0.0
  0
LINE
  5
18DA
330
17A2
100
AcDbEntity
  8
0
 62
     0
100
AcDbLine
 10
17.09395750637199
 20
6.115137141558818
 30
0.0
 11
18.15795750637201
 21
7.179137141558868
 31
0.0
  0
LINE
  5
18DB
330
17A2
100
AcDbEntity
  8
0
 62
     0
100
AcDbLine
 10
20.34610607739057
 20
9.367285712577398
 30
0.0
 11
21.74610607739058
 21
10.76728571257743
 31
0.0
  0
LINE
  5
18DC
330
17A2
100
AcDbEntity
  8
0
 62
     0
100
AcDbLine
 10
14.92110607739059
 20
3.942285712577415
 30
0.0
 11
16.32110607739056
 21
5.342285712577421
 31
0.0
  0
LINE
  5
18DD
330
17A2
100
AcDbEntity
  8
0
 62
     0
100
AcDbLine
 10
16.98619443291917
 20
6.45638687415942
 30
0.0
 11
18.0501944329192
 21
7.52038687415947
 31
0.0
  0
LINE
  5
18DE
330
17A2
100
AcDbEntity
  8
0
 62
     0
100
AcDbLine
 10
20.34610607739057
 20
9.816298518630844
 30
0.0
 11
21.7461060773906
 21
11.21629851863087
 31
0.0
  0
LINE
  5
18DF
330
17A2
100
AcDbEntity
  8
0
 62
     0
100
AcDbLine
 10
14.92110607739059
 20
4.391298518630861
 30
0.0
 11
16.32110607739062
 21
5.791298518630895
 31
0.0
  0
LINE
  5
18E0
330
17A2
100
AcDbEntity
  8
0
 62
     0
100
AcDbLine
 10
16.8687950394333
 20
6.788000286727054
 30
0.0
 11
18.18394207339875
 21
8.103147320692499
 31
0.0
  0
LINE
  5
18E1
330
17A2
100
AcDbEntity
  8
0
 62
     0
100
AcDbLine
 10
20.3461060773906
 20
10.26531132468434
 30
0.0
 11
21.64796836614138
 21
11.5671736134351
 31
0.0
  0
LINE
  5
18E2
330
17A2
100
AcDbEntity
  8
0
 62
     0
100
AcDbLine
 10
14.92110607739059
 20
4.840311324684336
 30
0.0
 11
16.32110607739062
 21
6.240311324684341
 31
0.0
  0
LINE
  5
18E3
330
17A2
100
AcDbEntity
  8
0
 62
     0
100
AcDbLine
 10
16.52520235449961
 20
6.893420407846832
 30
0.0
 11
18.39117875311575
 21
8.759396806462973
 31
0.0
  0
LINE
  5
18E4
330
17A2
100
AcDbEntity
  8
0
 62
     0
100
AcDbLine
 10
14.92110607739059
 20
5.289324130737782
 30
0.0
 11
16.32768566954374
 21
6.695903722890932
 31
0.0
  0
LINE
  5
18E5
330
17A2
100
AcDbEntity
  8
0
 62
     0
100
AcDbLine
 10
20.3461060773906
 20
10.71432413073779
 30
0.0
 11
21.25678194665277
 21
11.625
 31
0.0
  0
LINE
  5
18E6
330
17A2
100
AcDbEntity
  8
0
 62
     0
100
AcDbLine
 10
13.20678194665276
 20
3.57499999999996
 30
0.0
 11
13.69610607739059
 21
4.064324130737816
 31
0.0
  0
LINE
  5
18E7
330
17A2
100
AcDbEntity
  8
0
 62
     0
100
AcDbLine
 10
14.92110607739056
 20
5.738336936791256
 30
0.0
 11
18.59841543283272
 21
9.415646292233418
 31
0.0
  0
LINE
  5
18E8
330
17A2
100
AcDbEntity
  8
0
 62
     0
100
AcDbLine
 10
20.34610607739057
 20
11.16333693679126
 30
0.0
 11
20.8077691405993
 21
11.625
 31
0.0
  0
LINE
  5
18E9
330
17A2
100
AcDbEntity
  8
0
 62
     0
100
AcDbLine
 10
12.75776914059929
 20
3.574999999999988
 30
0.0
 11
13.69610607739062
 21
4.513336936791318
 31
0.0
  0
LINE
  5
18EA
330
17A2
100
AcDbEntity
  8
0
 62
     0
100
AcDbLine
 10
14.92110607739059
 20
6.187349742844673
 30
0.0
 11
18.80565211254977
 21
10.07189577800389
 31
0.0
  0
LINE
  5
18EB
330
17A2
100
AcDbEntity
  8
0
 62
     0
100
AcDbLine
 10
12.3145966467209
 20
3.580840312175013
 30
0.0
 11
13.62543893558751
 21
4.891682601041594
 31
0.0
  0
LINE
  5
18EC
330
17A2
100
AcDbEntity
  8
0
 62
     0
100
AcDbLine
 10
14.92110607739056
 20
6.636362548898148
 30
0.0
 11
16.58474352849239
 21
8.299999999999982
 31
0.0
  0
LINE
  5
18ED
330
17A2
100
AcDbEntity
  8
0
 62
     0
100
AcDbLine
 10
16.96673494611275
 20
8.681991417620338
 30
0.0
 11
19.01288879226675
 21
10.72814526377433
 31
0.0
  0
LINE
  5
18EE
330
17A2
100
AcDbEntity
  8
0
 62
     0
100
AcDbLine
 10
11.93051638799741
 20
3.645772859504972
 30
0.0
 11
13.25974352849238
 21
4.974999999999965
 31
0.0
  0
LINE
  5
18EF
330
17A2
100
AcDbEntity
  8
0
 62
     0
100
AcDbLine
 10
14.92110607739056
 20
7.085375354951622
 30
0.0
 11
16.33010136274472
 21
8.49437064030576
 31
0.0
  0
LINE
  5
18F0
330
17A2
100
AcDbEntity
  8
0
 62
     0
100
AcDbLine
 10
17.17397162582972
 20
9.338240903390754
 30
0.0
 11
19.2004245181674
 21
11.36469379572847
 31
0.0
  0
LINE
  5
18F1
330
17A2
100
AcDbEntity
  8
0
 62
     0
100
AcDbLine
 10
11.5999492595842
 20
3.764218537145268
 30
0.0
 11
12.81073072243893
 21
4.974999999999965
 31
0.0
  0
LINE
  5
18F2
330
17A2
100
AcDbEntity
  8
0
 62
     0
100
AcDbLine
 10
14.92110607739059
 20
7.53438816100504
 30
0.0
 11
16.32110607739059
 21
8.934388161005074
 31
0.0
  0
LINE
  5
18F3
330
17A2
100
AcDbEntity
  8
0
 62
     0
100
AcDbLine
 10
17.38120830554677
 20
9.994490389161256
 30
0.0
 11
19.00341858188281
 21
11.61670066549729
 31
0.0
  0
LINE
  5
18F4
330
17A2
100
AcDbEntity
  8
0
 62
     0
100
AcDbLine
 10
11.31114761750208
 20
3.924429701116565
 30
0.0
 11
12.36917854674848
 21
4.982460630362965
 31
0.0
  0
LINE
  5
18F5
330
17A2
100
AcDbEntity
  8
0
 62
     0
100
AcDbLine
 10
14.92110607739056
 20
7.983400967058514
 30
0.0
 11
16.32110607739059
 21
9.383400967058548
 31
0.0
  0
LINE
  5
18F6
330
17A2
100
AcDbEntity
  8
0
 62
     0
100
AcDbLine
 10
17.58844498526374
 20
10.65073987493167
 30
0.0
 11
18.56270511033201
 21
11.62499999999997
 31
0.0
  0
LINE
  5
18F7
330
17A2
100
AcDbEntity
  8
0
 62
     0
100
AcDbLine
 10
11.05867013431103
 20
4.120965023978953
 30
0.0
 11
12.05202047623933
 21
5.114315365907259
 31
0.0
  0
LINE
  5
18F8
330
17A2
100
AcDbEntity
  8
0
 62
     0
100
AcDbLine
 10
14.92110607739056
 20
8.43241377311196
 30
0.0
 11
16.32110607739059
 21
9.832413773111994
 31
0.0
  0
LINE
  5
18F9
330
17A2
100
AcDbEntity
  8
0
 62
     0
100
AcDbLine
 10
13.2519231432787
 20
6.763230839000101
 30
0.0
 11
13.83287523839041
 21
7.344182934111813
 31
0.0
  0
LINE
  5
18FA
330
17A2
100
AcDbEntity
  8
0
 62
     0
100
AcDbLine
 10
17.79568166498069
 20
11.30698936070211
 30
0.0
 11
18.1136923042786
 21
11.62500000000002
 31
0.0
  0
LINE
  5
18FB
330
17A2
100
AcDbEntity
  8
0
 62
     0
100
AcDbLine
 10
10.8404515976461
 20
4.351759293367535
 30
0.0
 11
11.84689500060324
 21
5.358202696324667
 31
0.0
  0
LINE
  5
18FC
330
17A2
100
AcDbEntity
  8
0
 62
     0
100
AcDbLine
 10
12.78943672246382
 20
6.74975722423872
 30
0.0
 11
13.84634885315179
 21
7.806669354926668
 31
0.0
  0
LINE
  5
18FD
330
17A2
100
AcDbEntity
  8
0
 62
     0
100
AcDbLine
 10
14.92110607739053
 20
8.881426579165434
 30
0.0
 11
16.32110607739056
 21
10.28142657916546
 31
0.0
  0
LINE
  5
18FE
330
17A2
100
AcDbEntity
  8
0
 62
     0
100
AcDbLine
 10
10.65694198517462
 20
4.617262486949499
 30
0.0
 11
11.77110607739058
 21
5.731426579165486
 31
0.0
  0
LINE
  5
18FF
330
17A2
100
AcDbEntity
  8
0
 62
     0
100
AcDbLine
 10
12.48236343775374
 20
6.891696745582066
 30
0.0
 11
13.70440933180844
 21
8.113742639636768
 31
0.0
  0
LINE
  5
1900
330
17A2
100
AcDbEntity
  8
0
 62
     0
100
AcDbLine
 10
14.92110607739056
 20
9.33043938521888
 30
0.0
 11
16.32110607739059
 21
10.73043938521888
 31
0.0
  0
LINE
  5
1901
330
17A2
100
AcDbEntity
  8
0
 62
     0
100
AcDbLine
 10
10.51128323021225
 20
4.920616538040576
 30
0.0
 11
11.77110607739058
 21
6.180439385218903
 31
0.0
  0
LINE
  5
1902
330
17A2
100
AcDbEntity
  8
0
 62
     0
100
AcDbLine
 10
12.26338347425891
 20
7.121729588140709
 30
0.0
 11
13.4743764892498
 21
8.3327226031316
 31
0.0
  0
LINE
  5
1903
330
17A2
100
AcDbEntity
  8
0
 62
     0
100
AcDbLine
 10
14.92110607739056
 20
9.779452191272326
 30
0.0
 11
16.32110607739056
 21
11.17945219127236
 31
0.0
  0
LINE
  5
1904
330
17A2
100
AcDbEntity
  8
0
 62
     0
100
AcDbLine
 10
10.41071454812498
 20
5.269060662006751
 30
0.0
 11
11.77110607739058
 21
6.629452191272378
 31
0.0
  0
LINE
  5
1905
330
17A2
100
AcDbEntity
  8
0
 62
     0
100
AcDbLine
 10
12.13535810805476
 20
7.442717027989999
 30
0.0
 11
13.15338904940051
 21
8.460747969335756
 31
0.0
  0
LINE
  5
1906
330
17A2
100
AcDbEntity
  8
0
 62
     0
100
AcDbLine
 10
10.37110607739055
 20
5.678464997325818
 30
0.0
 11
11.77110607739058
 21
7.078464997325824
 31
0.0
  0
LINE
  5
1907
330
17A2
100
AcDbEntity
  8
0
 62
     0
100
AcDbLine
 10
14.92110607739053
 20
10.2284649973258
 30
0.0
 11
16.24248102321303
 21
11.54983994314829
 31
0.0
  0
LINE
  5
1908
330
17A2
100
AcDbEntity
  8
0
 62
     0
100
AcDbLine
 10
8.328107698452754
 20
3.635466618388022
 30
0.0
 11
9.260639459002618
 21
4.567998378937886
 31
0.0
  0
LINE
  5
1909
330
17A2
100
AcDbEntity
  8
0
 62
     0
100
AcDbLine
 10
12.19456464979515
 20
7.95093637578384
 30
0.0
 11
12.64516970160667
 21
8.401541427595361
 31
0.0
  0
LINE
  5
190A
330
17A2
100
AcDbEntity
  8
0
 62
     0
100
AcDbLine
 10
10.37110607739055
 20
6.127477803379235
 30
0.0
 11
11.77110607739058
 21
7.527477803379269
 31
0.0
  0
LINE
  5
190B
330
17A2
100
AcDbEntity
  8
0
 62
     0
100
AcDbLine
 10
14.92110607739056
 20
10.67747780337921
 30
0.0
 11
15.86862827401128
 21
11.62499999999997
 31
0.0
  0
LINE
  5
190C
330
17A2
100
AcDbEntity
  8
0
 62
     0
100
AcDbLine
 10
7.818628274011274
 20
3.57499999999996
 30
0.0
 11
9.321106077390595
 21
5.077477803379281
 31
0.0
  0
LINE
  5
190D
330
17A2
100
AcDbEntity
  8
0
 62
     0
100
AcDbLine
 10
10.37110607739055
 20
6.57649060943271
 30
0.0
 11
11.77110607739058
 21
7.976490609432744
 31
0.0
  0
LINE
  5
190E
330
17A2
100
AcDbEntity
  8
0
 62
     0
100
AcDbLine
 10
14.92110607739053
 20
11.12649060943269
 30
0.0
 11
15.41961546795784
 21
11.625
 31
0.0
  0
LINE
  5
190F
330
17A2
100
AcDbEntity
  8
0
 62
     0
100
AcDbLine
 10
7.369615467957828
 20
3.57499999999996
 30
0.0
 11
9.321106077390595
 21
5.526490609432755
 31
0.0
  0
LINE
  5
1910
330
17A2
100
AcDbEntity
  8
0
 62
     0
100
AcDbLine
 10
10.37110607739055
 20
7.025503415486156
 30
0.0
 11
11.77110607739055
 21
8.42550341548619
 31
0.0
  0
LINE
  5
1911
330
17A2
100
AcDbEntity
  8
0
 62
     0
100
AcDbLine
 10
6.920602661904354
 20
3.574999999999988
 30
0.0
 11
9.31913640111
 21
5.973533739205635
 31
0.0
  0
LINE
  5
1912
330
17A2
100
AcDbEntity
  8
0
 62
     0
100
AcDbLine
 10
10.37110607739055
 20
7.47451622153963
 30
0.0
 11
11.77110607739058
 21
8.874516221539664
 31
0.0
  0
LINE
  5
1913
330
17A2
100
AcDbEntity
  8
0
 62
     0
100
AcDbLine
 10
13.12158985585094
 20
10.22500000000002
 30
0.0
 11
13.69610607739065
 21
10.79951622153973
 31
0.0
  0
LINE
  5
1914
330
17A2
100
AcDbEntity
  8
0
 62
     0
100
AcDbLine
 10
6.471589855850879
 20
3.57499999999996
 30
0.0
 11
9.26430548294931
 21
6.367715627098363
 31
0.0
  0
LINE
  5
1915
330
17A2
100
AcDbEntity
  8
0
 62
     0
100
AcDbLine
 10
10.37110607739055
 20
7.923529027593076
 30
0.0
 11
11.77110607739058
 21
9.323529027593082
 31
0.0
  0
LINE
  5
1916
330
17A2
100
AcDbEntity
  8
0
 62
     0
100
AcDbLine
 10
7.921106077390589
 20
5.473529027593116
 30
0.0
 11
9.153136110927277
 21
6.705559061129804
 31
0.0
  0
LINE
  5
1917
330
17A2
100
AcDbEntity
  8
0
 62
     0
100
AcDbLine
 10
12.67257704979743
 20
10.22499999999996
 30
0.0
 11
13.69610607739059
 21
11.24852902759312
 31
0.0
  0
LINE
  5
1918
330
17A2
100
AcDbEntity
  8
0
 62
     0
100
AcDbLine
 10
6.051439987427414
 20
3.603862937629941
 30
0.0
 11
7.422577049797439
 21
4.974999999999965
 31
0.0
  0
LINE
  5
1919
330
17A2
100
AcDbEntity
  8
0
 62
     0
100
AcDbLine
 10
10.37110607739052
 20
8.372541833646522
 30
0.0
 11
11.85401343028041
 21
9.855449186536418
 31
0.0
  0
LINE
  5
191A
330
17A2
100
AcDbEntity
  8
0
 62
     0
100
AcDbLine
 10
7.920026531585961
 20
5.921462287841933
 30
0.0
 11
8.998920343591208
 21
7.000356099847209
 31
0.0
  0
LINE
  5
191B
330
17A2
100
AcDbEntity
  8
0
 62
     0
100
AcDbLine
 10
12.14065689085418
 20
10.14209264711019
 30
0.0
 11
13.57937236993069
 21
11.58080812618666
 31
0.0
  0
LINE
  5
191C
330
17A2
100
AcDbEntity
  8
0
 62
     0
100
AcDbLine
 10
5.908606077390544
 20
3.910041833646545
 30
0.0
 11
6.973564243743993
 21
4.974999999999965
 31
0.0
  0
LINE
  5
191D
330
17A2
100
AcDbEntity
  8
0
 62
     0
100
AcDbLine
 10
7.810225021835606
 20
6.260673584145081
 30
0.0
 11
8.807799361171817
 21
7.258247923481292
 31
0.0
  0
LINE
  5
191E
330
17A2
100
AcDbEntity
  8
0
 62
     0
100
AcDbLine
 10
10.37110607739052
 20
8.821554639699996
 30
0.0
 11
13.17455143769055
 21
11.62500000000002
 31
0.0
  0
LINE
  5
191F
330
17A2
100
AcDbEntity
  8
0
 62
     0
100
AcDbLine
 10
5.908606077390544
 20
4.359054639700019
 30
0.0
 11
6.524551437690519
 21
4.974999999999994
 31
0.0
  0
LINE
  5
1920
330
17A2
100
AcDbEntity
  8
0
 62
     0
100
AcDbLine
 10
7.597097607683252
 20
6.496558976046145
 30
0.0
 11
8.587047101344438
 21
7.486508469707331
 31
0.0
  0
LINE
  5
1921
330
17A2
100
AcDbEntity
  8
0
 62
     0
100
AcDbLine
 10
10.37110607739057
 20
9.270567445753471
 30
0.0
 11
12.72553863163707
 21
11.62499999999997
 31
0.0
  0
LINE
  5
1922
330
17A2
100
AcDbEntity
  8
0
 62
     0
100
AcDbLine
 10
5.943082038400461
 20
4.842543406763354
 30
0.0
 11
6.041062670627269
 21
4.940524038990162
 31
0.0
  0
LINE
  5
1923
330
17A2
100
AcDbEntity
  8
0
 62
     0
100
AcDbLine
 10
10.38109363446884
 20
9.729567808885178
 30
0.0
 11
12.26653826850534
 21
11.61501244292171
 31
0.0
  0
LINE
  5
1924
330
17A2
100
AcDbEntity
  8
0
 62
     0
100
AcDbLine
 10
7.372591204656515
 20
6.721065379072882
 30
0.0
 11
8.362540698317701
 21
7.711014872734068
 31
0.0
  0
LINE
  5
1925
330
17A2
100
AcDbEntity
  8
0
 62
     0
100
AcDbLine
 10
10.53082535060173
 20
10.32831233107157
 30
0.0
 11
11.66779374631897
 21
11.46528072678882
 31
0.0
  0
LINE
  5
1926
330
17A2
100
AcDbEntity
  8
0
 62
     0
100
AcDbLine
 10
7.148084801629778
 20
6.945571782099619
 30
0.0
 11
8.138034295290964
 21
7.935521275760805
 31
0.0
  0
LINE
  5
1927
330
17A2
100
AcDbEntity
  8
0
 62
     0
100
AcDbLine
 10
6.923578398603069
 20
7.170078185126328
 30
0.0
 11
7.913527892264227
 21
8.160027678787457
 31
0.0
  0
LINE
  5
1928
330
17A2
100
AcDbEntity
  8
0
 62
     0
100
AcDbLine
 10
6.699071995576332
 20
7.394584588153065
 30
0.0
 11
7.689021489237489
 21
8.384534081814194
 31
0.0
  0
LINE
  5
1929
330
17A2
100
AcDbEntity
  8
0
 62
     0
100
AcDbLine
 10
6.474565592549595
 20
7.619090991179803
 30
0.0
 11
7.464515086210752
 21
8.609040484840932
 31
0.0
  0
LINE
  5
192A
330
17A2
100
AcDbEntity
  8
0
 62
     0
100
AcDbLine
 10
8.63146179531634
 20
10.22500000000002
 30
0.0
 11
9.058606077390521
 21
10.6521442820742
 31
0.0
  0
LINE
  5
192B
330
17A2
100
AcDbEntity
  8
0
 62
     0
100
AcDbLine
 10
6.250100846536923
 20
7.843639051220606
 30
0.0
 11
7.24013366825315
 21
8.833671872936832
 31
0.0
  0
LINE
  5
192C
330
17A2
100
AcDbEntity
  8
0
 62
     0
100
AcDbLine
 10
8.182448989262866
 20
10.22499999999996
 30
0.0
 11
9.058606077390578
 21
11.10115708812767
 31
0.0
  0
LINE
  5
192D
330
17A2
100
AcDbEntity
  8
0
 62
     0
100
AcDbLine
 10
6.044366884261137
 20
8.086917894998208
 30
0.0
 11
7.075185227609182
 21
9.117736238346282
 31
0.0
  0
LINE
  5
192E
330
17A2
100
AcDbEntity
  8
0
 62
     0
100
AcDbLine
 10
7.733436183209391
 20
10.22499999999996
 30
0.0
 11
9.015326627510006
 21
11.50689044430058
 31
0.0
  0
LINE
  5
192F
330
17A2
100
AcDbEntity
  8
0
 62
     0
100
AcDbLine
 10
5.874136581129903
 20
8.365700397920448
 30
0.0
 11
7.046106077390561
 21
9.537669894181135
 31
0.0
  0
LINE
  5
1930
330
17A2
100
AcDbEntity
  8
0
 62
     0
100
AcDbLine
 10
7.283190052570887
 20
10.2237666754149
 30
0.0
 11
8.68442337715598
 21
11.625
 31
0.0
  0
LINE
  5
1931
330
17A2
100
AcDbEntity
  8
0
 62
     0
100
AcDbLine
 10
5.743789933263855
 20
8.684366556107875
 30
0.0
 11
7.047339401975648
 21
9.987916024819696
 31
0.0
  0
LINE
  5
1932
330
17A2
100
AcDbEntity
  8
0
 62
     0
100
AcDbLine
 10
5.662883952139821
 20
9.052473381037287
 30
0.0
 11
8.235410571102534
 21
11.625
 31
0.0
  0
LINE
  5
1933
330
17A2
100
AcDbEntity
  8
0
 62
     0
100
AcDbLine
 10
5.646106077390584
 20
9.484708312341496
 30
0.0
 11
7.786397765049059
 21
11.625
 31
0.0
  0
LINE
  5
1934
330
17A2
100
AcDbEntity
  8
0
 62
     0
100
AcDbLine
 10
5.646106077390555
 20
9.93372111839497
 30
0.0
 11
7.337384958995613
 21
11.625
 31
0.0
  0
LINE
  5
1935
330
17A2
100
AcDbEntity
  8
0
 62
     0
100
AcDbLine
 10
5.65620208260978
 20
10.39282992966761
 30
0.0
 11
6.878276147722971
 21
11.61490399478083
 31
0.0
  0
ENDBLK
  5
1937
330
17A2
100
AcDbEntity
  8
0
100
AcDbBlockEnd
  0
ENDSEC
  0
SECTION
  2
ENTITIES
  0
DIMENSION
  5
1232
330
1A
100
AcDbEntity
  8
SUNPOU
100
AcDbDimension
  2
*D1
 10
393.0881901740689
 20
109.2926321532877
 30
0.0
 11
157.4722452487897
 21
141.0761026523942
 31
0.0
 70
   164
  3
STANDARD
100
AcDbRadialDimension
 15
145.3322018194114
 25
142.713736779057
 35
0.0
 40
0.0
1001
ACAD
1000
DSTYLE
1002
{
1070
    41
1040
3.0
1070
    42
1040
3.0
1070
    43
1040
7.0
1070
    44
1040
1.5
1070
    73
1070
     0
1070
    74
1070
     0
1070
    77
1070
     3
1070
   140
1040
3.0
1070
   141
1040
150.0
1070
   147
1040
1.0
1070
   172
1070
     1
1070
   173
1070
     1
1070
   176
1070
   256
1070
   177
1070
   256
1070
   178
1070
   256
1070
   271
1070
     0
1070
   272
1070
     0
1070
   288
1070
     1
1070
   341
1005
B2
1070
     6
1000
OPEN
1070
     7
1000
OPEN
1070
   371
1070
    -1
1070
   372
1070
    -1
1002
}
  0
TEXT
  5
1233
330
1A
100
AcDbEntity
  8
ZUWAKU
100
AcDbText
 10
329.1019688436512
 20
9.002460528703693
 30
0.0
 40
2.799999999999999
  1
　　．　　．　　
 41
0.9
  7
ｽﾀｲﾙ1
100
AcDbText
  0
LINE
  5
1234
330
1A
100
AcDbEntity
  8
ZUWAKU
100
AcDbLine
 10
324.408601255102
 20
7.800000000000011
 30
0.0
 11
348.6245052742706
 21
7.800000000000011
 31
0.0
  0
LINE
  5
1235
330
1A
100
AcDbEntity
  8
ZUWAKU
100
AcDbLine
 10
324.4086012551022
 20
7.700000000000017
 30
0.0
 11
348.6245052742706
 21
7.700000000000017
 31
0.0
  0
LINE
  5
1236
330
1A
100
AcDbEntity
  8
ZUWAKU
100
AcDbLine
 10
324.408601255102
 20
7.600000000000022
 30
0.0
 11
348.6245052742706
 21
7.600000000000022
 31
0.0
  0
POLYLINE
  5
1237
330
1A
100
AcDbEntity
  8
ZUWAKU
100
AcDb2dPolyline
 66
     1
 10
0.0
 20
0.0
 30
0.0
 70
     1
  0
VERTEX
  5
19FF
330
1237
100
AcDbEntity
  8
ZUWAKU
100
AcDbVertex
100
AcDb2dVertex
 10
0.3999999999999772
 20
275.4
 30
0.0
  0
VERTEX
  5
1A00
330
1237
100
AcDbEntity
  8
ZUWAKU
100
AcDbVertex
100
AcDb2dVertex
 10
0.3999999999999772
 20
0.4000000000000341
 30
0.0
  0
VERTEX
  5
1A01
330
1237
100
AcDbEntity
  8
ZUWAKU
100
AcDbVertex
100
AcDb2dVertex
 10
398.3999999999999
 20
0.4000000000000341
 30
0.0
  0
VERTEX
  5
1A02
330
1237
100
AcDbEntity
  8
ZUWAKU
100
AcDbVertex
100
AcDb2dVertex
 10
398.3999999999999
 20
275.4
 30
0.0
  0
SEQEND
  5
1A03
330
1237
100
AcDbEntity
  8
ZUWAKU
  0
POLYLINE
  5
1238
330
1A
100
AcDbEntity
  8
ZUWAKU
100
AcDb2dPolyline
 66
     1
 10
0.0
 20
0.0
 30
0.0
 70
     1
  0
VERTEX
  5
1A04
330
1238
100
AcDbEntity
  8
ZUWAKU
100
AcDbVertex
100
AcDb2dVertex
 10
0.1999999999999886
 20
275.6
 30
0.0
  0
VERTEX
  5
1A05
330
1238
100
AcDbEntity
  8
ZUWAKU
100
AcDbVertex
100
AcDb2dVertex
 10
0.1999999999999886
 20
0.2000000000000455
 30
0.0
  0
VERTEX
  5
1A06
330
1238
100
AcDbEntity
  8
ZUWAKU
100
AcDbVertex
100
AcDb2dVertex
 10
398.6
 20
0.2000000000000313
 30
0.0
  0
VERTEX
  5
1A07
330
1238
100
AcDbEntity
  8
ZUWAKU
100
AcDbVertex
100
AcDb2dVertex
 10
398.6
 20
275.6
 30
0.0
  0
SEQEND
  5
1A08
330
1238
100
AcDbEntity
  8
ZUWAKU
  0
POLYLINE
  5
1239
330
1A
100
AcDbEntity
  8
ZUWAKU
100
AcDb2dPolyline
 66
     1
 10
0.0
 20
0.0
 30
0.0
 70
     1
  0
VERTEX
  5
1A09
330
1239
100
AcDbEntity
  8
ZUWAKU
100
AcDbVertex
100
AcDb2dVertex
 10
0.0
 20
275.8
 30
0.0
  0
VERTEX
  5
1A0A
330
1239
100
AcDbEntity
  8
ZUWAKU
100
AcDbVertex
100
AcDb2dVertex
 10
0.0
 20
0.0
 30
0.0
  0
VERTEX
  5
1A0B
330
1239
100
AcDbEntity
  8
ZUWAKU
100
AcDbVertex
100
AcDb2dVertex
 10
398.8
 20
0.0000000000000355
 30
0.0
  0
VERTEX
  5
1A0C
330
1239
100
AcDbEntity
  8
ZUWAKU
100
AcDbVertex
100
AcDb2dVertex
 10
398.8
 20
275.8
 30
0.0
  0
SEQEND
  5
1A0D
330
1239
100
AcDbEntity
  8
ZUWAKU
  0
POLYLINE
  5
123A
330
1A
100
AcDbEntity
  8
ZUWAKU
100
AcDb2dPolyline
 66
     1
 10
0.0
 20
0.0
 30
0.0
 70
     1
  0
VERTEX
  5
1A0E
330
123A
100
AcDbEntity
  8
ZUWAKU
100
AcDbVertex
100
AcDb2dVertex
 10
0.2999999999999545
 20
275.5
 30
0.0
  0
VERTEX
  5
1A0F
330
123A
100
AcDbEntity
  8
ZUWAKU
100
AcDbVertex
100
AcDb2dVertex
 10
0.2999999999999545
 20
0.3000000000000114
 30
0.0
  0
VERTEX
  5
1A10
330
123A
100
AcDbEntity
  8
ZUWAKU
100
AcDbVertex
100
AcDb2dVertex
 10
398.5000000000001
 20
0.3000000000000327
 30
0.0
  0
VERTEX
  5
1A11
330
123A
100
AcDbEntity
  8
ZUWAKU
100
AcDbVertex
100
AcDb2dVertex
 10
398.4999999999999
 20
275.5
 30
0.0
  0
SEQEND
  5
1A12
330
123A
100
AcDbEntity
  8
ZUWAKU
  0
POLYLINE
  5
123B
330
1A
100
AcDbEntity
  8
ZUWAKU
100
AcDb2dPolyline
 66
     1
 10
0.0
 20
0.0
 30
0.0
 70
     1
  0
VERTEX
  5
1A13
330
123B
100
AcDbEntity
  8
ZUWAKU
100
AcDbVertex
100
AcDb2dVertex
 10
0.0999999999999659
 20
275.7
 30
0.0
  0
VERTEX
  5
1A14
330
123B
100
AcDbEntity
  8
ZUWAKU
100
AcDbVertex
100
AcDb2dVertex
 10
0.0999999999999659
 20
0.1000000000000227
 30
0.0
  0
VERTEX
  5
1A15
330
123B
100
AcDbEntity
  8
ZUWAKU
100
AcDbVertex
100
AcDb2dVertex
 10
398.6999999999999
 20
0.1000000000000369
 30
0.0
  0
VERTEX
  5
1A16
330
123B
100
AcDbEntity
  8
ZUWAKU
100
AcDbVertex
100
AcDb2dVertex
 10
398.7
 20
275.7
 30
0.0
  0
SEQEND
  5
1A17
330
123B
100
AcDbEntity
  8
ZUWAKU
  0
LINE
  5
123C
330
1A
100
AcDbEntity
  8
ZUWAKU
100
AcDbLine
 10
0.0
 20
15.0
 30
0.0
 11
398.6999999999999
 21
15.0
 31
0.0
  0
LINE
  5
123D
330
1A
100
AcDbEntity
  8
ZUWAKU
100
AcDbLine
 10
0.0
 20
15.09999999999999
 30
0.0
 11
398.6999999999999
 21
15.09999999999999
 31
0.0
  0
LINE
  5
123E
330
1A
100
AcDbEntity
  8
ZUWAKU
100
AcDbLine
 10
0.0
 20
15.2
 30
0.0
 11
398.6999999999999
 21
15.2
 31
0.0
  0
LINE
  5
123F
330
1A
100
AcDbEntity
  8
ZUWAKU
100
AcDbLine
 10
0.0
 20
15.30000000000001
 30
0.0
 11
398.6999999999999
 21
15.30000000000001
 31
0.0
  0
LINE
  5
1240
330
1A
100
AcDbEntity
  8
ZUWAKU
100
AcDbLine
 10
0.0
 20
15.4
 30
0.0
 11
398.6999999999999
 21
15.4
 31
0.0
  0
LINE
  5
1241
330
1A
100
AcDbEntity
  8
SEIHIN
100
AcDbLine
 10
284.2218519756617
 20
89.88569763827916
 30
0.0
 11
286.7314048509774
 21
138.522862726947
 31
0.0
  0
LINE
  5
1242
330
1A
100
AcDbEntity
  8
SEIHIN
100
AcDbLine
 10
288.5192859135702
 20
147.9448764033767
 30
0.0
 11
285.5201249315022
 21
89.81871008620192
 31
0.0
  0
ARC
  5
1243
330
1A
100
AcDbEntity
  8
SEIHIN
100
AcDbCircle
 10
393.0881901740701
 20
109.2926321532877
 30
0.0
 40
248.6000000000006
100
AcDbArc
 50
169.123291167009
 51
178.0328534539723
  0
ARC
  5
1244
330
1A
100
AcDbEntity
  8
SEIHIN
100
AcDbCircle
 10
393.0881901740694
 20
109.2926321532877
 30
0.0
 40
250.0
100
AcDbArc
 50
160.4971001221396
 51
180.1139751640763
  0
DIMENSION
  5
1245
330
1A
100
AcDbEntity
  8
SUNPOU
 48
0.5
100
AcDbDimension
  2
*D2
 10
287.0444076595192
 20
119.0897002477519
 30
0.0
 11
298.8924782192924
 21
118.4832239380445
 31
0.0
 70
   161
  1
t<>
  3
STANDARD
100
AcDbAlignedDimension
 13
285.751472447598
 23
119.2609676425686
 33
0.0
 14
287.0497726651426
 24
119.194510549757
 34
0.0
1001
ACAD
1000
DSTYLE
1002
{
1070
   177
1070
   256
1070
   372
1070
    -1
1070
   371
1070
    -1
1070
    41
1040
3.0
1070
    42
1040
3.0
1070
    43
1040
8.0
1070
    44
1040
1.5
1070
    73
1070
     0
1070
    74
1070
     0
1070
    77
1070
     3
1070
   140
1040
3.0
1070
   141
1040
3.0
1070
   147
1040
1.0
1070
   172
1070
     1
1070
   173
1070
     1
1070
   176
1070
   256
1070
   178
1070
   256
1070
   271
1070
     1
1070
   272
1070
     2
1070
   288
1070
     1
1070
     6
1000
OPEN
1070
     7
1000
OPEN
1002
}
  0
DIMENSION
  5
1246
330
1A
100
AcDbEntity
  8
SUNPOU
100
AcDbDimension
  2
*D3
 10
98.20007704256205
 20
83.20256781710263
 30
0.0
 11
95.70007704256203
 21
138.1459573644064
 31
0.0
 70
    32
  3
STANDARD
100
AcDbAlignedDimension
 13
157.9033536933683
 23
193.0893469117102
 33
0.0
 14
225.7016084174202
 24
83.20256781710259
 34
0.0
 50
90.0
100
AcDbRotatedDimension
1001
ACAD
1000
DSTYLE
1002
{
1070
   372
1070
    -1
1070
   371
1070
    -1
1070
    41
1040
3.0
1070
    42
1040
3.0
1070
    43
1040
7.0
1070
    44
1040
1.5
1070
    73
1070
     0
1070
    74
1070
     0
1070
    77
1070
     3
1070
   140
1040
3.0
1070
   141
1040
150.0
1070
   147
1040
1.0
1070
   172
1070
     1
1070
   173
1070
     1
1070
   176
1070
   256
1070
   177
1070
   256
1070
   178
1070
   256
1070
   271
1070
     0
1070
   272
1070
     2
1070
     6
1000
OPEN
1070
     7
1000
OPEN
1002
}
  0
DIMENSION
  5
1247
330
1A
100
AcDbEntity
  8
SUNPOU
100
AcDbDimension
  2
*D4
 10
108.436742622338
 20
108.2025208344436
 30
0.0
 11
105.9367426223379
 21
150.6459338730769
 31
0.0
 70
    32
  3
STANDARD
100
AcDbAlignedDimension
 13
157.9033536933683
 23
193.0893469117102
 33
0.0
 14
143.0905668707419
 24
108.2025208344436
 34
0.0
 50
90.0
100
AcDbRotatedDimension
1001
ACAD
1000
DSTYLE
1002
{
1070
   372
1070
    -1
1070
   371
1070
    -1
1070
    41
1040
3.0
1070
    42
1040
3.0
1070
    43
1040
7.0
1070
    44
1040
1.5
1070
    73
1070
     0
1070
    74
1070
     0
1070
    77
1070
     3
1070
   140
1040
3.0
1070
   141
1040
150.0
1070
   147
1040
1.0
1070
   172
1070
     1
1070
   173
1070
     1
1070
   176
1070
   256
1070
   177
1070
   256
1070
   178
1070
   256
1070
   271
1070
     0
1070
   272
1070
     2
1070
     6
1000
OPEN
1070
     7
1000
OPEN
1002
}
  0
DIMENSION
  5
1248
330
1A
100
AcDbEntity
  8
SUNPOU
100
AcDbDimension
  2
*D5
 10
313.4014298138363
 20
83.22180953901794
 30
0.0
 11
310.9014298138363
 21
118.2121651867308
 31
0.0
 70
    32
  3
STANDARD
100
AcDbAlignedDimension
 13
283.5280818359121
 23
153.2025208344436
 33
0.0
 14
225.7016084174202
 24
83.22180953901796
 34
0.0
 50
90.0
100
AcDbRotatedDimension
1001
ACAD
1000
DSTYLE
1002
{
1070
   372
1070
    -1
1070
   371
1070
    -1
1070
    41
1040
3.0
1070
    42
1040
3.0
1070
    43
1040
7.0
1070
    44
1040
1.5
1070
    73
1070
     0
1070
    74
1070
     0
1070
    77
1070
     3
1070
   140
1040
3.0
1070
   141
1040
150.0
1070
   147
1040
1.0
1070
   172
1070
     1
1070
   173
1070
     1
1070
   176
1070
   256
1070
   177
1070
   256
1070
   178
1070
   256
1070
   271
1070
     0
1070
   272
1070
     2
1070
     6
1000
OPEN
1070
     7
1000
OPEN
1002
}
  0
DIMENSION
  5
1249
330
1A
100
AcDbEntity
  8
SUNPOU
100
AcDbDimension
  2
*D6
 10
288.5215442122307
 20
223.302804860499
 30
0.0
 11
215.8060555414863
 21
225.802804860499
 31
0.0
 70
    32
  3
STANDARD
100
AcDbAlignedDimension
 13
143.0905668707419
 23
108.2025208344436
 33
0.0
 14
288.5215442122307
 24
147.9469166353892
 34
0.0
100
AcDbRotatedDimension
1001
ACAD
1000
DSTYLE
1002
{
1070
   372
1070
    -1
1070
   371
1070
    -1
1070
    41
1040
3.0
1070
    42
1040
3.0
1070
    43
1040
7.0
1070
    44
1040
1.5
1070
    73
1070
     0
1070
    74
1070
     0
1070
    77
1070
     3
1070
   140
1040
3.0
1070
   141
1040
150.0
1070
   147
1040
1.0
1070
   172
1070
     1
1070
   173
1070
     1
1070
   176
1070
   256
1070
   177
1070
   256
1070
   178
1070
   256
1070
   271
1070
     0
1070
   272
1070
     2
1070
     6
1000
OPEN
1070
     7
1000
OPEN
1002
}
  0
DIMENSION
  5
124A
330
1A
100
AcDbEntity
  8
SUNPOU
100
AcDbDimension
  2
*D7
 10
157.9033536933683
 20
213.4554465968879
 30
0.0
 11
150.4969602820551
 21
215.955446596888
 31
0.0
 70
    32
  3
STANDARD
100
AcDbAlignedDimension
 13
143.0905668707419
 23
108.2025208344436
 33
0.0
 14
157.9033536933683
 24
193.0893469117102
 34
0.0
100
AcDbRotatedDimension
1001
ACAD
1000
DSTYLE
1002
{
1070
   372
1070
    -1
1070
   371
1070
    -1
1070
    41
1040
3.0
1070
    42
1040
3.0
1070
    43
1040
7.0
1070
    44
1040
1.5
1070
    73
1070
     0
1070
    74
1070
     0
1070
    77
1070
     3
1070
   140
1040
3.0
1070
   141
1040
150.0
1070
   147
1040
1.0
1070
   172
1070
     1
1070
   173
1070
     1
1070
   176
1070
   256
1070
   177
1070
   256
1070
   178
1070
   256
1070
   271
1070
     0
1070
   272
1070
     2
1070
     6
1000
OPEN
1070
     7
1000
OPEN
1002
}
  0
TEXT
  5
124B
330
1A
100
AcDbEntity
  8
MOJI
100
AcDbText
 10
119.9136013404255
 20
1.602460528703709
 30
0.0
 40
2.799999999999999
  1
Ｔ１２０－３,６００
 41
0.9
  7
ｽﾀｲﾙ1
100
AcDbText
  0
TEXT
  5
124C
330
1A
100
AcDbEntity
  8
MOJI
100
AcDbText
 10
119.9136013404255
 20
9.002460528703693
 30
0.0
 40
2.799999999999999
  1
のきとい
 41
0.9
  7
ｽﾀｲﾙ1
100
AcDbText
  0
LINE
  5
124D
330
1A
100
AcDbEntity
  8
ZUWAKU
100
AcDbLine
 10
104.323300645034
 20
7.700000000000017
 30
0.0
 11
223.7121819854956
 21
7.700000000000017
 31
0.0
  0
LINE
  5
124E
330
1A
100
AcDbEntity
  8
ZUWAKU
100
AcDbLine
 10
104.323300645034
 20
7.800000000000011
 30
0.0
 11
223.7121819854956
 21
7.800000000000025
 31
0.0
  0
LINE
  5
124F
330
1A
100
AcDbEntity
  8
ZUWAKU
100
AcDbLine
 10
104.323300645034
 20
7.600000000000022
 30
0.0
 11
223.7121819854956
 21
7.600000000000022
 31
0.0
  0
DIMENSION
  5
1250
330
1A
100
AcDbEntity
  8
SUNPOU
100
AcDbDimension
  2
*D8
 10
108.436742622338
 20
83.20256781710263
 30
0.0
 11
105.9367426223379
 21
95.70254432577318
 31
0.0
 70
    32
  3
STANDARD
100
AcDbAlignedDimension
 13
143.0905668707419
 23
108.2025208344436
 33
0.0
 14
225.7016084174202
 24
83.20256781710259
 34
0.0
 50
90.0
100
AcDbRotatedDimension
1001
ACAD
1000
DSTYLE
1002
{
1070
   372
1070
    -1
1070
   371
1070
    -1
1070
    41
1040
3.0
1070
    42
1040
3.0
1070
    43
1040
7.0
1070
    44
1040
1.5
1070
    73
1070
     0
1070
    74
1070
     0
1070
    77
1070
     3
1070
   140
1040
3.0
1070
   141
1040
150.0
1070
   147
1040
1.0
1070
   172
1070
     1
1070
   173
1070
     1
1070
   176
1070
   256
1070
   177
1070
   256
1070
   178
1070
   256
1070
   271
1070
     0
1070
   272
1070
     2
1070
     6
1000
OPEN
1070
     7
1000
OPEN
1002
}
  0
DIMENSION
  5
1251
330
1A
100
AcDbEntity
  8
SUNPOU
100
AcDbDimension
  2
*D9
 10
117.9754552154663
 20
108.2025208344436
 30
0.0
 11
115.4754552154663
 21
100.2025208344436
 31
0.0
 70
    32
  3
STANDARD
100
AcDbAlignedDimension
 13
157.8215442120419
 23
110.8025208344436
 33
0.0
 14
143.0905668707419
 24
108.2025208344436
 34
0.0
 50
90.0
100
AcDbRotatedDimension
1001
ACAD
1000
DSTYLE
1002
{
1070
   372
1070
    -1
1070
   371
1070
    -1
1070
    41
1040
3.0
1070
    42
1040
3.0
1070
    43
1040
7.0
1070
    44
1040
1.5
1070
    73
1070
     0
1070
    74
1070
     0
1070
    77
1070
     3
1070
   140
1040
3.0
1070
   141
1040
150.0
1070
   147
1040
1.0
1070
   172
1070
     1
1070
   173
1070
     1
1070
   176
1070
   256
1070
   177
1070
   256
1070
   178
1070
   256
1070
   271
1070
     0
1070
   272
1070
     2
1070
     6
1000
OPEN
1070
     7
1000
OPEN
1002
}
  0
LINE
  5
1252
330
1A
100
AcDbEntity
  8
ZUWAKU
100
AcDbLine
 10
104.2233006450338
 20
15.0
 30
0.0
 11
104.2233006450339
 21
0.4000000000000341
 31
0.0
  0
LINE
  5
1253
330
1A
100
AcDbEntity
  8
ZUWAKU
100
AcDbLine
 10
104.3233006450339
 20
15.0
 30
0.0
 11
104.323300645034
 21
0.4000000000000341
 31
0.0
  0
LINE
  5
1254
330
1A
100
AcDbEntity
  8
ZUWAKU
100
AcDbLine
 10
104.1233006450339
 20
15.0
 30
0.0
 11
104.1233006450339
 21
0.4000000000000341
 31
0.0
  0
LINE
  5
1255
330
1A
100
AcDbEntity
  8
ZUWAKU
100
AcDbLine
 10
23.41118183689883
 20
7.832474746830598
 30
0.0
 11
24.86608082422117
 21
6.37757575950826
 31
0.0
  0
LINE
  5
1256
330
1A
100
AcDbEntity
  8
ZUWAKU
100
AcDbLine
 10
25.85603031788235
 20
7.367525253169418
 30
0.0
 11
24.40113133055996
 21
8.822424240491756
 31
0.0
  0
LINE
  5
1257
330
1A
100
AcDbEntity
  8
ZUWAKU
100
AcDbLine
 10
19.18824913504846
 20
3.916546984083488
 30
0.0
 11
18.02505344581163
 21
7.600000000000008
 31
0.0
  0
LINE
  5
1258
330
1A
100
AcDbEntity
  8
ZUWAKU
100
AcDbLine
 10
14.92110607739056
 20
11.36249999999999
 30
0.0
 11
14.92110607739056
 21
3.837500000000005
 31
0.0
  0
LINE
  5
1259
330
1A
100
AcDbEntity
  8
ZUWAKU
100
AcDbLine
 10
28.92110607739056
 20
5.5
 30
0.0
 11
28.92110607739056
 21
11.36249999999999
 31
0.0
  0
LINE
  5
125A
330
1A
100
AcDbEntity
  8
ZUWAKU
100
AcDbLine
 10
27.52110607739058
 20
11.36249999999999
 30
0.0
 11
27.52110607739058
 21
4.974999999999994
 31
0.0
  0
LINE
  5
125B
330
1A
100
AcDbEntity
  8
ZUWAKU
100
AcDbLine
 10
21.74610607739055
 20
3.837500000000005
 30
0.0
 11
21.74610607739055
 21
11.36249999999999
 31
0.0
  0
LINE
  5
125C
330
1A
100
AcDbEntity
  8
ZUWAKU
100
AcDbLine
 10
20.34610607739057
 20
11.36249999999999
 30
0.0
 11
20.34610607739057
 21
3.837500000000005
 31
0.0
  0
LINE
  5
125D
330
1A
100
AcDbEntity
  8
ZUWAKU
100
AcDbLine
 10
33.12110607739055
 20
11.36249999999999
 30
0.0
 11
33.12110607739055
 21
3.837500000000005
 31
0.0
  0
LINE
  5
125E
330
1A
100
AcDbEntity
  8
ZUWAKU
100
AcDbLine
 10
34.52110607739058
 20
3.837500000000005
 30
0.0
 11
34.52110607739058
 21
11.36249999999999
 31
0.0
  0
LINE
  5
125F
330
1A
100
AcDbEntity
  8
ZUWAKU
100
AcDbLine
 10
30.67110607739056
 20
11.36249999999999
 30
0.0
 11
30.67110607739056
 21
5.5
 31
0.0
  0
LINE
  5
1260
330
1A
100
AcDbEntity
  8
ZUWAKU
100
AcDbLine
 10
32.07110607739059
 20
4.974999999999994
 30
0.0
 11
32.07110607739059
 21
11.36249999999999
 31
0.0
  0
LINE
  5
1261
330
1A
100
AcDbEntity
  8
ZUWAKU
100
AcDbLine
 10
39.56331477399419
 20
15.0
 30
0.0
 11
39.56331477399419
 21
0.4000000000000341
 31
0.0
  0
LINE
  5
1262
330
1A
100
AcDbEntity
  8
ZUWAKU
100
AcDbLine
 10
39.76331477399412
 20
15.0
 30
0.0
 11
39.76331477399424
 21
0.4000000000000341
 31
0.0
  0
LINE
  5
1263
330
1A
100
AcDbEntity
  8
ZUWAKU
100
AcDbLine
 10
39.6633147739941
 20
15.0
 30
0.0
 11
39.66331477399421
 21
0.4000000000000341
 31
0.0
  0
LINE
  5
1264
330
1A
100
AcDbEntity
  8
ZUWAKU
100
AcDbLine
 10
6.261181836898799
 20
7.832474746830598
 30
0.0
 11
7.716080824221137
 21
6.37757575950826
 31
0.0
  0
LINE
  5
1265
330
1A
100
AcDbEntity
  8
ZUWAKU
100
AcDbLine
 10
8.706030317882323
 20
7.367525253169418
 30
0.0
 11
7.251131330559985
 21
8.822424240491756
 31
0.0
  0
LINE
  5
1266
330
1A
100
AcDbEntity
  8
ZUWAKU
100
AcDbLine
 10
10.37110607739055
 20
5.675000000000011
 30
0.0
 11
10.37110607739055
 21
9.524999999999977
 31
0.0
  0
LINE
  5
1267
330
1A
100
AcDbEntity
  8
ZUWAKU
100
AcDbLine
 10
11.77110607739058
 20
9.525000000000005
 30
0.0
 11
11.77110607739058
 21
5.675000000000011
 31
0.0
  0
CIRCLE
  5
1268
330
1A
100
AcDbEntity
  8
ZUWAKU
100
AcDbCircle
 10
12.99610607739055
 20
7.599999999999994
 30
0.0
 40
0.875
  0
INSERT
  5
1269
330
1A
100
AcDbEntity
  8
ZUWAKU
  6
CONTINUOUS
100
AcDbBlockReference
  2
*X17
 10
0.0
 20
0.0
 30
0.0
1001
ACAD
1000
HATCH
1002
{
1070
    19
1000
ANSI37
1040
0.1
1040
0.0
1000
R14_HATCH_DATA
1000
1269
1011
1.0
1021
0.0
1031
0.0
1011
0.0
1021
1.0
1031
0.0
1011
0.0
1021
0.0
1031
1.0
1040
0.0
1010
0.0
1020
0.0
1030
1.0
1000
ANSI37
1070
     0
1070
     0
1071
        8
1071
        7
1070
     1
1070
     1
1071
       24
1040
7.251131330559928
1040
8.822424240491784
1040
-0.1989123673796348
1040
7.046106077390561
1040
9.31739898732232
1040
0.0
1040
7.046106077390561
1040
9.962500000000005
1040
-0.4142135623730912
1040
7.30860607739055
1040
10.22499999999999
1040
0.0
1040
8.796106077390504
1040
10.22499999999999
1040
0.4142135623731546
1040
9.05860607739055
1040
10.48749999999999
1040
0.0
1040
9.05860607739055
1040
11.36250000000001
1040
0.4142135623731586
1040
8.796106077390504
1040
11.625
1040
0.0
1040
7.046106077390561
1040
11.625
1040
0.4142135623730928
1040
5.646106077390584
1040
10.22500000000002
1040
0.0
1040
5.646106077390584
1040
9.317398987322377
1040
0.1989123673796619
1040
6.261181836898799
1040
7.83247474683057
1040
0.0
1040
7.716080824221137
1040
6.377575759508246
1040
-0.1989123673796613
1040
7.921106077390561
1040
5.882601012677653
1040
0.0
1040
7.921106077390561
1040
5.237499999999997
1040
-0.4142135623730911
1040
7.658606077390572
1040
4.974999999999994
1040
0.0
1040
6.171106077390618
1040
4.974999999999994
1040
0.4142135623731526
1040
5.908606077390572
1040
4.712500000000005
1040
0.0
1040
5.908606077390572
1040
3.837499999999998
1040
0.4142135623731526
1040
6.171106077390618
1040
3.575000000000002
1040
0.0
1040
7.921106077390561
1040
3.575000000000002
1040
0.4142135623731044
1040
9.321106077390595
1040
4.974999999999994
1040
0.0
1040
9.321106077390595
1040
5.882601012677625
1040
0.1989123673796604
1040
8.706030317882323
1040
7.367525253169389
1040
0.0
1071
        0
1071
        7
1070
     1
1070
     1
1071
       16
1040
11.77110607739058
1040
9.525000000000005
1040
-0.4142135623730935
1040
12.47110607739057
1040
10.22499999999999
1040
0.0
1040
13.43360607739055
1040
10.22499999999999
1040
0.4142135623731546
1040
13.69610607739059
1040
10.48749999999999
1040
0.0
1040
13.69610607739059
1040
11.36250000000001
1040
0.4142135623730951
1040
13.4336060773906
1040
11.625
1040
0.0
1040
12.47110607739051
1040
11.62499999999998
1040
0.4142135623730892
1040
10.37110607739055
1040
9.524999999999977
1040
0.0
1040
10.37110607739055
1040
5.675000000000011
1040
0.4142135623730969
1040
12.47110607739057
1040
3.575000000000002
1040
0.0
1040
13.43360607739055
1040
3.575000000000002
1040
0.4142135623731526
1040
13.69610607739059
1040
3.837499999999998
1040
0.0
1040
13.69610607739059
1040
4.712500000000005
1040
0.4142135623730891
1040
13.4336060773906
1040
4.974999999999994
1040
0.0
1040
12.47110607739057
1040
4.974999999999994
1040
-0.4142135623730928
1040
11.77110607739058
1040
5.674999999999997
1040
0.0
1071
        0
1071
        7
1070
     1
1070
     1
1071
        2
1040
12.12110607739055
1040
7.599999999999994
1040
1.0
1040
13.87110607739055
1040
7.599999999999994
1040
1.0
1071
        0
1071
        7
1070
     1
1070
     1
1071
       26
1040
18.65742931847955
1040
9.602523596781708
1040
0.0
1040
19.18824913504846
1040
11.2834530159165
1040
0.5069206636600134
1040
18.93793368545078
1040
11.625
1040
0.0
1040
18.08848899564617
1040
11.625
1040
0.3272098845218764
1040
17.83817354604849
1040
11.44154698408348
1040
0.0
1040
16.9040386087326
1040
8.483453015916538
1040
-0.3272098845219541
1040
16.65372315913487
1040
8.299999999999997
1040
0.0
1040
16.58360607739064
1040
8.299999999999997
1040
-0.4142135623731526
1040
16.32110607739059
1040
8.5625
1040
0.0
1040
16.32110607739059
1040
11.36250000000001
1040
0.4142135623730951
1040
16.0586060773906
1040
11.625
1040
0.0
1040
15.18360607739055
1040
11.625
1040
0.4142135623730871
1040
14.92110607739056
1040
11.36250000000001
1040
0.0
1040
14.92110607739056
1040
3.837499999999998
1040
0.4142135623730891
1040
15.18360607739055
1040
3.575000000000002
1040
0.0
1040
16.05860607739055
1040
3.575000000000002
1040
0.4142135623731526
1040
16.32110607739059
1040
3.837499999999998
1040
0.0
1040
16.32110607739059
1040
6.637500000000002
1040
-0.4142135623731526
1040
16.58360607739064
1040
6.900000000000005
1040
0.0
1040
16.65372315913492
1040
6.900000000000005
1040
-0.3272098845218915
1040
16.9040386087326
1040
6.716546984083464
1040
0.0
1040
17.83817354604849
1040
3.758453015916536
1040
0.3272098845218902
1040
18.08848899564617
1040
3.575000000000002
1040
0.0
1040
18.93793368545078
1040
3.575000000000002
1040
0.5069206636600335
1040
19.18824913504846
1040
3.91654698408351
1040
0.0
1040
18.02505344581163
1040
7.600000000000065
1040
0.0
1071
        0
1071
        7
1070
     1
1070
     1
1071
        8
1040
21.74610607739055
1040
11.36250000000001
1040
0.4142135623731546
1040
21.4836060773905
1040
11.625
1040
0.0
1040
20.60860607739062
1040
11.625
1040
0.4142135623731507
1040
20.34610607739057
1040
11.36250000000001
1040
0.0
1040
20.34610607739057
1040
3.837499999999998
1040
0.4142135623731526
1040
20.60860607739062
1040
3.575000000000002
1040
0.0
1040
21.4836060773905
1040
3.575000000000002
1040
0.4142135623731526
1040
21.74610607739055
1040
3.837499999999998
1040
0.0
1071
        0
1071
        7
1070
     1
1070
     1
1071
       24
1040
24.19610607739059
1040
9.962500000000005
1040
-0.4142135623731546
1040
24.45860607739064
1040
10.22499999999999
1040
0.0
1040
25.94610607739059
1040
10.22499999999999
1040
0.4142135623730911
1040
26.20860607739058
1040
10.48749999999999
1040
0.0
1040
26.20860607739058
1040
11.36250000000001
1040
0.4142135623730952
1040
25.94610607739059
1040
11.625
1040
0.0
1040
24.19610607739059
1040
11.625
1040
0.4142135623731048
1040
22.79610607739056
1040
10.22500000000002
1040
0.0
1040
22.79610607739056
1040
9.317398987322377
1040
0.1989123673796613
1040
23.41118183689883
1040
7.832474746830598
1040
0.0
1040
24.86608082422117
1040
6.377575759508275
1040
-0.1989123673796402
1040
25.07110607739059
1040
5.882601012677739
1040
0.0
1040
25.07110607739059
1040
5.237499999999997
1040
-0.4142135623730911
1040
24.8086060773906
1040
4.974999999999994
1040
0.0
1040
23.32110607739059
1040
4.974999999999994
1040
0.4142135623731526
1040
23.05860607739055
1040
4.712500000000005
1040
0.0
1040
23.05860607739055
1040
3.837499999999998
1040
0.4142135623730891
1040
23.32110607739053
1040
3.575000000000002
1040
0.0
1040
25.07110607739059
1040
3.575000000000002
1040
0.4142135623730925
1040
26.47110607739057
1040
4.974999999999994
1040
0.0
1040
26.47110607739057
1040
5.882601012677625
1040
0.1989123673796675
1040
25.8560303178823
1040
7.367525253169446
1040
0.0
1040
24.40113133056001
1040
8.822424240491713
1040
-0.1989123673796652
1040
24.19610607739059
1040
9.317398987322292
1040
0.0
1071
        0
1071
        7
1070
     1
1070
     1
1071
       16
1040
28.92110607739056
1040
11.36249999999999
1040
0.414213562373103
1040
28.65860607739057
1040
11.625
1040
0.0
1040
27.78360607739057
1040
11.625
1040
0.4142135623730871
1040
27.52110607739058
1040
11.36250000000001
1040
0.0
1040
27.52110607739058
1040
4.974999999999994
1040
0.4142135623730926
1040
28.92110607739056
1040
3.575000000000002
1040
0.0
1040
30.67110607739056
1040
3.575000000000002
1040
0.4142135623731044
1040
32.07110607739059
1040
4.974999999999994
1040
0.0
1040
32.07110607739059
1040
11.36250000000001
1040
0.4142135623730951
1040
31.8086060773906
1040
11.625
1040
0.0
1040
30.93360607739055
1040
11.625
1040
0.4142135623730871
1040
30.67110607739056
1040
11.36250000000001
1040
0.0
1040
30.67110607739056
1040
5.499999999999985
1040
-0.414213562373088
1040
30.14610607739058
1040
4.974999999999994
1040
0.0
1040
29.44610607739059
1040
4.974999999999994
1040
-0.4142135623731197
1040
28.92110607739056
1040
5.499999999999985
1040
0.0
1071
        0
1071
        7
1070
     1
1070
     1
1071
        8
1040
34.52110607739058
1040
11.36250000000001
1040
0.4142135623730871
1040
34.25860607739059
1040
11.625
1040
0.0
1040
33.38360607739059
1040
11.625
1040
0.4142135623731507
1040
33.12110607739055
1040
11.36250000000001
1040
0.0
1040
33.12110607739055
1040
3.837499999999998
1040
0.4142135623730891
1040
33.38360607739053
1040
3.575000000000002
1040
0.0
1040
34.25860607739059
1040
3.575000000000002
1040
0.4142135623730891
1040
34.52110607739058
1040
3.837499999999998
1040
0.0
1071
        0
1070
     0
1070
     1
1040
0.0
1040
0.1
1070
     0
1070
     2
1040
0.7853981633974483
1040
-450.4711521673394
1040
-6.599999999999965
1040
-0.2245064030267288
1040
0.2245064030267288
1070
     0
1040
2.356194490192344
1040
-450.4711521673394
1040
-6.599999999999965
1040
-0.2245064030267288
1040
-0.2245064030267288
1070
     0
1040
0.057451373970553
1071
        8
1040
8.039927481511654
1040
7.583586822942777
1040
0.0
1040
11.20225750321958
1040
9.422031091225505
1040
0.0
1040
12.58218394282982
1040
7.755940823035359
1040
0.0
1040
15.45702999081856
1040
8.100648823220751
1040
0.0
1040
20.91923600947836
1040
8.330454956991559
1040
0.0
1040
23.44910044756477
1040
9.709288158203605
1040
0.0
1040
28.27884298620017
1040
9.364578957547507
1040
0.0
1040
33.91353980981136
1040
9.594385091318315
1040
0.0
1002
}
  0
TEXT
  5
126A
330
1A
100
AcDbEntity
  8
MOJI
100
AcDbText
 10
46.47889479408457
 20
6.37058906513738
 30
0.0
 40
3.0
  1
アートフェイスＴ１２０
 41
0.9
  7
ｽﾀｲﾙ1
100
AcDbText
  0
ARC
  5
126B
330
1A
100
AcDbEntity
  8
ZUWAKU
100
AcDbCircle
 10
21.48360607739056
 20
3.837500000000005
 30
0.0
 40
0.2625
100
AcDbArc
 50
270.0
 51
0.0
  0
ARC
  5
126C
330
1A
100
AcDbEntity
  8
ZUWAKU
100
AcDbCircle
 10
7.921106077390561
 20
4.974999999999994
 30
0.0
 40
1.399999999999999
100
AcDbArc
 50
270.0
 51
0.0
  0
LINE
  5
126D
330
1A
100
AcDbEntity
  8
ZUWAKU
100
AcDbLine
 10
6.171106077390561
 20
4.974999999999994
 30
0.0
 11
7.658606077390572
 21
4.974999999999994
 31
0.0
  0
LINE
  5
126E
330
1A
100
AcDbEntity
  8
ZUWAKU
100
AcDbLine
 10
6.171106077390561
 20
3.575000000000002
 30
0.0
 11
7.921106077390561
 21
3.575000000000002
 31
0.0
  0
ARC
  5
126F
330
1A
100
AcDbEntity
  8
ZUWAKU
100
AcDbCircle
 10
6.171106077390561
 20
4.712500000000005
 30
0.0
 40
0.2625
100
AcDbArc
 50
90.0
 51
180.0
  0
ARC
  5
1270
330
1A
100
AcDbEntity
  8
ZUWAKU
100
AcDbCircle
 10
6.171106077390561
 20
3.837500000000005
 30
0.0
 40
0.2625
100
AcDbArc
 50
180.0
 51
270.0
  0
LINE
  5
1271
330
1A
100
AcDbEntity
  8
ZUWAKU
100
AcDbLine
 10
5.908606077390572
 20
3.837500000000005
 30
0.0
 11
5.908606077390572
 21
4.712500000000005
 31
0.0
  0
ARC
  5
1272
330
1A
100
AcDbEntity
  8
ZUWAKU
100
AcDbCircle
 10
7.221106077390572
 20
5.882601012677667
 30
0.0
 40
0.7
100
AcDbArc
 50
0.0
 51
44.99999999999971
  0
ARC
  5
1273
330
1A
100
AcDbEntity
  8
ZUWAKU
100
AcDbCircle
 10
7.658606077390572
 20
5.237500000000011
 30
0.0
 40
0.2625
100
AcDbArc
 50
270.0
 51
0.0
  0
LINE
  5
1274
330
1A
100
AcDbEntity
  8
ZUWAKU
100
AcDbLine
 10
7.921106077390561
 20
5.237500000000011
 30
0.0
 11
7.921106077390561
 21
5.882601012677667
 31
0.0
  0
ARC
  5
1275
330
1A
100
AcDbEntity
  8
ZUWAKU
100
AcDbCircle
 10
13.43360607739055
 20
4.712500000000005
 30
0.0
 40
0.2625
100
AcDbArc
 50
0.0
 51
90.0
  0
ARC
  5
1276
330
1A
100
AcDbEntity
  8
ZUWAKU
100
AcDbCircle
 10
13.43360607739055
 20
3.837500000000005
 30
0.0
 40
0.2625
100
AcDbArc
 50
270.0
 51
0.0
  0
LINE
  5
1277
330
1A
100
AcDbEntity
  8
ZUWAKU
100
AcDbLine
 10
13.69610607739059
 20
4.712500000000005
 30
0.0
 11
13.69610607739059
 21
3.837500000000005
 31
0.0
  0
ARC
  5
1278
330
1A
100
AcDbEntity
  8
ZUWAKU
100
AcDbCircle
 10
12.47110607739057
 20
5.675000000000011
 30
0.0
 40
0.7
100
AcDbArc
 50
180.0
 51
270.0
  0
LINE
  5
1279
330
1A
100
AcDbEntity
  8
ZUWAKU
100
AcDbLine
 10
9.321106077390595
 20
4.974999999999994
 30
0.0
 11
9.321106077390595
 21
5.882601012677667
 31
0.0
  0
ARC
  5
127A
330
1A
100
AcDbEntity
  8
ZUWAKU
100
AcDbCircle
 10
7.221106077390572
 20
5.882601012677653
 30
0.0
 40
2.099999999999999
100
AcDbArc
 50
0.0
 51
44.99999999999971
  0
ARC
  5
127B
330
1A
100
AcDbEntity
  8
ZUWAKU
100
AcDbCircle
 10
12.47110607739057
 20
5.675000000000011
 30
0.0
 40
2.099999999999999
100
AcDbArc
 50
180.0
 51
270.0
  0
LINE
  5
127C
330
1A
100
AcDbEntity
  8
ZUWAKU
100
AcDbLine
 10
13.43360607739055
 20
3.575000000000002
 30
0.0
 11
12.47110607739057
 21
3.575000000000002
 31
0.0
  0
LINE
  5
127D
330
1A
100
AcDbEntity
  8
ZUWAKU
100
AcDbLine
 10
12.47110607739057
 20
4.974999999999994
 30
0.0
 11
13.43360607739055
 21
4.974999999999994
 31
0.0
  0
ARC
  5
127E
330
1A
100
AcDbEntity
  8
ZUWAKU
100
AcDbCircle
 10
18.08848899564623
 20
3.837500000000005
 30
0.0
 40
0.2625
100
AcDbArc
 50
197.525568373723
 51
270.0
  0
ARC
  5
127F
330
1A
100
AcDbEntity
  8
ZUWAKU
100
AcDbCircle
 10
18.93793368545073
 20
3.837500000000005
 30
0.0
 40
0.2625
100
AcDbArc
 50
270.0
 51
17.52556837372303
  0
LINE
  5
1280
330
1A
100
AcDbEntity
  8
ZUWAKU
100
AcDbLine
 10
18.08848899564623
 20
3.575000000000002
 30
0.0
 11
18.93793368545073
 21
3.575000000000002
 31
0.0
  0
ARC
  5
1281
330
1A
100
AcDbEntity
  8
ZUWAKU
100
AcDbCircle
 10
20.60860607739056
 20
3.837500000000005
 30
0.0
 40
0.2625
100
AcDbArc
 50
180.0
 51
270.0
  0
ARC
  5
1282
330
1A
100
AcDbEntity
  8
ZUWAKU
100
AcDbCircle
 10
16.58360607739058
 20
6.637500000000002
 30
0.0
 40
0.2625
100
AcDbArc
 50
90.0
 51
180.0
  0
ARC
  5
1283
330
1A
100
AcDbEntity
  8
ZUWAKU
100
AcDbCircle
 10
16.65372315913492
 20
6.637500000000002
 30
0.0
 40
0.2625
100
AcDbArc
 50
17.52556837372303
 51
90.0
  0
ARC
  5
1284
330
1A
100
AcDbEntity
  8
ZUWAKU
100
AcDbCircle
 10
15.18360607739055
 20
3.837500000000005
 30
0.0
 40
0.2625
100
AcDbArc
 50
180.0
 51
270.0
  0
LINE
  5
1285
330
1A
100
AcDbEntity
  8
ZUWAKU
100
AcDbLine
 10
16.32110607739059
 20
3.837500000000005
 30
0.0
 11
16.32110607739059
 21
6.637500000000002
 31
0.0
  0
ARC
  5
1286
330
1A
100
AcDbEntity
  8
ZUWAKU
100
AcDbCircle
 10
16.05860607739055
 20
3.837500000000005
 30
0.0
 40
0.2625
100
AcDbArc
 50
270.0
 51
0.0
  0
LINE
  5
1287
330
1A
100
AcDbEntity
  8
ZUWAKU
100
AcDbLine
 10
15.18360607739055
 20
3.575000000000002
 30
0.0
 11
16.05860607739055
 21
3.575000000000002
 31
0.0
  0
LINE
  5
1288
330
1A
100
AcDbEntity
  8
ZUWAKU
100
AcDbLine
 10
16.58360607739058
 20
6.900000000000005
 30
0.0
 11
16.65372315913492
 21
6.900000000000005
 31
0.0
  0
LINE
  5
1289
330
1A
100
AcDbEntity
  8
ZUWAKU
100
AcDbLine
 10
17.83817354604849
 20
3.758453015916515
 30
0.0
 11
16.9040386087326
 21
6.716546984083493
 31
0.0
  0
LINE
  5
128A
330
1A
100
AcDbEntity
  8
ZUWAKU
100
AcDbLine
 10
20.60860607739056
 20
3.575000000000002
 30
0.0
 11
21.48360607739056
 21
3.575000000000002
 31
0.0
  0
ARC
  5
128B
330
1A
100
AcDbEntity
  8
ZUWAKU
100
AcDbCircle
 10
28.92110607739056
 20
4.974999999999994
 30
0.0
 40
1.399999999999999
100
AcDbArc
 50
180.0
 51
270.0
  0
ARC
  5
128C
330
1A
100
AcDbEntity
  8
ZUWAKU
100
AcDbCircle
 10
24.37110607739055
 20
5.882601012677653
 30
0.0
 40
2.099999999999999
100
AcDbArc
 50
0.0
 51
44.99999999999971
  0
LINE
  5
128D
330
1A
100
AcDbEntity
  8
ZUWAKU
100
AcDbLine
 10
26.47110607739057
 20
4.974999999999994
 30
0.0
 11
26.47110607739057
 21
5.882601012677667
 31
0.0
  0
LINE
  5
128E
330
1A
100
AcDbEntity
  8
ZUWAKU
100
AcDbLine
 10
23.32110607739059
 20
3.575000000000002
 30
0.0
 11
25.07110607739059
 21
3.575000000000002
 31
0.0
  0
LINE
  5
128F
330
1A
100
AcDbEntity
  8
ZUWAKU
100
AcDbLine
 10
23.32110607739059
 20
4.974999999999994
 30
0.0
 11
24.80860607739055
 21
4.974999999999994
 31
0.0
  0
ARC
  5
1290
330
1A
100
AcDbEntity
  8
ZUWAKU
100
AcDbCircle
 10
23.32110607739059
 20
4.712500000000005
 30
0.0
 40
0.2625
100
AcDbArc
 50
90.0
 51
180.0
  0
ARC
  5
1291
330
1A
100
AcDbEntity
  8
ZUWAKU
100
AcDbCircle
 10
23.32110607739059
 20
3.837500000000005
 30
0.0
 40
0.2625
100
AcDbArc
 50
180.0
 51
270.0
  0
LINE
  5
1292
330
1A
100
AcDbEntity
  8
ZUWAKU
100
AcDbLine
 10
23.05860607739055
 20
3.837500000000005
 30
0.0
 11
23.05860607739055
 21
4.712500000000005
 31
0.0
  0
ARC
  5
1293
330
1A
100
AcDbEntity
  8
ZUWAKU
100
AcDbCircle
 10
24.80860607739055
 20
5.237500000000011
 30
0.0
 40
0.2625
100
AcDbArc
 50
270.0
 51
0.0
  0
ARC
  5
1294
330
1A
100
AcDbEntity
  8
ZUWAKU
100
AcDbCircle
 10
24.37110607739055
 20
5.882601012677667
 30
0.0
 40
0.7
100
AcDbArc
 50
0.0
 51
44.99999999999971
  0
LINE
  5
1295
330
1A
100
AcDbEntity
  8
ZUWAKU
100
AcDbLine
 10
25.07110607739059
 20
5.237500000000011
 30
0.0
 11
25.07110607739059
 21
5.882601012677667
 31
0.0
  0
ARC
  5
1296
330
1A
100
AcDbEntity
  8
ZUWAKU
100
AcDbCircle
 10
25.07110607739059
 20
4.974999999999994
 30
0.0
 40
1.399999999999999
100
AcDbArc
 50
270.0
 51
0.0
  0
ARC
  5
1297
330
1A
100
AcDbEntity
  8
ZUWAKU
100
AcDbCircle
 10
34.25860607739059
 20
3.837500000000005
 30
0.0
 40
0.2625
100
AcDbArc
 50
270.0
 51
0.0
  0
ARC
  5
1298
330
1A
100
AcDbEntity
  8
ZUWAKU
100
AcDbCircle
 10
30.14610607739058
 20
5.5
 30
0.0
 40
0.525
100
AcDbArc
 50
270.0
 51
0.0
  0
ARC
  5
1299
330
1A
100
AcDbEntity
  8
ZUWAKU
100
AcDbCircle
 10
33.38360607739059
 20
3.837500000000005
 30
0.0
 40
0.2625
100
AcDbArc
 50
180.0
 51
270.0
  0
LINE
  5
129A
330
1A
100
AcDbEntity
  8
ZUWAKU
100
AcDbLine
 10
33.38360607739059
 20
3.575000000000002
 30
0.0
 11
34.25860607739059
 21
3.575000000000002
 31
0.0
  0
ARC
  5
129B
330
1A
100
AcDbEntity
  8
ZUWAKU
100
AcDbCircle
 10
30.67110607739056
 20
4.974999999999994
 30
0.0
 40
1.399999999999999
100
AcDbArc
 50
270.0
 51
0.0
  0
ARC
  5
129C
330
1A
100
AcDbEntity
  8
ZUWAKU
100
AcDbCircle
 10
29.44610607739059
 20
5.5
 30
0.0
 40
0.525
100
AcDbArc
 50
180.0
 51
270.0
  0
LINE
  5
129D
330
1A
100
AcDbEntity
  8
ZUWAKU
100
AcDbLine
 10
28.92110607739056
 20
3.575000000000002
 30
0.0
 11
30.67110607739056
 21
3.575000000000002
 31
0.0
  0
LINE
  5
129E
330
1A
100
AcDbEntity
  8
ZUWAKU
100
AcDbLine
 10
30.14610607739058
 20
4.974999999999994
 30
0.0
 11
29.44610607739059
 21
4.974999999999994
 31
0.0
  0
TEXT
  5
129F
330
1A
100
AcDbEntity
  8
ZUWAKU
100
AcDbText
 10
104.8620231561387
 20
4.827678269192801
 30
0.0
 40
2.0
  1
サイズ
 41
0.9
  7
ｽﾀｲﾙ1
100
AcDbText
  0
ARC
  5
12A0
330
1A
100
AcDbEntity
  8
ZUWAKU
100
AcDbCircle
 10
21.48360607739056
 20
11.36249999999999
 30
0.0
 40
0.2625
100
AcDbArc
 50
0.0
 51
90.0
  0
LINE
  5
12A1
330
1A
100
AcDbEntity
  8
ZUWAKU
100
AcDbLine
 10
8.796106077390561
 20
10.22499999999999
 30
0.0
 11
7.30860607739055
 21
10.22499999999999
 31
0.0
  0
LINE
  5
12A2
330
1A
100
AcDbEntity
  8
ZUWAKU
100
AcDbLine
 10
7.046106077390561
 20
11.625
 30
0.0
 11
8.796106077390561
 21
11.625
 31
0.0
  0
ARC
  5
12A3
330
1A
100
AcDbEntity
  8
ZUWAKU
100
AcDbCircle
 10
7.046106077390561
 20
10.22499999999999
 30
0.0
 40
1.399999999999999
100
AcDbArc
 50
90.0
 51
180.0
  0
LINE
  5
12A4
330
1A
100
AcDbEntity
  8
ZUWAKU
100
AcDbLine
 10
5.646106077390584
 20
10.22499999999999
 30
0.0
 11
5.646106077390584
 21
9.317398987322334
 31
0.0
  0
LINE
  5
12A5
330
1A
100
AcDbEntity
  8
ZUWAKU
100
AcDbLine
 10
7.046106077390561
 20
9.962500000000005
 30
0.0
 11
7.046106077390561
 21
9.317398987322334
 31
0.0
  0
ARC
  5
12A6
330
1A
100
AcDbEntity
  8
ZUWAKU
100
AcDbCircle
 10
7.30860607739055
 20
9.962500000000005
 30
0.0
 40
0.2625
100
AcDbArc
 50
90.0
 51
180.0
  0
ARC
  5
12A7
330
1A
100
AcDbEntity
  8
ZUWAKU
100
AcDbCircle
 10
7.74610607739055
 20
9.317398987322349
 30
0.0
 40
2.099999999999999
100
AcDbArc
 50
180.0
 51
224.9999999999997
  0
ARC
  5
12A8
330
1A
100
AcDbEntity
  8
ZUWAKU
100
AcDbCircle
 10
7.74610607739055
 20
9.317398987322349
 30
0.0
 40
0.7
100
AcDbArc
 50
180.0000000000016
 51
224.9999999999991
  0
LINE
  5
12A9
330
1A
100
AcDbEntity
  8
ZUWAKU
100
AcDbLine
 10
13.69610607739059
 20
11.36249999999999
 30
0.0
 11
13.69610607739059
 21
10.48749999999999
 31
0.0
  0
ARC
  5
12AA
330
1A
100
AcDbEntity
  8
ZUWAKU
100
AcDbCircle
 10
13.43360607739055
 20
10.48749999999999
 30
0.0
 40
0.2625
100
AcDbArc
 50
270.0
 51
0.0
  0
ARC
  5
12AB
330
1A
100
AcDbEntity
  8
ZUWAKU
100
AcDbCircle
 10
13.43360607739055
 20
11.36249999999999
 30
0.0
 40
0.2625
100
AcDbArc
 50
0.0
 51
90.0
  0
ARC
  5
12AC
330
1A
100
AcDbEntity
  8
ZUWAKU
100
AcDbCircle
 10
12.47110607739057
 20
9.524999999999977
 30
0.0
 40
2.099999999999999
100
AcDbArc
 50
90.0
 51
180.0
  0
ARC
  5
12AD
330
1A
100
AcDbEntity
  8
ZUWAKU
100
AcDbCircle
 10
12.47110607739057
 20
9.525000000000005
 30
0.0
 40
0.7
100
AcDbArc
 50
90.0
 51
180.0
  0
LINE
  5
12AE
330
1A
100
AcDbEntity
  8
ZUWAKU
100
AcDbLine
 10
9.05860607739055
 20
11.36249999999999
 30
0.0
 11
9.05860607739055
 21
10.48749999999999
 31
0.0
  0
ARC
  5
12AF
330
1A
100
AcDbEntity
  8
ZUWAKU
100
AcDbCircle
 10
8.796106077390561
 20
10.48749999999999
 30
0.0
 40
0.2625
100
AcDbArc
 50
270.0
 51
0.0
  0
ARC
  5
12B0
330
1A
100
AcDbEntity
  8
ZUWAKU
100
AcDbCircle
 10
8.796106077390561
 20
11.36249999999999
 30
0.0
 40
0.2625
100
AcDbArc
 50
0.0
 51
90.0
  0
LINE
  5
12B1
330
1A
100
AcDbEntity
  8
ZUWAKU
100
AcDbLine
 10
13.43360607739055
 20
10.22499999999999
 30
0.0
 11
12.47110607739057
 21
10.22499999999999
 31
0.0
  0
LINE
  5
12B2
330
1A
100
AcDbEntity
  8
ZUWAKU
100
AcDbLine
 10
12.47110607739057
 20
11.62499999999998
 30
0.0
 11
13.43360607739055
 21
11.625
 31
0.0
  0
ARC
  5
12B3
330
1A
100
AcDbEntity
  8
ZUWAKU
100
AcDbCircle
 10
18.08848899564623
 20
11.36249999999999
 30
0.0
 40
0.2625
100
AcDbArc
 50
90.0
 51
162.4744316262769
  0
LINE
  5
12B4
330
1A
100
AcDbEntity
  8
ZUWAKU
100
AcDbLine
 10
19.18824913504846
 20
11.28345301591652
 30
0.0
 11
18.65742931847955
 21
9.602523596781708
 31
0.0
  0
ARC
  5
12B5
330
1A
100
AcDbEntity
  8
ZUWAKU
100
AcDbCircle
 10
18.93793368545073
 20
11.36249999999999
 30
0.0
 40
0.2625
100
AcDbArc
 50
342.4744316262769
 51
90.0
  0
LINE
  5
12B6
330
1A
100
AcDbEntity
  8
ZUWAKU
100
AcDbLine
 10
18.08848899564623
 20
11.625
 30
0.0
 11
18.93793368545073
 21
11.625
 31
0.0
  0
ARC
  5
12B7
330
1A
100
AcDbEntity
  8
ZUWAKU
100
AcDbCircle
 10
20.60860607739056
 20
11.36249999999999
 30
0.0
 40
0.2625
100
AcDbArc
 50
90.0
 51
180.0
  0
ARC
  5
12B8
330
1A
100
AcDbEntity
  8
ZUWAKU
100
AcDbCircle
 10
15.18360607739055
 20
11.36249999999999
 30
0.0
 40
0.2625
100
AcDbArc
 50
90.0
 51
180.0
  0
LINE
  5
12B9
330
1A
100
AcDbEntity
  8
ZUWAKU
100
AcDbLine
 10
16.05860607739055
 20
11.625
 30
0.0
 11
15.18360607739055
 21
11.625
 31
0.0
  0
ARC
  5
12BA
330
1A
100
AcDbEntity
  8
ZUWAKU
100
AcDbCircle
 10
16.05860607739055
 20
11.36249999999999
 30
0.0
 40
0.2625
100
AcDbArc
 50
0.0
 51
90.0
  0
LINE
  5
12BB
330
1A
100
AcDbEntity
  8
ZUWAKU
100
AcDbLine
 10
21.48360607739056
 20
11.625
 30
0.0
 11
20.60860607739056
 21
11.625
 31
0.0
  0
ARC
  5
12BC
330
1A
100
AcDbEntity
  8
ZUWAKU
100
AcDbCircle
 10
16.58360607739058
 20
8.5625
 30
0.0
 40
0.2625
100
AcDbArc
 50
180.0
 51
270.0
  0
LINE
  5
12BD
330
1A
100
AcDbEntity
  8
ZUWAKU
100
AcDbLine
 10
16.65372315913492
 20
8.299999999999997
 30
0.0
 11
16.58360607739058
 21
8.299999999999997
 31
0.0
  0
ARC
  5
12BE
330
1A
100
AcDbEntity
  8
ZUWAKU
100
AcDbCircle
 10
16.65372315913492
 20
8.5625
 30
0.0
 40
0.2625
100
AcDbArc
 50
270.0
 51
342.4744316262769
  0
LINE
  5
12BF
330
1A
100
AcDbEntity
  8
ZUWAKU
100
AcDbLine
 10
17.83817354604849
 20
11.44154698408348
 30
0.0
 11
16.9040386087326
 21
8.483453015916524
 31
0.0
  0
LINE
  5
12C0
330
1A
100
AcDbEntity
  8
ZUWAKU
100
AcDbLine
 10
16.32110607739059
 20
8.5625
 30
0.0
 11
16.32110607739059
 21
11.36249999999999
 31
0.0
  0
LINE
  5
12C1
330
1A
100
AcDbEntity
  8
ZUWAKU
100
AcDbLine
 10
18.65742931847955
 20
9.602523596781708
 30
0.0
 11
18.02505344581163
 21
7.600000000000008
 31
0.0
  0
LINE
  5
12C2
330
1A
100
AcDbEntity
  8
ZUWAKU
100
AcDbLine
 10
28.65860607739057
 20
11.625
 30
0.0
 11
27.78360607739057
 21
11.625
 31
0.0
  0
LINE
  5
12C3
330
1A
100
AcDbEntity
  8
ZUWAKU
100
AcDbLine
 10
26.20860607739058
 20
11.36249999999999
 30
0.0
 11
26.20860607739058
 21
10.48749999999999
 31
0.0
  0
ARC
  5
12C4
330
1A
100
AcDbEntity
  8
ZUWAKU
100
AcDbCircle
 10
25.94610607739059
 20
10.48749999999999
 30
0.0
 40
0.2625
100
AcDbArc
 50
270.0
 51
0.0
  0
ARC
  5
12C5
330
1A
100
AcDbEntity
  8
ZUWAKU
100
AcDbCircle
 10
25.94610607739059
 20
11.36249999999999
 30
0.0
 40
0.2625
100
AcDbArc
 50
0.0
 51
90.0
  0
ARC
  5
12C6
330
1A
100
AcDbEntity
  8
ZUWAKU
100
AcDbCircle
 10
27.78360607739057
 20
11.36249999999999
 30
0.0
 40
0.2625
100
AcDbArc
 50
90.0
 51
180.0
  0
ARC
  5
12C7
330
1A
100
AcDbEntity
  8
ZUWAKU
100
AcDbCircle
 10
24.19610607739059
 20
10.22499999999999
 30
0.0
 40
1.399999999999999
100
AcDbArc
 50
90.0
 51
180.0
  0
LINE
  5
12C8
330
1A
100
AcDbEntity
  8
ZUWAKU
100
AcDbLine
 10
22.79610607739056
 20
10.22499999999999
 30
0.0
 11
22.79610607739056
 21
9.317398987322334
 31
0.0
  0
LINE
  5
12C9
330
1A
100
AcDbEntity
  8
ZUWAKU
100
AcDbLine
 10
24.19610607739059
 20
9.962500000000005
 30
0.0
 11
24.19610607739059
 21
9.317398987322334
 31
0.0
  0
ARC
  5
12CA
330
1A
100
AcDbEntity
  8
ZUWAKU
100
AcDbCircle
 10
24.45860607739058
 20
9.962500000000005
 30
0.0
 40
0.2625
100
AcDbArc
 50
90.0
 51
180.0
  0
LINE
  5
12CB
330
1A
100
AcDbEntity
  8
ZUWAKU
100
AcDbLine
 10
25.94610607739059
 20
10.22499999999999
 30
0.0
 11
24.45860607739058
 21
10.22499999999999
 31
0.0
  0
LINE
  5
12CC
330
1A
100
AcDbEntity
  8
ZUWAKU
100
AcDbLine
 10
24.19610607739059
 20
11.625
 30
0.0
 11
25.94610607739059
 21
11.625
 31
0.0
  0
ARC
  5
12CD
330
1A
100
AcDbEntity
  8
ZUWAKU
100
AcDbCircle
 10
24.89610607739058
 20
9.317398987322349
 30
0.0
 40
2.099999999999999
100
AcDbArc
 50
180.0
 51
224.9999999999997
  0
ARC
  5
12CE
330
1A
100
AcDbEntity
  8
ZUWAKU
100
AcDbCircle
 10
24.89610607739058
 20
9.317398987322349
 30
0.0
 40
0.7
100
AcDbArc
 50
180.0000000000016
 51
224.9999999999991
  0
ARC
  5
12CF
330
1A
100
AcDbEntity
  8
ZUWAKU
100
AcDbCircle
 10
34.25860607739059
 20
11.36249999999999
 30
0.0
 40
0.2625
100
AcDbArc
 50
0.0
 51
90.0
  0
ARC
  5
12D0
330
1A
100
AcDbEntity
  8
ZUWAKU
100
AcDbCircle
 10
30.93360607739055
 20
11.36249999999999
 30
0.0
 40
0.2625
100
AcDbArc
 50
90.0
 51
180.0
  0
LINE
  5
12D1
330
1A
100
AcDbEntity
  8
ZUWAKU
100
AcDbLine
 10
31.80860607739055
 20
11.625
 30
0.0
 11
30.93360607739055
 21
11.625
 31
0.0
  0
ARC
  5
12D2
330
1A
100
AcDbEntity
  8
ZUWAKU
100
AcDbCircle
 10
31.80860607739055
 20
11.36249999999999
 30
0.0
 40
0.2625
100
AcDbArc
 50
0.0
 51
90.0
  0
ARC
  5
12D3
330
1A
100
AcDbEntity
  8
ZUWAKU
100
AcDbCircle
 10
33.38360607739059
 20
11.36249999999999
 30
0.0
 40
0.2625
100
AcDbArc
 50
90.0
 51
180.0
  0
LINE
  5
12D4
330
1A
100
AcDbEntity
  8
ZUWAKU
100
AcDbLine
 10
34.25860607739059
 20
11.625
 30
0.0
 11
33.38360607739059
 21
11.625
 31
0.0
  0
ARC
  5
12D5
330
1A
100
AcDbEntity
  8
ZUWAKU
100
AcDbCircle
 10
28.65860607739057
 20
11.36249999999999
 30
0.0
 40
0.2625
100
AcDbArc
 50
0.0
 51
90.0
  0
TEXT
  5
12D6
330
1A
100
AcDbEntity
  8
ZUWAKU
100
AcDbText
 10
104.8620231561386
 20
12.02767826919279
 30
0.0
 40
2.0
  1
品名
 41
0.9
  7
ｽﾀｲﾙ1
100
AcDbText
  0
LINE
  5
12D7
330
1A
100
AcDbEntity
  8
ZUWAKU
100
AcDbLine
 10
276.2634778830562
 20
15.0
 30
0.0
 11
276.2634778830562
 21
0.4000000000000341
 31
0.0
  0
LINE
  5
12D8
330
1A
100
AcDbEntity
  8
ZUWAKU
100
AcDbLine
 10
276.4634778830561
 20
15.0
 30
0.0
 11
276.4634778830562
 21
0.4000000000000341
 31
0.0
  0
LINE
  5
12D9
330
1A
100
AcDbEntity
  8
ZUWAKU
100
AcDbLine
 10
276.3634778830561
 20
15.0
 30
0.0
 11
276.3634778830562
 21
0.4000000000000341
 31
0.0
  0
LINE
  5
12DA
330
1A
100
AcDbEntity
  8
ZUWAKU
100
AcDbLine
 10
324.2086012551022
 20
15.0
 30
0.0
 11
324.2086012551022
 21
0.4000000000000341
 31
0.0
  0
LINE
  5
12DB
330
1A
100
AcDbEntity
  8
ZUWAKU
100
AcDbLine
 10
324.4086012551022
 20
15.0
 30
0.0
 11
324.4086012551023
 21
0.4000000000000341
 31
0.0
  0
LINE
  5
12DC
330
1A
100
AcDbEntity
  8
ZUWAKU
100
AcDbLine
 10
324.3086012551021
 20
15.0
 30
0.0
 11
324.3086012551023
 21
0.4000000000000341
 31
0.0
  0
LINE
  5
12DD
330
1A
100
AcDbEntity
  8
ZUWAKU
100
AcDbLine
 10
252.3995897490705
 20
15.0
 30
0.0
 11
252.3995897490705
 21
0.4000000000000341
 31
0.0
  0
LINE
  5
12DE
330
1A
100
AcDbEntity
  8
ZUWAKU
100
AcDbLine
 10
252.5995897490704
 20
15.0
 30
0.0
 11
252.5995897490705
 21
0.4000000000000341
 31
0.0
  0
LINE
  5
12DF
330
1A
100
AcDbEntity
  8
ZUWAKU
100
AcDbLine
 10
252.4995897490704
 20
15.0
 30
0.0
 11
252.4995897490705
 21
0.4000000000000341
 31
0.0
  0
LINE
  5
12E0
330
1A
100
AcDbEntity
  8
ZUWAKU
100
AcDbLine
 10
223.7121819854956
 20
15.0
 30
0.0
 11
223.7121819854956
 21
0.4000000000000341
 31
0.0
  0
LINE
  5
12E1
330
1A
100
AcDbEntity
  8
ZUWAKU
100
AcDbLine
 10
223.9121819854956
 20
15.0
 30
0.0
 11
223.9121819854957
 21
0.4000000000000341
 31
0.0
  0
LINE
  5
12E2
330
1A
100
AcDbEntity
  8
ZUWAKU
100
AcDbLine
 10
223.8121819854956
 20
15.0
 30
0.0
 11
223.8121819854957
 21
0.4000000000000341
 31
0.0
  0
TEXT
  5
12E3
330
1A
100
AcDbEntity
  8
MOJI
100
AcDbText
 10
231.623215995501
 20
5.971308860829992
 30
0.0
 40
2.799999999999999
  1
ＣＡ９５□
 41
0.9
  7
ｽﾀｲﾙ1
100
AcDbText
  0
TEXT
  5
12E4
330
1A
100
AcDbEntity
  8
ZUWAKU
100
AcDbText
 10
231.3468808277535
 20
1.307035455569746
 30
0.0
 40
1.5
  1
□には色品番が入ります
 41
0.9
  7
ｽﾀｲﾙ1
100
AcDbText
  0
TEXT
  5
12E5
330
1A
100
AcDbEntity
  8
ZUWAKU
100
AcDbText
 10
253.3383122601753
 20
4.827678269192801
 30
0.0
 40
2.0
  1
縮尺
 41
0.9
  7
ｽﾀｲﾙ1
100
AcDbText
  0
TEXT
  5
12E6
330
1A
100
AcDbEntity
  8
MOJI
100
AcDbText
 10
264.0204539861564
 20
1.602460528703709
 30
0.0
 40
2.799999999999999
  1
１/１
 41
0.9
  7
ｽﾀｲﾙ1
100
AcDbText
  0
ARC
  5
12E7
330
1A
100
AcDbEntity
  8
SEIHIN
100
AcDbCircle
 10
219.4905668707416
 20
1083.202520834442
 30
0.0
 40
999.9999999999989
100
AcDbArc
 50
267.0148646779958
 51
273.5168981490931
  0
ARC
  5
12E8
330
1A
100
AcDbEntity
  8
SEIHIN
100
AcDbCircle
 10
219.4905668707416
 20
1083.202520834442
 30
0.0
 40
998.6999999999989
100
AcDbArc
 50
267.0172809126749
 51
273.5168981490931
  0
DIMENSION
  5
12E9
330
1A
100
AcDbEntity
  8
SUNPOU
100
AcDbDimension
  2
*D10
 10
166.0905668707424
 20
58.40291960607567
 30
0.0
 11
230.6093410919083
 21
58.40291960607567
 31
0.0
 70
   160
  3
STANDARD
100
AcDbAlignedDimension
 13
285.2905668707418
 23
85.3696891436839
 33
0.0
 14
166.0905668707424
 24
84.62931871053319
 34
0.0
100
AcDbRotatedDimension
1001
ACAD
1000
DSTYLE
1002
{
1070
   372
1070
    -1
1070
   371
1070
    -1
1070
    41
1040
3.0
1070
    42
1040
3.0
1070
    43
1040
7.0
1070
    44
1040
1.5
1070
    73
1070
     0
1070
    74
1070
     0
1070
    77
1070
     3
1070
   140
1040
3.0
1070
   141
1040
150.0
1070
   147
1040
1.0
1070
   172
1070
     1
1070
   173
1070
     1
1070
   176
1070
   256
1070
   177
1070
   256
1070
   178
1070
   256
1070
   271
1070
     0
1070
   272
1070
     2
1070
   288
1070
     1
1070
     6
1000
OPEN
1070
     7
1000
OPEN
1002
}
  0
DIMENSION
  5
12EA
330
1A
100
AcDbEntity
  8
SUNPOU
100
AcDbDimension
  2
*D11
 10
143.0905668707419
 20
58.40291960607567
 30
0.0
 11
154.5905668707421
 21
60.90291960607567
 31
0.0
 70
    32
  3
STANDARD
100
AcDbAlignedDimension
 13
166.0905668707424
 23
84.62931871053319
 33
0.0
 14
143.0905668707419
 24
108.2025208344436
 34
0.0
100
AcDbRotatedDimension
1001
ACAD
1000
DSTYLE
1002
{
1070
   372
1070
    -1
1070
   371
1070
    -1
1070
    41
1040
3.0
1070
    42
1040
3.0
1070
    43
1040
7.0
1070
    44
1040
1.5
1070
    73
1070
     0
1070
    74
1070
     0
1070
    77
1070
     3
1070
   140
1040
3.0
1070
   141
1040
150.0
1070
   147
1040
1.0
1070
   172
1070
     1
1070
   173
1070
     1
1070
   176
1070
   256
1070
   177
1070
   256
1070
   178
1070
   256
1070
   271
1070
     0
1070
   272
1070
     2
1070
     6
1000
OPEN
1070
     7
1000
OPEN
1002
}
  0
TEXT
  5
12EB
330
1A
100
AcDbEntity
  8
ZUWAKU
100
AcDbText
 10
224.6509044966004
 20
12.02767826919279
 30
0.0
 40
2.0
  1
品番
 41
0.9
  7
ｽﾀｲﾙ1
100
AcDbText
  0
ARC
  5
12EC
330
1A
100
AcDbEntity
  8
SEIHIN
100
AcDbCircle
 10
400.8133082206668
 20
170.6829920381574
 30
0.0
 40
248.6000000000025
100
AcDbArc
 50
193.4348295112283
 51
199.8543528090396
  0
ARC
  5
12ED
330
1A
100
AcDbEntity
  8
SEIHIN
100
AcDbCircle
 10
400.8133082206645
 20
170.6829920381575
 30
0.0
 40
250.0000000000005
100
AcDbArc
 50
193.9649292639542
 51
199.8292867194345
  0
DIMENSION
  5
12EE
330
1A
100
AcDbEntity
  8
SUNPOU
100
AcDbDimension
  2
*D12
 10
157.8215442120419
 20
89.92346849271564
 30
0.0
 11
150.4560555413919
 21
92.42346849271564
 31
0.0
 70
    32
  3
STANDARD
100
AcDbAlignedDimension
 13
143.0905668707419
 23
108.2025208344436
 33
0.0
 14
157.8215442120419
 24
110.8025208344436
 34
0.0
100
AcDbRotatedDimension
1001
ACAD
1000
DSTYLE
1002
{
1070
   372
1070
    -1
1070
   371
1070
    -1
1070
    41
1040
3.0
1070
    42
1040
3.0
1070
    43
1040
7.0
1070
    44
1040
1.5
1070
    73
1070
     0
1070
    74
1070
     0
1070
    77
1070
     3
1070
   140
1040
3.0
1070
   141
1040
150.0
1070
   147
1040
1.0
1070
   172
1070
     1
1070
   173
1070
     1
1070
   176
1070
   256
1070
   177
1070
   256
1070
   178
1070
   256
1070
   271
1070
     0
1070
   272
1070
     2
1070
     6
1000
OPEN
1070
     7
1000
OPEN
1002
}
  0
ARC
  5
12EF
330
1A
100
AcDbEntity
  8
SEIHIN
100
AcDbCircle
 10
167.517848154208
 20
86.55672793246589
 30
0.0
 40
2.000000000000127
100
AcDbArc
 50
199.8292867194318
 51
267.0148646780056
  0
ARC
  5
12F0
330
1A
100
AcDbEntity
  8
SEIHIN
100
AcDbCircle
 10
167.5546745241556
 20
86.45467253670886
 30
0.0
 40
0.6
100
AcDbArc
 50
199.8543528090293
 51
267.0172809126423
  0
POLYLINE
  5
12F1
330
1A
100
AcDbEntity
  8
SEIHIN
100
AcDb2dPolyline
 66
     1
 10
0.0
 20
0.0
 30
0.0
 70
     1
  0
VERTEX
  5
1A18
330
12F1
100
AcDbEntity
  8
SEIHIN
100
AcDbVertex
100
AcDb2dVertex
 10
144.488546388378
 20
109.7134760997662
 30
0.0
 42
-0.0068456564800853
  0
VERTEX
  5
1A19
330
12F1
100
AcDbEntity
  8
SEIHIN
100
AcDbVertex
100
AcDb2dVertex
 10
144.5932608719913
 20
116.519672429578
 30
0.0
  0
VERTEX
  5
1A1A
330
12F1
100
AcDbEntity
  8
SEIHIN
100
AcDbVertex
100
AcDb2dVertex
 10
157.793525214215
 20
112.019672429578
 30
0.0
  0
SEQEND
  5
1A1B
330
12F1
100
AcDbEntity
  8
SEIHIN
  0
LINE
  5
12F2
330
1A
100
AcDbEntity
  8
SEIHIN
100
AcDbLine
 10
144.6346965858169
 20
117.8261849768273
 30
0.0
 11
159.0162916375789
 21
112.9234666633828
 31
0.0
  0
LINE
  5
12F3
330
1A
100
AcDbEntity
  8
SEIHIN
100
AcDbLine
 10
157.6317868350172
 20
110.7229989615844
 30
0.0
 11
143.6740771818102
 21
108.3036626216954
 31
0.0
  0
ARC
  5
12F4
330
1A
100
AcDbEntity
  8
SEIHIN
100
AcDbCircle
 10
143.5886838200423
 20
108.7963166318953
 30
0.0
 40
0.4999999999999863
100
AcDbArc
 50
180.1139751640747
 51
279.8335639641923
  0
ARC
  5
12F5
330
1A
100
AcDbEntity
  8
SEIHIN
100
AcDbCircle
 10
157.7171801967852
 20
110.2303449513846
 30
0.0
 40
0.4999999999999687
100
AcDbArc
 50
13.96492926395429
 51
99.83356396420559
  0
LINE
  5
12F6
330
1A
100
AcDbEntity
  8
CENTER_L
100
AcDbLine
 10
225.7016084174202
 20
74.89307358670339
 30
0.0
 11
225.7016084174202
 21
94.22363728223126
 31
0.0
  0
LINE
  5
12F7
330
1A
100
AcDbEntity
  8
ZUWAKU
100
AcDbLine
 10
252.5995897490704
 20
7.800000000000011
 30
0.0
 11
276.2634778830562
 21
7.800000000000011
 31
0.0
  0
LINE
  5
12F8
330
1A
100
AcDbEntity
  8
ZUWAKU
100
AcDbLine
 10
252.5995897490704
 20
7.700000000000017
 30
0.0
 11
276.2634778830562
 21
7.700000000000017
 31
0.0
  0
LINE
  5
12F9
330
1A
100
AcDbEntity
  8
ZUWAKU
100
AcDbLine
 10
252.5995897490704
 20
7.600000000000022
 30
0.0
 11
276.2634778830562
 21
7.600000000000022
 31
0.0
  0
TEXT
  5
12FA
330
1A
100
AcDbEntity
  8
ZUWAKU
100
AcDbText
 10
253.3383122601752
 20
12.02767826919279
 30
0.0
 40
2.0
  1
用紙
 41
0.9
  7
ｽﾀｲﾙ1
100
AcDbText
  0
TEXT
  5
12FB
330
1A
100
AcDbEntity
  8
MOJI
100
AcDbText
 10
264.0204539861564
 20
9.002460528703693
 30
0.0
 40
2.799999999999999
  1
Ａ３
 41
0.9
  7
ｽﾀｲﾙ1
100
AcDbText
  0
TEXT
  5
12FC
330
1A
100
AcDbEntity
  8
ZUWAKU
100
AcDbText
 10
325.147323766207
 20
12.02767826919279
 30
0.0
 40
2.0
  1
DATE
 41
0.9
  7
ｽﾀｲﾙ1
100
AcDbText
  0
ARC
  5
12FD
330
1A
100
AcDbEntity
  8
SEIHIN
100
AcDbCircle
 10
280.5267674090389
 20
90.07635451726878
 30
0.0
 40
5.00000000000003
100
AcDbArc
 50
273.5168981490931
 51
357.0463041905463
  0
ARC
  5
12FE
330
1A
100
AcDbEntity
  8
SEIHIN
100
AcDbCircle
 10
280.5267674090388
 20
90.07635451726873
 30
0.0
 40
3.7
100
AcDbArc
 50
273.5168981490995
 51
357.0463041905463
  0
ARC
  5
12FF
330
1A
100
AcDbEntity
  8
SEIHIN
100
AcDbCircle
 10
162.0456470223167
 20
177.3225208344436
 30
0.0
 40
9.000000000000003
100
AcDbArc
 50
194.6914620997645
 51
270.0
  0
ARC
  5
1300
330
1A
100
AcDbEntity
  8
SEIHIN
100
AcDbCircle
 10
162.0456470223167
 20
177.3225208344436
 30
0.0
 40
7.75
100
AcDbArc
 50
90.0
 51
270.0
  0
ARC
  5
1301
330
1A
100
AcDbEntity
  8
SEIHIN
100
AcDbCircle
 10
393.0881901740699
 20
109.2926321532875
 30
0.0
 40
248.6000000000005
100
AcDbArc
 50
164.6645082414585
 51
168.6812840818881
  0
ARC
  5
1302
330
1A
100
AcDbEntity
  8
SEIHIN
100
AcDbCircle
 10
174.2676856504341
 20
125.2311524064516
 30
0.0
 40
40.0
100
AcDbArc
 50
106.0024207833244
 51
129.2598183521834
  0
ARC
  5
1303
330
1A
100
AcDbEntity
  8
SEIHIN
100
AcDbCircle
 10
174.2676856504341
 20
125.2311524064516
 30
0.0
 40
41.25
100
AcDbArc
 50
105.9368510911665
 51
127.2081283563536
  0
ARC
  5
1304
330
1A
100
AcDbEntity
  8
SEIHIN
100
AcDbCircle
 10
162.4405668707415
 20
166.5725208344436
 30
0.0
 40
3.0
100
AcDbArc
 50
285.4660099533722
 51
90.0
  0
ARC
  5
1305
330
1A
100
AcDbEntity
  8
SEIHIN
100
AcDbCircle
 10
162.4405668707415
 20
166.5725208344436
 30
0.0
 40
1.75
100
AcDbArc
 50
285.4660099533722
 51
90.0
  0
LINE
  5
1306
330
1A
100
AcDbEntity
  8
SEIHIN
100
AcDbLine
 10
162.0456470223212
 20
169.5725208344435
 30
0.0
 11
162.4405668707414
 21
169.5725208344437
 31
0.0
  0
LINE
  5
1307
330
1A
100
AcDbEntity
  8
SEIHIN
100
AcDbLine
 10
162.0456470223183
 20
168.3225208344436
 30
0.0
 11
162.4405668707414
 21
168.3225208344437
 31
0.0
  0
DIMENSION
  5
1308
330
1A
100
AcDbEntity
  8
SUNPOU
100
AcDbDimension
  2
*D13
 10
190.5192976940975
 20
179.5837460357088
 30
0.0
 11
188.0192976940975
 21
186.3365464737095
 31
0.0
 70
    32
  3
STANDARD
100
AcDbAlignedDimension
 13
157.9033536933683
 23
193.0893469117102
 33
0.0
 14
166.5401417987096
 24
179.5837460357088
 34
0.0
 50
90.0
100
AcDbRotatedDimension
1001
ACAD
1000
DSTYLE
1002
{
1070
   372
1070
    -1
1070
   371
1070
    -1
1070
    41
1040
3.0
1070
    42
1040
3.0
1070
    43
1040
7.0
1070
    44
1040
1.5
1070
    73
1070
     0
1070
    74
1070
     0
1070
    77
1070
     3
1070
   140
1040
3.0
1070
   141
1040
150.0
1070
   147
1040
1.0
1070
   172
1070
     1
1070
   173
1070
     1
1070
   176
1070
   256
1070
   177
1070
   256
1070
   178
1070
   256
1070
   271
1070
     0
1070
   272
1070
     2
1070
     6
1000
OPEN
1070
     7
1000
OPEN
1002
}
  0
DIMENSION
  5
1309
330
1A
100
AcDbEntity
  8
SUNPOU
100
AcDbDimension
  2
*D14
 10
168.8708366462293
 20
213.4554465968879
 30
0.0
 11
163.3870951697988
 21
215.955446596888
 31
0.0
 70
    32
  3
STANDARD
100
AcDbAlignedDimension
 13
157.9033536933683
 23
193.0893469117102
 33
0.0
 14
168.8708366462293
 24
186.0798709097985
 34
0.0
100
AcDbRotatedDimension
1001
ACAD
1000
DSTYLE
1002
{
1070
   372
1070
    -1
1070
   371
1070
    -1
1070
    41
1040
3.0
1070
    42
1040
3.0
1070
    43
1040
7.0
1070
    44
1040
1.5
1070
    73
1070
     0
1070
    74
1070
     0
1070
    77
1070
     3
1070
   140
1040
3.0
1070
   141
1040
150.0
1070
   147
1040
1.0
1070
   172
1070
     1
1070
   173
1070
     1
1070
   176
1070
   256
1070
   177
1070
   256
1070
   178
1070
   256
1070
   271
1070
     0
1070
   272
1070
     2
1070
     6
1000
OPEN
1070
     7
1000
OPEN
1002
}
  0
ARC
  5
130A
330
1A
100
AcDbEntity
  8
SEIHIN
100
AcDbCircle
 10
162.0456470223167
 20
177.3225208344436
 30
0.0
 40
9.0
100
AcDbArc
 50
90.0
 51
132.4946762124433
  0
LINE
  5
130B
330
1A
100
AcDbEntity
  8
SEIHIN
100
AcDbLine
 10
165.8686905863489
 20
190.1848095041939
 30
0.0
 11
165.0656333091968
 21
188.3110091908387
 31
0.0
  0
ARC
  5
130C
330
1A
100
AcDbEntity
  8
SEIHIN
100
AcDbCircle
 10
393.088190174071
 20
109.2926321532887
 30
0.0
 40
248.6000000000011
100
AcDbArc
 50
160.6935328731939
 51
162.5216300707534
  0
ARC
  5
130D
330
1A
100
AcDbEntity
  8
SEIHIN
100
AcDbCircle
 10
165.9847783392149
 20
187.9170898922596
 30
0.0
 40
2.399999999999999
100
AcDbArc
 50
156.8014094863535
 51
205.022808431389
  0
LINE
  5
130E
330
1A
100
AcDbEntity
  8
SEIHIN
100
AcDbLine
 10
168.9066288900786
 20
185.6722996119238
 30
0.0
 11
166.90717188481
 21
179.9086474619538
 31
0.0
  0
LINE
  5
130F
330
1A
100
AcDbEntity
  8
SEIHIN
100
AcDbLine
 10
167.4002745782198
 20
185.1439899838695
 30
0.0
 11
165.9011223846031
 21
180.8225208344434
 31
0.0
  0
LINE
  5
1310
330
1A
100
AcDbEntity
  8
SEIHIN
100
AcDbLine
 10
162.0345201549395
 20
180.2433923659869
 30
0.0
 11
163.3026603023466
 21
183.7307777713569
 31
0.0
  0
LINE
  5
1311
330
1A
100
AcDbEntity
  8
SEIHIN
100
AcDbLine
 10
163.5751918605962
 20
180.8225208344436
 30
0.0
 11
164.4774020817071
 21
183.3035989424987
 31
0.0
  0
LINE
  5
1312
330
1A
100
AcDbEntity
  8
SEIHIN
100
AcDbLine
 10
166.4347890762861
 20
179.5725208344433
 30
0.0
 11
162.5044168666837
 21
179.5725208344436
 31
0.0
  0
ARC
  5
1313
330
1A
100
AcDbEntity
  8
SEIHIN
100
AcDbCircle
 10
162.5044168666837
 20
180.0725208344436
 30
0.0
 40
0.5
100
AcDbArc
 50
160.0168934781066
 51
270.0
  0
ARC
  5
1314
330
1A
100
AcDbEntity
  8
SEIHIN
100
AcDbCircle
 10
166.4347890762861
 20
180.0725208344433
 30
0.0
 40
0.5
100
AcDbArc
 50
269.9999999999934
 51
340.8679309837128
  0
LINE
  5
1315
330
1A
100
AcDbEntity
  8
SEIHIN
100
AcDbLine
 10
165.9011223846031
 20
180.8225208344434
 30
0.0
 11
163.5751918605962
 21
180.8225208344436
 31
0.0
  0
ARC
  5
1316
330
1A
100
AcDbEntity
  8
SEIHIN
100
AcDbCircle
 10
162.3628668788581
 20
184.0725208344436
 30
0.0
 40
1.0
100
AcDbArc
 50
340.0168934781036
 51
90.0
  0
ARC
  5
1317
330
1A
100
AcDbEntity
  8
SEIHIN
100
AcDbCircle
 10
162.3628668788581
 20
184.0725208344436
 30
0.0
 40
2.25
100
AcDbArc
 50
60.20928631069224
 51
90.0
  0
LINE
  5
1318
330
1A
100
AcDbEntity
  8
SEIHIN
100
AcDbLine
 10
162.3628668788581
 20
185.0725208344436
 30
0.0
 11
162.0456470223167
 21
185.0725208344436
 31
0.0
  0
LINE
  5
1319
330
1A
100
AcDbEntity
  8
SEIHIN
100
AcDbLine
 10
162.3628668788581
 20
186.3225208344436
 30
0.0
 11
162.0456470223167
 21
186.3225208344436
 31
0.0
  0
ARC
  5
131A
330
1A
100
AcDbEntity
  8
SEIHIN
100
AcDbCircle
 10
168.4342460815547
 20
185.8361729844132
 30
0.0
 40
0.5
100
AcDbArc
 50
340.8679309837128
 51
77.47119229085559
  0
ARC
  5
131B
330
1A
100
AcDbEntity
  8
SEIHIN
100
AcDbCircle
 10
162.3628668788581
 20
184.0725208344436
 30
0.0
 40
2.25
100
AcDbArc
 50
340.0168934781036
 51
23.7281376215518
  0
LINE
  5
131C
330
1A
100
AcDbEntity
  8
SEIHIN
100
AcDbLine
 10
164.4226633285077
 20
184.977914995023
 30
0.0
 11
164.7529590855484
 21
185.8573274481439
 31
0.0
  0
LINE
  5
131D
330
1A
100
AcDbEntity
  8
SEIHIN
100
AcDbLine
 10
165.4641452404504
 20
185.5742409478181
 30
0.0
 11
167.4002745782198
 21
185.1439899838695
 31
0.0
  0
ARC
  5
131E
330
1A
100
AcDbEntity
  8
SEIHIN
100
AcDbCircle
 10
165.9847783392149
 20
187.9170898922596
 30
0.0
 40
2.399999999999999
100
AcDbArc
 50
239.1189102988572
 51
257.4711922908489
  0
LINE
  5
131F
330
1A
100
AcDbEntity
  8
SEIHIN
100
AcDbLine
 10
165.7678478813962
 20
186.9409028320756
 30
0.0
 11
168.542711310464
 21
186.3242665145052
 31
0.0
  0
LINE
  5
1320
330
1A
100
AcDbEntity
  8
SEIHIN
100
AcDbLine
 10
163.4807418262283
 20
186.0251743116489
 30
0.0
 11
163.8100435910368
 21
186.9019402604515
 31
0.0
  0
ARC
  5
1321
330
1A
100
AcDbEntity
  8
SEIHIN
100
AcDbCircle
 10
165.9847783392149
 20
187.9170898922596
 30
0.0
 40
1.0
100
AcDbArc
 50
156.8014094863535
 51
257.4711922908489
  0
LINE
  5
1322
330
1A
100
AcDbEntity
  8
SEIHIN
100
AcDbLine
 10
158.0444368553642
 20
193.0690296624959
 30
0.0
 11
165.5502012333356
 21
190.8614519042691
 31
0.0
  0
LINE
  5
1323
330
1A
100
AcDbEntity
  8
SEIHIN
100
AcDbLine
 10
158.4685493859528
 20
191.4849928473028
 30
0.0
 11
164.1825102324166
 21
189.8044161277549
 31
0.0
  0
ARC
  5
1324
330
1A
100
AcDbEntity
  8
SEIHIN
100
AcDbCircle
 10
157.9033536933683
 20
192.5893469117102
 30
0.0
 40
0.5
100
AcDbArc
 50
73.6104596659527
 51
160.4971001221513
  0
LINE
  5
1325
330
1A
100
AcDbEntity
  8
SEIHIN
100
AcDbLine
 10
164.1825102324166
 20
189.8044161277549
 30
0.0
 11
163.7788302671715
 21
188.8624962088494
 31
0.0
  0
ARC
  5
1326
330
1A
100
AcDbEntity
  8
SEIHIN
100
AcDbCircle
 10
165.4091180713398
 20
190.3817691534834
 30
0.0
 40
0.5
100
AcDbArc
 50
336.8014094863578
 51
73.61045966596631
  0
DIMENSION
  5
1327
330
1A
100
AcDbEntity
  8
SUNPOU
 48
0.5
100
AcDbDimension
  2
*D15
 10
276.7905668707419
 20
168.5701884661784
 30
0.0
 11
282.6560555413919
 21
168.5701884661784
 31
0.0
 70
   160
  3
STANDARD
100
AcDbAlignedDimension
 13
288.5215442120419
 23
147.9469166312435
 33
0.0
 14
276.7905668707419
 24
138.2025208344436
 34
0.0
100
AcDbRotatedDimension
1001
ACAD
1000
DSTYLE
1002
{
1070
   177
1070
   256
1070
   372
1070
    -1
1070
   371
1070
    -1
1070
    41
1040
3.0
1070
    42
1040
3.0
1070
    43
1040
8.0
1070
    44
1040
1.5
1070
    73
1070
     0
1070
    74
1070
     0
1070
    77
1070
     3
1070
   140
1040
3.0
1070
   141
1040
3.0
1070
   147
1040
1.0
1070
   172
1070
     1
1070
   173
1070
     1
1070
   176
1070
   256
1070
   178
1070
   256
1070
   271
1070
     0
1070
   272
1070
     2
1070
   288
1070
     1
1070
     6
1000
OPEN
1070
     7
1000
OPEN
1002
}
  0
POLYLINE
  5
1328
330
1A
100
AcDbEntity
  8
SEIHIN
100
AcDb2dPolyline
 66
     1
 10
0.0
 20
0.0
 30
0.0
 70
     1
  0
VERTEX
  5
1A1C
330
1328
100
AcDbEntity
  8
SEIHIN
100
AcDbVertex
100
AcDb2dVertex
 10
280.783501464041
 20
148.9025208344435
 30
0.0
  0
VERTEX
  5
1A1D
330
1328
100
AcDbEntity
  8
SEIHIN
100
AcDbVertex
100
AcDb2dVertex
 10
278.2407427115101
 20
139.5790720751644
 30
0.0
  0
VERTEX
  5
1A1E
330
1328
100
AcDbEntity
  8
SEIHIN
100
AcDbVertex
100
AcDb2dVertex
 10
286.8290478467327
 20
140.4152629831933
 30
0.0
  0
VERTEX
  5
1A1F
330
1328
100
AcDbEntity
  8
SEIHIN
100
AcDbVertex
100
AcDb2dVertex
 10
287.2210129577298
 20
148.0118639554541
 30
0.0
 42
0.4293945929516073
  0
VERTEX
  5
1A20
330
1328
100
AcDbEntity
  8
SEIHIN
100
AcDbVertex
100
AcDb2dVertex
 10
283.525928391107
 20
151.9025208344436
 30
0.0
  0
VERTEX
  5
1A21
330
1328
100
AcDbEntity
  8
SEIHIN
100
AcDbVertex
100
AcDb2dVertex
 10
283.0905668707419
 20
151.9025208344435
 30
0.0
  0
VERTEX
  5
1A22
330
1328
100
AcDbEntity
  8
SEIHIN
100
AcDbVertex
100
AcDb2dVertex
 10
283.0905668707419
 20
148.9025208344435
 30
0.0
  0
SEQEND
  5
1A23
330
1328
100
AcDbEntity
  8
SEIHIN
  0
LINE
  5
1329
330
1A
100
AcDbEntity
  8
SEIHIN
100
AcDbLine
 10
276.6813295142648
 20
138.801983860694
 30
0.0
 11
279.7905668707421
 21
150.2025208344437
 31
0.0
  0
DIMENSION
  5
132A
330
1A
100
AcDbEntity
  8
SUNPOU
 48
0.5
100
AcDbDimension
  2
*D16
 10
258.1466159698691
 20
138.2025208344436
 30
0.0
 11
258.1466159698691
 21
144.5358541677769
 31
0.0
 70
   160
  3
STANDARD
100
AcDbAlignedDimension
 13
281.7905668707419
 23
153.2025208344436
 33
0.0
 14
276.7905668707419
 24
138.2025208344436
 34
0.0
 50
90.0
100
AcDbRotatedDimension
1001
ACAD
1000
DSTYLE
1002
{
1070
   177
1070
   256
1070
   372
1070
    -1
1070
   371
1070
    -1
1070
    41
1040
3.0
1070
    42
1040
3.0
1070
    43
1040
8.0
1070
    44
1040
1.5
1070
    73
1070
     0
1070
    74
1070
     0
1070
    77
1070
     3
1070
   140
1040
3.0
1070
   141
1040
3.0
1070
   147
1040
1.0
1070
   172
1070
     1
1070
   173
1070
     1
1070
   176
1070
   256
1070
   178
1070
   256
1070
   271
1070
     0
1070
   272
1070
     2
1070
   288
1070
     1
1070
     6
1000
OPEN
1070
     7
1000
OPEN
1002
}
  0
ARC
  5
132B
330
1A
100
AcDbEntity
  8
SEIHIN
100
AcDbCircle
 10
277.1637114248836
 20
138.6704251577979
 30
0.0
 40
0.5
100
AcDbArc
 50
164.7448812969419
 51
275.5610126218238
  0
LINE
  5
132C
330
1A
100
AcDbEntity
  8
SEIHIN
100
AcDbLine
 10
277.2121642582128
 20
138.1727783724749
 30
0.0
 11
286.1836162654019
 21
139.0462739553767
 31
0.0
  0
ARC
  5
132D
330
1A
100
AcDbEntity
  8
SEIHIN
100
AcDbCircle
 10
286.2320690987311
 20
138.5486271700537
 30
0.0
 40
0.5
100
AcDbArc
 50
357.0463041905463
 51
95.56101262182385
  0
ARC
  5
132E
330
1A
100
AcDbEntity
  8
SEIHIN
100
AcDbCircle
 10
283.525928391107
 20
148.2025208344437
 30
0.0
 40
4.999999999999886
100
AcDbArc
 50
357.0463041905463
 51
90.0
  0
LINE
  5
132F
330
1A
100
AcDbEntity
  8
SEIHIN
100
AcDbLine
 10
281.7905668707419
 20
153.2025208344436
 30
0.0
 11
283.525928391107
 21
153.2025208344436
 31
0.0
  0
LINE
  5
1330
330
1A
100
AcDbEntity
  8
SEIHIN
100
AcDbLine
 10
279.7905668707421
 20
150.2025208344436
 30
0.0
 11
281.7905668707419
 21
150.2025208344436
 31
0.0
  0
LINE
  5
1331
330
1A
100
AcDbEntity
  8
SEIHIN
100
AcDbLine
 10
281.7905668707419
 20
150.2025208344436
 30
0.0
 11
281.7905668707419
 21
153.2025208344436
 31
0.0
  0
LINE
  5
133C
330
1A
100
AcDbEntity
  8
ZUWAKU
100
AcDbLine
 10
348.9245052742706
 20
15.0
 30
0.0
 11
348.9245052742707
 21
0.4000000000000341
 31
0.0
  0
LINE
  5
133D
330
1A
100
AcDbEntity
  8
ZUWAKU
100
AcDbLine
 10
348.8245052742705
 20
15.0
 30
0.0
 11
348.8245052742706
 21
0.4000000000000341
 31
0.0
  0
LINE
  5
133E
330
1A
100
AcDbEntity
  8
ZUWAKU
100
AcDbLine
 10
348.7245052742706
 20
15.0
 30
0.0
 11
348.7245052742706
 21
0.4000000000000341
 31
0.0
  0
LINE
  5
133F
330
1A
100
AcDbEntity
  8
ZUWAKU
100
AcDbLine
 10
348.6245052742706
 20
15.0
 30
0.0
 11
348.6245052742706
 21
0.4000000000000341
 31
0.0
  0
TEXT
  5
134F
330
1A
100
AcDbEntity
  8
ZUWAKU
100
AcDbText
 10
354.2640420961219
 20
6.176919667843401
 30
0.0
 40
3.0
  1
積水化学工業株式会社
 41
0.9
  7
ｽﾀｲﾙ1
100
AcDbText
  0
VIEWPORT
  5
22
330
17
100
AcDbEntity
 67
     1
  8
0
100
AcDbViewport
 10
313.6808219178082
 20
148.5
 30
0.0
 40
627.3616438356165
 41
297.0
 68
     2
 69
     1
1001
ACAD
1000
MVIEW
1002
{
1070
    16
1010
0.0
1020
0.0
1030
0.0
1010
0.0
1020
0.0
1030
1.0
1040
0.0
1040
297.0
1040
313.6808219178082
1040
148.5
1040
50.0
1040
0.0
1040
0.0
1070
     0
1070
   100
1070
     1
1070
     0
1070
     0
1070
     0
1070
     0
1070
     0
1040
0.0
1040
0.0
1040
0.0
1040
1.0
1040
1.0
1040
10.0
1040
10.0
1070
     0
1002
{
1002
}
1002
}
  0
VIEWPORT
  5
64
330
17
100
AcDbEntity
 67
     1
  8
VIEWPORT
100
AcDbViewport
 10
210.0
 20
148.5
 30
0.0
 40
420.0
 41
297.0
 68
     1
 69
     2
1001
ACAD
1000
MVIEW
1002
{
1070
    16
1010
0.0
1020
0.0
1030
0.0
1010
0.0
1020
0.0
1030
1.0
1040
0.0
1040
302.9399999999998
1040
210.0
1040
148.5
1040
50.0
1040
0.0
1040
0.0
1070
     0
1070
   100
1070
     1
1070
     0
1070
     0
1070
     0
1070
     0
1070
     0
1040
0.0
1040
0.0
1040
0.0
1040
5.0
1040
5.0
1040
0.0
1040
0.0
1070
     0
1002
{
1002
}
1002
}
  0
ENDSEC
  0
SECTION
  2
OBJECTS
  0
DICTIONARY
  5
C
330
0
100
AcDbDictionary
  3
ACAD_GROUP
350
D
  3
ACAD_LAYOUT
350
352
  3
ACAD_MLINESTYLE
350
E
  3
ACAD_PLOTSETTINGS
350
353
1001
ACAD
1000
TREAT_AS_HARD
1070
     0
  0
DICTIONARY
  5
64B
330
1A
100
AcDbDictionary
  3
ACAD_LAYOUTSELFREF
350
19FE
1001
ACAD
1000
TREAT_AS_HARD
1070
     1
  0
DICTIONARY
  5
649
330
17
100
AcDbDictionary
  3
ACAD_LAYOUTSELFREF
350
19FD
1001
ACAD
1000
TREAT_AS_HARD
1070
     1
  0
DICTIONARY
  5
D
102
{ACAD_REACTORS
330
C
102
}
330
C
100
AcDbDictionary
  3
*A1
350
FAF
  3
*A2
350
153A
  3
*A3
350
153B
  3
*A4
350
153C
  3
*A5
350
15EB
  3
*A6
350
15EC
  3
*A7
350
15ED
1001
ACAD
1000
TREAT_AS_HARD
1070
     0
  0
DICTIONARY
  5
352
102
{ACAD_REACTORS
330
C
102
}
330
C
100
AcDbDictionary
1001
ACAD
1000
TREAT_AS_HARD
1070
     0
  0
DICTIONARY
  5
E
102
{ACAD_REACTORS
330
C
102
}
330
C
100
AcDbDictionary
  3
STANDARD
350
13
1001
ACAD
1000
TREAT_AS_HARD
1070
     0
  0
DICTIONARY
  5
353
102
{ACAD_REACTORS
330
C
102
}
330
C
100
AcDbDictionary
1001
ACAD
1000
TREAT_AS_HARD
1070
     0
  0
XRECORD
  5
19FE
102
{ACAD_REACTORS
330
64B
102
}
330
64B
100
AcDbXrecord
340
1A
  0
XRECORD
  5
19FD
102
{ACAD_REACTORS
330
649
102
}
330
649
100
AcDbXrecord
340
17
  0
GROUP
  5
FAF
102
{ACAD_REACTORS
330
D
102
}
330
D
100
AcDbGroup
300

 70
     1
 71
     1
  0
GROUP
  5
153A
102
{ACAD_REACTORS
330
D
102
}
330
D
100
AcDbGroup
300

 70
     1
 71
     1
  0
GROUP
  5
153B
102
{ACAD_REACTORS
330
D
102
}
330
D
100
AcDbGroup
300

 70
     1
 71
     1
  0
GROUP
  5
153C
102
{ACAD_REACTORS
330
D
102
}
330
D
100
AcDbGroup
300

 70
     1
 71
     1
  0
GROUP
  5
15EB
102
{ACAD_REACTORS
330
D
102
}
330
D
100
AcDbGroup
300

 70
     1
 71
     1
  0
GROUP
  5
15EC
102
{ACAD_REACTORS
330
D
102
}
330
D
100
AcDbGroup
300

 70
     1
 71
     1
  0
GROUP
  5
15ED
102
{ACAD_REACTORS
330
D
102
}
330
D
100
AcDbGroup
300

 70
     1
 71
     1
  0
MLINESTYLE
  5
13
102
{ACAD_REACTORS
330
E
102
}
330
E
100
AcDbMlineStyle
  2
STANDARD
 70
     0
  3

 62
     0
 51
90.0
 52
90.0
 71
     2
 49
0.5
 62
   256
  6
BYLAYER
 49
-0.5
 62
   256
  6
BYLAYER
  0
ENDSEC
  0
EOF
