  0
SECTION
  2
HEADER
  9
$ACADVER
  1
AC1015
  9
$ACADMAINTVER
 70
     6
  9
$DWGCODEPAGE
  3
ANSI_932
  9
$INSBASE
 10
0.0
 20
0.0
 30
0.0
  9
$EXTMIN
 10
-0.0000004828989404
 20
-0.0000000386436341
 30
0.0
  9
$EXTMAX
 10
577.9219617070924
 20
275.7999999613564
 30
0.0
  9
$LIMMIN
 10
0.0
 20
0.0
  9
$LIMMAX
 10
420.0
 20
297.0
  9
$ORTHOMODE
 70
     0
  9
$REGENMODE
 70
     1
  9
$FILLMODE
 70
     1
  9
$QTEXTMODE
 70
     0
  9
$MIRRTEXT
 70
     1
  9
$LTSCALE
 40
1.0
  9
$ATTMODE
 70
     1
  9
$TEXTSIZE
 40
2.5
  9
$TRACEWID
 40
1.0
  9
$TEXTSTYLE
  7
STANDARD
  9
$CLAYER
  8
SUNPOU
  9
$CELTYPE
  6
BYLAYER
  9
$CECOLOR
 62
   256
  9
$CELTSCALE
 40
1.0
  9
$DISPSILH
 70
     0
  9
$DIMSCALE
 40
1.0
  9
$DIMASZ
 40
3.0
  9
$DIMEXO
 40
3.0
  9
$DIMDLI
 40
7.0
  9
$DIMRND
 40
0.0
  9
$DIMDLE
 40
0.0
  9
$DIMEXE
 40
1.5
  9
$DIMTP
 40
0.0
  9
$DIMTM
 40
0.0
  9
$DIMTXT
 40
3.0
  9
$DIMCEN
 40
150.0
  9
$DIMTSZ
 40
0.0
  9
$DIMTOL
 70
     0
  9
$DIMLIM
 70
     0
  9
$DIMTIH
 70
     0
  9
$DIMTOH
 70
     0
  9
$DIMSE1
 70
     0
  9
$DIMSE2
 70
     0
  9
$DIMTAD
 70
     3
  9
$DIMZIN
 70
     0
  9
$DIMBLK
  1

  9
$DIMASO
 70
     1
  9
$DIMSHO
 70
     1
  9
$DIMPOST
  1

  9
$DIMAPOST
  1

  9
$DIMALT
 70
     0
  9
$DIMALTD
 70
     2
  9
$DIMALTF
 40
25.4
  9
$DIMLFAC
 40
1.0
  9
$DIMTOFL
 70
     1
  9
$DIMTVP
 40
0.0
  9
$DIMTIX
 70
     0
  9
$DIMSOXD
 70
     0
  9
$DIMSAH
 70
     1
  9
$DIMBLK1
  1
OPEN
  9
$DIMBLK2
  1
OPEN
  9
$DIMSTYLE
  2
STANDARD
  9
$DIMCLRD
 70
   256
  9
$DIMCLRE
 70
   256
  9
$DIMCLRT
 70
   256
  9
$DIMTFAC
 40
1.0
  9
$DIMGAP
 40
1.0
  9
$DIMJUST
 70
     0
  9
$DIMSD1
 70
     0
  9
$DIMSD2
 70
     0
  9
$DIMTOLJ
 70
     1
  9
$DIMTZIN
 70
     0
  9
$DIMALTZ
 70
     0
  9
$DIMALTTZ
 70
     0
  9
$DIMUPT
 70
     1
  9
$DIMDEC
 70
     0
  9
$DIMTDEC
 70
     0
  9
$DIMALTU
 70
     2
  9
$DIMALTTD
 70
     2
  9
$DIMTXSTY
  7
STANDARD
  9
$DIMAUNIT
 70
     0
  9
$DIMADEC
 70
     0
  9
$DIMALTRND
 40
0.0
  9
$DIMAZIN
 70
     0
  9
$DIMDSEP
 70
    46
  9
$DIMATFIT
 70
     3
  9
$DIMFRAC
 70
     0
  9
$DIMLDRBLK
  1
OPEN
  9
$DIMLUNIT
 70
     2
  9
$DIMLWD
 70
    -1
  9
$DIMLWE
 70
    -1
  9
$DIMTMOVE
 70
     0
  9
$LUNITS
 70
     2
  9
$LUPREC
 70
     4
  9
$SKETCHINC
 40
1.0
  9
$FILLETRAD
 40
0.6
  9
$AUNITS
 70
     0
  9
$AUPREC
 70
     0
  9
$MENU
  1
.
  9
$ELEVATION
 40
0.0
  9
$PELEVATION
 40
0.0
  9
$THICKNESS
 40
0.0
  9
$LIMCHECK
 70
     0
  9
$CHAMFERA
 40
10.0
  9
$CHAMFERB
 40
10.0
  9
$CHAMFERC
 40
20.0
  9
$CHAMFERD
 40
0.0
  9
$SKPOLY
 70
     0
  9
$TDCREATE
 40
2451100.394552546
  9
$TDUCREATE
 40
2451100.019552546
  9
$TDUPDATE
 40
2455355.681219526
  9
$TDUUPDATE
 40
2455355.306219526
  9
$TDINDWG
 40
0.1055247917
  9
$TDUSRTIMER
 40
0.1055247917
  9
$USRTIMER
 70
     1
  9
$ANGBASE
 50
0.0
  9
$ANGDIR
 70
     0
  9
$PDMODE
 70
     0
  9
$PDSIZE
 40
0.0
  9
$PLINEWID
 40
0.0
  9
$SPLFRAME
 70
     0
  9
$SPLINETYPE
 70
     6
  9
$SPLINESEGS
 70
     8
  9
$HANDSEED
  5
14B7
  9
$SURFTAB1
 70
     6
  9
$SURFTAB2
 70
     6
  9
$SURFTYPE
 70
     6
  9
$SURFU
 70
     6
  9
$SURFV
 70
     6
  9
$UCSBASE
  2

  9
$UCSNAME
  2

  9
$UCSORG
 10
0.0
 20
0.0
 30
0.0
  9
$UCSXDIR
 10
1.0
 20
0.0
 30
0.0
  9
$UCSYDIR
 10
0.0
 20
1.0
 30
0.0
  9
$UCSORTHOREF
  2

  9
$UCSORTHOVIEW
 70
     0
  9
$UCSORGTOP
 10
0.0
 20
0.0
 30
0.0
  9
$UCSORGBOTTOM
 10
0.0
 20
0.0
 30
0.0
  9
$UCSORGLEFT
 10
0.0
 20
0.0
 30
0.0
  9
$UCSORGRIGHT
 10
0.0
 20
0.0
 30
0.0
  9
$UCSORGFRONT
 10
0.0
 20
0.0
 30
0.0
  9
$UCSORGBACK
 10
0.0
 20
0.0
 30
0.0
  9
$PUCSBASE
  2

  9
$PUCSNAME
  2

  9
$PUCSORG
 10
0.0
 20
0.0
 30
0.0
  9
$PUCSXDIR
 10
1.0
 20
0.0
 30
0.0
  9
$PUCSYDIR
 10
0.0
 20
1.0
 30
0.0
  9
$PUCSORTHOREF
  2

  9
$PUCSORTHOVIEW
 70
     0
  9
$PUCSORGTOP
 10
0.0
 20
0.0
 30
0.0
  9
$PUCSORGBOTTOM
 10
0.0
 20
0.0
 30
0.0
  9
$PUCSORGLEFT
 10
0.0
 20
0.0
 30
0.0
  9
$PUCSORGRIGHT
 10
0.0
 20
0.0
 30
0.0
  9
$PUCSORGFRONT
 10
0.0
 20
0.0
 30
0.0
  9
$PUCSORGBACK
 10
0.0
 20
0.0
 30
0.0
  9
$USERI1
 70
     0
  9
$USERI2
 70
     0
  9
$USERI3
 70
     0
  9
$USERI4
 70
     0
  9
$USERI5
 70
     0
  9
$USERR1
 40
0.0
  9
$USERR2
 40
0.0
  9
$USERR3
 40
0.0
  9
$USERR4
 40
0.0
  9
$USERR5
 40
0.0
  9
$WORLDVIEW
 70
     1
  9
$SHADEDGE
 70
     3
  9
$SHADEDIF
 70
    70
  9
$TILEMODE
 70
     1
  9
$MAXACTVP
 70
    16
  9
$PINSBASE
 10
0.0
 20
0.0
 30
0.0
  9
$PLIMCHECK
 70
     0
  9
$PEXTMIN
 10
0.0
 20
0.0
 30
0.0
  9
$PEXTMAX
 10
420.0
 20
297.0
 30
0.0
  9
$PLIMMIN
 10
0.0
 20
0.0
  9
$PLIMMAX
 10
420.0
 20
297.0
  9
$UNITMODE
 70
     0
  9
$VISRETAIN
 70
     0
  9
$PLINEGEN
 70
     0
  9
$PSLTSCALE
 70
     1
  9
$TREEDEPTH
 70
  3020
  9
$CMLSTYLE
  2
STANDARD
  9
$CMLJUST
 70
     0
  9
$CMLSCALE
 40
1.0
  9
$PROXYGRAPHICS
 70
     1
  9
$MEASUREMENT
 70
     1
  9
$CELWEIGHT
370
    -1
  9
$ENDCAPS
280
     0
  9
$JOINSTYLE
280
     0
  9
$LWDISPLAY
290
     0
  9
$INSUNITS
 70
     0
  9
$HYPERLINKBASE
  1

  9
$STYLESHEET
  1
print.ctb
  9
$XEDIT
290
     1
  9
$CEPSNTYPE
380
     0
  9
$PSTYLEMODE
290
     1
  9
$FINGERPRINTGUID
  2
{137E7082-72B8-11D5-AA3E-50A453C10000}
  9
$VERSIONGUID
  2
{3A40177C-D7F8-4F1F-9781-A4BD3B647B44}
  9
$EXTNAMES
290
     1
  9
$PSVPSCALE
 40
0.0
  9
$OLESTARTUP
290
     0
  0
ENDSEC
  0
SECTION
  2
CLASSES
  0
CLASS
  1
ACDBDICTIONARYWDFLT
  2
AcDbDictionaryWithDefault
  3
ObjectDBX Classes
 90
        0
280
     0
281
     0
  0
CLASS
  1
ACDBPLACEHOLDER
  2
AcDbPlaceHolder
  3
ObjectDBX Classes
 90
        0
280
     0
281
     0
  0
CLASS
  1
LAYOUT
  2
AcDbLayout
  3
ObjectDBX Classes
 90
        0
280
     0
281
     0
  0
CLASS
  1
DUMMY
  2
AcDbLongTransaction
  3
DUMMY
 90
        0
280
     0
281
     0
  0
CLASS
  1
LWPOLYLINE
  2
AcDbPolyline
  3
AutoCAD 2000
 90
        0
280
     0
281
     1
  0
CLASS
  1
HATCH
  2
AcDbHatch
  3
AutoCAD 2000
 90
        0
280
     0
281
     1
  0
CLASS
  1
XRECORD
  2
AcDbXrecord
  3
AutoCAD 2000
 90
        0
280
     0
281
     0
  0
CLASS
  1
DUMMY
  2
AcDbLongTransaction
  3
DUMMY
 90
        0
280
     0
281
     0
  0
CLASS
  1
LWPOLYLINE
  2
AcDbPolyline
  3
AutoCAD 2000
 90
        0
280
     0
281
     1
  0
CLASS
  1
HATCH
  2
AcDbHatch
  3
AutoCAD 2000
 90
        0
280
     0
281
     1
  0
CLASS
  1
XRECORD
  2
AcDbXrecord
  3
AutoCAD 2000
 90
        0
280
     0
281
     0
  0
CLASS
  1
DUMMY
  2
AcDbLongTransaction
  3
DUMMY
 90
        0
280
     0
281
     0
  0
CLASS
  1
LWPOLYLINE
  2
AcDbPolyline
  3
AutoCAD 2000
 90
        0
280
     0
281
     1
  0
CLASS
  1
HATCH
  2
AcDbHatch
  3
AutoCAD 2000
 90
        0
280
     0
281
     1
  0
CLASS
  1
XRECORD
  2
AcDbXrecord
  3
AutoCAD 2000
 90
        0
280
     0
281
     0
  0
CLASS
  1
DUMMY
  2
AcDbLongTransaction
  3
DUMMY
 90
        0
280
     0
281
     0
  0
CLASS
  1
LWPOLYLINE
  2
AcDbPolyline
  3
AutoCAD 2000
 90
        0
280
     0
281
     1
  0
CLASS
  1
HATCH
  2
AcDbHatch
  3
AutoCAD 2000
 90
        0
280
     0
281
     1
  0
CLASS
  1
XRECORD
  2
AcDbXrecord
  3
AutoCAD 2000
 90
        0
280
     0
281
     0
  0
ENDSEC
  0
SECTION
  2
TABLES
  0
TABLE
  2
VPORT
  5
8
330
0
100
AcDbSymbolTable
 70
     3
  0
VPORT
  5
14B6
330
8
100
AcDbSymbolTableRecord
100
AcDbViewportTableRecord
  2
*Active
 70
     0
 10
0.0
 20
0.0
 11
1.0
 21
1.0
 12
235.174450589945
 22
145.2542014778073
 13
0.0
 23
0.0
 14
5.0
 24
5.0
 15
0.0
 25
0.0
 16
0.0
 26
0.0
 36
1.0
 17
0.0
 27
0.0
 37
0.0
 40
336.0488020891378
 41
1.57015306122449
 42
50.0
 43
0.0
 44
0.0
 50
0.0
 51
0.0
 71
     0
 72
   100
 73
     1
 74
     0
 75
     0
 76
     0
 77
     0
 78
     0
281
     0
 65
     1
110
0.0
120
0.0
130
0.0
111
1.0
121
0.0
131
0.0
112
0.0
122
1.0
132
0.0
 79
     0
146
0.0
  0
ENDTAB
  0
TABLE
  2
LTYPE
  5
5
330
0
100
AcDbSymbolTable
 70
     2
  0
LTYPE
  5
14
330
5
100
AcDbSymbolTableRecord
100
AcDbLinetypeTableRecord
  2
BYBLOCK
 70
     0
  3

 72
    65
 73
     0
 40
0.0
  0
LTYPE
  5
15
330
5
100
AcDbSymbolTableRecord
100
AcDbLinetypeTableRecord
  2
BYLAYER
 70
     0
  3

 72
    65
 73
     0
 40
0.0
  0
LTYPE
  5
16
330
5
100
AcDbSymbolTableRecord
100
AcDbLinetypeTableRecord
  2
CONTINUOUS
 70
     0
  3
Solid line
 72
    65
 73
     0
 40
0.0
  0
LTYPE
  5
120
330
5
100
AcDbSymbolTableRecord
100
AcDbLinetypeTableRecord
  2
CENTER
 70
     0
  3
____ _ ____ _ ____ _ ____ _ ____ _ ____ _ ____ 
 72
    65
 73
     4
 40
2.0
 49
1.25
 74
     0
 49
-0.25
 74
     0
 49
0.25
 74
     0
 49
-0.25
 74
     0
  0
ENDTAB
  0
TABLE
  2
LAYER
  5
2
330
0
100
AcDbSymbolTable
 70
     8
  0
LAYER
  5
F
330
2
100
AcDbSymbolTableRecord
100
AcDbLayerTableRecord
  2
0
 70
     0
 62
     7
  6
CONTINUOUS
370
    -3
390
623
  0
LAYER
  5
62
330
2
100
AcDbSymbolTableRecord
100
AcDbLayerTableRecord
  2
VIEWPORT
 70
     0
 62
     7
  6
CONTINUOUS
370
    -3
390
623
  0
LAYER
  5
6B
330
2
100
AcDbSymbolTableRecord
100
AcDbLayerTableRecord
  2
ZUWAKU
 70
     0
 62
     7
  6
CONTINUOUS
370
    -3
390
623
  0
LAYER
  5
1F2
330
2
100
AcDbSymbolTableRecord
100
AcDbLayerTableRecord
  2
SEIHIN
 70
     0
 62
     3
  6
CONTINUOUS
370
    -3
390
623
  0
LAYER
  5
1F3
330
2
100
AcDbSymbolTableRecord
100
AcDbLayerTableRecord
  2
SUNPOU
 70
     0
 62
     4
  6
CONTINUOUS
370
    -3
390
623
  0
LAYER
  5
1F4
330
2
100
AcDbSymbolTableRecord
100
AcDbLayerTableRecord
  2
CENTER L
 70
     0
 62
     1
  6
CENTER
370
    -3
390
623
  0
LAYER
  5
1F5
330
2
100
AcDbSymbolTableRecord
100
AcDbLayerTableRecord
  2
DEFPOINTS
 70
     0
 62
     7
  6
CONTINUOUS
290
     0
370
    -3
390
623
  0
LAYER
  5
A03
330
2
100
AcDbSymbolTableRecord
100
AcDbLayerTableRecord
  2
moji
 70
     0
 62
     2
  6
CONTINUOUS
370
    -3
390
623
  0
ENDTAB
  0
TABLE
  2
STYLE
  5
3
330
0
100
AcDbSymbolTable
 70
     2
  0
STYLE
  5
10
330
3
100
AcDbSymbolTableRecord
100
AcDbTextStyleTableRecord
  2
STANDARD
 70
     0
 40
0.0
 41
1.0
 50
0.0
 71
     0
 42
2.5
  3
TXT
  4
bigfont.shx
  0
STYLE
  5
A04
330
3
100
AcDbSymbolTableRecord
100
AcDbTextStyleTableRecord
  2
ｽﾀｲﾙ1
 70
     0
 40
0.0
 41
1.0
 50
0.0
 71
     0
 42
2.5
  3
MS PGothic.ttf
  4

1001
ACAD
1000
MS PGothic
1071
    32818
  0
ENDTAB
  0
TABLE
  2
VIEW
  5
6
330
0
100
AcDbSymbolTable
 70
     0
  0
ENDTAB
  0
TABLE
  2
UCS
  5
7
330
0
100
AcDbSymbolTable
 70
     0
  0
ENDTAB
  0
TABLE
  2
APPID
  5
9
330
0
100
AcDbSymbolTable
 70
     1
  0
APPID
  5
11
330
9
100
AcDbSymbolTableRecord
100
AcDbRegAppTableRecord
  2
ACAD
 70
     0
  0
ENDTAB
  0
TABLE
  2
DIMSTYLE
  5
A
330
0
100
AcDbSymbolTable
 70
     1
100
AcDbDimStyleTable
  0
DIMSTYLE
105
1D
102
{ACAD_REACTORS
330
1231
330
1247
330
1254
330
128F
330
12A5
330
12BF
330
12DE
330
12F8
330
1320
330
135B
330
1368
330
13AA
330
13E5
330
1404
102
}
330
A
100
AcDbSymbolTableRecord
100
AcDbDimStyleTableRecord
  2
STANDARD
 70
     0
340
10
  0
ENDTAB
  0
TABLE
  2
BLOCK_RECORD
  5
1
330
0
100
AcDbSymbolTable
 70
    62
  0
BLOCK_RECORD
  5
1A
330
1
100
AcDbSymbolTableRecord
100
AcDbBlockTableRecord
  2
*MODEL_SPACE
340
626
  0
BLOCK_RECORD
  5
17
330
1
100
AcDbSymbolTableRecord
100
AcDbBlockTableRecord
  2
*PAPER_SPACE
340
627
  0
BLOCK_RECORD
  5
B2
330
1
100
AcDbSymbolTableRecord
100
AcDbBlockTableRecord
  2
_OPEN
340
0
102
{BLKREFS
331
1487
331
1488
331
1499
331
149A
331
14A4
331
14A5
331
1490
331
1491
331
145D
331
145E
331
1449
331
144A
331
1440
331
1441
331
1452
331
1453
331
147E
331
147F
331
1435
331
1436
331
14AF
331
14B0
331
1473
331
1474
331
142C
331
142D
331
1468
331
1469
102
}
  0
BLOCK_RECORD
  5
1232
330
1
100
AcDbSymbolTableRecord
100
AcDbBlockTableRecord
  2
*D48
340
0
  0
BLOCK_RECORD
  5
1248
330
1
100
AcDbSymbolTableRecord
100
AcDbBlockTableRecord
  2
*D49
340
0
  0
BLOCK_RECORD
  5
1255
330
1
100
AcDbSymbolTableRecord
100
AcDbBlockTableRecord
  2
*D50
340
0
  0
BLOCK_RECORD
  5
1290
330
1
100
AcDbSymbolTableRecord
100
AcDbBlockTableRecord
  2
*D51
340
0
  0
BLOCK_RECORD
  5
12A6
330
1
100
AcDbSymbolTableRecord
100
AcDbBlockTableRecord
  2
*D52
340
0
  0
BLOCK_RECORD
  5
12C0
330
1
100
AcDbSymbolTableRecord
100
AcDbBlockTableRecord
  2
*D53
340
0
  0
BLOCK_RECORD
  5
12DF
330
1
100
AcDbSymbolTableRecord
100
AcDbBlockTableRecord
  2
*D54
340
0
  0
BLOCK_RECORD
  5
12F9
330
1
100
AcDbSymbolTableRecord
100
AcDbBlockTableRecord
  2
*D55
340
0
  0
BLOCK_RECORD
  5
1321
330
1
100
AcDbSymbolTableRecord
100
AcDbBlockTableRecord
  2
*D56
340
0
  0
BLOCK_RECORD
  5
135C
330
1
100
AcDbSymbolTableRecord
100
AcDbBlockTableRecord
  2
*D57
340
0
  0
BLOCK_RECORD
  5
1369
330
1
100
AcDbSymbolTableRecord
100
AcDbBlockTableRecord
  2
*D58
340
0
  0
BLOCK_RECORD
  5
13AB
330
1
100
AcDbSymbolTableRecord
100
AcDbBlockTableRecord
  2
*D59
340
0
  0
BLOCK_RECORD
  5
13E6
330
1
100
AcDbSymbolTableRecord
100
AcDbBlockTableRecord
  2
*D60
340
0
  0
BLOCK_RECORD
  5
1405
330
1
100
AcDbSymbolTableRecord
100
AcDbBlockTableRecord
  2
*D61
340
0
  0
ENDTAB
  0
ENDSEC
  0
SECTION
  2
BLOCKS
  0
BLOCK
  5
1B
330
1A
100
AcDbEntity
  8
0
100
AcDbBlockBegin
  2
*MODEL_SPACE
 70
     0
 71
     0
 10
0.0
 20
0.0
 30
0.0
  3
*MODEL_SPACE
  1

  0
ENDBLK
  5
1C
330
1A
100
AcDbEntity
  8
0
100
AcDbBlockEnd
  0
BLOCK
  5
18
330
17
100
AcDbEntity
 67
     1
  8
0
100
AcDbBlockBegin
  2
*PAPER_SPACE
 70
     0
 71
     0
 10
0.0
 20
0.0
 30
0.0
  3
*PAPER_SPACE
  1

  0
ENDBLK
  5
19
330
17
100
AcDbEntity
 67
     1
  8
0
100
AcDbBlockEnd
  0
BLOCK
  5
B3
330
B2
100
AcDbEntity
  8
0
100
AcDbBlockBegin
  2
_OPEN
 70
     0
 71
     0
 10
0.0
 20
0.0
 30
0.0
  3
_OPEN
  1

  0
LINE
  5
B4
330
B2
100
AcDbEntity
  8
0
  6
ByBlock
 62
     0
100
AcDbLine
 10
-1.0
 20
0.1666666666666667
 30
0.0
 11
0.0
 21
0.0
 31
0.0
  0
LINE
  5
B5
330
B2
100
AcDbEntity
  8
0
  6
ByBlock
 62
     0
100
AcDbLine
 10
0.0
 20
0.0
 30
0.0
 11
-1.0
 21
-0.1666666666666667
 31
0.0
  0
LINE
  5
B6
330
B2
100
AcDbEntity
  8
0
  6
ByBlock
 62
     0
100
AcDbLine
 10
0.0
 20
0.0
 30
0.0
 11
-1.0
 21
0.0
 31
0.0
  0
ENDBLK
  5
B7
330
B2
100
AcDbEntity
  8
0
100
AcDbBlockEnd
  0
BLOCK
  5
123C
330
1232
100
AcDbEntity
  8
0
100
AcDbBlockBegin
  2
*D48
 70
     1
 71
     0
 10
0.0
 20
0.0
 30
0.0
  3
*D48
  1

  0
LINE
  5
1484
330
1232
100
AcDbEntity
  8
SUNPOU
100
AcDbLine
 10
141.1339503243476
 20
184.1430151027279
 30
0.0
 11
141.1339503243476
 21
207.845904052008
 31
0.0
  0
LINE
  5
1485
330
1232
100
AcDbEntity
  8
SUNPOU
100
AcDbLine
 10
271.0133456175613
 20
163.0950555225684
 30
0.0
 11
271.0133456175613
 21
207.845904052008
 31
0.0
  0
LINE
  5
1486
330
1232
100
AcDbEntity
  8
SUNPOU
100
AcDbLine
 10
144.1339503243476
 20
206.345904052008
 30
0.0
 11
268.0133456175613
 21
206.345904052008
 31
0.0
  0
INSERT
  5
1487
330
1232
100
AcDbEntity
  8
SUNPOU
100
AcDbBlockReference
  2
_OPEN
 10
141.1339503243476
 20
206.345904052008
 30
0.0
 41
3.0
 42
3.0
 43
3.0
 50
180.0
  0
INSERT
  5
1488
330
1232
100
AcDbEntity
  8
SUNPOU
100
AcDbBlockReference
  2
_OPEN
 10
271.0133456175613
 20
206.345904052008
 30
0.0
 41
3.0
 42
3.0
 43
3.0
  0
MTEXT
  5
1489
330
1232
100
AcDbEntity
  8
SUNPOU
100
AcDbMText
 10
206.0736479709544
 20
208.845904052008
 30
0.0
 40
3.0
 41
0.0
 71
     5
 72
     1
  1
\A1;130
 73
     1
 44
1.0
  0
POINT
  5
148A
330
1232
100
AcDbEntity
  8
DEFPOINTS
 62
     0
100
AcDbPoint
 10
141.1339503243476
 20
181.1430151027279
 30
0.0
  0
POINT
  5
148B
330
1232
100
AcDbEntity
  8
DEFPOINTS
 62
     0
100
AcDbPoint
 10
271.0133456175613
 20
160.0950555225684
 30
0.0
  0
POINT
  5
148C
330
1232
100
AcDbEntity
  8
DEFPOINTS
 62
     0
100
AcDbPoint
 10
271.0133456175613
 20
206.345904052008
 30
0.0
  0
ENDBLK
  5
123D
330
1232
100
AcDbEntity
  8
0
100
AcDbBlockEnd
  0
BLOCK
  5
1252
330
1248
100
AcDbEntity
  8
0
100
AcDbBlockBegin
  2
*D49
 70
     1
 71
     0
 10
0.0
 20
0.0
 30
0.0
  3
*D49
  1

  0
LINE
  5
1496
330
1248
100
AcDbEntity
  8
SUNPOU
100
AcDbLine
 10
141.1339503243476
 20
187.1430151027279
 30
0.0
 11
141.1339503243476
 21
198.6845553912775
 31
0.0
  0
LINE
  5
1497
330
1248
100
AcDbEntity
  8
SUNPOU
100
AcDbLine
 10
154.2999086403056
 20
181.6835184870141
 30
0.0
 11
154.2999086403056
 21
198.6845553912775
 31
0.0
  0
LINE
  5
1498
330
1248
100
AcDbEntity
  8
SUNPOU
100
AcDbLine
 10
144.1339503243476
 20
197.1845553912775
 30
0.0
 11
151.2999086403056
 21
197.1845553912775
 31
0.0
  0
INSERT
  5
1499
330
1248
100
AcDbEntity
  8
SUNPOU
100
AcDbBlockReference
  2
_OPEN
 10
141.1339503243476
 20
197.1845553912775
 30
0.0
 41
3.0
 42
3.0
 43
3.0
 50
180.0
  0
INSERT
  5
149A
330
1248
100
AcDbEntity
  8
SUNPOU
100
AcDbBlockReference
  2
_OPEN
 10
154.2999086403056
 20
197.1845553912775
 30
0.0
 41
3.0
 42
3.0
 43
3.0
  0
MTEXT
  5
149B
330
1248
100
AcDbEntity
  8
SUNPOU
100
AcDbMText
 10
147.9793506271285
 20
199.6845553912775
 30
0.0
 40
3.0
 41
0.0
 71
     5
 72
     1
  1
\A1;13
 73
     1
 44
1.0
  0
POINT
  5
149C
330
1248
100
AcDbEntity
  8
DEFPOINTS
 62
     0
100
AcDbPoint
 10
141.1339503243476
 20
184.1430151027279
 30
0.0
  0
POINT
  5
149D
330
1248
100
AcDbEntity
  8
DEFPOINTS
 62
     0
100
AcDbPoint
 10
154.2999086403056
 20
178.6835184870141
 30
0.0
  0
POINT
  5
149E
330
1248
100
AcDbEntity
  8
DEFPOINTS
 62
     0
100
AcDbPoint
 10
154.2999086403056
 20
197.1845553912775
 30
0.0
  0
ENDBLK
  5
1253
330
1248
100
AcDbEntity
  8
0
100
AcDbBlockEnd
  0
BLOCK
  5
1261
330
1255
100
AcDbEntity
  8
0
100
AcDbBlockBegin
  2
*D50
 70
     1
 71
     0
 10
0.0
 20
0.0
 30
0.0
  3
*D50
  1

  0
LINE
  5
149F
330
1255
100
AcDbEntity
  8
SUNPOU
100
AcDbLine
 10
151.0132973087348
 20
182.1376954502122
 30
0.0
 11
174.4137461854632
 21
182.1376954502122
 31
0.0
  0
LINE
  5
14A0
330
1255
100
AcDbEntity
  8
SUNPOU
100
AcDbLine
 10
156.7652928362358
 20
172.7107258730513
 30
0.0
 11
174.4137461854632
 21
172.7107258730513
 31
0.0
  0
LINE
  5
14A1
330
1255
100
AcDbEntity
  8
SUNPOU
100
AcDbLine
 10
172.9137461854632
 20
185.1376954502122
 30
0.0
 11
172.9137461854632
 21
188.1376954502122
 31
0.0
  0
LINE
  5
14A2
330
1255
100
AcDbEntity
  8
SUNPOU
100
AcDbLine
 10
172.9137461854632
 20
169.7107258730513
 30
0.0
 11
172.9137461854632
 21
166.7107258730513
 31
0.0
  0
LINE
  5
14A3
330
1255
100
AcDbEntity
  8
SUNPOU
100
AcDbLine
 10
172.9137461854632
 20
182.1376954502122
 30
0.0
 11
172.9137461854632
 21
172.7107258730513
 31
0.0
  0
INSERT
  5
14A4
330
1255
100
AcDbEntity
  8
SUNPOU
100
AcDbBlockReference
  2
_OPEN
 10
172.9137461854632
 20
182.1376954502122
 30
0.0
 41
3.0
 42
3.0
 43
3.0
 50
270.0
  0
INSERT
  5
14A5
330
1255
100
AcDbEntity
  8
SUNPOU
100
AcDbBlockReference
  2
_OPEN
 10
172.9137461854632
 20
172.7107258730513
 30
0.0
 41
3.0
 42
3.0
 43
3.0
 50
90.0
  0
MTEXT
  5
14A6
330
1255
100
AcDbEntity
  8
SUNPOU
100
AcDbMText
 10
170.4137461854631
 20
177.4242106616317
 30
0.0
 40
3.0
 41
0.0
 71
     5
 72
     1
  1
\A1;9
 11
6.123031769111886E-17
 21
1.0
 31
0.0
 73
     1
 44
1.0
  0
POINT
  5
14A7
330
1255
100
AcDbEntity
  8
DEFPOINTS
 62
     0
100
AcDbPoint
 10
148.0132973087348
 20
182.1376954502122
 30
0.0
  0
POINT
  5
14A8
330
1255
100
AcDbEntity
  8
DEFPOINTS
 62
     0
100
AcDbPoint
 10
153.7652928362358
 20
172.7107258730513
 30
0.0
  0
POINT
  5
14A9
330
1255
100
AcDbEntity
  8
DEFPOINTS
 62
     0
100
AcDbPoint
 10
172.9137461854632
 20
172.7107258730513
 30
0.0
  0
ENDBLK
  5
1262
330
1255
100
AcDbEntity
  8
0
100
AcDbBlockEnd
  0
BLOCK
  5
129A
330
1290
100
AcDbEntity
  8
0
100
AcDbBlockBegin
  2
*D51
 70
     1
 71
     0
 10
0.0
 20
0.0
 30
0.0
  3
*D51
  1

  0
LINE
  5
148D
330
1290
100
AcDbEntity
  8
SUNPOU
100
AcDbLine
 10
145.0132973087348
 20
182.1376954502122
 30
0.0
 11
132.1135043305427
 21
182.1376954502122
 31
0.0
  0
LINE
  5
148E
330
1290
100
AcDbEntity
  8
SUNPOU
100
AcDbLine
 10
140.0150238403057
 20
166.0857973836811
 30
0.0
 11
132.1135043305427
 21
166.0857973836811
 31
0.0
  0
LINE
  5
148F
330
1290
100
AcDbEntity
  8
SUNPOU
100
AcDbLine
 10
133.6135043305427
 20
179.1376954502122
 30
0.0
 11
133.6135043305427
 21
169.0857973836811
 31
0.0
  0
INSERT
  5
1490
330
1290
100
AcDbEntity
  8
SUNPOU
100
AcDbBlockReference
  2
_OPEN
 10
133.6135043305427
 20
182.1376954502122
 30
0.0
 41
3.0
 42
3.0
 43
3.0
 50
90.0
  0
INSERT
  5
1491
330
1290
100
AcDbEntity
  8
SUNPOU
100
AcDbBlockReference
  2
_OPEN
 10
133.6135043305427
 20
166.0857973836811
 30
0.0
 41
3.0
 42
3.0
 43
3.0
 50
270.0
  0
MTEXT
  5
1492
330
1290
100
AcDbEntity
  8
SUNPOU
100
AcDbMText
 10
131.1135043305426
 20
174.1117464169466
 30
0.0
 40
3.0
 41
0.0
 71
     5
 72
     1
  1
\A1;16
 11
6.123031769111886E-17
 21
1.0
 31
0.0
 73
     1
 44
1.0
  0
POINT
  5
1493
330
1290
100
AcDbEntity
  8
DEFPOINTS
 62
     0
100
AcDbPoint
 10
148.0132973087348
 20
182.1376954502122
 30
0.0
  0
POINT
  5
1494
330
1290
100
AcDbEntity
  8
DEFPOINTS
 62
     0
100
AcDbPoint
 10
143.0150238403057
 20
166.0857973836811
 30
0.0
  0
POINT
  5
1495
330
1290
100
AcDbEntity
  8
DEFPOINTS
 62
     0
100
AcDbPoint
 10
133.6135043305427
 20
166.0857973836811
 30
0.0
  0
ENDBLK
  5
129B
330
1290
100
AcDbEntity
  8
0
100
AcDbBlockEnd
  0
BLOCK
  5
12B2
330
12A6
100
AcDbEntity
  8
0
100
AcDbBlockBegin
  2
*D52
 70
     1
 71
     0
 10
0.0
 20
0.0
 30
0.0
  3
*D52
  1

  0
LINE
  5
1458
330
12A6
100
AcDbEntity
  8
SUNPOU
100
AcDbLine
 10
165.5133456175608
 20
116.0949555225683
 30
0.0
 11
132.1135043305427
 21
116.0949555225683
 31
0.0
  0
LINE
  5
1459
330
12A6
100
AcDbEntity
  8
SUNPOU
100
AcDbLine
 10
170.5133456175608
 20
102.0949555225683
 30
0.0
 11
132.1135043305427
 21
102.0949555225683
 31
0.0
  0
LINE
  5
145A
330
12A6
100
AcDbEntity
  8
SUNPOU
100
AcDbLine
 10
133.6135043305427
 20
119.0949555225683
 30
0.0
 11
133.6135043305427
 21
122.0949555225683
 31
0.0
  0
LINE
  5
145B
330
12A6
100
AcDbEntity
  8
SUNPOU
100
AcDbLine
 10
133.6135043305427
 20
99.0949555225683
 30
0.0
 11
133.6135043305427
 21
96.0949555225683
 31
0.0
  0
LINE
  5
145C
330
12A6
100
AcDbEntity
  8
SUNPOU
100
AcDbLine
 10
133.6135043305427
 20
116.0949555225683
 30
0.0
 11
133.6135043305427
 21
102.0949555225683
 31
0.0
  0
INSERT
  5
145D
330
12A6
100
AcDbEntity
  8
SUNPOU
100
AcDbBlockReference
  2
_OPEN
 10
133.6135043305427
 20
116.0949555225683
 30
0.0
 41
3.0
 42
3.0
 43
3.0
 50
270.0
  0
INSERT
  5
145E
330
12A6
100
AcDbEntity
  8
SUNPOU
100
AcDbBlockReference
  2
_OPEN
 10
133.6135043305427
 20
102.0949555225683
 30
0.0
 41
3.0
 42
3.0
 43
3.0
 50
90.0
  0
MTEXT
  5
145F
330
12A6
100
AcDbEntity
  8
SUNPOU
100
AcDbMText
 10
131.1135043305427
 20
110.2946822680608
 30
0.0
 40
3.0
 41
0.0
 71
     5
 72
     1
  1
\A1;14
 11
6.123031769111886E-17
 21
1.0
 31
0.0
 73
     1
 44
1.0
  0
POINT
  5
1460
330
12A6
100
AcDbEntity
  8
DEFPOINTS
 62
     0
100
AcDbPoint
 10
168.5133456175608
 20
116.0949555225683
 30
0.0
  0
POINT
  5
1461
330
12A6
100
AcDbEntity
  8
DEFPOINTS
 62
     0
100
AcDbPoint
 10
173.5133456175608
 20
102.0949555225683
 30
0.0
  0
POINT
  5
1462
330
12A6
100
AcDbEntity
  8
DEFPOINTS
 62
     0
100
AcDbPoint
 10
133.6135043305427
 20
102.0949555225683
 30
0.0
  0
ENDBLK
  5
12B3
330
12A6
100
AcDbEntity
  8
0
100
AcDbBlockEnd
  0
BLOCK
  5
12CA
330
12C0
100
AcDbEntity
  8
0
100
AcDbBlockBegin
  2
*D53
 70
     1
 71
     0
 10
0.0
 20
0.0
 30
0.0
  3
*D53
  1

  0
LINE
  5
1446
330
12C0
100
AcDbEntity
  8
SUNPOU
100
AcDbLine
 10
142.0132973087348
 20
182.1376954502122
 30
0.0
 11
122.7825524426224
 21
182.1376954502122
 31
0.0
  0
LINE
  5
1447
330
12C0
100
AcDbEntity
  8
SUNPOU
100
AcDbLine
 10
167.5133456175608
 20
102.0949555225683
 30
0.0
 11
122.7825524426223
 21
102.0949555225683
 31
0.0
  0
LINE
  5
1448
330
12C0
100
AcDbEntity
  8
SUNPOU
100
AcDbLine
 10
124.2825524426224
 20
179.1376954502122
 30
0.0
 11
124.2825524426223
 21
105.0949555225683
 31
0.0
  0
INSERT
  5
1449
330
12C0
100
AcDbEntity
  8
SUNPOU
100
AcDbBlockReference
  2
_OPEN
 10
124.2825524426224
 20
182.1376954502122
 30
0.0
 41
3.0
 42
3.0
 43
3.0
 50
90.0
  0
INSERT
  5
144A
330
12C0
100
AcDbEntity
  8
SUNPOU
100
AcDbBlockReference
  2
_OPEN
 10
124.2825524426223
 20
102.0949555225683
 30
0.0
 41
3.0
 42
3.0
 43
3.0
 50
270.0
  0
MTEXT
  5
144B
330
12C0
100
AcDbEntity
  8
SUNPOU
100
AcDbMText
 10
121.7825524426223
 20
142.1163254863902
 30
0.0
 40
3.0
 41
0.0
 71
     5
 72
     1
  1
\A1;80
 11
6.123031769111886E-17
 21
1.0
 31
0.0
 73
     1
 44
1.0
  0
POINT
  5
144C
330
12C0
100
AcDbEntity
  8
DEFPOINTS
 62
     0
100
AcDbPoint
 10
145.0132973087348
 20
182.1376954502122
 30
0.0
  0
POINT
  5
144D
330
12C0
100
AcDbEntity
  8
DEFPOINTS
 62
     0
100
AcDbPoint
 10
170.5133456175608
 20
102.0949555225683
 30
0.0
  0
POINT
  5
144E
330
12C0
100
AcDbEntity
  8
DEFPOINTS
 62
     0
100
AcDbPoint
 10
124.2825524426223
 20
102.0949555225683
 30
0.0
  0
ENDBLK
  5
12CB
330
12C0
100
AcDbEntity
  8
0
100
AcDbBlockEnd
  0
BLOCK
  5
12EB
330
12DF
100
AcDbEntity
  8
0
100
AcDbBlockBegin
  2
*D54
 70
     1
 71
     0
 10
0.0
 20
0.0
 30
0.0
  3
*D54
  1

  0
LINE
  5
143B
330
12DF
100
AcDbEntity
  8
SUNPOU
100
AcDbLine
 10
158.8298191888193
 20
149.5497279856307
 30
0.0
 11
159.0377873657634
 21
148.0642148630436
 31
0.0
  0
LINE
  5
143C
330
12DF
100
AcDbEntity
  8
SUNPOU
100
AcDbLine
 10
160.1171173470816
 20
149.7299465559595
 30
0.0
 11
160.3250855240257
 21
148.2444334333723
 31
0.0
  0
LINE
  5
143D
330
12DF
100
AcDbEntity
  8
SUNPOU
100
AcDbLine
 10
156.2747292975332
 20
146.1627653865684
 30
0.0
 11
153.3037030523589
 21
145.7468290326803
 31
0.0
  0
LINE
  5
143E
330
12DF
100
AcDbEntity
  8
SUNPOU
100
AcDbLine
 10
163.504079946144
 20
147.1748566646733
 30
0.0
 11
179.3495532537401
 21
149.3931838854098
 31
0.0
  0
LINE
  5
143F
330
12DF
100
AcDbEntity
  8
SUNPOU
100
AcDbLine
 10
159.2457555427074
 20
146.5787017404565
 30
0.0
 11
160.5330537009697
 21
146.7589203107852
 31
0.0
  0
INSERT
  5
1440
330
12DF
100
AcDbEntity
  8
SUNPOU
100
AcDbBlockReference
  2
_OPEN
 10
159.2457555427074
 20
146.5787017404565
 30
0.0
 41
3.0
 42
3.0
 43
3.0
 50
7.969471934607321
  0
INSERT
  5
1441
330
12DF
100
AcDbEntity
  8
SUNPOU
100
AcDbBlockReference
  2
_OPEN
 10
160.5330537009697
 20
146.7589203107852
 30
0.0
 41
3.0
 42
3.0
 43
3.0
 50
187.9694719346073
  0
MTEXT
  5
1442
330
12DF
100
AcDbEntity
  8
SUNPOU
100
AcDbMText
 10
172.5657160942891
 20
150.9678436562975
 30
0.0
 40
3.0
 41
0.0
 71
     5
 72
     1
  1
\A1;t=1.3
 11
0.9903420817247542
 21
0.1386454512960315
 31
0.0
 73
     1
 44
1.0
  0
POINT
  5
1443
330
12DF
100
AcDbEntity
  8
DEFPOINTS
 62
     0
100
AcDbPoint
 10
159.2457555427074
 20
146.5787017404565
 30
0.0
  0
POINT
  5
1444
330
12DF
100
AcDbEntity
  8
DEFPOINTS
 62
     0
100
AcDbPoint
 10
160.5330537009697
 20
146.7589203107852
 30
0.0
  0
POINT
  5
1445
330
12DF
100
AcDbEntity
  8
DEFPOINTS
 62
     0
100
AcDbPoint
 10
160.5330537009697
 20
146.7589203107852
 30
0.0
  0
ENDBLK
  5
12EC
330
12DF
100
AcDbEntity
  8
0
100
AcDbBlockEnd
  0
BLOCK
  5
1303
330
12F9
100
AcDbEntity
  8
0
100
AcDbBlockBegin
  2
*D55
 70
     1
 71
     0
 10
0.0
 20
0.0
 30
0.0
  3
*D55
  1

  0
LINE
  5
144F
330
12F9
100
AcDbEntity
  8
SUNPOU
100
AcDbLine
 10
173.5133456175608
 20
99.09495552256828
 30
0.0
 11
173.5133456175608
 21
76.28157306167316
 31
0.0
  0
LINE
  5
1450
330
12F9
100
AcDbEntity
  8
SUNPOU
100
AcDbLine
 10
263.0133648302649
 20
99.09495552256828
 30
0.0
 11
263.0133648302649
 21
76.28157306167316
 31
0.0
  0
LINE
  5
1451
330
12F9
100
AcDbEntity
  8
SUNPOU
100
AcDbLine
 10
176.5133456175608
 20
77.78157306167316
 30
0.0
 11
260.0133648302649
 21
77.78157306167316
 31
0.0
  0
INSERT
  5
1452
330
12F9
100
AcDbEntity
  8
SUNPOU
100
AcDbBlockReference
  2
_OPEN
 10
173.5133456175608
 20
77.78157306167316
 30
0.0
 41
3.0
 42
3.0
 43
3.0
 50
180.0
  0
INSERT
  5
1453
330
12F9
100
AcDbEntity
  8
SUNPOU
100
AcDbBlockReference
  2
_OPEN
 10
263.0133648302649
 20
77.78157306167316
 30
0.0
 41
3.0
 42
3.0
 43
3.0
  0
MTEXT
  5
1454
330
12F9
100
AcDbEntity
  8
SUNPOU
100
AcDbMText
 10
218.2633552239129
 20
80.28157306167316
 30
0.0
 40
3.0
 41
0.0
 71
     5
 72
     1
  1
\A1;90
 73
     1
 44
1.0
  0
POINT
  5
1455
330
12F9
100
AcDbEntity
  8
DEFPOINTS
 62
     0
100
AcDbPoint
 10
173.5133456175608
 20
102.0949555225683
 30
0.0
  0
POINT
  5
1456
330
12F9
100
AcDbEntity
  8
DEFPOINTS
 62
     0
100
AcDbPoint
 10
263.0133648302649
 20
102.0949555225683
 30
0.0
  0
POINT
  5
1457
330
12F9
100
AcDbEntity
  8
DEFPOINTS
 62
     0
100
AcDbPoint
 10
263.0133648302649
 20
77.78157306167316
 30
0.0
  0
ENDBLK
  5
1304
330
12F9
100
AcDbEntity
  8
0
100
AcDbBlockEnd
  0
BLOCK
  5
132D
330
1321
100
AcDbEntity
  8
0
100
AcDbBlockBegin
  2
*D56
 70
     1
 71
     0
 10
0.0
 20
0.0
 30
0.0
  3
*D56
  1

  0
LINE
  5
1479
330
1321
100
AcDbEntity
  8
SUNPOU
100
AcDbLine
 10
206.4002757136555
 20
102.0949555225683
 30
0.0
 11
204.9002757136562
 21
102.0949555225683
 31
0.0
  0
LINE
  5
147A
330
1321
100
AcDbEntity
  8
SUNPOU
100
AcDbLine
 10
206.4002757136555
 20
103.394955522478
 30
0.0
 11
204.9002757136562
 21
103.394955522478
 31
0.0
  0
LINE
  5
147B
330
1321
100
AcDbEntity
  8
SUNPOU
100
AcDbLine
 10
203.4002757136562
 20
99.09495552256828
 30
0.0
 11
203.4002757136562
 21
96.09495552256828
 31
0.0
  0
LINE
  5
147C
330
1321
100
AcDbEntity
  8
SUNPOU
100
AcDbLine
 10
203.4002757136562
 20
106.394955522478
 30
0.0
 11
203.4002757136562
 21
122.394955522478
 31
0.0
  0
LINE
  5
147D
330
1321
100
AcDbEntity
  8
SUNPOU
100
AcDbLine
 10
203.4002757136562
 20
102.0949555225683
 30
0.0
 11
203.4002757136562
 21
103.394955522478
 31
0.0
  0
INSERT
  5
147E
330
1321
100
AcDbEntity
  8
SUNPOU
100
AcDbBlockReference
  2
_OPEN
 10
203.4002757136562
 20
102.0949555225683
 30
0.0
 41
3.0
 42
3.0
 43
3.0
 50
90.0
  0
INSERT
  5
147F
330
1321
100
AcDbEntity
  8
SUNPOU
100
AcDbBlockReference
  2
_OPEN
 10
203.4002757136562
 20
103.394955522478
 30
0.0
 41
3.0
 42
3.0
 43
3.0
 50
270.0
  0
MTEXT
  5
1480
330
1321
100
AcDbEntity
  8
SUNPOU
100
AcDbMText
 10
200.9002757136561
 20
115.8949555224781
 30
0.0
 40
3.0
 41
0.0
 71
     5
 72
     1
  1
\A1;t=1.3
 11
6.123031769111886E-17
 21
1.0
 31
0.0
 73
     1
 44
1.0
  0
POINT
  5
1481
330
1321
100
AcDbEntity
  8
DEFPOINTS
 62
     0
100
AcDbPoint
 10
203.4002757136555
 20
102.0949555225683
 30
0.0
  0
POINT
  5
1482
330
1321
100
AcDbEntity
  8
DEFPOINTS
 62
     0
100
AcDbPoint
 10
203.4002757136555
 20
103.394955522478
 30
0.0
  0
POINT
  5
1483
330
1321
100
AcDbEntity
  8
DEFPOINTS
 62
     0
100
AcDbPoint
 10
203.4002757136562
 20
103.394955522478
 30
0.0
  0
ENDBLK
  5
132E
330
1321
100
AcDbEntity
  8
0
100
AcDbBlockEnd
  0
BLOCK
  5
1366
330
135C
100
AcDbEntity
  8
0
100
AcDbBlockBegin
  2
*D57
 70
     1
 71
     0
 10
0.0
 20
0.0
 30
0.0
  3
*D57
  1

  0
LINE
  5
1432
330
135C
100
AcDbEntity
  8
SUNPOU
100
AcDbLine
 10
270.8393456175613
 20
162.0950555225684
 30
0.0
 11
284.8847045930682
 21
162.0950555225684
 31
0.0
  0
LINE
  5
1433
330
135C
100
AcDbEntity
  8
SUNPOU
100
AcDbLine
 10
271.5133456175613
 20
146.0950555225683
 30
0.0
 11
284.8847045930682
 21
146.0950555225683
 31
0.0
  0
LINE
  5
1434
330
135C
100
AcDbEntity
  8
SUNPOU
100
AcDbLine
 10
283.3847045930682
 20
159.0950555225684
 30
0.0
 11
283.3847045930682
 21
149.0950555225683
 31
0.0
  0
INSERT
  5
1435
330
135C
100
AcDbEntity
  8
SUNPOU
100
AcDbBlockReference
  2
_OPEN
 10
283.3847045930682
 20
162.0950555225684
 30
0.0
 41
3.0
 42
3.0
 43
3.0
 50
90.0
  0
INSERT
  5
1436
330
135C
100
AcDbEntity
  8
SUNPOU
100
AcDbBlockReference
  2
_OPEN
 10
283.3847045930682
 20
146.0950555225683
 30
0.0
 41
3.0
 42
3.0
 43
3.0
 50
270.0
  0
MTEXT
  5
1437
330
135C
100
AcDbEntity
  8
SUNPOU
100
AcDbMText
 10
280.8847045930681
 20
153.2174834791911
 30
0.0
 40
3.0
 41
0.0
 71
     5
 72
     1
  1
\A1;16
 11
6.123031769111886E-17
 21
1.0
 31
0.0
 73
     1
 44
1.0
  0
POINT
  5
1438
330
135C
100
AcDbEntity
  8
DEFPOINTS
 62
     0
100
AcDbPoint
 10
267.8393456175613
 20
162.0950555225684
 30
0.0
  0
POINT
  5
1439
330
135C
100
AcDbEntity
  8
DEFPOINTS
 62
     0
100
AcDbPoint
 10
268.5133456175613
 20
146.0950555225683
 30
0.0
  0
POINT
  5
143A
330
135C
100
AcDbEntity
  8
DEFPOINTS
 62
     0
100
AcDbPoint
 10
283.3847045930682
 20
146.0950555225683
 30
0.0
  0
ENDBLK
  5
1367
330
135C
100
AcDbEntity
  8
0
100
AcDbBlockEnd
  0
BLOCK
  5
1375
330
1369
100
AcDbEntity
  8
0
100
AcDbBlockBegin
  2
*D58
 70
     1
 71
     0
 10
0.0
 20
0.0
 30
0.0
  3
*D58
  1

  0
LINE
  5
14AA
330
1369
100
AcDbEntity
  8
SUNPOU
100
AcDbLine
 10
264.4392405934527
 20
165.0950555225685
 30
0.0
 11
264.4392405934527
 21
177.3597108624064
 31
0.0
  0
LINE
  5
14AB
330
1369
100
AcDbEntity
  8
SUNPOU
100
AcDbLine
 10
271.0133456175613
 20
166.0950555225684
 30
0.0
 11
271.0133456175613
 21
177.3597108624064
 31
0.0
  0
LINE
  5
14AC
330
1369
100
AcDbEntity
  8
SUNPOU
100
AcDbLine
 10
261.4392405934527
 20
175.8597108624064
 30
0.0
 11
258.4392405934527
 21
175.8597108624064
 31
0.0
  0
LINE
  5
14AD
330
1369
100
AcDbEntity
  8
SUNPOU
100
AcDbLine
 10
274.0133456175613
 20
175.8597108624064
 30
0.0
 11
277.0133456175613
 21
175.8597108624064
 31
0.0
  0
LINE
  5
14AE
330
1369
100
AcDbEntity
  8
SUNPOU
100
AcDbLine
 10
264.4392405934527
 20
175.8597108624064
 30
0.0
 11
271.0133456175613
 21
175.8597108624064
 31
0.0
  0
INSERT
  5
14AF
330
1369
100
AcDbEntity
  8
SUNPOU
100
AcDbBlockReference
  2
_OPEN
 10
264.4392405934527
 20
175.8597108624064
 30
0.0
 41
3.0
 42
3.0
 43
3.0
  0
INSERT
  5
14B0
330
1369
100
AcDbEntity
  8
SUNPOU
100
AcDbBlockReference
  2
_OPEN
 10
271.0133456175613
 20
175.8597108624064
 30
0.0
 41
3.0
 42
3.0
 43
3.0
 50
180.0
  0
MTEXT
  5
14B1
330
1369
100
AcDbEntity
  8
SUNPOU
100
AcDbMText
 10
267.726293105507
 20
178.3597108624064
 30
0.0
 40
3.0
 41
0.0
 71
     5
 72
     1
  1
\A1;7
 73
     1
 44
1.0
  0
POINT
  5
14B2
330
1369
100
AcDbEntity
  8
DEFPOINTS
 62
     0
100
AcDbPoint
 10
264.4392405934527
 20
162.0950555225685
 30
0.0
  0
POINT
  5
14B3
330
1369
100
AcDbEntity
  8
DEFPOINTS
 62
     0
100
AcDbPoint
 10
271.0133456175613
 20
163.0950555225684
 30
0.0
  0
POINT
  5
14B4
330
1369
100
AcDbEntity
  8
DEFPOINTS
 62
     0
100
AcDbPoint
 10
271.0133456175613
 20
175.8597108624064
 30
0.0
  0
ENDBLK
  5
1376
330
1369
100
AcDbEntity
  8
0
100
AcDbBlockEnd
  0
BLOCK
  5
13B7
330
13AB
100
AcDbEntity
  8
0
100
AcDbBlockBegin
  2
*D59
 70
     1
 71
     0
 10
0.0
 20
0.0
 30
0.0
  3
*D59
  1

  0
LINE
  5
146E
330
13AB
100
AcDbEntity
  8
SUNPOU
100
AcDbLine
 10
265.0133456175613
 20
143.0950555225683
 30
0.0
 11
265.0133456175613
 21
111.9302734845344
 31
0.0
  0
LINE
  5
146F
330
13AB
100
AcDbEntity
  8
SUNPOU
100
AcDbLine
 10
271.0133456175613
 20
141.595026833103
 30
0.0
 11
271.0133456175613
 21
111.9302734845344
 31
0.0
  0
LINE
  5
1470
330
13AB
100
AcDbEntity
  8
SUNPOU
100
AcDbLine
 10
262.0133456175613
 20
113.4302734845344
 30
0.0
 11
259.0133456175613
 21
113.4302734845344
 31
0.0
  0
LINE
  5
1471
330
13AB
100
AcDbEntity
  8
SUNPOU
100
AcDbLine
 10
274.0133456175613
 20
113.4302734845344
 30
0.0
 11
277.0133456175613
 21
113.4302734845344
 31
0.0
  0
LINE
  5
1472
330
13AB
100
AcDbEntity
  8
SUNPOU
100
AcDbLine
 10
265.0133456175613
 20
113.4302734845344
 30
0.0
 11
271.0133456175613
 21
113.4302734845344
 31
0.0
  0
INSERT
  5
1473
330
13AB
100
AcDbEntity
  8
SUNPOU
100
AcDbBlockReference
  2
_OPEN
 10
265.0133456175613
 20
113.4302734845344
 30
0.0
 41
3.0
 42
3.0
 43
3.0
  0
INSERT
  5
1474
330
13AB
100
AcDbEntity
  8
SUNPOU
100
AcDbBlockReference
  2
_OPEN
 10
271.0133456175613
 20
113.4302734845344
 30
0.0
 41
3.0
 42
3.0
 43
3.0
 50
180.0
  0
MTEXT
  5
1475
330
13AB
100
AcDbEntity
  8
SUNPOU
100
AcDbMText
 10
268.0133456175613
 20
115.9302734845344
 30
0.0
 40
3.0
 41
0.0
 71
     5
 72
     1
  1
\A1;6
 73
     1
 44
1.0
  0
POINT
  5
1476
330
13AB
100
AcDbEntity
  8
DEFPOINTS
 62
     0
100
AcDbPoint
 10
265.0133456175613
 20
146.0950555225683
 30
0.0
  0
POINT
  5
1477
330
13AB
100
AcDbEntity
  8
DEFPOINTS
 62
     0
100
AcDbPoint
 10
271.0133456175613
 20
144.595026833103
 30
0.0
  0
POINT
  5
1478
330
13AB
100
AcDbEntity
  8
DEFPOINTS
 62
     0
100
AcDbPoint
 10
271.0133456175613
 20
113.4302734845344
 30
0.0
  0
ENDBLK
  5
13B8
330
13AB
100
AcDbEntity
  8
0
100
AcDbBlockEnd
  0
BLOCK
  5
13F0
330
13E6
100
AcDbEntity
  8
0
100
AcDbBlockBegin
  2
*D60
 70
     1
 71
     0
 10
0.0
 20
0.0
 30
0.0
  3
*D60
  1

  0
LINE
  5
1429
330
13E6
100
AcDbEntity
  8
SUNPOU
100
AcDbLine
 10
273.8393456175613
 20
162.0950555225684
 30
0.0
 11
291.3633513133687
 21
162.0950555225684
 31
0.0
  0
LINE
  5
142A
330
13E6
100
AcDbEntity
  8
SUNPOU
100
AcDbLine
 10
266.0133648302649
 20
102.0949555225683
 30
0.0
 11
291.3633513133686
 21
102.0949555225683
 31
0.0
  0
LINE
  5
142B
330
13E6
100
AcDbEntity
  8
SUNPOU
100
AcDbLine
 10
289.8633513133687
 20
159.0950555225684
 30
0.0
 11
289.8633513133686
 21
105.0949555225683
 31
0.0
  0
INSERT
  5
142C
330
13E6
100
AcDbEntity
  8
SUNPOU
100
AcDbBlockReference
  2
_OPEN
 10
289.8633513133687
 20
162.0950555225684
 30
0.0
 41
3.0
 42
3.0
 43
3.0
 50
90.0
  0
INSERT
  5
142D
330
13E6
100
AcDbEntity
  8
SUNPOU
100
AcDbBlockReference
  2
_OPEN
 10
289.8633513133686
 20
102.0949555225683
 30
0.0
 41
3.0
 42
3.0
 43
3.0
 50
270.0
  0
MTEXT
  5
142E
330
13E6
100
AcDbEntity
  8
SUNPOU
100
AcDbMText
 10
287.3633513133686
 20
132.0950055225683
 30
0.0
 40
3.0
 41
0.0
 71
     5
 72
     1
  1
\A1;60
 11
6.123031769111886E-17
 21
1.0
 31
0.0
 73
     1
 44
1.0
  0
POINT
  5
142F
330
13E6
100
AcDbEntity
  8
DEFPOINTS
 62
     0
100
AcDbPoint
 10
270.8393456175613
 20
162.0950555225684
 30
0.0
  0
POINT
  5
1430
330
13E6
100
AcDbEntity
  8
DEFPOINTS
 62
     0
100
AcDbPoint
 10
263.0133648302649
 20
102.0949555225683
 30
0.0
  0
POINT
  5
1431
330
13E6
100
AcDbEntity
  8
DEFPOINTS
 62
     0
100
AcDbPoint
 10
289.8633513133686
 20
102.0949555225683
 30
0.0
  0
ENDBLK
  5
13F1
330
13E6
100
AcDbEntity
  8
0
100
AcDbBlockEnd
  0
BLOCK
  5
1411
330
1405
100
AcDbEntity
  8
0
100
AcDbBlockBegin
  2
*D61
 70
     1
 71
     0
 10
0.0
 20
0.0
 30
0.0
  3
*D61
  1

  0
LINE
  5
1463
330
1405
100
AcDbEntity
  8
SUNPOU
100
AcDbLine
 10
262.5278746765039
 20
120.0441081235595
 30
0.0
 11
262.5937603700084
 21
121.493610599372
 31
0.0
  0
LINE
  5
1464
330
1405
100
AcDbEntity
  8
SUNPOU
100
AcDbLine
 10
263.826542576874
 20
119.9850784656765
 30
0.0
 11
263.8924282703785
 21
121.4345809414889
 31
0.0
  0
LINE
  5
1465
330
1405
100
AcDbEntity
  8
SUNPOU
100
AcDbLine
 10
266.9574446483582
 20
122.7968124206131
 30
0.0
 11
269.9543503423915
 21
122.6605910527205
 31
0.0
  0
LINE
  5
1466
330
1405
100
AcDbEntity
  8
SUNPOU
100
AcDbLine
 10
259.6649653599213
 20
123.1282848142812
 30
0.0
 11
243.6814683250768
 21
123.8547987763747
 31
0.0
  0
LINE
  5
1467
330
1405
100
AcDbEntity
  8
SUNPOU
100
AcDbLine
 10
263.9605389543248
 20
122.9330337885056
 30
0.0
 11
262.6618710539547
 21
122.9920634463886
 31
0.0
  0
INSERT
  5
1468
330
1405
100
AcDbEntity
  8
SUNPOU
100
AcDbBlockReference
  2
_OPEN
 10
263.9605389543248
 20
122.9330337885056
 30
0.0
 41
3.0
 42
3.0
 43
3.0
 50
177.397468670964
  0
INSERT
  5
1469
330
1405
100
AcDbEntity
  8
SUNPOU
100
AcDbBlockReference
  2
_OPEN
 10
262.6618710539547
 20
122.9920634463886
 30
0.0
 41
3.0
 42
3.0
 43
3.0
 50
357.397468670964
  0
MTEXT
  5
146A
330
1405
100
AcDbEntity
  8
SUNPOU
100
AcDbMText
 10
250.2882818020595
 20
126.0570738909686
 30
0.0
 40
3.0
 41
0.0
 71
     5
 72
     1
  1
\A1;t=1.3
 11
0.9989685646777818
 21
-0.04540712263084333
 31
0.0
 73
     1
 44
1.0
  0
POINT
  5
146B
330
1405
100
AcDbEntity
  8
DEFPOINTS
 62
     0
100
AcDbPoint
 10
262.6640960443964
 20
123.0410138175929
 30
0.0
  0
POINT
  5
146C
330
1405
100
AcDbEntity
  8
DEFPOINTS
 62
     0
100
AcDbPoint
 10
263.9627639447666
 20
122.9819841597099
 30
0.0
  0
POINT
  5
146D
330
1405
100
AcDbEntity
  8
DEFPOINTS
 62
     0
100
AcDbPoint
 10
263.9605389543248
 20
122.9330337885056
 30
0.0
  0
ENDBLK
  5
1412
330
1405
100
AcDbEntity
  8
0
100
AcDbBlockEnd
  0
ENDSEC
  0
SECTION
  2
ENTITIES
  0
LWPOLYLINE
  5
ABF
330
1A
100
AcDbEntity
  8
ZUWAKU
100
AcDbPolyline
 90
        4
 70
     1
 43
0.0
 10
0.3999995171010369
 20
275.3999999613564
 10
0.3999995171010369
 20
0.3999999613564
 10
398.399999517101
 20
0.3999999613564
 10
398.399999517101
 20
275.3999999613564
  0
LWPOLYLINE
  5
AC0
330
1A
100
AcDbEntity
  8
ZUWAKU
100
AcDbPolyline
 90
        4
 70
     1
 43
0.0
 10
0.1999995171010482
 20
275.5999999613564
 10
0.1999995171010482
 20
0.1999999613564114
 10
398.5999995171011
 20
0.1999999613563999
 10
398.5999995171011
 20
275.5999999613564
  0
LWPOLYLINE
  5
AC1
330
1A
100
AcDbEntity
  8
ZUWAKU
100
AcDbPolyline
 90
        4
 70
     1
 43
0.0
 10
-0.0000004828989404
 20
275.7999999613564
 10
-0.0000004828989404
 20
-0.0000000386436341
 10
398.7999995171011
 20
-0.0000000386436003
 10
398.7999995171011
 20
275.7999999613564
  0
LWPOLYLINE
  5
AC2
330
1A
100
AcDbEntity
  8
ZUWAKU
100
AcDbPolyline
 90
        4
 70
     1
 43
0.0
 10
0.2999995171010141
 20
275.4999999613564
 10
0.2999995171010141
 20
0.2999999613563773
 10
398.4999995171012
 20
0.2999999613564004
 10
398.4999995171011
 20
275.4999999613564
  0
LWPOLYLINE
  5
AC3
330
1A
100
AcDbEntity
  8
ZUWAKU
100
AcDbPolyline
 90
        4
 70
     1
 43
0.0
 10
0.0999995171010255
 20
275.6999999613564
 10
0.0999995171010255
 20
0.0999999613563887
 10
398.699999517101
 20
0.0999999613564002
 10
398.6999995171011
 20
275.6999999613564
  0
LINE
  5
AC4
330
1A
100
AcDbEntity
  8
ZUWAKU
100
AcDbLine
 10
-0.0000004828989404
 20
14.99999996135637
 30
0.0
 11
398.699999517101
 21
14.99999996135637
 31
0.0
  0
LINE
  5
AC5
330
1A
100
AcDbEntity
  8
ZUWAKU
100
AcDbLine
 10
-0.0000004828989404
 20
15.09999996135637
 30
0.0
 11
398.699999517101
 21
15.09999996135637
 31
0.0
  0
LINE
  5
AC6
330
1A
100
AcDbEntity
  8
ZUWAKU
100
AcDbLine
 10
-0.0000004828989404
 20
15.19999996135637
 30
0.0
 11
398.699999517101
 21
15.19999996135637
 31
0.0
  0
LINE
  5
AC7
330
1A
100
AcDbEntity
  8
ZUWAKU
100
AcDbLine
 10
-0.0000004828989404
 20
15.29999996135637
 30
0.0
 11
398.699999517101
 21
15.29999996135637
 31
0.0
  0
LINE
  5
AC8
330
1A
100
AcDbEntity
  8
ZUWAKU
100
AcDbLine
 10
-0.0000004828989404
 20
15.39999996135637
 30
0.0
 11
398.699999517101
 21
15.39999996135637
 31
0.0
  0
LINE
  5
AC9
330
1A
100
AcDbEntity
  8
ZUWAKU
100
AcDbLine
 10
104.3233001621351
 20
7.699999961356383
 30
0.0
 11
223.7121815025968
 21
7.699999961356383
 31
0.0
  0
LINE
  5
ACA
330
1A
100
AcDbEntity
  8
ZUWAKU
100
AcDbLine
 10
104.3233001621351
 20
7.799999961356383
 30
0.0
 11
223.7121815025968
 21
7.799999961356386
 31
0.0
  0
LINE
  5
ACB
330
1A
100
AcDbEntity
  8
ZUWAKU
100
AcDbLine
 10
104.3233001621351
 20
7.599999961356385
 30
0.0
 11
223.7121815025968
 21
7.599999961356382
 31
0.0
  0
TEXT
  5
ACC
330
1A
100
AcDbEntity
  8
moji
100
AcDbText
 10
46.47889431118563
 20
6.370589026493747
 30
0.0
 40
3.0
  1
アーバントップΣ９０
 41
0.9
  7
ｽﾀｲﾙ1
100
AcDbText
  0
CIRCLE
  5
ACD
330
1A
100
AcDbEntity
  8
ZUWAKU
100
AcDbCircle
 10
12.99610559449161
 20
7.599999961356367
 30
0.0
 40
0.875
  0
LINE
  5
ACE
330
1A
100
AcDbEntity
  8
ZUWAKU
100
AcDbLine
 10
13.43360559449161
 20
3.574999961356369
 30
0.0
 11
12.47110559449163
 21
3.574999961356369
 31
0.0
  0
LINE
  5
ACF
330
1A
100
AcDbEntity
  8
ZUWAKU
100
AcDbLine
 10
12.47110559449163
 20
4.974999961356367
 30
0.0
 11
13.43360559449161
 21
4.974999961356367
 31
0.0
  0
LINE
  5
AD0
330
1A
100
AcDbEntity
  8
ZUWAKU
100
AcDbLine
 10
13.43360559449161
 20
10.22499996135637
 30
0.0
 11
12.47110559449163
 21
10.22499996135637
 31
0.0
  0
LINE
  5
AD1
330
1A
100
AcDbEntity
  8
ZUWAKU
100
AcDbLine
 10
12.47110559449163
 20
11.62499996135635
 30
0.0
 11
13.43360559449161
 21
11.62499996135637
 31
0.0
  0
HATCH
  5
AD2
330
1A
100
AcDbEntity
  8
ZUWAKU
100
AcDbHatch
 10
0.0
 20
0.0
 30
0.0
210
0.0
220
0.0
230
1.0
  2
ANSI37
 70
     0
 71
     0
 91
        8
 92
        7
 72
     1
 73
     1
 93
       24
 10
7.251130847660988
 20
8.822424201848158
 42
-0.1989123673796348
 10
7.046105594491621
 20
9.317398948678683
 42
0.0
 10
7.046105594491621
 20
9.962499961356372
 42
-0.4142135623730912
 10
7.30860559449161
 20
10.22499996135637
 42
0.0
 10
8.796105594491564
 20
10.22499996135637
 42
0.4142135623731546
 10
9.05860559449161
 20
10.48749996135636
 42
0.0
 10
9.05860559449161
 20
11.36249996135637
 42
0.4142135623731586
 10
8.796105594491564
 20
11.62499996135637
 42
0.0
 10
7.046105594491621
 20
11.62499996135637
 42
0.4142135623730928
 10
5.646105594491644
 20
10.22499996135638
 42
0.0
 10
5.646105594491644
 20
9.317398948678747
 42
0.1989123673796619
 10
6.261181353999859
 20
7.832474708186943
 42
0.0
 10
7.716080341322197
 20
6.377575720864614
 42
-0.1989123673796613
 10
7.921105594491621
 20
5.882600974034022
 42
0.0
 10
7.921105594491621
 20
5.237499961356363
 42
-0.4142135623730911
 10
7.658605594491633
 20
4.974999961356367
 42
0.0
 10
6.171105594491678
 20
4.974999961356367
 42
0.4142135623731526
 10
5.908605594491633
 20
4.712499961356373
 42
0.0
 10
5.908605594491633
 20
3.837499961356363
 42
0.4142135623731526
 10
6.171105594491678
 20
3.574999961356369
 42
0.0
 10
7.921105594491621
 20
3.574999961356369
 42
0.4142135623731044
 10
9.321105594491655
 20
4.974999961356357
 42
0.0
 10
9.321105594491655
 20
5.882600974033993
 42
0.1989123673796604
 10
8.706029834983383
 20
7.367525214525763
 42
0.0
 97
        0
 92
        7
 72
     1
 73
     1
 93
       16
 10
11.77110559449164
 20
9.524999961356372
 42
-0.4142135623730935
 10
12.47110559449163
 20
10.22499996135637
 42
0.0
 10
13.43360559449161
 20
10.22499996135637
 42
0.4142135623731546
 10
13.69610559449166
 20
10.48749996135636
 42
0.0
 10
13.69610559449166
 20
11.36249996135637
 42
0.4142135623730952
 10
13.43360559449167
 20
11.62499996135637
 42
0.0
 10
12.47110559449158
 20
11.62499996135635
 42
0.4142135623730892
 10
10.37110559449161
 20
9.524999961356336
 42
0.0
 10
10.37110559449161
 20
5.674999961356381
 42
0.4142135623730969
 10
12.47110559449163
 20
3.574999961356369
 42
0.0
 10
13.43360559449161
 20
3.574999961356369
 42
0.4142135623731526
 10
13.69610559449166
 20
3.837499961356363
 42
0.0
 10
13.69610559449166
 20
4.712499961356373
 42
0.414213562373089
 10
13.43360559449167
 20
4.974999961356367
 42
0.0
 10
12.47110559449163
 20
4.974999961356367
 42
-0.4142135623730928
 10
11.77110559449164
 20
5.674999961356361
 42
0.0
 97
        0
 92
        7
 72
     1
 73
     1
 93
        2
 10
12.12110559449161
 20
7.599999961356367
 42
1.0
 10
13.87110559449161
 20
7.599999961356367
 42
1.0
 97
        0
 92
        7
 72
     1
 73
     1
 93
       26
 10
18.65742883558062
 20
9.602523558138081
 42
0.0
 10
19.18824865214953
 20
11.28345297727288
 42
0.5069206636600134
 10
18.93793320255185
 20
11.62499996135637
 42
0.0
 10
18.08848851274723
 20
11.62499996135637
 42
0.3272098845218764
 10
17.83817306314955
 20
11.44154694543985
 42
0.0
 10
16.90403812583367
 20
8.483452977272908
 42
-0.3272098845219541
 10
16.65372267623593
 20
8.299999961356367
 42
0.0
 10
16.5836055944917
 20
8.299999961356367
 42
-0.4142135623731526
 10
16.32110559449166
 20
8.562499961356361
 42
0.0
 10
16.32110559449166
 20
11.36249996135637
 42
0.4142135623730952
 10
16.05860559449167
 20
11.62499996135637
 42
0.0
 10
15.18360559449161
 20
11.62499996135637
 42
0.4142135623730872
 10
14.92110559449162
 20
11.36249996135638
 42
0.0
 10
14.92110559449162
 20
3.837499961356363
 42
0.414213562373089
 10
15.18360559449161
 20
3.574999961356369
 42
0.0
 10
16.05860559449161
 20
3.574999961356369
 42
0.4142135623731526
 10
16.32110559449166
 20
3.837499961356363
 42
0.0
 10
16.32110559449166
 20
6.637499961356374
 42
-0.4142135623731526
 10
16.5836055944917
 20
6.899999961356368
 42
0.0
 10
16.65372267623599
 20
6.899999961356368
 42
-0.3272098845218915
 10
16.90403812583367
 20
6.716546945439831
 42
0.0
 10
17.83817306314955
 20
3.758452977272905
 42
0.3272098845218902
 10
18.08848851274723
 20
3.574999961356369
 42
0.0
 10
18.93793320255185
 20
3.574999961356369
 42
0.5069206636600334
 10
19.18824865214953
 20
3.916546945439873
 42
0.0
 10
18.0250529629127
 20
7.599999961356437
 42
0.0
 97
        0
 92
        7
 72
     1
 73
     1
 93
        8
 10
21.74610559449161
 20
11.36249996135637
 42
0.4142135623731546
 10
21.48360559449156
 20
11.62499996135637
 42
0.0
 10
20.60860559449168
 20
11.62499996135637
 42
0.4142135623731506
 10
20.34610559449163
 20
11.36249996135638
 42
0.0
 10
20.34610559449163
 20
3.837499961356363
 42
0.4142135623731526
 10
20.60860559449168
 20
3.574999961356369
 42
0.0
 10
21.48360559449156
 20
3.574999961356369
 42
0.4142135623731526
 10
21.74610559449161
 20
3.837499961356363
 42
0.0
 97
        0
 92
        7
 72
     1
 73
     1
 93
       24
 10
24.19610559449166
 20
9.962499961356372
 42
-0.4142135623731547
 10
24.4586055944917
 20
10.22499996135637
 42
0.0
 10
25.94610559449166
 20
10.22499996135637
 42
0.4142135623730911
 10
26.20860559449164
 20
10.48749996135636
 42
0.0
 10
26.20860559449164
 20
11.36249996135637
 42
0.4142135623730952
 10
25.94610559449166
 20
11.62499996135637
 42
0.0
 10
24.19610559449166
 20
11.62499996135637
 42
0.4142135623731048
 10
22.79610559449162
 20
10.22499996135638
 42
0.0
 10
22.79610559449162
 20
9.317398948678747
 42
0.1989123673796613
 10
23.41118135399989
 20
7.832474708186972
 42
0.0
 10
24.86608034132223
 20
6.377575720864638
 42
-0.1989123673796402
 10
25.07110559449166
 20
5.882600974034101
 42
0.0
 10
25.07110559449166
 20
5.237499961356363
 42
-0.4142135623730911
 10
24.80860559449167
 20
4.974999961356367
 42
0.0
 10
23.32110559449166
 20
4.974999961356367
 42
0.4142135623731526
 10
23.05860559449161
 20
4.712499961356373
 42
0.0
 10
23.05860559449161
 20
3.837499961356363
 42
0.414213562373089
 10
23.3211055944916
 20
3.574999961356369
 42
0.0
 10
25.07110559449166
 20
3.574999961356369
 42
0.4142135623730925
 10
26.47110559449163
 20
4.974999961356357
 42
0.0
 10
26.47110559449163
 20
5.882600974033993
 42
0.1989123673796675
 10
25.85602983498336
 20
7.36752521452582
 42
0.0
 10
24.40113084766108
 20
8.822424201848078
 42
-0.1989123673796653
 10
24.19610559449166
 20
9.317398948678662
 42
0.0
 97
        0
 92
        7
 72
     1
 73
     1
 93
       16
 10
28.92110559449162
 20
11.36249996135636
 42
0.414213562373103
 10
28.65860559449163
 20
11.62499996135637
 42
0.0
 10
27.78360559449163
 20
11.62499996135637
 42
0.4142135623730872
 10
27.52110559449164
 20
11.36249996135638
 42
0.0
 10
27.52110559449164
 20
4.974999961356357
 42
0.4142135623730925
 10
28.92110559449162
 20
3.574999961356369
 42
0.0
 10
30.67110559449162
 20
3.574999961356369
 42
0.4142135623731044
 10
32.07110559449166
 20
4.974999961356357
 42
0.0
 10
32.07110559449166
 20
11.36249996135637
 42
0.4142135623730952
 10
31.80860559449167
 20
11.62499996135637
 42
0.0
 10
30.93360559449161
 20
11.62499996135637
 42
0.4142135623730872
 10
30.67110559449162
 20
11.36249996135638
 42
0.0
 10
30.67110559449162
 20
5.499999961356355
 42
-0.414213562373088
 10
30.14610559449164
 20
4.974999961356367
 42
0.0
 10
29.44610559449166
 20
4.974999961356367
 42
-0.4142135623731197
 10
28.92110559449162
 20
5.499999961356355
 42
0.0
 97
        0
 92
        7
 72
     1
 73
     1
 93
        8
 10
34.52110559449164
 20
11.36249996135638
 42
0.4142135623730872
 10
34.25860559449166
 20
11.62499996135637
 42
0.0
 10
33.38360559449166
 20
11.62499996135637
 42
0.4142135623731506
 10
33.12110559449161
 20
11.36249996135638
 42
0.0
 10
33.12110559449161
 20
3.837499961356363
 42
0.414213562373089
 10
33.3836055944916
 20
3.574999961356369
 42
0.0
 10
34.25860559449166
 20
3.574999961356369
 42
0.414213562373089
 10
34.52110559449164
 20
3.837499961356363
 42
0.0
 97
        0
 75
     0
 76
     1
 52
0.0
 41
0.1
 77
     0
 78
     2
 53
45.0
 43
-450.4711526502384
 44
-6.6000000386436
 45
-0.2245064030267288
 46
0.2245064030267289
 79
     0
 53
135.0
 43
-450.4711526502384
 44
-6.6000000386436
 45
-0.2245064030267289
 46
-0.2245064030267288
 79
     0
 47
0.057451373970553
 98
        8
 10
8.039926998612714
 20
7.583586784299143
 10
11.20225702032064
 20
9.422031052581872
 10
12.58218345993089
 20
7.755940784391726
 10
15.45702950791963
 20
8.100648784577118
 10
20.91923552657943
 20
8.330454918347925
 10
23.44909996466583
 20
9.709288119559972
 10
28.27884250330124
 20
9.364578918903874
 10
33.91353932691243
 20
9.594385052674681
  0
ARC
  5
AD3
330
1A
100
AcDbEntity
  8
ZUWAKU
100
AcDbCircle
 10
7.74610559449161
 20
9.317398948678719
 30
0.0
 40
2.1
100
AcDbArc
 50
180.0
 51
225.0
  0
LINE
  5
AD4
330
1A
100
AcDbEntity
  8
ZUWAKU
100
AcDbLine
 10
10.37110559449161
 20
5.67499996135637
 30
0.0
 11
10.37110559449161
 21
9.524999961356347
 31
0.0
  0
LINE
  5
AD5
330
1A
100
AcDbEntity
  8
ZUWAKU
100
AcDbLine
 10
11.77110559449164
 20
9.524999961356368
 30
0.0
 11
11.77110559449164
 21
5.67499996135637
 31
0.0
  0
ARC
  5
AD6
330
1A
100
AcDbEntity
  8
ZUWAKU
100
AcDbCircle
 10
7.74610559449161
 20
9.317398948678719
 30
0.0
 40
0.7
100
AcDbArc
 50
180.0000000000016
 51
224.9999999999988
  0
ARC
  5
AD7
330
1A
100
AcDbEntity
  8
ZUWAKU
100
AcDbCircle
 10
12.47110559449163
 20
5.67499996135637
 30
0.0
 40
2.1
100
AcDbArc
 50
180.0
 51
270.0
  0
ARC
  5
AD8
330
1A
100
AcDbEntity
  8
ZUWAKU
100
AcDbCircle
 10
7.921105594491621
 20
4.974999961356367
 30
0.0
 40
1.4
100
AcDbArc
 50
270.0
 51
0.0
  0
ARC
  5
AD9
330
1A
100
AcDbEntity
  8
ZUWAKU
100
AcDbCircle
 10
7.221105594491633
 20
5.88260097403402
 30
0.0
 40
2.1
100
AcDbArc
 50
0.0
 51
45.0
  0
LINE
  5
ADA
330
1A
100
AcDbEntity
  8
ZUWAKU
100
AcDbLine
 10
6.261181353999859
 20
7.832474708186958
 30
0.0
 11
7.716080341322197
 21
6.377575720864627
 31
0.0
  0
LINE
  5
ADB
330
1A
100
AcDbEntity
  8
ZUWAKU
100
AcDbLine
 10
6.171105594491621
 20
4.974999961356367
 30
0.0
 11
7.658605594491633
 21
4.974999961356367
 31
0.0
  0
LINE
  5
ADC
330
1A
100
AcDbEntity
  8
ZUWAKU
100
AcDbLine
 10
6.171105594491621
 20
3.574999961356369
 30
0.0
 11
7.921105594491621
 21
3.574999961356369
 31
0.0
  0
ARC
  5
ADD
330
1A
100
AcDbEntity
  8
ZUWAKU
100
AcDbCircle
 10
6.171105594491621
 20
4.712499961356368
 30
0.0
 40
0.2625
100
AcDbArc
 50
90.0
 51
180.0
  0
ARC
  5
ADE
330
1A
100
AcDbEntity
  8
ZUWAKU
100
AcDbCircle
 10
6.171105594491621
 20
3.837499961356368
 30
0.0
 40
0.2625
100
AcDbArc
 50
180.0
 51
270.0
  0
LINE
  5
ADF
330
1A
100
AcDbEntity
  8
ZUWAKU
100
AcDbLine
 10
5.908605594491633
 20
3.837499961356368
 30
0.0
 11
5.908605594491633
 21
4.712499961356368
 31
0.0
  0
ARC
  5
AE0
330
1A
100
AcDbEntity
  8
ZUWAKU
100
AcDbCircle
 10
7.221105594491633
 20
5.882600974034041
 30
0.0
 40
0.7
100
AcDbArc
 50
0.0
 51
45.0
  0
ARC
  5
AE1
330
1A
100
AcDbEntity
  8
ZUWAKU
100
AcDbCircle
 10
7.658605594491633
 20
5.23749996135637
 30
0.0
 40
0.2625
100
AcDbArc
 50
270.0
 51
0.0
  0
LINE
  5
AE2
330
1A
100
AcDbEntity
  8
ZUWAKU
100
AcDbLine
 10
7.921105594491621
 20
5.23749996135637
 30
0.0
 11
7.921105594491621
 21
5.882600974034041
 31
0.0
  0
LINE
  5
AE3
330
1A
100
AcDbEntity
  8
ZUWAKU
100
AcDbLine
 10
8.706029834983383
 20
7.367525214525781
 30
0.0
 11
7.251130847661045
 21
8.822424201848119
 31
0.0
  0
ARC
  5
AE4
330
1A
100
AcDbEntity
  8
ZUWAKU
100
AcDbCircle
 10
12.47110559449163
 20
5.67499996135637
 30
0.0
 40
0.7
100
AcDbArc
 50
180.0
 51
270.0
  0
LINE
  5
AE5
330
1A
100
AcDbEntity
  8
ZUWAKU
100
AcDbLine
 10
9.321105594491655
 20
4.974999961356367
 30
0.0
 11
9.321105594491655
 21
5.882600974034041
 31
0.0
  0
ARC
  5
AE6
330
1A
100
AcDbEntity
  8
ZUWAKU
100
AcDbCircle
 10
8.796105594491621
 20
10.48749996135637
 30
0.0
 40
0.2625
100
AcDbArc
 50
270.0
 51
0.0
  0
ARC
  5
AE7
330
1A
100
AcDbEntity
  8
ZUWAKU
100
AcDbCircle
 10
8.796105594491621
 20
11.36249996135637
 30
0.0
 40
0.2625
100
AcDbArc
 50
0.0
 51
90.0
  0
ARC
  5
AE8
330
1A
100
AcDbEntity
  8
ZUWAKU
100
AcDbCircle
 10
7.046105594491621
 20
10.22499996135637
 30
0.0
 40
1.4
100
AcDbArc
 50
90.0
 51
180.0
  0
LINE
  5
AE9
330
1A
100
AcDbEntity
  8
ZUWAKU
100
AcDbLine
 10
5.646105594491644
 20
10.22499996135637
 30
0.0
 11
5.646105594491644
 21
9.317398948678697
 31
0.0
  0
LINE
  5
AEA
330
1A
100
AcDbEntity
  8
ZUWAKU
100
AcDbLine
 10
8.796105594491621
 20
10.22499996135637
 30
0.0
 11
7.30860559449161
 21
10.22499996135637
 31
0.0
  0
LINE
  5
AEB
330
1A
100
AcDbEntity
  8
ZUWAKU
100
AcDbLine
 10
7.046105594491621
 20
9.962499961356368
 30
0.0
 11
7.046105594491621
 21
9.317398948678697
 31
0.0
  0
ARC
  5
AEC
330
1A
100
AcDbEntity
  8
ZUWAKU
100
AcDbCircle
 10
7.30860559449161
 20
9.962499961356368
 30
0.0
 40
0.2625
100
AcDbArc
 50
90.0
 51
180.0
  0
LINE
  5
AED
330
1A
100
AcDbEntity
  8
ZUWAKU
100
AcDbLine
 10
7.046105594491621
 20
11.62499996135637
 30
0.0
 11
8.796105594491621
 21
11.62499996135637
 31
0.0
  0
ARC
  5
AEE
330
1A
100
AcDbEntity
  8
ZUWAKU
100
AcDbCircle
 10
12.47110559449163
 20
9.524999961356347
 30
0.0
 40
2.1
100
AcDbArc
 50
90.0
 51
180.0
  0
ARC
  5
AEF
330
1A
100
AcDbEntity
  8
ZUWAKU
100
AcDbCircle
 10
12.47110559449163
 20
9.524999961356368
 30
0.0
 40
0.7
100
AcDbArc
 50
90.0
 51
180.0
  0
LINE
  5
AF0
330
1A
100
AcDbEntity
  8
ZUWAKU
100
AcDbLine
 10
9.05860559449161
 20
11.36249996135637
 30
0.0
 11
9.05860559449161
 21
10.48749996135637
 31
0.0
  0
LINE
  5
AF1
330
1A
100
AcDbEntity
  8
ZUWAKU
100
AcDbLine
 10
17.83817306314955
 20
11.44154694543985
 30
0.0
 11
16.90403812583367
 21
8.483452977272883
 31
0.0
  0
LINE
  5
AF2
330
1A
100
AcDbEntity
  8
ZUWAKU
100
AcDbLine
 10
14.92110559449162
 20
11.36249996135637
 30
0.0
 11
14.92110559449162
 21
3.837499961356368
 31
0.0
  0
LINE
  5
AF3
330
1A
100
AcDbEntity
  8
ZUWAKU
100
AcDbLine
 10
16.32110559449166
 20
8.56249996135637
 30
0.0
 11
16.32110559449166
 21
11.36249996135637
 31
0.0
  0
LINE
  5
AF4
330
1A
100
AcDbEntity
  8
ZUWAKU
100
AcDbLine
 10
28.92110559449162
 20
5.499999961356366
 30
0.0
 11
28.92110559449162
 21
11.36249996135637
 31
0.0
  0
LINE
  5
AF5
330
1A
100
AcDbEntity
  8
ZUWAKU
100
AcDbLine
 10
27.52110559449164
 20
11.36249996135637
 30
0.0
 11
27.52110559449164
 21
4.974999961356367
 31
0.0
  0
LINE
  5
AF6
330
1A
100
AcDbEntity
  8
ZUWAKU
100
AcDbLine
 10
21.74610559449161
 20
3.837499961356368
 30
0.0
 11
21.74610559449161
 21
11.36249996135637
 31
0.0
  0
LINE
  5
AF7
330
1A
100
AcDbEntity
  8
ZUWAKU
100
AcDbLine
 10
20.34610559449163
 20
11.36249996135637
 30
0.0
 11
20.34610559449163
 21
3.837499961356368
 31
0.0
  0
LINE
  5
AF8
330
1A
100
AcDbEntity
  8
ZUWAKU
100
AcDbLine
 10
18.65742883558062
 20
9.602523558138081
 30
0.0
 11
18.0250529629127
 21
7.599999961356378
 31
0.0
  0
ARC
  5
AF9
330
1A
100
AcDbEntity
  8
ZUWAKU
100
AcDbCircle
 10
24.89610559449164
 20
9.317398948678719
 30
0.0
 40
2.1
100
AcDbArc
 50
180.0
 51
225.0
  0
ARC
  5
AFA
330
1A
100
AcDbEntity
  8
ZUWAKU
100
AcDbCircle
 10
24.89610559449164
 20
9.317398948678719
 30
0.0
 40
0.7
100
AcDbArc
 50
180.0000000000016
 51
224.9999999999988
  0
LINE
  5
AFB
330
1A
100
AcDbEntity
  8
ZUWAKU
100
AcDbLine
 10
33.12110559449161
 20
11.36249996135637
 30
0.0
 11
33.12110559449161
 21
3.837499961356368
 31
0.0
  0
LINE
  5
AFC
330
1A
100
AcDbEntity
  8
ZUWAKU
100
AcDbLine
 10
34.52110559449164
 20
3.837499961356368
 30
0.0
 11
34.52110559449164
 21
11.36249996135637
 31
0.0
  0
LINE
  5
AFD
330
1A
100
AcDbEntity
  8
ZUWAKU
100
AcDbLine
 10
30.67110559449162
 20
11.36249996135637
 30
0.0
 11
30.67110559449162
 21
5.499999961356366
 31
0.0
  0
LINE
  5
AFE
330
1A
100
AcDbEntity
  8
ZUWAKU
100
AcDbLine
 10
32.07110559449166
 20
4.974999961356367
 30
0.0
 11
32.07110559449166
 21
11.36249996135637
 31
0.0
  0
LINE
  5
AFF
330
1A
100
AcDbEntity
  8
ZUWAKU
100
AcDbLine
 10
39.56331429109525
 20
14.99999996135637
 30
0.0
 11
39.56331429109525
 21
0.3999999613564
 31
0.0
  0
LINE
  5
B00
330
1A
100
AcDbEntity
  8
ZUWAKU
100
AcDbLine
 10
39.76331429109519
 20
14.99999996135637
 30
0.0
 11
39.7633142910953
 21
0.3999999613564
 31
0.0
  0
LINE
  5
B01
330
1A
100
AcDbEntity
  8
ZUWAKU
100
AcDbLine
 10
39.66331429109516
 20
14.99999996135637
 30
0.0
 11
39.66331429109528
 21
0.3999999613564
 31
0.0
  0
LINE
  5
B02
330
1A
100
AcDbEntity
  8
ZUWAKU
100
AcDbLine
 10
28.92110559449162
 20
3.574999961356369
 30
0.0
 11
30.67110559449162
 21
3.574999961356369
 31
0.0
  0
LINE
  5
B03
330
1A
100
AcDbEntity
  8
ZUWAKU
100
AcDbLine
 10
30.14610559449164
 20
4.974999961356367
 30
0.0
 11
29.44610559449166
 21
4.974999961356367
 31
0.0
  0
LINE
  5
B04
330
1A
100
AcDbEntity
  8
ZUWAKU
100
AcDbLine
 10
20.60860559449162
 20
3.574999961356369
 30
0.0
 11
21.48360559449162
 21
3.574999961356369
 31
0.0
  0
LINE
  5
B05
330
1A
100
AcDbEntity
  8
ZUWAKU
100
AcDbLine
 10
17.83817306314955
 20
3.758452977272881
 30
0.0
 11
16.90403812583367
 21
6.716546945439852
 31
0.0
  0
ARC
  5
B06
330
1A
100
AcDbEntity
  8
ZUWAKU
100
AcDbCircle
 10
16.58360559449164
 20
6.637499961356369
 30
0.0
 40
0.2625
100
AcDbArc
 50
90.0
 51
180.0
  0
ARC
  5
B07
330
1A
100
AcDbEntity
  8
ZUWAKU
100
AcDbCircle
 10
16.65372267623599
 20
6.637499961356369
 30
0.0
 40
0.2625
100
AcDbArc
 50
17.52556837372303
 51
90.0
  0
ARC
  5
B08
330
1A
100
AcDbEntity
  8
ZUWAKU
100
AcDbCircle
 10
15.18360559449161
 20
3.837499961356368
 30
0.0
 40
0.2625
100
AcDbArc
 50
180.0
 51
270.0
  0
ARC
  5
B09
330
1A
100
AcDbEntity
  8
ZUWAKU
100
AcDbCircle
 10
13.43360559449161
 20
4.712499961356368
 30
0.0
 40
0.2625
100
AcDbArc
 50
0.0
 51
90.0
  0
ARC
  5
B0A
330
1A
100
AcDbEntity
  8
ZUWAKU
100
AcDbCircle
 10
13.43360559449161
 20
3.837499961356368
 30
0.0
 40
0.2625
100
AcDbArc
 50
270.0
 51
0.0
  0
LINE
  5
B0B
330
1A
100
AcDbEntity
  8
ZUWAKU
100
AcDbLine
 10
13.69610559449166
 20
4.712499961356368
 30
0.0
 11
13.69610559449166
 21
3.837499961356368
 31
0.0
  0
LINE
  5
B0C
330
1A
100
AcDbEntity
  8
ZUWAKU
100
AcDbLine
 10
16.32110559449166
 20
3.837499961356368
 30
0.0
 11
16.32110559449166
 21
6.637499961356369
 31
0.0
  0
ARC
  5
B0D
330
1A
100
AcDbEntity
  8
ZUWAKU
100
AcDbCircle
 10
16.05860559449161
 20
3.837499961356368
 30
0.0
 40
0.2625
100
AcDbArc
 50
270.0
 51
0.0
  0
LINE
  5
B0E
330
1A
100
AcDbEntity
  8
ZUWAKU
100
AcDbLine
 10
15.18360559449161
 20
3.574999961356369
 30
0.0
 11
16.05860559449161
 21
3.574999961356369
 31
0.0
  0
ARC
  5
B0F
330
1A
100
AcDbEntity
  8
ZUWAKU
100
AcDbCircle
 10
16.58360559449164
 20
8.56249996135637
 30
0.0
 40
0.2625
100
AcDbArc
 50
180.0
 51
270.0
  0
LINE
  5
B10
330
1A
100
AcDbEntity
  8
ZUWAKU
100
AcDbLine
 10
16.58360559449164
 20
6.899999961356368
 30
0.0
 11
16.65372267623599
 21
6.899999961356368
 31
0.0
  0
LINE
  5
B11
330
1A
100
AcDbEntity
  8
ZUWAKU
100
AcDbLine
 10
16.65372267623599
 20
8.299999961356367
 30
0.0
 11
16.58360559449164
 21
8.299999961356367
 31
0.0
  0
ARC
  5
B12
330
1A
100
AcDbEntity
  8
ZUWAKU
100
AcDbCircle
 10
16.65372267623599
 20
8.56249996135637
 30
0.0
 40
0.2625
100
AcDbArc
 50
270.0
 51
342.474431626277
  0
ARC
  5
B13
330
1A
100
AcDbEntity
  8
ZUWAKU
100
AcDbCircle
 10
18.08848851274729
 20
3.837499961356368
 30
0.0
 40
0.2625
100
AcDbArc
 50
197.525568373723
 51
270.0
  0
LINE
  5
B14
330
1A
100
AcDbEntity
  8
ZUWAKU
100
AcDbLine
 10
19.18824865214953
 20
3.916546945439855
 30
0.0
 11
18.0250529629127
 21
7.599999961356378
 31
0.0
  0
ARC
  5
B15
330
1A
100
AcDbEntity
  8
ZUWAKU
100
AcDbCircle
 10
18.93793320255179
 20
3.837499961356368
 30
0.0
 40
0.2625
100
AcDbArc
 50
270.0
 51
17.52556837372303
  0
LINE
  5
B16
330
1A
100
AcDbEntity
  8
ZUWAKU
100
AcDbLine
 10
18.08848851274729
 20
3.574999961356369
 30
0.0
 11
18.93793320255179
 21
3.574999961356369
 31
0.0
  0
ARC
  5
B17
330
1A
100
AcDbEntity
  8
ZUWAKU
100
AcDbCircle
 10
20.60860559449162
 20
3.837499961356368
 30
0.0
 40
0.2625
100
AcDbArc
 50
180.0
 51
270.0
  0
ARC
  5
B18
330
1A
100
AcDbEntity
  8
ZUWAKU
100
AcDbCircle
 10
25.07110559449166
 20
4.974999961356367
 30
0.0
 40
1.4
100
AcDbArc
 50
270.0
 51
0.0
  0
ARC
  5
B19
330
1A
100
AcDbEntity
  8
ZUWAKU
100
AcDbCircle
 10
28.92110559449162
 20
4.974999961356367
 30
0.0
 40
1.4
100
AcDbArc
 50
180.0
 51
270.0
  0
LINE
  5
B1A
330
1A
100
AcDbEntity
  8
ZUWAKU
100
AcDbLine
 10
25.85602983498342
 20
7.367525214525781
 30
0.0
 11
24.40113084766102
 21
8.822424201848119
 31
0.0
  0
LINE
  5
B1B
330
1A
100
AcDbEntity
  8
ZUWAKU
100
AcDbLine
 10
23.41118135399989
 20
7.832474708186958
 30
0.0
 11
24.86608034132223
 21
6.377575720864627
 31
0.0
  0
LINE
  5
B1C
330
1A
100
AcDbEntity
  8
ZUWAKU
100
AcDbLine
 10
23.32110559449166
 20
3.574999961356369
 30
0.0
 11
25.07110559449166
 21
3.574999961356369
 31
0.0
  0
LINE
  5
B1D
330
1A
100
AcDbEntity
  8
ZUWAKU
100
AcDbLine
 10
23.32110559449166
 20
4.974999961356367
 30
0.0
 11
24.80860559449161
 21
4.974999961356367
 31
0.0
  0
ARC
  5
B1E
330
1A
100
AcDbEntity
  8
ZUWAKU
100
AcDbCircle
 10
23.32110559449166
 20
4.712499961356368
 30
0.0
 40
0.2625
100
AcDbArc
 50
90.0
 51
180.0
  0
ARC
  5
B1F
330
1A
100
AcDbEntity
  8
ZUWAKU
100
AcDbCircle
 10
21.48360559449162
 20
3.837499961356368
 30
0.0
 40
0.2625
100
AcDbArc
 50
270.0
 51
0.0
  0
ARC
  5
B20
330
1A
100
AcDbEntity
  8
ZUWAKU
100
AcDbCircle
 10
23.32110559449166
 20
3.837499961356368
 30
0.0
 40
0.2625
100
AcDbArc
 50
180.0
 51
270.0
  0
LINE
  5
B21
330
1A
100
AcDbEntity
  8
ZUWAKU
100
AcDbLine
 10
23.05860559449161
 20
3.837499961356368
 30
0.0
 11
23.05860559449161
 21
4.712499961356368
 31
0.0
  0
ARC
  5
B22
330
1A
100
AcDbEntity
  8
ZUWAKU
100
AcDbCircle
 10
24.80860559449161
 20
5.23749996135637
 30
0.0
 40
0.2625
100
AcDbArc
 50
270.0
 51
0.0
  0
ARC
  5
B23
330
1A
100
AcDbEntity
  8
ZUWAKU
100
AcDbCircle
 10
24.37110559449161
 20
5.882600974034041
 30
0.0
 40
0.7
100
AcDbArc
 50
0.0
 51
45.0
  0
LINE
  5
B24
330
1A
100
AcDbEntity
  8
ZUWAKU
100
AcDbLine
 10
25.07110559449166
 20
5.23749996135637
 30
0.0
 11
25.07110559449166
 21
5.882600974034041
 31
0.0
  0
ARC
  5
B25
330
1A
100
AcDbEntity
  8
ZUWAKU
100
AcDbCircle
 10
29.44610559449166
 20
5.499999961356366
 30
0.0
 40
0.5249999999999999
100
AcDbArc
 50
180.0
 51
270.0
  0
ARC
  5
B26
330
1A
100
AcDbEntity
  8
ZUWAKU
100
AcDbCircle
 10
24.37110559449161
 20
5.88260097403402
 30
0.0
 40
2.1
100
AcDbArc
 50
0.0
 51
45.0
  0
LINE
  5
B27
330
1A
100
AcDbEntity
  8
ZUWAKU
100
AcDbLine
 10
26.47110559449163
 20
4.974999961356367
 30
0.0
 11
26.47110559449163
 21
5.882600974034041
 31
0.0
  0
ARC
  5
B28
330
1A
100
AcDbEntity
  8
ZUWAKU
100
AcDbCircle
 10
30.67110559449162
 20
4.974999961356367
 30
0.0
 40
1.4
100
AcDbArc
 50
270.0
 51
0.0
  0
LINE
  5
B29
330
1A
100
AcDbEntity
  8
ZUWAKU
100
AcDbLine
 10
33.38360559449166
 20
3.574999961356369
 30
0.0
 11
34.25860559449166
 21
3.574999961356369
 31
0.0
  0
ARC
  5
B2A
330
1A
100
AcDbEntity
  8
ZUWAKU
100
AcDbCircle
 10
30.14610559449164
 20
5.499999961356366
 30
0.0
 40
0.5249999999999999
100
AcDbArc
 50
270.0
 51
0.0
  0
ARC
  5
B2B
330
1A
100
AcDbEntity
  8
ZUWAKU
100
AcDbCircle
 10
33.38360559449166
 20
3.837499961356368
 30
0.0
 40
0.2625
100
AcDbArc
 50
180.0
 51
270.0
  0
ARC
  5
B2C
330
1A
100
AcDbEntity
  8
ZUWAKU
100
AcDbCircle
 10
34.25860559449166
 20
3.837499961356368
 30
0.0
 40
0.2625
100
AcDbArc
 50
270.0
 51
0.0
  0
LINE
  5
B2D
330
1A
100
AcDbEntity
  8
ZUWAKU
100
AcDbLine
 10
21.48360559449162
 20
11.62499996135637
 30
0.0
 11
20.60860559449162
 21
11.62499996135637
 31
0.0
  0
LINE
  5
B2E
330
1A
100
AcDbEntity
  8
ZUWAKU
100
AcDbLine
 10
13.69610559449166
 20
11.36249996135637
 30
0.0
 11
13.69610559449166
 21
10.48749996135637
 31
0.0
  0
ARC
  5
B2F
330
1A
100
AcDbEntity
  8
ZUWAKU
100
AcDbCircle
 10
13.43360559449161
 20
10.48749996135637
 30
0.0
 40
0.2625
100
AcDbArc
 50
270.0
 51
0.0
  0
ARC
  5
B30
330
1A
100
AcDbEntity
  8
ZUWAKU
100
AcDbCircle
 10
15.18360559449161
 20
11.36249996135637
 30
0.0
 40
0.2625
100
AcDbArc
 50
90.0
 51
180.0
  0
ARC
  5
B31
330
1A
100
AcDbEntity
  8
ZUWAKU
100
AcDbCircle
 10
13.43360559449161
 20
11.36249996135637
 30
0.0
 40
0.2625
100
AcDbArc
 50
0.0
 51
90.0
  0
LINE
  5
B32
330
1A
100
AcDbEntity
  8
ZUWAKU
100
AcDbLine
 10
16.05860559449161
 20
11.62499996135637
 30
0.0
 11
15.18360559449161
 21
11.62499996135637
 31
0.0
  0
ARC
  5
B33
330
1A
100
AcDbEntity
  8
ZUWAKU
100
AcDbCircle
 10
16.05860559449161
 20
11.36249996135637
 30
0.0
 40
0.2625
100
AcDbArc
 50
0.0
 51
90.0
  0
ARC
  5
B34
330
1A
100
AcDbEntity
  8
ZUWAKU
100
AcDbCircle
 10
18.08848851274729
 20
11.36249996135637
 30
0.0
 40
0.2625
100
AcDbArc
 50
90.0
 51
162.474431626277
  0
LINE
  5
B35
330
1A
100
AcDbEntity
  8
ZUWAKU
100
AcDbLine
 10
19.18824865214953
 20
11.28345297727288
 30
0.0
 11
18.65742883558062
 21
9.602523558138081
 31
0.0
  0
ARC
  5
B36
330
1A
100
AcDbEntity
  8
ZUWAKU
100
AcDbCircle
 10
18.93793320255179
 20
11.36249996135637
 30
0.0
 40
0.2625
100
AcDbArc
 50
342.474431626277
 51
90.0
  0
LINE
  5
B37
330
1A
100
AcDbEntity
  8
ZUWAKU
100
AcDbLine
 10
18.08848851274729
 20
11.62499996135637
 30
0.0
 11
18.93793320255179
 21
11.62499996135637
 31
0.0
  0
ARC
  5
B38
330
1A
100
AcDbEntity
  8
ZUWAKU
100
AcDbCircle
 10
20.60860559449162
 20
11.36249996135637
 30
0.0
 40
0.2625
100
AcDbArc
 50
90.0
 51
180.0
  0
LINE
  5
B39
330
1A
100
AcDbEntity
  8
ZUWAKU
100
AcDbLine
 10
25.94610559449166
 20
10.22499996135637
 30
0.0
 11
24.45860559449164
 21
10.22499996135637
 31
0.0
  0
LINE
  5
B3A
330
1A
100
AcDbEntity
  8
ZUWAKU
100
AcDbLine
 10
24.19610559449166
 20
11.62499996135637
 30
0.0
 11
25.94610559449166
 21
11.62499996135637
 31
0.0
  0
ARC
  5
B3B
330
1A
100
AcDbEntity
  8
ZUWAKU
100
AcDbCircle
 10
24.19610559449166
 20
10.22499996135637
 30
0.0
 40
1.4
100
AcDbArc
 50
90.0
 51
180.0
  0
LINE
  5
B3C
330
1A
100
AcDbEntity
  8
ZUWAKU
100
AcDbLine
 10
22.79610559449162
 20
10.22499996135637
 30
0.0
 11
22.79610559449162
 21
9.317398948678697
 31
0.0
  0
ARC
  5
B3D
330
1A
100
AcDbEntity
  8
ZUWAKU
100
AcDbCircle
 10
21.48360559449162
 20
11.36249996135637
 30
0.0
 40
0.2625
100
AcDbArc
 50
0.0
 51
90.0
  0
LINE
  5
B3E
330
1A
100
AcDbEntity
  8
ZUWAKU
100
AcDbLine
 10
24.19610559449166
 20
9.962499961356368
 30
0.0
 11
24.19610559449166
 21
9.317398948678697
 31
0.0
  0
ARC
  5
B3F
330
1A
100
AcDbEntity
  8
ZUWAKU
100
AcDbCircle
 10
24.45860559449164
 20
9.962499961356368
 30
0.0
 40
0.2625
100
AcDbArc
 50
90.0
 51
180.0
  0
LINE
  5
B40
330
1A
100
AcDbEntity
  8
ZUWAKU
100
AcDbLine
 10
26.20860559449164
 20
11.36249996135637
 30
0.0
 11
26.20860559449164
 21
10.48749996135637
 31
0.0
  0
ARC
  5
B41
330
1A
100
AcDbEntity
  8
ZUWAKU
100
AcDbCircle
 10
25.94610559449166
 20
10.48749996135637
 30
0.0
 40
0.2625
100
AcDbArc
 50
270.0
 51
0.0
  0
ARC
  5
B42
330
1A
100
AcDbEntity
  8
ZUWAKU
100
AcDbCircle
 10
25.94610559449166
 20
11.36249996135637
 30
0.0
 40
0.2625
100
AcDbArc
 50
0.0
 51
90.0
  0
LINE
  5
B43
330
1A
100
AcDbEntity
  8
ZUWAKU
100
AcDbLine
 10
28.65860559449163
 20
11.62499996135637
 30
0.0
 11
27.78360559449163
 21
11.62499996135637
 31
0.0
  0
ARC
  5
B44
330
1A
100
AcDbEntity
  8
ZUWAKU
100
AcDbCircle
 10
27.78360559449163
 20
11.36249996135637
 30
0.0
 40
0.2625
100
AcDbArc
 50
90.0
 51
180.0
  0
ARC
  5
B45
330
1A
100
AcDbEntity
  8
ZUWAKU
100
AcDbCircle
 10
28.65860559449163
 20
11.36249996135637
 30
0.0
 40
0.2625
100
AcDbArc
 50
0.0
 51
90.0
  0
LINE
  5
B46
330
1A
100
AcDbEntity
  8
ZUWAKU
100
AcDbLine
 10
34.25860559449166
 20
11.62499996135637
 30
0.0
 11
33.38360559449166
 21
11.62499996135637
 31
0.0
  0
ARC
  5
B47
330
1A
100
AcDbEntity
  8
ZUWAKU
100
AcDbCircle
 10
30.93360559449161
 20
11.36249996135637
 30
0.0
 40
0.2625
100
AcDbArc
 50
90.0
 51
180.0
  0
LINE
  5
B48
330
1A
100
AcDbEntity
  8
ZUWAKU
100
AcDbLine
 10
31.80860559449161
 20
11.62499996135637
 30
0.0
 11
30.93360559449161
 21
11.62499996135637
 31
0.0
  0
ARC
  5
B49
330
1A
100
AcDbEntity
  8
ZUWAKU
100
AcDbCircle
 10
31.80860559449161
 20
11.36249996135637
 30
0.0
 40
0.2625
100
AcDbArc
 50
0.0
 51
90.0
  0
ARC
  5
B4A
330
1A
100
AcDbEntity
  8
ZUWAKU
100
AcDbCircle
 10
33.38360559449166
 20
11.36249996135637
 30
0.0
 40
0.2625
100
AcDbArc
 50
90.0
 51
180.0
  0
ARC
  5
B4B
330
1A
100
AcDbEntity
  8
ZUWAKU
100
AcDbCircle
 10
34.25860559449166
 20
11.36249996135637
 30
0.0
 40
0.2625
100
AcDbArc
 50
0.0
 51
90.0
  0
LINE
  5
B4C
330
1A
100
AcDbEntity
  8
ZUWAKU
100
AcDbLine
 10
104.2233001621349
 20
14.99999996135637
 30
0.0
 11
104.2233001621351
 21
0.3999999613564
 31
0.0
  0
LINE
  5
B4D
330
1A
100
AcDbEntity
  8
ZUWAKU
100
AcDbLine
 10
104.323300162135
 20
14.99999996135637
 30
0.0
 11
104.3233001621351
 21
0.3999999613564
 31
0.0
  0
LINE
  5
B4E
330
1A
100
AcDbEntity
  8
ZUWAKU
100
AcDbLine
 10
104.123300162135
 20
14.99999996135637
 30
0.0
 11
104.123300162135
 21
0.3999999613564
 31
0.0
  0
TEXT
  5
B4F
330
1A
100
AcDbEntity
  8
moji
100
AcDbText
 10
119.9136008575266
 20
9.002460490060059
 30
0.0
 40
2.8
  1
のきとい
 41
0.9
  7
ｽﾀｲﾙ1
100
AcDbText
  0
TEXT
  5
B50
330
1A
100
AcDbEntity
  8
ZUWAKU
100
AcDbText
 10
104.8620226732398
 20
4.827678230549175
 30
0.0
 40
2.0
  1
サイズ
 41
0.9
  7
ｽﾀｲﾙ1
100
AcDbText
  0
TEXT
  5
B51
330
1A
100
AcDbEntity
  8
moji
100
AcDbText
 10
119.9136008575266
 20
1.602460490060077
 30
0.0
 40
2.8
  1
Σ９０－３,６００
 41
0.9
  7
ｽﾀｲﾙ1
100
AcDbText
  0
TEXT
  5
B52
330
1A
100
AcDbEntity
  8
ZUWAKU
100
AcDbText
 10
104.8620226732397
 20
12.02767823054916
 30
0.0
 40
2.0
  1
品名
 41
0.9
  7
ｽﾀｲﾙ1
100
AcDbText
  0
TEXT
  5
B53
330
1A
100
AcDbEntity
  8
ZUWAKU
100
AcDbText
 10
329.1019683607523
 20
9.002460490060059
 30
0.0
 40
2.8
  1
　　．　　．　　
 41
0.9
  7
ｽﾀｲﾙ1
100
AcDbText
  0
LINE
  5
B54
330
1A
100
AcDbEntity
  8
ZUWAKU
100
AcDbLine
 10
324.4086007722032
 20
7.799999961356383
 30
0.0
 11
348.6245047913717
 21
7.799999961356383
 31
0.0
  0
LINE
  5
B55
330
1A
100
AcDbEntity
  8
ZUWAKU
100
AcDbLine
 10
324.4086007722033
 20
7.699999961356385
 30
0.0
 11
348.6245047913717
 21
7.699999961356383
 31
0.0
  0
LINE
  5
B56
330
1A
100
AcDbEntity
  8
ZUWAKU
100
AcDbLine
 10
324.4086007722032
 20
7.599999961356382
 30
0.0
 11
348.6245047913717
 21
7.599999961356383
 31
0.0
  0
LINE
  5
B57
330
1A
100
AcDbEntity
  8
ZUWAKU
100
AcDbLine
 10
252.5995892661715
 20
7.799999961356383
 30
0.0
 11
276.2634774001573
 21
7.799999961356383
 31
0.0
  0
LINE
  5
B58
330
1A
100
AcDbEntity
  8
ZUWAKU
100
AcDbLine
 10
252.5995892661715
 20
7.699999961356383
 30
0.0
 11
276.2634774001573
 21
7.699999961356383
 31
0.0
  0
LINE
  5
B59
330
1A
100
AcDbEntity
  8
ZUWAKU
100
AcDbLine
 10
252.5995892661715
 20
7.599999961356385
 30
0.0
 11
276.2634774001573
 21
7.599999961356385
 31
0.0
  0
LINE
  5
B5A
330
1A
100
AcDbEntity
  8
ZUWAKU
100
AcDbLine
 10
252.3995892661716
 20
14.99999996135637
 30
0.0
 11
252.3995892661716
 21
0.3999999613564
 31
0.0
  0
LINE
  5
B5B
330
1A
100
AcDbEntity
  8
ZUWAKU
100
AcDbLine
 10
252.5995892661715
 20
14.99999996135637
 30
0.0
 11
252.5995892661716
 21
0.3999999613564
 31
0.0
  0
LINE
  5
B5C
330
1A
100
AcDbEntity
  8
ZUWAKU
100
AcDbLine
 10
252.4995892661715
 20
14.99999996135637
 30
0.0
 11
252.4995892661716
 21
0.3999999613564
 31
0.0
  0
TEXT
  5
B5D
330
1A
100
AcDbEntity
  8
moji
100
AcDbText
 10
264.0204535032575
 20
9.002460490060059
 30
0.0
 40
2.8
  1
Ａ３
 41
0.9
  7
ｽﾀｲﾙ1
100
AcDbText
  0
LINE
  5
B5E
330
1A
100
AcDbEntity
  8
ZUWAKU
100
AcDbLine
 10
223.7121815025968
 20
14.99999996135637
 30
0.0
 11
223.7121815025968
 21
0.3999999613564
 31
0.0
  0
LINE
  5
B5F
330
1A
100
AcDbEntity
  8
ZUWAKU
100
AcDbLine
 10
223.9121815025967
 20
14.99999996135637
 30
0.0
 11
223.9121815025968
 21
0.3999999613564
 31
0.0
  0
LINE
  5
B60
330
1A
100
AcDbEntity
  8
ZUWAKU
100
AcDbLine
 10
223.8121815025967
 20
14.99999996135637
 30
0.0
 11
223.8121815025968
 21
0.3999999613564
 31
0.0
  0
TEXT
  5
B61
330
1A
100
AcDbEntity
  8
moji
100
AcDbText
 10
231.2836386780954
 20
5.971308822186359
 30
0.0
 40
2.8
  1
ＣＢ５０□
 41
0.9
  7
ｽﾀｲﾙ1
100
AcDbText
  0
TEXT
  5
B62
330
1A
100
AcDbEntity
  8
ZUWAKU
100
AcDbText
 10
231.3468803448546
 20
1.307035416926112
 30
0.0
 40
1.5
  1
□には色品番が入ります
 41
0.9
  7
ｽﾀｲﾙ1
100
AcDbText
  0
TEXT
  5
B63
330
1A
100
AcDbEntity
  8
ZUWAKU
100
AcDbText
 10
253.3383117772764
 20
4.827678230549175
 30
0.0
 40
2.0
  1
縮尺
 41
0.9
  7
ｽﾀｲﾙ1
100
AcDbText
  0
TEXT
  5
B64
330
1A
100
AcDbEntity
  8
moji
100
AcDbText
 10
264.0204535032575
 20
1.602460490060077
 30
0.0
 40
2.8
  1
１/１
 41
0.9
  7
ｽﾀｲﾙ1
100
AcDbText
  0
TEXT
  5
B65
330
1A
100
AcDbEntity
  8
ZUWAKU
100
AcDbText
 10
224.6509040137015
 20
12.02767823054916
 30
0.0
 40
2.0
  1
品番
 41
0.9
  7
ｽﾀｲﾙ1
100
AcDbText
  0
TEXT
  5
B66
330
1A
100
AcDbEntity
  8
ZUWAKU
100
AcDbText
 10
253.3383117772763
 20
12.02767823054916
 30
0.0
 40
2.0
  1
用紙
 41
0.9
  7
ｽﾀｲﾙ1
100
AcDbText
  0
LINE
  5
B67
330
1A
100
AcDbEntity
  8
ZUWAKU
100
AcDbLine
 10
276.2634774001573
 20
14.99999996135637
 30
0.0
 11
276.2634774001573
 21
0.3999999613564
 31
0.0
  0
LINE
  5
B68
330
1A
100
AcDbEntity
  8
ZUWAKU
100
AcDbLine
 10
276.4634774001572
 20
14.99999996135637
 30
0.0
 11
276.4634774001573
 21
0.3999999613564
 31
0.0
  0
LINE
  5
B69
330
1A
100
AcDbEntity
  8
ZUWAKU
100
AcDbLine
 10
276.3634774001572
 20
14.99999996135637
 30
0.0
 11
276.3634774001573
 21
0.3999999613564
 31
0.0
  0
LINE
  5
B6A
330
1A
100
AcDbEntity
  8
ZUWAKU
100
AcDbLine
 10
324.2086007722033
 20
14.99999996135637
 30
0.0
 11
324.2086007722033
 21
0.3999999613564
 31
0.0
  0
LINE
  5
B6B
330
1A
100
AcDbEntity
  8
ZUWAKU
100
AcDbLine
 10
324.4086007722033
 20
14.99999996135637
 30
0.0
 11
324.4086007722034
 21
0.3999999613564
 31
0.0
  0
LINE
  5
B6C
330
1A
100
AcDbEntity
  8
ZUWAKU
100
AcDbLine
 10
324.3086007722033
 20
14.99999996135637
 30
0.0
 11
324.3086007722034
 21
0.3999999613564
 31
0.0
  0
TEXT
  5
B6D
330
1A
100
AcDbEntity
  8
ZUWAKU
100
AcDbText
 10
325.1473232833081
 20
12.02767823054916
 30
0.0
 40
2.0
  1
DATE
 41
0.9
  7
ｽﾀｲﾙ1
100
AcDbText
  0
TEXT
  5
B6E
330
1A
100
AcDbEntity
  8
ZUWAKU
100
AcDbText
 10
354.264041613223
 20
8.776919629199767
 30
0.0
 40
3.0
  1
積水化学工業株式会社
 41
0.9
  7
ｽﾀｲﾙ1
100
AcDbText
  0
LINE
  5
B6F
330
1A
100
AcDbEntity
  8
ZUWAKU
100
AcDbLine
 10
348.9245047913717
 20
14.99999996135637
 30
0.0
 11
348.9245047913718
 21
0.3999999613564
 31
0.0
  0
LINE
  5
B70
330
1A
100
AcDbEntity
  8
ZUWAKU
100
AcDbLine
 10
348.8245047913716
 20
14.99999996135637
 30
0.0
 11
348.8245047913717
 21
0.3999999613564
 31
0.0
  0
LINE
  5
B71
330
1A
100
AcDbEntity
  8
ZUWAKU
100
AcDbLine
 10
348.7245047913717
 20
14.99999996135637
 30
0.0
 11
348.7245047913717
 21
0.3999999613564
 31
0.0
  0
LINE
  5
B72
330
1A
100
AcDbEntity
  8
ZUWAKU
100
AcDbLine
 10
348.6245047913717
 20
14.99999996135637
 30
0.0
 11
348.6245047913717
 21
0.3999999613564
 31
0.0
  0
TEXT
  5
B73
330
1A
100
AcDbEntity
  8
ZUWAKU
100
AcDbText
 10
354.264041613223
 20
3.324420118283399
 30
0.0
 40
3.0
  1
建材事業部
 41
0.9
  7
ｽﾀｲﾙ1
100
AcDbText
  0
LINE
  5
CE0
330
1A
100
AcDbEntity
  8
CENTER L
  6
CENTER
 48
5.0
100
AcDbLine
 10
218.1750544817114
 20
92.60217266568924
 30
0.0
 11
218.1750544817114
 21
113.9021726656893
 31
0.0
  0
ARC
  5
F74
330
1A
100
AcDbEntity
  8
SEIHIN
  6
Continuous
 62
     3
 48
5.0
100
AcDbCircle
 10
145.6706772660614
 20
169.028816651744
 30
0.0
 40
1.5
100
AcDbArc
 50
187.1209737027744
 51
272.9999959226564
  0
LINE
  5
F75
330
1A
100
AcDbEntity
  8
SEIHIN
  6
Continuous
 62
     3
 48
5.0
100
AcDbLine
 10
143.0150238403057
 20
166.0857973836811
 30
0.0
 11
141.4987318116396
 21
178.2230897370054
 31
0.0
  0
ARC
  5
F76
330
1A
100
AcDbEntity
  8
SEIHIN
  6
Continuous
 62
     3
 48
5.0
100
AcDbCircle
 10
147.7844066630814
 20
156.3223663013686
 30
0.0
 40
9.999660553592507
100
AcDbArc
 50
7.968100623718756
 51
93.00177912458159
  0
LINE
  5
F7D
330
1A
100
AcDbEntity
  8
SEIHIN
  6
Continuous
 62
     3
 48
5.0
100
AcDbLine
 10
150.1365628107242
 20
167.395022643163
 30
0.0
 11
157.3831181223718
 21
167.3950533836811
 31
0.0
  0
LINE
  5
F7E
330
1A
100
AcDbEntity
  8
SEIHIN
  6
Continuous
 62
     3
 48
5.0
100
AcDbLine
 10
153.8167398928053
 20
166.0950366188098
 30
0.0
 11
156.2524462196607
 21
166.0950481485537
 31
0.0
  0
ARC
  5
F7F
330
1A
100
AcDbEntity
  8
SEIHIN
  6
Continuous
 62
     3
 48
5.0
100
AcDbCircle
 10
147.7841138403055
 20
156.3220113836811
 30
0.0
 40
11.3
100
AcDbArc
 50
37.69421629482916
 51
58.05008343050275
  0
LINE
  5
FB1
330
1A
100
AcDbEntity
  8
SEIHIN
  6
Continuous
 62
     3
 48
5.0
100
AcDbLine
 10
145.7491810938277
 20
167.5308723440256
 30
0.0
 11
147.1926777315985
 21
167.606522694208
 31
0.0
  0
LINE
  5
FB2
330
1A
100
AcDbEntity
  8
SEIHIN
  6
Continuous
 62
     3
 48
5.0
100
AcDbLine
 10
143.0150238403057
 20
166.0857973836811
 30
0.0
 11
147.2607547864163
 21
166.3083064123015
 31
0.0
  0
ARC
  5
FB3
330
1A
100
AcDbEntity
  8
SEIHIN
  6
Continuous
 62
     3
 48
5.0
100
AcDbCircle
 10
147.7844066630814
 20
156.3223663013686
 30
0.0
 40
11.29966055359251
100
AcDbArc
 50
78.97500893083878
 51
93.00177912458159
  0
ARC
  5
FB4
330
1A
100
AcDbEntity
  8
SEIHIN
  6
Continuous
 62
     3
 48
5.0
100
AcDbCircle
 10
150.1365585686372
 20
168.395022643154
 30
0.0
 40
1.0
100
AcDbArc
 50
258.9750089308388
 51
270.0002430536823
  0
ARC
  5
FB5
330
1A
100
AcDbEntity
  8
SEIHIN
  6
Continuous
 62
     3
 48
5.0
100
AcDbCircle
 10
153.8167403661682
 20
165.9950366188109
 30
0.0
 40
0.1
100
AcDbArc
 50
90.00027121695686
 51
238.0500834303184
  0
LINE
  5
FB6
330
1A
100
AcDbEntity
  8
SEIHIN
  6
Continuous
 62
     3
 48
5.0
100
AcDbLine
 10
267.8393456175613
 20
162.0950555225684
 30
0.0
 11
271.0133456175613
 21
160.0950555225684
 31
0.0
  0
LINE
  5
FB7
330
1A
100
AcDbEntity
  8
SEIHIN
  6
Continuous
 62
     3
 48
5.0
100
AcDbLine
 10
268.5133456175613
 20
146.0950555225683
 30
0.0
 11
270.2561456175613
 21
145.0493555225683
 31
0.0
  0
LINE
  5
FBB
330
1A
100
AcDbEntity
  8
SEIHIN
  6
Continuous
 62
     3
 48
5.0
100
AcDbLine
 10
174.5549742762023
 20
103.9959430631128
 30
0.0
 11
170.540845617561
 21
132.0950555225686
 31
0.0
  0
LINE
  5
FBC
330
1A
100
AcDbEntity
  8
SEIHIN
  6
Continuous
 62
     3
 48
5.0
100
AcDbLine
 10
171.5133456175608
 20
116.0949555225683
 30
0.0
 11
173.2680456175608
 21
103.8120555225686
 31
0.0
  0
LINE
  5
FBE
330
1A
100
AcDbEntity
  8
SEIHIN
  6
Continuous
 62
     3
 48
5.0
100
AcDbLine
 10
264.4175456175608
 20
161.6177555225685
 30
0.0
 11
261.8014869391859
 21
104.0631948067902
 31
0.0
  0
LINE
  5
FBF
330
1A
100
AcDbEntity
  8
SEIHIN
  6
Continuous
 62
     3
 48
5.0
100
AcDbLine
 10
265.0133456175613
 20
146.0950555225683
 30
0.0
 11
263.1001456175609
 21
104.0041555225683
 31
0.0
  0
LINE
  5
FC0
330
1A
100
AcDbEntity
  8
SEIHIN
  6
Continuous
 62
     3
 48
5.0
100
AcDbLine
 10
175.2479422055794
 20
103.3949555225637
 30
0.0
 11
261.1021667578434
 21
103.3949555223963
 31
0.0
  0
LINE
  5
FC1
330
1A
100
AcDbEntity
  8
SEIHIN
  6
Continuous
 62
     3
 48
5.0
100
AcDbLine
 10
175.2479456175611
 20
102.0949555225683
 30
0.0
 11
261.1021456175608
 21
102.0949555225683
 31
0.0
  0
LINE
  5
FC3
330
1A
100
AcDbEntity
  8
SEIHIN
  6
Continuous
 62
     3
 48
5.0
100
AcDbLine
 10
173.2680456175608
 20
103.8120555225686
 30
0.0
 11
173.2680456166409
 21
103.8120555290083
 31
0.0
  0
ARC
  5
FC4
330
1A
100
AcDbEntity
  8
SEIHIN
  6
Continuous
 62
     3
 48
5.0
100
AcDbCircle
 10
175.2479403683465
 20
104.0949600750579
 30
0.0
 40
0.7000045524965801
100
AcDbArc
 50
188.1318732947248
 51
270.0001503785958
  0
ARC
  5
FC5
330
1A
100
AcDbEntity
  8
SEIHIN
  6
Continuous
 62
     3
 48
5.0
100
AcDbCircle
 10
175.2479403683465
 20
104.0949600750579
 30
0.0
 40
2.00000455249658
100
AcDbArc
 50
188.1318732947114
 51
270.0001503785697
  0
ARC
  5
FC8
330
1A
100
AcDbEntity
  8
SEIHIN
  6
Continuous
 62
     3
 48
5.0
100
AcDbCircle
 10
261.102178141578
 20
104.0949866020854
 30
0.0
 40
2.000031079781521
100
AcDbArc
 50
269.9990682700299
 51
357.397026384813
  0
ARC
  5
FCA
330
1A
100
AcDbEntity
  8
SEIHIN
  6
Continuous
 62
     3
 48
5.0
100
AcDbCircle
 10
261.102178141578
 20
104.0949866020854
 30
0.0
 40
0.7000310797815208
100
AcDbArc
 50
269.9990682700299
 51
357.3970263848008
  0
LINE
  5
FCC
330
1A
100
AcDbEntity
  8
SEIHIN
  6
Continuous
 62
     3
 48
5.0
100
AcDbLine
 10
163.3670399614807
 20
138.373279153215
 30
0.0
 11
161.7389331335057
 21
138.1453441972985
 31
0.0
  0
LINE
  5
FCD
330
1A
100
AcDbEntity
  8
SEIHIN
  6
Continuous
 62
     3
 48
5.0
100
AcDbLine
 10
161.7389331335057
 20
138.1453441972985
 30
0.0
 11
157.6802218719085
 21
167.1366491579573
 31
0.0
  0
LINE
  5
FCE
330
1A
100
AcDbEntity
  8
SEIHIN
  6
Continuous
 62
     3
 48
5.0
100
AcDbLine
 10
161.6365982403058
 20
129.5018473836809
 30
0.0
 11
157.6875244915541
 21
157.7085367318924
 31
0.0
  0
ARC
  5
FCF
330
1A
100
AcDbEntity
  8
SEIHIN
  6
Continuous
 62
     3
 48
5.0
100
AcDbCircle
 10
178.0432088511184
 20
147.9053055888678
 30
0.0
 40
17.49998460705464
100
AcDbArc
 50
213.0033250004196
 51
244.6144785993103
  0
LINE
  5
FD0
330
1A
100
AcDbEntity
  8
SEIHIN
  6
Continuous
 62
     3
 48
5.0
100
AcDbLine
 10
169.3504456175624
 20
131.2357555225673
 30
0.0
 11
171.2893154016592
 21
117.6631670338801
 31
0.0
  0
ARC
  5
FD1
330
1A
100
AcDbEntity
  8
SEIHIN
  6
Continuous
 62
     3
 48
5.0
100
AcDbCircle
 10
178.9395845844788
 20
131.9073102801327
 30
0.0
 40
17.46939003436702
100
AcDbArc
 50
187.9145381532443
 51
244.8430021726434
  0
ARC
  5
FD2
330
1A
100
AcDbEntity
  8
SEIHIN
  6
Continuous
 62
     3
 48
5.0
100
AcDbCircle
 10
178.9673778666033
 20
131.92806650021
 30
0.0
 40
16.20000000000259
100
AcDbArc
 50
187.9696103943251
 51
241.7087023129758
  0
ARC
  5
FD3
330
1A
100
AcDbEntity
  8
SEIHIN
  6
Continuous
 62
     3
 48
5.0
100
AcDbCircle
 10
178.0431807861396
 20
147.9053182819941
 30
0.0
 40
18.79994593879162
100
AcDbArc
 50
215.553175169777
 51
242.459152934392
  0
LINE
  5
FD4
330
1A
100
AcDbEntity
  8
SEIHIN
  6
Continuous
 62
     3
 48
5.0
100
AcDbLine
 10
162.9238415704767
 20
129.6819714187515
 30
0.0
 11
161.9192108825723
 21
136.8579049037859
 31
0.0
  0
LINE
  5
FD5
330
1A
100
AcDbEntity
  8
SEIHIN
  6
Continuous
 62
     3
 48
5.0
100
AcDbLine
 10
161.9192108825723
 20
136.8579049037859
 30
0.0
 11
162.7479916830284
 21
136.9739342158497
 31
0.0
  0
ARC
  5
FD6
330
1A
100
AcDbEntity
  8
SEIHIN
  6
Continuous
 62
     3
 48
5.0
100
AcDbCircle
 10
157.3831195468374
 20
167.0950533836844
 30
0.0
 40
0.3
100
AcDbArc
 50
7.969884415282627
 51
90.00027205288276
  0
ARC
  5
FD7
330
1A
100
AcDbEntity
  8
SEIHIN
  6
Continuous
 62
     3
 48
5.0
100
AcDbCircle
 10
156.2524476397512
 20
165.795048148557
 30
0.0
 40
0.3
100
AcDbArc
 50
7.96988134202508
 51
90.00027121729559
  0
ARC
  5
FD8
330
1A
100
AcDbEntity
  8
SEIHIN
  6
Continuous
 62
     3
 48
5.0
100
AcDbCircle
 10
156.8047657968809
 20
163.2925090903253
 30
0.0
 40
0.1
100
AcDbArc
 50
217.6942162949705
 51
7.96988134205098
  0
LINE
  5
FD9
330
1A
100
AcDbEntity
  8
SEIHIN
  6
Continuous
 62
     3
 48
5.0
100
AcDbLine
 10
156.5495499670533
 20
165.8366439068938
 30
0.0
 11
156.9037999059815
 21
163.3063743431043
 31
0.0
  0
LINE
  5
FDA
330
1A
100
AcDbEntity
  8
SEIHIN
  6
Continuous
 62
     3
 48
5.0
100
AcDbLine
 10
265.0724456175608
 20
147.3950555225686
 30
0.0
 11
265.6815456175614
 21
160.7950555225684
 31
0.0
  0
LINE
  5
FDB
330
1A
100
AcDbEntity
  8
SEIHIN
  6
Continuous
 62
     3
 48
5.0
100
AcDbLine
 10
269.7133456175611
 20
159.3776555225684
 30
0.0
 11
269.7133456175611
 21
147.3950555225684
 31
0.0
  0
LINE
  5
FDC
330
1A
100
AcDbEntity
  8
SEIHIN
  6
Continuous
 62
     3
 48
5.0
100
AcDbLine
 10
265.0133456175613
 20
146.0950555225683
 30
0.0
 11
268.5133456175613
 21
146.0950555225683
 31
0.0
  0
LINE
  5
FDD
330
1A
100
AcDbEntity
  8
SEIHIN
  6
Continuous
 62
     3
 48
5.0
100
AcDbLine
 10
269.7133456175611
 20
147.3950555225684
 30
0.0
 11
265.0724456175608
 21
147.3950555225686
 31
0.0
  0
LINE
  5
FDE
330
1A
100
AcDbEntity
  8
SEIHIN
  6
Continuous
 62
     3
 48
5.0
100
AcDbLine
 10
267.4638456175612
 20
160.7950555225683
 30
0.0
 11
269.7133456175611
 21
159.3776555225684
 31
0.0
  0
LINE
  5
FDF
330
1A
100
AcDbEntity
  8
SEIHIN
  6
Continuous
 62
     3
 48
5.0
100
AcDbLine
 10
264.9170456158126
 20
162.0950555225685
 30
0.0
 11
264.9170456158126
 21
162.0950555225685
 31
0.0
  0
ARC
  5
FE0
330
1A
100
AcDbEntity
  8
SEIHIN
  6
Continuous
 62
     3
 48
5.0
100
AcDbCircle
 10
264.9170374865566
 20
161.5950477526892
 30
0.0
 40
0.5000077699453731
100
AcDbArc
 50
89.9990682700559
 51
177.3970263848138
  0
LINE
  5
FE1
330
1A
100
AcDbEntity
  8
SEIHIN
  6
Continuous
 62
     3
 48
5.0
100
AcDbLine
 10
264.9170456175607
 20
162.0950555225685
 30
0.0
 11
267.8393456175613
 21
162.0950555225684
 31
0.0
  0
LINE
  5
FE2
330
1A
100
AcDbEntity
  8
SEIHIN
  6
Continuous
 62
     3
 48
5.0
100
AcDbLine
 10
265.6815456175614
 20
160.7950555225684
 30
0.0
 11
267.4638456175612
 21
160.7950555225683
 31
0.0
  0
LINE
  5
FE5
330
1A
100
AcDbEntity
  8
SEIHIN
  6
Continuous
 62
     3
 48
5.0
100
AcDbLine
 10
271.0133456175613
 20
160.0950555225684
 30
0.0
 11
271.0133456175613
 21
145.4781555225684
 31
0.0
  0
ARC
  5
FE6
330
1A
100
AcDbEntity
  8
SEIHIN
  6
Continuous
 62
     3
 48
5.0
100
AcDbCircle
 10
270.5133349777875
 20
145.478149497467
 30
0.0
 40
0.500010639809888
100
AcDbArc
 50
239.0447944605788
 51
0.00069041106267
  0
ARC
  5
FE9
330
1A
100
AcDbEntity
  8
SEIHIN
  6
Continuous
 62
     3
 48
5.0
100
AcDbCircle
 10
153.7652928362313
 20
173.0107258730512
 30
0.0
 40
0.3
100
AcDbArc
 50
270.0
 51
354.9834759562638
  0
ARC
  5
FEA
330
1A
100
AcDbEntity
  8
SEIHIN
  6
Continuous
 62
     3
 48
5.0
100
AcDbCircle
 10
150.7159086403058
 20
175.6835184870141
 30
0.0
 40
3.584
100
AcDbArc
 50
0.0
 51
80.2726657948345
  0
LINE
  5
FED
330
1A
100
AcDbEntity
  8
SEIHIN
  6
Continuous
 62
     3
 48
5.0
100
AcDbLine
 10
152.4999086403059
 20
175.6835184870141
 30
0.0
 11
152.4999086403063
 21
173.2700574245002
 31
0.0
  0
LINE
  5
FEE
330
1A
100
AcDbEntity
  8
SEIHIN
  6
Continuous
 62
     3
 48
5.0
100
AcDbLine
 10
144.2810277271447
 20
170.2231295888207
 30
0.0
 11
147.9182282267593
 21
175.2442228536751
 31
0.0
  0
LINE
  5
FEF
330
1A
100
AcDbEntity
  8
SEIHIN
  6
Continuous
 62
     3
 48
5.0
100
AcDbLine
 10
143.547365449308
 20
172.3114761406218
 30
0.0
 11
142.7887047072809
 21
178.3842445726339
 31
0.0
  0
LINE
  5
FF0
330
1A
100
AcDbEntity
  8
SEIHIN
  6
Continuous
 62
     3
 48
5.0
100
AcDbLine
 10
146.6562764978403
 20
175.7181278152793
 30
0.0
 11
144.088005659728
 21
172.1726733740379
 31
0.0
  0
ARC
  5
FF1
330
1A
100
AcDbEntity
  8
SEIHIN
  6
Continuous
 62
     3
 48
5.0
100
AcDbCircle
 10
145.0908751060333
 20
169.6364889638149
 30
0.0
 40
1.0
100
AcDbArc
 50
144.0810226017623
 51
187.1209737027744
  0
LINE
  5
FF2
330
1A
100
AcDbEntity
  8
SEIHIN
  6
Continuous
 62
     3
 48
5.0
100
AcDbLine
 10
144.1822473273273
 20
168.8428695692711
 30
0.0
 11
144.0985884802108
 21
169.5125242421663
 31
0.0
  0
ARC
  5
FF3
330
1A
100
AcDbEntity
  8
SEIHIN
  6
Continuous
 62
     3
 48
5.0
100
AcDbCircle
 10
143.8450514379083
 20
172.3486655502842
 30
0.0
 40
0.3
100
AcDbArc
 50
187.1209723877637
 51
324.0810252561196
  0
ARC
  5
FF4
330
1A
100
AcDbEntity
  8
SEIHIN
  6
Continuous
 62
     3
 48
5.0
100
AcDbCircle
 10
152.9999086403063
 20
173.2700574245002
 30
0.0
 40
0.5
100
AcDbArc
 50
180.0
 51
254.1630800955034
  0
ARC
  5
FF5
330
1A
100
AcDbEntity
  8
SEIHIN
  6
Continuous
 62
     3
 48
5.0
100
AcDbCircle
 10
153.4330877121952
 20
174.8129123447878
 30
0.0
 40
2.102510841823369
100
AcDbArc
 50
254.2805007818631
 51
271.0064552914901
  0
LINE
  5
FF6
330
1A
100
AcDbEntity
  8
SEIHIN
  6
Continuous
 62
     3
 48
5.0
100
AcDbLine
 10
153.4700184313115
 20
172.7107258730468
 30
0.0
 11
153.7652928362313
 21
172.7107258730513
 31
0.0
  0
LINE
  5
FF7
330
1A
100
AcDbEntity
  8
SEIHIN
  6
Continuous
 62
     3
 48
5.0
100
AcDbLine
 10
147.6703670653751
 20
182.0881113873058
 30
0.0
 11
144.0462879326897
 21
181.5641081208344
 31
0.0
  0
ARC
  5
FF8
330
1A
100
AcDbEntity
  8
SEIHIN
  6
Continuous
 62
     3
 48
5.0
100
AcDbCircle
 10
146.4133128447134
 20
180.2897166503783
 30
0.0
 40
0.3
100
AcDbArc
 50
0.0001229353410056
 51
98.22733989796775
  0
ARC
  5
FF9
330
1A
100
AcDbEntity
  8
SEIHIN
  6
Continuous
 62
     3
 48
5.0
100
AcDbCircle
 10
144.4755916820313
 20
178.5949839585937
 30
0.0
 40
3.0
100
AcDbArc
 50
98.22734218946619
 51
187.1209747929781
  0
LINE
  5
FFA
330
1A
100
AcDbEntity
  8
SEIHIN
  6
Continuous
 62
     3
 48
5.0
100
AcDbLine
 10
144.2323199426064
 20
180.2774880708425
 30
0.0
 11
146.3703824816539
 21
180.5866290683193
 31
0.0
  0
ARC
  5
FFB
330
1A
100
AcDbEntity
  8
SEIHIN
  6
Continuous
 62
     3
 48
5.0
100
AcDbCircle
 10
144.4755919999452
 20
178.594984369177
 30
0.0
 40
1.7
100
AcDbArc
 50
98.22733989804672
 51
187.1209658819234
  0
LINE
  5
FFC
330
1A
100
AcDbEntity
  8
SEIHIN
  6
Continuous
 62
     3
 48
5.0
100
AcDbLine
 10
146.7133128447126
 20
180.2897172940662
 30
0.0
 11
146.7133222760199
 21
175.8941206352137
 31
0.0
  0
ARC
  5
FFD
330
1A
100
AcDbEntity
  8
SEIHIN
  6
Continuous
 62
     3
 48
5.0
100
AcDbCircle
 10
146.4133222760206
 20
175.8941199915257
 30
0.0
 40
0.3
100
AcDbArc
 50
324.0810252560962
 51
0.0001229353410056
  0
LINE
  5
1000
330
1A
100
AcDbEntity
  8
SEIHIN
  6
Continuous
 62
     3
 48
5.0
100
AcDbLine
 10
147.6703670653751
 20
182.0881113873058
 30
0.0
 11
147.6703670653751
 21
182.0881113873058
 31
0.0
  0
ARC
  5
1001
330
1A
100
AcDbEntity
  8
SEIHIN
  6
Continuous
 62
     3
 48
5.0
100
AcDbCircle
 10
149.5133036036928
 20
176.1778167047727
 30
0.0
 40
1.5
100
AcDbArc
 50
80.2726657948345
 51
180.0000838142668
  0
LINE
  5
1002
330
1A
100
AcDbEntity
  8
SEIHIN
  6
Continuous
 62
     3
 48
5.0
100
AcDbLine
 10
149.7667430213614
 20
177.6562511678354
 30
0.0
 11
151.0173325877199
 21
177.4418698750834
 31
0.0
  0
LINE
  5
1003
330
1A
100
AcDbEntity
  8
SEIHIN
  6
Continuous
 62
     3
 48
5.0
100
AcDbLine
 10
148.0133036036946
 20
176.1778145105203
 30
0.0
 11
148.0133045403059
 21
175.5375431703069
 31
0.0
  0
ARC
  5
1004
330
1A
100
AcDbEntity
  8
SEIHIN
  6
Continuous
 62
     3
 48
5.0
100
AcDbCircle
 10
150.7159086403058
 20
175.6835184870141
 30
0.0
 40
1.784
100
AcDbArc
 50
0.0
 51
80.27266579480799
  0
ARC
  5
1005
330
1A
100
AcDbEntity
  8
SEIHIN
  6
Continuous
 62
     3
 48
5.0
100
AcDbCircle
 10
147.5133045403059
 20
175.5375431703069
 30
0.0
 40
0.5
100
AcDbArc
 50
324.0810220175349
 51
0.0
  0
LINE
  5
1006
330
1A
100
AcDbEntity
  8
SEIHIN
  6
Continuous
 62
     3
 48
5.0
100
AcDbLine
 10
148.4288182368528
 20
179.7118599582138
 30
0.0
 11
151.3214598889222
 21
179.2159912307589
 31
0.0
  0
ARC
  5
1007
330
1A
100
AcDbEntity
  8
SEIHIN
  6
Continuous
 62
     3
 48
5.0
100
AcDbCircle
 10
148.5132980427425
 20
180.2046714459015
 30
0.0
 40
0.5
100
AcDbArc
 50
180.0000217563245
 51
260.272665794808
  0
LINE
  5
1008
330
1A
100
AcDbEntity
  8
SEIHIN
  6
Continuous
 62
     3
 48
5.0
100
AcDbLine
 10
148.0132974403059
 20
181.7912003887461
 30
0.0
 11
148.0132980427425
 21
180.2046712560417
 31
0.0
  0
ARC
  5
1009
330
1A
100
AcDbEntity
  8
SEIHIN
  6
Continuous
 62
     3
 48
5.0
100
AcDbCircle
 10
147.7132974403094
 20
181.7911989710818
 30
0.0
 40
0.3
100
AcDbArc
 50
0.0002707539316074
 51
98.22734218949242
  0
LINE
  5
100C
330
1A
100
AcDbEntity
  8
SEIHIN
  6
Continuous
 62
     3
 48
5.0
100
AcDbLine
 10
154.2999086403056
 20
175.6835184870141
 30
0.0
 11
154.0641436925425
 21
172.9844929608584
 31
0.0
  0
DIMENSION
  5
1231
330
1A
100
AcDbEntity
  8
SUNPOU
100
AcDbDimension
  2
*D48
 10
271.0133456175613
 20
206.345904052008
 30
0.0
 11
206.0736479709544
 21
206.345904052008
 31
0.0
 70
   160
 71
     5
 42
129.8793952932138
  3
STANDARD
100
AcDbAlignedDimension
 13
141.1339503243476
 23
181.1430151027279
 33
0.0
 14
271.0133456175613
 24
160.0950555225684
 34
0.0
100
AcDbRotatedDimension
1001
ACAD
1000
DSTYLE
1002
{
1070
    41
1040
3.0
1070
    42
1040
3.0
1070
    43
1040
7.0
1070
    44
1040
1.5
1070
    73
1070
     0
1070
    74
1070
     0
1070
    77
1070
     3
1070
   140
1040
3.0
1070
   141
1040
150.0
1070
   147
1040
1.0
1070
   172
1070
     1
1070
   173
1070
     1
1070
   176
1070
   256
1070
   177
1070
   256
1070
   178
1070
   256
1070
   271
1070
     0
1070
   272
1070
     0
1070
   288
1070
     1
1070
   341
1005
B2
1070
   343
1005
B2
1070
   344
1005
B2
1070
   371
1070
    -1
1070
   372
1070
    -1
1002
}
  0
DIMENSION
  5
1247
330
1A
100
AcDbEntity
  8
SUNPOU
100
AcDbDimension
  2
*D49
 10
154.2999086403056
 20
197.1845553912775
 30
0.0
 11
147.9793506271285
 21
197.1845553912775
 31
0.0
 70
   160
 71
     5
 42
13.16595831595805
  3
STANDARD
100
AcDbAlignedDimension
 13
141.1339503243476
 23
184.1430151027279
 33
0.0
 14
154.2999086403056
 24
178.6835184870141
 34
0.0
100
AcDbRotatedDimension
1001
ACAD
1000
DSTYLE
1002
{
1070
    41
1040
3.0
1070
    42
1040
3.0
1070
    43
1040
7.0
1070
    44
1040
1.5
1070
    73
1070
     0
1070
    74
1070
     0
1070
    77
1070
     3
1070
   140
1040
3.0
1070
   141
1040
150.0
1070
   147
1040
1.0
1070
   172
1070
     1
1070
   173
1070
     1
1070
   176
1070
   256
1070
   177
1070
   256
1070
   178
1070
   256
1070
   271
1070
     0
1070
   272
1070
     0
1070
   288
1070
     1
1070
   341
1005
B2
1070
   343
1005
B2
1070
   344
1005
B2
1070
   371
1070
    -1
1070
   372
1070
    -1
1002
}
  0
DIMENSION
  5
1254
330
1A
100
AcDbEntity
  8
SUNPOU
100
AcDbDimension
  2
*D50
 10
172.9137461854632
 20
172.7107258730513
 30
0.0
 11
172.9137461854631
 21
177.4242106616317
 31
0.0
 70
   160
 71
     5
 42
9.42696957716089
  3
STANDARD
100
AcDbAlignedDimension
 13
148.0132973087348
 23
182.1376954502122
 33
0.0
 14
153.7652928362358
 24
172.7107258730513
 34
0.0
 50
90.0
100
AcDbRotatedDimension
1001
ACAD
1000
DSTYLE
1002
{
1070
    41
1040
3.0
1070
    42
1040
3.0
1070
    43
1040
7.0
1070
    44
1040
1.5
1070
    73
1070
     0
1070
    74
1070
     0
1070
    77
1070
     3
1070
   140
1040
3.0
1070
   141
1040
150.0
1070
   147
1040
1.0
1070
   172
1070
     1
1070
   173
1070
     1
1070
   176
1070
   256
1070
   177
1070
   256
1070
   178
1070
   256
1070
   271
1070
     0
1070
   272
1070
     0
1070
   288
1070
     1
1070
   341
1005
B2
1070
   343
1005
B2
1070
   344
1005
B2
1070
   371
1070
    -1
1070
   372
1070
    -1
1002
}
  0
DIMENSION
  5
128F
330
1A
100
AcDbEntity
  8
SUNPOU
100
AcDbDimension
  2
*D51
 10
133.6135043305427
 20
166.0857973836811
 30
0.0
 11
133.6135043305426
 21
174.1117464169466
 31
0.0
 70
   160
 71
     5
 42
16.05189806653107
  3
STANDARD
100
AcDbAlignedDimension
 13
148.0132973087348
 23
182.1376954502122
 33
0.0
 14
143.0150238403057
 24
166.0857973836811
 34
0.0
 50
90.0
100
AcDbRotatedDimension
1001
ACAD
1000
DSTYLE
1002
{
1070
    41
1040
3.0
1070
    42
1040
3.0
1070
    43
1040
7.0
1070
    44
1040
1.5
1070
    73
1070
     0
1070
    74
1070
     0
1070
    77
1070
     3
1070
   140
1040
3.0
1070
   141
1040
150.0
1070
   147
1040
1.0
1070
   172
1070
     1
1070
   173
1070
     1
1070
   176
1070
   256
1070
   177
1070
   256
1070
   178
1070
   256
1070
   271
1070
     0
1070
   272
1070
     0
1070
   288
1070
     1
1070
   341
1005
B2
1070
   343
1005
B2
1070
   344
1005
B2
1070
   371
1070
    -1
1070
   372
1070
    -1
1002
}
  0
DIMENSION
  5
12A5
330
1A
100
AcDbEntity
  8
SUNPOU
100
AcDbDimension
  2
*D52
 10
133.6135043305427
 20
102.0949555225683
 30
0.0
 11
133.6135043305427
 21
110.2946822680608
 31
0.0
 70
   160
 71
     5
 42
14.0
  3
STANDARD
100
AcDbAlignedDimension
 13
168.5133456175608
 23
116.0949555225683
 33
0.0
 14
173.5133456175608
 24
102.0949555225683
 34
0.0
 50
90.0
100
AcDbRotatedDimension
1001
ACAD
1000
DSTYLE
1002
{
1070
    41
1040
3.0
1070
    42
1040
3.0
1070
    43
1040
7.0
1070
    44
1040
1.5
1070
    73
1070
     0
1070
    74
1070
     0
1070
    77
1070
     3
1070
   140
1040
3.0
1070
   141
1040
150.0
1070
   147
1040
1.0
1070
   172
1070
     1
1070
   173
1070
     1
1070
   176
1070
   256
1070
   177
1070
   256
1070
   178
1070
   256
1070
   271
1070
     0
1070
   272
1070
     0
1070
   288
1070
     1
1070
   341
1005
B2
1070
   343
1005
B2
1070
   344
1005
B2
1070
   371
1070
    -1
1070
   372
1070
    -1
1002
}
  0
DIMENSION
  5
12BF
330
1A
100
AcDbEntity
  8
SUNPOU
100
AcDbDimension
  2
*D53
 10
124.2825524426223
 20
102.0949555225683
 30
0.0
 11
124.2825524426223
 21
142.1163254863902
 31
0.0
 70
   160
 71
     5
 42
80.04273992764387
  3
STANDARD
100
AcDbAlignedDimension
 13
145.0132973087348
 23
182.1376954502122
 33
0.0
 14
170.5133456175608
 24
102.0949555225683
 34
0.0
 50
90.0
100
AcDbRotatedDimension
1001
ACAD
1000
DSTYLE
1002
{
1070
    41
1040
3.0
1070
    42
1040
3.0
1070
    43
1040
7.0
1070
    44
1040
1.5
1070
    73
1070
     0
1070
    74
1070
     0
1070
    77
1070
     3
1070
   140
1040
3.0
1070
   141
1040
150.0
1070
   147
1040
1.0
1070
   172
1070
     1
1070
   173
1070
     1
1070
   176
1070
   256
1070
   177
1070
   256
1070
   178
1070
   256
1070
   271
1070
     0
1070
   272
1070
     0
1070
   288
1070
     1
1070
   341
1005
B2
1070
   343
1005
B2
1070
   344
1005
B2
1070
   371
1070
    -1
1070
   372
1070
    -1
1002
}
  0
DIMENSION
  5
12DE
330
1A
100
AcDbEntity
  8
SUNPOU
100
AcDbDimension
  2
*D54
 10
160.5330537009697
 20
146.7589203107852
 30
0.0
 11
172.9123297225292
 21
148.4919884519856
 31
0.0
 70
   161
  1
t=1.3
 71
     5
 42
1.299852022869089
  3
STANDARD
100
AcDbAlignedDimension
 13
159.2457555427074
 23
146.5787017404565
 33
0.0
 14
160.5330537009697
 24
146.7589203107852
 34
0.0
1001
ACAD
1000
DSTYLE
1002
{
1070
    41
1040
3.0
1070
    42
1040
3.0
1070
    43
1040
7.0
1070
    44
1040
1.5
1070
    73
1070
     0
1070
    74
1070
     0
1070
    77
1070
     3
1070
   140
1040
3.0
1070
   141
1040
150.0
1070
   147
1040
1.0
1070
   172
1070
     1
1070
   173
1070
     1
1070
   176
1070
   256
1070
   177
1070
   256
1070
   178
1070
   256
1070
   271
1070
     0
1070
   272
1070
     0
1070
   288
1070
     1
1070
   341
1005
B2
1070
   343
1005
B2
1070
   344
1005
B2
1070
   371
1070
    -1
1070
   372
1070
    -1
1002
}
  0
DIMENSION
  5
12F8
330
1A
100
AcDbEntity
  8
SUNPOU
100
AcDbDimension
  2
*D55
 10
263.0133648302649
 20
77.78157306167316
 30
0.0
 11
218.2633552239129
 21
77.78157306167316
 31
0.0
 70
   160
 71
     5
 42
89.50001921270405
  3
STANDARD
100
AcDbAlignedDimension
 13
173.5133456175608
 23
102.0949555225683
 33
0.0
 14
263.0133648302649
 24
102.0949555225683
 34
0.0
100
AcDbRotatedDimension
1001
ACAD
1000
DSTYLE
1002
{
1070
    41
1040
3.0
1070
    42
1040
3.0
1070
    43
1040
7.0
1070
    44
1040
1.5
1070
    73
1070
     0
1070
    74
1070
     0
1070
    77
1070
     3
1070
   140
1040
3.0
1070
   141
1040
150.0
1070
   147
1040
1.0
1070
   172
1070
     1
1070
   173
1070
     1
1070
   176
1070
   256
1070
   177
1070
   256
1070
   178
1070
   256
1070
   271
1070
     0
1070
   272
1070
     0
1070
   288
1070
     1
1070
   341
1005
B2
1070
   343
1005
B2
1070
   344
1005
B2
1070
   371
1070
    -1
1070
   372
1070
    -1
1002
}
  0
DIMENSION
  5
1320
330
1A
100
AcDbEntity
  8
SUNPOU
100
AcDbDimension
  2
*D56
 10
203.4002757136562
 20
103.394955522478
 30
0.0
 11
203.4002757136561
 21
115.8949555224781
 31
0.0
 70
   160
  1
t=1.3
 71
     5
 42
1.299999999909687
  3
STANDARD
100
AcDbAlignedDimension
 13
203.4002757136555
 23
102.0949555225683
 33
0.0
 14
203.4002757136555
 24
103.394955522478
 34
0.0
 50
90.0
100
AcDbRotatedDimension
1001
ACAD
1000
DSTYLE
1002
{
1070
    41
1040
3.0
1070
    42
1040
3.0
1070
    43
1040
7.0
1070
    44
1040
1.5
1070
    73
1070
     0
1070
    74
1070
     0
1070
    77
1070
     3
1070
   140
1040
3.0
1070
   141
1040
150.0
1070
   147
1040
1.0
1070
   172
1070
     1
1070
   173
1070
     1
1070
   176
1070
   256
1070
   177
1070
   256
1070
   178
1070
   256
1070
   271
1070
     0
1070
   272
1070
     0
1070
   288
1070
     1
1070
   341
1005
B2
1070
   343
1005
B2
1070
   344
1005
B2
1070
   371
1070
    -1
1070
   372
1070
    -1
1002
}
  0
DIMENSION
  5
135B
330
1A
100
AcDbEntity
  8
SUNPOU
100
AcDbDimension
  2
*D57
 10
283.3847045930682
 20
146.0950555225683
 30
0.0
 11
283.3847045930681
 21
153.2174834791911
 31
0.0
 70
   160
 71
     5
 42
16.00000000000011
  3
STANDARD
100
AcDbAlignedDimension
 13
267.8393456175613
 23
162.0950555225684
 33
0.0
 14
268.5133456175613
 24
146.0950555225683
 34
0.0
 50
90.0
100
AcDbRotatedDimension
1001
ACAD
1000
DSTYLE
1002
{
1070
    41
1040
3.0
1070
    42
1040
3.0
1070
    43
1040
7.0
1070
    44
1040
1.5
1070
    73
1070
     0
1070
    74
1070
     0
1070
    77
1070
     3
1070
   140
1040
3.0
1070
   141
1040
150.0
1070
   147
1040
1.0
1070
   172
1070
     1
1070
   173
1070
     1
1070
   176
1070
   256
1070
   177
1070
   256
1070
   178
1070
   256
1070
   271
1070
     0
1070
   272
1070
     0
1070
   288
1070
     1
1070
   341
1005
B2
1070
   343
1005
B2
1070
   344
1005
B2
1070
   371
1070
    -1
1070
   372
1070
    -1
1002
}
  0
DIMENSION
  5
1368
330
1A
100
AcDbEntity
  8
SUNPOU
100
AcDbDimension
  2
*D58
 10
271.0133456175613
 20
175.8597108624064
 30
0.0
 11
267.726293105507
 21
175.8597108624064
 31
0.0
 70
   160
 71
     5
 42
6.574105024108576
  3
STANDARD
100
AcDbAlignedDimension
 13
264.4392405934527
 23
162.0950555225685
 33
0.0
 14
271.0133456175613
 24
163.0950555225684
 34
0.0
100
AcDbRotatedDimension
1001
ACAD
1000
DSTYLE
1002
{
1070
    41
1040
3.0
1070
    42
1040
3.0
1070
    43
1040
7.0
1070
    44
1040
1.5
1070
    73
1070
     0
1070
    74
1070
     0
1070
    77
1070
     3
1070
   140
1040
3.0
1070
   141
1040
150.0
1070
   147
1040
1.0
1070
   172
1070
     1
1070
   173
1070
     1
1070
   176
1070
   256
1070
   177
1070
   256
1070
   178
1070
   256
1070
   271
1070
     0
1070
   272
1070
     0
1070
   288
1070
     1
1070
   341
1005
B2
1070
   343
1005
B2
1070
   344
1005
B2
1070
   371
1070
    -1
1070
   372
1070
    -1
1002
}
  0
DIMENSION
  5
13AA
330
1A
100
AcDbEntity
  8
SUNPOU
100
AcDbDimension
  2
*D59
 10
271.0133456175613
 20
113.4302734845344
 30
0.0
 11
268.0133456175613
 21
113.4302734845344
 31
0.0
 70
   160
 71
     5
 42
6.0
  3
STANDARD
100
AcDbAlignedDimension
 13
265.0133456175613
 23
146.0950555225683
 33
0.0
 14
271.0133456175613
 24
144.595026833103
 34
0.0
100
AcDbRotatedDimension
1001
ACAD
1000
DSTYLE
1002
{
1070
    41
1040
3.0
1070
    42
1040
3.0
1070
    43
1040
7.0
1070
    44
1040
1.5
1070
    73
1070
     0
1070
    74
1070
     0
1070
    77
1070
     3
1070
   140
1040
3.0
1070
   141
1040
150.0
1070
   147
1040
1.0
1070
   172
1070
     1
1070
   173
1070
     1
1070
   176
1070
   256
1070
   177
1070
   256
1070
   178
1070
   256
1070
   271
1070
     0
1070
   272
1070
     0
1070
   288
1070
     1
1070
   341
1005
B2
1070
   343
1005
B2
1070
   344
1005
B2
1070
   371
1070
    -1
1070
   372
1070
    -1
1002
}
  0
DIMENSION
  5
13E5
330
1A
100
AcDbEntity
  8
SUNPOU
100
AcDbDimension
  2
*D60
 10
289.8633513133686
 20
102.0949555225683
 30
0.0
 11
289.8633513133686
 21
132.0950055225683
 31
0.0
 70
   160
 71
     5
 42
60.00010000000009
  3
STANDARD
100
AcDbAlignedDimension
 13
270.8393456175613
 23
162.0950555225684
 33
0.0
 14
263.0133648302649
 24
102.0949555225683
 34
0.0
 50
90.0
100
AcDbRotatedDimension
1001
ACAD
1000
DSTYLE
1002
{
1070
    41
1040
3.0
1070
    42
1040
3.0
1070
    43
1040
7.0
1070
    44
1040
1.5
1070
    73
1070
     0
1070
    74
1070
     0
1070
    77
1070
     3
1070
   140
1040
3.0
1070
   141
1040
150.0
1070
   147
1040
1.0
1070
   172
1070
     1
1070
   173
1070
     1
1070
   176
1070
   256
1070
   177
1070
   256
1070
   178
1070
   256
1070
   271
1070
     0
1070
   272
1070
     0
1070
   288
1070
     1
1070
   341
1005
B2
1070
   343
1005
B2
1070
   344
1005
B2
1070
   371
1070
    -1
1070
   372
1070
    -1
1002
}
  0
DIMENSION
  5
1404
330
1A
100
AcDbEntity
  8
SUNPOU
100
AcDbDimension
  2
*D61
 10
263.9605389543248
 20
122.9330337885056
 30
0.0
 11
250.1747639954824
 21
123.5596524792742
 31
0.0
 70
   161
  1
t=1.3
 71
     5
 42
1.300008775340189
  3
STANDARD
100
AcDbAlignedDimension
 13
262.6640960443965
 23
123.0410138175929
 33
0.0
 14
263.9627639447666
 24
122.9819841597099
 34
0.0
1001
ACAD
1000
DSTYLE
1002
{
1070
    41
1040
3.0
1070
    42
1040
3.0
1070
    43
1040
7.0
1070
    44
1040
1.5
1070
    73
1070
     0
1070
    74
1070
     0
1070
    77
1070
     3
1070
   140
1040
3.0
1070
   141
1040
150.0
1070
   147
1040
1.0
1070
   172
1070
     1
1070
   173
1070
     1
1070
   176
1070
   256
1070
   177
1070
   256
1070
   178
1070
   256
1070
   271
1070
     0
1070
   272
1070
     0
1070
   288
1070
     1
1070
   341
1005
B2
1070
   343
1005
B2
1070
   344
1005
B2
1070
   371
1070
    -1
1070
   372
1070
    -1
1002
}
  0
VIEWPORT
  5
22
330
17
100
AcDbEntity
 67
     1
  8
0
100
AcDbViewport
 10
313.6808219178083
 20
148.5
 30
0.0
 40
627.3616438356165
 41
297.0
 68
     2
 69
     1
 12
313.6808219178083
 22
148.5
 13
0.0
 23
0.0
 14
1.0
 24
1.0
 15
10.0
 25
10.0
 16
0.0
 26
0.0
 36
1.0
 17
0.0
 27
0.0
 37
0.0
 42
50.0
 43
0.0
 44
0.0
 45
297.0
 50
0.0
 51
0.0
 72
   100
 90
    32768
  1

281
     0
 71
     1
 74
     0
110
0.0
120
0.0
130
0.0
111
1.0
121
0.0
131
0.0
112
0.0
122
1.0
132
0.0
 79
     0
146
0.0
  0
VIEWPORT
  5
64
330
17
100
AcDbEntity
 67
     1
  8
VIEWPORT
100
AcDbViewport
 10
210.0
 20
148.5
 30
0.0
 40
420.0
 41
297.0
 68
     1
 69
     2
 12
210.0
 22
148.5
 13
0.0
 23
0.0
 14
5.0
 24
5.0
 15
0.0
 25
0.0
 16
0.0
 26
0.0
 36
1.0
 17
0.0
 27
0.0
 37
0.0
 42
50.0
 43
0.0
 44
0.0
 45
302.9399999999999
 50
0.0
 51
0.0
 72
   100
 90
    32768
  1

281
     0
 71
     1
 74
     0
110
0.0
120
0.0
130
0.0
111
1.0
121
0.0
131
0.0
112
0.0
122
1.0
132
0.0
 79
     0
146
0.0
  0
ENDSEC
  0
SECTION
  2
OBJECTS
  0
DICTIONARY
  5
C
330
0
100
AcDbDictionary
281
     1
  3
ACAD_GROUP
350
D
  3
ACAD_LAYOUT
350
624
  3
ACAD_MLINESTYLE
350
E
  3
ACAD_PLOTSETTINGS
350
625
  3
ACAD_PLOTSTYLENAME
350
622
  0
DICTIONARY
  5
D
102
{ACAD_REACTORS
330
C
102
}
330
C
100
AcDbDictionary
281
     1
  0
DICTIONARY
  5
624
102
{ACAD_REACTORS
330
C
102
}
330
C
100
AcDbDictionary
281
     1
  3
Model
350
626
  3
ﾚｲｱｳﾄ1
350
627
  0
DICTIONARY
  5
E
102
{ACAD_REACTORS
330
C
102
}
330
C
100
AcDbDictionary
281
     1
  3
STANDARD
350
13
  0
DICTIONARY
  5
625
102
{ACAD_REACTORS
330
C
102
}
330
C
100
AcDbDictionary
281
     1
  0
ACDBDICTIONARYWDFLT
  5
622
102
{ACAD_REACTORS
330
C
102
}
330
C
100
AcDbDictionary
281
     1
  3
Normal
350
623
100
AcDbDictionaryWithDefault
340
623
1001
ACAD
1000
TREAT_AS_HARD
1070
     0
1000
TREAT_AS_HARD
1070
     0
1000
TREAT_AS_HARD
1070
     0
1000
TREAT_AS_HARD
1070
     0
  0
LAYOUT
  5
626
102
{ACAD_REACTORS
330
624
102
}
330
624
100
AcDbPlotSettings
  1

  2
Acrobat PDFWriter
  4
A3
  6

 40
7.143749713897705
 41
7.14375638961792
 42
7.143768310546875
 43
7.14373779296875
 44
297.1270751953125
 45
420.1583251953125
 46
0.0
 47
0.0
 48
0.0
 49
0.0
140
0.0
141
0.0
142
1.0
143
1.0
 70
 11952
 72
     1
 73
     1
 74
     0
  7
print.ctb
 75
    16
147
1.0
148
52.88505331185908
149
1.640883977900558
100
AcDbLayout
  1
Model
 70
     1
 71
     0
 10
0.0
 20
0.0
 11
12.0
 21
9.0
 12
0.0
 22
0.0
 32
0.0
 14
0.0
 24
0.0
 34
0.0
 15
0.0
 25
0.0
 35
0.0
146
0.0
 13
0.0
 23
0.0
 33
0.0
 16
1.0
 26
0.0
 36
0.0
 17
0.0
 27
1.0
 37
0.0
 76
     0
330
1A
  0
LAYOUT
  5
627
102
{ACAD_REACTORS
330
624
102
}
330
624
100
AcDbPlotSettings
  1

  2
EPSON PM-2000C
  4

  6

 40
0.0
 41
0.0
 42
0.0
 43
0.0
 44
0.0
 45
0.0
 46
0.0
 47
0.0
 48
0.0
 49
0.0
140
0.0
141
0.0
142
1.0
143
1.0
 70
   688
 72
     0
 73
     0
 74
     5
  7
print.ctb
 75
    16
147
1.0
148
0.0
149
0.0
100
AcDbLayout
  1
ﾚｲｱｳﾄ1
 70
     1
 71
     1
 10
0.0
 20
0.0
 11
420.0
 21
297.0
 12
0.0
 22
0.0
 32
0.0
 14
0.0
 24
0.0
 34
0.0
 15
420.0
 25
297.0
 35
0.0
146
0.0
 13
0.0
 23
0.0
 33
0.0
 16
1.0
 26
0.0
 36
0.0
 17
0.0
 27
1.0
 37
0.0
 76
     0
330
17
331
64
  0
MLINESTYLE
  5
13
102
{ACAD_REACTORS
330
E
102
}
330
E
100
AcDbMlineStyle
  2
STANDARD
 70
     0
  3

 62
     0
 51
90.0
 52
90.0
 71
     2
 49
0.5
 62
   256
  6
BYLAYER
 49
-0.5
 62
   256
  6
BYLAYER
  0
ACDBPLACEHOLDER
  5
623
102
{ACAD_REACTORS
330
622
102
}
330
622
  0
ENDSEC
  0
EOF
