  0
SECTION
  2
HEADER
  9
$ACADVER
  1
AC1015
  9
$ACADMAINTVER
 70
    20
  9
$DWGCODEPAGE
  3
ANSI_932
  9
$INSBASE
 10
0.0
 20
0.0
 30
0.0
  9
$EXTMIN
 10
3.643342134233762
 20
4.740122493792512
 30
0.0
  9
$EXTMAX
 10
281.4474221342339
 20
196.8624024937927
 30
0.0
  9
$LIMMIN
 10
0.0
 20
0.0
  9
$LIMMAX
 10
297.0
 20
210.0
  9
$ORTHOMODE
 70
     1
  9
$REGENMODE
 70
     1
  9
$FILLMODE
 70
     1
  9
$QTEXTMODE
 70
     0
  9
$MIRRTEXT
 70
     1
  9
$LTSCALE
 40
1.0
  9
$ATTMODE
 70
     1
  9
$TEXTSIZE
 40
2.5
  9
$TRACEWID
 40
1.0
  9
$TEXTSTYLE
  7
MSPｺﾞｼｯｸ
  9
$CLAYER
  8
0
  9
$CELTYPE
  6
BYLAYER
  9
$CECOLOR
 62
   256
  9
$CELTSCALE
 40
1.0
  9
$DISPSILH
 70
     0
  9
$DIMSCALE
 40
1.0
  9
$DIMASZ
 40
3.0
  9
$DIMEXO
 40
1.5
  9
$DIMDLI
 40
7.0
  9
$DIMRND
 40
0.0
  9
$DIMDLE
 40
0.0
  9
$DIMEXE
 40
1.5
  9
$DIMTP
 40
0.0
  9
$DIMTM
 40
0.0
  9
$DIMTXT
 40
3.0
  9
$DIMCEN
 40
0.0
  9
$DIMTSZ
 40
0.0
  9
$DIMTOL
 70
     0
  9
$DIMLIM
 70
     0
  9
$DIMTIH
 70
     0
  9
$DIMTOH
 70
     0
  9
$DIMSE1
 70
     0
  9
$DIMSE2
 70
     0
  9
$DIMTAD
 70
     3
  9
$DIMZIN
 70
     0
  9
$DIMBLK
  1
OPEN
  9
$DIMASO
 70
     1
  9
$DIMSHO
 70
     1
  9
$DIMPOST
  1

  9
$DIMAPOST
  1

  9
$DIMALT
 70
     0
  9
$DIMALTD
 70
     2
  9
$DIMALTF
 40
25.4
  9
$DIMLFAC
 40
1.0
  9
$DIMTOFL
 70
     0
  9
$DIMTVP
 40
0.0
  9
$DIMTIX
 70
     0
  9
$DIMSOXD
 70
     0
  9
$DIMSAH
 70
     0
  9
$DIMBLK1
  1

  9
$DIMBLK2
  1

  9
$DIMSTYLE
  2
STANDARD
  9
$DIMCLRD
 70
   256
  9
$DIMCLRE
 70
   256
  9
$DIMCLRT
 70
   256
  9
$DIMTFAC
 40
1.0
  9
$DIMGAP
 40
1.5
  9
$DIMJUST
 70
     0
  9
$DIMSD1
 70
     0
  9
$DIMSD2
 70
     0
  9
$DIMTOLJ
 70
     1
  9
$DIMTZIN
 70
     0
  9
$DIMALTZ
 70
     0
  9
$DIMALTTZ
 70
     0
  9
$DIMUPT
 70
     0
  9
$DIMDEC
 70
     0
  9
$DIMTDEC
 70
     0
  9
$DIMALTU
 70
     2
  9
$DIMALTTD
 70
     2
  9
$DIMTXSTY
  7
STANDARD
  9
$DIMAUNIT
 70
     0
  9
$DIMADEC
 70
     0
  9
$DIMALTRND
 40
0.0
  9
$DIMAZIN
 70
     0
  9
$DIMDSEP
 70
    46
  9
$DIMATFIT
 70
     3
  9
$DIMFRAC
 70
     0
  9
$DIMLDRBLK
  1
OPEN
  9
$DIMLUNIT
 70
     2
  9
$DIMLWD
 70
    -1
  9
$DIMLWE
 70
    -1
  9
$DIMTMOVE
 70
     0
  9
$LUNITS
 70
     2
  9
$LUPREC
 70
     4
  9
$SKETCHINC
 40
1.0
  9
$FILLETRAD
 40
0.0
  9
$AUNITS
 70
     0
  9
$AUPREC
 70
     0
  9
$MENU
  1
.
  9
$ELEVATION
 40
0.0
  9
$PELEVATION
 40
0.0
  9
$THICKNESS
 40
0.0
  9
$LIMCHECK
 70
     0
  9
$CHAMFERA
 40
7.07070707070707
  9
$CHAMFERB
 40
7.07070707070707
  9
$CHAMFERC
 40
14.14141414141414
  9
$CHAMFERD
 40
0.0
  9
$SKPOLY
 70
     0
  9
$TDCREATE
 40
2455741.593026794
  9
$TDUCREATE
 40
2455741.218026794
  9
$TDUPDATE
 40
2456904.492622500
  9
$TDUUPDATE
 40
2456904.117622500
  9
$TDINDWG
 40
0.0533017130
  9
$TDUSRTIMER
 40
0.0533015394
  9
$USRTIMER
 70
     1
  9
$ANGBASE
 50
0.0
  9
$ANGDIR
 70
     0
  9
$PDMODE
 70
     0
  9
$PDSIZE
 40
0.0
  9
$PLINEWID
 40
0.0
  9
$SPLFRAME
 70
     0
  9
$SPLINETYPE
 70
     6
  9
$SPLINESEGS
 70
     8
  9
$HANDSEED
  5
2E82
  9
$SURFTAB1
 70
     6
  9
$SURFTAB2
 70
     6
  9
$SURFTYPE
 70
     6
  9
$SURFU
 70
     6
  9
$SURFV
 70
     6
  9
$UCSBASE
  2

  9
$UCSNAME
  2

  9
$UCSORG
 10
0.0
 20
0.0
 30
0.0
  9
$UCSXDIR
 10
1.0
 20
0.0
 30
0.0
  9
$UCSYDIR
 10
0.0
 20
1.0
 30
0.0
  9
$UCSORTHOREF
  2

  9
$UCSORTHOVIEW
 70
     0
  9
$UCSORGTOP
 10
0.0
 20
0.0
 30
0.0
  9
$UCSORGBOTTOM
 10
0.0
 20
0.0
 30
0.0
  9
$UCSORGLEFT
 10
0.0
 20
0.0
 30
0.0
  9
$UCSORGRIGHT
 10
0.0
 20
0.0
 30
0.0
  9
$UCSORGFRONT
 10
0.0
 20
0.0
 30
0.0
  9
$UCSORGBACK
 10
0.0
 20
0.0
 30
0.0
  9
$PUCSBASE
  2

  9
$PUCSNAME
  2

  9
$PUCSORG
 10
0.0
 20
0.0
 30
0.0
  9
$PUCSXDIR
 10
1.0
 20
0.0
 30
0.0
  9
$PUCSYDIR
 10
0.0
 20
1.0
 30
0.0
  9
$PUCSORTHOREF
  2

  9
$PUCSORTHOVIEW
 70
     0
  9
$PUCSORGTOP
 10
0.0
 20
0.0
 30
0.0
  9
$PUCSORGBOTTOM
 10
0.0
 20
0.0
 30
0.0
  9
$PUCSORGLEFT
 10
0.0
 20
0.0
 30
0.0
  9
$PUCSORGRIGHT
 10
0.0
 20
0.0
 30
0.0
  9
$PUCSORGFRONT
 10
0.0
 20
0.0
 30
0.0
  9
$PUCSORGBACK
 10
0.0
 20
0.0
 30
0.0
  9
$USERI1
 70
     0
  9
$USERI2
 70
     0
  9
$USERI3
 70
     0
  9
$USERI4
 70
     0
  9
$USERI5
 70
     0
  9
$USERR1
 40
0.0
  9
$USERR2
 40
0.0
  9
$USERR3
 40
0.0
  9
$USERR4
 40
0.0
  9
$USERR5
 40
0.0
  9
$WORLDVIEW
 70
     1
  9
$SHADEDGE
 70
     3
  9
$SHADEDIF
 70
    70
  9
$TILEMODE
 70
     1
  9
$MAXACTVP
 70
    16
  9
$PINSBASE
 10
0.0
 20
0.0
 30
0.0
  9
$PLIMCHECK
 70
     0
  9
$PEXTMIN
 10
0.0
 20
0.0
 30
0.0
  9
$PEXTMAX
 10
420.0
 20
297.0
 30
0.0
  9
$PLIMMIN
 10
0.0
 20
0.0
  9
$PLIMMAX
 10
420.0
 20
297.0
  9
$UNITMODE
 70
     0
  9
$VISRETAIN
 70
     0
  9
$PLINEGEN
 70
     0
  9
$PSLTSCALE
 70
     1
  9
$TREEDEPTH
 70
  3020
  9
$CMLSTYLE
  2
STANDARD
  9
$CMLJUST
 70
     0
  9
$CMLSCALE
 40
1.0
  9
$PROXYGRAPHICS
 70
     1
  9
$MEASUREMENT
 70
     1
  9
$CELWEIGHT
370
    -1
  9
$ENDCAPS
280
     0
  9
$JOINSTYLE
280
     0
  9
$LWDISPLAY
290
     0
  9
$INSUNITS
 70
     0
  9
$HYPERLINKBASE
  1

  9
$STYLESHEET
  1
systemprinter.ctb
  9
$XEDIT
290
     1
  9
$CEPSNTYPE
380
     0
  9
$PSTYLEMODE
290
     1
  9
$FINGERPRINTGUID
  2
{D63A45AA-1E13-4625-BD67-9A41EB90E577}
  9
$VERSIONGUID
  2
{6F1D7E19-EA22-44B1-A38C-512CCA470AA0}
  9
$EXTNAMES
290
     1
  9
$PSVPSCALE
 40
0.0
  9
$OLESTARTUP
290
     0
  0
ENDSEC
  0
SECTION
  2
CLASSES
  0
CLASS
  1
ACDBDICTIONARYWDFLT
  2
AcDbDictionaryWithDefault
  3
ObjectDBX Classes
 90
        0
280
     0
281
     0
  0
CLASS
  1
ACDBPLACEHOLDER
  2
AcDbPlaceHolder
  3
ObjectDBX Classes
 90
        0
280
     0
281
     0
  0
CLASS
  1
LAYOUT
  2
AcDbLayout
  3
ObjectDBX Classes
 90
        0
280
     0
281
     0
  0
CLASS
  1
LONG_TRANSACTION
  2
AcDbLongTransaction
  3
ObjectDBX Classes
 90
    32768
280
     0
281
     0
  0
CLASS
  1
LWPOLYLINE
  2
AcDbPolyline
  3
ObjectDBX Classes
 90
        0
280
     0
281
     1
  0
CLASS
  1
HATCH
  2
AcDbHatch
  3
ObjectDBX Classes
 90
    32768
280
     0
281
     1
  0
CLASS
  1
XRECORD
  2
AcDbXrecord
  3
ObjectDBX Classes
 90
        0
280
     0
281
     0
  0
CLASS
  1
LONG_TRANSACTION
  2
AcDbLongTransaction
  3
ObjectDBX Classes
 90
    32768
280
     0
281
     0
  0
CLASS
  1
LWPOLYLINE
  2
AcDbPolyline
  3
ObjectDBX Classes
 90
        0
280
     0
281
     1
  0
CLASS
  1
HATCH
  2
AcDbHatch
  3
ObjectDBX Classes
 90
    32768
280
     0
281
     1
  0
CLASS
  1
XRECORD
  2
AcDbXrecord
  3
ObjectDBX Classes
 90
        0
280
     0
281
     0
  0
CLASS
  1
LONG_TRANSACTION
  2
AcDbLongTransaction
  3
ObjectDBX Classes
 90
    32768
280
     0
281
     0
  0
CLASS
  1
LWPOLYLINE
  2
AcDbPolyline
  3
ObjectDBX Classes
 90
        0
280
     0
281
     1
  0
CLASS
  1
HATCH
  2
AcDbHatch
  3
ObjectDBX Classes
 90
    32768
280
     0
281
     1
  0
CLASS
  1
XRECORD
  2
AcDbXrecord
  3
ObjectDBX Classes
 90
        0
280
     0
281
     0
  0
CLASS
  1
LONG_TRANSACTION
  2
AcDbLongTransaction
  3
ObjectDBX Classes
 90
    32768
280
     0
281
     0
  0
CLASS
  1
LWPOLYLINE
  2
AcDbPolyline
  3
ObjectDBX Classes
 90
        0
280
     0
281
     1
  0
CLASS
  1
HATCH
  2
AcDbHatch
  3
ObjectDBX Classes
 90
    32768
280
     0
281
     1
  0
CLASS
  1
XRECORD
  2
AcDbXrecord
  3
ObjectDBX Classes
 90
        0
280
     0
281
     0
  0
CLASS
  1
LONG_TRANSACTION
  2
AcDbLongTransaction
  3
ObjectDBX Classes
 90
    32768
280
     0
281
     0
  0
CLASS
  1
LWPOLYLINE
  2
AcDbPolyline
  3
ObjectDBX Classes
 90
        0
280
     0
281
     1
  0
CLASS
  1
HATCH
  2
AcDbHatch
  3
ObjectDBX Classes
 90
    32768
280
     0
281
     1
  0
CLASS
  1
XRECORD
  2
AcDbXrecord
  3
ObjectDBX Classes
 90
        0
280
     0
281
     0
  0
CLASS
  1
LONG_TRANSACTION
  2
AcDbLongTransaction
  3
ObjectDBX Classes
 90
    32768
280
     0
281
     0
  0
CLASS
  1
LWPOLYLINE
  2
AcDbPolyline
  3
ObjectDBX Classes
 90
        0
280
     0
281
     1
  0
CLASS
  1
HATCH
  2
AcDbHatch
  3
ObjectDBX Classes
 90
    32768
280
     0
281
     1
  0
CLASS
  1
XRECORD
  2
AcDbXrecord
  3
ObjectDBX Classes
 90
        0
280
     0
281
     0
  0
CLASS
  1
LONG_TRANSACTION
  2
AcDbLongTransaction
  3
ObjectDBX Classes
 90
    32768
280
     0
281
     0
  0
CLASS
  1
LWPOLYLINE
  2
AcDbPolyline
  3
ObjectDBX Classes
 90
        0
280
     0
281
     1
  0
CLASS
  1
HATCH
  2
AcDbHatch
  3
ObjectDBX Classes
 90
    32768
280
     0
281
     1
  0
CLASS
  1
XRECORD
  2
AcDbXrecord
  3
ObjectDBX Classes
 90
        0
280
     0
281
     0
  0
CLASS
  1
LONG_TRANSACTION
  2
AcDbLongTransaction
  3
ObjectDBX Classes
 90
    32768
280
     0
281
     0
  0
CLASS
  1
LWPOLYLINE
  2
AcDbPolyline
  3
ObjectDBX Classes
 90
        0
280
     0
281
     1
  0
CLASS
  1
HATCH
  2
AcDbHatch
  3
ObjectDBX Classes
 90
    32768
280
     0
281
     1
  0
CLASS
  1
XRECORD
  2
AcDbXrecord
  3
ObjectDBX Classes
 90
        0
280
     0
281
     0
  0
CLASS
  1
LONG_TRANSACTION
  2
AcDbLongTransaction
  3
ObjectDBX Classes
 90
    32768
280
     0
281
     0
  0
CLASS
  1
LWPOLYLINE
  2
AcDbPolyline
  3
ObjectDBX Classes
 90
        0
280
     0
281
     1
  0
CLASS
  1
HATCH
  2
AcDbHatch
  3
ObjectDBX Classes
 90
    32768
280
     0
281
     1
  0
CLASS
  1
XRECORD
  2
AcDbXrecord
  3
ObjectDBX Classes
 90
        0
280
     0
281
     0
  0
CLASS
  1
LONG_TRANSACTION
  2
AcDbLongTransaction
  3
ObjectDBX Classes
 90
    32768
280
     0
281
     0
  0
CLASS
  1
LWPOLYLINE
  2
AcDbPolyline
  3
ObjectDBX Classes
 90
        0
280
     0
281
     1
  0
CLASS
  1
HATCH
  2
AcDbHatch
  3
ObjectDBX Classes
 90
    32768
280
     0
281
     1
  0
CLASS
  1
XRECORD
  2
AcDbXrecord
  3
ObjectDBX Classes
 90
        0
280
     0
281
     0
  0
CLASS
  1
LONG_TRANSACTION
  2
AcDbLongTransaction
  3
ObjectDBX Classes
 90
    32768
280
     0
281
     0
  0
CLASS
  1
LWPOLYLINE
  2
AcDbPolyline
  3
ObjectDBX Classes
 90
        0
280
     0
281
     1
  0
CLASS
  1
HATCH
  2
AcDbHatch
  3
ObjectDBX Classes
 90
    32768
280
     0
281
     1
  0
CLASS
  1
XRECORD
  2
AcDbXrecord
  3
ObjectDBX Classes
 90
        0
280
     0
281
     0
  0
CLASS
  1
LONG_TRANSACTION
  2
AcDbLongTransaction
  3
ObjectDBX Classes
 90
    32768
280
     0
281
     0
  0
CLASS
  1
LWPOLYLINE
  2
AcDbPolyline
  3
ObjectDBX Classes
 90
        0
280
     0
281
     1
  0
CLASS
  1
HATCH
  2
AcDbHatch
  3
ObjectDBX Classes
 90
    32768
280
     0
281
     1
  0
CLASS
  1
XRECORD
  2
AcDbXrecord
  3
ObjectDBX Classes
 90
        0
280
     0
281
     0
  0
CLASS
  1
LONG_TRANSACTION
  2
AcDbLongTransaction
  3
ObjectDBX Classes
 90
    32768
280
     0
281
     0
  0
CLASS
  1
LWPOLYLINE
  2
AcDbPolyline
  3
ObjectDBX Classes
 90
        0
280
     0
281
     1
  0
CLASS
  1
HATCH
  2
AcDbHatch
  3
ObjectDBX Classes
 90
    32768
280
     0
281
     1
  0
CLASS
  1
XRECORD
  2
AcDbXrecord
  3
ObjectDBX Classes
 90
        0
280
     0
281
     0
  0
CLASS
  1
LONG_TRANSACTION
  2
AcDbLongTransaction
  3
ObjectDBX Classes
 90
    32768
280
     0
281
     0
  0
CLASS
  1
LWPOLYLINE
  2
AcDbPolyline
  3
ObjectDBX Classes
 90
        0
280
     0
281
     1
  0
CLASS
  1
HATCH
  2
AcDbHatch
  3
ObjectDBX Classes
 90
    32768
280
     0
281
     1
  0
CLASS
  1
XRECORD
  2
AcDbXrecord
  3
ObjectDBX Classes
 90
        0
280
     0
281
     0
  0
CLASS
  1
MATERIAL
  2
AcDbMaterial
  3
ObjectDBX Classes
 90
        0
280
     0
281
     0
  0
CLASS
  1
VISUALSTYLE
  2
AcDbVisualStyle
  3
ObjectDBX Classes
 90
     4095
280
     0
281
     0
  0
CLASS
  1
TABLESTYLE
  2
AcDbTableStyle
  3
ObjectDBX Classes
 90
     4095
280
     0
281
     0
  0
CLASS
  1
SCALE
  2
AcDbScale
  3
ObjectDBX Classes
 90
     1153
280
     0
281
     0
  0
CLASS
  1
MLEADERSTYLE
  2
AcDbMLeaderStyle
  3
ACDB_MLEADERSTYLE_CLASS
 90
     4095
280
     0
281
     0
  0
CLASS
  1
DICTIONARYVAR
  2
AcDbDictionaryVar
  3
ObjectDBX Classes
 90
        0
280
     0
281
     0
  0
CLASS
  1
CELLSTYLEMAP
  2
AcDbCellStyleMap
  3
ObjectDBX Classes
 90
     1152
280
     0
281
     0
  0
ENDSEC
  0
SECTION
  2
TABLES
  0
TABLE
  2
VPORT
  5
8
102
{ACAD_XDICTIONARY
360
2E28
102
}
330
0
100
AcDbSymbolTable
 70
     2
  0
VPORT
  5
2E7A
330
8
100
AcDbSymbolTableRecord
100
AcDbViewportTableRecord
  2
*Active
 70
     0
 10
0.0
 20
0.0
 11
1.0
 21
1.0
 12
198.6754539882498
 22
98.77861506039335
 13
0.0
 23
0.0
 14
5.0
 24
5.0
 15
0.0
 25
0.0
 16
0.0
 26
0.0
 36
1.0
 17
0.0
 27
0.0
 37
0.0
 40
337.5261564564066
 41
2.011264080100125
 42
50.0
 43
0.0
 44
0.0
 50
0.0
 51
0.0
 71
     0
 72
   100
 73
     1
 74
     0
 75
     0
 76
     0
 77
     0
 78
     0
281
     0
 65
     1
110
0.0
120
0.0
130
0.0
111
1.0
121
0.0
131
0.0
112
0.0
122
1.0
132
0.0
 79
     0
146
0.0
  0
ENDTAB
  0
TABLE
  2
LTYPE
  5
5
330
0
100
AcDbSymbolTable
 70
     2
  0
LTYPE
  5
14
330
5
100
AcDbSymbolTableRecord
100
AcDbLinetypeTableRecord
  2
BYBLOCK
 70
     0
  3

 72
    65
 73
     0
 40
0.0
  0
LTYPE
  5
15
330
5
100
AcDbSymbolTableRecord
100
AcDbLinetypeTableRecord
  2
BYLAYER
 70
     0
  3

 72
    65
 73
     0
 40
0.0
  0
LTYPE
  5
16
330
5
100
AcDbSymbolTableRecord
100
AcDbLinetypeTableRecord
  2
CONTINUOUS
 70
     0
  3
Solid line
 72
    65
 73
     0
 40
0.0
  0
LTYPE
  5
FE
330
5
100
AcDbSymbolTableRecord
100
AcDbLinetypeTableRecord
  2
CENTER
 70
     0
  3
Center ____ _ ____ _ ____ _ ____ _ ____ _ ____
 72
    65
 73
     4
 40
50.8
 49
31.75
 74
     0
 49
-6.349999999999999
 74
     0
 49
6.349999999999999
 74
     0
 49
-6.349999999999999
 74
     0
  0
ENDTAB
  0
TABLE
  2
LAYER
  5
2
102
{ACAD_XDICTIONARY
360
2E0B
102
}
330
0
100
AcDbSymbolTable
 70
     8
  0
LAYER
  5
F
102
{ACAD_XDICTIONARY
360
2DF2
102
}
330
2
100
AcDbSymbolTableRecord
100
AcDbLayerTableRecord
  2
0
 70
     0
 62
     7
  6
CONTINUOUS
370
    -3
390
115
  0
LAYER
  5
62
102
{ACAD_XDICTIONARY
360
2DF4
102
}
330
2
100
AcDbSymbolTableRecord
100
AcDbLayerTableRecord
  2
VIEWPORT
 70
     0
 62
     7
  6
CONTINUOUS
370
    -3
390
115
  0
LAYER
  5
324
330
2
100
AcDbSymbolTableRecord
100
AcDbLayerTableRecord
  2
Defpoints
 70
     0
 62
     7
  6
CONTINUOUS
290
     0
370
    -3
390
115
  0
LAYER
  5
325
102
{ACAD_XDICTIONARY
360
2DF6
102
}
330
2
100
AcDbSymbolTableRecord
100
AcDbLayerTableRecord
  2
ZUWAKU
 70
     0
 62
     7
  6
CONTINUOUS
370
    -3
390
115
  0
LAYER
  5
326
102
{ACAD_XDICTIONARY
360
2DF8
102
}
330
2
100
AcDbSymbolTableRecord
100
AcDbLayerTableRecord
  2
MOJI
 70
     0
 62
     2
  6
CONTINUOUS
370
    -3
390
115
  0
LAYER
  5
327
102
{ACAD_XDICTIONARY
360
2DFA
102
}
330
2
100
AcDbSymbolTableRecord
100
AcDbLayerTableRecord
  2
SEIHIN
 70
     0
 62
     3
  6
CONTINUOUS
370
    -3
390
115
  0
LAYER
  5
328
102
{ACAD_XDICTIONARY
360
2DFC
102
}
330
2
100
AcDbSymbolTableRecord
100
AcDbLayerTableRecord
  2
SUNPOU
 70
     0
 62
     4
  6
CONTINUOUS
370
    -3
390
115
  0
LAYER
  5
329
102
{ACAD_XDICTIONARY
360
2DFE
102
}
330
2
100
AcDbSymbolTableRecord
100
AcDbLayerTableRecord
  2
CENTER L
 70
     0
 62
     1
  6
CENTER
370
    -3
390
115
  0
ENDTAB
  0
TABLE
  2
STYLE
  5
3
330
0
100
AcDbSymbolTable
 70
     2
  0
STYLE
  5
10
330
3
100
AcDbSymbolTableRecord
100
AcDbTextStyleTableRecord
  2
STANDARD
 70
     0
 40
0.0
 41
1.0
 50
0.0
 71
     0
 42
1.767676767676767
  3
TXT
  4
a:\program files\autocad lt\ms\bigfont.shx
  0
STYLE
  5
32B
330
3
100
AcDbSymbolTableRecord
100
AcDbTextStyleTableRecord
  2
MSPｺﾞｼｯｸ
 70
     0
 40
0.0
 41
1.0
 50
0.0
 71
     0
 42
2.5
  3

  4

1001
ACAD
1000
MS PGothic
1071
    32818
  0
ENDTAB
  0
TABLE
  2
VIEW
  5
6
330
0
100
AcDbSymbolTable
 70
     0
  0
ENDTAB
  0
TABLE
  2
UCS
  5
7
330
0
100
AcDbSymbolTable
 70
     0
  0
ENDTAB
  0
TABLE
  2
APPID
  5
9
330
0
100
AcDbSymbolTable
 70
     3
  0
APPID
  5
11
330
9
100
AcDbSymbolTableRecord
100
AcDbRegAppTableRecord
  2
ACAD
 70
     0
  0
APPID
  5
2DF0
330
9
100
AcDbSymbolTableRecord
100
AcDbRegAppTableRecord
  2
ACAD_EXEMPT_FROM_CAD_STANDARDS
 70
     0
  0
APPID
  5
2E65
330
9
100
AcDbSymbolTableRecord
100
AcDbRegAppTableRecord
  2
ACAD_MLEADERVER
 70
     0
  0
ENDTAB
  0
TABLE
  2
DIMSTYLE
  5
A
330
0
100
AcDbSymbolTable
 70
     1
100
AcDbDimStyleTable
 71
     1
340
1D
  0
DIMSTYLE
105
1D
102
{ACAD_REACTORS
330
2AB4
330
2AC1
330
2ACE
330
2ADB
330
2AE8
330
2AF5
330
2B02
330
2B26
330
2B49
102
}
330
A
100
AcDbSymbolTableRecord
100
AcDbDimStyleTableRecord
  2
STANDARD
 70
     0
 41
3.0
 42
1.5
 43
7.0
 44
1.5
 73
     0
 74
     0
 77
     3
140
3.0
141
0.0
147
1.5
176
   256
177
   256
178
   256
271
     0
272
     0
340
10
341
66
342
66
371
    -1
372
    -1
  0
ENDTAB
  0
TABLE
  2
BLOCK_RECORD
  5
1
330
0
100
AcDbSymbolTable
 70
    11
  0
BLOCK_RECORD
  5
1A
102
{ACAD_XDICTIONARY
360
1325
102
}
330
1
100
AcDbSymbolTableRecord
100
AcDbBlockTableRecord
  2
*MODEL_SPACE
340
118
  0
BLOCK_RECORD
  5
17
102
{ACAD_XDICTIONARY
360
1323
102
}
330
1
100
AcDbSymbolTableRecord
100
AcDbBlockTableRecord
  2
*PAPER_SPACE
340
119
  0
BLOCK_RECORD
  5
66
330
1
100
AcDbSymbolTableRecord
100
AcDbBlockTableRecord
  2
_OPEN
340
0
102
{BLKREFS
331
2CE0
331
2CE1
331
2AC6
331
2AC7
331
2AD3
331
2AD4
331
2AE0
331
2AE1
331
2AED
331
2AEE
331
2AFA
331
2AFB
331
2B07
331
2B08
331
2B42
331
2B43
331
2D4E
331
2D4F
102
}
  0
BLOCK_RECORD
  5
899
330
1
100
AcDbSymbolTableRecord
100
AcDbBlockTableRecord
  2
*X1
340
0
102
{BLKREFS
331
C99
102
}
  0
BLOCK_RECORD
  5
2AB5
330
1
100
AcDbSymbolTableRecord
100
AcDbBlockTableRecord
  2
*D2
340
0
  0
BLOCK_RECORD
  5
2AC2
330
1
100
AcDbSymbolTableRecord
100
AcDbBlockTableRecord
  2
*D3
340
0
  0
BLOCK_RECORD
  5
2ACF
330
1
100
AcDbSymbolTableRecord
100
AcDbBlockTableRecord
  2
*D4
340
0
  0
BLOCK_RECORD
  5
2ADC
330
1
100
AcDbSymbolTableRecord
100
AcDbBlockTableRecord
  2
*D5
340
0
  0
BLOCK_RECORD
  5
2AE9
330
1
100
AcDbSymbolTableRecord
100
AcDbBlockTableRecord
  2
*D6
340
0
  0
BLOCK_RECORD
  5
2AF6
330
1
100
AcDbSymbolTableRecord
100
AcDbBlockTableRecord
  2
*D7
340
0
  0
BLOCK_RECORD
  5
2B03
330
1
100
AcDbSymbolTableRecord
100
AcDbBlockTableRecord
  2
*D8
340
0
  0
BLOCK_RECORD
  5
2B27
330
1
100
AcDbSymbolTableRecord
100
AcDbBlockTableRecord
  2
*D9
340
0
  0
BLOCK_RECORD
  5
2B4A
330
1
100
AcDbSymbolTableRecord
100
AcDbBlockTableRecord
  2
*D10
340
0
  0
ENDTAB
  0
ENDSEC
  0
SECTION
  2
BLOCKS
  0
BLOCK
  5
1B
330
1A
100
AcDbEntity
  8
0
100
AcDbBlockBegin
  2
*MODEL_SPACE
 70
     0
 10
0.0
 20
0.0
 30
0.0
  3
*MODEL_SPACE
  1

  0
ENDBLK
  5
1C
330
1A
100
AcDbEntity
  8
0
100
AcDbBlockEnd
  0
BLOCK
  5
18
330
17
100
AcDbEntity
 67
     1
  8
0
100
AcDbBlockBegin
  2
*PAPER_SPACE
 70
     0
 10
0.0
 20
0.0
 30
0.0
  3
*PAPER_SPACE
  1

  0
ENDBLK
  5
19
330
17
100
AcDbEntity
 67
     1
  8
0
100
AcDbBlockEnd
  0
BLOCK
  5
67
330
66
100
AcDbEntity
  8
0
100
AcDbBlockBegin
  2
_OPEN
 70
     0
 10
0.0
 20
0.0
 30
0.0
  3
_OPEN
  1

  0
LINE
  5
68
330
66
100
AcDbEntity
  8
0
  6
ByBlock
 62
     0
100
AcDbLine
 10
-1.0
 20
0.1666666666666666
 30
0.0
 11
0.0
 21
0.0
 31
0.0
  0
LINE
  5
69
330
66
100
AcDbEntity
  8
0
  6
ByBlock
 62
     0
100
AcDbLine
 10
0.0
 20
0.0
 30
0.0
 11
-1.0
 21
-0.1666666666666666
 31
0.0
  0
LINE
  5
6A
330
66
100
AcDbEntity
  8
0
  6
ByBlock
 62
     0
100
AcDbLine
 10
0.0
 20
0.0
 30
0.0
 11
-1.0
 21
0.0
 31
0.0
  0
ENDBLK
  5
6B
330
66
100
AcDbEntity
  8
0
100
AcDbBlockEnd
  0
BLOCK
  5
A2D
330
899
100
AcDbEntity
  8
0
100
AcDbBlockBegin
  2
*X1
 70
     1
 10
0.0
 20
0.0
 30
0.0
  3
*X1
  1

  0
LINE
  5
89A
330
899
100
AcDbEntity
  8
0
 62
     0
100
AcDbLine
 10
79.04221142834842
 20
32.60416930422588
 30
0.0
 11
78.3963804986335
 21
33.25000023394085
 31
0.0
  0
LINE
  5
89B
330
899
100
AcDbEntity
  8
0
 62
     0
100
AcDbLine
 10
79.04221142834842
 20
31.70614369211899
 30
0.0
 11
77.49835488652656
 21
33.25000023394085
 31
0.0
  0
LINE
  5
89C
330
899
100
AcDbEntity
  8
0
 62
     0
100
AcDbLine
 10
79.04221142834837
 20
30.80811808001204
 30
0.0
 11
76.62107748233342
 21
33.22925202602699
 31
0.0
  0
LINE
  5
89D
330
899
100
AcDbEntity
  8
0
 62
     0
100
AcDbLine
 10
79.04221142834842
 20
29.9100924679052
 30
0.0
 11
76.24221142834835
 21
32.71009246790522
 31
0.0
  0
LINE
  5
89E
330
899
100
AcDbEntity
  8
0
 62
     0
100
AcDbLine
 10
79.04221142834842
 20
29.01206685579825
 30
0.0
 11
76.24221142834835
 21
31.81206685579832
 31
0.0
  0
LINE
  5
89F
330
899
100
AcDbEntity
  8
0
 62
     0
100
AcDbLine
 10
79.04221142834837
 20
28.11404124369131
 30
0.0
 11
76.2422114283483
 21
30.91404124369137
 31
0.0
  0
LINE
  5
8A0
330
899
100
AcDbEntity
  8
0
 62
     0
100
AcDbLine
 10
74.14221142834833
 20
32.1160156315845
 30
0.0
 11
73.00822682599203
 21
33.25000023394085
 31
0.0
  0
LINE
  5
8A1
330
899
100
AcDbEntity
  8
0
 62
     0
100
AcDbLine
 10
79.04221142834842
 20
27.21601563158447
 30
0.0
 11
76.24221142834835
 21
30.01601563158454
 31
0.0
  0
LINE
  5
8A2
330
899
100
AcDbEntity
  8
0
 62
     0
100
AcDbLine
 10
74.14221142834833
 20
31.21799001947761
 30
0.0
 11
72.11020121388509
 21
33.2500002339408
 31
0.0
  0
LINE
  5
8A3
330
899
100
AcDbEntity
  8
0
 62
     0
100
AcDbLine
 10
79.04221142834837
 20
26.31799001947752
 30
0.0
 11
76.24221142834835
 21
29.11799001947759
 31
0.0
  0
LINE
  5
8A4
330
899
100
AcDbEntity
  8
0
 62
     0
100
AcDbLine
 10
74.14221142834833
 20
30.31996440737066
 30
0.0
 11
71.43670046321125
 21
33.02547537250774
 31
0.0
  0
LINE
  5
8A5
330
899
100
AcDbEntity
  8
0
 62
     0
100
AcDbLine
 10
79.04221142834837
 20
25.41996440737063
 30
0.0
 11
76.2422114283483
 21
28.21996440737064
 31
0.0
  0
LINE
  5
8A6
330
899
100
AcDbEntity
  8
0
 62
     0
100
AcDbLine
 10
74.14221142834844
 20
29.42193879526366
 30
0.0
 11
71.34221142834826
 21
32.22193879526378
 31
0.0
  0
LINE
  5
8A7
330
899
100
AcDbEntity
  8
0
 62
     0
100
AcDbLine
 10
79.04221142834842
 20
24.52193879526368
 30
0.0
 11
76.24221142834835
 21
27.32193879526375
 31
0.0
  0
LINE
  5
8A8
330
899
100
AcDbEntity
  8
0
 62
     0
100
AcDbLine
 10
74.14221142834839
 20
28.52391318315677
 30
0.0
 11
71.34221142834826
 21
31.32391318315695
 31
0.0
  0
LINE
  5
8A9
330
899
100
AcDbEntity
  8
0
 62
     0
100
AcDbLine
 10
79.04221142834837
 20
23.62391318315679
 30
0.0
 11
76.2422114283483
 21
26.42391318315686
 31
0.0
  0
LINE
  5
8AA
330
899
100
AcDbEntity
  8
0
 62
     0
100
AcDbLine
 10
74.14221142834839
 20
27.62588757104988
 30
0.0
 11
71.34221142834826
 21
30.42588757105
 31
0.0
  0
LINE
  5
8AB
330
899
100
AcDbEntity
  8
0
 62
     0
100
AcDbLine
 10
79.04221142834837
 20
22.7258875710499
 30
0.0
 11
76.2422114283483
 21
25.52588757104996
 31
0.0
  0
LINE
  5
8AC
330
899
100
AcDbEntity
  8
0
 62
     0
100
AcDbLine
 10
74.14221142834833
 20
26.72786195894293
 30
0.0
 11
71.34221142834821
 21
29.52786195894305
 31
0.0
  0
LINE
  5
8AD
330
899
100
AcDbEntity
  8
0
 62
     0
100
AcDbLine
 10
79.04221142834831
 20
21.82786195894295
 30
0.0
 11
76.2422114283483
 21
24.62786195894302
 31
0.0
  0
LINE
  5
8AE
330
899
100
AcDbEntity
  8
0
 62
     0
100
AcDbLine
 10
74.14221142834839
 20
25.82983634683609
 30
0.0
 11
71.34221142834826
 21
28.62983634683621
 31
0.0
  0
LINE
  5
8AF
330
899
100
AcDbEntity
  8
0
 62
     0
100
AcDbLine
 10
67.84221142834832
 20
32.12983634683616
 30
0.0
 11
66.72204754124368
 21
33.2500002339408
 31
0.0
  0
LINE
  5
8B0
330
899
100
AcDbEntity
  8
0
 62
     0
100
AcDbLine
 10
79.04221142834837
 20
20.92983634683611
 30
0.0
 11
76.2422114283483
 21
23.72983634683612
 31
0.0
  0
LINE
  5
8B1
330
899
100
AcDbEntity
  8
0
 62
     0
100
AcDbLine
 10
74.14221142834839
 20
24.93181073472914
 30
0.0
 11
71.34221142834821
 21
27.73181073472926
 31
0.0
  0
LINE
  5
8B2
330
899
100
AcDbEntity
  8
0
 62
     0
100
AcDbLine
 10
67.84221142834827
 20
31.23181073472921
 30
0.0
 11
65.82402192913673
 21
33.2500002339408
 31
0.0
  0
LINE
  5
8B3
330
899
100
AcDbEntity
  8
0
 62
     0
100
AcDbLine
 10
79.04221142834837
 20
20.03181073472916
 30
0.0
 11
76.2422114283483
 21
22.83181073472923
 31
0.0
  0
LINE
  5
8B4
330
899
100
AcDbEntity
  8
0
 62
     0
100
AcDbLine
 10
74.14221142834833
 20
24.03378512262225
 30
0.0
 11
71.34221142834826
 21
26.83378512262226
 31
0.0
  0
LINE
  5
8B5
330
899
100
AcDbEntity
  8
0
 62
     0
100
AcDbLine
 10
67.84221142834827
 20
30.33378512262232
 30
0.0
 11
65.14244870502427
 21
33.03354784594632
 31
0.0
  0
LINE
  5
8B6
330
899
100
AcDbEntity
  8
0
 62
     0
100
AcDbLine
 10
79.04221142834831
 20
19.13378512262227
 30
0.0
 11
76.24221142834824
 21
21.93378512262228
 31
0.0
  0
LINE
  5
8B7
330
899
100
AcDbEntity
  8
0
 62
     0
100
AcDbLine
 10
74.14221142834839
 20
23.1357595105153
 30
0.0
 11
71.34221142834832
 21
25.93575951051537
 31
0.0
  0
LINE
  5
8B8
330
899
100
AcDbEntity
  8
0
 62
     0
100
AcDbLine
 10
67.84221142834832
 20
29.43575951051537
 30
0.0
 11
65.04221142834831
 21
32.23575951051538
 31
0.0
  0
LINE
  5
8B9
330
899
100
AcDbEntity
  8
0
 62
     0
100
AcDbLine
 10
79.04221142834837
 20
18.23575951051532
 30
0.0
 11
76.2422114283483
 21
21.03575951051539
 31
0.0
  0
LINE
  5
8BA
330
899
100
AcDbEntity
  8
0
 62
     0
100
AcDbLine
 10
74.14221142834833
 20
22.23773389840841
 30
0.0
 11
71.34221142834832
 21
25.03773389840848
 31
0.0
  0
LINE
  5
8BB
330
899
100
AcDbEntity
  8
0
 62
     0
100
AcDbLine
 10
67.84221142834837
 20
28.53773389840842
 30
0.0
 11
65.04221142834831
 21
31.33773389840849
 31
0.0
  0
LINE
  5
8BC
330
899
100
AcDbEntity
  8
0
 62
     0
100
AcDbLine
 10
78.97024607345855
 20
17.40969925329824
 30
0.0
 11
76.2422114283483
 21
20.1377338984085
 31
0.0
  0
LINE
  5
8BD
330
899
100
AcDbEntity
  8
0
 62
     0
100
AcDbLine
 10
74.14221142834839
 20
21.3397082863014
 30
0.0
 11
71.34221142834826
 21
24.13970828630153
 31
0.0
  0
LINE
  5
8BE
330
899
100
AcDbEntity
  8
0
 62
     0
100
AcDbLine
 10
67.84221142834832
 20
27.63970828630153
 30
0.0
 11
65.04221142834825
 21
30.43970828630154
 31
0.0
  0
LINE
  5
8BF
330
899
100
AcDbEntity
  8
0
 62
     0
100
AcDbLine
 10
78.33191948070908
 20
17.15000023394077
 30
0.0
 11
76.24221142834824
 21
19.2397082863016
 31
0.0
  0
LINE
  5
8C0
330
899
100
AcDbEntity
  8
0
 62
     0
100
AcDbLine
 10
67.84221142834832
 20
26.74168267419458
 30
0.0
 11
65.04221142834825
 21
29.54168267419465
 31
0.0
  0
LINE
  5
8C1
330
899
100
AcDbEntity
  8
0
 62
     0
100
AcDbLine
 10
74.14221142834839
 20
20.44168267419451
 30
0.0
 11
71.34221142834826
 21
23.24168267419464
 31
0.0
  0
LINE
  5
8C2
330
899
100
AcDbEntity
  8
0
 62
     0
100
AcDbLine
 10
62.41721142834831
 20
32.16668267419459
 30
0.0
 11
61.33389386860216
 21
33.25000023394068
 31
0.0
  0
LINE
  5
8C3
330
899
100
AcDbEntity
  8
0
 62
     0
100
AcDbLine
 10
77.43389386860219
 20
17.15000023394066
 30
0.0
 11
76.24221142834824
 21
18.34168267419466
 31
0.0
  0
LINE
  5
8C4
330
899
100
AcDbEntity
  8
0
 62
     0
100
AcDbLine
 10
67.84221142834832
 20
25.84365706208769
 30
0.0
 11
65.04221142834836
 21
28.6436570620877
 31
0.0
  0
LINE
  5
8C5
330
899
100
AcDbEntity
  8
0
 62
     0
100
AcDbLine
 10
62.41721142834831
 20
31.2686570620877
 30
0.0
 11
60.43586825649533
 21
33.25000023394074
 31
0.0
  0
LINE
  5
8C6
330
899
100
AcDbEntity
  8
0
 62
     0
100
AcDbLine
 10
74.1162531277028
 20
19.56961536273326
 30
0.0
 11
71.34221142834826
 21
22.34365706208774
 31
0.0
  0
LINE
  5
8C7
330
899
100
AcDbEntity
  8
0
 62
     0
100
AcDbLine
 10
67.84221142834832
 20
24.9456314499808
 30
0.0
 11
65.04221142834836
 21
27.74563144998075
 31
0.0
  0
LINE
  5
8C8
330
899
100
AcDbEntity
  8
0
 62
     0
100
AcDbLine
 10
62.22163088223448
 20
30.56621199609464
 30
0.0
 11
59.53784264438832
 21
33.2500002339408
 31
0.0
  0
LINE
  5
8C9
330
899
100
AcDbEntity
  8
0
 62
     0
100
AcDbLine
 10
73.92326783244556
 20
18.86457504588349
 30
0.0
 11
71.34221142834826
 21
21.44563144998085
 31
0.0
  0
LINE
  5
8CA
330
899
100
AcDbEntity
  8
0
 62
     0
100
AcDbLine
 10
67.84221142834832
 20
24.04760583787385
 30
0.0
 11
65.04221142834831
 21
26.84760583787386
 31
0.0
  0
LINE
  5
8CB
330
899
100
AcDbEntity
  8
0
 62
     0
100
AcDbLine
 10
61.43981703228132
 20
30.45000023394079
 30
0.0
 11
58.63981703228143
 21
33.25000023394068
 31
0.0
  0
LINE
  5
8CC
330
899
100
AcDbEntity
  8
0
 62
     0
100
AcDbLine
 10
73.59823595652199
 20
18.29158130970012
 30
0.0
 11
71.27069568918876
 21
20.61912157703341
 31
0.0
  0
LINE
  5
8CD
330
899
100
AcDbEntity
  8
0
 62
     0
100
AcDbLine
 10
67.84221142834832
 20
23.14958022576701
 30
0.0
 11
65.04221142834836
 21
25.94958022576697
 31
0.0
  0
LINE
  5
8CE
330
899
100
AcDbEntity
  8
0
 62
     0
100
AcDbLine
 10
60.54179142017449
 20
30.45000023394084
 30
0.0
 11
57.8042246909971
 21
33.18756696311823
 31
0.0
  0
LINE
  5
8CF
330
899
100
AcDbEntity
  8
0
 62
     0
100
AcDbLine
 10
73.16619415919695
 20
17.82559749491833
 30
0.0
 11
70.86911005072124
 21
20.12268160339403
 31
0.0
  0
LINE
  5
8D0
330
899
100
AcDbEntity
  8
0
 62
     0
100
AcDbLine
 10
67.84221142834832
 20
22.25155461366006
 30
0.0
 11
65.04221142834831
 21
25.05155461366002
 31
0.0
  0
LINE
  5
8D1
330
899
100
AcDbEntity
  8
0
 62
     0
100
AcDbLine
 10
59.64376580806754
 20
30.45000023394084
 30
0.0
 11
57.13958426646371
 21
32.95418177554461
 31
0.0
  0
LINE
  5
8D2
330
899
100
AcDbEntity
  8
0
 62
     0
100
AcDbLine
 10
72.63003181427092
 20
17.46373422773746
 30
0.0
 11
70.14376580806754
 21
19.95000023394078
 31
0.0
  0
LINE
  5
8D3
330
899
100
AcDbEntity
  8
0
 62
     0
100
AcDbLine
 10
67.84221142834827
 20
21.35352900155311
 30
0.0
 11
65.04221142834831
 21
24.15352900155312
 31
0.0
  0
LINE
  5
8D4
330
899
100
AcDbEntity
  8
0
 62
     0
100
AcDbLine
 10
58.76753002397873
 20
30.42821040592264
 30
0.0
 11
56.59698332925353
 21
32.59875710064785
 31
0.0
  0
LINE
  5
8D5
330
899
100
AcDbEntity
  8
0
 62
     0
100
AcDbLine
 10
71.97361925435962
 20
17.22212117554181
 30
0.0
 11
69.24574019596064
 21
19.95000023394078
 31
0.0
  0
LINE
  5
8D6
330
899
100
AcDbEntity
  8
0
 62
     0
100
AcDbLine
 10
58.39221142834839
 20
29.90550338944604
 30
0.0
 11
56.15887127020897
 21
32.13884354758545
 31
0.0
  0
LINE
  5
8D7
330
899
100
AcDbEntity
  8
0
 62
     0
100
AcDbLine
 10
71.14771458385383
 20
17.1500002339406
 30
0.0
 11
65.04221142834831
 21
23.25550338944617
 31
0.0
  0
LINE
  5
8D8
330
899
100
AcDbEntity
  8
0
 62
     0
100
AcDbLine
 10
58.39221142834844
 20
29.00747777733921
 30
0.0
 11
55.82710035785595
 21
31.5725888478317
 31
0.0
  0
LINE
  5
8D9
330
899
100
AcDbEntity
  8
0
 62
     0
100
AcDbLine
 10
70.24968897174687
 20
17.15000023394071
 30
0.0
 11
65.04221142834831
 21
22.35747777733934
 31
0.0
  0
LINE
  5
8DA
330
899
100
AcDbEntity
  8
0
 62
     0
100
AcDbLine
 10
58.59875570945217
 20
27.90290788412852
 30
0.0
 11
55.62492183849184
 21
30.8767417550888
 31
0.0
  0
LINE
  5
8DB
330
899
100
AcDbEntity
  8
0
 62
     0
100
AcDbLine
 10
69.35166335963998
 20
17.15000023394071
 30
0.0
 11
65.04221142834831
 21
21.45945216523239
 31
0.0
  0
LINE
  5
8DC
330
899
100
AcDbEntity
  8
0
 62
     0
100
AcDbLine
 10
62.8158151310397
 20
22.78782285043405
 30
0.0
 11
55.59221142834832
 21
30.01142655312538
 31
0.0
  0
LINE
  5
8DD
330
899
100
AcDbEntity
  8
0
 62
     0
100
AcDbLine
 10
53.49221142834824
 20
32.11142655312546
 30
0.0
 11
52.35363774753295
 21
33.2500002339408
 31
0.0
  0
LINE
  5
8DE
330
899
100
AcDbEntity
  8
0
 62
     0
100
AcDbLine
 10
68.45363774753304
 20
17.15000023394071
 30
0.0
 11
65.04221142834825
 21
20.56142655312545
 31
0.0
  0
LINE
  5
8DF
330
899
100
AcDbEntity
  8
0
 62
     0
100
AcDbLine
 10
62.9422114283484
 20
21.76340094101852
 30
0.0
 11
55.59221142834838
 21
29.11340094101854
 31
0.0
  0
LINE
  5
8E0
330
899
100
AcDbEntity
  8
0
 62
     0
100
AcDbLine
 10
53.49221142834835
 20
31.21340094101851
 30
0.0
 11
51.45561213542601
 21
33.25000023394091
 31
0.0
  0
LINE
  5
8E1
330
899
100
AcDbEntity
  8
0
 62
     0
100
AcDbLine
 10
67.53916425668126
 20
17.16644811268565
 30
0.0
 11
65.05865930709325
 21
19.64695306227367
 31
0.0
  0
LINE
  5
8E2
330
899
100
AcDbEntity
  8
0
 62
     0
100
AcDbLine
 10
53.49221142834835
 20
30.31537532891162
 30
0.0
 11
50.78482154057303
 21
33.02276521668688
 31
0.0
  0
LINE
  5
8E3
330
899
100
AcDbEntity
  8
0
 62
     0
100
AcDbLine
 10
62.94221142834834
 20
20.86537532891157
 30
0.0
 11
55.61562209623071
 21
28.19196466102926
 31
0.0
  0
LINE
  5
8E4
330
899
100
AcDbEntity
  8
0
 62
     0
100
AcDbLine
 10
53.49221142834835
 20
29.41734971680467
 30
0.0
 11
50.69221142834834
 21
32.21734971680462
 31
0.0
  0
LINE
  5
8E5
330
899
100
AcDbEntity
  8
0
 62
     0
100
AcDbLine
 10
62.94221142834823
 20
19.96734971680473
 30
0.0
 11
55.93374151407073
 21
26.97581963108229
 31
0.0
  0
LINE
  5
8E6
330
899
100
AcDbEntity
  8
0
 62
     0
100
AcDbLine
 10
53.49221142834835
 20
28.51932410469777
 30
0.0
 11
50.6922114283484
 21
31.31932410469773
 31
0.0
  0
LINE
  5
8E7
330
899
100
AcDbEntity
  8
0
 62
     0
100
AcDbLine
 10
62.83364961075927
 20
19.17788592228686
 30
0.0
 11
60.13801482172095
 21
21.87352071132517
 31
0.0
  0
LINE
  5
8E8
330
899
100
AcDbEntity
  8
0
 62
     0
100
AcDbLine
 10
53.49221142834835
 20
27.62129849259088
 30
0.0
 11
50.69221142834834
 21
30.42129849259084
 31
0.0
  0
LINE
  5
8E9
330
899
100
AcDbEntity
  8
0
 62
     0
100
AcDbLine
 10
48.40072452777133
 20
32.71278539316785
 30
0.0
 11
47.86350968699832
 21
33.25000023394091
 31
0.0
  0
LINE
  5
8EA
330
899
100
AcDbEntity
  8
0
 62
     0
100
AcDbLine
 10
62.56577390299771
 20
18.54773601794153
 30
0.0
 11
60.14221142834839
 21
20.97129849259085
 31
0.0
  0
LINE
  5
8EB
330
899
100
AcDbEntity
  8
0
 62
     0
100
AcDbLine
 10
53.4922114283483
 20
26.72327288048393
 30
0.0
 11
50.69221142834834
 21
29.52327288048394
 31
0.0
  0
LINE
  5
8EC
330
899
100
AcDbEntity
  8
0
 62
     0
100
AcDbLine
 10
48.20179686351872
 20
32.01368744531351
 30
0.0
 11
46.96548407489143
 21
33.25000023394085
 31
0.0
  0
LINE
  5
8ED
330
899
100
AcDbEntity
  8
0
 62
     0
100
AcDbLine
 10
62.18278710482241
 20
18.03269720400988
 30
0.0
 11
60.04492624546191
 21
20.17055806337038
 31
0.0
  0
LINE
  5
8EE
330
899
100
AcDbEntity
  8
0
 62
     0
100
AcDbLine
 10
53.4922114283483
 20
25.82524726837704
 30
0.0
 11
50.69221142834834
 21
28.625247268377
 31
0.0
  0
LINE
  5
8EF
330
899
100
AcDbEntity
  8
0
 62
     0
100
AcDbLine
 10
47.98627071661303
 20
31.33118798011225
 30
0.0
 11
46.07705515314245
 21
33.24040354358289
 31
0.0
  0
LINE
  5
8F0
330
899
100
AcDbEntity
  8
0
 62
     0
100
AcDbLine
 10
61.69646813970678
 20
17.6209905570185
 30
0.0
 11
59.36745846278455
 21
19.95000023394078
 31
0.0
  0
LINE
  5
8F1
330
899
100
AcDbEntity
  8
0
 62
     0
100
AcDbLine
 10
53.49221142834835
 20
24.92722165627015
 30
0.0
 11
50.69221142834834
 21
27.72722165627011
 31
0.0
  0
LINE
  5
8F2
330
899
100
AcDbEntity
  8
0
 62
     0
100
AcDbLine
 10
47.77074456970751
 20
30.64868851491099
 30
0.0
 11
45.64274456970747
 21
32.77668851491103
 31
0.0
  0
LINE
  5
8F3
330
899
100
AcDbEntity
  8
0
 62
     0
100
AcDbLine
 10
61.10038419124641
 20
17.31904889337204
 30
0.0
 11
58.46943285067766
 21
19.95000023394084
 31
0.0
  0
LINE
  5
8F4
330
899
100
AcDbEntity
  8
0
 62
     0
100
AcDbLine
 10
53.4922114283483
 20
24.02919604416326
 30
0.0
 11
50.69221142834834
 21
26.82919604416321
 31
0.0
  0
LINE
  5
8F5
330
899
100
AcDbEntity
  8
0
 62
     0
100
AcDbLine
 10
47.55521842280166
 20
29.9661890497099
 30
0.0
 11
45.42721842280167
 21
32.09418904970988
 31
0.0
  0
LINE
  5
8F6
330
899
100
AcDbEntity
  8
0
 62
     0
100
AcDbLine
 10
60.36271153959893
 20
17.15869593291262
 30
0.0
 11
57.57140723857077
 21
19.95000023394078
 31
0.0
  0
LINE
  5
8F7
330
899
100
AcDbEntity
  8
0
 62
     0
100
AcDbLine
 10
53.4922114283483
 20
23.13117043205631
 30
0.0
 11
50.69221142834829
 21
25.93117043205626
 31
0.0
  0
LINE
  5
8F8
330
899
100
AcDbEntity
  8
0
 62
     0
100
AcDbLine
 10
47.33969227589608
 20
29.28368958450852
 30
0.0
 11
45.21169227589598
 21
31.41168958450857
 31
0.0
  0
LINE
  5
8F9
330
899
100
AcDbEntity
  8
0
 62
     0
100
AcDbLine
 10
59.47338162646389
 20
17.15000023394071
 30
0.0
 11
56.67338162646382
 21
19.95000023394078
 31
0.0
  0
LINE
  5
8FA
330
899
100
AcDbEntity
  8
0
 62
     0
100
AcDbLine
 10
53.4922114283483
 20
22.23314481994941
 30
0.0
 11
50.69221142834834
 21
25.03314481994943
 31
0.0
  0
LINE
  5
8FB
330
899
100
AcDbEntity
  8
0
 62
     0
100
AcDbLine
 10
47.12416612899045
 20
28.60119011930732
 30
0.0
 11
44.99616612899035
 21
30.72919011930736
 31
0.0
  0
LINE
  5
8FC
330
899
100
AcDbEntity
  8
0
 62
     0
100
AcDbLine
 10
58.57535601435699
 20
17.15000023394077
 30
0.0
 11
56.14174431706061
 21
19.58361193123716
 31
0.0
  0
LINE
  5
8FD
330
899
100
AcDbEntity
  8
0
 62
     0
100
AcDbLine
 10
46.90863998208482
 20
27.91869065410594
 30
0.0
 11
44.78063998208472
 21
30.0466906541061
 31
0.0
  0
LINE
  5
8FE
330
899
100
AcDbEntity
  8
0
 62
     0
100
AcDbLine
 10
53.4922114283483
 20
21.33511920784252
 30
0.0
 11
50.69221142834834
 21
24.13511920784248
 31
0.0
  0
LINE
  5
8FF
330
899
100
AcDbEntity
  8
0
 62
     0
100
AcDbLine
 10
42.64221142834833
 20
32.18511920784249
 30
0.0
 11
41.57733040225003
 21
33.25000023394074
 31
0.0
  0
LINE
  5
900
330
899
100
AcDbEntity
  8
0
 62
     0
100
AcDbLine
 10
57.6773304022501
 20
17.15000023394071
 30
0.0
 11
56.11721142834835
 21
18.71011920784247
 31
0.0
  0
LINE
  5
901
330
899
100
AcDbEntity
  8
0
 62
     0
100
AcDbLine
 10
46.69311383517902
 20
27.23619118890486
 30
0.0
 11
44.56511383517908
 21
29.36419118890479
 31
0.0
  0
LINE
  5
902
330
899
100
AcDbEntity
  8
0
 62
     0
100
AcDbLine
 10
53.4922114283483
 20
20.43709359573558
 30
0.0
 11
50.69221142834829
 21
23.23709359573559
 31
0.0
  0
LINE
  5
903
330
899
100
AcDbEntity
  8
0
 62
     0
100
AcDbLine
 10
42.64221142834833
 20
31.28709359573554
 30
0.0
 11
40.67930479014302
 21
33.2500002339408
 31
0.0
  0
LINE
  5
904
330
899
100
AcDbEntity
  8
0
 62
     0
100
AcDbLine
 10
56.7793047901431
 20
17.15000023394077
 30
0.0
 11
56.1172114283483
 21
17.81209359573552
 31
0.0
  0
LINE
  5
905
330
899
100
AcDbEntity
  8
0
 62
     0
100
AcDbLine
 10
46.47758768827339
 20
26.55369172370354
 30
0.0
 11
44.34958768827335
 21
28.68169172370358
 31
0.0
  0
LINE
  5
906
330
899
100
AcDbEntity
  8
0
 62
     0
100
AcDbLine
 10
42.64221142834827
 20
30.38906798362859
 30
0.0
 11
39.96676649945067
 21
33.06451291252626
 31
0.0
  0
LINE
  5
907
330
899
100
AcDbEntity
  8
0
 62
     0
100
AcDbLine
 10
53.49221142834824
 20
19.53906798362868
 30
0.0
 11
50.69221142834829
 21
22.33906798362864
 31
0.0
  0
LINE
  5
908
330
899
100
AcDbEntity
  8
0
 62
     0
100
AcDbLine
 10
46.26206154136776
 20
25.87119225850234
 30
0.0
 11
44.13406154136777
 21
27.99919225850232
 31
0.0
  0
LINE
  5
909
330
899
100
AcDbEntity
  8
0
 62
     0
100
AcDbLine
 10
42.64221142834833
 20
29.49104237152176
 30
0.0
 11
39.84221142834826
 21
32.29104237152177
 31
0.0
  0
LINE
  5
90A
330
899
100
AcDbEntity
  8
0
 62
     0
100
AcDbLine
 10
53.4922114283483
 20
18.64104237152179
 30
0.0
 11
50.69221142834829
 21
21.44104237152175
 31
0.0
  0
LINE
  5
90B
330
899
100
AcDbEntity
  8
0
 62
     0
100
AcDbLine
 10
46.0569730319757
 20
25.17825515578744
 30
0.0
 11
43.91853539446202
 21
27.31669279330112
 31
0.0
  0
LINE
  5
90C
330
899
100
AcDbEntity
  8
0
 62
     0
100
AcDbLine
 10
42.64221142834833
 20
28.59301675941481
 30
0.0
 11
39.84221142834826
 21
31.39301675941488
 31
0.0
  0
LINE
  5
90D
330
899
100
AcDbEntity
  8
0
 62
     0
100
AcDbLine
 10
53.49221142834824
 20
17.74301675941484
 30
0.0
 11
50.69221142834829
 21
20.54301675941486
 31
0.0
  0
LINE
  5
90E
330
899
100
AcDbEntity
  8
0
 62
     0
100
AcDbLine
 10
46.4714463914097
 20
23.86575618424649
 30
0.0
 11
43.6279878987774
 21
26.70921467687879
 31
0.0
  0
LINE
  5
90F
330
899
100
AcDbEntity
  8
0
 62
     0
100
AcDbLine
 10
42.64221142834839
 20
27.69499114730781
 30
0.0
 11
39.84221142834821
 21
30.49499114730793
 31
0.0
  0
LINE
  5
910
330
899
100
AcDbEntity
  8
0
 62
     0
100
AcDbLine
 10
53.1531664310159
 20
17.18403614464023
 30
0.0
 11
50.69221142834834
 21
19.64499114730785
 31
0.0
  0
LINE
  5
911
330
899
100
AcDbEntity
  8
0
 62
     0
100
AcDbLine
 10
46.8859197508437
 20
22.55325721270566
 30
0.0
 11
39.84221142834826
 21
29.59696553520109
 31
0.0
  0
LINE
  5
912
330
899
100
AcDbEntity
  8
0
 62
     0
100
AcDbLine
 10
37.39221142834839
 20
32.04696553520097
 30
0.0
 11
36.18917672960862
 21
33.25000023394074
 31
0.0
  0
LINE
  5
913
330
899
100
AcDbEntity
  8
0
 62
     0
100
AcDbLine
 10
52.28917672960864
 20
17.15000023394071
 30
0.0
 11
50.6922114283484
 21
18.74696553520095
 31
0.0
  0
LINE
  5
914
330
899
100
AcDbEntity
  8
0
 62
     0
100
AcDbLine
 10
47.30039311027775
 20
21.24075824116466
 30
0.0
 11
39.84221142834826
 21
28.69893992309414
 31
0.0
  0
LINE
  5
915
330
899
100
AcDbEntity
  8
0
 62
     0
100
AcDbLine
 10
37.39221142834839
 20
31.14893992309402
 30
0.0
 11
35.29115111750162
 21
33.2500002339408
 31
0.0
  0
LINE
  5
916
330
899
100
AcDbEntity
  8
0
 62
     0
100
AcDbLine
 10
51.39115111750169
 20
17.15000023394066
 30
0.0
 11
50.69221142834834
 21
17.84893992309406
 31
0.0
  0
LINE
  5
917
330
899
100
AcDbEntity
  8
0
 62
     0
100
AcDbLine
 10
37.12530473295828
 20
30.51782100637718
 30
0.0
 11
34.42508301474686
 21
33.21804272458854
 31
0.0
  0
LINE
  5
918
330
899
100
AcDbEntity
  8
0
 62
     0
100
AcDbLine
 10
47.71486646971169
 20
19.92825926962376
 30
0.0
 11
39.84221142834832
 21
27.80091431098714
 31
0.0
  0
LINE
  5
919
330
899
100
AcDbEntity
  8
0
 62
     0
100
AcDbLine
 10
42.97972035068994
 20
23.76537977653862
 30
0.0
 11
39.84221142834832
 21
26.90288869888025
 31
0.0
  0
LINE
  5
91A
330
899
100
AcDbEntity
  8
0
 62
     0
100
AcDbLine
 10
36.29509989328784
 20
30.45000023394067
 30
0.0
 11
33.6870399451596
 21
33.05806018206897
 31
0.0
  0
LINE
  5
91B
330
899
100
AcDbEntity
  8
0
 62
     0
100
AcDbLine
 10
48.12933982914575
 20
18.61576029808282
 30
0.0
 11
44.03703213683786
 21
22.70806799039065
 31
0.0
  0
LINE
  5
91C
330
899
100
AcDbEntity
  8
0
 62
     0
100
AcDbLine
 10
42.64221142834839
 20
23.20486308677329
 30
0.0
 11
39.84221142834832
 21
26.00486308677336
 31
0.0
  0
LINE
  5
91D
330
899
100
AcDbEntity
  8
0
 62
     0
100
AcDbLine
 10
35.39707428118084
 20
30.45000023394079
 30
0.0
 11
33.04831852932887
 21
32.79875598579276
 31
0.0
  0
LINE
  5
91E
330
899
100
AcDbEntity
  8
0
 62
     0
100
AcDbLine
 10
48.36437868685635
 20
17.48269582826526
 30
0.0
 11
44.45150549627181
 21
21.39556901884987
 31
0.0
  0
LINE
  5
91F
330
899
100
AcDbEntity
  8
0
 62
     0
100
AcDbLine
 10
42.64221142834833
 20
22.3068374746664
 30
0.0
 11
39.84221142834826
 21
25.10683747466641
 31
0.0
  0
LINE
  5
920
330
899
100
AcDbEntity
  8
0
 62
     0
100
AcDbLine
 10
34.5539607786373
 20
30.39508812437742
 30
0.0
 11
32.48956955399433
 21
32.4594793490204
 31
0.0
  0
LINE
  5
921
330
899
100
AcDbEntity
  8
0
 62
     0
100
AcDbLine
 10
47.79904866907401
 20
17.15000023394071
 30
0.0
 11
44.86597885570563
 21
20.08307004730903
 31
0.0
  0
LINE
  5
922
330
899
100
AcDbEntity
  8
0
 62
     0
100
AcDbLine
 10
42.64221142834833
 20
21.40881186255945
 30
0.0
 11
39.84221142834826
 21
24.20881186255952
 31
0.0
  0
LINE
  5
923
330
899
100
AcDbEntity
  8
0
 62
     0
100
AcDbLine
 10
33.98210458579831
 20
30.06891870510947
 30
0.0
 11
32.00191434538254
 21
32.04910894552523
 31
0.0
  0
LINE
  5
924
330
899
100
AcDbEntity
  8
0
 62
     0
100
AcDbLine
 10
46.90102305696706
 20
17.15000023394071
 30
0.0
 11
45.28045221513957
 21
18.7705710757682
 31
0.0
  0
LINE
  5
925
330
899
100
AcDbEntity
  8
0
 62
     0
100
AcDbLine
 10
37.72764056114608
 20
25.42535711765487
 30
0.0
 11
36.21756831206233
 21
26.93542936673862
 31
0.0
  0
LINE
  5
926
330
899
100
AcDbEntity
  8
0
 62
     0
100
AcDbLine
 10
42.64221142834844
 20
20.5107862504525
 30
0.0
 11
39.84221142834832
 21
23.31078625045262
 31
0.0
  0
LINE
  5
927
330
899
100
AcDbEntity
  8
0
 62
     0
100
AcDbLine
 10
33.62598301566936
 20
29.52701466313158
 30
0.0
 11
31.58254831937131
 21
31.57044935942963
 31
0.0
  0
LINE
  5
928
330
899
100
AcDbEntity
  8
0
 62
     0
100
AcDbLine
 10
45.95266444065555
 20
17.20033323814539
 30
0.0
 11
45.70231026906424
 21
17.4506874097367
 31
0.0
  0
LINE
  5
929
330
899
100
AcDbEntity
  8
0
 62
     0
100
AcDbLine
 10
37.64112690100416
 20
24.61384516568984
 30
0.0
 11
35.40605636009729
 21
26.8489157065967
 31
0.0
  0
LINE
  5
92A
330
899
100
AcDbEntity
  8
0
 62
     0
100
AcDbLine
 10
33.54221142834842
 20
28.71276063834557
 30
0.0
 11
31.23360929840965
 21
31.02136276828435
 31
0.0
  0
LINE
  5
92B
330
899
100
AcDbEntity
  8
0
 62
     0
100
AcDbLine
 10
42.64221142834839
 20
19.61276063834555
 30
0.0
 11
39.84221142834826
 21
22.41276063834573
 31
0.0
  0
LINE
  5
92C
330
899
100
AcDbEntity
  8
0
 62
     0
100
AcDbLine
 10
37.30927134170611
 20
24.04767511288088
 30
0.0
 11
34.83988630728834
 21
26.51706014729865
 31
0.0
  0
LINE
  5
92D
330
899
100
AcDbEntity
  8
0
 62
     0
100
AcDbLine
 10
33.54221142834842
 20
27.81473502623863
 30
0.0
 11
30.96302959119948
 21
30.39391686338758
 31
0.0
  0
LINE
  5
92E
330
899
100
AcDbEntity
  8
0
 62
     0
100
AcDbLine
 10
42.64221142834839
 20
18.71473502623866
 30
0.0
 11
39.84221142834832
 21
21.51473502623872
 31
0.0
  0
LINE
  5
92F
330
899
100
AcDbEntity
  8
0
 62
     0
100
AcDbLine
 10
33.54221142834842
 20
26.91670941413173
 30
0.0
 11
30.78831571827362
 21
29.67060512420659
 31
0.0
  0
LINE
  5
930
330
899
100
AcDbEntity
  8
0
 62
     0
100
AcDbLine
 10
36.80743789956967
 20
23.65148294291055
 30
0.0
 11
34.44369413731801
 21
26.01522670516221
 31
0.0
  0
LINE
  5
931
330
899
100
AcDbEntity
  8
0
 62
     0
100
AcDbLine
 10
28.11721142834824
 20
32.34170941413192
 30
0.0
 11
27.20892060853936
 21
33.25000023394085
 31
0.0
  0
LINE
  5
932
330
899
100
AcDbEntity
  8
0
 62
     0
100
AcDbLine
 10
42.64221142834844
 20
17.81670941413176
 30
0.0
 11
39.84221142834838
 21
20.61670941413183
 31
0.0
  0
LINE
  5
933
330
899
100
AcDbEntity
  8
0
 62
     0
100
AcDbLine
 10
33.54221142834842
 20
26.01868380202484
 30
0.0
 11
30.74221142834836
 21
28.81868380202491
 31
0.0
  0
LINE
  5
934
330
899
100
AcDbEntity
  8
0
 62
     0
100
AcDbLine
 10
36.10711845714224
 20
23.45377677323103
 30
0.0
 11
34.24598796763849
 21
25.31490726273478
 31
0.0
  0
LINE
  5
935
330
899
100
AcDbEntity
  8
0
 62
     0
100
AcDbLine
 10
28.1172114283483
 20
31.44368380202491
 30
0.0
 11
26.31089499643241
 21
33.2500002339408
 31
0.0
  0
LINE
  5
936
330
899
100
AcDbEntity
  8
0
 62
     0
100
AcDbLine
 10
42.35430762707773
 20
17.20658760329553
 30
0.0
 11
39.84221142834832
 21
19.71868380202488
 31
0.0
  0
LINE
  5
937
330
899
100
AcDbEntity
  8
0
 62
     0
100
AcDbLine
 10
33.54221142834842
 20
25.12065818991789
 30
0.0
 11
30.74221142834836
 21
27.92065818991796
 31
0.0
  0
LINE
  5
938
330
899
100
AcDbEntity
  8
0
 62
     0
100
AcDbLine
 10
28.00817745807797
 20
30.65469216018835
 30
0.0
 11
25.4128693843254
 21
33.25000023394085
 31
0.0
  0
LINE
  5
939
330
899
100
AcDbEntity
  8
0
 62
     0
100
AcDbLine
 10
41.51286938432554
 20
17.15000023394077
 30
0.0
 11
39.84221142834832
 21
18.82065818991799
 31
0.0
  0
LINE
  5
93A
330
899
100
AcDbEntity
  8
0
 62
     0
100
AcDbLine
 10
33.54221142834837
 20
24.222632577811
 30
0.0
 11
30.7422114283483
 21
27.02263257781101
 31
0.0
  0
LINE
  5
93B
330
899
100
AcDbEntity
  8
0
 62
     0
100
AcDbLine
 10
27.31484377221864
 20
30.45000023394073
 30
0.0
 11
24.51484377221857
 21
33.25000023394074
 31
0.0
  0
LINE
  5
93C
330
899
100
AcDbEntity
  8
0
 62
     0
100
AcDbLine
 10
40.61484377221859
 20
17.15000023394071
 30
0.0
 11
39.84221142834832
 21
17.92263257781104
 31
0.0
  0
LINE
  5
93D
330
899
100
AcDbEntity
  8
0
 62
     0
100
AcDbLine
 10
33.54221142834842
 20
23.32460696570411
 30
0.0
 11
30.74221142834836
 21
26.12460696570418
 31
0.0
  0
LINE
  5
93E
330
899
100
AcDbEntity
  8
0
 62
     0
100
AcDbLine
 10
26.41681816011175
 20
30.45000023394073
 30
0.0
 11
23.65168888800685
 21
33.21512950604569
 31
0.0
  0
LINE
  5
93F
330
899
100
AcDbEntity
  8
0
 62
     0
100
AcDbLine
 10
37.38960897951142
 20
19.47720941454105
 30
0.0
 11
36.91942060894871
 21
19.94739778510382
 31
0.0
  0
LINE
  5
940
330
899
100
AcDbEntity
  8
0
 62
     0
100
AcDbLine
 10
33.54221142834837
 20
22.42658135359716
 30
0.0
 11
30.74221142834836
 21
25.22658135359723
 31
0.0
  0
LINE
  5
941
330
899
100
AcDbEntity
  8
0
 62
     0
100
AcDbLine
 10
25.51879254800486
 20
30.45000023394073
 30
0.0
 11
22.95855407952837
 21
33.01023870241721
 31
0.0
  0
LINE
  5
942
330
899
100
AcDbEntity
  8
0
 62
     0
100
AcDbLine
 10
37.39221142834845
 20
18.57658135359713
 30
0.0
 11
36.0187925480048
 21
19.95000023394078
 31
0.0
  0
LINE
  5
943
330
899
100
AcDbEntity
  8
0
 62
     0
100
AcDbLine
 10
33.54221142834837
 20
21.52855574149027
 30
0.0
 11
30.74221142834841
 21
24.32855574149022
 31
0.0
  0
LINE
  5
944
330
899
100
AcDbEntity
  8
0
 62
     0
100
AcDbLine
 10
24.62076693589791
 20
30.45000023394067
 30
0.0
 11
22.39430741968113
 21
32.67645975015745
 31
0.0
  0
LINE
  5
945
330
899
100
AcDbEntity
  8
0
 62
     0
100
AcDbLine
 10
37.39221142834839
 20
17.67855574149018
 30
0.0
 11
35.1207669358979
 21
19.95000023394067
 31
0.0
  0
LINE
  5
946
330
899
100
AcDbEntity
  8
0
 62
     0
100
AcDbLine
 10
24.11047410828331
 20
30.06226744944849
 30
0.0
 11
21.93621460744038
 21
32.23652695029142
 31
0.0
  0
LINE
  5
947
330
899
100
AcDbEntity
  8
0
 62
     0
100
AcDbLine
 10
37.00447864385604
 20
17.16826291387576
 30
0.0
 11
30.74221142834841
 21
23.43053012938339
 31
0.0
  0
LINE
  5
948
330
899
100
AcDbEntity
  8
0
 62
     0
100
AcDbLine
 10
24.09221142834838
 20
29.18250451727647
 30
0.0
 11
21.58273340497129
 21
31.69198254065356
 31
0.0
  0
LINE
  5
949
330
899
100
AcDbEntity
  8
0
 62
     0
100
AcDbLine
 10
36.12471571168413
 20
17.15000023394071
 30
0.0
 11
30.74221142834841
 21
22.53250451727644
 31
0.0
  0
LINE
  5
94A
330
899
100
AcDbEntity
  8
0
 62
     0
100
AcDbLine
 10
24.15434713648381
 20
28.22234319703404
 30
0.0
 11
21.35185330267757
 21
31.02483703084033
 31
0.0
  0
LINE
  5
94B
330
899
100
AcDbEntity
  8
0
 62
     0
100
AcDbLine
 10
35.22669009957713
 20
17.15000023394077
 30
0.0
 11
30.74221142834836
 21
21.63447890516949
 31
0.0
  0
LINE
  5
94C
330
899
100
AcDbEntity
  8
0
 62
     0
100
AcDbLine
 10
28.44658751957104
 20
23.03207720183997
 30
0.0
 11
21.29221142834842
 21
30.18645329306258
 31
0.0
  0
LINE
  5
94D
330
899
100
AcDbEntity
  8
0
 62
     0
100
AcDbLine
 10
34.27539240041358
 20
17.20327232099743
 30
0.0
 11
30.79548351540501
 21
20.683181206006
 31
0.0
  0
LINE
  5
94E
330
899
100
AcDbEntity
  8
0
 62
     0
100
AcDbLine
 10
28.63848203365626
 20
21.94215707564786
 30
0.0
 11
21.29221142834831
 21
29.28842768095581
 31
0.0
  0
LINE
  5
94F
330
899
100
AcDbEntity
  8
0
 62
     0
100
AcDbLine
 10
32.90158448781199
 20
17.67905462149207
 30
0.0
 11
31.2712658158996
 21
19.30937329340452
 31
0.0
  0
LINE
  5
950
330
899
100
AcDbEntity
  8
0
 62
     0
100
AcDbLine
 10
28.64221142834845
 20
21.04040206884872
 30
0.0
 11
21.29977587577071
 21
28.38283762142641
 31
0.0
  0
LINE
  5
951
330
899
100
AcDbEntity
  8
0
 62
     0
100
AcDbLine
 10
28.64221142834833
 20
20.14237645674189
 30
0.0
 11
21.52306663409456
 21
27.2615212509956
 31
0.0
  0
LINE
  5
952
330
899
100
AcDbEntity
  8
0
 62
     0
100
AcDbLine
 10
28.56969143221642
 20
19.31687084076697
 30
0.0
 11
25.80629978859736
 21
22.08026248438603
 31
0.0
  0
LINE
  5
953
330
899
100
AcDbEntity
  8
0
 62
     0
100
AcDbLine
 10
28.32775349318757
 20
18.66078316768886
 30
0.0
 11
25.84221142834832
 21
21.14632523252812
 31
0.0
  0
LINE
  5
954
330
899
100
AcDbEntity
  8
0
 62
     0
100
AcDbLine
 10
27.9656342458058
 20
18.12487680296368
 30
0.0
 11
25.80631239604765
 21
20.28419865272184
 31
0.0
  0
LINE
  5
955
330
899
100
AcDbEntity
  8
0
 62
     0
100
AcDbLine
 10
27.49940787353893
 20
17.69307756312366
 30
0.0
 11
25.24248520272181
 21
19.95000023394084
 31
0.0
  0
LINE
  5
956
330
899
100
AcDbEntity
  8
0
 62
     0
100
AcDbLine
 10
26.92614342580612
 20
17.36831639874958
 30
0.0
 11
24.34445959061486
 21
19.95000023394078
 31
0.0
  0
LINE
  5
957
330
899
100
AcDbEntity
  8
0
 62
     0
100
AcDbLine
 10
26.22073083672018
 20
17.17570337572857
 30
0.0
 11
23.44643397850797
 21
19.95000023394078
 31
0.0
  0
LINE
  5
958
330
899
100
AcDbEntity
  8
0
 62
     0
100
AcDbLine
 10
25.34840836640114
 20
17.1500002339406
 30
0.0
 11
22.54840836640102
 21
19.95000023394078
 31
0.0
  0
LINE
  5
959
330
899
100
AcDbEntity
  8
0
 62
     0
100
AcDbLine
 10
24.4503827542942
 20
17.15000023394071
 30
0.0
 11
21.89705885947632
 21
19.70332412875865
 31
0.0
  0
LINE
  5
95A
330
899
100
AcDbEntity
  8
0
 62
     0
100
AcDbLine
 10
23.5523571421873
 20
17.15000023394071
 30
0.0
 11
21.8172114283484
 21
18.88514594777956
 31
0.0
  0
LINE
  5
95B
330
899
100
AcDbEntity
  8
0
 62
     0
100
AcDbLine
 10
22.65433153008036
 20
17.15000023394071
 30
0.0
 11
21.8172114283484
 21
17.98712033567267
 31
0.0
  0
LINE
  5
95C
330
899
100
AcDbEntity
  8
0
 62
     0
100
AcDbLine
 10
78.6338987130153
 20
17.16313201105828
 30
0.0
 11
79.02907965123109
 21
17.55831294927407
 31
0.0
  0
LINE
  5
95D
330
899
100
AcDbEntity
  8
0
 62
     0
100
AcDbLine
 10
77.72274132379095
 20
17.15000023394071
 30
0.0
 11
79.04221142834853
 21
18.46947033849835
 31
0.0
  0
LINE
  5
95E
330
899
100
AcDbEntity
  8
0
 62
     0
100
AcDbLine
 10
76.82471571168401
 20
17.15000023394077
 30
0.0
 11
79.04221142834853
 21
19.36749595060524
 31
0.0
  0
LINE
  5
95F
330
899
100
AcDbEntity
  8
0
 62
     0
100
AcDbLine
 10
76.27340899160021
 20
17.49671912596386
 30
0.0
 11
79.04221142834848
 21
20.2655215627122
 31
0.0
  0
LINE
  5
960
330
899
100
AcDbEntity
  8
0
 62
     0
100
AcDbLine
 10
76.24221142834841
 20
18.36354717481902
 30
0.0
 11
79.04221142834848
 21
21.16354717481903
 31
0.0
  0
LINE
  5
961
330
899
100
AcDbEntity
  8
0
 62
     0
100
AcDbLine
 10
76.24221142834847
 20
19.26157278692591
 30
0.0
 11
79.04221142834848
 21
22.06157278692598
 31
0.0
  0
LINE
  5
962
330
899
100
AcDbEntity
  8
0
 62
     0
100
AcDbLine
 10
76.24221142834841
 20
20.15959839903286
 30
0.0
 11
79.04221142834848
 21
22.95959839903293
 31
0.0
  0
LINE
  5
963
330
899
100
AcDbEntity
  8
0
 62
     0
100
AcDbLine
 10
76.24221142834841
 20
21.05762401113975
 30
0.0
 11
79.04221142834848
 21
23.85762401113982
 31
0.0
  0
LINE
  5
964
330
899
100
AcDbEntity
  8
0
 62
     0
100
AcDbLine
 10
72.66877629041369
 20
17.48418887320503
 30
0.0
 11
73.80802278908425
 21
18.62343537187564
 31
0.0
  0
LINE
  5
965
330
899
100
AcDbEntity
  8
0
 62
     0
100
AcDbLine
 10
76.24221142834841
 20
21.95564962324664
 30
0.0
 11
79.04221142834848
 21
24.75564962324671
 31
0.0
  0
LINE
  5
966
330
899
100
AcDbEntity
  8
0
 62
     0
100
AcDbLine
 10
71.43820812389089
 20
17.15164631878912
 30
0.0
 11
74.14056534350021
 21
19.85400353839839
 31
0.0
  0
LINE
  5
967
330
899
100
AcDbEntity
  8
0
 62
     0
100
AcDbLine
 10
76.24221142834841
 20
22.85367523535359
 30
0.0
 11
79.04221142834848
 21
25.65367523535361
 31
0.0
  0
LINE
  5
968
330
899
100
AcDbEntity
  8
0
 62
     0
100
AcDbLine
 10
70.53853642693565
 20
17.15000023394083
 30
0.0
 11
74.14221142834851
 21
20.75367523535363
 31
0.0
  0
LINE
  5
969
330
899
100
AcDbEntity
  8
0
 62
     0
100
AcDbLine
 10
76.24221142834841
 20
23.75170084746049
 30
0.0
 11
79.04221142834842
 21
26.55170084746055
 31
0.0
  0
LINE
  5
96A
330
899
100
AcDbEntity
  8
0
 62
     0
100
AcDbLine
 10
69.6405108148287
 20
17.15000023394083
 30
0.0
 11
74.14221142834844
 21
21.65170084746057
 31
0.0
  0
LINE
  5
96B
330
899
100
AcDbEntity
  8
0
 62
     0
100
AcDbLine
 10
76.24221142834841
 20
24.64972645956738
 30
0.0
 11
79.04221142834848
 21
27.44972645956745
 31
0.0
  0
LINE
  5
96C
330
899
100
AcDbEntity
  8
0
 62
     0
100
AcDbLine
 10
68.74248520272175
 20
17.15000023394071
 30
0.0
 11
74.14221142834851
 21
22.54972645956747
 31
0.0
  0
LINE
  5
96D
330
899
100
AcDbEntity
  8
0
 62
     0
100
AcDbLine
 10
71.23762022626738
 20
20.54316086959329
 30
0.0
 11
74.14221142834851
 21
23.44775207167436
 31
0.0
  0
LINE
  5
96E
330
899
100
AcDbEntity
  8
0
 62
     0
100
AcDbLine
 10
76.24221142834841
 20
25.54775207167427
 30
0.0
 11
79.04221142834848
 21
28.34775207167434
 31
0.0
  0
LINE
  5
96F
330
899
100
AcDbEntity
  8
0
 62
     0
100
AcDbLine
 10
67.84445959061492
 20
17.15000023394083
 30
0.0
 11
70.74905079269587
 21
20.05459143602172
 31
0.0
  0
LINE
  5
970
330
899
100
AcDbEntity
  8
0
 62
     0
100
AcDbLine
 10
71.34221142834832
 20
21.54577768378118
 30
0.0
 11
74.14221142834844
 21
24.34577768378131
 31
0.0
  0
LINE
  5
971
330
899
100
AcDbEntity
  8
0
 62
     0
100
AcDbLine
 10
76.24221142834835
 20
26.44577768378122
 30
0.0
 11
79.04221142834842
 21
29.24577768378128
 31
0.0
  0
LINE
  5
972
330
899
100
AcDbEntity
  8
0
 62
     0
100
AcDbLine
 10
67.05838372988506
 20
17.26194998531787
 30
0.0
 11
69.74643397850798
 21
19.95000023394084
 31
0.0
  0
LINE
  5
973
330
899
100
AcDbEntity
  8
0
 62
     0
100
AcDbLine
 10
71.34221142834832
 20
22.44380329588807
 30
0.0
 11
74.14221142834844
 21
25.2438032958882
 31
0.0
  0
LINE
  5
974
330
899
100
AcDbEntity
  8
0
 62
     0
100
AcDbLine
 10
76.24221142834835
 20
27.34380329588816
 30
0.0
 11
79.04221142834842
 21
30.14380329588818
 31
0.0
  0
LINE
  5
975
330
899
100
AcDbEntity
  8
0
 62
     0
100
AcDbLine
 10
66.43039686267491
 20
17.53198873021472
 30
0.0
 11
68.84928615204535
 21
19.95087801958516
 31
0.0
  0
LINE
  5
976
330
899
100
AcDbEntity
  8
0
 62
     0
100
AcDbLine
 10
71.34221142834832
 20
23.34182890799497
 30
0.0
 11
74.14221142834844
 21
26.14182890799509
 31
0.0
  0
LINE
  5
977
330
899
100
AcDbEntity
  8
0
 62
     0
100
AcDbLine
 10
76.24221142834841
 20
28.241828907995
 30
0.0
 11
79.04221142834842
 21
31.04182890799507
 31
0.0
  0
LINE
  5
978
330
899
100
AcDbEntity
  8
0
 62
     0
100
AcDbLine
 10
65.91713698130973
 20
17.91675446095638
 30
0.0
 11
68.20580756333265
 21
20.2054250429793
 31
0.0
  0
LINE
  5
979
330
899
100
AcDbEntity
  8
0
 62
     0
100
AcDbLine
 10
71.34221142834832
 20
24.23985452010186
 30
0.0
 11
74.14221142834844
 21
27.03985452010204
 31
0.0
  0
LINE
  5
97A
330
899
100
AcDbEntity
  8
0
 62
     0
100
AcDbLine
 10
76.24221142834835
 20
29.13985452010195
 30
0.0
 11
79.04221142834842
 21
31.93985452010202
 31
0.0
  0
LINE
  5
97B
330
899
100
AcDbEntity
  8
0
 62
     0
100
AcDbLine
 10
65.50717280608473
 20
18.40481589783826
 30
0.0
 11
67.86856928492324
 21
20.76621237667684
 31
0.0
  0
LINE
  5
97C
330
899
100
AcDbEntity
  8
0
 62
     0
100
AcDbLine
 10
71.34221142834826
 20
25.13788013220881
 30
0.0
 11
74.14221142834851
 21
27.93788013220904
 31
0.0
  0
LINE
  5
97D
330
899
100
AcDbEntity
  8
0
 62
     0
100
AcDbLine
 10
76.24221142834835
 20
30.03788013220884
 30
0.0
 11
79.03206227479796
 21
32.82773097865851
 31
0.0
  0
LINE
  5
97E
330
899
100
AcDbEntity
  8
0
 62
     0
100
AcDbLine
 10
65.20724792765071
 20
19.00291663151125
 30
0.0
 11
67.84221142834832
 21
21.63788013220886
 31
0.0
  0
LINE
  5
97F
330
899
100
AcDbEntity
  8
0
 62
     0
100
AcDbLine
 10
71.34221142834838
 20
26.03590574431576
 30
0.0
 11
74.14221142834856
 21
28.83590574431588
 31
0.0
  0
LINE
  5
980
330
899
100
AcDbEntity
  8
0
 62
     0
100
AcDbLine
 10
76.24221142834835
 20
30.93590574431573
 30
0.0
 11
78.55494792971848
 21
33.24864224568586
 31
0.0
  0
LINE
  5
981
330
899
100
AcDbEntity
  8
0
 62
     0
100
AcDbLine
 10
65.04983439269427
 20
19.74352870866164
 30
0.0
 11
67.84221142834837
 21
22.53590574431576
 31
0.0
  0
LINE
  5
982
330
899
100
AcDbEntity
  8
0
 62
     0
100
AcDbLine
 10
71.34221142834838
 20
26.93393135642271
 30
0.0
 11
74.14221142834851
 21
29.73393135642283
 31
0.0
  0
LINE
  5
983
330
899
100
AcDbEntity
  8
0
 62
     0
100
AcDbLine
 10
76.24221142834841
 20
31.83393135642274
 30
0.0
 11
77.65828030586641
 21
33.25000023394074
 31
0.0
  0
LINE
  5
984
330
899
100
AcDbEntity
  8
0
 62
     0
100
AcDbLine
 10
65.04221142834848
 20
20.63393135642275
 30
0.0
 11
67.84221142834844
 21
23.43393135642276
 31
0.0
  0
LINE
  5
985
330
899
100
AcDbEntity
  8
0
 62
     0
100
AcDbLine
 10
71.34221142834838
 20
27.8319569685296
 30
0.0
 11
74.14221142834851
 21
30.63195696852972
 31
0.0
  0
LINE
  5
986
330
899
100
AcDbEntity
  8
0
 62
     0
100
AcDbLine
 10
65.04221142834842
 20
21.5319569685297
 30
0.0
 11
67.84221142834837
 21
24.33195696852965
 31
0.0
  0
LINE
  5
987
330
899
100
AcDbEntity
  8
0
 62
     0
100
AcDbLine
 10
76.24225814309586
 20
32.73200368327713
 30
0.0
 11
76.76020797901213
 21
33.24995351919336
 31
0.0
  0
LINE
  5
988
330
899
100
AcDbEntity
  8
0
 62
     0
100
AcDbLine
 10
60.72065579763642
 20
17.21040133781764
 30
0.0
 11
62.88181032447159
 21
19.37155586465286
 31
0.0
  0
LINE
  5
989
330
899
100
AcDbEntity
  8
0
 62
     0
100
AcDbLine
 10
65.04221142834842
 20
22.42998258063659
 30
0.0
 11
67.84221142834837
 21
25.2299825806366
 31
0.0
  0
LINE
  5
98A
330
899
100
AcDbEntity
  8
0
 62
     0
100
AcDbLine
 10
71.34221142834832
 20
28.72998258063655
 30
0.0
 11
74.14221142834844
 21
31.52998258063667
 31
0.0
  0
LINE
  5
98B
330
899
100
AcDbEntity
  8
0
 62
     0
100
AcDbLine
 10
59.76222908165261
 20
17.15000023394083
 30
0.0
 11
62.94221142834834
 21
20.32998258063651
 31
0.0
  0
LINE
  5
98C
330
899
100
AcDbEntity
  8
0
 62
     0
100
AcDbLine
 10
65.04221142834842
 20
23.32800819274348
 30
0.0
 11
67.84221142834844
 21
26.12800819274344
 31
0.0
  0
LINE
  5
98D
330
899
100
AcDbEntity
  8
0
 62
     0
100
AcDbLine
 10
71.34221142834838
 20
29.62800819274338
 30
0.0
 11
74.14221142834851
 21
32.42800819274356
 31
0.0
  0
LINE
  5
98E
330
899
100
AcDbEntity
  8
0
 62
     0
100
AcDbLine
 10
58.86420346954565
 20
17.15000023394071
 30
0.0
 11
62.94221142834846
 21
21.22800819274346
 31
0.0
  0
LINE
  5
98F
330
899
100
AcDbEntity
  8
0
 62
     0
100
AcDbLine
 10
65.04221142834842
 20
24.22603380485043
 30
0.0
 11
67.84221142834837
 21
27.02603380485039
 31
0.0
  0
LINE
  5
990
330
899
100
AcDbEntity
  8
0
 62
     0
100
AcDbLine
 10
71.34221142834832
 20
30.52603380485033
 30
0.0
 11
73.94847397351435
 21
33.13229635001636
 31
0.0
  0
LINE
  5
991
330
899
100
AcDbEntity
  8
0
 62
     0
100
AcDbLine
 10
57.96617785743876
 20
17.15000023394077
 30
0.0
 11
62.92789282793546
 21
22.11171520443747
 31
0.0
  0
LINE
  5
992
330
899
100
AcDbEntity
  8
0
 62
     0
100
AcDbLine
 10
65.04221142834842
 20
25.12405941695732
 30
0.0
 11
67.84221142834837
 21
27.92405941695733
 31
0.0
  0
LINE
  5
993
330
899
100
AcDbEntity
  8
0
 62
     0
100
AcDbLine
 10
71.34221142834832
 20
31.42405941695728
 30
0.0
 11
73.16815224533184
 21
33.2500002339408
 31
0.0
  0
LINE
  5
994
330
899
100
AcDbEntity
  8
0
 62
     0
100
AcDbLine
 10
57.06815224533182
 20
17.15000023394077
 30
0.0
 11
62.79298045730673
 21
22.87482844591563
 31
0.0
  0
LINE
  5
995
330
899
100
AcDbEntity
  8
0
 62
     0
100
AcDbLine
 10
65.04221142834842
 20
26.02208502906421
 30
0.0
 11
67.84221142834837
 21
28.82208502906417
 31
0.0
  0
LINE
  5
996
330
899
100
AcDbEntity
  8
0
 62
     0
100
AcDbLine
 10
60.14221142834845
 20
21.12208502906424
 30
0.0
 11
62.55239300038818
 21
23.53226660110391
 31
0.0
  0
LINE
  5
997
330
899
100
AcDbEntity
  8
0
 62
     0
100
AcDbLine
 10
71.34221142834838
 20
32.32208502906412
 30
0.0
 11
72.27012663322506
 21
33.25000023394085
 31
0.0
  0
LINE
  5
998
330
899
100
AcDbEntity
  8
0
 62
     0
100
AcDbLine
 10
56.29838198635605
 20
17.27825558707184
 30
0.0
 11
58.97012663322493
 21
19.95000023394073
 31
0.0
  0
LINE
  5
999
330
899
100
AcDbEntity
  8
0
 62
     0
100
AcDbLine
 10
60.12234085322115
 20
22.00024006604383
 30
0.0
 11
62.22889369552763
 21
24.10679290835032
 31
0.0
  0
LINE
  5
99A
330
899
100
AcDbEntity
  8
0
 62
     0
100
AcDbLine
 10
65.04221142834842
 20
26.92011064117111
 30
0.0
 11
67.84221142834844
 21
29.72011064117118
 31
0.0
  0
LINE
  5
99B
330
899
100
AcDbEntity
  8
0
 62
     0
100
AcDbLine
 10
56.11721142834835
 20
17.99511064117109
 30
0.0
 11
58.07210102111799
 21
19.95000023394073
 31
0.0
  0
LINE
  5
99C
330
899
100
AcDbEntity
  8
0
 62
     0
100
AcDbLine
 10
59.84795601608226
 20
22.62388084101195
 30
0.0
 11
61.83302257759982
 21
24.60894740252951
 31
0.0
  0
LINE
  5
99D
330
899
100
AcDbEntity
  8
0
 62
     0
100
AcDbLine
 10
65.04221142834836
 20
27.81813625327806
 30
0.0
 11
67.84221142834844
 21
30.61813625327812
 31
0.0
  0
LINE
  5
99E
330
899
100
AcDbEntity
  8
0
 62
     0
100
AcDbLine
 10
56.11721142834835
 20
18.89313625327799
 30
0.0
 11
57.1740754090111
 21
19.95000023394078
 31
0.0
  0
LINE
  5
99F
330
899
100
AcDbEntity
  8
0
 62
     0
100
AcDbLine
 10
65.04221142834842
 20
28.71616186538495
 30
0.0
 11
67.84221142834849
 21
31.51616186538496
 31
0.0
  0
LINE
  5
9A0
330
899
100
AcDbEntity
  8
0
 62
     0
100
AcDbLine
 10
59.4066811189652
 20
23.08063155600166
 30
0.0
 11
61.38658010628756
 21
25.06053054332409
 31
0.0
  0
LINE
  5
9A1
330
899
100
AcDbEntity
  8
0
 62
     0
100
AcDbLine
 10
58.95766831291172
 20
23.52964436205514
 30
0.0
 11
60.93756730023404
 21
25.50954334937745
 31
0.0
  0
LINE
  5
9A2
330
899
100
AcDbEntity
  8
0
 62
     0
100
AcDbLine
 10
65.04221142834836
 20
29.61418747749184
 30
0.0
 11
67.84221142834844
 21
32.41418747749191
 31
0.0
  0
LINE
  5
9A3
330
899
100
AcDbEntity
  8
0
 62
     0
100
AcDbLine
 10
52.5780241847973
 20
17.15000023394077
 30
0.0
 11
53.49221142834841
 21
18.06418747749183
 31
0.0
  0
LINE
  5
9A4
330
899
100
AcDbEntity
  8
0
 62
     0
100
AcDbLine
 10
58.5086555068583
 20
23.97865716810873
 30
0.0
 11
60.48855449418056
 21
25.95855615543093
 31
0.0
  0
LINE
  5
9A5
330
899
100
AcDbEntity
  8
0
 62
     0
100
AcDbLine
 10
65.04221142834836
 20
30.51221308959879
 30
0.0
 11
67.65603052024977
 21
33.12603218150014
 31
0.0
  0
LINE
  5
9A6
330
899
100
AcDbEntity
  8
0
 62
     0
100
AcDbLine
 10
51.67999857269029
 20
17.15000023394071
 30
0.0
 11
53.49221142834835
 21
18.96221308959878
 31
0.0
  0
LINE
  5
9A7
330
899
100
AcDbEntity
  8
0
 62
     0
100
AcDbLine
 10
58.05964270080477
 20
24.42766997416209
 30
0.0
 11
60.03954168812708
 21
26.4075689614844
 31
0.0
  0
LINE
  5
9A8
330
899
100
AcDbEntity
  8
0
 62
     0
100
AcDbLine
 10
65.04221142834836
 20
31.41023870170568
 30
0.0
 11
66.88197296058342
 21
33.2500002339408
 31
0.0
  0
LINE
  5
9A9
330
899
100
AcDbEntity
  8
0
 62
     0
100
AcDbLine
 10
50.89358409844539
 20
17.2616113718027
 30
0.0
 11
53.49221142834841
 21
19.86023870170578
 31
0.0
  0
LINE
  5
9AA
330
899
100
AcDbEntity
  8
0
 62
     0
100
AcDbLine
 10
57.61062989475135
 20
24.8766827802155
 30
0.0
 11
59.59052888207367
 21
26.85658176753782
 31
0.0
  0
LINE
  5
9AB
330
899
100
AcDbEntity
  8
0
 62
     0
100
AcDbLine
 10
65.04221142834836
 20
32.30826431381257
 30
0.0
 11
65.98394734847665
 21
33.2500002339408
 31
0.0
  0
LINE
  5
9AC
330
899
100
AcDbEntity
  8
0
 62
     0
100
AcDbLine
 10
50.69221142834845
 20
17.95826431381266
 30
0.0
 11
53.49221142834847
 21
20.75826431381262
 31
0.0
  0
LINE
  5
9AD
330
899
100
AcDbEntity
  8
0
 62
     0
100
AcDbLine
 10
57.16161708869788
 20
25.32569558626898
 30
0.0
 11
59.14151607602019
 21
27.3055945735913
 31
0.0
  0
LINE
  5
9AE
330
899
100
AcDbEntity
  8
0
 62
     0
100
AcDbLine
 10
50.69221142834845
 20
18.85628992591961
 30
0.0
 11
53.49221142834841
 21
21.65628992591956
 31
0.0
  0
LINE
  5
9AF
330
899
100
AcDbEntity
  8
0
 62
     0
100
AcDbLine
 10
56.71463318765654
 20
25.77673729733465
 30
0.0
 11
58.69860672103857
 21
27.76071083071662
 31
0.0
  0
LINE
  5
9B0
330
899
100
AcDbEntity
  8
0
 62
     0
100
AcDbLine
 10
50.69221142834845
 20
19.7543155380265
 30
0.0
 11
53.49221142834841
 21
22.55431553802651
 31
0.0
  0
LINE
  5
9B1
330
899
100
AcDbEntity
  8
0
 62
     0
100
AcDbLine
 10
61.38789612426274
 20
30.45000023394079
 30
0.0
 11
62.41721142834848
 21
31.47931553802653
 31
0.0
  0
LINE
  5
9B2
330
899
100
AcDbEntity
  8
0
 62
     0
100
AcDbLine
 10
48.19955520363823
 20
17.26165931331627
 30
0.0
 11
48.28920756509325
 21
17.35131167477135
 31
0.0
  0
LINE
  5
9B3
330
899
100
AcDbEntity
  8
0
 62
     0
100
AcDbLine
 10
56.31663100883457
 20
26.27676073061952
 30
0.0
 11
58.41626528625318
 21
28.37639500803812
 31
0.0
  0
LINE
  5
9B4
330
899
100
AcDbEntity
  8
0
 62
     0
100
AcDbLine
 10
50.69221142834845
 20
20.65234115013339
 30
0.0
 11
53.49221142834847
 21
23.45234115013335
 31
0.0
  0
LINE
  5
9B5
330
899
100
AcDbEntity
  8
0
 62
     0
100
AcDbLine
 10
60.48987051215584
 20
30.45000023394079
 30
0.0
 11
62.41721142834842
 21
32.3773411501333
 31
0.0
  0
LINE
  5
9B6
330
899
100
AcDbEntity
  8
0
 62
     0
100
AcDbLine
 10
47.18987051215577
 20
17.15000023394071
 30
0.0
 11
48.25564960846225
 21
18.21577933024713
 31
0.0
  0
LINE
  5
9B7
330
899
100
AcDbEntity
  8
0
 62
     0
100
AcDbLine
 10
55.99079674443789
 20
26.84895207832977
 30
0.0
 11
58.3922114283485
 21
29.25036676224033
 31
0.0
  0
LINE
  5
9B8
330
899
100
AcDbEntity
  8
0
 62
     0
100
AcDbLine
 10
50.69221142834845
 20
21.55036676224029
 30
0.0
 11
53.49221142834841
 21
24.3503667622403
 31
0.0
  0
LINE
  5
9B9
330
899
100
AcDbEntity
  8
0
 62
     0
100
AcDbLine
 10
59.59184490004895
 20
30.45000023394079
 30
0.0
 11
62.25054249655056
 21
33.10869783044245
 31
0.0
  0
LINE
  5
9BA
330
899
100
AcDbEntity
  8
0
 62
     0
100
AcDbLine
 10
46.29184490004888
 20
17.15000023394071
 30
0.0
 11
48.04012346155662
 21
18.8982787954485
 31
0.0
  0
LINE
  5
9BB
330
899
100
AcDbEntity
  8
0
 62
     0
100
AcDbLine
 10
50.6922114283484
 20
22.44839237434724
 30
0.0
 11
53.49221142834841
 21
25.24839237434719
 31
0.0
  0
LINE
  5
9BC
330
899
100
AcDbEntity
  8
0
 62
     0
100
AcDbLine
 10
55.74741468176779
 20
27.50359562776663
 30
0.0
 11
61.49381928794207
 21
33.25000023394085
 31
0.0
  0
LINE
  5
9BD
330
899
100
AcDbEntity
  8
0
 62
     0
100
AcDbLine
 10
45.6998305893938
 20
17.45601153539263
 30
0.0
 11
47.82459731465093
 21
19.58077826064976
 31
0.0
  0
LINE
  5
9BE
330
899
100
AcDbEntity
  8
0
 62
     0
100
AcDbLine
 10
50.6922114283484
 20
23.34641798645419
 30
0.0
 11
53.49221142834835
 21
26.14641798645414
 31
0.0
  0
LINE
  5
9BF
330
899
100
AcDbEntity
  8
0
 62
     0
100
AcDbLine
 10
55.6087078226821
 20
28.26291438078789
 30
0.0
 11
60.59579367583513
 21
33.25000023394091
 31
0.0
  0
LINE
  5
9C0
330
899
100
AcDbEntity
  8
0
 62
     0
100
AcDbLine
 10
45.48107116774519
 20
18.13527772585098
 30
0.0
 11
47.60907116774518
 21
20.26327772585097
 31
0.0
  0
LINE
  5
9C1
330
899
100
AcDbEntity
  8
0
 62
     0
100
AcDbLine
 10
50.69221142834845
 20
24.24444359856102
 30
0.0
 11
53.49221142834841
 21
27.04444359856103
 31
0.0
  0
LINE
  5
9C2
330
899
100
AcDbEntity
  8
0
 62
     0
100
AcDbLine
 10
55.59221142834843
 20
29.144443598561
 30
0.0
 11
59.69776806372817
 21
33.2500002339408
 31
0.0
  0
LINE
  5
9C3
330
899
100
AcDbEntity
  8
0
 62
     0
100
AcDbLine
 10
45.26554502083956
 20
18.81777719105219
 30
0.0
 11
47.39354502083966
 21
20.94577719105223
 31
0.0
  0
LINE
  5
9C4
330
899
100
AcDbEntity
  8
0
 62
     0
100
AcDbLine
 10
50.6922114283484
 20
25.14246921066797
 30
0.0
 11
53.49221142834841
 21
27.94246921066792
 31
0.0
  0
LINE
  5
9C5
330
899
100
AcDbEntity
  8
0
 62
     0
100
AcDbLine
 10
55.59221142834849
 20
30.042469210668
 30
0.0
 11
58.79974245162128
 21
33.2500002339408
 31
0.0
  0
LINE
  5
9C6
330
899
100
AcDbEntity
  8
0
 62
     0
100
AcDbLine
 10
45.05001887393382
 20
19.50027665625339
 30
0.0
 11
47.17801887393398
 21
21.62827665625349
 31
0.0
  0
LINE
  5
9C7
330
899
100
AcDbEntity
  8
0
 62
     0
100
AcDbLine
 10
50.6922114283484
 20
26.04049482277486
 30
0.0
 11
53.49221142834835
 21
28.84049482277487
 31
0.0
  0
LINE
  5
9C8
330
899
100
AcDbEntity
  8
0
 62
     0
100
AcDbLine
 10
44.83449272702819
 20
20.18277612145471
 30
0.0
 11
46.96249272702829
 21
22.31077612145475
 31
0.0
  0
LINE
  5
9C9
330
899
100
AcDbEntity
  8
0
 62
     0
100
AcDbLine
 10
55.64552809846964
 20
30.99381149289616
 30
0.0
 11
57.84840016939296
 21
33.19668356381948
 31
0.0
  0
LINE
  5
9CA
330
899
100
AcDbEntity
  8
0
 62
     0
100
AcDbLine
 10
41.80171683951431
 20
17.15000023394077
 30
0.0
 11
42.64221142834839
 21
17.9904948227749
 31
0.0
  0
LINE
  5
9CB
330
899
100
AcDbEntity
  8
0
 62
     0
100
AcDbLine
 10
44.61896658012261
 20
20.86527558665591
 30
0.0
 11
46.74696658012254
 21
22.9932755866559
 31
0.0
  0
LINE
  5
9CC
330
899
100
AcDbEntity
  8
0
 62
     0
100
AcDbLine
 10
50.6922114283484
 20
26.93852043488175
 30
0.0
 11
53.49221142834841
 21
29.73852043488171
 31
0.0
  0
LINE
  5
9CD
330
899
100
AcDbEntity
  8
0
 62
     0
100
AcDbLine
 10
40.90369122740741
 20
17.15000023394077
 30
0.0
 11
42.64221142834844
 21
18.8885204348818
 31
0.0
  0
LINE
  5
9CE
330
899
100
AcDbEntity
  8
0
 62
     0
100
AcDbLine
 10
44.40344043321693
 20
21.54777505185717
 30
0.0
 11
46.53144043321697
 21
23.67577505185727
 31
0.0
  0
LINE
  5
9CF
330
899
100
AcDbEntity
  8
0
 62
     0
100
AcDbLine
 10
50.6922114283484
 20
27.8365460469887
 30
0.0
 11
53.49221142834835
 21
30.63654604698866
 31
0.0
  0
LINE
  5
9D0
330
899
100
AcDbEntity
  8
0
 62
     0
100
AcDbLine
 10
40.08681536295171
 20
17.23114998159201
 30
0.0
 11
42.64221142834844
 21
19.78654604698869
 31
0.0
  0
LINE
  5
9D1
330
899
100
AcDbEntity
  8
0
 62
     0
100
AcDbLine
 10
44.18791428631124
 20
22.23027451705843
 30
0.0
 11
46.31591428631128
 21
24.35827451705853
 31
0.0
  0
LINE
  5
9D2
330
899
100
AcDbEntity
  8
0
 62
     0
100
AcDbLine
 10
50.6922114283484
 20
28.7345716590956
 30
0.0
 11
53.49221142834835
 21
31.53457165909561
 31
0.0
  0
LINE
  5
9D3
330
899
100
AcDbEntity
  8
0
 62
     0
100
AcDbLine
 10
39.84221142834844
 20
17.88457165909562
 30
0.0
 11
42.64221142834839
 21
20.68457165909564
 31
0.0
  0
LINE
  5
9D4
330
899
100
AcDbEntity
  8
0
 62
     0
100
AcDbLine
 10
43.9723881394056
 20
22.91277398225964
 30
0.0
 11
46.10038813940565
 21
25.04077398225974
 31
0.0
  0
LINE
  5
9D5
330
899
100
AcDbEntity
  8
0
 62
     0
100
AcDbLine
 10
50.6922114283484
 20
29.63259727120249
 30
0.0
 11
53.49221142834835
 21
32.43259727120244
 31
0.0
  0
LINE
  5
9D6
330
899
100
AcDbEntity
  8
0
 62
     0
100
AcDbLine
 10
39.84221142834844
 20
18.78259727120252
 30
0.0
 11
42.64221142834844
 21
21.58259727120247
 31
0.0
  0
LINE
  5
9D7
330
899
100
AcDbEntity
  8
0
 62
     0
100
AcDbLine
 10
43.73758935243387
 20
23.57600080739491
 30
0.0
 11
46.36788342036476
 21
26.2062948753258
 31
0.0
  0
LINE
  5
9D8
330
899
100
AcDbEntity
  8
0
 62
     0
100
AcDbLine
 10
50.69221142834845
 20
30.53062288330949
 30
0.0
 11
53.29593600585003
 21
33.134347460811
 31
0.0
  0
LINE
  5
9D9
330
899
100
AcDbEntity
  8
0
 62
     0
100
AcDbLine
 10
39.84221142834844
 20
19.68062288330947
 30
0.0
 11
42.64221142834839
 21
22.48062288330942
 31
0.0
  0
LINE
  5
9DA
330
899
100
AcDbEntity
  8
0
 62
     0
100
AcDbLine
 10
43.05040398256648
 20
23.78684104963446
 30
0.0
 11
46.7823567797987
 21
27.51879384686669
 31
0.0
  0
LINE
  5
9DB
330
899
100
AcDbEntity
  8
0
 62
     0
100
AcDbLine
 10
39.84221142834844
 20
20.57864849541636
 30
0.0
 11
42.65537061265473
 21
23.39180767972266
 31
0.0
  0
LINE
  5
9DC
330
899
100
AcDbEntity
  8
0
 62
     0
100
AcDbLine
 10
50.69221142834845
 20
31.42864849541638
 30
0.0
 11
52.51356316687282
 21
33.2500002339408
 31
0.0
  0
LINE
  5
9DD
330
899
100
AcDbEntity
  8
0
 62
     0
100
AcDbLine
 10
36.41356316687279
 20
17.15000023394071
 30
0.0
 11
37.39221142834845
 21
18.12864849541643
 31
0.0
  0
LINE
  5
9DE
330
899
100
AcDbEntity
  8
0
 62
     0
100
AcDbLine
 10
39.84221142834838
 20
21.47667410752331
 30
0.0
 11
47.19683013923265
 21
28.83129281840752
 31
0.0
  0
LINE
  5
9DF
330
899
100
AcDbEntity
  8
0
 62
     0
100
AcDbLine
 10
50.6922114283484
 20
32.32667410752333
 30
0.0
 11
51.61553755476586
 21
33.2500002339408
 31
0.0
  0
LINE
  5
9E0
330
899
100
AcDbEntity
  8
0
 62
     0
100
AcDbLine
 10
35.51553755476585
 20
17.15000023394077
 30
0.0
 11
37.39221142834845
 21
19.02667410752338
 31
0.0
  0
LINE
  5
9E1
330
899
100
AcDbEntity
  8
0
 62
     0
100
AcDbLine
 10
39.84221142834844
 20
22.37469971963014
 30
0.0
 11
47.6113034986667
 21
30.14379178994841
 31
0.0
  0
LINE
  5
9E2
330
899
100
AcDbEntity
  8
0
 62
     0
100
AcDbLine
 10
34.62919256700906
 20
17.16168085829082
 30
0.0
 11
37.25087714474228
 21
19.78336543602398
 31
0.0
  0
LINE
  5
9E3
330
899
100
AcDbEntity
  8
0
 62
     0
100
AcDbLine
 10
39.84221142834838
 20
23.27272533173709
 30
0.0
 11
43.16948633055204
 21
26.60000023394076
 31
0.0
  0
LINE
  5
9E4
330
899
100
AcDbEntity
  8
0
 62
     0
100
AcDbLine
 10
43.93346916579275
 20
27.36398306918147
 30
0.0
 11
48.0257768581007
 21
31.45629076148936
 31
0.0
  0
LINE
  5
9E5
330
899
100
AcDbEntity
  8
0
 62
     0
100
AcDbLine
 10
33.86103204956209
 20
17.29154595295074
 30
0.0
 11
36.51948633055213
 21
19.95000023394078
 31
0.0
  0
LINE
  5
9E6
330
899
100
AcDbEntity
  8
0
 62
     0
100
AcDbLine
 10
39.84221142834838
 20
24.17075094384404
 30
0.0
 11
42.6602019990567
 21
26.98874151455232
 31
0.0
  0
LINE
  5
9E7
330
899
100
AcDbEntity
  8
0
 62
     0
100
AcDbLine
 10
44.3479425252267
 20
28.67648204072231
 30
0.0
 11
48.40084830990207
 21
32.72938782539774
 31
0.0
  0
LINE
  5
9E8
330
899
100
AcDbEntity
  8
0
 62
     0
100
AcDbLine
 10
33.19989779273567
 20
17.52843730823133
 30
0.0
 11
35.62146071844518
 21
19.95000023394084
 31
0.0
  0
LINE
  5
9E9
330
899
100
AcDbEntity
  8
0
 62
     0
100
AcDbLine
 10
39.84221142834844
 20
25.06877655595088
 30
0.0
 11
42.64221142834844
 21
27.86877655595095
 31
0.0
  0
LINE
  5
9EA
330
899
100
AcDbEntity
  8
0
 62
     0
100
AcDbLine
 10
44.76241588466064
 20
29.98898101226314
 30
0.0
 11
48.00683643733288
 21
33.23340156493538
 31
0.0
  0
LINE
  5
9EB
330
899
100
AcDbEntity
  8
0
 62
     0
100
AcDbLine
 10
32.62229450857137
 20
17.84885963617381
 30
0.0
 11
34.73835636706423
 21
19.96492149466672
 31
0.0
  0
LINE
  5
9EC
330
899
100
AcDbEntity
  8
0
 62
     0
100
AcDbLine
 10
39.84221142834838
 20
25.96680216805783
 30
0.0
 11
42.64221142834844
 21
28.7668021680579
 31
0.0
  0
LINE
  5
9ED
330
899
100
AcDbEntity
  8
0
 62
     0
100
AcDbLine
 10
45.17688924409464
 20
31.30147998380409
 30
0.0
 11
47.12540949423135
 21
33.2500002339408
 31
0.0
  0
LINE
  5
9EE
330
899
100
AcDbEntity
  8
0
 62
     0
100
AcDbLine
 10
32.11733954218932
 20
18.2419302818987
 30
0.0
 11
34.10404022604593
 21
20.22863096575532
 31
0.0
  0
LINE
  5
9EF
330
899
100
AcDbEntity
  8
0
 62
     0
100
AcDbLine
 10
39.84221142834838
 20
26.86482778016472
 30
0.0
 11
42.64221142834844
 21
29.66482778016479
 31
0.0
  0
LINE
  5
9F0
330
899
100
AcDbEntity
  8
0
 62
     0
100
AcDbLine
 10
36.50384556012489
 20
23.52646191194128
 30
0.0
 11
37.66574975034797
 21
24.68836610216437
 31
0.0
  0
LINE
  5
9F1
330
899
100
AcDbEntity
  8
0
 62
     0
100
AcDbLine
 10
45.59136260352858
 20
32.61397895534498
 30
0.0
 11
46.22738388212446
 21
33.25000023394085
 31
0.0
  0
LINE
  5
9F2
330
899
100
AcDbEntity
  8
0
 62
     0
100
AcDbLine
 10
31.68090246885947
 20
18.70351882067587
 30
0.0
 11
33.69378927477374
 21
20.71640562659013
 31
0.0
  0
LINE
  5
9F3
330
899
100
AcDbEntity
  8
0
 62
     0
100
AcDbLine
 10
35.57887271849506
 20
23.49951468241841
 30
0.0
 11
37.69269697987084
 21
25.61333894379413
 31
0.0
  0
LINE
  5
9F4
330
899
100
AcDbEntity
  8
0
 62
     0
100
AcDbLine
 10
39.84221142834832
 20
27.76285339227167
 30
0.0
 11
42.64221142834839
 21
30.56285339227173
 31
0.0
  0
LINE
  5
9F5
330
899
100
AcDbEntity
  8
0
 62
     0
100
AcDbLine
 10
31.31388324391651
 20
19.23452520783979
 30
0.0
 11
33.54221142834842
 21
21.46285339227177
 31
0.0
  0
LINE
  5
9F6
330
899
100
AcDbEntity
  8
0
 62
     0
100
AcDbLine
 10
34.96472614907486
 20
23.78339372510499
 30
0.0
 11
37.40881793718421
 21
26.22748551321439
 31
0.0
  0
LINE
  5
9F7
330
899
100
AcDbEntity
  8
0
 62
     0
100
AcDbLine
 10
39.84221142834838
 20
28.66087900437856
 30
0.0
 11
42.64221142834844
 21
31.46087900437857
 31
0.0
  0
LINE
  5
9F8
330
899
100
AcDbEntity
  8
0
 62
     0
100
AcDbLine
 10
31.02256573399177
 20
19.84123331002195
 30
0.0
 11
33.54221142834842
 21
22.3608790043786
 31
0.0
  0
LINE
  5
9F9
330
899
100
AcDbEntity
  8
0
 62
     0
100
AcDbLine
 10
34.52676622208514
 20
24.24345941022227
 30
0.0
 11
36.94875225206698
 21
26.66544544020406
 31
0.0
  0
LINE
  5
9FA
330
899
100
AcDbEntity
  8
0
 62
     0
100
AcDbLine
 10
39.84221142834838
 20
29.55890461648545
 30
0.0
 11
42.64221142834839
 21
32.35890461648552
 31
0.0
  0
LINE
  5
9FB
330
899
100
AcDbEntity
  8
0
 62
     0
100
AcDbLine
 10
30.82142836981712
 20
20.53812155795424
 30
0.0
 11
33.54221142834842
 21
23.25890461648555
 31
0.0
  0
LINE
  5
9FC
330
899
100
AcDbEntity
  8
0
 62
     0
100
AcDbLine
 10
34.27071548967678
 20
24.8854342899208
 30
0.0
 11
36.3067773723684
 21
26.92149617261248
 31
0.0
  0
LINE
  5
9FD
330
899
100
AcDbEntity
  8
0
 62
     0
100
AcDbLine
 10
30.74221142834836
 20
21.35693022859243
 30
0.0
 11
33.54221142834842
 21
24.15693022859244
 31
0.0
  0
LINE
  5
9FE
330
899
100
AcDbEntity
  8
0
 62
     0
100
AcDbLine
 10
39.84221142834832
 20
30.4569302285924
 30
0.0
 11
42.48496131999331
 21
33.0996801202374
 31
0.0
  0
LINE
  5
9FF
330
899
100
AcDbEntity
  8
0
 62
     0
100
AcDbLine
 10
26.65621467047277
 20
17.27093347071684
 30
0.0
 11
28.52127819157249
 21
19.13599699181657
 31
0.0
  0
LINE
  5
A00
330
899
100
AcDbEntity
  8
0
 62
     0
100
AcDbLine
 10
34.38912857315756
 20
25.90187298550848
 30
0.0
 11
35.29033867678078
 21
26.80308308913169
 31
0.0
  0
LINE
  5
A01
330
899
100
AcDbEntity
  8
0
 62
     0
100
AcDbLine
 10
30.74221142834836
 20
22.25495584069927
 30
0.0
 11
33.54221142834842
 21
25.05495584069934
 31
0.0
  0
LINE
  5
A02
330
899
100
AcDbEntity
  8
0
 62
     0
100
AcDbLine
 10
39.84221142834838
 20
31.35495584069924
 30
0.0
 11
41.73725582158994
 21
33.25000023394085
 31
0.0
  0
LINE
  5
A03
330
899
100
AcDbEntity
  8
0
 62
     0
100
AcDbLine
 10
25.6372558215898
 20
17.15000023394071
 30
0.0
 11
28.64221142834845
 21
20.15495584069936
 31
0.0
  0
LINE
  5
A04
330
899
100
AcDbEntity
  8
0
 62
     0
100
AcDbLine
 10
30.74221142834836
 20
23.15298145280622
 30
0.0
 11
33.54221142834842
 21
25.95298145280628
 31
0.0
  0
LINE
  5
A05
330
899
100
AcDbEntity
  8
0
 62
     0
100
AcDbLine
 10
39.84221142834832
 20
32.25298145280618
 30
0.0
 11
40.83923020948293
 21
33.2500002339408
 31
0.0
  0
LINE
  5
A06
330
899
100
AcDbEntity
  8
0
 62
     0
100
AcDbLine
 10
24.73923020948291
 20
17.15000023394071
 30
0.0
 11
28.64221142834845
 21
21.05298145280631
 31
0.0
  0
LINE
  5
A07
330
899
100
AcDbEntity
  8
0
 62
     0
100
AcDbLine
 10
30.74221142834836
 20
24.05100706491311
 30
0.0
 11
33.54221142834837
 21
26.85100706491318
 31
0.0
  0
LINE
  5
A08
330
899
100
AcDbEntity
  8
0
 62
     0
100
AcDbLine
 10
23.84120459737596
 20
17.15000023394077
 30
0.0
 11
28.63827207578726
 21
21.94706771235207
 31
0.0
  0
LINE
  5
A09
330
899
100
AcDbEntity
  8
0
 62
     0
100
AcDbLine
 10
30.74221142834836
 20
24.94903267702006
 30
0.0
 11
33.54221142834842
 21
27.74903267702013
 31
0.0
  0
LINE
  5
A0A
330
899
100
AcDbEntity
  8
0
 62
     0
100
AcDbLine
 10
36.24317898526914
 20
30.45000023394084
 30
0.0
 11
37.3922114283485
 21
31.59903267702015
 31
0.0
  0
LINE
  5
A0B
330
899
100
AcDbEntity
  8
0
 62
     0
100
AcDbLine
 10
22.94317898526907
 20
17.15000023394077
 30
0.0
 11
28.52861023946593
 21
22.73543148813764
 31
0.0
  0
LINE
  5
A0C
330
899
100
AcDbEntity
  8
0
 62
     0
100
AcDbLine
 10
30.74221142834836
 20
25.84705828912695
 30
0.0
 11
33.54221142834842
 21
28.64705828912696
 31
0.0
  0
LINE
  5
A0D
330
899
100
AcDbEntity
  8
0
 62
     0
100
AcDbLine
 10
25.84221142834844
 20
20.94705828912703
 30
0.0
 11
28.30627149542181
 21
23.4111183562004
 31
0.0
  0
LINE
  5
A0E
330
899
100
AcDbEntity
  8
0
 62
     0
100
AcDbLine
 10
35.34515337316213
 20
30.45000023394073
 30
0.0
 11
37.39221142834845
 21
32.49705828912704
 31
0.0
  0
LINE
  5
A0F
330
899
100
AcDbEntity
  8
0
 62
     0
100
AcDbLine
 10
22.10287924842209
 20
17.20772610920068
 30
0.0
 11
24.84515337316214
 21
19.95000023394073
 31
0.0
  0
LINE
  5
A10
330
899
100
AcDbEntity
  8
0
 62
     0
100
AcDbLine
 10
30.7422114283483
 20
26.74508390123384
 30
0.0
 11
33.70802613412809
 21
29.71089860701363
 31
0.0
  0
LINE
  5
A11
330
899
100
AcDbEntity
  8
0
 62
     0
100
AcDbLine
 10
25.84005233673918
 20
21.84292480962466
 30
0.0
 11
27.99783996074979
 21
24.00071243363533
 31
0.0
  0
LINE
  5
A12
330
899
100
AcDbEntity
  8
0
 62
     0
100
AcDbLine
 10
34.28131305527563
 20
30.28418552816118
 30
0.0
 11
37.15874401342865
 21
33.16161648631413
 31
0.0
  0
LINE
  5
A13
330
899
100
AcDbEntity
  8
0
 62
     0
100
AcDbLine
 10
21.81721142834835
 20
17.82008390123388
 30
0.0
 11
23.9471277610553
 21
19.95000023394084
 31
0.0
  0
LINE
  5
A14
330
899
100
AcDbEntity
  8
0
 62
     0
100
AcDbLine
 10
25.62044931723847
 20
22.52134740223096
 30
0.0
 11
27.61559799591089
 21
24.51649608090338
 31
0.0
  0
LINE
  5
A15
330
899
100
AcDbEntity
  8
0
 62
     0
100
AcDbLine
 10
30.7422114283483
 20
27.64310951334079
 30
0.0
 11
36.34910214894836
 21
33.25000023394085
 31
0.0
  0
LINE
  5
A16
330
899
100
AcDbEntity
  8
0
 62
     0
100
AcDbLine
 10
21.81721142834835
 20
18.71810951334083
 30
0.0
 11
23.04910214894829
 21
19.95000023394078
 31
0.0
  0
LINE
  5
A17
330
899
100
AcDbEntity
  8
0
 62
     0
100
AcDbLine
 10
25.19419448893376
 20
22.99311818603309
 30
0.0
 11
27.17409347625614
 21
24.97301717335546
 31
0.0
  0
LINE
  5
A18
330
899
100
AcDbEntity
  8
0
 62
     0
100
AcDbLine
 10
30.74221142834836
 20
28.54113512544762
 30
0.0
 11
35.45107653684141
 21
33.25000023394074
 31
0.0
  0
LINE
  5
A19
330
899
100
AcDbEntity
  8
0
 62
     0
100
AcDbLine
 10
21.88616335036818
 20
19.6850870474675
 30
0.0
 11
22.0821246148218
 21
19.88104831192112
 31
0.0
  0
LINE
  5
A1A
330
899
100
AcDbEntity
  8
0
 62
     0
100
AcDbLine
 10
30.76218654250494
 20
29.45913585171116
 30
0.0
 11
34.53307581057794
 21
33.23002511978422
 31
0.0
  0
LINE
  5
A1B
330
899
100
AcDbEntity
  8
0
 62
     0
100
AcDbLine
 10
24.74518168288017
 20
23.44213099208645
 30
0.0
 11
26.72508067020266
 21
25.42202997940893
 31
0.0
  0
LINE
  5
A1C
330
899
100
AcDbEntity
  8
0
 62
     0
100
AcDbLine
 10
31.06164997477072
 20
30.65662489608394
 30
0.0
 11
33.33558676620521
 21
32.93056168751844
 31
0.0
  0
LINE
  5
A1D
330
899
100
AcDbEntity
  8
0
 62
     0
100
AcDbLine
 10
24.2961688768267
 20
23.89114379813992
 30
0.0
 11
26.27606786414919
 21
25.87104278546241
 31
0.0
  0
LINE
  5
A1E
330
899
100
AcDbEntity
  8
0
 62
     0
100
AcDbLine
 10
23.84715607077345
 20
24.34015660419351
 30
0.0
 11
25.82705505809571
 21
26.32005559151571
 31
0.0
  0
LINE
  5
A1F
330
899
100
AcDbEntity
  8
0
 62
     0
100
AcDbLine
 10
23.39814326471998
 20
24.78916941024698
 30
0.0
 11
25.37804225204224
 21
26.76906839756919
 31
0.0
  0
LINE
  5
A20
330
899
100
AcDbEntity
  8
0
 62
     0
100
AcDbLine
 10
22.94913045866633
 20
25.23818221630029
 30
0.0
 11
24.92902944598882
 21
27.21808120362278
 31
0.0
  0
LINE
  5
A21
330
899
100
AcDbEntity
  8
0
 62
     0
100
AcDbLine
 10
27.26292286419994
 20
30.45000023394084
 30
0.0
 11
28.1172114283483
 21
31.30428879808921
 31
0.0
  0
LINE
  5
A22
330
899
100
AcDbEntity
  8
0
 62
     0
100
AcDbLine
 10
22.5002009666411
 20
25.68727833638201
 30
0.0
 11
24.48026661007356
 21
27.66734397981446
 31
0.0
  0
LINE
  5
A23
330
899
100
AcDbEntity
  8
0
 62
     0
100
AcDbLine
 10
26.36489725209299
 20
30.45000023394073
 30
0.0
 11
28.11721142834841
 21
32.20231441019616
 31
0.0
  0
LINE
  5
A24
330
899
100
AcDbEntity
  8
0
 62
     0
100
AcDbLine
 10
22.08873304208953
 20
26.17383602393721
 30
0.0
 11
24.15036972878562
 21
28.23547271063336
 31
0.0
  0
LINE
  5
A25
330
899
100
AcDbEntity
  8
0
 62
     0
100
AcDbLine
 10
25.46687163998615
 20
30.45000023394079
 30
0.0
 11
28.03065252858727
 21
33.01378112254196
 31
0.0
  0
LINE
  5
A26
330
899
100
AcDbEntity
  8
0
 62
     0
100
AcDbLine
 10
21.74827243582706
 20
26.7314010297817
 30
0.0
 11
24.09221142834838
 21
29.07534002230307
 31
0.0
  0
LINE
  5
A27
330
899
100
AcDbEntity
  8
0
 62
     0
100
AcDbLine
 10
24.56637937870903
 20
30.44753358477061
 30
0.0
 11
27.36884602787922
 21
33.2500002339408
 31
0.0
  0
LINE
  5
A28
330
899
100
AcDbEntity
  8
0
 62
     0
100
AcDbLine
 10
21.48757914009497
 20
27.36873334615655
 30
0.0
 11
24.09467807751855
 21
29.97583228358019
 31
0.0
  0
LINE
  5
A29
330
899
100
AcDbEntity
  8
0
 62
     0
100
AcDbLine
 10
21.3257671778469
 20
28.10494699601537
 30
0.0
 11
26.47082041577232
 21
33.2500002339408
 31
0.0
  0
LINE
  5
A2A
330
899
100
AcDbEntity
  8
0
 62
     0
100
AcDbLine
 10
21.29221142834842
 20
28.96941685862379
 30
0.0
 11
25.57279480366537
 21
33.2500002339408
 31
0.0
  0
LINE
  5
A2B
330
899
100
AcDbEntity
  8
0
 62
     0
100
AcDbLine
 10
21.29221142834837
 20
29.86744247073074
 30
0.0
 11
24.67476919155848
 21
33.2500002339408
 31
0.0
  0
LINE
  5
A2C
330
899
100
AcDbEntity
  8
0
 62
     0
100
AcDbLine
 10
21.3124034387867
 20
30.78566009327597
 30
0.0
 11
23.75655156901331
 21
33.22980822350257
 31
0.0
  0
ENDBLK
  5
A2E
330
899
100
AcDbEntity
  8
0
100
AcDbBlockEnd
  0
BLOCK
  5
2ABF
330
2AB5
100
AcDbEntity
  8
0
100
AcDbBlockBegin
  2
*D2
 70
     1
 10
0.0
 20
0.0
 30
0.0
  3
*D2
  1

  0
LINE
  5
2CDD
330
2AB5
100
AcDbEntity
  8
SUNPOU
100
AcDbLine
 10
78.67144126408122
 20
163.5573072040146
 30
0.0
 11
45.02619513436981
 21
163.5573072040147
 31
0.0
  0
LINE
  5
2CDE
330
2AB5
100
AcDbEntity
  8
SUNPOU
100
AcDbLine
 10
148.5660593870089
 20
43.99705297808611
 30
0.0
 11
45.02619513436978
 21
43.99705297808615
 31
0.0
  0
LINE
  5
2CDF
330
2AB5
100
AcDbEntity
  8
SUNPOU
100
AcDbLine
 10
46.52619513436981
 20
160.5573072040147
 30
0.0
 11
46.52619513436978
 21
46.99705297808615
 31
0.0
  0
INSERT
  5
2CE0
330
2AB5
100
AcDbEntity
  8
SUNPOU
100
AcDbBlockReference
  2
_OPEN
 10
46.52619513436981
 20
163.5573072040147
 30
0.0
 41
3.0
 42
3.0
 43
3.0
 50
90.0
  0
INSERT
  5
2CE1
330
2AB5
100
AcDbEntity
  8
SUNPOU
100
AcDbBlockReference
  2
_OPEN
 10
46.52619513436978
 20
43.99705297808615
 30
0.0
 41
3.0
 42
3.0
 43
3.0
 50
270.0
  0
MTEXT
  5
2CE2
330
2AB5
100
AcDbEntity
  8
SUNPOU
100
AcDbMText
 10
43.52619513436978
 20
103.7771800910504
 30
0.0
 40
3.0
 41
0.0
 71
     5
 72
     5
  1
\A1;120
 11
0.0000000000000001
 21
1.0
 31
0.0
 73
     1
 44
1.0
1001
ACAD
1000
MTEXTBEGIN
1070
    73
1070
     1
1070
    44
1040
1.0
1070
    74
1070
     0
1000
MTEXTEND
  0
POINT
  5
2CE3
330
2AB5
100
AcDbEntity
  8
Defpoints
 62
     0
100
AcDbPoint
 10
80.17144126408123
 20
163.5573072040146
 30
0.0
  0
POINT
  5
2CE4
330
2AB5
100
AcDbEntity
  8
Defpoints
 62
     0
100
AcDbPoint
 10
150.0660593870089
 20
43.99705297808611
 30
0.0
  0
POINT
  5
2CE5
330
2AB5
100
AcDbEntity
  8
Defpoints
 62
     0
100
AcDbPoint
 10
46.52619513436978
 20
43.99705297808615
 30
0.0
  0
ENDBLK
  5
2AC0
330
2AB5
100
AcDbEntity
  8
0
100
AcDbBlockEnd
  0
BLOCK
  5
2ACC
330
2AC2
100
AcDbEntity
  8
0
100
AcDbBlockBegin
  2
*D3
 70
     1
 10
0.0
 20
0.0
 30
0.0
  3
*D3
  1

  0
LINE
  5
2AC3
330
2AC2
100
AcDbEntity
  8
SUNPOU
100
AcDbLine
 10
78.35521349806436
 20
163.6086239059641
 30
0.0
 11
53.3901938258954
 21
163.6086239059641
 31
0.0
  0
LINE
  5
2AC4
330
2AC2
100
AcDbEntity
  8
SUNPOU
100
AcDbLine
 10
83.6575353179316
 20
60.19637108784445
 30
0.0
 11
53.39019382589537
 21
60.19637108784446
 31
0.0
  0
LINE
  5
2AC5
330
2AC2
100
AcDbEntity
  8
SUNPOU
100
AcDbLine
 10
54.89019382589539
 20
160.6086239059641
 30
0.0
 11
54.89019382589537
 21
63.19637108784446
 31
0.0
  0
INSERT
  5
2AC6
330
2AC2
100
AcDbEntity
  8
SUNPOU
100
AcDbBlockReference
  2
_OPEN
 10
54.89019382589539
 20
163.6086239059641
 30
0.0
 41
3.0
 42
3.0
 43
3.0
 50
90.0
  0
INSERT
  5
2AC7
330
2AC2
100
AcDbEntity
  8
SUNPOU
100
AcDbBlockReference
  2
_OPEN
 10
54.89019382589537
 20
60.19637108784446
 30
0.0
 41
3.0
 42
3.0
 43
3.0
 50
270.0
  0
MTEXT
  5
2AC8
330
2AC2
100
AcDbEntity
  8
SUNPOU
100
AcDbMText
 10
51.89019382589536
 20
111.9024974969043
 30
0.0
 40
3.0
 41
0.0
 71
     5
 72
     5
  1
\A1;103
 11
0.0000000000000001
 21
1.0
 31
0.0
 73
     1
 44
1.0
1001
ACAD
1000
MTEXTBEGIN
1070
    73
1070
     1
1070
    44
1040
1.0
1070
    74
1070
     0
1000
MTEXTEND
  0
POINT
  5
2AC9
330
2AC2
100
AcDbEntity
  8
Defpoints
 62
     0
100
AcDbPoint
 10
79.85521349806436
 20
163.6086239059641
 30
0.0
  0
POINT
  5
2ACA
330
2AC2
100
AcDbEntity
  8
Defpoints
 62
     0
100
AcDbPoint
 10
85.1575353179316
 20
60.19637108784445
 30
0.0
  0
POINT
  5
2ACB
330
2AC2
100
AcDbEntity
  8
Defpoints
 62
     0
100
AcDbPoint
 10
54.89019382589537
 20
60.19637108784446
 30
0.0
  0
ENDBLK
  5
2ACD
330
2AC2
100
AcDbEntity
  8
0
100
AcDbBlockEnd
  0
BLOCK
  5
2AD9
330
2ACF
100
AcDbEntity
  8
0
100
AcDbBlockBegin
  2
*D4
 70
     1
 10
0.0
 20
0.0
 30
0.0
  3
*D4
  1

  0
LINE
  5
2AD0
330
2ACF
100
AcDbEntity
  8
SUNPOU
100
AcDbLine
 10
78.85521446291455
 20
164.1072347696328
 30
0.0
 11
78.85521446291455
 21
183.9655142963036
 31
0.0
  0
LINE
  5
2AD1
330
2ACF
100
AcDbEntity
  8
SUNPOU
100
AcDbLine
 10
209.8660593870093
 20
125.4963710878445
 30
0.0
 11
209.8660593870093
 21
183.9655142963036
 31
0.0
  0
LINE
  5
2AD2
330
2ACF
100
AcDbEntity
  8
SUNPOU
100
AcDbLine
 10
81.85521446291454
 20
182.4655142963035
 30
0.0
 11
206.8660593870093
 21
182.4655142963035
 31
0.0
  0
INSERT
  5
2AD3
330
2ACF
100
AcDbEntity
  8
SUNPOU
100
AcDbBlockReference
  2
_OPEN
 10
78.85521446291455
 20
182.4655142963035
 30
0.0
 41
3.0
 42
3.0
 43
3.0
 50
180.0
  0
INSERT
  5
2AD4
330
2ACF
100
AcDbEntity
  8
SUNPOU
100
AcDbBlockReference
  2
_OPEN
 10
209.8660593870093
 20
182.4655142963035
 30
0.0
 41
3.0
 42
3.0
 43
3.0
  0
MTEXT
  5
2AD5
330
2ACF
100
AcDbEntity
  8
SUNPOU
100
AcDbMText
 10
144.3606369249619
 20
185.4655142963036
 30
0.0
 40
3.0
 41
0.0
 71
     5
 72
     5
  1
\A1;131
 73
     1
 44
1.0
1001
ACAD
1000
MTEXTBEGIN
1070
    73
1070
     1
1070
    44
1040
1.0
1070
    74
1070
     0
1000
MTEXTEND
  0
POINT
  5
2AD6
330
2ACF
100
AcDbEntity
  8
Defpoints
 62
     0
100
AcDbPoint
 10
78.85521446291455
 20
162.6072347696328
 30
0.0
  0
POINT
  5
2AD7
330
2ACF
100
AcDbEntity
  8
Defpoints
 62
     0
100
AcDbPoint
 10
209.8660593870093
 20
123.9963710878445
 30
0.0
  0
POINT
  5
2AD8
330
2ACF
100
AcDbEntity
  8
Defpoints
 62
     0
100
AcDbPoint
 10
209.8660593870093
 20
182.4655142963035
 30
0.0
  0
ENDBLK
  5
2ADA
330
2ACF
100
AcDbEntity
  8
0
100
AcDbBlockEnd
  0
BLOCK
  5
2AE6
330
2ADC
100
AcDbEntity
  8
0
100
AcDbBlockBegin
  2
*D5
 70
     1
 10
0.0
 20
0.0
 30
0.0
  3
*D5
  1

  0
LINE
  5
2ADD
330
2ADC
100
AcDbEntity
  8
SUNPOU
100
AcDbLine
 10
78.85521446291455
 20
164.1072347696328
 30
0.0
 11
78.85521446291455
 21
176.6331039973773
 31
0.0
  0
LINE
  5
2ADE
330
2ADC
100
AcDbEntity
  8
SUNPOU
100
AcDbLine
 10
100.8542496125939
 20
154.3865786685738
 30
0.0
 11
100.8542496125939
 21
176.6331039973773
 31
0.0
  0
LINE
  5
2ADF
330
2ADC
100
AcDbEntity
  8
SUNPOU
100
AcDbLine
 10
81.85521446291454
 20
175.1331039973773
 30
0.0
 11
97.85424961259389
 21
175.1331039973773
 31
0.0
  0
INSERT
  5
2AE0
330
2ADC
100
AcDbEntity
  8
SUNPOU
100
AcDbBlockReference
  2
_OPEN
 10
78.85521446291455
 20
175.1331039973773
 30
0.0
 41
3.0
 42
3.0
 43
3.0
 50
180.0
  0
INSERT
  5
2AE1
330
2ADC
100
AcDbEntity
  8
SUNPOU
100
AcDbBlockReference
  2
_OPEN
 10
100.8542496125939
 20
175.1331039973773
 30
0.0
 41
3.0
 42
3.0
 43
3.0
  0
MTEXT
  5
2AE2
330
2ADC
100
AcDbEntity
  8
SUNPOU
100
AcDbMText
 10
89.85473203775422
 20
178.1331039973773
 30
0.0
 40
3.0
 41
0.0
 71
     5
 72
     5
  1
\A1;22
 73
     1
 44
1.0
1001
ACAD
1000
MTEXTBEGIN
1070
    73
1070
     1
1070
    44
1040
1.0
1070
    74
1070
     0
1000
MTEXTEND
  0
POINT
  5
2AE3
330
2ADC
100
AcDbEntity
  8
Defpoints
 62
     0
100
AcDbPoint
 10
78.85521446291455
 20
162.6072347696328
 30
0.0
  0
POINT
  5
2AE4
330
2ADC
100
AcDbEntity
  8
Defpoints
 62
     0
100
AcDbPoint
 10
100.8542496125939
 20
152.8865786685738
 30
0.0
  0
POINT
  5
2AE5
330
2ADC
100
AcDbEntity
  8
Defpoints
 62
     0
100
AcDbPoint
 10
100.8542496125939
 20
175.1331039973773
 30
0.0
  0
ENDBLK
  5
2AE7
330
2ADC
100
AcDbEntity
  8
0
100
AcDbBlockEnd
  0
BLOCK
  5
2AF3
330
2AE9
100
AcDbEntity
  8
0
100
AcDbBlockBegin
  2
*D6
 70
     1
 10
0.0
 20
0.0
 30
0.0
  3
*D6
  1

  0
LINE
  5
2AEA
330
2AE9
100
AcDbEntity
  8
SUNPOU
100
AcDbLine
 10
209.8660593870093
 20
125.4963710878445
 30
0.0
 11
209.8660593870093
 21
148.3698931868458
 31
0.0
  0
LINE
  5
2AEB
330
2AE9
100
AcDbEntity
  8
SUNPOU
100
AcDbLine
 10
194.8660593870092
 20
110.4963710878452
 30
0.0
 11
194.8660593870092
 21
148.3698931868458
 31
0.0
  0
LINE
  5
2AEC
330
2AE9
100
AcDbEntity
  8
SUNPOU
100
AcDbLine
 10
206.8660593870093
 20
146.8698931868458
 30
0.0
 11
197.8660593870093
 21
146.8698931868458
 31
0.0
  0
INSERT
  5
2AED
330
2AE9
100
AcDbEntity
  8
SUNPOU
100
AcDbBlockReference
  2
_OPEN
 10
209.8660593870093
 20
146.8698931868458
 30
0.0
 41
3.0
 42
3.0
 43
3.0
  0
INSERT
  5
2AEE
330
2AE9
100
AcDbEntity
  8
SUNPOU
100
AcDbBlockReference
  2
_OPEN
 10
194.8660593870092
 20
146.8698931868458
 30
0.0
 41
3.0
 42
3.0
 43
3.0
 50
180.0
  0
MTEXT
  5
2AEF
330
2AE9
100
AcDbEntity
  8
SUNPOU
100
AcDbMText
 10
202.3660593870093
 20
149.8698931868458
 30
0.0
 40
3.0
 41
0.0
 71
     5
 72
     5
  1
\A1;15
 73
     1
 44
1.0
1001
ACAD
1000
MTEXTBEGIN
1070
    73
1070
     1
1070
    44
1040
1.0
1070
    74
1070
     0
1000
MTEXTEND
  0
POINT
  5
2AF0
330
2AE9
100
AcDbEntity
  8
Defpoints
 62
     0
100
AcDbPoint
 10
209.8660593870093
 20
123.9963710878445
 30
0.0
  0
POINT
  5
2AF1
330
2AE9
100
AcDbEntity
  8
Defpoints
 62
     0
100
AcDbPoint
 10
194.8660593870092
 20
108.9963710878452
 30
0.0
  0
POINT
  5
2AF2
330
2AE9
100
AcDbEntity
  8
Defpoints
 62
     0
100
AcDbPoint
 10
194.8660593870092
 20
146.8698931868458
 30
0.0
  0
ENDBLK
  5
2AF4
330
2AE9
100
AcDbEntity
  8
0
100
AcDbBlockEnd
  0
BLOCK
  5
2B00
330
2AF6
100
AcDbEntity
  8
0
100
AcDbBlockBegin
  2
*D7
 70
     1
 10
0.0
 20
0.0
 30
0.0
  3
*D7
  1

  0
LINE
  5
2AF7
330
2AF6
100
AcDbEntity
  8
SUNPOU
100
AcDbLine
 10
201.0755403920301
 20
128.9963710878445
 30
0.0
 11
176.7676130045167
 21
128.9963710878446
 31
0.0
  0
LINE
  5
2AF8
330
2AF6
100
AcDbEntity
  8
SUNPOU
100
AcDbLine
 10
193.3660593870093
 20
108.9963710878452
 30
0.0
 11
176.7676130045167
 21
108.9963710878452
 31
0.0
  0
LINE
  5
2AF9
330
2AF6
100
AcDbEntity
  8
SUNPOU
100
AcDbLine
 10
178.2676130045167
 20
125.9963710878445
 30
0.0
 11
178.2676130045167
 21
111.9963710878452
 31
0.0
  0
INSERT
  5
2AFA
330
2AF6
100
AcDbEntity
  8
SUNPOU
100
AcDbBlockReference
  2
_OPEN
 10
178.2676130045167
 20
128.9963710878446
 30
0.0
 41
3.0
 42
3.0
 43
3.0
 50
90.0
  0
INSERT
  5
2AFB
330
2AF6
100
AcDbEntity
  8
SUNPOU
100
AcDbBlockReference
  2
_OPEN
 10
178.2676130045167
 20
108.9963710878452
 30
0.0
 41
3.0
 42
3.0
 43
3.0
 50
270.0
  0
MTEXT
  5
2AFC
330
2AF6
100
AcDbEntity
  8
SUNPOU
100
AcDbMText
 10
175.2676130045167
 20
118.9963710878449
 30
0.0
 40
3.0
 41
0.0
 71
     5
 72
     5
  1
\A1;20
 11
0.0000000000000001
 21
1.0
 31
0.0
 73
     1
 44
1.0
1001
ACAD
1000
MTEXTBEGIN
1070
    73
1070
     1
1070
    44
1040
1.0
1070
    74
1070
     0
1000
MTEXTEND
  0
POINT
  5
2AFD
330
2AF6
100
AcDbEntity
  8
Defpoints
 62
     0
100
AcDbPoint
 10
202.5755403920301
 20
128.9963710878445
 30
0.0
  0
POINT
  5
2AFE
330
2AF6
100
AcDbEntity
  8
Defpoints
 62
     0
100
AcDbPoint
 10
194.8660593870092
 20
108.9963710878452
 30
0.0
  0
POINT
  5
2AFF
330
2AF6
100
AcDbEntity
  8
Defpoints
 62
     0
100
AcDbPoint
 10
178.2676130045167
 20
108.9963710878452
 30
0.0
  0
ENDBLK
  5
2B01
330
2AF6
100
AcDbEntity
  8
0
100
AcDbBlockEnd
  0
BLOCK
  5
2B0D
330
2B03
100
AcDbEntity
  8
0
100
AcDbBlockBegin
  2
*D8
 70
     1
 10
0.0
 20
0.0
 30
0.0
  3
*D8
  1

  0
LINE
  5
2B04
330
2B03
100
AcDbEntity
  8
SUNPOU
100
AcDbLine
 10
199.5660593870093
 20
43.72224747430187
 30
0.0
 11
199.5660593870093
 21
26.77959889188441
 31
0.0
  0
LINE
  5
2B05
330
2B03
100
AcDbEntity
  8
SUNPOU
100
AcDbLine
 10
100.5660593870092
 20
43.72224747430187
 30
0.0
 11
100.5660593870092
 21
26.77959889188441
 31
0.0
  0
LINE
  5
2B06
330
2B03
100
AcDbEntity
  8
SUNPOU
100
AcDbLine
 10
196.5660593870093
 20
28.2795988918844
 30
0.0
 11
103.5660593870092
 21
28.2795988918844
 31
0.0
  0
INSERT
  5
2B07
330
2B03
100
AcDbEntity
  8
SUNPOU
100
AcDbBlockReference
  2
_OPEN
 10
199.5660593870093
 20
28.2795988918844
 30
0.0
 41
3.0
 42
3.0
 43
3.0
  0
INSERT
  5
2B08
330
2B03
100
AcDbEntity
  8
SUNPOU
100
AcDbBlockReference
  2
_OPEN
 10
100.5660593870092
 20
28.2795988918844
 30
0.0
 41
3.0
 42
3.0
 43
3.0
 50
180.0
  0
MTEXT
  5
2B09
330
2B03
100
AcDbEntity
  8
SUNPOU
100
AcDbMText
 10
150.0660593870092
 20
31.27959889188441
 30
0.0
 40
3.0
 41
0.0
 71
     5
 72
     5
  1
\A1;99
 73
     1
 44
1.0
1001
ACAD
1000
MTEXTBEGIN
1070
    73
1070
     1
1070
    44
1040
1.0
1070
    74
1070
     0
1000
MTEXTEND
  0
POINT
  5
2B0A
330
2B03
100
AcDbEntity
  8
Defpoints
 62
     0
100
AcDbPoint
 10
199.5660593870093
 20
45.22224747430186
 30
0.0
  0
POINT
  5
2B0B
330
2B03
100
AcDbEntity
  8
Defpoints
 62
     0
100
AcDbPoint
 10
100.5660593870092
 20
45.22224747430186
 30
0.0
  0
POINT
  5
2B0C
330
2B03
100
AcDbEntity
  8
Defpoints
 62
     0
100
AcDbPoint
 10
100.5660593870092
 20
28.2795988918844
 30
0.0
  0
ENDBLK
  5
2B0E
330
2B03
100
AcDbEntity
  8
0
100
AcDbBlockEnd
  0
BLOCK
  5
2B32
330
2B27
100
AcDbEntity
  8
0
100
AcDbBlockBegin
  2
*D9
 70
     1
 10
0.0
 20
0.0
 30
0.0
  3
*D9
  1

  0
LINE
  5
2B3E
330
2B27
100
AcDbEntity
  8
SUNPOU
100
AcDbLine
 10
82.77831017936817
 20
95.879318292516
 30
0.0
 11
82.77831713486248
 21
95.87921301997379
 31
0.0
  0
LINE
  5
2B3F
330
2B27
100
AcDbEntity
  8
SUNPOU
100
AcDbLine
 10
81.181790608181
 20
95.77383416006417
 30
0.0
 11
81.18179756367531
 21
95.77372888752197
 31
0.0
  0
LINE
  5
2B40
330
2B27
100
AcDbEntity
  8
SUNPOU
100
AcDbLine
 10
85.67289902758179
 20
97.57373232241375
 30
0.0
 11
88.6663722627332
 21
97.77151500727796
 31
0.0
  0
LINE
  5
2B41
330
2B27
100
AcDbEntity
  8
SUNPOU
100
AcDbLine
 10
78.08943298609176
 20
97.07268282023346
 30
0.0
 11
64.11989122205182
 21
96.14969695753371
 31
0.0
  0
INSERT
  5
2B42
330
2B27
100
AcDbEntity
  8
SUNPOU
100
AcDbBlockReference
  2
_OPEN
 10
82.67942579243037
 20
97.37594963754951
 30
0.0
 41
3.0
 42
3.0
 43
3.0
 50
183.780112755307
  0
INSERT
  5
2B43
330
2B27
100
AcDbEntity
  8
SUNPOU
100
AcDbBlockReference
  2
_OPEN
 10
81.0829062212432
 20
97.27046550509768
 30
0.0
 41
3.0
 42
3.0
 43
3.0
 50
3.780112755307035
  0
MTEXT
  5
2B44
330
2B27
100
AcDbEntity
  8
SUNPOU
100
AcDbMText
 10
69.41014280163186
 20
99.50577178160287
 30
0.0
 40
3.0
 41
0.0
 71
     5
 72
     5
  1
\A1;t1.6
 11
0.9978244117171392
 21
0.0659275616214105
 31
0.0
 73
     1
 44
1.0
1001
ACAD
1000
MTEXTBEGIN
1070
    73
1070
     1
1070
    44
1040
1.0
1070
    74
1070
     0
1000
MTEXTEND
  0
POINT
  5
2B45
330
2B27
100
AcDbEntity
  8
Defpoints
 62
     0
100
AcDbPoint
 10
82.67941883693607
 20
97.37605491009171
 30
0.0
  0
POINT
  5
2B46
330
2B27
100
AcDbEntity
  8
Defpoints
 62
     0
100
AcDbPoint
 10
81.08289926574888
 20
97.27057077763989
 30
0.0
  0
POINT
  5
2B47
330
2B27
100
AcDbEntity
  8
Defpoints
 62
     0
100
AcDbPoint
 10
81.0829062212432
 20
97.27046550509768
 30
0.0
  0
ENDBLK
  5
2B33
330
2B27
100
AcDbEntity
  8
0
100
AcDbBlockEnd
  0
BLOCK
  5
2B54
330
2B4A
100
AcDbEntity
  8
0
100
AcDbBlockBegin
  2
*D10
 70
     1
 10
0.0
 20
0.0
 30
0.0
  3
*D10
  1

  0
LINE
  5
2D4B
330
2B4A
100
AcDbEntity
  8
SUNPOU
100
AcDbLine
 10
206.3660593870093
 20
128.9963710878445
 30
0.0
 11
227.7809722974562
 21
128.9963710878445
 31
0.0
  0
LINE
  5
2D4C
330
2B4A
100
AcDbEntity
  8
SUNPOU
100
AcDbLine
 10
151.5660593870089
 20
43.99705297808611
 30
0.0
 11
227.7809722974561
 21
43.99705297808609
 31
0.0
  0
LINE
  5
2D4D
330
2B4A
100
AcDbEntity
  8
SUNPOU
100
AcDbLine
 10
226.2809722974562
 20
125.9963710878445
 30
0.0
 11
226.2809722974561
 21
46.99705297808609
 31
0.0
  0
INSERT
  5
2D4E
330
2B4A
100
AcDbEntity
  8
SUNPOU
100
AcDbBlockReference
  2
_OPEN
 10
226.2809722974562
 20
128.9963710878445
 30
0.0
 41
3.0
 42
3.0
 43
3.0
 50
90.0
  0
INSERT
  5
2D4F
330
2B4A
100
AcDbEntity
  8
SUNPOU
100
AcDbBlockReference
  2
_OPEN
 10
226.2809722974561
 20
43.99705297808609
 30
0.0
 41
3.0
 42
3.0
 43
3.0
 50
270.0
  0
MTEXT
  5
2D50
330
2B4A
100
AcDbEntity
  8
SUNPOU
100
AcDbMText
 10
223.2809722974562
 20
86.49671203296536
 30
0.0
 40
3.0
 41
0.0
 71
     5
 72
     5
  1
\A1;85
 11
0.0000000000000001
 21
1.0
 31
0.0
 73
     1
 44
1.0
1001
ACAD
1000
MTEXTBEGIN
1070
    73
1070
     1
1070
    44
1040
1.0
1070
    74
1070
     0
1000
MTEXTEND
  0
POINT
  5
2D51
330
2B4A
100
AcDbEntity
  8
Defpoints
 62
     0
100
AcDbPoint
 10
204.8660593870093
 20
128.9963710878445
 30
0.0
  0
POINT
  5
2D52
330
2B4A
100
AcDbEntity
  8
Defpoints
 62
     0
100
AcDbPoint
 10
150.0660593870089
 20
43.99705297808611
 30
0.0
  0
POINT
  5
2D53
330
2B4A
100
AcDbEntity
  8
Defpoints
 62
     0
100
AcDbPoint
 10
226.2809722974561
 20
43.99705297808609
 30
0.0
  0
ENDBLK
  5
2B55
330
2B4A
100
AcDbEntity
  8
0
100
AcDbBlockEnd
  0
ENDSEC
  0
SECTION
  2
ENTITIES
  0
LINE
  5
C76
330
1A
100
AcDbEntity
  8
ZUWAKU
100
AcDbLine
 10
76.31495336356454
 20
10.03428249379249
 30
0.0
 11
159.48124810533
 21
10.03428249379249
 31
0.0
  0
LINE
  5
C77
330
1A
100
AcDbEntity
  8
ZUWAKU
100
AcDbLine
 10
76.31495336356454
 20
10.17360249379265
 30
0.0
 11
159.48124810533
 21
10.17360249379265
 31
0.0
  0
LINE
  5
C78
330
1A
100
AcDbEntity
  8
ZUWAKU
100
AcDbLine
 10
76.31495336356454
 20
10.10394249379243
 30
0.0
 11
159.48124810533
 21
10.10394249379243
 31
0.0
  0
LWPOLYLINE
  5
C79
330
1A
100
AcDbEntity
  8
ZUWAKU
100
AcDbPolyline
 90
        4
 70
     1
 43
0.0
 10
3.713002134233647
 20
196.7927424937924
 10
3.713002134233647
 20
4.809782493792454
 10
281.3777621342335
 20
4.809782493792454
 10
281.377762134234
 20
196.7927424937924
  0
LWPOLYLINE
  5
C7A
330
1A
100
AcDbEntity
  8
ZUWAKU
100
AcDbPolyline
 90
        4
 70
     1
 43
0.0
 10
3.852322134233531
 20
196.6534224937925
 10
3.852322134233531
 20
4.949102493792679
 10
281.2384421342338
 20
4.949102493792679
 10
281.2384421342338
 20
196.6534224937925
  0
LWPOLYLINE
  5
C7B
330
1A
100
AcDbEntity
  8
ZUWAKU
100
AcDbPolyline
 90
        4
 70
     1
 43
0.0
 10
3.643342134233762
 20
196.8624024937927
 10
3.643342134233762
 20
4.740122493792512
 10
281.4474221342339
 20
4.740122493792512
 10
281.4474221342339
 20
196.8624024937927
  0
LWPOLYLINE
  5
C7C
330
1A
100
AcDbEntity
  8
ZUWAKU
100
AcDbPolyline
 90
        4
 70
     1
 43
0.0
 10
3.78266213423393
 20
196.7230824937924
 10
3.78266213423393
 20
4.879442493792396
 10
281.3081021342337
 20
4.879442493792396
 10
281.3081021342337
 20
196.7230824937924
  0
LWPOLYLINE
  5
C7D
330
1A
100
AcDbEntity
  8
ZUWAKU
100
AcDbPolyline
 90
        4
 70
     1
 43
0.0
 10
3.921982134233815
 20
196.5837624937925
 10
3.921982134233815
 20
5.018762493792621
 10
281.1687821342339
 20
5.018762493792621
 10
281.1687821342339
 20
196.5837624937925
  0
LINE
  5
C7E
330
1A
100
AcDbEntity
  8
ZUWAKU
100
AcDbLine
 10
3.643342134233762
 20
15.46776249379258
 30
0.0
 11
281.3777621342337
 21
15.46776249379258
 31
0.0
  0
LINE
  5
C7F
330
1A
100
AcDbEntity
  8
ZUWAKU
100
AcDbLine
 10
3.643342134233762
 20
15.39810249379235
 30
0.0
 11
281.3777621342337
 21
15.39810249379235
 31
0.0
  0
LINE
  5
C80
330
1A
100
AcDbEntity
  8
ZUWAKU
100
AcDbLine
 10
3.643342134233762
 20
15.32844249379241
 30
0.0
 11
281.3777621342337
 21
15.32844249379241
 31
0.0
  0
LINE
  5
C81
330
1A
100
AcDbEntity
  8
ZUWAKU
100
AcDbLine
 10
3.643342134233762
 20
15.25878249379246
 30
0.0
 11
281.3777621342337
 21
15.25878249379246
 31
0.0
  0
LINE
  5
C82
330
1A
100
AcDbEntity
  8
ZUWAKU
100
AcDbLine
 10
3.643342134233762
 20
15.18912249379258
 30
0.0
 11
281.3777621342337
 21
15.18912249379258
 31
0.0
  0
ARC
  5
C95
330
1A
100
AcDbEntity
  8
ZUWAKU
100
AcDbCircle
 10
9.770709627743997
 20
12.65523999379235
 30
0.0
 40
0.1828575
100
AcDbArc
 50
0.0
 51
90.0
  0
ARC
  5
C96
330
1A
100
AcDbEntity
  8
ZUWAKU
100
AcDbCircle
 10
9.770709627743997
 20
12.04571499379239
 30
0.0
 40
0.1828575
100
AcDbArc
 50
270.0
 51
0.0
  0
ARC
  5
C97
330
1A
100
AcDbEntity
  8
ZUWAKU
100
AcDbCircle
 10
8.673564627744099
 20
8.837942359223859
 30
0.0
 40
1.462859999999999
100
AcDbArc
 50
0.0
 51
44.99999999999971
  0
ARC
  5
C98
330
1A
100
AcDbEntity
  8
ZUWAKU
100
AcDbCircle
 10
9.161184627743978
 20
8.205707493792488
 30
0.0
 40
0.9752399999999997
100
AcDbArc
 50
270.0
 51
0.0
  0
INSERT
  5
C99
330
1A
100
AcDbEntity
  8
ZUWAKU
  6
Continuous
100
AcDbBlockReference
  2
*X1
 10
0.1603423872501821
 20
1.25712241231082
 30
0.0
 41
0.3483
 42
0.3483
 43
0.3483
1001
ACAD
1000
HATCH
1002
{
1070
    19
1000
ANSI37
1040
0.2
1040
0.0
1000
R14_HATCH_DATA
1000
B3A
1011
0.5086423872502337
1021
1.25712241231082
1031
0.0
1011
0.1603423872501821
1021
1.605422412310815
1031
0.0
1011
0.1603423872501821
1021
1.25712241231082
1031
0.3483
1040
0.0
1010
0.0
1020
0.0
1030
1.0
1000
ANSI37
1070
     0
1070
     0
1071
        8
1071
        7
1070
     1
1070
     1
1071
       24
1040
24.50226193468711
1040
27.64484871492438
1040
-0.1989123673796348
1040
24.09221142834838
1040
28.63479820858543
1040
0.0
1040
24.09221142834838
1040
29.92500023394081
1040
-0.4142135623730912
1040
24.61721142834836
1040
30.4500002339408
1040
0.0
1040
27.59221142834827
1040
30.4500002339408
1040
0.4142135623731546
1040
28.11721142834836
1040
30.97500023394079
1040
0.0
1040
28.11721142834836
1040
32.7250002339408
1040
0.4142135623731586
1040
27.59221142834827
1040
33.25000023394081
1040
0.0
1040
24.09221142834838
1040
33.25000023394081
1040
0.4142135623730928
1040
21.29221142834842
1040
30.45000023394083
1040
0.0
1040
21.29221142834842
1040
28.63479820858556
1040
0.1989123673796619
1040
22.52236294736485
1040
25.66494972760195
1040
0.0
1040
25.43216092200953
1040
22.75515175295729
1040
-0.1989123673796613
1040
25.84221142834838
1040
21.76520225929611
1040
0.0
1040
25.84221142834838
1040
20.47500023394079
1040
-0.4142135623730911
1040
25.3172114283484
1040
19.9500002339408
1040
0.0
1040
22.34221142834849
1040
19.9500002339408
1040
0.4142135623731526
1040
21.8172114283484
1040
19.42500023394081
1040
0.0
1040
21.8172114283484
1040
17.67500023394079
1040
0.4142135623731526
1040
22.34221142834849
1040
17.1500002339408
1040
0.0
1040
25.84221142834838
1040
17.1500002339408
1040
0.4142135623731044
1040
28.64221142834845
1040
19.95000023394078
1040
0.0
1040
28.64221142834845
1040
21.76520225929605
1040
0.1989123673796604
1040
27.4120599093319
1040
24.73505074027959
1040
0.0
1071
        0
1071
        7
1070
     1
1070
     1
1071
       16
1040
33.54221142834842
1040
29.05000023394081
1040
-0.4142135623730935
1040
34.9422114283484
1040
30.4500002339408
1040
0.0
1040
36.86721142834836
1040
30.4500002339408
1040
0.4142135623731546
1040
37.39221142834845
1040
30.97500023394079
1040
0.0
1040
37.39221142834845
1040
32.7250002339408
1040
0.4142135623730951
1040
36.86721142834847
1040
33.25000023394081
1040
0.0
1040
34.94221142834829
1040
33.25000023394076
1040
0.4142135623730892
1040
30.74221142834836
1040
29.05000023394073
1040
0.0
1040
30.74221142834836
1040
21.35000023394082
1040
0.4142135623730969
1040
34.9422114283484
1040
17.1500002339408
1040
0.0
1040
36.86721142834836
1040
17.1500002339408
1040
0.4142135623731526
1040
37.39221142834845
1040
17.67500023394079
1040
0.0
1040
37.39221142834845
1040
19.42500023394081
1040
0.4142135623730891
1040
36.86721142834847
1040
19.9500002339408
1040
0.0
1040
34.9422114283484
1040
19.9500002339408
1040
-0.4142135623730928
1040
33.54221142834842
1040
21.35000023394079
1040
0.0
1071
        0
1071
        7
1070
     1
1070
     1
1071
        2
1040
34.24221142834836
1040
25.2000002339408
1040
1.0
1040
37.74221142834836
1040
25.2000002339408
1040
1.0
1071
        0
1071
        7
1070
     1
1070
     1
1071
       26
1040
47.31485791052636
1040
29.20504742750423
1040
0.0
1040
48.37649754366418
1040
32.56690626577382
1040
0.5069206636600134
1040
47.87586664446883
1040
33.25000023394081
1040
0.0
1040
46.17697726485959
1040
33.25000023394081
1040
0.3272098845218764
1040
45.67634636566424
1040
32.88309420210777
1040
0.0
1040
43.80807649103246
1040
26.96690626577388
1040
-0.3272098845219541
1040
43.30744559183699
1040
26.6000002339408
1040
0.0
1040
43.16721142834853
1040
26.6000002339408
1040
-0.4142135623731526
1040
42.64221142834844
1040
27.12500023394079
1040
0.0
1040
42.64221142834844
1040
32.7250002339408
1040
0.4142135623730951
1040
42.11721142834846
1040
33.25000023394081
1040
0.0
1040
40.36721142834835
1040
33.25000023394081
1040
0.4142135623730871
1040
39.84221142834838
1040
32.72500023394082
1040
0.0
1040
39.84221142834838
1040
17.67500023394079
1040
0.4142135623730891
1040
40.36721142834835
1040
17.1500002339408
1040
0.0
1040
42.11721142834835
1040
17.1500002339408
1040
0.4142135623731526
1040
42.64221142834844
1040
17.67500023394079
1040
0.0
1040
42.64221142834844
1040
23.27500023394081
1040
-0.4142135623731526
1040
43.16721142834853
1040
23.8000002339408
1040
0.0
1040
43.30744559183711
1040
23.8000002339408
1040
-0.3272098845218915
1040
43.80807649103246
1040
23.43309420210772
1040
0.0
1040
45.67634636566424
1040
17.51690626577387
1040
0.3272098845218902
1040
46.17697726485959
1040
17.1500002339408
1040
0.0
1040
47.87586664446883
1040
17.1500002339408
1040
0.5069206636600335
1040
48.37649754366418
1040
17.83309420210781
1040
0.0
1040
46.05010616519052
1040
25.20000023394094
1040
0.0
1071
        0
1071
        7
1070
     1
1070
     1
1071
        8
1040
53.49221142834835
1040
32.72500023394081
1040
0.4142135623731546
1040
52.96721142834826
1040
33.25000023394081
1040
0.0
1040
51.21721142834849
1040
33.25000023394081
1040
0.4142135623731507
1040
50.6922114283484
1040
32.72500023394082
1040
0.0
1040
50.6922114283484
1040
17.67500023394079
1040
0.4142135623731526
1040
51.21721142834849
1040
17.1500002339408
1040
0.0
1040
52.96721142834826
1040
17.1500002339408
1040
0.4142135623731526
1040
53.49221142834835
1040
17.67500023394079
1040
0.0
1071
        0
1071
        7
1070
     1
1070
     1
1071
       24
1040
58.39221142834844
1040
29.92500023394081
1040
-0.4142135623731546
1040
58.91721142834853
1040
30.4500002339408
1040
0.0
1040
61.89221142834845
1040
30.4500002339408
1040
0.4142135623730911
1040
62.41721142834842
1040
30.97500023394079
1040
0.0
1040
62.41721142834842
1040
32.7250002339408
1040
0.4142135623730952
1040
61.89221142834845
1040
33.25000023394081
1040
0.0
1040
58.39221142834844
1040
33.25000023394081
1040
0.4142135623731048
1040
55.59221142834838
1040
30.45000023394083
1040
0.0
1040
55.59221142834838
1040
28.63479820858556
1040
0.1989123673796613
1040
56.82236294736492
1040
25.66494972760201
1040
0.0
1040
59.7321609220096
1040
22.75515175295734
1040
-0.1989123673796402
1040
60.14221142834845
1040
21.76520225929627
1040
0.0
1040
60.14221142834845
1040
20.47500023394079
1040
-0.4142135623730911
1040
59.61721142834846
1040
19.9500002339408
1040
0.0
1040
56.64221142834844
1040
19.9500002339408
1040
0.4142135623731526
1040
56.11721142834835
1040
19.42500023394081
1040
0.0
1040
56.11721142834835
1040
17.67500023394079
1040
0.4142135623730891
1040
56.64221142834833
1040
17.1500002339408
1040
0.0
1040
60.14221142834845
1040
17.1500002339408
1040
0.4142135623730925
1040
62.9422114283484
1040
19.95000023394078
1040
0.0
1040
62.9422114283484
1040
21.76520225929605
1040
0.1989123673796675
1040
61.71205990933185
1040
24.73505074027971
1040
0.0
1040
58.80226193468729
1040
27.64484871492422
1040
-0.1989123673796652
1040
58.39221142834844
1040
28.63479820858539
1040
0.0
1071
        0
1071
        7
1070
     1
1070
     1
1071
       16
1040
67.84221142834837
1040
32.72500023394079
1040
0.414213562373103
1040
67.3172114283484
1040
33.25000023394081
1040
0.0
1040
65.5672114283484
1040
33.25000023394081
1040
0.4142135623730871
1040
65.04221142834842
1040
32.72500023394082
1040
0.0
1040
65.04221142834842
1040
19.95000023394078
1040
0.4142135623730926
1040
67.84221142834837
1040
17.1500002339408
1040
0.0
1040
71.34221142834838
1040
17.1500002339408
1040
0.4142135623731044
1040
74.14221142834844
1040
19.95000023394078
1040
0.0
1040
74.14221142834844
1040
32.7250002339408
1040
0.4142135623730951
1040
73.61721142834847
1040
33.25000023394081
1040
0.0
1040
71.86721142834835
1040
33.25000023394081
1040
0.4142135623730871
1040
71.34221142834838
1040
32.72500023394082
1040
0.0
1040
71.34221142834838
1040
21.00000023394077
1040
-0.414213562373088
1040
70.29221142834842
1040
19.9500002339408
1040
0.0
1040
68.89221142834845
1040
19.9500002339408
1040
-0.4142135623731197
1040
67.84221142834837
1040
21.00000023394077
1040
0.0
1071
        0
1071
        7
1070
     1
1070
     1
1071
        8
1040
79.04221142834842
1040
32.72500023394082
1040
0.4142135623730871
1040
78.51721142834844
1040
33.25000023394081
1040
0.0
1040
76.76721142834844
1040
33.25000023394081
1040
0.4142135623731507
1040
76.24221142834835
1040
32.72500023394082
1040
0.0
1040
76.24221142834835
1040
17.67500023394079
1040
0.4142135623730891
1040
76.76721142834833
1040
17.1500002339408
1040
0.0
1040
78.51721142834844
1040
17.1500002339408
1040
0.4142135623730891
1040
79.04221142834842
1040
17.67500023394079
1040
0.0
1071
        0
1070
     0
1070
     1
1040
0.0
1040
0.2
1070
     0
1070
     2
1040
0.7853981633974483
1040
-890.9423050611117
1040
-3.199999766059136
1040
-0.4490128060534576
1040
0.4490128060534577
1070
     0
1040
2.356194490192344
1040
-890.9423050611117
1040
-3.199999766059136
1040
-0.4490128060534577
1040
-0.4490128060534576
1070
     0
1040
0.057451373970553
1071
        8
1040
26.07985423659056
1040
25.16717387982635
1040
0.0
1040
32.40451428000643
1040
28.84406241639181
1040
0.0
1040
35.16436715922691
1040
25.51188188001152
1040
0.0
1040
40.91405925520439
1040
26.2012978803823
1040
0.0
1040
51.83847129252399
1040
26.66091014792391
1040
0.0
1040
56.8982001686968
1040
29.41857655034801
1040
0.0
1040
66.5576852459676
1040
28.72915814903581
1040
0.0
1040
77.82707889318999
1040
29.18877041657743
1040
0.0
1002
}
  0
ARC
  5
C9A
330
1A
100
AcDbEntity
  8
ZUWAKU
100
AcDbCircle
 10
8.978327127744137
 20
8.388564993792385
 30
0.0
 40
0.1828575
100
AcDbArc
 50
270.0
 51
0.0
  0
LINE
  5
C9B
330
1A
100
AcDbEntity
  8
ZUWAKU
100
AcDbLine
 10
7.759277127744098
 20
7.413324993792627
 30
0.0
 11
7.759277127744098
 21
8.02284999379259
 31
0.0
  0
ARC
  5
C9C
330
1A
100
AcDbEntity
  8
ZUWAKU
100
AcDbCircle
 10
7.942134627743996
 20
7.413324993792627
 30
0.0
 40
0.1828575
100
AcDbArc
 50
180.0
 51
270.0
  0
ARC
  5
C9D
330
1A
100
AcDbEntity
  8
ZUWAKU
100
AcDbCircle
 10
7.942134627743996
 20
8.02284999379259
 30
0.0
 40
0.1828575
100
AcDbArc
 50
90.0
 51
180.0
  0
LINE
  5
C9E
330
1A
100
AcDbEntity
  8
ZUWAKU
100
AcDbLine
 10
7.942134627743996
 20
7.230467493792446
 30
0.0
 11
9.161184627743978
 21
7.230467493792446
 31
0.0
  0
LINE
  5
C9F
330
1A
100
AcDbEntity
  8
ZUWAKU
100
AcDbLine
 10
7.942134627743996
 20
8.205707493792488
 30
0.0
 11
8.978327127744137
 21
8.205707493792488
 31
0.0
  0
LINE
  5
CA0
330
1A
100
AcDbEntity
  8
ZUWAKU
100
AcDbLine
 10
9.953567127744179
 20
12.65523999379235
 30
0.0
 11
9.953567127744179
 21
12.04571499379239
 31
0.0
  0
ARC
  5
CA1
330
1A
100
AcDbEntity
  8
ZUWAKU
100
AcDbCircle
 10
8.551659627744015
 20
11.86285749379249
 30
0.0
 40
0.9752399999999997
100
AcDbArc
 50
90.0
 51
180.0
  0
ARC
  5
CA2
330
1A
100
AcDbEntity
  8
ZUWAKU
100
AcDbCircle
 10
8.734517127744197
 20
11.67999999379259
 30
0.0
 40
0.1828575
100
AcDbArc
 50
90.0
 51
180.0
  0
LINE
  5
CA3
330
1A
100
AcDbEntity
  8
ZUWAKU
100
AcDbLine
 10
8.551659627744015
 20
11.67999999379259
 30
0.0
 11
8.551659627744015
 21
11.23062262836111
 31
0.0
  0
LINE
  5
CA4
330
1A
100
AcDbEntity
  8
ZUWAKU
100
AcDbLine
 10
9.770709627743997
 20
11.86285749379249
 30
0.0
 11
8.734517127744197
 21
11.86285749379249
 31
0.0
  0
LINE
  5
CA5
330
1A
100
AcDbEntity
  8
ZUWAKU
100
AcDbLine
 10
7.576419627743916
 20
11.86285749379249
 30
0.0
 11
7.576419627743916
 21
11.23062262836111
 31
0.0
  0
LINE
  5
CA6
330
1A
100
AcDbEntity
  8
ZUWAKU
100
AcDbLine
 10
9.707962853670608
 20
9.872340585150311
 30
0.0
 11
8.694480219101819
 21
10.88582321971904
 31
0.0
  0
LINE
  5
CA7
330
1A
100
AcDbEntity
  8
ZUWAKU
100
AcDbLine
 10
9.161184627743978
 20
8.388564993792385
 30
0.0
 11
9.161184627743978
 21
8.837942359223859
 31
0.0
  0
ARC
  5
CA8
330
1A
100
AcDbEntity
  8
ZUWAKU
100
AcDbCircle
 10
8.673564627744099
 20
8.837942359223859
 30
0.0
 40
0.4876199999999999
100
AcDbArc
 50
0.0
 51
44.99999999999971
  0
LINE
  5
CA9
330
1A
100
AcDbEntity
  8
ZUWAKU
100
AcDbLine
 10
8.004881401817385
 20
10.19622440243466
 30
0.0
 11
9.018364036386174
 21
9.182741767865877
 31
0.0
  0
ARC
  5
CAA
330
1A
100
AcDbEntity
  8
ZUWAKU
100
AcDbCircle
 10
9.039279627744178
 20
11.23062262836111
 30
0.0
 40
0.4876199999999999
100
AcDbArc
 50
180.0
 51
224.9999999999997
  0
ARC
  5
CAB
330
1A
100
AcDbEntity
  8
ZUWAKU
100
AcDbCircle
 10
9.039279627744178
 20
11.23062262836111
 30
0.0
 40
1.462859999999999
100
AcDbArc
 50
180.0
 51
224.9999999999997
  0
LINE
  5
CAC
330
1A
100
AcDbEntity
  8
ZUWAKU
100
AcDbLine
 10
8.551659627744015
 20
12.83809749379253
 30
0.0
 11
9.770709627743997
 21
12.83809749379253
 31
0.0
  0
LINE
  5
CAD
330
1A
100
AcDbEntity
  8
ZUWAKU
100
AcDbLine
 10
14.03738462774396
 20
12.65523999379235
 30
0.0
 11
14.03738462774396
 21
7.413324993792627
 31
0.0
  0
ARC
  5
CAE
330
1A
100
AcDbEntity
  8
ZUWAKU
100
AcDbCircle
 10
12.3307146277441
 20
8.693327493792367
 30
0.0
 40
0.4876199999999999
100
AcDbArc
 50
180.0
 51
270.0
  0
ARC
  5
CAF
330
1A
100
AcDbEntity
  8
ZUWAKU
100
AcDbCircle
 10
24.64311962774394
 20
8.571422493792567
 30
0.0
 40
0.365715
100
AcDbArc
 50
270.0
 51
0.0
  0
LINE
  5
CB0
330
1A
100
AcDbEntity
  8
ZUWAKU
100
AcDbLine
 10
22.08311462774412
 20
8.205707493792488
 30
0.0
 11
22.08311462774412
 21
8.837942359223859
 31
0.0
  0
ARC
  5
CB1
330
1A
100
AcDbEntity
  8
ZUWAKU
100
AcDbCircle
 10
24.15549962774406
 20
8.571422493792567
 30
0.0
 40
0.365715
100
AcDbArc
 50
180.0
 51
270.0
  0
ARC
  5
CB2
330
1A
100
AcDbEntity
  8
ZUWAKU
100
AcDbCircle
 10
20.92501712774418
 20
8.388564993792385
 30
0.0
 40
0.1828575
100
AcDbArc
 50
270.0
 51
0.0
  0
LINE
  5
CB3
330
1A
100
AcDbEntity
  8
ZUWAKU
100
AcDbLine
 10
17.00987648170849
 20
7.468389122905193
 30
0.0
 11
16.199594364586
 21
10.03428249379249
 31
0.0
  0
LINE
  5
CB4
330
1A
100
AcDbEntity
  8
ZUWAKU
100
AcDbLine
 10
15.01262462774406
 20
7.413324993792627
 30
0.0
 11
15.01262462774406
 21
9.363804993792427
 31
0.0
  0
LINE
  5
CB5
330
1A
100
AcDbEntity
  8
ZUWAKU
100
AcDbLine
 10
16.0694138264111
 20
7.358260864680005
 30
0.0
 11
15.41869542907693
 21
9.41886912290505
 31
0.0
  0
LINE
  5
CB6
330
1A
100
AcDbEntity
  8
ZUWAKU
100
AcDbLine
 10
31.27280720579796
 20
15.18912249379258
 30
0.0
 11
31.2728072057983
 21
5.018762493792621
 31
0.0
  0
LINE
  5
CB7
330
1A
100
AcDbEntity
  8
ZUWAKU
100
AcDbLine
 10
31.34246720579791
 20
15.18912249379258
 30
0.0
 11
31.34246720579824
 21
5.018762493792621
 31
0.0
  0
LINE
  5
CB8
330
1A
100
AcDbEntity
  8
ZUWAKU
100
AcDbLine
 10
31.20314720579802
 20
15.18912249379258
 30
0.0
 11
31.20314720579802
 21
5.018762493792621
 31
0.0
  0
LINE
  5
CB9
330
1A
100
AcDbEntity
  8
ZUWAKU
100
AcDbLine
 10
25.98407462774407
 20
8.205707493792488
 30
0.0
 11
25.98407462774407
 21
12.65523999379235
 31
0.0
  0
LINE
  5
CBA
330
1A
100
AcDbEntity
  8
ZUWAKU
100
AcDbLine
 10
27.69074462774393
 20
7.413324993792627
 30
0.0
 11
27.69074462774393
 21
12.65523999379235
 31
0.0
  0
LINE
  5
CBB
330
1A
100
AcDbEntity
  8
ZUWAKU
100
AcDbLine
 10
26.71550462774417
 20
12.65523999379235
 30
0.0
 11
26.71550462774417
 21
7.413324993792627
 31
0.0
  0
LINE
  5
CBC
330
1A
100
AcDbEntity
  8
ZUWAKU
100
AcDbLine
 10
17.8164396277441
 20
12.65523999379235
 30
0.0
 11
17.8164396277441
 21
7.413324993792627
 31
0.0
  0
LINE
  5
CBD
330
1A
100
AcDbEntity
  8
ZUWAKU
100
AcDbLine
 10
18.7916796277442
 20
7.413324993792627
 30
0.0
 11
18.7916796277442
 21
12.65523999379235
 31
0.0
  0
LINE
  5
CBE
330
1A
100
AcDbEntity
  8
ZUWAKU
100
AcDbLine
 10
22.81454462774394
 20
12.65523999379235
 30
0.0
 11
22.81454462774394
 21
8.205707493792488
 31
0.0
  0
LINE
  5
CBF
330
1A
100
AcDbEntity
  8
ZUWAKU
100
AcDbLine
 10
10.13642462774408
 20
8.205707493792488
 30
0.0
 11
10.13642462774408
 21
8.837942359223859
 31
0.0
  0
ARC
  5
CC0
330
1A
100
AcDbEntity
  8
ZUWAKU
100
AcDbCircle
 10
12.3307146277441
 20
8.693327493792367
 30
0.0
 40
1.462859999999999
100
AcDbArc
 50
180.0
 51
270.0
  0
LINE
  5
CC1
330
1A
100
AcDbEntity
  8
ZUWAKU
100
AcDbLine
 10
19.88882462774404
 20
8.205707493792488
 30
0.0
 11
20.92501712774418
 21
8.205707493792488
 31
0.0
  0
LINE
  5
CC2
330
1A
100
AcDbEntity
  8
ZUWAKU
100
AcDbLine
 10
19.88882462774404
 20
7.230467493792446
 30
0.0
 11
21.10787462774408
 21
7.230467493792446
 31
0.0
  0
LINE
  5
CC3
330
1A
100
AcDbEntity
  8
ZUWAKU
100
AcDbLine
 10
12.3307146277441
 20
8.205707493792488
 30
0.0
 11
13.00119212774416
 21
8.205707493792488
 31
0.0
  0
LINE
  5
CC4
330
1A
100
AcDbEntity
  8
ZUWAKU
100
AcDbLine
 10
13.00119212774416
 20
7.230467493792446
 30
0.0
 11
12.3307146277441
 21
7.230467493792446
 31
0.0
  0
LINE
  5
CC5
330
1A
100
AcDbEntity
  8
ZUWAKU
100
AcDbLine
 10
14.2202421277442
 20
7.230467493792446
 30
0.0
 11
14.82976712774416
 21
7.230467493792446
 31
0.0
  0
LINE
  5
CC6
330
1A
100
AcDbEntity
  8
ZUWAKU
100
AcDbLine
 10
13.18404962774406
 20
8.02284999379259
 30
0.0
 11
13.18404962774406
 21
7.413324993792627
 31
0.0
  0
ARC
  5
CC7
330
1A
100
AcDbEntity
  8
ZUWAKU
100
AcDbCircle
 10
13.00119212774416
 20
7.413324993792627
 30
0.0
 40
0.1828575
100
AcDbArc
 50
270.0
 51
0.0
  0
ARC
  5
CC8
330
1A
100
AcDbEntity
  8
ZUWAKU
100
AcDbCircle
 10
13.00119212774416
 20
8.02284999379259
 30
0.0
 40
0.1828575
100
AcDbArc
 50
0.0
 51
90.0
  0
ARC
  5
CC9
330
1A
100
AcDbEntity
  8
ZUWAKU
100
AcDbCircle
 10
14.2202421277442
 20
7.413324993792627
 30
0.0
 40
0.1828575
100
AcDbArc
 50
180.0
 51
270.0
  0
ARC
  5
CCA
330
1A
100
AcDbEntity
  8
ZUWAKU
100
AcDbCircle
 10
14.82976712774416
 20
7.413324993792627
 30
0.0
 40
0.1828575
100
AcDbArc
 50
270.0
 51
0.0
  0
LINE
  5
CCB
330
1A
100
AcDbEntity
  8
ZUWAKU
100
AcDbLine
 10
17.999297127744
 20
7.230467493792446
 30
0.0
 11
18.60882212774396
 21
7.230467493792446
 31
0.0
  0
ARC
  5
CCC
330
1A
100
AcDbEntity
  8
ZUWAKU
100
AcDbCircle
 10
17.999297127744
 20
7.413324993792627
 30
0.0
 40
0.1828575
100
AcDbArc
 50
180.0
 51
270.0
  0
LINE
  5
CCD
330
1A
100
AcDbEntity
  8
ZUWAKU
100
AcDbLine
 10
16.24378356860109
 20
7.230467493792446
 30
0.0
 11
16.83550673951879
 21
7.230467493792446
 31
0.0
  0
ARC
  5
CCE
330
1A
100
AcDbEntity
  8
ZUWAKU
100
AcDbCircle
 10
16.83550673951879
 20
7.413324993792627
 30
0.0
 40
0.1828575
100
AcDbArc
 50
270.0
 51
17.52556837372012
  0
ARC
  5
CCF
330
1A
100
AcDbEntity
  8
ZUWAKU
100
AcDbCircle
 10
16.24378356860109
 20
7.413324993792627
 30
0.0
 40
0.1828575
100
AcDbArc
 50
197.5255683737199
 51
270.0
  0
LINE
  5
CD0
330
1A
100
AcDbEntity
  8
ZUWAKU
100
AcDbLine
 10
19.7059671277442
 20
7.413324993792627
 30
0.0
 11
19.7059671277442
 21
8.02284999379259
 31
0.0
  0
ARC
  5
CD1
330
1A
100
AcDbEntity
  8
ZUWAKU
100
AcDbCircle
 10
19.88882462774404
 20
7.413324993792627
 30
0.0
 40
0.1828575
100
AcDbArc
 50
180.0
 51
270.0
  0
ARC
  5
CD2
330
1A
100
AcDbEntity
  8
ZUWAKU
100
AcDbCircle
 10
18.60882212774396
 20
7.413324993792627
 30
0.0
 40
0.1828575
100
AcDbArc
 50
270.0
 51
0.0
  0
ARC
  5
CD3
330
1A
100
AcDbEntity
  8
ZUWAKU
100
AcDbCircle
 10
19.88882462774404
 20
8.02284999379259
 30
0.0
 40
0.1828575
100
AcDbArc
 50
90.0
 51
180.0
  0
ARC
  5
CD4
330
1A
100
AcDbEntity
  8
ZUWAKU
100
AcDbCircle
 10
23.78978462774398
 20
8.205707493792488
 30
0.0
 40
0.9752399999999997
100
AcDbArc
 50
180.0
 51
270.0
  0
ARC
  5
CD5
330
1A
100
AcDbEntity
  8
ZUWAKU
100
AcDbCircle
 10
21.10787462774408
 20
8.205707493792488
 30
0.0
 40
0.9752399999999997
100
AcDbArc
 50
270.0
 51
0.0
  0
ARC
  5
CD6
330
1A
100
AcDbEntity
  8
ZUWAKU
100
AcDbCircle
 10
25.00883462774396
 20
8.205707493792488
 30
0.0
 40
0.9752399999999997
100
AcDbArc
 50
270.0
 51
0.0
  0
LINE
  5
CD7
330
1A
100
AcDbEntity
  8
ZUWAKU
100
AcDbLine
 10
24.64311962774394
 20
8.205707493792488
 30
0.0
 11
24.15549962774406
 21
8.205707493792488
 31
0.0
  0
LINE
  5
CD8
330
1A
100
AcDbEntity
  8
ZUWAKU
100
AcDbLine
 10
23.78978462774398
 20
7.230467493792446
 30
0.0
 11
25.00883462774396
 21
7.230467493792446
 31
0.0
  0
ARC
  5
CD9
330
1A
100
AcDbEntity
  8
ZUWAKU
100
AcDbCircle
 10
27.50788712774403
 20
7.413324993792627
 30
0.0
 40
0.1828575
100
AcDbArc
 50
270.0
 51
0.0
  0
ARC
  5
CDA
330
1A
100
AcDbEntity
  8
ZUWAKU
100
AcDbCircle
 10
26.89836212774407
 20
7.413324993792627
 30
0.0
 40
0.1828575
100
AcDbArc
 50
180.0
 51
270.0
  0
LINE
  5
CDB
330
1A
100
AcDbEntity
  8
ZUWAKU
100
AcDbLine
 10
26.89836212774407
 20
7.230467493792446
 30
0.0
 11
27.50788712774403
 21
7.230467493792446
 31
0.0
  0
LINE
  5
CDC
330
1A
100
AcDbEntity
  8
ZUWAKU
100
AcDbLine
 10
20.49834962774406
 20
12.83809749379253
 30
0.0
 11
21.71739962774404
 21
12.83809749379253
 31
0.0
  0
LINE
  5
CDD
330
1A
100
AcDbEntity
  8
ZUWAKU
100
AcDbLine
 10
21.71739962774404
 20
11.86285749379249
 30
0.0
 11
20.68120712774391
 21
11.86285749379249
 31
0.0
  0
LINE
  5
CDE
330
1A
100
AcDbEntity
  8
ZUWAKU
100
AcDbLine
 10
19.95157140181743
 20
10.19622440243466
 30
0.0
 11
20.96505403638622
 21
9.182741767865877
 31
0.0
  0
LINE
  5
CDF
330
1A
100
AcDbEntity
  8
ZUWAKU
100
AcDbLine
 10
21.65465285367066
 20
9.872340585150311
 30
0.0
 11
20.64117021910186
 21
10.88582321971904
 31
0.0
  0
ARC
  5
CE0
330
1A
100
AcDbEntity
  8
ZUWAKU
100
AcDbCircle
 10
15.24432568688729
 20
10.70475999379255
 30
0.0
 40
0.1828575
100
AcDbArc
 50
270.0
 51
342.4744316262799
  0
ARC
  5
CE1
330
1A
100
AcDbEntity
  8
ZUWAKU
100
AcDbCircle
 10
15.24432568688729
 20
9.363804993792427
 30
0.0
 40
0.1828575
100
AcDbArc
 50
17.52556837372012
 51
90.0
  0
LINE
  5
CE2
330
1A
100
AcDbEntity
  8
ZUWAKU
100
AcDbLine
 10
16.0694138264111
 20
12.71030412290497
 30
0.0
 11
15.41869542907693
 21
10.64969586467992
 31
0.0
  0
LINE
  5
CE3
330
1A
100
AcDbEntity
  8
ZUWAKU
100
AcDbLine
 10
13.18404962774406
 20
12.65523999379235
 30
0.0
 11
13.18404962774406
 21
12.04571499379239
 31
0.0
  0
LINE
  5
CE4
330
1A
100
AcDbEntity
  8
ZUWAKU
100
AcDbLine
 10
15.01262462774406
 20
10.70475999379255
 30
0.0
 11
15.01262462774406
 21
12.65523999379235
 31
0.0
  0
ARC
  5
CE5
330
1A
100
AcDbEntity
  8
ZUWAKU
100
AcDbCircle
 10
12.3307146277441
 20
11.37523749379261
 30
0.0
 40
1.462859999999999
100
AcDbArc
 50
90.0
 51
180.0
  0
LINE
  5
CE6
330
1A
100
AcDbEntity
  8
ZUWAKU
100
AcDbLine
 10
13.00119212774416
 20
11.86285749379249
 30
0.0
 11
12.3307146277441
 21
11.86285749379249
 31
0.0
  0
CIRCLE
  5
CE7
330
1A
100
AcDbEntity
  8
ZUWAKU
100
AcDbCircle
 10
12.69642962774418
 20
10.03428249379249
 30
0.0
 40
0.609525
  0
ARC
  5
CE8
330
1A
100
AcDbEntity
  8
ZUWAKU
100
AcDbCircle
 10
12.3307146277441
 20
11.37523749379261
 30
0.0
 40
0.4876199999999999
100
AcDbArc
 50
90.0
 51
180.0
  0
LINE
  5
CE9
330
1A
100
AcDbEntity
  8
ZUWAKU
100
AcDbLine
 10
11.84309462774393
 20
11.37523749379261
 30
0.0
 11
11.84309462774393
 21
8.693327493792367
 31
0.0
  0
LINE
  5
CEA
330
1A
100
AcDbEntity
  8
ZUWAKU
100
AcDbLine
 10
10.86785462774418
 20
8.693327493792367
 30
0.0
 11
10.86785462774418
 21
11.37523749379261
 31
0.0
  0
ARC
  5
CEB
330
1A
100
AcDbEntity
  8
ZUWAKU
100
AcDbCircle
 10
13.00119212774416
 20
12.04571499379239
 30
0.0
 40
0.1828575
100
AcDbArc
 50
270.0
 51
0.0
  0
LINE
  5
CEC
330
1A
100
AcDbEntity
  8
ZUWAKU
100
AcDbLine
 10
15.24432568688729
 20
10.52190249379236
 30
0.0
 11
15.1954821277439
 21
10.52190249379236
 31
0.0
  0
LINE
  5
CED
330
1A
100
AcDbEntity
  8
ZUWAKU
100
AcDbLine
 10
15.1954821277439
 20
9.546662493792609
 30
0.0
 11
15.24432568688729
 21
9.546662493792609
 31
0.0
  0
ARC
  5
CEE
330
1A
100
AcDbEntity
  8
ZUWAKU
100
AcDbCircle
 10
15.1954821277439
 20
10.70475999379255
 30
0.0
 40
0.1828575
100
AcDbArc
 50
180.0
 51
270.0
  0
ARC
  5
CEF
330
1A
100
AcDbEntity
  8
ZUWAKU
100
AcDbCircle
 10
15.1954821277439
 20
9.363804993792427
 30
0.0
 40
0.1828575
100
AcDbArc
 50
90.0
 51
180.0
  0
LINE
  5
CF0
330
1A
100
AcDbEntity
  8
ZUWAKU
100
AcDbLine
 10
12.3307146277441
 20
12.83809749379253
 30
0.0
 11
13.00119212774416
 21
12.83809749379253
 31
0.0
  0
LINE
  5
CF1
330
1A
100
AcDbEntity
  8
ZUWAKU
100
AcDbLine
 10
14.82976712774416
 20
12.83809749379253
 30
0.0
 11
14.2202421277442
 21
12.83809749379253
 31
0.0
  0
ARC
  5
CF2
330
1A
100
AcDbEntity
  8
ZUWAKU
100
AcDbCircle
 10
13.00119212774416
 20
12.65523999379235
 30
0.0
 40
0.1828575
100
AcDbArc
 50
0.0
 51
90.0
  0
ARC
  5
CF3
330
1A
100
AcDbEntity
  8
ZUWAKU
100
AcDbCircle
 10
14.2202421277442
 20
12.65523999379235
 30
0.0
 40
0.1828575
100
AcDbArc
 50
90.0
 51
180.0
  0
ARC
  5
CF4
330
1A
100
AcDbEntity
  8
ZUWAKU
100
AcDbCircle
 10
14.82976712774416
 20
12.65523999379235
 30
0.0
 40
0.1828575
100
AcDbArc
 50
0.0
 51
90.0
  0
ARC
  5
CF5
330
1A
100
AcDbEntity
  8
ZUWAKU
100
AcDbCircle
 10
20.49834962774406
 20
11.86285749379249
 30
0.0
 40
0.9752399999999997
100
AcDbArc
 50
90.0
 51
180.0
  0
LINE
  5
CF6
330
1A
100
AcDbEntity
  8
ZUWAKU
100
AcDbLine
 10
17.00987648170849
 20
12.60017586468007
 30
0.0
 11
16.64010739748653
 21
11.42924043131074
 31
0.0
  0
LINE
  5
CF7
330
1A
100
AcDbEntity
  8
ZUWAKU
100
AcDbLine
 10
16.64010739748653
 20
11.42924043131074
 30
0.0
 11
16.199594364586
 21
10.03428249379249
 31
0.0
  0
ARC
  5
CF8
330
1A
100
AcDbEntity
  8
ZUWAKU
100
AcDbCircle
 10
20.68120712774391
 20
11.67999999379259
 30
0.0
 40
0.1828575
100
AcDbArc
 50
90.0
 51
180.0
  0
LINE
  5
CF9
330
1A
100
AcDbEntity
  8
ZUWAKU
100
AcDbLine
 10
20.49834962774406
 20
11.67999999379259
 30
0.0
 11
20.49834962774406
 21
11.23062262836111
 31
0.0
  0
LINE
  5
CFA
330
1A
100
AcDbEntity
  8
ZUWAKU
100
AcDbLine
 10
19.52310962774396
 20
11.86285749379249
 30
0.0
 11
19.52310962774396
 21
11.23062262836111
 31
0.0
  0
ARC
  5
CFB
330
1A
100
AcDbEntity
  8
ZUWAKU
100
AcDbCircle
 10
20.98596962774394
 20
11.23062262836111
 30
0.0
 40
0.4876199999999999
100
AcDbArc
 50
180.0
 51
224.9999999999997
  0
ARC
  5
CFC
330
1A
100
AcDbEntity
  8
ZUWAKU
100
AcDbCircle
 10
20.98596962774394
 20
11.23062262836111
 30
0.0
 40
1.462859999999999
100
AcDbArc
 50
180.0
 51
224.9999999999997
  0
LINE
  5
CFD
330
1A
100
AcDbEntity
  8
ZUWAKU
100
AcDbLine
 10
18.60882212774396
 20
12.83809749379253
 30
0.0
 11
17.999297127744
 21
12.83809749379253
 31
0.0
  0
ARC
  5
CFE
330
1A
100
AcDbEntity
  8
ZUWAKU
100
AcDbCircle
 10
17.999297127744
 20
12.65523999379235
 30
0.0
 40
0.1828575
100
AcDbArc
 50
90.0
 51
180.0
  0
LINE
  5
CFF
330
1A
100
AcDbEntity
  8
ZUWAKU
100
AcDbLine
 10
16.24378356860109
 20
12.83809749379253
 30
0.0
 11
16.83550673951879
 21
12.83809749379253
 31
0.0
  0
ARC
  5
D00
330
1A
100
AcDbEntity
  8
ZUWAKU
100
AcDbCircle
 10
16.83550673951879
 20
12.65523999379235
 30
0.0
 40
0.1828575
100
AcDbArc
 50
342.4744316262799
 51
90.0
  0
ARC
  5
D01
330
1A
100
AcDbEntity
  8
ZUWAKU
100
AcDbCircle
 10
16.24378356860109
 20
12.65523999379235
 30
0.0
 40
0.1828575
100
AcDbArc
 50
90.0
 51
162.4744316262798
  0
ARC
  5
D02
330
1A
100
AcDbEntity
  8
ZUWAKU
100
AcDbCircle
 10
18.60882212774396
 20
12.65523999379235
 30
0.0
 40
0.1828575
100
AcDbArc
 50
0.0
 51
90.0
  0
LINE
  5
D03
330
1A
100
AcDbEntity
  8
ZUWAKU
100
AcDbLine
 10
21.90025712774394
 20
12.65523999379235
 30
0.0
 11
21.90025712774394
 21
12.04571499379239
 31
0.0
  0
LINE
  5
D04
330
1A
100
AcDbEntity
  8
ZUWAKU
100
AcDbLine
 10
25.00883462774396
 20
12.65523999379235
 30
0.0
 11
25.00883462774396
 21
8.571422493792567
 31
0.0
  0
LINE
  5
D05
330
1A
100
AcDbEntity
  8
ZUWAKU
100
AcDbLine
 10
23.78978462774398
 20
8.571422493792567
 30
0.0
 11
23.78978462774398
 21
12.65523999379235
 31
0.0
  0
ARC
  5
D06
330
1A
100
AcDbEntity
  8
ZUWAKU
100
AcDbCircle
 10
21.71739962774404
 20
12.04571499379239
 30
0.0
 40
0.1828575
100
AcDbArc
 50
270.0
 51
0.0
  0
ARC
  5
D07
330
1A
100
AcDbEntity
  8
ZUWAKU
100
AcDbCircle
 10
20.6202546277442
 20
8.837942359223859
 30
0.0
 40
1.462859999999999
100
AcDbArc
 50
0.0
 51
44.99999999999971
  0
LINE
  5
D08
330
1A
100
AcDbEntity
  8
ZUWAKU
100
AcDbLine
 10
21.10787462774408
 20
8.388564993792385
 30
0.0
 11
21.10787462774408
 21
8.837942359223859
 31
0.0
  0
ARC
  5
D09
330
1A
100
AcDbEntity
  8
ZUWAKU
100
AcDbCircle
 10
20.6202546277442
 20
8.837942359223859
 30
0.0
 40
0.4876199999999999
100
AcDbArc
 50
0.0
 51
44.99999999999971
  0
ARC
  5
D0A
330
1A
100
AcDbEntity
  8
ZUWAKU
100
AcDbCircle
 10
23.60692712774414
 20
12.65523999379235
 30
0.0
 40
0.1828575
100
AcDbArc
 50
0.0
 51
90.0
  0
ARC
  5
D0B
330
1A
100
AcDbEntity
  8
ZUWAKU
100
AcDbCircle
 10
22.99740212774413
 20
12.65523999379235
 30
0.0
 40
0.1828575
100
AcDbArc
 50
90.0
 51
180.0
  0
LINE
  5
D0C
330
1A
100
AcDbEntity
  8
ZUWAKU
100
AcDbLine
 10
23.60692712774414
 20
12.83809749379253
 30
0.0
 11
22.99740212774413
 21
12.83809749379253
 31
0.0
  0
ARC
  5
D0D
330
1A
100
AcDbEntity
  8
ZUWAKU
100
AcDbCircle
 10
21.71739962774404
 20
12.65523999379235
 30
0.0
 40
0.1828575
100
AcDbArc
 50
0.0
 51
90.0
  0
ARC
  5
D0E
330
1A
100
AcDbEntity
  8
ZUWAKU
100
AcDbCircle
 10
25.80121712774417
 20
12.65523999379235
 30
0.0
 40
0.1828575
100
AcDbArc
 50
0.0
 51
90.0
  0
LINE
  5
D0F
330
1A
100
AcDbEntity
  8
ZUWAKU
100
AcDbLine
 10
25.80121712774417
 20
12.83809749379253
 30
0.0
 11
25.1916921277442
 21
12.83809749379253
 31
0.0
  0
ARC
  5
D10
330
1A
100
AcDbEntity
  8
ZUWAKU
100
AcDbCircle
 10
25.1916921277442
 20
12.65523999379235
 30
0.0
 40
0.1828575
100
AcDbArc
 50
90.0
 51
180.0
  0
ARC
  5
D11
330
1A
100
AcDbEntity
  8
ZUWAKU
100
AcDbCircle
 10
27.50788712774403
 20
12.65523999379235
 30
0.0
 40
0.1828575
100
AcDbArc
 50
0.0
 51
90.0
  0
ARC
  5
D12
330
1A
100
AcDbEntity
  8
ZUWAKU
100
AcDbCircle
 10
26.89836212774407
 20
12.65523999379235
 30
0.0
 40
0.1828575
100
AcDbArc
 50
90.0
 51
180.0
  0
LINE
  5
D13
330
1A
100
AcDbEntity
  8
ZUWAKU
100
AcDbLine
 10
27.50788712774403
 20
12.83809749379253
 30
0.0
 11
26.89836212774407
 21
12.83809749379253
 31
0.0
  0
LINE
  5
D14
330
1A
100
AcDbEntity
  8
ZUWAKU
100
AcDbLine
 10
76.17563336356432
 20
15.18912249379258
 30
0.0
 11
76.17563336356432
 21
5.018762493792621
 31
0.0
  0
LINE
  5
D15
330
1A
100
AcDbEntity
  8
ZUWAKU
100
AcDbLine
 10
76.31495336356454
 20
15.18912249379258
 30
0.0
 11
76.31495336356454
 21
5.018762493792621
 31
0.0
  0
LINE
  5
D16
330
1A
100
AcDbEntity
  8
ZUWAKU
100
AcDbLine
 10
76.24529336356426
 20
15.18912249379258
 30
0.0
 11
76.24529336356426
 21
5.018762493792621
 31
0.0
  0
TEXT
  5
D17
330
1A
100
AcDbEntity
  8
ZUWAKU
100
AcDbText
 10
76.69022746479988
 20
8.103083176112249
 30
0.0
 40
1.3932
  1
サイズ
 41
0.9
  7
MSPｺﾞｼｯｸ
100
AcDbText
  0
TEXT
  5
D18
330
1A
100
AcDbEntity
  8
ZUWAKU
100
AcDbText
 10
76.69022746479988
 20
13.11860317611212
 30
0.0
 40
1.3932
  1
品名
 41
0.9
  7
MSPｺﾞｼｯｸ
100
AcDbText
  0
LINE
  5
D71
330
1A
100
AcDbEntity
  8
ZUWAKU
100
AcDbLine
 10
179.6042163534364
 20
10.03428249379249
 30
0.0
 11
196.0884808275707
 21
10.03428249379249
 31
0.0
  0
LINE
  5
D72
330
1A
100
AcDbEntity
  8
ZUWAKU
100
AcDbLine
 10
179.6042163534364
 20
10.10394249379243
 30
0.0
 11
196.0884808275707
 21
10.10394249379243
 31
0.0
  0
LINE
  5
D73
330
1A
100
AcDbEntity
  8
ZUWAKU
100
AcDbLine
 10
179.6042163534364
 20
10.17360249379265
 30
0.0
 11
196.0884808275707
 21
10.17360249379265
 31
0.0
  0
LINE
  5
D74
330
1A
100
AcDbEntity
  8
ZUWAKU
100
AcDbLine
 10
159.5509081053299
 20
15.18912249379258
 30
0.0
 11
159.5509081053299
 21
5.018762493792621
 31
0.0
  0
LINE
  5
D75
330
1A
100
AcDbEntity
  8
ZUWAKU
100
AcDbLine
 10
159.6205681053302
 20
15.18912249379258
 30
0.0
 11
159.6205681053302
 21
5.018762493792621
 31
0.0
  0
LINE
  5
D76
330
1A
100
AcDbEntity
  8
ZUWAKU
100
AcDbLine
 10
159.48124810533
 20
15.18912249379258
 30
0.0
 11
159.48124810533
 21
5.018762493792621
 31
0.0
  0
LINE
  5
D77
330
1A
100
AcDbEntity
  8
ZUWAKU
100
AcDbLine
 10
179.534556353436
 20
15.18912249379258
 30
0.0
 11
179.534556353436
 21
5.018762493792621
 31
0.0
  0
LINE
  5
D78
330
1A
100
AcDbEntity
  8
ZUWAKU
100
AcDbLine
 10
179.6042163534364
 20
15.18912249379258
 30
0.0
 11
179.6042163534364
 21
5.018762493792621
 31
0.0
  0
LINE
  5
D79
330
1A
100
AcDbEntity
  8
ZUWAKU
100
AcDbLine
 10
179.4648963534362
 20
15.18912249379258
 30
0.0
 11
179.4648963534362
 21
5.018762493792621
 31
0.0
  0
TEXT
  5
D7A
330
1A
100
AcDbEntity
  8
ZUWAKU
100
AcDbText
 10
180.1188104546719
 20
8.103083176112249
 30
0.0
 40
1.3932
  1
縮尺
 41
0.9
  7
MSPｺﾞｼｯｸ
100
AcDbText
  0
TEXT
  5
D7B
330
1A
100
AcDbEntity
  8
ZUWAKU
100
AcDbText
 10
164.7995793188468
 20
5.6506033921425
 30
0.0
 40
1.044899999999999
  1
□には色品番が入ります
 41
0.9
  7
MSPｺﾞｼｯｸ
100
AcDbText
  0
TEXT
  5
D7C
330
1A
100
AcDbEntity
  8
ZUWAKU
100
AcDbText
 10
160.1351622065657
 20
13.11860317611212
 30
0.0
 40
1.3932
  1
品番
 41
0.9
  7
MSPｺﾞｼｯｸ
100
AcDbText
  0
TEXT
  5
D7D
330
1A
100
AcDbEntity
  8
ZUWAKU
100
AcDbText
 10
180.1188104546719
 20
13.11860317611212
 30
0.0
 40
1.3932
  1
用紙
 41
0.9
  7
MSPｺﾞｼｯｸ
100
AcDbText
  0
LINE
  5
D7E
330
1A
100
AcDbEntity
  8
ZUWAKU
100
AcDbLine
 10
196.1581408275706
 20
15.18912249379258
 30
0.0
 11
196.1581408275706
 21
5.018762493792621
 31
0.0
  0
LINE
  5
D7F
330
1A
100
AcDbEntity
  8
ZUWAKU
100
AcDbLine
 10
196.2278008275708
 20
15.18912249379258
 30
0.0
 11
196.2278008275708
 21
5.018762493792621
 31
0.0
  0
LINE
  5
D80
330
1A
100
AcDbEntity
  8
ZUWAKU
100
AcDbLine
 10
196.0884808275707
 20
15.18912249379258
 30
0.0
 11
196.0884808275707
 21
5.018762493792621
 31
0.0
  0
TEXT
  5
D81
330
1A
100
AcDbEntity
  8
MOJI
100
AcDbText
 10
187.5599903809905
 20
5.856396498087349
 30
0.0
 40
1.950479999999999
  1
１/１
 41
0.9
  7
MSPｺﾞｼｯｸ
100
AcDbText
  0
TEXT
  5
D82
330
1A
100
AcDbEntity
  8
MOJI
100
AcDbText
 10
187.5599903809905
 20
11.01123649808738
 30
0.0
 40
1.950479999999999
  1
Ａ４
 41
0.9
  7
MSPｺﾞｼｯｸ
100
AcDbText
  0
TEXT
  5
D8E
330
1A
100
AcDbEntity
  8
ZUWAKU
100
AcDbText
 10
250.4236738583923
 20
9.086647394151668
 30
0.0
 40
2.089799999999999
  1
積水化学工業株式会社
 41
0.9
  7
MSPｺﾞｼｯｸ
100
AcDbText
  0
LINE
  5
D90
330
1A
100
AcDbEntity
  8
ZUWAKU
100
AcDbLine
 10
229.5567137685379
 20
15.18912249379258
 30
0.0
 11
229.5567137685382
 21
5.018762493792621
 31
0.0
  0
LINE
  5
D91
330
1A
100
AcDbEntity
  8
ZUWAKU
100
AcDbLine
 10
229.6263737685379
 20
15.18912249379258
 30
0.0
 11
229.6263737685381
 21
5.018762493792621
 31
0.0
  0
LINE
  5
D92
330
1A
100
AcDbEntity
  8
ZUWAKU
100
AcDbLine
 10
229.4870537685379
 20
15.18912249379258
 30
0.0
 11
229.4870537685379
 21
5.018762493792621
 31
0.0
  0
LINE
  5
D93
330
1A
100
AcDbEntity
  8
ZUWAKU
100
AcDbLine
 10
246.4951725082907
 20
15.18912249379258
 30
0.0
 11
246.4951725082907
 21
5.018762493792621
 31
0.0
  0
LINE
  5
D94
330
1A
100
AcDbEntity
  8
ZUWAKU
100
AcDbLine
 10
246.5648325082906
 20
15.18912249379258
 30
0.0
 11
246.5648325082906
 21
5.018762493792621
 31
0.0
  0
LINE
  5
D95
330
1A
100
AcDbEntity
  8
ZUWAKU
100
AcDbLine
 10
246.6344925082906
 20
15.18912249379258
 30
0.0
 11
246.6344925082908
 21
5.018762493792621
 31
0.0
  0
LINE
  5
D96
330
1A
100
AcDbEntity
  8
ZUWAKU
100
AcDbLine
 10
246.7041525082905
 20
15.18912249379258
 30
0.0
 11
246.7041525082908
 21
5.018762493792621
 31
0.0
  0
LINE
  5
D97
330
1A
100
AcDbEntity
  8
ZUWAKU
100
AcDbLine
 10
229.6263737685379
 20
10.03428249379249
 30
0.0
 11
246.4951725082907
 21
10.03428249379249
 31
0.0
  0
LINE
  5
D98
330
1A
100
AcDbEntity
  8
ZUWAKU
100
AcDbLine
 10
229.6263737685379
 20
10.10394249379243
 30
0.0
 11
246.4951725082907
 21
10.10394249379243
 31
0.0
  0
LINE
  5
D99
330
1A
100
AcDbEntity
  8
ZUWAKU
100
AcDbLine
 10
229.6263737685379
 20
10.17360249379265
 30
0.0
 11
246.4951725082907
 21
10.17360249379265
 31
0.0
  0
TEXT
  5
D9A
330
1A
100
AcDbEntity
  8
ZUWAKU
100
AcDbText
 10
232.8957736307212
 20
11.01123649808738
 30
0.0
 40
1.950479999999999
  1
　　．　　．　　
 41
0.9
  7
MSPｺﾞｼｯｸ
100
AcDbText
  0
TEXT
  5
D9B
330
1A
100
AcDbEntity
  8
ZUWAKU
100
AcDbText
 10
230.1409678697737
 20
13.11860317611212
 30
0.0
 40
1.3932
  1
DATE
 41
0.9
  7
MSPｺﾞｼｯｸ
100
AcDbText
  0
TEXT
  5
26A7
330
1A
100
AcDbEntity
  8
MOJI
100
AcDbText
 10
36.02054024779318
 20
9.177874836567127
 30
0.0
 40
2.089799999999999
  1
ユニシェイプ
 41
0.9
  7
MSPｺﾞｼｯｸ
100
AcDbText
  0
TEXT
  5
2727
330
1A
100
AcDbEntity
  8
MOJI
100
AcDbText
 10
83.53064042530823
 20
6.571080727650041
 30
0.0
 40
2.089799999999999
  1
ＵＳＴ１４０－３６００
 41
0.9
  7
MSPｺﾞｼｯｸ
100
AcDbText
  0
TEXT
  5
272D
330
1A
100
AcDbEntity
  8
MOJI
100
AcDbText
 10
83.53064042530823
 20
11.55799111119899
 30
0.0
 40
2.089799999999999
  1
のきとい
 41
0.9
  7
MSPｺﾞｼｯｸ
100
AcDbText
  0
MTEXT
  5
272E
330
1A
100
AcDbEntity
  8
SUNPOU
 62
     4
100
AcDbMText
 10
251.2066578926213
 20
25.89455811225054
 30
0.0
 40
3.0
 41
0.0
 71
     5
 72
     5
  1
Ｌ＝３，６００
 73
     1
 44
1.0
1001
ACAD
1000
MTEXTBEGIN
1070
    73
1070
     1
1070
    44
1040
1.0
1070
    74
1070
     0
1000
MTEXTEND
  0
TEXT
  5
273E
330
1A
100
AcDbEntity
  8
MOJI
100
AcDbText
 10
163.4155632245494
 20
9.141938154807917
 30
0.0
 40
1.950479999999999
  1
ＣＨ０１□
 41
0.9
  7
MSPｺﾞｼｯｸ
100
AcDbText
  0
LINE
  5
29E8
330
1A
100
AcDbEntity
  8
SEIHIN
  6
Continuous
 62
     3
100
AcDbLine
 10
207.9855705713525
 20
108.9153361055416
 30
0.0
 11
198.6958731942174
 21
49.97779863327237
 31
0.0
  0
LINE
  5
29E9
330
1A
100
AcDbEntity
  8
SEIHIN
  6
Continuous
 62
     3
100
AcDbLine
 10
200.200098191777
 20
49.24484200002298
 30
0.0
 11
209.5660583059151
 21
108.6662206285119
 31
0.0
  0
ARC
  5
29EA
330
1A
100
AcDbEntity
  8
SEIHIN
  6
Continuous
 62
     3
100
AcDbCircle
 10
1078.854249613329
 20
163.9963710878439
 30
0.0
 40
1000.000000000736
100
AcDbArc
 50
180.0795916737998
 51
185.9063572242705
  0
ARC
  5
29EB
330
1A
100
AcDbEntity
  8
SEIHIN
  6
Continuous
 62
     3
100
AcDbCircle
 10
1078.854249613329
 20
163.9963710878439
 30
0.0
 40
998.4000000000001
100
AcDbArc
 50
182.4109906480892
 51
185.241055061297
  0
ARC
  5
29EC
330
1A
100
AcDbEntity
  8
SEIHIN
  6
Continuous
 62
     3
100
AcDbCircle
 10
98.24063123851875
 20
67.21363825269746
 30
0.0
 40
2.000000000000012
100
AcDbArc
 50
4.999749144099371
 51
75.51309319945748
  0
ARC
  5
29ED
330
1A
100
AcDbEntity
  8
SEIHIN
  6
Continuous
 62
     3
100
AcDbCircle
 10
98.33972418572137
 20
59.19637108784446
 30
0.0
 40
1.000000000000007
100
AcDbArc
 50
4.999749144099371
 51
90.0
  0
ARC
  5
29EE
330
1A
100
AcDbEntity
  8
SEIHIN
  6
Continuous
 62
     3
100
AcDbCircle
 10
1078.854249613329
 20
163.9963710878439
 30
0.0
 40
998.4000000000001
100
AcDbArc
 50
185.3325301949839
 51
185.8753038897096
  0
LINE
  5
29EF
330
1A
100
AcDbEntity
  8
SEIHIN
  6
Continuous
 62
     3
100
AcDbLine
 10
84.77523149471636
 20
71.20916433856345
 30
0.0
 11
98.70792491558734
 21
67.60932146148421
 31
0.0
  0
ARC
  5
29F0
330
1A
100
AcDbEntity
  8
SEIHIN
  6
Continuous
 62
     3
100
AcDbCircle
 10
85.1575353179316
 20
61.19637108784444
 30
0.0
 40
1.000000000000155
100
AcDbArc
 50
185.9063572242705
 51
270.0
  0
LINE
  5
29F1
330
1A
100
AcDbEntity
  8
SEIHIN
  6
Continuous
 62
     3
100
AcDbLine
 10
85.1575353179316
 20
60.19637108784445
 30
0.0
 11
98.33972418572137
 21
60.19637108784445
 31
0.0
  0
LINE
  5
29F2
330
1A
100
AcDbEntity
  8
SEIHIN
  6
Continuous
 62
     3
100
AcDbLine
 10
99.21646652950734
 20
61.79637108784453
 30
0.0
 11
85.69881364169896
 21
61.79637108784445
 31
0.0
  0
LINE
  5
29F3
330
1A
100
AcDbEntity
  8
SEIHIN
  6
Continuous
 62
     3
100
AcDbLine
 10
98.70792491558734
 20
67.60932146148421
 30
0.0
 11
99.21646652950734
 21
61.79637108784453
 31
0.0
  0
LINE
  5
29F4
330
1A
100
AcDbEntity
  8
SEIHIN
  6
Continuous
 62
     3
100
AcDbLine
 10
98.74094875244281
 20
69.15004791629162
 30
0.0
 11
84.6283597874812
 21
72.79637108784442
 31
0.0
  0
ARC
  5
29F5
330
1A
100
AcDbEntity
  8
SEIHIN
  6
Continuous
 62
     3
100
AcDbCircle
 10
150.0660593870091
 20
1043.996371087844
 30
0.0
 40
998.3999999999999
100
AcDbArc
 50
267.343129159301
 51
272.5751779642457
  0
ARC
  5
29F6
330
1A
100
AcDbEntity
  8
SEIHIN
  6
Continuous
 62
     3
100
AcDbCircle
 10
150.0660593870091
 20
1043.996371087844
 30
0.0
 40
1000.0
100
AcDbArc
 50
267.2627870055298
 51
272.6033918042183
  0
LINE
  5
29F7
330
1A
100
AcDbEntity
  8
SEIHIN
  6
Continuous
 62
     3
100
AcDbLine
 10
101.8860182823615
 20
48.49314736517226
 30
0.0
 11
100.2330213978644
 21
67.3879410149895
 31
0.0
  0
LINE
  5
29F8
330
1A
100
AcDbEntity
  8
SEIHIN
  6
Continuous
 62
     3
100
AcDbLine
 10
99.33591926539419
 20
59.28352246899047
 30
0.0
 11
100.4139706535023
 21
46.96071731839263
 31
0.0
  0
ARC
  5
29F9
330
1A
100
AcDbEntity
  8
SEIHIN
  6
Continuous
 62
     3
100
AcDbCircle
 10
103.878408441707
 20
48.66745012746427
 30
0.0
 40
1.999999999999942
100
AcDbArc
 50
184.9997491441001
 51
267.343129159301
  0
ARC
  5
29FA
330
1A
100
AcDbEntity
  8
SEIHIN
  6
Continuous
 62
     3
100
AcDbCircle
 10
102.406360812848
 20
47.13502008068466
 30
0.0
 40
2.000000000000289
100
AcDbArc
 50
184.9997491441001
 51
267.2627870055292
  0
ARC
  5
29FB
330
1A
100
AcDbEntity
  8
SEIHIN
  6
Continuous
 62
     3
100
AcDbCircle
 10
195.2610740212674
 20
50.023327865741
 30
0.0
 40
4.999999999999973
100
AcDbArc
 50
272.6033918042197
 51
351.0427677630344
  0
ARC
  5
29FC
330
1A
100
AcDbEntity
  8
SEIHIN
  6
Continuous
 62
     3
100
AcDbCircle
 10
194.7446538578098
 20
50.60058732584678
 30
0.0
 40
4.000000000000015
100
AcDbArc
 50
272.5751779642457
 51
351.0427677630336
  0
LINE
  5
29FD
330
1A
100
AcDbEntity
  8
SEIHIN
  6
Continuous
 62
     3
100
AcDbLine
 10
99.28164337020479
 20
154.8403787033663
 30
0.0
 11
85.64055273378835
 21
157.8243672800824
 31
0.0
  0
ARC
  5
29FE
330
1A
100
AcDbEntity
  8
SEIHIN
  6
Continuous
 62
     3
100
AcDbCircle
 10
95.85424961259395
 20
150.9963710878436
 30
0.0
 40
4.999999999999985
100
AcDbArc
 50
270.0
 51
0.0
  0
ARC
  5
29FF
330
1A
100
AcDbEntity
  8
SEIHIN
  6
Continuous
 62
     3
100
AcDbCircle
 10
98.85424961259388
 20
152.7842140476103
 30
0.0
 40
0.5
100
AcDbArc
 50
0.0
 51
77.66091272167438
  0
ARC
  5
2A00
330
1A
100
AcDbEntity
  8
SEIHIN
  6
Continuous
 62
     3
100
AcDbCircle
 10
95.85424961259395
 20
150.9963710878436
 30
0.0
 40
3.499999999999985
100
AcDbArc
 50
270.0
 51
0.0
  0
ARC
  5
2A01
330
1A
100
AcDbEntity
  8
SEIHIN
  6
Continuous
 62
     3
100
AcDbCircle
 10
87.64604242300505
 20
144.4963710878437
 30
0.0
 40
7.000000000000182
100
AcDbArc
 50
90.0
 51
181.1270322308449
  0
ARC
  5
2A02
330
1A
100
AcDbEntity
  8
SEIHIN
  6
Continuous
 62
     3
100
AcDbCircle
 10
93.42654962071032
 20
150.4963710878437
 30
0.0
 40
1.000000000000003
100
AcDbArc
 50
340.0168934781003
 51
90.0
  0
ARC
  5
2A03
330
1A
100
AcDbEntity
  8
SEIHIN
  6
Continuous
 62
     3
100
AcDbCircle
 10
93.28377962152194
 20
150.3963710878436
 30
0.0
 40
2.600000000000022
100
AcDbArc
 50
340.016893478101
 51
90.0
  0
ARC
  5
2A04
330
1A
100
AcDbEntity
  8
SEIHIN
  6
Continuous
 62
     3
100
AcDbCircle
 10
87.64604242300505
 20
144.4963710878437
 30
0.0
 40
8.500000000000023
100
AcDbArc
 50
90.0
 51
146.427622000871
  0
ARC
  5
2A05
330
1A
100
AcDbEntity
  8
SEIHIN
  6
Continuous
 62
     3
100
AcDbCircle
 10
1078.854249613329
 20
163.9963710878439
 30
0.0
 40
998.3999999999998
100
AcDbArc
 50
180.1673696882635
 51
180.849343795958
  0
LINE
  5
2A06
330
1A
100
AcDbEntity
  8
SEIHIN
  6
Continuous
 62
     3
100
AcDbLine
 10
97.85424961259394
 20
131.9466301854649
 30
0.0
 11
97.85424961259394
 21
134.3963710878437
 31
0.0
  0
ARC
  5
2A07
330
1A
100
AcDbEntity
  8
SEIHIN
  6
Continuous
 62
     3
100
AcDbCircle
 10
87.67668731611058
 20
142.9963710878436
 30
0.0
 40
8.500000000000021
100
AcDbArc
 50
215.9131497548171
 51
270.0
  0
LINE
  5
2A08
330
1A
100
AcDbEntity
  8
SEIHIN
  6
Continuous
 62
     3
100
AcDbLine
 10
96.35424961259396
 20
131.8872389918636
 30
0.0
 11
96.35424961259396
 21
134.4963710878436
 31
0.0
  0
ARC
  5
2A09
330
1A
100
AcDbEntity
  8
SEIHIN
  6
Continuous
 62
     3
100
AcDbCircle
 10
1078.854249613329
 20
163.9963710878439
 30
0.0
 40
998.3999999999999
100
AcDbArc
 50
181.4914279597331
 51
182.3150327430782
  0
LINE
  5
2A0A
330
1A
100
AcDbEntity
  8
SEIHIN
  6
Continuous
 62
     3
100
AcDbLine
 10
81.33805425608148
 20
121.9963710878441
 30
0.0
 11
97.0198338143092
 21
130.5416814924217
 31
0.0
  0
LINE
  5
2A0B
330
1A
100
AcDbEntity
  8
SEIHIN
  6
Continuous
 62
     3
100
AcDbLine
 10
81.26911243337843
 20
123.6670507655604
 30
0.0
 11
96.35424961259396
 21
131.8872389918636
 31
0.0
  0
ARC
  5
2A0C
330
1A
100
AcDbEntity
  8
SEIHIN
  6
Continuous
 62
     3
100
AcDbCircle
 10
96.25424961259392
 20
131.9466301854649
 30
0.0
 40
1.600000000000008
100
AcDbArc
 50
298.5868361218863
 51
0.0
  0
ARC
  5
2A0D
330
1A
100
AcDbEntity
  8
SEIHIN
  6
Continuous
 62
     3
100
AcDbCircle
 10
87.67668731611058
 20
142.9963710878436
 30
0.0
 40
7.000000000000047
100
AcDbArc
 50
181.2137395248452
 51
270.0
  0
LINE
  5
2A0E
330
1A
100
AcDbEntity
  8
SEIHIN
  6
Continuous
 62
     3
100
AcDbLine
 10
96.25424961259392
 20
135.9963710878437
 30
0.0
 11
87.67668731611058
 21
135.9963710878437
 31
0.0
  0
LINE
  5
2A0F
330
1A
100
AcDbEntity
  8
SEIHIN
  6
Continuous
 62
     3
100
AcDbLine
 10
96.35424961259396
 20
134.4963710878436
 30
0.0
 11
87.67668731611058
 21
134.4963710878436
 31
0.0
  0
ARC
  5
2A10
330
1A
100
AcDbEntity
  8
SEIHIN
  6
Continuous
 62
     3
100
AcDbCircle
 10
96.25424961259392
 20
134.3963710878437
 30
0.0
 40
1.600000000000008
100
AcDbArc
 50
0.0
 51
90.0
  0
ARC
  5
2A11
330
1A
100
AcDbEntity
  8
SEIHIN
  6
Continuous
 62
     3
100
AcDbCircle
 10
1078.854249613329
 20
163.9963710878439
 30
0.0
 40
998.4000000007354
100
AcDbArc
 50
181.1270322308457
 51
181.2137395248452
  0
ARC
  5
2A12
330
1A
100
AcDbEntity
  8
SEIHIN
  6
Continuous
 62
     3
100
AcDbCircle
 10
93.56809960853571
 20
146.4963710878437
 30
0.0
 40
0.5
100
AcDbArc
 50
160.0168934780994
 51
270.0
  0
LINE
  5
2A13
330
1A
100
AcDbEntity
  8
SEIHIN
  6
Continuous
 62
     3
100
AcDbLine
 10
93.56809960853571
 20
145.9963710878436
 30
0.0
 11
95.85424961259395
 21
145.9963710878436
 31
0.0
  0
LINE
  5
2A14
330
1A
100
AcDbEntity
  8
SEIHIN
  6
Continuous
 62
     3
100
AcDbLine
 10
94.36634304419873
 20
150.1546280247569
 30
0.0
 11
93.09820289679151
 21
146.667242619387
 31
0.0
  0
ARC
  5
2A15
330
1A
100
AcDbEntity
  8
SEIHIN
  6
Continuous
 62
     3
100
AcDbCircle
 10
95.70964959636114
 20
147.9963710878436
 30
0.0
 40
0.5
100
AcDbArc
 50
160.0168934780994
 51
270.0
  0
LINE
  5
2A16
330
1A
100
AcDbEntity
  8
SEIHIN
  6
Continuous
 62
     3
100
AcDbLine
 10
95.7272425225919
 20
149.5078391238182
 30
0.0
 11
95.2397528846169
 21
148.167242619387
 31
0.0
  0
LINE
  5
2A17
330
1A
100
AcDbEntity
  8
SEIHIN
  6
Continuous
 62
     3
100
AcDbLine
 10
95.70964959636114
 20
147.4963710878436
 30
0.0
 11
95.85424961259395
 21
147.4963710878436
 31
0.0
  0
ARC
  5
2A18
330
1A
100
AcDbEntity
  8
SEIHIN
  6
Continuous
 62
     3
100
AcDbCircle
 10
85.85424961259377
 20
158.8012672974787
 30
0.0
 40
1.00000000000001
100
AcDbArc
 50
180.0
 51
257.6609127216745
  0
LINE
  5
2A19
330
1A
100
AcDbEntity
  8
SEIHIN
  6
Continuous
 62
     3
100
AcDbLine
 10
83.25424961259381
 20
157.5134333620628
 30
0.0
 11
83.25424961259381
 21
160.4827767257259
 31
0.0
  0
LINE
  5
2A1A
330
1A
100
AcDbEntity
  8
SEIHIN
  6
Continuous
 62
     3
100
AcDbLine
 10
87.64604242300505
 20
151.4963710878437
 30
0.0
 11
93.42654962071032
 21
151.4963710878437
 31
0.0
  0
LINE
  5
2A1B
330
1A
100
AcDbEntity
  8
SEIHIN
  6
Continuous
 62
     3
100
AcDbLine
 10
88.85424961259372
 20
155.4835371524279
 30
0.0
 11
84.04055273378839
 21
156.5365333446665
 31
0.0
  0
LINE
  5
2A1C
330
1A
100
AcDbEntity
  8
SEIHIN
  6
Continuous
 62
     3
100
AcDbLine
 10
87.64604242300505
 20
152.9963710878436
 30
0.0
 11
88.85424961259372
 21
152.9963710878436
 31
0.0
  0
ARC
  5
2A1D
330
1A
100
AcDbEntity
  8
SEIHIN
  6
Continuous
 62
     3
100
AcDbCircle
 10
84.25424961259381
 20
157.5134333620628
 30
0.0
 40
1.0
100
AcDbArc
 50
180.0
 51
257.6609127216744
  0
LINE
  5
2A1E
330
1A
100
AcDbEntity
  8
SEIHIN
  6
Continuous
 62
     3
100
AcDbLine
 10
98.9610980519966
 20
153.2726640563085
 30
0.0
 11
90.35424961259371
 21
155.1554121524279
 31
0.0
  0
LINE
  5
2A1F
330
1A
100
AcDbEntity
  8
SEIHIN
  6
Continuous
 62
     3
100
AcDbLine
 10
90.35424961259371
 20
152.9963710878436
 30
0.0
 11
90.35424961259371
 21
155.1554121524279
 31
0.0
  0
LINE
  5
2A20
330
1A
100
AcDbEntity
  8
SEIHIN
  6
Continuous
 62
     3
100
AcDbLine
 10
88.85424961259372
 20
155.4835371524279
 30
0.0
 11
88.85424961259372
 21
152.9963710878436
 31
0.0
  0
LINE
  5
2A21
330
1A
100
AcDbEntity
  8
SEIHIN
  6
Continuous
 62
     3
100
AcDbLine
 10
90.35424961259371
 20
152.9963710878436
 30
0.0
 11
93.28377962152194
 21
152.9963710878436
 31
0.0
  0
LINE
  5
2A22
330
1A
100
AcDbEntity
  8
SEIHIN
  6
Continuous
 62
     3
100
AcDbLine
 10
84.51236349560224
 20
162.1103331268409
 30
0.0
 11
80.17144126408124
 21
163.5573072040146
 31
0.0
  0
ARC
  5
2A23
330
1A
100
AcDbEntity
  8
SEIHIN
  6
Continuous
 62
     3
100
AcDbCircle
 10
79.85521349806436
 20
162.608623905964
 30
0.0
 40
1.000000000000119
100
AcDbArc
 50
71.56505117707877
 51
180.0795916738006
  0
LINE
  5
2A24
330
1A
100
AcDbEntity
  8
SEIHIN
  6
Continuous
 62
     3
100
AcDbLine
 10
82.91236349560222
 20
160.9571183747511
 30
0.0
 11
81.11662109840279
 21
161.5556991738176
 31
0.0
  0
ARC
  5
2A25
330
1A
100
AcDbEntity
  8
SEIHIN
  6
Continuous
 62
     3
100
AcDbCircle
 10
80.95850721539433
 20
161.0813575247923
 30
0.0
 40
0.5000000000000031
100
AcDbArc
 50
71.5650511770789
 51
180.1673696882659
  0
LINE
  5
2A26
330
1A
100
AcDbEntity
  8
SEIHIN
  6
Continuous
 62
     3
100
AcDbLine
 10
84.85424961259377
 20
158.8012672974787
 30
0.0
 11
84.85424961259377
 21
161.6359914778157
 31
0.0
  0
ARC
  5
2A27
330
1A
100
AcDbEntity
  8
SEIHIN
  6
Continuous
 62
     3
100
AcDbCircle
 10
84.35424961259377
 20
161.6359914778157
 30
0.0
 40
0.5000000000000077
100
AcDbArc
 50
0.0
 51
71.56505117707877
  0
ARC
  5
2A28
330
1A
100
AcDbEntity
  8
SEIHIN
  6
Continuous
 62
     3
100
AcDbCircle
 10
82.7542496125938
 20
160.4827767257259
 30
0.0
 40
0.5
100
AcDbArc
 50
0.0
 51
71.5650511770789
  0
LINE
  5
2A29
330
1A
100
AcDbEntity
  8
SEIHIN
  6
Continuous
 62
     3
100
AcDbLine
 10
201.6316820356641
 20
128.3267215125726
 30
0.0
 11
194.8660593870092
 21
108.9963710878452
 31
0.0
  0
LINE
  5
2A2A
330
1A
100
AcDbEntity
  8
SEIHIN
  6
Continuous
 62
     3
100
AcDbLine
 10
209.8660593870087
 20
112.4963710878445
 30
0.0
 11
209.8660593870093
 21
123.9963710878445
 31
0.0
  0
LINE
  5
2A2B
330
1A
100
AcDbEntity
  8
SEIHIN
  6
Continuous
 62
     3
100
AcDbLine
 10
208.2660593870092
 20
114.5346230204832
 30
0.0
 11
208.2660593870092
 21
123.9963710878445
 31
0.0
  0
LINE
  5
2A2C
330
1A
100
AcDbEntity
  8
SEIHIN
  6
Continuous
 62
     3
100
AcDbLine
 10
202.8952808945405
 20
127.3963710878446
 30
0.0
 11
196.9802808945405
 21
110.4963710878452
 31
0.0
  0
ARC
  5
2A2D
330
1A
100
AcDbEntity
  8
SEIHIN
  6
Continuous
 62
     3
100
AcDbCircle
 10
185.2660593870084
 20
112.4963710878445
 30
0.0
 40
23.00000000000074
100
AcDbArc
 50
351.0427677630336
 51
0.0
  0
LINE
  5
2A2E
330
1A
100
AcDbEntity
  8
SEIHIN
  6
Continuous
 62
     3
100
AcDbLine
 10
202.8660593870093
 20
108.9963710878452
 30
0.0
 11
203.8660593870093
 21
111.9963710878452
 31
0.0
  0
ARC
  5
2A2F
330
1A
100
AcDbEntity
  8
SEIHIN
  6
Continuous
 62
     3
100
AcDbCircle
 10
185.2660593870083
 20
112.4963710878445
 30
0.0
 40
24.60000000000039
100
AcDbArc
 50
351.0427677630336
 51
0.0
  0
LINE
  5
2A30
330
1A
100
AcDbEntity
  8
SEIHIN
  6
Continuous
 62
     3
100
AcDbLine
 10
194.8660593870092
 20
108.9963710878452
 30
0.0
 11
202.8660593870093
 21
108.9963710878452
 31
0.0
  0
LINE
  5
2A31
330
1A
100
AcDbEntity
  8
SEIHIN
  6
Continuous
 62
     3
100
AcDbLine
 10
196.9802808945405
 20
110.4963710878452
 30
0.0
 11
201.784920556925
 21
110.4963710878452
 31
0.0
  0
LINE
  5
2A32
330
1A
100
AcDbEntity
  8
SEIHIN
  6
Continuous
 62
     3
100
AcDbLine
 10
202.7100983990171
 20
113.2719046141213
 30
0.0
 11
208.2660593870092
 21
114.5346230204832
 31
0.0
  0
LINE
  5
2A33
330
1A
100
AcDbEntity
  8
SEIHIN
  6
Continuous
 62
     3
100
AcDbLine
 10
203.8660593870093
 20
111.9963710878452
 30
0.0
 11
208.2660593870092
 21
112.9963710878452
 31
0.0
  0
LINE
  5
2A34
330
1A
100
AcDbEntity
  8
SEIHIN
  6
Continuous
 62
     3
100
AcDbLine
 10
201.784920556925
 20
110.4963710878452
 30
0.0
 11
202.7100983990171
 21
113.2719046141213
 31
0.0
  0
LINE
  5
2A35
330
1A
100
AcDbEntity
  8
SEIHIN
  6
Continuous
 62
     3
100
AcDbLine
 10
208.2660593870092
 20
112.9963710878452
 30
0.0
 11
208.2660593870091
 21
112.4963710878445
 31
0.0
  0
ARC
  5
2A36
330
1A
100
AcDbEntity
  8
SEIHIN
  6
Continuous
 62
     3
100
AcDbCircle
 10
204.8660593870093
 20
123.9963710878445
 30
0.0
 40
5.000000000000028
100
AcDbArc
 50
0.0
 51
90.0
  0
ARC
  5
2A37
330
1A
100
AcDbEntity
  8
SEIHIN
  6
Continuous
 62
     3
100
AcDbCircle
 10
204.8660593870093
 20
123.9963710878445
 30
0.0
 40
3.400000000000034
100
AcDbArc
 50
0.0
 51
90.0
  0
LINE
  5
2A38
330
1A
100
AcDbEntity
  8
SEIHIN
  6
Continuous
 62
     3
100
AcDbLine
 10
204.8660593870093
 20
128.9963710878445
 30
0.0
 11
202.5755403920301
 21
128.9963710878445
 31
0.0
  0
LINE
  5
2A39
330
1A
100
AcDbEntity
  8
SEIHIN
  6
Continuous
 62
     3
100
AcDbLine
 10
204.8660593870093
 20
127.3963710878445
 30
0.0
 11
202.8952808945405
 21
127.3963710878446
 31
0.0
  0
ARC
  5
2A3A
330
1A
100
AcDbEntity
  8
SEIHIN
  6
Continuous
 62
     3
100
AcDbCircle
 10
202.5755403920301
 20
127.9963710878445
 30
0.0
 40
1.000000000000013
100
AcDbArc
 50
90.0
 51
160.7099537808126
  0
ARC
  5
2A3B
330
1A
100
AcDbEntity
  8
SEIHIN
  6
Continuous
 62
     3
100
AcDbCircle
 10
98.85424961259388
 20
152.8865786685739
 30
0.0
 40
2.0
100
AcDbArc
 50
0.0
 51
77.66091272167438
  0
LINE
  5
2A3C
330
1A
100
AcDbEntity
  8
SEIHIN
  6
Continuous
 62
     3
100
AcDbLine
 10
100.8542496125939
 20
150.9963710878436
 30
0.0
 11
100.8542496125939
 21
152.8865786685738
 31
0.0
  0
LINE
  5
2A3D
330
1A
100
AcDbEntity
  8
SEIHIN
  6
Continuous
 62
     3
100
AcDbLine
 10
99.35424961259389
 20
150.9963710878436
 30
0.0
 11
99.35424961259389
 21
152.7842140476103
 31
0.0
  0
DIMENSION
  5
2AB4
330
1A
100
AcDbEntity
  8
SUNPOU
100
AcDbDimension
  2
*D2
 10
46.52619513436978
 20
43.99705297808615
 30
0.0
 11
43.52619513436978
 21
103.7771800910504
 31
0.0
 70
    32
 71
     5
 42
-1.0
  3
STANDARD
100
AcDbAlignedDimension
 13
80.17144126408123
 23
163.5573072040146
 33
0.0
 14
150.0660593870089
 24
43.99705297808611
 34
0.0
 50
90.0
100
AcDbRotatedDimension
  0
DIMENSION
  5
2AC1
330
1A
100
AcDbEntity
  8
SUNPOU
100
AcDbDimension
  2
*D3
 10
54.89019382589537
 20
60.19637108784446
 30
0.0
 11
51.89019382589536
 21
111.9024974969043
 31
0.0
 70
    32
 71
     5
 42
-1.0
  3
STANDARD
100
AcDbAlignedDimension
 13
79.85521349806436
 23
163.6086239059641
 33
0.0
 14
85.1575353179316
 24
60.19637108784445
 34
0.0
 50
90.0
100
AcDbRotatedDimension
  0
DIMENSION
  5
2ACE
330
1A
100
AcDbEntity
  8
SUNPOU
100
AcDbDimension
  2
*D4
 10
209.8660593870093
 20
182.4655142963035
 30
0.0
 11
144.3606369249619
 21
185.4655142963036
 31
0.0
 70
    32
 71
     5
 42
-1.0
  3
STANDARD
100
AcDbAlignedDimension
 13
78.85521446291455
 23
162.6072347696328
 33
0.0
 14
209.8660593870093
 24
123.9963710878445
 34
0.0
100
AcDbRotatedDimension
  0
DIMENSION
  5
2ADB
330
1A
100
AcDbEntity
  8
SUNPOU
100
AcDbDimension
  2
*D5
 10
100.8542496125939
 20
175.1331039973773
 30
0.0
 11
89.85473203775422
 21
178.1331039973773
 31
0.0
 70
    32
 71
     5
 42
-1.0
  3
STANDARD
100
AcDbAlignedDimension
 13
78.85521446291455
 23
162.6072347696328
 33
0.0
 14
100.8542496125939
 24
152.8865786685738
 34
0.0
100
AcDbRotatedDimension
  0
DIMENSION
  5
2AE8
330
1A
100
AcDbEntity
  8
SUNPOU
100
AcDbDimension
  2
*D6
 10
194.8660593870092
 20
146.8698931868458
 30
0.0
 11
202.3660593870093
 21
149.8698931868458
 31
0.0
 70
    32
 71
     5
 42
-1.0
  3
STANDARD
100
AcDbAlignedDimension
 13
209.8660593870093
 23
123.9963710878445
 33
0.0
 14
194.8660593870092
 24
108.9963710878452
 34
0.0
100
AcDbRotatedDimension
  0
DIMENSION
  5
2AF5
330
1A
100
AcDbEntity
  8
SUNPOU
100
AcDbDimension
  2
*D7
 10
178.2676130045167
 20
108.9963710878452
 30
0.0
 11
175.2676130045167
 21
118.9963710878449
 31
0.0
 70
    32
 71
     5
 42
-1.0
  3
STANDARD
100
AcDbAlignedDimension
 13
202.5755403920301
 23
128.9963710878445
 33
0.0
 14
194.8660593870092
 24
108.9963710878452
 34
0.0
 50
90.0
100
AcDbRotatedDimension
  0
DIMENSION
  5
2B02
330
1A
100
AcDbEntity
  8
SUNPOU
100
AcDbDimension
  2
*D8
 10
100.5660593870092
 20
28.2795988918844
 30
0.0
 11
150.0660593870092
 21
31.27959889188441
 31
0.0
 70
    32
 71
     5
 42
-1.0
  3
STANDARD
100
AcDbAlignedDimension
 13
199.5660593870093
 23
45.22224747430186
 33
0.0
 14
100.5660593870092
 24
45.22224747430186
 34
0.0
100
AcDbRotatedDimension
  0
LINE
  5
2B0F
330
1A
100
AcDbEntity
  8
SEIHIN
  6
Continuous
 62
     3
100
AcDbLine
 10
204.8660593870093
 20
128.7963710878445
 30
0.0
 11
202.5755403920301
 21
128.7963710878445
 31
0.0
  0
ARC
  5
2B10
330
1A
100
AcDbEntity
  8
SEIHIN
  6
Continuous
 62
     3
100
AcDbCircle
 10
204.8660593870093
 20
123.9963710878445
 30
0.0
 40
4.800000000000028
100
AcDbArc
 50
0.0
 51
90.0
  0
LINE
  5
2B11
330
1A
100
AcDbEntity
  8
SEIHIN
  6
Continuous
 62
     3
100
AcDbLine
 10
209.6660593870087
 20
112.4963710878445
 30
0.0
 11
209.6660593870093
 21
123.9963710878445
 31
0.0
  0
ARC
  5
2B12
330
1A
100
AcDbEntity
  8
SEIHIN
  6
Continuous
 62
     3
100
AcDbCircle
 10
202.4902525236355
 20
127.7845102921407
 30
0.0
 40
1.015448812288253
100
AcDbArc
 50
85.18203328732587
 51
147.7264463795326
  0
ARC
  5
2B13
330
1A
100
AcDbEntity
  8
SEIHIN
  6
Continuous
 62
     3
100
AcDbCircle
 10
185.2660593870083
 20
112.4963710878445
 30
0.0
 40
24.40000000000039
100
AcDbArc
 50
351.0427677630336
 51
0.0
  0
LINE
  5
2B14
330
1A
100
AcDbEntity
  8
SEIHIN
  6
Continuous
 62
     3
100
AcDbLine
 10
200.0025372249566
 20
49.27598143465171
 30
0.0
 11
209.3684973390947
 21
108.6973600631406
 31
0.0
  0
ARC
  5
2B15
330
1A
100
AcDbEntity
  8
SEIHIN
  6
Continuous
 62
     3
100
AcDbCircle
 10
195.2610740212674
 20
50.023327865741
 30
0.0
 40
4.799999999999973
100
AcDbArc
 50
272.6033918042197
 51
351.0427677630344
  0
ARC
  5
2B16
330
1A
100
AcDbEntity
  8
SEIHIN
  6
Continuous
 62
     3
100
AcDbCircle
 10
150.0660593870091
 20
1043.996371087844
 30
0.0
 40
999.8000000000002
100
AcDbArc
 50
267.2627870055292
 51
272.6033918042197
  0
ARC
  5
2B17
330
1A
100
AcDbEntity
  8
SEIHIN
  6
Continuous
 62
     3
100
AcDbCircle
 10
102.406360812848
 20
47.13502008068466
 30
0.0
 40
1.800000000000289
100
AcDbArc
 50
184.9997491441001
 51
267.2627870055292
  0
LINE
  5
2B18
330
1A
100
AcDbEntity
  8
SEIHIN
  6
Continuous
 62
     3
100
AcDbLine
 10
99.53515828132875
 20
59.30095274521967
 30
0.0
 11
100.6132096694369
 21
46.97814759462184
 31
0.0
  0
ARC
  5
2B19
330
1A
100
AcDbEntity
  8
SEIHIN
  6
Continuous
 62
     3
100
AcDbCircle
 10
98.33972418572137
 20
59.19637108784446
 30
0.0
 40
1.200000000000007
100
AcDbArc
 50
4.999749144099371
 51
90.0
  0
LINE
  5
2B1A
330
1A
100
AcDbEntity
  8
SEIHIN
  6
Continuous
 62
     3
100
AcDbLine
 10
85.1575353179316
 20
60.39637108784446
 30
0.0
 11
98.33972418572137
 21
60.39637108784446
 31
0.0
  0
ARC
  5
2B1B
330
1A
100
AcDbEntity
  8
SEIHIN
  6
Continuous
 62
     3
100
AcDbCircle
 10
85.1575353179316
 20
61.19637108784444
 30
0.0
 40
0.8000000000001556
100
AcDbArc
 50
185.9063572242705
 51
270.0
  0
ARC
  5
2B1C
330
1A
100
AcDbEntity
  8
SEIHIN
  6
Continuous
 62
     3
100
AcDbCircle
 10
1078.854249613329
 20
163.9963710878439
 30
0.0
 40
999.800000000736
100
AcDbArc
 50
180.0795916737998
 51
185.9063572242705
  0
LINE
  5
2B1D
330
1A
100
AcDbEntity
  8
SEIHIN
  6
Continuous
 62
     3
100
AcDbLine
 10
99.23890399444371
 20
154.6449986998871
 30
0.0
 11
85.59781335802727
 21
157.6289872766032
 31
0.0
  0
ARC
  5
2B1E
330
1A
100
AcDbEntity
  8
SEIHIN
  6
Continuous
 62
     3
100
AcDbCircle
 10
85.85424961259377
 20
158.8012672974787
 30
0.0
 40
1.20000000000001
100
AcDbArc
 50
180.0
 51
257.6609127216745
  0
LINE
  5
2B1F
330
1A
100
AcDbEntity
  8
SEIHIN
  6
Continuous
 62
     3
100
AcDbLine
 10
84.65424961259378
 20
158.8012672974787
 30
0.0
 11
84.65424961259378
 21
161.6359914778157
 31
0.0
  0
ARC
  5
2B20
330
1A
100
AcDbEntity
  8
SEIHIN
  6
Continuous
 62
     3
100
AcDbCircle
 10
84.35424961259377
 20
161.6359914778157
 30
0.0
 40
0.3000000000000076
100
AcDbArc
 50
0.0
 51
71.56505117707877
  0
LINE
  5
2B21
330
1A
100
AcDbEntity
  8
SEIHIN
  6
Continuous
 62
     3
100
AcDbLine
 10
84.44911794239887
 20
161.9205964672308
 30
0.0
 11
80.10819571087786
 21
163.3675705444045
 31
0.0
  0
ARC
  5
2B22
330
1A
100
AcDbEntity
  8
SEIHIN
  6
Continuous
 62
     3
100
AcDbCircle
 10
79.85521349806436
 20
162.608623905964
 30
0.0
 40
0.8000000000001193
100
AcDbArc
 50
71.56505117707877
 51
180.0795916738006
  0
ARC
  5
2B23
330
1A
100
AcDbEntity
  8
SEIHIN
  6
Continuous
 62
     3
100
AcDbCircle
 10
98.87367772600597
 20
152.6883229185694
 30
0.0
 40
1.990469879287869
100
AcDbArc
 50
5.716280370792045
 51
79.42703903833358
  0
LINE
  5
2B25
330
1A
100
AcDbEntity
  8
SUNPOU
100
AcDbLine
 10
82.67941883693618
 20
97.37605491009176
 30
0.0
 11
81.0828992657489
 21
97.27057077763994
 31
0.0
  0
DIMENSION
  5
2B26
330
1A
100
AcDbEntity
  8
SUNPOU
100
AcDbDimension
  2
*D9
 10
81.0829062212432
 20
97.27046550509768
 30
0.0
 11
69.41014280163186
 21
99.50577178160287
 31
0.0
 70
    33
  1
t<>
 71
     5
 42
-1.0
  3
STANDARD
100
AcDbAlignedDimension
 13
82.67941883693607
 23
97.37605491009171
 33
0.0
 14
81.08289926574888
 24
97.27057077763989
 34
0.0
1001
ACAD
1000
DSTYLE
1002
{
1070
   271
1070
     1
1002
}
  0
LINE
  5
2B48
330
1A
100
AcDbEntity
  8
CENTER L
 48
0.3
100
AcDbLine
 10
150.0660593870089
 20
37.70659085561351
 30
0.0
 11
150.0660593870089
 21
54.40119379093573
 31
0.0
  0
DIMENSION
  5
2B49
330
1A
100
AcDbEntity
  8
SUNPOU
100
AcDbDimension
  2
*D10
 10
226.2809722974561
 20
43.99705297808609
 30
0.0
 11
223.2809722974562
 21
86.49671203296536
 31
0.0
 70
    32
 71
     5
 42
-1.0
  3
STANDARD
100
AcDbAlignedDimension
 13
204.8660593870093
 23
128.9963710878445
 33
0.0
 14
150.0660593870089
 24
43.99705297808611
 34
0.0
 50
90.0
100
AcDbRotatedDimension
  0
VIEWPORT
  5
22
102
{ACAD_XDICTIONARY
360
2E2A
102
}
330
17
100
AcDbEntity
 67
     1
  8
0
100
AcDbViewport
 10
313.6808219178083
 20
148.5
 30
0.0
 40
627.3616438356165
 41
297.0
 68
     2
 69
     1
 12
313.6808219178083
 22
148.5
 13
0.0
 23
0.0
 14
1.0
 24
1.0
 15
10.0
 25
10.0
 16
0.0
 26
0.0
 36
1.0
 17
0.0
 27
0.0
 37
0.0
 42
50.0
 43
0.0
 44
0.0
 45
297.0
 50
0.0
 51
0.0
 72
   100
 90
    32768
  1

281
     0
 71
     1
 74
     0
110
0.0
120
0.0
130
0.0
111
1.0
121
0.0
131
0.0
112
0.0
122
1.0
132
0.0
 79
     0
146
0.0
  0
VIEWPORT
  5
64
102
{ACAD_XDICTIONARY
360
2E2C
102
}
330
17
100
AcDbEntity
 67
     1
  8
VIEWPORT
100
AcDbViewport
 10
210.0
 20
148.5
 30
0.0
 40
420.0
 41
297.0
 68
     1
 69
     2
 12
148.5
 22
105.0
 13
0.0
 23
0.0
 14
4.0
 24
4.0
 15
0.0
 25
0.0
 16
0.0
 26
0.0
 36
1.0
 17
0.0
 27
0.0
 37
0.0
 42
50.0
 43
0.0
 44
0.0
 45
214.2
 50
0.0
 51
0.0
 72
   100
 90
    32768
  1

281
     0
 71
     1
 74
     0
110
0.0
120
0.0
130
0.0
111
1.0
121
0.0
131
0.0
112
0.0
122
1.0
132
0.0
 79
     0
146
0.0
  0
ENDSEC
  0
SECTION
  2
OBJECTS
  0
DICTIONARY
  5
C
330
0
100
AcDbDictionary
281
     1
  3
ACAD_COLOR
350
2DD4
  3
ACAD_GROUP
350
D
  3
ACAD_LAYOUT
350
116
  3
ACAD_MATERIAL
350
2DA2
  3
ACAD_MLEADERSTYLE
350
2DE9
  3
ACAD_MLINESTYLE
350
E
  3
ACAD_PLOTSETTINGS
350
117
  3
ACAD_PLOTSTYLENAME
350
114
  3
ACAD_SCALELIST
350
2DD7
  3
ACAD_TABLESTYLE
350
2DD5
  3
ACAD_VISUALSTYLE
350
2DBB
  3
ACDB_RECOMPOSE_DATA
350
2E26
  3
ACDBHEADERROUNDTRIPXREC
350
2E7C
  3
AcDbVariableDictionary
350
2E13
  3
DWGPROPS
350
2E7B
  0
DICTIONARY
  5
2E28
330
8
100
AcDbDictionary
280
     1
281
     1
  3
ACAD_XREC_ROUNDTRIP
360
2E29
  0
DICTIONARY
  5
2E0B
330
2
100
AcDbDictionary
280
     1
281
     1
  3
ACAD_LAYERSTATES
360
2E0C
  0
DICTIONARY
  5
2DF2
330
F
100
AcDbDictionary
280
     1
281
     1
  3
ADSK_XREC_LAYER_RECONCILED
360
2DF3
  0
DICTIONARY
  5
2DF4
330
62
100
AcDbDictionary
280
     1
281
     1
  3
ADSK_XREC_LAYER_RECONCILED
360
2DF5
  0
DICTIONARY
  5
2DF6
330
325
100
AcDbDictionary
280
     1
281
     1
  3
ADSK_XREC_LAYER_RECONCILED
360
2DF7
  0
DICTIONARY
  5
2DF8
330
326
100
AcDbDictionary
280
     1
281
     1
  3
ADSK_XREC_LAYER_RECONCILED
360
2DF9
  0
DICTIONARY
  5
2DFA
330
327
100
AcDbDictionary
280
     1
281
     1
  3
ADSK_XREC_LAYER_RECONCILED
360
2DFB
  0
DICTIONARY
  5
2DFC
330
328
100
AcDbDictionary
280
     1
281
     1
  3
ADSK_XREC_LAYER_RECONCILED
360
2DFD
  0
DICTIONARY
  5
2DFE
330
329
100
AcDbDictionary
280
     1
281
     1
  3
ADSK_XREC_LAYER_RECONCILED
360
2DFF
  0
DICTIONARY
  5
1325
330
1A
100
AcDbDictionary
280
     1
281
     1
  3
ACAD_LAYOUTSELFREF
360
2D7F
  0
DICTIONARY
  5
1323
330
17
100
AcDbDictionary
280
     1
281
     1
  3
ACAD_LAYOUTSELFREF
360
2D7E
  0
DICTIONARY
  5
2E2A
330
22
100
AcDbDictionary
280
     1
281
     1
  3
ACAD_XREC_ROUNDTRIP
360
2E2B
  0
DICTIONARY
  5
2E2C
330
64
100
AcDbDictionary
280
     1
281
     1
  3
ACAD_XREC_ROUNDTRIP
360
2E2D
  0
DICTIONARY
  5
2DD4
102
{ACAD_REACTORS
330
C
102
}
330
C
100
AcDbDictionary
281
     1
  0
DICTIONARY
  5
D
102
{ACAD_REACTORS
330
C
102
}
330
C
100
AcDbDictionary
281
     1
  0
DICTIONARY
  5
116
102
{ACAD_REACTORS
330
C
102
}
330
C
100
AcDbDictionary
281
     1
  3
Model
350
118
  3
ﾚｲｱｳﾄ1
350
119
  0
DICTIONARY
  5
2DA2
102
{ACAD_REACTORS
330
C
102
}
330
C
100
AcDbDictionary
281
     1
  3
ByBlock
350
2DAB
  3
ByLayer
350
2DA3
  3
Global
350
2DB3
  0
DICTIONARY
  5
2DE9
102
{ACAD_REACTORS
330
C
102
}
330
C
100
AcDbDictionary
281
     1
  3
Standard
350
2DEA
  0
DICTIONARY
  5
E
102
{ACAD_REACTORS
330
C
102
}
330
C
100
AcDbDictionary
281
     1
  3
STANDARD
350
13
  0
DICTIONARY
  5
117
102
{ACAD_REACTORS
330
C
102
}
330
C
100
AcDbDictionary
281
     1
  0
ACDBDICTIONARYWDFLT
  5
114
102
{ACAD_REACTORS
330
C
102
}
330
C
100
AcDbDictionary
281
     1
  3
Normal
350
115
100
AcDbDictionaryWithDefault
340
115
  0
DICTIONARY
  5
2DD7
102
{ACAD_REACTORS
330
C
102
}
330
C
100
AcDbDictionary
281
     1
  3
A0
350
2DD8
  3
A1
350
2DD9
  3
A2
350
2DDA
  3
A3
350
2DDB
  3
A4
350
2DDC
  3
A5
350
2DDD
  3
A6
350
2DDE
  3
A7
350
2DDF
  3
A8
350
2DE0
  3
A9
350
2DE1
  3
B0
350
2DE2
  3
B1
350
2DE3
  3
B2
350
2DE4
  3
B3
350
2DE5
  3
B4
350
2DE6
  3
B5
350
2DE7
  3
B6
350
2DE8
  0
DICTIONARY
  5
2DD5
102
{ACAD_REACTORS
330
C
102
}
330
C
100
AcDbDictionary
281
     1
  3
Standard
350
2DD6
  0
DICTIONARY
  5
2DBB
102
{ACAD_REACTORS
330
C
102
}
330
C
100
AcDbDictionary
281
     1
  3
2dWireframe
350
2DC1
  3
Basic
350
2DC0
  3
Brighten
350
2DC7
  3
ColorChange
350
2DCB
  3
Conceptual
350
2DC4
  3
Dim
350
2DC6
  3
EdgeColorOff
350
2DD3
  3
Facepattern
350
2DCA
  3
Flat
350
2DBC
  3
FlatWithEdges
350
2DBD
  3
Gouraud
350
2DBE
  3
GouraudWithEdges
350
2DBF
  3
Hidden
350
2DC3
  3
JitterOff
350
2DD1
  3
Linepattern
350
2DC9
  3
OverhangOff
350
2DD2
  3
Realistic
350
2DC5
  3
Shaded
350
2DD0
  3
Shaded with edges
350
2DCF
  3
Shades of Gray
350
2DCC
  3
Sketchy
350
2DCD
  3
Thicken
350
2DC8
  3
Wireframe
350
2DC2
  3
X-Ray
350
2DCE
  0
XRECORD
  5
2E26
102
{ACAD_REACTORS
330
C
102
}
330
C
100
AcDbXrecord
280
     1
 90
        1
330
2DD6
  0
DICTIONARY
  5
2E7C
102
{ACAD_REACTORS
330
C
102
}
330
C
100
AcDbDictionary
281
     1
  3
COLORDICT
350
2E7E
  3
MATERIALDICT
350
2E7D
  0
DICTIONARY
  5
2E13
102
{ACAD_REACTORS
330
C
102
}
330
C
100
AcDbDictionary
281
     1
  3
CANNOSCALE
350
2E17
  3
CMLEADERSTYLE
350
2E15
  3
CTABLESTYLE
350
2E14
  3
DIMASSOC
350
2E68
  3
INDEXCTL
350
2E67
  3
LAYEREVAL
350
2E19
  3
LAYERNOTIFY
350
2E1A
  3
LIGHTINGUNITS
350
2E18
  3
MSLTSCALE
350
2E16
  3
PROJECTNAME
350
2E79
  3
SORTENTS
350
2E66
  3
XCLIPFRAME
350
2E69
  0
XRECORD
  5
2E7B
102
{ACAD_REACTORS
330
C
102
}
330
C
100
AcDbXrecord
280
     1
  1
DWGPROPS COOKIE
  2

  3

  4

  6

  7

  8
tomomi-takahashi
  9

300
=
301
=
302
=
303
=
304
=
305
=
306
=
307
=
308
=
309
=
 40
0.053301712962963
 41
2455741.593026794
 42
2456904.4926225
  1

 90
        0
  0
XRECORD
  5
2E29
102
{ACAD_REACTORS
330
2E28
102
}
330
2E28
100
AcDbXrecord
280
     1
102
VTR_0.000_0.000_1.000_1.000_VISUALSTYLE
340
2DC1
102
VTR_0.000_0.000_1.000_1.000_GRIDDISPLAY
 70
     3
102
VTR_0.000_0.000_1.000_1.000_GRIDMAJOR
 70
     5
102
VTR_0.000_0.000_1.000_1.000_DEFAULTLIGHTING
280
     1
102
VTR_0.000_0.000_1.000_1.000_DEFAULTLIGHTINGTYPE
 70
     1
102
VTR_0.000_0.000_1.000_1.000_BRIGHTNESS
141
0.0
102
VTR_0.000_0.000_1.000_1.000_CONTRAST
142
0.0
  0
DICTIONARY
  5
2E0C
102
{ACAD_REACTORS
330
2E0B
102
}
330
2E0B
100
AcDbDictionary
281
     1
  0
XRECORD
  5
2DF3
102
{ACAD_REACTORS
330
2DF2
102
}
330
2DF2
100
AcDbXrecord
280
     1
290
     1
  0
XRECORD
  5
2DF5
102
{ACAD_REACTORS
330
2DF4
102
}
330
2DF4
100
AcDbXrecord
280
     1
290
     1
  0
XRECORD
  5
2DF7
102
{ACAD_REACTORS
330
2DF6
102
}
330
2DF6
100
AcDbXrecord
280
     1
290
     1
  0
XRECORD
  5
2DF9
102
{ACAD_REACTORS
330
2DF8
102
}
330
2DF8
100
AcDbXrecord
280
     1
290
     1
  0
XRECORD
  5
2DFB
102
{ACAD_REACTORS
330
2DFA
102
}
330
2DFA
100
AcDbXrecord
280
     1
290
     1
  0
XRECORD
  5
2DFD
102
{ACAD_REACTORS
330
2DFC
102
}
330
2DFC
100
AcDbXrecord
280
     1
290
     1
  0
XRECORD
  5
2DFF
102
{ACAD_REACTORS
330
2DFE
102
}
330
2DFE
100
AcDbXrecord
280
     1
290
     1
  0
XRECORD
  5
2D7F
102
{ACAD_REACTORS
330
1325
102
}
330
1325
100
AcDbXrecord
280
     1
340
1A
  0
XRECORD
  5
2D7E
102
{ACAD_REACTORS
330
1323
102
}
330
1323
100
AcDbXrecord
280
     1
340
17
  0
XRECORD
  5
2E2B
102
{ACAD_REACTORS
330
2E2A
102
}
330
2E2A
100
AcDbXrecord
280
     1
102
VISUALSTYLE
340
2DC1
102
GRIDDISPLAY
 70
     0
102
GRIDMAJOR
 70
     5
102
DEFAULTLIGHTING
280
     1
102
DEFAULTLIGHTINGTYPE
 70
     1
102
BRIGHTNESS
141
0.0
102
CONTRAST
142
0.0
102
SHADEPLOT
 70
     0
  0
XRECORD
  5
2E2D
102
{ACAD_REACTORS
330
2E2C
102
}
330
2E2C
100
AcDbXrecord
280
     1
102
VISUALSTYLE
340
2DC1
102
GRIDDISPLAY
 70
     0
102
GRIDMAJOR
 70
     5
102
DEFAULTLIGHTING
280
     1
102
DEFAULTLIGHTINGTYPE
 70
     1
102
BRIGHTNESS
141
0.0
102
CONTRAST
142
0.0
102
SHADEPLOT
 70
     0
  0
LAYOUT
  5
118
102
{ACAD_XDICTIONARY
360
2E11
102
}
102
{ACAD_REACTORS
330
116
102
}
330
116
100
AcDbPlotSettings
  1

  2
Acrobat Distiller
  4
A4
  6

 40
3.174999952316284
 41
3.174999952316284
 42
3.175003051757812
 43
3.17498779296875
 44
209.9098358154297
 45
297.0318298339844
 46
0.0
 47
0.0
 48
0.0
 49
0.0
140
0.0
141
0.0
142
1.0
143
1.0
 70
 11952
 72
     1
 73
     1
 74
     2
  7
print.ctb
 75
    16
147
1.0
148
0.0
149
0.0
100
AcDbLayout
  1
Model
 70
     1
 71
     0
 10
0.0
 20
0.0
 11
12.0
 21
9.0
 12
0.0
 22
0.0
 32
0.0
 14
0.0
 24
0.0
 34
0.0
 15
0.0
 25
0.0
 35
0.0
146
0.0
 13
0.0
 23
0.0
 33
0.0
 16
1.0
 26
0.0
 36
0.0
 17
0.0
 27
1.0
 37
0.0
 76
     0
330
1A
  0
LAYOUT
  5
119
102
{ACAD_XDICTIONARY
360
2E80
102
}
102
{ACAD_REACTORS
330
116
102
}
330
116
100
AcDbPlotSettings
  1

  2
C:\PROGRAM FILES\ACAD LT 2000\plotters\DWF ePlot.pc3
  4

  6

 40
0.0
 41
0.0
 42
0.0
 43
0.0
 44
0.0
 45
0.0
 46
0.0
 47
0.0
 48
0.0
 49
0.0
140
0.0
141
0.0
142
1.0
143
1.0
 70
   688
 72
     0
 73
     0
 74
     5
  7
print.ctb
 75
    16
147
1.0
148
0.0
149
0.0
100
AcDbLayout
  1
ﾚｲｱｳﾄ1
 70
     1
 71
     1
 10
0.0
 20
0.0
 11
420.0
 21
297.0
 12
0.0
 22
0.0
 32
0.0
 14
0.0
 24
0.0
 34
0.0
 15
420.0
 25
297.0
 35
0.0
146
0.0
 13
0.0
 23
0.0
 33
0.0
 16
1.0
 26
0.0
 36
0.0
 17
0.0
 27
1.0
 37
0.0
 76
     0
330
17
331
64
  0
MATERIAL
  5
2DAB
102
{ACAD_XDICTIONARY
360
2DAC
102
}
102
{ACAD_REACTORS
330
2DA2
102
}
330
2DA2
100
AcDbMaterial
  1
ByBlock
 72
     0
 73
     2
 43
0.0208333333333333
 43
0.0
 43
0.0
 43
0.0
 43
0.0
 43
0.0208333333333333
 43
0.0
 43
0.0
 43
0.0
 43
0.0
 43
1.0
 43
0.0
 43
0.0
 43
0.0
 43
0.0
 43
1.0
 77
     0
 78
     2
 47
0.0208333333333333
 47
0.0
 47
0.0
 47
0.0
 47
0.0
 47
0.0208333333333333
 47
0.0
 47
0.0
 47
0.0
 47
0.0
 47
1.0
 47
0.0
 47
0.0
 47
0.0
 47
0.0
 47
1.0
171
     0
172
     2
 49
0.0208333333333333
 49
0.0
 49
0.0
 49
0.0
 49
0.0
 49
0.0208333333333333
 49
0.0
 49
0.0
 49
0.0
 49
0.0
 49
1.0
 49
0.0
 49
0.0
 49
0.0
 49
0.0
 49
1.0
175
     0
176
     2
142
0.0208333333333333
142
0.0
142
0.0
142
0.0
142
0.0
142
0.0208333333333333
142
0.0
142
0.0
142
0.0
142
0.0
142
1.0
142
0.0
142
0.0
142
0.0
142
0.0
142
1.0
179
     0
270
     2
144
0.0208333333333333
144
0.0
144
0.0
144
0.0
144
0.0
144
0.0208333333333333
144
0.0
144
0.0
144
0.0
144
0.0
144
1.0
144
0.0
144
0.0
144
0.0
144
0.0
144
1.0
274
     2
147
0.0208333333333333
147
0.0
147
0.0
147
0.0
147
0.0
147
0.0208333333333333
147
0.0
147
0.0
147
0.0
147
0.0
147
1.0
147
0.0
147
0.0
147
0.0
147
0.0
147
1.0
  0
MATERIAL
  5
2DA3
102
{ACAD_XDICTIONARY
360
2DA4
102
}
102
{ACAD_REACTORS
330
2DA2
102
}
330
2DA2
100
AcDbMaterial
  1
ByLayer
 72
     0
 73
     2
 43
0.0208333333333333
 43
0.0
 43
0.0
 43
0.0
 43
0.0
 43
0.0208333333333333
 43
0.0
 43
0.0
 43
0.0
 43
0.0
 43
1.0
 43
0.0
 43
0.0
 43
0.0
 43
0.0
 43
1.0
 77
     0
 78
     2
 47
0.0208333333333333
 47
0.0
 47
0.0
 47
0.0
 47
0.0
 47
0.0208333333333333
 47
0.0
 47
0.0
 47
0.0
 47
0.0
 47
1.0
 47
0.0
 47
0.0
 47
0.0
 47
0.0
 47
1.0
171
     0
172
     2
 49
0.0208333333333333
 49
0.0
 49
0.0
 49
0.0
 49
0.0
 49
0.0208333333333333
 49
0.0
 49
0.0
 49
0.0
 49
0.0
 49
1.0
 49
0.0
 49
0.0
 49
0.0
 49
0.0
 49
1.0
175
     0
176
     2
142
0.0208333333333333
142
0.0
142
0.0
142
0.0
142
0.0
142
0.0208333333333333
142
0.0
142
0.0
142
0.0
142
0.0
142
1.0
142
0.0
142
0.0
142
0.0
142
0.0
142
1.0
179
     0
270
     2
144
0.0208333333333333
144
0.0
144
0.0
144
0.0
144
0.0
144
0.0208333333333333
144
0.0
144
0.0
144
0.0
144
0.0
144
1.0
144
0.0
144
0.0
144
0.0
144
0.0
144
1.0
274
     2
147
0.0208333333333333
147
0.0
147
0.0
147
0.0
147
0.0
147
0.0208333333333333
147
0.0
147
0.0
147
0.0
147
0.0
147
1.0
147
0.0
147
0.0
147
0.0
147
0.0
147
1.0
  0
MATERIAL
  5
2DB3
102
{ACAD_XDICTIONARY
360
2DB4
102
}
102
{ACAD_REACTORS
330
2DA2
102
}
330
2DA2
100
AcDbMaterial
  1
Global
 72
     0
 73
     2
 43
0.0208333333333333
 43
0.0
 43
0.0
 43
0.0
 43
0.0
 43
0.0208333333333333
 43
0.0
 43
0.0
 43
0.0
 43
0.0
 43
1.0
 43
0.0
 43
0.0
 43
0.0
 43
0.0
 43
1.0
 77
     0
 78
     2
 47
0.0208333333333333
 47
0.0
 47
0.0
 47
0.0
 47
0.0
 47
0.0208333333333333
 47
0.0
 47
0.0
 47
0.0
 47
0.0
 47
1.0
 47
0.0
 47
0.0
 47
0.0
 47
0.0
 47
1.0
171
     0
172
     2
 49
0.0208333333333333
 49
0.0
 49
0.0
 49
0.0
 49
0.0
 49
0.0208333333333333
 49
0.0
 49
0.0
 49
0.0
 49
0.0
 49
1.0
 49
0.0
 49
0.0
 49
0.0
 49
0.0
 49
1.0
175
     0
176
     2
142
0.0208333333333333
142
0.0
142
0.0
142
0.0
142
0.0
142
0.0208333333333333
142
0.0
142
0.0
142
0.0
142
0.0
142
1.0
142
0.0
142
0.0
142
0.0
142
0.0
142
1.0
179
     0
270
     2
144
0.0208333333333333
144
0.0
144
0.0
144
0.0
144
0.0
144
0.0208333333333333
144
0.0
144
0.0
144
0.0
144
0.0
144
1.0
144
0.0
144
0.0
144
0.0
144
0.0
144
1.0
274
     2
147
0.0208333333333333
147
0.0
147
0.0
147
0.0
147
0.0
147
0.0208333333333333
147
0.0
147
0.0
147
0.0
147
0.0
147
1.0
147
0.0
147
0.0
147
0.0
147
0.0
147
1.0
  0
ACAD_PROXY_OBJECT
  5
2DEA
102
{ACAD_REACTORS
330
2DE9
102
}
330
2DE9
100
AcDbProxyObject
 90
      499
 91
      563
 95
   983063
 70
     0
 93
      618
310
40901902A4063FBFFFFFE000000000000002040AD7A3703D0AD73F4254DD185B99185C99000000000000000104090141901A00000000000004100000000000000041025764000000000000300FC0
340
14
340
0
340
10
340
0
 94
        0
1001
ACAD_MLEADERVER
1070
     2
1001
ACAD
1000
AcRTDxfName
1000
MLEADERSTYLE
  0
MLINESTYLE
  5
13
102
{ACAD_REACTORS
330
E
102
}
330
E
100
AcDbMlineStyle
  2
STANDARD
 70
     0
  3

 62
     0
 51
90.0
 52
90.0
 71
     2
 49
0.5
 62
   256
  6
BYLAYER
 49
-0.5
 62
   256
  6
BYLAYER
  0
ACDBPLACEHOLDER
  5
115
102
{ACAD_REACTORS
330
114
102
}
330
114
  0
ACAD_PROXY_OBJECT
  5
2DD8
102
{ACAD_REACTORS
330
2DD7
102
}
330
2DD7
100
AcDbProxyObject
 90
      499
 91
      562
 95
   983063
 70
     0
 93
       49
310
904313A3100580
 94
        0
1001
ACAD
1000
AcRTDxfName
1000
SCALE
  0
ACAD_PROXY_OBJECT
  5
2DD9
102
{ACAD_REACTORS
330
2DD7
102
}
330
2DD7
100
AcDbProxyObject
 90
      499
 91
      562
 95
   983063
 70
     0
 93
      113
310
904313A32004000000000000004013
 94
        0
1001
ACAD
1000
AcRTDxfName
1000
SCALE
  0
ACAD_PROXY_OBJECT
  5
2DDA
102
{ACAD_REACTORS
330
2DD7
102
}
330
2DD7
100
AcDbProxyObject
 90
      499
 91
      562
 95
   983063
 70
     0
 93
      113
310
904313A3400400000000000010400C
 94
        0
1001
ACAD
1000
AcRTDxfName
1000
SCALE
  0
ACAD_PROXY_OBJECT
  5
2DDB
102
{ACAD_REACTORS
330
2DD7
102
}
330
2DD7
100
AcDbProxyObject
 90
      499
 91
      562
 95
   983063
 70
     0
 93
      113
310
904313A35004000000000000144013
 94
        0
1001
ACAD
1000
AcRTDxfName
1000
SCALE
  0
ACAD_PROXY_OBJECT
  5
2DDC
102
{ACAD_REACTORS
330
2DD7
102
}
330
2DD7
100
AcDbProxyObject
 90
      499
 91
      562
 95
   983063
 70
     0
 93
      113
310
904313A3800400000000000020400C
 94
        0
1001
ACAD
1000
AcRTDxfName
1000
SCALE
  0
ACAD_PROXY_OBJECT
  5
2DDD
102
{ACAD_REACTORS
330
2DD7
102
}
330
2DD7
100
AcDbProxyObject
 90
      499
 91
      562
 95
   983063
 70
     0
 93
      121
310
905313A3130004000000000000244023
 94
        0
1001
ACAD
1000
AcRTDxfName
1000
SCALE
  0
ACAD_PROXY_OBJECT
  5
2DDE
102
{ACAD_REACTORS
330
2DD7
102
}
330
2DD7
100
AcDbProxyObject
 90
      499
 91
      562
 95
   983063
 70
     0
 93
      121
310
905313A3136004000000000000304040
 94
        0
1001
ACAD
1000
AcRTDxfName
1000
SCALE
  0
ACAD_PROXY_OBJECT
  5
2DDF
102
{ACAD_REACTORS
330
2DD7
102
}
330
2DD7
100
AcDbProxyObject
 90
      499
 91
      562
 95
   983063
 70
     0
 93
      121
310
905313A3230004000000000000344023
 94
        0
1001
ACAD
1000
AcRTDxfName
1000
SCALE
  0
ACAD_PROXY_OBJECT
  5
2DE0
102
{ACAD_REACTORS
330
2DD7
102
}
330
2DD7
100
AcDbProxyObject
 90
      499
 91
      562
 95
   983063
 70
     0
 93
      121
310
905313A33300040000000000003E4040
 94
        0
1001
ACAD
1000
AcRTDxfName
1000
SCALE
  0
ACAD_PROXY_OBJECT
  5
2DE1
102
{ACAD_REACTORS
330
2DD7
102
}
330
2DD7
100
AcDbProxyObject
 90
      499
 91
      562
 95
   983063
 70
     0
 93
      121
310
905313A3430004000000000000444023
 94
        0
1001
ACAD
1000
AcRTDxfName
1000
SCALE
  0
ACAD_PROXY_OBJECT
  5
2DE2
102
{ACAD_REACTORS
330
2DD7
102
}
330
2DD7
100
AcDbProxyObject
 90
      499
 91
      562
 95
   983063
 70
     0
 93
      121
310
905313A3530004000000000000494040
 94
        0
1001
ACAD
1000
AcRTDxfName
1000
SCALE
  0
ACAD_PROXY_OBJECT
  5
2DE3
102
{ACAD_REACTORS
330
2DD7
102
}
330
2DD7
100
AcDbProxyObject
 90
      499
 91
      562
 95
   983063
 70
     0
 93
      129
310
906313A313030004000000000000594010
 94
        0
1001
ACAD
1000
AcRTDxfName
1000
SCALE
  0
ACAD_PROXY_OBJECT
  5
2DE4
102
{ACAD_REACTORS
330
2DD7
102
}
330
2DD7
100
AcDbProxyObject
 90
      499
 91
      562
 95
   983063
 70
     0
 93
      113
310
904323A31000000000000000010140
 94
        0
1001
ACAD
1000
AcRTDxfName
1000
SCALE
  0
ACAD_PROXY_OBJECT
  5
2DE5
102
{ACAD_REACTORS
330
2DD7
102
}
330
2DD7
100
AcDbProxyObject
 90
      499
 91
      562
 95
   983063
 70
     0
 93
      113
310
904343A31000000000000000410159
 94
        0
1001
ACAD
1000
AcRTDxfName
1000
SCALE
  0
ACAD_PROXY_OBJECT
  5
2DE6
102
{ACAD_REACTORS
330
2DD7
102
}
330
2DD7
100
AcDbProxyObject
 90
      499
 91
      562
 95
   983063
 70
     0
 93
      113
310
904383A31000000000000000810140
 94
        0
1001
ACAD
1000
AcRTDxfName
1000
SCALE
  0
ACAD_PROXY_OBJECT
  5
2DE7
102
{ACAD_REACTORS
330
2DD7
102
}
330
2DD7
100
AcDbProxyObject
 90
      499
 91
      562
 95
   983063
 70
     0
 93
      121
310
90531303A31000000000000000910140
 94
        0
1001
ACAD
1000
AcRTDxfName
1000
SCALE
  0
ACAD_PROXY_OBJECT
  5
2DE8
102
{ACAD_REACTORS
330
2DD7
102
}
330
2DD7
100
AcDbProxyObject
 90
      499
 91
      562
 95
   983063
 70
     0
 93
      129
310
9063130303A31000000000000001650117
 94
        0
1001
ACAD
1000
AcRTDxfName
1000
SCALE
  0
ACAD_PROXY_OBJECT
  5
2DD6
102
{ACAD_XDICTIONARY
360
2E24
102
}
102
{ACAD_REACTORS
330
2DD5
102
}
330
2DD5
100
AcDbProxyObject
 90
      499
 91
      561
 95
   983063
 70
     0
 93
     1849
310
4254DD185B99185C990028000000000000F83F0000000000003E0FC00000000000004901028000000C1008070000C3001FDFF8000000C1003FBFF000000182007F7FE00000030400FEFFC00000060801FDFF8000000C1003FBFF000000182000000000000000C2020B0000001820100E000186003FBFF000000182007F7FE0
310
0000030400FEFFC00000060801FDFF8000000C1003FBFF000000182007F7FE0000003040000000000000012404160000003040201C00030C007F7FE00000030400FEFFC00000060801FDFF8000000C1003FBFF000000182007F7FE00000030400FEFFC000000608000
340
10
340
10
340
10
 94
        0
1001
ACAD
1000
AcRTDxfName
1000
TABLESTYLE
  0
ACAD_PROXY_OBJECT
  5
2DC1
102
{ACAD_XDICTIONARY
360
2E3E
102
}
102
{ACAD_REACTORS
330
2DBB
102
}
330
2DBB
100
AcDbProxyObject
 90
      499
 91
      560
 95
   983063
 70
     0
 93
      444
310
430C9915DA5C99599C985B59401049028333333333333E3BF0000000000000FB0107901411070040501600405405064090741402480A0340
 94
        0
1001
ACAD
1000
AcDbSavedByObjectVersion
1070
     0
1000
AcRTDxfName
1000
VISUALSTYLE
  0
ACAD_PROXY_OBJECT
  5
2DC0
102
{ACAD_XDICTIONARY
360
2E3C
102
}
102
{ACAD_REACTORS
330
2DBB
102
}
330
2DBB
100
AcDbProxyObject
 90
      499
 91
      560
 95
   983063
 70
     0
 93
      396
310
4190985CDA58C0107406404333333333333E3BF0000000000000FB0107A41107004050150841D405064090741402480A035A
 94
        0
1001
ACAD
1000
AcDbSavedByObjectVersion
1070
     0
1000
AcRTDxfName
1000
VISUALSTYLE
  0
ACAD_PROXY_OBJECT
  5
2DC7
102
{ACAD_XDICTIONARY
360
2E4A
102
}
102
{ACAD_REACTORS
330
2DBB
102
}
330
2DBB
100
AcDbProxyObject
 90
      499
 91
      560
 95
   983063
 70
     0
 93
      436
310
42509C9A59DA1D195B8010C409028333333333333E3BF0000000000000FB010790141107004050150841D405064090741402480A029954
 94
        0
1001
ACAD
1000
AcDbSavedByObjectVersion
1070
     0
1000
AcRTDxfName
1000
VISUALSTYLE
  0
ACAD_PROXY_OBJECT
  5
2DCB
102
{ACAD_XDICTIONARY
360
2E52
102
}
102
{ACAD_REACTORS
330
2DBB
102
}
330
2DBB
100
AcDbProxyObject
 90
      499
 91
      560
 95
   983063
 70
     0
 93
      460
310
4310DBDB1BDC90DA185B99D9401104090240C333333333333E3BF0000000000000FB0108901411070040501508421405064090741402480A0354
 94
        0
1001
ACAD
1000
AcDbSavedByObjectVersion
1070
     0
1000
AcRTDxfName
1000
VISUALSTYLE
  0
ACAD_PROXY_OBJECT
  5
2DC4
102
{ACAD_XDICTIONARY
360
2E44
102
}
102
{ACAD_REACTORS
330
2DBB
102
}
330
2DBB
100
AcDbProxyObject
 90
      499
 91
      560
 95
   983063
 70
     0
 93
      508
310
42D0DBDB98D95C1D1D585B0010940D028333333333333E3BF0000000000000FB0107902409070040501000000000018199010841D405064090740C02480A0340
 94
        0
1001
ACAD
1000
AcDbSavedByObjectVersion
1070
     0
1000
AcRTDxfName
1000
VISUALSTYLE
  0
ACAD_PROXY_OBJECT
  5
2DC6
102
{ACAD_XDICTIONARY
360
2E48
102
}
102
{ACAD_REACTORS
330
2DBB
102
}
330
2DBB
100
AcDbProxyObject
 90
      499
 91
      560
 95
   983063
 70
     0
 93
      420
310
41111A5B4010B409028333333333333E3BF0000000000000FB010790141107004050150841D405064090741402480A02677FFFFFD4
 94
        0
1001
ACAD
1000
AcDbSavedByObjectVersion
1070
     0
1000
AcRTDxfName
1000
VISUALSTYLE
  0
ACAD_PROXY_OBJECT
  5
2DD3
102
{ACAD_XDICTIONARY
360
2E62
102
}
102
{ACAD_REACTORS
330
2DBB
102
}
330
2DBB
100
AcDbProxyObject
 90
      499
 91
      560
 95
   983063
 70
     0
 93
      460
310
43515919D950DBDB1BDC93D99980116409028333333333333E3BF0000000000000FB010790141107004050150841D405064090741402480A0350
 94
        0
1001
ACAD
1000
AcDbSavedByObjectVersion
1070
     0
1000
AcRTDxfName
1000
VISUALSTYLE
  0
ACAD_PROXY_OBJECT
  5
2DCA
102
{ACAD_XDICTIONARY
360
2E50
102
}
102
{ACAD_REACTORS
330
2DBB
102
}
330
2DBB
100
AcDbProxyObject
 90
      499
 91
      560
 95
   983063
 70
     0
 93
      452
310
43119858D95C185D1D195C9B8010F409028333333333333E3BF0000000000000FB010790141107004050150841D405064090741402480A0350
 94
        0
1001
ACAD
1000
AcDbSavedByObjectVersion
1070
     0
1000
AcRTDxfName
1000
VISUALSTYLE
  0
ACAD_PROXY_OBJECT
  5
2DBC
102
{ACAD_XDICTIONARY
360
2E34
102
}
102
{ACAD_REACTORS
330
2DBB
102
}
330
2DBB
100
AcDbProxyObject
 90
      499
 91
      560
 95
   983063
 70
     0
 93
      388
310
41519B185D00240901404333333333333E3BF0000000000000F9010740A907004050150841D405064090741402480A1B50
 94
        0
1001
ACAD
1000
AcDbSavedByObjectVersion
1070
     0
1000
AcRTDxfName
1000
VISUALSTYLE
  0
ACAD_PROXY_OBJECT
  5
2DBD
102
{ACAD_XDICTIONARY
360
2E36
102
}
102
{ACAD_REACTORS
330
2DBB
102
}
330
2DBB
100
AcDbProxyObject
 90
      499
 91
      560
 95
   983063
 70
     0
 93
      476
310
43919B185D15DA5D1A115919D95CC010140901404333333333333E3BF0000000000000F90107409019070040501600405405064090741402480A1B5C
 94
        0
1001
ACAD
1000
AcDbSavedByObjectVersion
1070
     0
1000
AcRTDxfName
1000
VISUALSTYLE
  0
ACAD_PROXY_OBJECT
  5
2DBE
102
{ACAD_XDICTIONARY
360
2E38
102
}
102
{ACAD_REACTORS
330
2DBB
102
}
330
2DBB
100
AcDbProxyObject
 90
      499
 91
      560
 95
   983063
 70
     0
 93
      412
310
4211DBDD5C985D590010240902404333333333333E3BF0000000000000F9010740A9070040501641D405064090741402480A1B54
 94
        0
1001
ACAD
1000
AcDbSavedByObjectVersion
1070
     0
1000
AcRTDxfName
1000
VISUALSTYLE
  0
ACAD_PROXY_OBJECT
  5
2DBF
102
{ACAD_XDICTIONARY
360
2E3A
102
}
102
{ACAD_REACTORS
330
2DBB
102
}
330
2DBB
100
AcDbProxyObject
 90
      499
 91
      560
 95
   983063
 70
     0
 93
      500
310
4451DBDD5C985D5915DA5D1A115919D95CC010340902404333333333333E3BF0000000000000F90107409019070040501600405405064090741402480A1B5F
 94
        0
1001
ACAD
1000
AcDbSavedByObjectVersion
1070
     0
1000
AcRTDxfName
1000
VISUALSTYLE
  0
ACAD_PROXY_OBJECT
  5
2DC3
102
{ACAD_XDICTIONARY
360
2E42
102
}
102
{ACAD_REACTORS
330
2DBB
102
}
330
2DBB
100
AcDbProxyObject
 90
      499
 91
      560
 95
   983063
 70
     0
 93
      484
310
41D21A5919195B8010640502408333333333333E3BF0000000000000FB01079024090700405020000000000001110200405405064090740C02480A034A
 94
        0
1001
ACAD
1000
AcDbSavedByObjectVersion
1070
     0
1000
AcRTDxfName
1000
VISUALSTYLE
  0
ACAD_PROXY_OBJECT
  5
2DD1
102
{ACAD_XDICTIONARY
360
2E5E
102
}
102
{ACAD_REACTORS
330
2DBB
102
}
330
2DBB
100
AcDbProxyObject
 90
      499
 91
      560
 95
   983063
 70
     0
 93
      436
310
42929A5D1D195C93D99980114409028333333333333E3BF0000000000000FB010790141107004050150A41D405064090741402480A0354
 94
        0
1001
ACAD
1000
AcDbSavedByObjectVersion
1070
     0
1000
AcRTDxfName
1000
VISUALSTYLE
  0
ACAD_PROXY_OBJECT
  5
2DC9
102
{ACAD_XDICTIONARY
360
2E4E
102
}
102
{ACAD_REACTORS
330
2DBB
102
}
330
2DBB
100
AcDbProxyObject
 90
      499
 91
      560
 95
   983063
 70
     0
 93
      452
310
43131A5B995C185D1D195C9B8010E409028333333333333E3BF0000000000000FB010790141107004050750841D405064090741402483A0352
 94
        0
1001
ACAD
1000
AcDbSavedByObjectVersion
1070
     0
1000
AcRTDxfName
1000
VISUALSTYLE
  0
ACAD_PROXY_OBJECT
  5
2DD2
102
{ACAD_XDICTIONARY
360
2E60
102
}
102
{ACAD_REACTORS
330
2DBB
102
}
330
2DBB
100
AcDbProxyObject
 90
      499
 91
      560
 95
   983063
 70
     0
 93
      452
310
4313DD995C9A185B99D3D99980115409028333333333333E3BF0000000000000FB010790141107004050150941D405064090741402480A0354
 94
        0
1001
ACAD
1000
AcDbSavedByObjectVersion
1070
     0
1000
AcRTDxfName
1000
VISUALSTYLE
  0
ACAD_PROXY_OBJECT
  5
2DC5
102
{ACAD_XDICTIONARY
360
2E46
102
}
102
{ACAD_REACTORS
330
2DBB
102
}
330
2DBB
100
AcDbProxyObject
 90
      499
 91
      560
 95
   983063
 70
     0
 93
      436
310
429499585B1A5CDD1A58C0108409028333333333333E3BF0000000000000F9010740A907004050150800405405064090740C02480A1B44
 94
        0
1001
ACAD
1000
AcDbSavedByObjectVersion
1070
     0
1000
AcRTDxfName
1000
VISUALSTYLE
  0
ACAD_PROXY_OBJECT
  5
2DD0
102
{ACAD_XDICTIONARY
360
2E5C
102
}
102
{ACAD_REACTORS
330
2DBB
102
}
330
2DBB
100
AcDbProxyObject
 90
      499
 91
      560
 95
   983063
 70
     0
 93
      428
310
41D4DA185919590011B40902404333333333333E3BF0000000000000F9010740A41107004050150800405405064090840C02480A0B41
 94
        0
1001
ACAD
1000
AcDbSavedByObjectVersion
1070
     0
1000
AcRTDxfName
1000
VISUALSTYLE
  0
ACAD_PROXY_OBJECT
  5
2DCF
102
{ACAD_XDICTIONARY
360
2E5A
102
}
102
{ACAD_REACTORS
330
2DBB
102
}
330
2DBB
100
AcDbProxyObject
 90
      499
 91
      560
 95
   983063
 70
     0
 93
      524
310
4494DA18591959081DDA5D1A08195919D95CC011A40902404333333333333E3BF0000000000000F901074090142907004050250800405405064090740C02480A0B40
 94
        0
1001
ACAD
1000
AcDbSavedByObjectVersion
1070
     0
1000
AcRTDxfName
1000
VISUALSTYLE
  0
ACAD_PROXY_OBJECT
  5
2DCC
102
{ACAD_XDICTIONARY
360
2E54
102
}
102
{ACAD_REACTORS
330
2DBB
102
}
330
2DBB
100
AcDbProxyObject
 90
      499
 91
      560
 95
   983063
 70
     0
 93
      540
310
43D4DA1859195CC81BD98811DC985E401174090240C333333333333E3BF0000000000000FB01079024090741D01000000000000111010841D405064090740C02480A0340
 94
        0
1001
ACAD
1000
AcDbSavedByObjectVersion
1070
     0
1000
AcRTDxfName
1000
VISUALSTYLE
  0
ACAD_PROXY_OBJECT
  5
2DCD
102
{ACAD_XDICTIONARY
360
2E56
102
}
102
{ACAD_REACTORS
330
2DBB
102
}
330
2DBB
100
AcDbProxyObject
 90
      499
 91
      560
 95
   983063
 70
     0
 93
      484
310
4214DAD95D18DA1E4011840502408333333333333E3BF0000000000000FB01079024090741D01000000000000111010B41D405064090741802480A0348
 94
        0
1001
ACAD
1000
AcDbSavedByObjectVersion
1070
     0
1000
AcRTDxfName
1000
VISUALSTYLE
  0
ACAD_PROXY_OBJECT
  5
2DC8
102
{ACAD_XDICTIONARY
360
2E4C
102
}
102
{ACAD_REACTORS
330
2DBB
102
}
330
2DBB
100
AcDbProxyObject
 90
      499
 91
      560
 95
   983063
 70
     0
 93
      420
310
42151A1A58DAD95B8010D409028333333333333E3BF0000000000000FB010790141107004050150C41D405064090741402480A0354
 94
        0
1001
ACAD
1000
AcDbSavedByObjectVersion
1070
     0
1000
AcRTDxfName
1000
VISUALSTYLE
  0
ACAD_PROXY_OBJECT
  5
2DC2
102
{ACAD_XDICTIONARY
360
2E40
102
}
102
{ACAD_REACTORS
330
2DBB
102
}
330
2DBB
100
AcDbProxyObject
 90
      499
 91
      560
 95
   983063
 70
     0
 93
      428
310
4295DA5C99599C985B59401059028333333333333E3BF0000000000000FB0107901411070040501600405405064090740C02480A0341
 94
        0
1001
ACAD
1000
AcDbSavedByObjectVersion
1070
     0
1000
AcRTDxfName
1000
VISUALSTYLE
  0
ACAD_PROXY_OBJECT
  5
2DCE
102
{ACAD_XDICTIONARY
360
2E58
102
}
102
{ACAD_REACTORS
330
2DBB
102
}
330
2DBB
100
AcDbProxyObject
 90
      499
 91
      560
 95
   983063
 70
     0
 93
      412
310
41960B54985E4011940902404000000000000E03F0000000000000FB010740501907004050150841D405064090740C02480A1B41
 94
        0
1001
ACAD
1000
AcDbSavedByObjectVersion
1070
     0
1000
AcRTDxfName
1000
VISUALSTYLE
  0
XRECORD
  5
2E7E
102
{ACAD_REACTORS
330
2E7C
102
}
330
2E7C
100
AcDbXrecord
280
     1
340
2DD4
  0
XRECORD
  5
2E7D
102
{ACAD_REACTORS
330
2E7C
102
}
330
2E7C
100
AcDbXrecord
280
     1
340
2DA2
  0
DICTIONARYVAR
  5
2E17
102
{ACAD_REACTORS
330
2E13
102
}
330
2E13
100
DictionaryVariables
280
     0
  1
1:1
  0
DICTIONARYVAR
  5
2E15
102
{ACAD_REACTORS
330
2E13
102
}
330
2E13
100
DictionaryVariables
280
     0
  1
STANDARD
  0
DICTIONARYVAR
  5
2E14
102
{ACAD_REACTORS
330
2E13
102
}
330
2E13
100
DictionaryVariables
280
     0
  1
STANDARD
  0
DICTIONARYVAR
  5
2E68
102
{ACAD_REACTORS
330
2E13
102
}
330
2E13
100
DictionaryVariables
280
     0
  1
1
  0
DICTIONARYVAR
  5
2E67
102
{ACAD_REACTORS
330
2E13
102
}
330
2E13
100
DictionaryVariables
280
     0
  1
0
  0
DICTIONARYVAR
  5
2E19
102
{ACAD_REACTORS
330
2E13
102
}
330
2E13
100
DictionaryVariables
280
     0
  1
1
  0
DICTIONARYVAR
  5
2E1A
102
{ACAD_REACTORS
330
2E13
102
}
330
2E13
100
DictionaryVariables
280
     0
  1
15
  0
DICTIONARYVAR
  5
2E18
102
{ACAD_REACTORS
330
2E13
102
}
330
2E13
100
DictionaryVariables
280
     0
  1
0
  0
DICTIONARYVAR
  5
2E16
102
{ACAD_REACTORS
330
2E13
102
}
330
2E13
100
DictionaryVariables
280
     0
  1
0
  0
DICTIONARYVAR
  5
2E79
102
{ACAD_REACTORS
330
2E13
102
}
330
2E13
100
DictionaryVariables
280
     0
  1

  0
DICTIONARYVAR
  5
2E66
102
{ACAD_REACTORS
330
2E13
102
}
330
2E13
100
DictionaryVariables
280
     0
  1
127
  0
DICTIONARYVAR
  5
2E69
102
{ACAD_REACTORS
330
2E13
102
}
330
2E13
100
DictionaryVariables
280
     0
  1
0
  0
DICTIONARY
  5
2E11
330
118
100
AcDbDictionary
280
     1
281
     1
  3
ACAD_XREC_ROUNDTRIP
360
2E7F
  3
ADSK_XREC_LAYOUTTHUMBNAIL
360
2E12
  0
DICTIONARY
  5
2E80
330
119
100
AcDbDictionary
280
     1
281
     1
  3
ACAD_XREC_ROUNDTRIP
360
2E81
  0
DICTIONARY
  5
2DAC
330
2DAB
100
AcDbDictionary
280
     1
281
     1
  3
ACAD_XREC_ROUNDTRIP
360
2E32
  3
BUMPTILE
360
2DAE
  3
DIFFUSETILE
360
2DAD
  3
OPACITYTILE
360
2DB1
  3
REFLECTIONTILE
360
2DB0
  3
REFRACTIONTILE
360
2DB2
  3
SPECULARTILE
360
2DAF
  0
DICTIONARY
  5
2DA4
330
2DA3
100
AcDbDictionary
280
     1
281
     1
  3
ACAD_XREC_ROUNDTRIP
360
2E31
  3
BUMPTILE
360
2DA6
  3
DIFFUSETILE
360
2DA5
  3
OPACITYTILE
360
2DA9
  3
REFLECTIONTILE
360
2DA8
  3
REFRACTIONTILE
360
2DAA
  3
SPECULARTILE
360
2DA7
  0
DICTIONARY
  5
2DB4
330
2DB3
100
AcDbDictionary
280
     1
281
     1
  3
ACAD_XREC_ROUNDTRIP
360
2E33
  3
BUMPTILE
360
2DB6
  3
DIFFUSETILE
360
2DB5
  3
OPACITYTILE
360
2DB9
  3
REFLECTIONTILE
360
2DB8
  3
REFRACTIONTILE
360
2DBA
  3
SPECULARTILE
360
2DB7
  0
DICTIONARY
  5
2E24
330
2DD6
100
AcDbDictionary
280
     1
281
     1
  3
ACAD_ROUNDTRIP_2008_TABLESTYLE_CELLSTYLEMAP
360
2E25
  3
ACAD_XREC_ROUNDTRIP
360
2E64
  0
DICTIONARY
  5
2E3E
330
2DC1
100
AcDbDictionary
280
     1
281
     1
  3
ACAD_XREC_ROUNDTRIP
360
2E3F
  0
DICTIONARY
  5
2E3C
330
2DC0
100
AcDbDictionary
280
     1
281
     1
  3
ACAD_XREC_ROUNDTRIP
360
2E3D
  0
DICTIONARY
  5
2E4A
330
2DC7
100
AcDbDictionary
280
     1
281
     1
  3
ACAD_XREC_ROUNDTRIP
360
2E4B
  0
DICTIONARY
  5
2E52
330
2DCB
100
AcDbDictionary
280
     1
281
     1
  3
ACAD_XREC_ROUNDTRIP
360
2E53
  0
DICTIONARY
  5
2E44
330
2DC4
100
AcDbDictionary
280
     1
281
     1
  3
ACAD_XREC_ROUNDTRIP
360
2E45
  0
DICTIONARY
  5
2E48
330
2DC6
100
AcDbDictionary
280
     1
281
     1
  3
ACAD_XREC_ROUNDTRIP
360
2E49
  0
DICTIONARY
  5
2E62
330
2DD3
100
AcDbDictionary
280
     1
281
     1
  3
ACAD_XREC_ROUNDTRIP
360
2E63
  0
DICTIONARY
  5
2E50
330
2DCA
100
AcDbDictionary
280
     1
281
     1
  3
ACAD_XREC_ROUNDTRIP
360
2E51
  0
DICTIONARY
  5
2E34
330
2DBC
100
AcDbDictionary
280
     1
281
     1
  3
ACAD_XREC_ROUNDTRIP
360
2E35
  0
DICTIONARY
  5
2E36
330
2DBD
100
AcDbDictionary
280
     1
281
     1
  3
ACAD_XREC_ROUNDTRIP
360
2E37
  0
DICTIONARY
  5
2E38
330
2DBE
100
AcDbDictionary
280
     1
281
     1
  3
ACAD_XREC_ROUNDTRIP
360
2E39
  0
DICTIONARY
  5
2E3A
330
2DBF
100
AcDbDictionary
280
     1
281
     1
  3
ACAD_XREC_ROUNDTRIP
360
2E3B
  0
DICTIONARY
  5
2E42
330
2DC3
100
AcDbDictionary
280
     1
281
     1
  3
ACAD_XREC_ROUNDTRIP
360
2E43
  0
DICTIONARY
  5
2E5E
330
2DD1
100
AcDbDictionary
280
     1
281
     1
  3
ACAD_XREC_ROUNDTRIP
360
2E5F
  0
DICTIONARY
  5
2E4E
330
2DC9
100
AcDbDictionary
280
     1
281
     1
  3
ACAD_XREC_ROUNDTRIP
360
2E4F
  0
DICTIONARY
  5
2E60
330
2DD2
100
AcDbDictionary
280
     1
281
     1
  3
ACAD_XREC_ROUNDTRIP
360
2E61
  0
DICTIONARY
  5
2E46
330
2DC5
100
AcDbDictionary
280
     1
281
     1
  3
ACAD_XREC_ROUNDTRIP
360
2E47
  0
DICTIONARY
  5
2E5C
330
2DD0
100
AcDbDictionary
280
     1
281
     1
  3
ACAD_XREC_ROUNDTRIP
360
2E5D
  0
DICTIONARY
  5
2E5A
330
2DCF
100
AcDbDictionary
280
     1
281
     1
  3
ACAD_XREC_ROUNDTRIP
360
2E5B
  0
DICTIONARY
  5
2E54
330
2DCC
100
AcDbDictionary
280
     1
281
     1
  3
ACAD_XREC_ROUNDTRIP
360
2E55
  0
DICTIONARY
  5
2E56
330
2DCD
100
AcDbDictionary
280
     1
281
     1
  3
ACAD_XREC_ROUNDTRIP
360
2E57
  0
DICTIONARY
  5
2E4C
330
2DC8
100
AcDbDictionary
280
     1
281
     1
  3
ACAD_XREC_ROUNDTRIP
360
2E4D
  0
DICTIONARY
  5
2E40
330
2DC2
100
AcDbDictionary
280
     1
281
     1
  3
ACAD_XREC_ROUNDTRIP
360
2E41
  0
DICTIONARY
  5
2E58
330
2DCE
100
AcDbDictionary
280
     1
281
     1
  3
ACAD_XREC_ROUNDTRIP
360
2E59
  0
XRECORD
  5
2E7F
102
{ACAD_REACTORS
330
2E11
102
}
330
2E11
100
AcDbXrecord
280
     1
102
SHADEPLOT
 70
     0
102
SHADEPLOTRESLEVEL
 70
     2
102
SHADEPLOTCUSTOMDPI
 70
   300
  0
XRECORD
  5
2E12
102
{ACAD_REACTORS
330
2E11
102
}
330
2E11
100
AcDbXrecord
280
     1
310
28000000000100007D0000000100080000000000007D0000000000000000000000010000000000000000000000000000FFFFFF000000000000000000000000000000000000000000000000000000000000000000330000006600000099000000CC000000FF00000000330000333300006633000099330000CC330000FF3300
310
0000660000336600006666000099660000CC660000FF66000000990000339900006699000099990000CC990000FF99000000CC000033CC000066CC000099CC0000CCCC0000FFCC000000FF000033FF000066FF000099FF0000CCFF0000FFFF000000003300330033006600330099003300CC003300FF003300003333003333
310
33006633330099333300CC333300FF33330000663300336633006666330099663300CC663300FF66330000993300339933006699330099993300CC993300FF99330000CC330033CC330066CC330099CC3300CCCC3300FFCC330000FF330033FF330066FF330099FF3300CCFF3300FFFF330000006600330066006600660099
310
006600CC006600FF00660000336600333366006633660099336600CC336600FF33660000666600336666006666660099666600CC666600FF66660000996600339966006699660099996600CC996600FF99660000CC660033CC660066CC660099CC6600CCCC6600FFCC660000FF660033FF660066FF660099FF6600CCFF6600
310
FFFF660000009900330099006600990099009900CC009900FF00990000339900333399006633990099339900CC339900FF33990000669900336699006666990099669900CC669900FF66990000999900339999006699990099999900CC999900FF99990000CC990033CC990066CC990099CC9900CCCC9900FFCC990000FF99
310
0033FF990066FF990099FF9900CCFF9900FFFF99000000CC003300CC006600CC009900CC00CC00CC00FF00CC000033CC003333CC006633CC009933CC00CC33CC00FF33CC000066CC003366CC006666CC009966CC00CC66CC00FF66CC000099CC003399CC006699CC009999CC00CC99CC00FF99CC0000CCCC0033CCCC0066CC
310
CC0099CCCC00CCCCCC00FFCCCC0000FFCC0033FFCC0066FFCC0099FFCC00CCFFCC00FFFFCC000000FF003300FF006600FF009900FF00CC00FF00FF00FF000033FF003333FF006633FF009933FF00CC33FF00FF33FF000066FF003366FF006666FF009966FF00CC66FF00FF66FF000099FF003399FF006699FF009999FF00CC
310
99FF00FF99FF0000CCFF0033CCFF0066CCFF0099CCFF00CCCCFF00FFCCFF0000FFFF0033FFFF0066FFFF0099FFFF00CCFFFF00FFFFFF00000000000D0D0D001A1A1A00282828003535350043434300505050005D5D5D006B6B6B00787878008686860093939300A1A1A100AEAEAE00BBBBBB00C9C9C900D6D6D600E4E4E400
310
F1F1F100FFFFFF000000000000000000000000000000000000000000000000000000000000000000000000000000000000000000000000000000000000000000000000000000000000000000000000000000000000000000000000000000000000000000000000000000000000000000000000000000000000000000000000
310
00000000000000000000000000000000000000000000000000000000000000000000000000000000000000000000000000000000000000000000000000000000000000000000000000000000000000000000000000000000000000000000000000000000000000000000000000000000000000000000000000000000000000
310
00000000000000000000000000000000000000000000000000000000000000000000000000000000000000000000000000000000000000000000000000000000000000000000000000000000000000000000000000000000000000000000000000000000000000000000000000000000000000000000000000000000000000
310
00000000000000000000000000000000000000000000000000000000000000000000000000000000000000000000000000000000000000000000000000000000000000000000000000000000000000000000000000000000000000000000000000000000000000000000000000000000000000000000000000000000000000
310
00000000000000000000000000000000000000000000000000000000000000000000000000000000000000000000000000000000000000000000000000000000000000000000000000000000000000000000000000000000000000000000000000000000000000000000000000000000000000000000000000000000000000
310
00000000000000000000000000000000000000000000000000000000000000000000000000000000000000000000000000000000000000000000000000000000000000000000000000000000000000000000000000000000000000000000000000000000000000000000000000000000000000000000000000000000000000
310
00000000000000000000000000000000000000000000000000000000000000000000000000000000000000000000000000000000000000000000000000000000000000000000000000000000000000000000000000000000000000000000000000000000000000000000000000000000000000000000000000000000000000
310
00000000000000000000000000000000000000000000000000000000000000000000000000000000000000000000000000000000000000000000000000000000000000000000000000000000000000000000000000000000000000000000000000000000000000000000000000000000000000000000000000000000000000
310
00000000000000000000000000000000000000000000000000000000000000000000000000000000000000000000000000000000000000000000000000000000000000000000000000000000000000000000000000000000000000000000000000000000000000000000000000000000000000000000000000000000000000
310
00000000000000000000000000000000000000000000000000000000000000000000000000000000000000000000000000000000000000000000000000000000000000000000000000000000000000000000000000000000000000000000000000000000000000000000000000000000000000000000000000000000000000
310
00000000000000000000000000000000000000000000000000000000000000000000000000000000000000000000000000000000000000000000000000000000000000000000000000000000000000000000000000000000000000000000000000000000000000000000000000000000000000000000000000000000000000
310
00000000000000000000000000000000000000000000000000000000000000000000000000000000000000000000000000000000000000000000000000000000000000000000000000000000000000000000000000000000000000000000000000000000000000000000000000000000000000000000000000000000000000
310
00000000000000000000000000000000000000000000000000000000000000000000000000000000000000000000000000000000000000000000000000000000000000000000000000000000000000000000000000000000000000000000000000000000000000000000000000000000000000000000000000000000000000
310
00000000000000000000000000000000000000000000000000000000000000000000000000000000000000000000000000000000000000000000000000000000000000000000000000000000000000000000000000000000000000000000000000000000000000000000000000000000000000000000000000000000000000
310
00000000000000000000000000000000000000000000000000000000000000000000000000000000000000000000000000000000000000000000000000000000000000000000000000000000000000000000000000000000000000000000000000000000000000000000000000000000000000000000000000000000000000
310
00000000000000000000000000000000000000000000000000000000000000000000000000000000000000000000000000000000000000000000000000000000000000000000000000000000000000000000000000000000000000000000000000000000000000000000000000000000000000000000000000000000000000
310
00000000000000000000000000000000000000000000000000000000000000000000000000000000000000000000000000000000000000000000000000000000000000000000000000000000000000000000000000000000000000000000000000000000000000000000000000000000000000000000000000000000000000
310
00000000000000000000000000000000000000000000000000000000000000000000000000000000000000000000000000000000000000000000000000000000000000000000000000000000000000000000000000000000000000000000000000000000000000000000000000000000000000000000000000000000000000
310
00000000000000000000000000000000000000000000000000000000000000000000000000000000000000000000000000000000000000000000000000000000000000000000000000000000000000000000000000000000000000000000000000000000000000000000000000000000000000000000000000000000000000
310
00000000000000000000000000000000000000000000000000000000000000000000000000000000000000000000000000000000000000000000000000000000000000000000000000000000000000000000000000000000000000000000000000000000000000000000000000000000000000000000000000000000000000
310
00000000000000000000000000000000000000000000000000000000000000000000000000000000000000000000000000000000000000000000000000000000000000000000000000000000000000000000000000000000000000000000000000000000000000000000000000000000000000000000000000000000000000
310
00000000000000000000000000000000000000000000000000000000000000000000000000000000000000000000000000000000000000000000000000000000000000000000000000000000000000000000000000000000000000000000000000000000000000000000000000000000000000000000000000000000000000
310
00000000000000000000000000000000000000000000000000000000000000000000000000000000000000000000000000000000000000000000000000000000000000000000000000000000000000000000000000000000000000000000000000000000000000000000000000000000000000000000000000000000000000
310
00000000000000000000000000000000000000000000000000000000000000000000000000000000000000000000000000000000000000000000000000000000000000000000000000000000000000000000000000000000000000000000000000000000000000000000000000000000000000000000000000000000000000
310
000000000000000000000000000000000000000000000000000000000000000000000000000000000000000000000000000000000000000000000000000000000000000000000000000000000000000000000000000000000000000000000000F5F5F5F5F5F5F5F5F5F5F5F5F5F5F5F5F5F5F5F5F5F5F5F5F5F5F5F5F5F5F5
310
F5F5F5F5F5F5F5F5F5F5F5F5F5F5F5F5F5F5F5F5F5F5F5F5F5F5F5F5F5F5F5F5F5F5F5F5F5F5F5F5F5F5F5F5F5F5F5F5F5F5F5F5F5F5F5F5F5F5F5F5F5F5F5F5F5F5F5F5F5F5F5F5F5F5F5F5F5F5F5F5F5F5F5F5F5F5F5F5F5F5F5F5F5F5F5F5F5F5F5F5F5F5F5F5F5F5F5F5F5F5F5F5F5F5F5F5F5F5F5F5F5F5F5F5F5F5F5
310
F5F5000000000000000000000000000000000000000000000000000000000000000000000000000000000000000000000000000000000000000000000000000000000000000000000000000000000000000000000000000000000000000000000000F50000000000000000000000000000F5F5000000000000000000000000
310
000000000000000000000000F500000000DCDCDCDCDCDCDCDCDCDCDCDC00000000000000000000000000000000000000000000000000000000000000F50000000000000000000000F5000000DCDCDC0000F5000000000000000000000000000000000000F5F50000000000000000F500000000000000000000000000000000
310
000000F5000000000000000000000000000000000000000000000000000000000000000000000000000000000000000000000000000000000000000000000000000000000000000000000000000000000000000000000000000000000000000000000000F500F5F5F5F5F5F5F5F5F5F5F5F500F5F500DCDCDCDCDCDCDCDCDC
310
DCDCDCDCDCDC0000000000000000F5F5F5F500DCDCDCDCDCDCDCDCDCDCDCDC00000000000000000000000000000000000000000000000000000000000000F500DCDCDCDCDCDC00000000F5F500000000000000F5000000000000000000000000000000000000F5F50000000000000000F500F5F5F5F5F5F5F5F5F5F5F5F5F5
310
F5F5F50000F5000000000000000000000000000000000000000000000000000000000000000000000000000000000000000000000000000000000000000000000000000000000000000000000000000000000000000000000000000000000000000000000000F500F5F5F5F5F5F5F5F5F5F5F5F500F5F500DCDCDCDCDCDCDC
310
DCDCDCDCDCDCDCDC0000000000000000F5F5F5F5F5F5F5F5F5F5F5F5F5F5F5F5F5F5F5F5F5F5F5F5F5F5F5F5F5F5F5F5F5F5F5F5F5F5F5F5F5F5F5F5F5F5F5F5F500DCDCDCDCDCDC00000000F5F5F5F5F5F5F5F5F5F5000000000000000000000000000000000000F5F5F5F5F5F5F5F5F5F5F500F5F5F5F5F5F5F5F5F5F5F5
310
F5F5F5F5F50000F5000000000000000000000000000000000000000000000000000000000000000000000000000000000000000000000000000000000000000000000000000000000000000000000000000000000000000000000000000000000000000000000000F500F5F5F5F5F5F5F5F5F5F5F5F500F5F5000000000000
310
000000000000000000000000000000000000F500000000DCDCDCDCDCDCDCDCDCDCDCDCDCDCDCDCDCDCDCDCDC00000000000000000000000000000000000000000000F50000000000000000000000F5000000DCDC000000F5000000000000000000000000000000000000F5F5F5F5F5F5F5F5F5F5F500000000000000000000
310
000000000000000000F5000000000000000000000000000000000000000000000000000000000000000000000000000000000000000000000000000000000000000000000000000000000000000000000000000000000000000000000000000000000000000000000000F500F5F5F5F5F5F5F5F5F5F5F5F500F5F500000000
310
0000000000000000000000000000000000000000F5F5F50000DCDCDCDCDCDCDCDCDCDCDCDCDCDCDCDCDCDCDCDCDC00000000000000000000000000000000000000000000F5F5F5000000000000000000F5F500000000000000F5000000000000000000000000000000000000F5F5F500000000000000F50000000000000000
310
0000000000000000000000F5000000000000000000000000000000000000000000000000000000000000000000000000000000000000000000000000000000000000000000000000000000000000000000000000000000000000000000000000000000000000000000000000F5F5F5F5F5F5F5F5F5F5F5F5F5F5F5F5F5F5F5
310
F5F5F5F5F5F5F5F5F5F5F5F5F5F5F5F5F5F5F5F5F5F5F5F5F5F5F5F5F5F5F5F5F5F5F5F5F5F5F5F5F5F5F5F5F5F5F5F5F5F5F5F5F5F5F5F5F5F5F5F5F5F5F5F5F5F5F5F5F5F5F5F5F5F5F5F5F5F5F5F5F5F5F5F5F5F5F5F5F5F5F5F5F5F5F5F5F5F5F5F5F5F5F5F5F5F5F5F5F5F5F5F5F5F5F5F5F5F5F5F5F5F5F5F5F5F5F5
310
F5F5F5F5F5F5F5F5F5F5F5F5F5F5000000000000000000000000000000000000000000000000000000000000000000000000000000000000000000000000000000000000000000000000000000000000000000000000000000000000000000000000000000000000000000000000F500000000000000000000000000000000
310
00000000000000000000000000000000000000000000000000000000000000000000000000000000000000000000000000000000000000000000000000000000000000000000000000000000000000000000000000000000000000000000000000000000000000000000000000000000000000000000000000000000000000
310
000000000000000000000000000000F5000000000000000000000000000000000000000000000000000000000000000000000000000000000000000000000000000000000000000000000000000000000000000000000000000000000000000000000000000000000000000000000000F50000000000000000000000000000
310
00000000000000000000000000000000000000000000000000000000000000000000000000000000000000000000000000000000000000000000000000000000000000000000000000000000000000000000000000000000000000000000000000000000000000000000000000000000000000000000000000000000000000
310
0000000000000000000000000000000000F5000000000000000000000000000000000000000000000000000000000000000000000000000000000000000000000000000000000000000000000000000000000000000000000000000000000000000000000000000000000000000000000000F5000000000000000000000000
310
00000000000000000000000000000000000000000000000000000000000000000000000000000000000000000000000000000000000000000000000000000000000000000000000000000000000000000000000000000000000000000000000000000000000000000000000000000000000000000000000000000000000000
310
00000000000000000000000000000000000000F5000000000000000000000000000000000000000000000000000000000000000000000000000000000000000000000000000000000000000000000000000000000000000000000000000000000000000000000000000000000000000000000000F500000000000000000000
310
00000000000000000000000000000000000000000000000000000000000000000000000000000000000000000000000000000000000000000000000000000000000000000000000000000000000000000000000000000000000000000000000000000000000000000000000000000000000000000000000000000000000000
310
000000000000000000000000000000000000000000F5000000000000000000000000000000000000000000000000000000000000000000000000000000000000000000000000000000000000000000000000000000000000000000000000000000000000000000000000000000000000000000000000F50000000000000000
310
00000000000000000000000000000000000000000000000000000000000000000000000000000000000000000000000000000000000000000000000000000000000000000000000000000000000000000000000000000000000000000000000000000000000000000000000000000000000000000000000000000000000000
310
00000000002D0000000000000000000000000000000000F5000000000000000000000000000000000000000000000000000000000000000000000000000000000000000000000000000000000000000000000000000000000000000000000000000000000000000000000000000000000000000000000000F5000000000000
310
00000000000000000000000000000000000000000000000000000000000000000000000000000000000000000000000000000000000000000000000000000000000000000000000000000000000000000000000000000000000000000000000000000000000000000000000000000000000000000000000000000000000000
310
002D2D2D2D2D2D2D002D2D2D2D2D2D2D000000000000000000F5000000000000000000000000000000000000000000000000000000000000000000000000000000000000000000000000000000000000000000000000000000000000000000000000000000000000000000000000000000000000000000000000F500000000
310
00000000000000000000000000000000000000000000000000000000000000000000000000000000000000000000000000002D002D00000000000000000000000000000000000000000000000000000000000000000000000000000000000000000000000000000000002D2D00000000000000000000000000000000000000
310
0000002D0000002D2D00002D2D2D2D2D2D2D000000000000000000F5000000000000000000000000000000000000000000000000000000000000000000000000000000000000000000000000000000000000000000000000000000000000000000000000000000000000000000000000000000000000000000000000F50000
310
000000000000000000000000000000000000000000000000000000000000000000000000000000000000000000000000000000002D2D2D2D2D2D2D2D2D2D2D2D2D2D2D2D2D2D2D2D2D2D2D2D2D2D2D2D2D2D2D2D2D2D2D2D2D2D2D2D2D2D2D2D2D2D2D2D2D2D2D2D2D2D2D2D2D2D0000000000000000000000000000000000
310
0000000000000000000000000000000000000000000000000000000000F5000000000000000000000000000000000000000000000000000000000000000000000000000000000000000000000000000000000000000000000000000000000000000000000000000000000000000000000000000000000000000000000000F5
310
0000000000000000000000000000000000000000000000000000000000000000000000000000000000000000000000000000000000002D0000000000000000000000000000000000000000000000000000002D2D2D00000000000000000000000000000000000000000000000000002D000000000000000000000000000000
310
00000000000000000000000000000000000000000000000000000000000000F50000000000000000000000000000000000000000000000000000000000000000000000000000000000000000000000000000000000000000000000000000000000000000000000000000000000000000000000000000000000000000000000
310
00F50000000000000000000000000000000000000000000000000000000000000000000000000000000000000000000000000000000000002D00000000000000000000000000000000000000000000000000002D2D2D2D00000000000000000000000000000000000000000000000000002D00000000000000000000000000
310
000000000000000000000000000000000000000000000000000000000000000000F5000000000000000000000000000000000000000000000000000000000000000000000000000000000000000000000000000000000000000000000000000000000000000000000000000000000000000000000000000000000000000000
310
000000F50000000000000000000000000000000000000000000000000000000000000000000000000000000000000000000000000000000000002D00000000000000000000000000000000000000000000000000000000000000000000000000000000000000000000000000000000000000002D0000000000000000000000
310
0000000000000000000000000000000000000000000000000000000000000000000000F500000000000000000000000000000000000000000000000000000000000000000000000000000000000000000000000000000000000000000000000000000000000000000000000000000000000000000000000000000000000000
310
0000000000F50000000000000000000000000000000000000000000000000000000000000000000000000000000000000000000000000000000000002D00000000000000000000000000000000000000000000000000000000000000000000000000000000000000000000000000000000000000002D000000000000000000
310
00000000000000000000000000000000000000000000000000000000000000000000000000F50000000000000000000000000000000000000000000000000000000000000000000000000000000000000000000000000000000000000000000000000000000000000000000000000000000000000000000000000000000000
310
00000000000000F50000000000000000000000000000000000000000000000000000000000000000000000000000000000000000000000000000000000002D00000000000000000000000000000000000000000000000000000000BE0000000000000000000000000000000000000000000000000000002D00000000000000
310
000000000000000000000000000000000000000000000000000000000000000000000000000000F5000000000000000000000000000000000000000000000000000000000000000000000000000000000000000000000000000000000000000000000000000000000000000000000000000000000000000000000000000000
310
000000000000000000F50000000000000000000000000000000000000000000000000000000000000000000000000000000000000000000000000000000000002D00000000000000000000000000000000000000000000000000000000BE0000000000000000000000000000000000000000000000000000002D0000000000
310
0000000000000000000000000000000000000000000000000000000000000000000000000000000000F500000000000000000000000000000000000000000000000000000000000000000000000000000000000000000000000000000000000000000000000000000000000000000000000000000000000000000000000000
310
0000000000000000000000F50000000000000000000000000000000000000000000000000000000000000000000000000000000000000000000000000000000000002D00000000000000000000000000000000000000000000000000000000BE0000000000000000000000000000000000000000000000000000002D000000
310
00000000000000000000000000000000000000000000000000000000000000000000000000000000000000F50000000000000000000000000000000000000000000000000000000000000000000000000000000000000000000000000000000000000000000000000000000000000000000000000000000000000000000000
310
00000000000000000000000000F50000000000000000000000000000000000000000000000000000000000000000000000000000000000000000000000000000000000002D00000000000000000000000000000000000000000000000000000000BE0000000000000000000000000000000000000000000000000000002D00
310
000000000000000000000000000000000000000000000000000000000000000000000000000000000000000000F5000000000000000000000000000000000000000000000000000000000000000000000000000000000000000000000000000000000000000000000000000000000000000000000000000000000000000000
310
000000000000000000000000000000F5000000000000000000000000000000000000000000002D2D2D2D2D2D2D2D2D2D2D2D2D2D2D2D2D2D2D2D2D2D2D2D2D2D2D2D2D2D2D2D2D282828282828282828282828282828282828282828282828282828282D2D2D2D2D2D2D2D2D2D2D2D2D2D2D2D2D2D2D2D2D2D2D2D2D2D2D2D
310
2D2D2D2D2D2D2D2D2D2D2D2D2D2D2D2D2D000000000000000000000000000000000000000000000000000000000000F500000000000000000000000000000000000000000000000000000000000000000000000000000000000000000000000000000000000000000000000000000000000000000000000000000000000000
310
0000000000000000000000000000000000F500000000000000000000000000000000000000000000002D2D00000000000000000000000000000000000000000000000000000000002828282828282828282828282828282828282828282828282828282828BE28282828282828282828282828282828282828282828282828
310
28282800000000000000000000000000002D2D000000000000000000000000000000000000000000000000000000000000F50000000000000000000000000000000000000000000000000000000000000000000000000000000000000000000000000000000000000000000000000000000000000000000000000000000000
310
00000000000000000000000000000000000000F500000000000000000000000000000000000000000000002D0000000000000000000000000000000000000000000000000000000000002828000000000000000000000000000000000000000000000000000000BE0000000000000000000000000000000000000000000000
310
00000028282800000000000000000000000000002D000000000000000000000000000000000000000000000000000000000000F5000000000000000000000000000000000000000000000000000000000000000000000000000000000000000000000000000000000000000000000000000000000000000000000000000000
310
000000000000000000000000000000000000000000F500000000000000000000000000000000000000000000002D0000000000000000000000000000000000000000000000000000000000002828000000000000000000000000000000000000000000000000000000BE000000000000000000000000000000000000000000
310
000000000000282800000000000000000000000000002D000000000000000000000000000000000000000000000000000000000000F500000000000000000000000000000000000000000000000000000000000000000000000000000000000000000000000000000000000000000000000000000000000000000000000000
310
0000000000000000000000000000000000000000000000F500000000000000000000000000000000000000000000002D0000000000000000000000000000000000000000000000000000000000002828000000000000000000000000000000000000000000000000000000BE00000000000000000000000000000000000000
310
0000000000000000282800000000000000000000000000002D000000000000000000000000000000000000000000000000000000000000F50000000000000000000000000000000000000000000000000000000000000000000000000000000000000000000000000000000000000000000000000000000000000000000000
310
00000000000000000000000000000000000000000000000000F500000000000000000000000000000000000000000000002D0000000000000000000000000000000000000000000000000000000000002828000000000000000000000000000000000000000000000000000000BE0000000000000000000000000000000000
310
00000000000000000000282800000000000000000000000000002D000000000000000000000000000000000000000000000000000000000000F5000000000000000000000000000000000000000000000000000000000000000000000000000000000000000000000000000000000000000000000000000000000000000000
310
000000000000000000000000000000000000000000000000000000F500000000000000000000000000000000000000000000002D0000000000000000000000000000000000000000000000000000000000002828000000000000000000000000000000000000000000000000000000BE000000000000000000000000000000
310
000000000000000000000000282800000000000000000000000000002D000000000000000000000000000000000000000000000000000000000000F500000000000000000000000000000000000000000000000000000000000000000000000000000000000000000000000000000000000000000000000000000000000000
310
0000000000000000000000000000000000000000000000000000000000F500000000000000000000000000000000000000000000002D00000000000000000000000000000000000000000000000000000000000028280000000000000000000000000000000000000000000000000000000000000000000000000000000000
310
0000000000000000000000000000002828000000000000000000000000002D000000000000000000000000000000000000000000000000000000000000F50000000000000000000000000000000000000000000000000000000000000000000000000000000000000000000000000000000000000000000000000000000000
310
00000000000000000000000000000000000000000000000000000000000000F500000000000000000000000000000000000000000000002D0000000000000000000000000000000000000000000000000000000000002800000000000000000000000000000000000000000000000000000000000000000000000000000000
310
00000000000000000000000000000000002828000000000000000000000000002D000000000000000000000000000000000000000000000000000000000000F5000000000000000000000000000000000000000000000000000000000000000000000000000000000000000000000000000000000000000000000000000000
310
000000000000000000000000000000000000000000000000000000000000000000F500000000000000000000000000000000000000000000002D0000002D2D2D2D2D2D2D2D2D2D2D2D2D2D2D2D2D2D282828282828282828280000000000000000000000000000000000000000000000000000000000000000000000000000
310
000000000000000000000000000000000000002828000000000000000000000000002D000000000000000000000000000000000000000000000000000000000000F500000000000000000000000000000000000000000000000000000000000000000000000000000000000000000000000000000000000000000000000000
310
0000000000000000000000000000000000000000000000000000000000000000000000F500000000000000000000000000000000000000000000002D000000002D0000000000000000000000000000000028282828282828282828000000000000000000000000000000000000000000000000000000000000000000000000
310
0000000000000000000000000000000000000000002828000000000000000000000000002D000000000000000000000000000000000000000000000000000000000000F50000000000000000000000000000000000000000000000000000000000000000000000000000000000000000000000000000000000000000000000
310
00000000000000000000000000000000000000000000000000000000000000000000000000F500000000000000000000000000000000000000000000002D000000002D000000000000000000000000000000002828000000000000002800000000000000000000000000000000000000000000000000000000000000000000
310
00000000000000000000000000000000000000000000002828000000000000000000000000002D000000000000000000000000000000000000000000000000000000000000F5000000000000000000000000000000000000000000000000000000000000000000000000000000000000000000000000000000000000000000
310
000000000000000000000000000000000000000000000000000000000000000000000000000000F500000000000000000000000000000000000000000000002D000000002D00000000000000000000000000000000282800000000000028280000000000000000000000000000000000000000000000000000000000000000
310
000000000000000000000000000000000000000000000000002828000000000000000000000000002D000000000000000000000000000000000000000000000000000000000000F500000000000000000000000000000000000000000000000000000000000000000000000000000000000000000000000000000000000000
310
0000000000000000000000000000000000000000000000000000000000000000000000000000000000F500000000000000000000000000000000000000000000002D000000002D0000000000000000000000000000000028000000000000282828000000000000000000000000000000000000000000000000000000000000
310
0000000000000000000000000000000000000000000000000000002828280000000000000000000000002D000000000000000000000000000000000000000000000000000000000000F50000000000000000000000000000000000000000000000000000000000000000000000000000000000000000000000000000000000
310
00000000000000000000000000000000000000000000000000000000000000000000000000000000000000F500000000000000000000000000000000000000000000002D000000002D000000000000000000000000000000282800002828282828282800000000000000000000000000000000000000000000000000000000
310
00000000000000000000000000000000000000000000000000000000000028280000000000000000000000002D000000000000000000000000000000000000000000000000000000000000F5000000000000000000000000000000000000000000000000000000000000000000000000000000000000000000000000000000
310
000000000000000000000000000000000000000000000000000000000000000000000000000000000000000000F500000000000000000000000000000000000000000000002D000000002D00000000000000000000000000000028282828282828280000000000000000000000000000000000000000000000000000000000
310
000000000000000000000000000000000000000000000000000000000000000028280000000000000000000000002D000000000000000000000000000000000000000000000000000000000000F500000000000000000000000000000000000000000000000000000000000000000000000000000000000000000000000000
310
0000000000000000000000000000000000000000000000000000000000000000000000000000000000000000000000F500000000000000000000000000000000000000000000002D000000002D0000000000000000000000000000002828282800000000000000000000000000000000000000000000000000000000000000
310
0000000000000000000000000000000000000000000000000000000000000000000028280000000000000000000000002D000000000000000000000000000000000000000000000000000000000000F50000000000000000000000000000000000000000000000000000000000000000000000000000000000000000000000
310
00000000000000000000000000000000000000000000000000000000000000000000000000000000000000000000000000F500000000000000000000000000000000000000000000002D000000002D000000000000000000000000000000282800000000000000000000000000000000000000000000000000000000000000
310
00000000000000000000000000000000000000000000000000000000000000000000000028280000000000000000000000002D000000000000000000000000000000000000000000000000000000000000F5000000000000000000000000000000000000000000000000000000000000000000000000000000000000000000
310
000000000000000000000000000000000000000000000000000000000000000000000000000000000000000000000000000000F500000000000000000000000000000000000000000000002D000000002D00000000000000000000000000000028280000000000000000000000000000000000000000000000000000000000
310
000000000000000000000000000000000000000000000000000000000000000000000000000028280000000000000000000000002D000000000000000000000000000000000000000000000000000000000000F500000000000000000000000000000000000000000000000000000000000000000000000000000000000000
310
0000000000000000000000000000000000000000000000000000000000000000000000000000000000000000000000000000000000F500000000000000000000000000000000000000000000002D000000002D0000000000000000000000000000002828000000000000000000000000000000000000000000000000000000
310
0000000000000000000000000000000000000000000000000000000000000000000000000000000028280000000000000000000000002D000000000000000000000000000000000000000000000000000000000000F50000000000000000000000000000000000000000000000000000000000000000000000000000000000
310
00000000000000000000000000000000000000000000000000000000000000000000000000000000000000000000000000000000000000F500000000000000000000000000000000000000000000002D000000002D000000000000000000000000000000282800000000000000000000000000000000000000000000000000
310
00000000000000000000000000000000000000000000000000000000000000000000000000000000000028282800000000000000000000002D000000000000000000000000000000000000000000000000000000000000F5000000000000000000000000000000000000000000000000000000000000000000000000000000
310
000000000000000000000000000000000000000000000000000000000000000000000000000000000000000000000000000000000000000000F500000000000000000000000000000000000000000000002D000000002D00000000000000000000000000000028280000000000000000000000000000000000000000000000
310
000000000000000000000000000000000000000000000000000000000000000000000000000000000000000000282800000000000000000000002D000000000000000000000000000000000000000000000000000000000000F500000000000000000000000000000000000000000000000000000000000000000000000000
310
0000000000000000000000000000000000000000000000000000000000000000000000000000000000000000000000000000000000000000000000F500000000000000000000000000000000000000000000002D000000002D0000000000000000000000000000002828000000000000000000000000000000000000000000
310
0000000000000000000000000000000000000000000000000000000000000000000000000000000000000000000000282800000000000000002D2D002D000000000000000000000000000000000000000000000000000000000000F50000000000000000000000000000000000000000000000000000000000000000000000
310
00000000000000000000000000000000000000000000000000000000000000000000000000000000000000000000000000000000000000000000000000F500000000000000000000000000000000000000000000002D000000002D000000000000000000000000000000280000000000000000000000000000000000000000
310
00000000000000000000000000000000000000000000000000000000000000000000000000000000000000000000000000282800000000000000002D2D2D2D000000000000000000000000000000000000000000000000000000000000F5000000000000000000000000000000000000000000000000000000000000000000
310
000000000000000000000000000000000000000000000000000000000000000000000000000000000000000000000000000000000000000000000000000000F500000000000000000000000000000000000000000000002D000000002D00000000000000000000000000002828000000000000000000000000000000000000
310
000000000000000000000000000000000000000000000000000000000000000000000000000000000000000000000000000000282800000000000000002D2D2D2D000000000000000000000000000000000000000000000000000000000000F500000000000000000000000000000000000000000000000000000000000000
310
0000000000000000000000000000000000000000000000000000000000000000000000000000000000000000000000000000000000000000000000000000000000F500000000000000000000000000000000000000000000002D000000002D0000000000000000000000000000282800000000000000000000000000000000
310
0000000000000000000000000000000000000000000000000000000000000000000000000000000000000000000000000000000000282800000000000000002D2D2D2D000000000000000000000000000000000000000000000000000000000000F50000000000000000000000000000000000000000000000000000000000
310
00000000000000000000000000000000000000000000000000000000000000000000000000000000000000000000000000000000000000000000000000000000000000F500000000000000000000000000000000000000000000002D000000002D000000000000000000000000000028280000000000000000000000000000
310
00000000000000000000000000000000000000000000000000000000000000000000000000000000000000000000000000000000000000282800000000000000000000002D000000000000000000000000000000000000000000000000000000000000F5000000000000000000000000000000000000000000000000000000
310
000000000000000000000000000000000000000000000000000000000000000000000000000000000000000000000000000000000000000000000000000000000000000000F500000000000000000000000000000000000000000000002D000000002D00000000000000000000000000002828000000000000000000000000
310
000000000000000000000000000000000000000000000000000000000000000000000000000000000000000000000000000000000000000000002828000000000000000000002D000000000000000000000000000000000000000000000000000000000000F500000000000000000000000000000000000000000000000000
310
0000000000000000000000000000000000000000000000000000000000000000000000000000000000000000000000000000000000000000000000000000000000000000000000F500000000000000000000000000000000000000000000002D000000002D0000000000000000000000000000282800000000000000000000
310
0000000000000000000000000000000000000000000000000000000000000000000000000000000000000000000000000000000000000000000000002828000000000000000000002D000000000000000000000000000000000000000000000000000000000000F50000000000000000000000000000000000000000000000
310
00000000000000000000000000000000000000000000000000000000000000000000000000000000000000000000000000000000000000000000000000000000000000000000000000F500000000000000000000000000000000000000000000002D000000002D000000002D2D2D2D0000000000002D2D0000000000000000
310
00000000000000000000000000000000000000000000000000000000000000000000000000000000000000000000000000000000000000000000000000002828000000000000000000002D000000000000000000000000000000000000000000000000000000000000F5000000000000000000000000000000000000000000
310
000000000000000000000000000000000000000000000000000000000000000000000000000000000000000000000000000000000000000000000000000000000000000000000000000000F500000000000000000000000000000000000000000000002D000000002D0000000000002D2D2D2D2D2D2D2D2D2D2D2D2D000000
310
000000000000000000000000000000000000000000000000000000000000000000000000000000000000000000000000000000000000000000000000000000002828000000000000000000002D000000000000000000000000000000000000000000000000000000000000F500000000000000000000000000000000000000
310
0000000000000000000000000000000000000000000000000000000000000000000000000000000000000000000000000000000000000000000000000000000000000000000000000000000000F500000000000000000000000000000000000000000000002D000000002D00000000002D2D2D2D2D2D000000282800000000
310
0000000000000000000000000000000000000000000000000000000000000000000000000000000000000000000000000000000000000000000000000000000000002828000000000000000000002D000000000000000000000000000000000000000000000000000000000000F50000000000000000000000000000000000
310
00000000000000000000000000000000000000000000000000000000000000000000000000000000000000000000000000000000000000000000000000000000000000000000000000000000000000F50000000000000000000000000000000000000000002D2D2D000000002D0000000000002D2D002D0000000028280000
310
00000000000000000000000000000000000000000000000000000000000000000000000000000000000000000000000000000000000000000000000000000000000000002828000000000000000000002D000000000000000000000000000000000000000000000000000000000000F5000000000000000000000000000000
310
000000000000000000000000000000000000000000000000000000000000000000000000000000000000000000000000000000000000000000000000000000000000000000000000000000000000000000F50000000000000000000000000000000000000000002D2D2D000000002D00000000000000000000000000002828
310
000000000000000000000000000000000000000000000000000000000000000000000000000000000000000000000000000000000000000000000000000000000000000000002828280000000000000000002D000000000000000000000000000000000000000000000000000000000000F500000000000000000000000000
310
0000000000000000000000000000000000000000000000000000000000000000000000000000000000000000000000000000000000000000000000000000000000000000000000000000000000000000000000F50000000000000000000000000000000000000000002D2D2D000000002D0000000000000000000000000000
310
2828000000000000000000000000000000000000000000000000000000000000000000000000000000000000000000000000000000000000000000000000000000000000000000000028280000000000000000002D000000000000000000000000000000000000000000000000000000000000F50000000000000000000000
310
00000000000000000000000000000000000000000000000000000000000000000000000000000000000000000000000000000000000000000000000000000000000000000000000000000000000000000000000000F50000000000000000000000000000000000000000002D2D2D000000002D000000000000000000000000
310
00002828000000000000000000000000000000000000000000000000000000000000000000000000000000000000000000000000000000000000000000000000000000000000000000000028280000000000000000002D000000000000000000000000000000000000000000000000000000000000F5000000000000000000
310
000000000000000000000000000000000000000000000000000000000000000000000000000000000000000000000000000000000000000000000000000000000000000000000000000000000000000000000000000000F500000000000000000000000000000000000000000000002D00002D2D2D00000000000000000000
310
000000002828000000000000000000000000000000000000000000000000000000000000000000000000000000000000000000000000000000000000000000000000000000000000000000000028280000000000000000002D000000000000000000000000000000000000000000000000000000000000F500000000000000
310
0000000000000000000000000000000000000000000000000000000000000000000000000000000000000000000000000000000000000000000000000000000000000000000000000000000000000000000000000000000000F500000000000000000000000000000000000000000000002D002D2D2D2D0000000000000000
310
000000000000280000000000000000000000000000000000000000000000000000000000000000000000000000000000000000000000000000000000002D2D2D2D2D2D2D2D2D2D2D2D28282828000028280000000000000000002D000000000000000000000000000000000000000000000000000000000000F50000000000
310
00000000000000000000000000000000000000000000000000000000000000000000000000000000000000000000000000000000000000000000000000000000000000000000000000000000000000000000000000000000000000F500000000000000000000000000000000000000000000002D002D2D2D2D000000000000
310
000000000000000028000000000000000000000000000000000000000000000000000000000000000000000000000000000000000000000000000000000000002D0000000000000000002D28000028280028280000000000000000002D000000000000000000000000000000000000000000000000000000000000F5000000
310
000000000000000000000000000000000000000000000000000000000000000000000000000000000000000000000000000000000000000000000000000000000000000000000000000000000000000000000000000000000000000000F500000000000000000000000000000000000000000000002D002D2D2D2D00000000
310
0000000000000000002828000000000000000000000000000000000000000000000000000000000000000000000000000000000000000000000000000000000000002D0000000000000000002D28280028282828280000000000000000002D000000000000000000000000000000000000000000000000000000000000F500
310
0000000000000000000000000000000000000000000000000000000000000000000000000000000000000000000000000000000000000000000000000000000000000000000000000000000000000000000000000000000000000000000000F500000000000000000000000000000000000000000000002D002D2D2D2D0000
310
00000000000000000000002828000000000000000000000000000000000000000000000000000000000000000000000000000000000000000000000000000000000000002D0000000000000000002D28280000002828280000000000000000002D000000000000000000000000000000000000000000000000000000000000
310
F5000000000000000000000000000000000000000000000000000000000000000000000000000000000000000000000000000000000000000000000000000000000000000000000000000000000000000000000000000000000000000000000000F500000000000000000000000000000000000000000000002D000000002D
310
000000000000000000000000002828000000000000000000000000000000000000000000000000000000000000000000000000000000000000000000000000000000002D2D2D2D0000000000000000002D28280000000028280000000000000000002D00000000000000000000000000000000000000000000000000000000
310
0000F5000000000000000000000000000000000000000000000000000000000000000000000000000000000000000000000000000000000000000000000000000000000000000000000000000000000000000000000000000000000000000000000000F500000000000000000000000000000000000000000000002D000000
310
002D000000000000000000000000002828000000000000000000000000000000000000000000000000000000000000000000000000000000000000000000000000000000002D2D2D2D0000000000000000002D28280000000028280000000000000000002D0000000000000000000000000000000000000000000000000000
310
00000000F5000000000000000000000000000000000000000000000000000000000000000000000000000000000000000000000000000000000000000000000000000000000000000000000000000000000000000000000000000000000000000000000000F500000000000000000000000000000000000000000000002D00
310
0000002D000000000000000000000000002828000000000000000000000000000000000000000000000000000000000000000000000000000000000000000000000000000000002D2D2D2D0000000000000000002D00282800000028280000000000000000002D000000000000000000000000000000000000000000000000
310
000000000000F5000000000000000000000000000000000000000000000000000000000000000000000000000000000000000000000000000000000000000000000000000000000000000000000000000000000000000000000000000000000000000000000000F50000000000000000000000000000000000000000000000
310
2D000000002D00000000000000000000000000282800000000000000000000000000000000000000000000000000000000000000000000000000000000000000000000000000000000002D2D2D0000000000000000002D00282800000028280000000000000000002D00000000000000000000000000000000000000000000
310
0000000000000000F5000000000000000000000000000000000000000000000000000000000000000000000000000000000000000000000000000000000000000000000000000000000000000000000000000000000000000000000000000000000000000000000000F5000000000000000000000000000000000000000000
310
00002D000000002D000000000000000000000000002828282800000000000000000000000000000000000000000000000000000000000000000000000000000000000000000000000000000000002D0000000000000000002D00282800000028280000000000000000002D0000000000000000000000000000000000000000
310
00000000000000000000F5000000000000000000000000000000000000000000000000000000000000000000000000000000000000000000000000000000000000000000000000000000000000000000000000000000000000000000000000000000000000000000000000F500000000000000000000000000000000000000
310
000000002D000000002D000000000000000000000000002828282828280000000000000000000000000000000000000000000000000000000000000000000000000000000000000000000000000000002D0000000000000000002D002800280000282800000000000000002D2D000000000000000000000000000000000000
310
000000000000000000000000F5000000000000000000000000000000000000000000000000000000000000000000000000000000000000000000000000000000000000000000000000000000000000000000000000000000000000000000000000000000000000000000000000F50000000000000000000000000000000000
310
0000000000002D000000002D000000000000000000000000002828000028282828000000000000000000000000000000000000000000000000000000000000000000000000000000000000000000000000002D0000000000000000002D00002828282828280000000000000000002D00000000000000000000000000000000
310
0000000000000000000000000000F5000000000000000000000000000000000000000000000000000000000000000000000000000000000000000000000000000000000000000000000000000000000000000000000000000000000000000000000000000000000000000000000000F5000000000000000000000000000000
310
00000000000000002D000000002D0000000000000000000000000028280000000028282828000000000000000000000000000000000000000000000000000000000000000000000000000000000000000000002D2D2D2D2D2D2D2D2D2D2D2D2D2D28282D2D2D2D2D2D2D2D2D2D2D2D2D2D0000000000000000000000000000
310
00000000000000000000000000000000F5000000000000000000000000000000000000000000000000000000000000000000000000000000000000000000000000000000000000000000000000000000000000000000000000000000000000000000000000000000000000000000000000F500000000000000000000000000
310
000000000000000000002D000000002D00000000000000000000000000282800000000000028282800000000000000000000000000000000000000000000000000000000000000000000000000000000000000000000000000000000000000002D000000000000002D00000000000000000000000000000000000000000000
310
000000000000000000000000000000000000F5000000000000000000000000000000000000000000000000000000000000000000000000000000000000000000000000000000000000000000000000000000000000000000000000000000000000000000000000000000000000000000000000F50000000000000000000000
310
0000000000000000000000002D000000002D00000000000000000000000000282800000000000000002828000000000000000000000000000000000000000000000000000000000000000000000000000000000000000000000000000000000000002D000000000000002D0000000000000000000000000000000000000000
310
0000000000000000000000000000000000000000F5000000000000000000000000000000000000000000000000000000000000000000000000000000000000000000000000000000000000000000000000000000000000000000000000000000000000000000000000000000000000000000000000F5000000000000000000
310
00000000000000000000000000002D000000002D00000000000000000000000000282800000028282828282828000000000000000000000000000000000000000000000000000000000000000000000000000000000000000000000000000000000000002D000000000000002D000000000000000000000000000000000000
310
00000000000000000000000000000000000000000000F5000000000000000000000000000000000000000000000000000000000000000000000000000000000000000000000000000000000000000000000000000000000000000000000000000000000000000000000000000000000000000000000000F500000000000000
310
000000000000000000000000000000002D000000002D00000000000000000000000000282800282828282828282800000000000000000000000000000000000000000000000000000000000000000000000000000000000000000000000000000000000000002D000000000000002D00000000000000000000000000000000
310
000000000000000000000000000000000000000000000000F5000000000000000000000000000000000000000000000000000000000000000000000000000000000000000000000000000000000000000000000000000000000000000000000000000000000000000000000000000000000000000000000000F50000000000
310
0000000000000000000000000000000000002D000000002D00000000000000000000000000282828000000000000000000000000000000000000000000000000000000000000000000000000000000000000000000000000000000000000000000000000000000002D000000000000002D0000000000000000000000000000
310
0000000000000000000000000000000000000000000000000000F5000000000000000000000000000000000000000000000000000000000000000000000000000000000000000000000000000000000000000000000000000000000000000000000000000000000000000000000000000000000000000000000000F5000000
310
00000000000000000000000000000000000000002D000000002D00000000000000000000000000282800000000000000000000000000000000000000000000000000000000000000000000000000000000000000000000000000000000000000000000000000000000002D000000000000002D000000000000000000000000
310
00000000000000000000000000000000000000000000000000000000F5000000000000000000000000000000000000000000000000000000000000000000000000000000000000000000000000000000000000000000000000000000000000000000000000000000000000000000000000000000000000000000000000F500
310
000000000000000000000000000000000000000000002D000000002D00000000000000000000000000282800000000000000000000000000000000000000000000000000000000000000000000000000000000000000000000000000000000000000000000000000000000002D000000000000002D00000000000000000000
310
000000000000000000000000000000000000000000000000000000000000F5000000000000000000000000000000000000000000000000000000000000000000000000000000000000000000000000000000000000000000000000000000000000000000000000000000000000000000000000000000000000000000000000
310
F500000000000000000000000000000000000000000000002D000000002D00000000000000000000000000282800000000000000000000000000000000000000000000000000000000000000000000000000000000000000000000000000000000000000000000000000000000002D000000000000002D0000000000000000
310
0000000000000000000000000000000000000000000000000000000000000000F500000000000000000000000000000000000000000000000000000000000000000000000000000000000000000000000000000000000000000000000000000000000000000000000000000000000000000000000000000000000000000000
310
0000F500000000000000000000000000000000000000000000002D000000002D00000000000000000000000000282800000000000000000000000000000000000000000000000000000000000000000000000000000000000000000000000000000000000000000000000000000000002D000000000000002D000000000000
310
00000000000000000000000000000000000000000000000000000000000000000000F50000000000000000000000000000000000000000000000000000000000000000000000000000000000000000000000000000000000000000000000000000000000000000000000000000000000000000000000000000000000000000
310
00000000F500000000000000000000000000000000000000000000002D000000002D00000000000000000000000000282800000000000028282828000000000000000000000000000000000000000000000000000000000000000000000000000000000000000000000000000000000000002D2D2D2D2D2D2D2D2D00000000
310
000000000000000000000000000000000000000000000000000000000000000000000000F5000000000000000000000000000000000000000000000000000000000000000000000000000000000000000000000000000000000000000000000000000000000000000000000000000000000000000000000000000000000000
310
000000000000F500000000000000000000000000000000000000000000002D000000002D00000000000000000000000000280028000000000000282828280000000000000000000000000000000000000000000000000000000000000000000000000000000000000000000000000000000000002D00002D2D2D00002D0000
310
0000000000000000000000000000000000000000000000000000000000000000000000000000F500000000000000000000000000000000000000000000000000000000000000000000000000000000000000000000000000000000000000000000000000000000000000000000000000000000000000000000000000000000
310
0000000000000000F500000000000000000000000000000000000000000000002D000000002D00000000000000000000000000282828000000000000282828280000000000000000000000000000000000000000000000000000000000000000000000000000000000000000000000000000000000000000002D2D2D00002D
310
00000000000000000000000000000000000000000000000000000000000000000000000000000000F50000000000000000000000000000000000000000000000000000000000000000000000000000000000000000000000000000000000000000000000000000000000000000000000000000000000000000000000000000
310
00000000000000000000F500000000000000000000000000000000000000000000002D000000002D00000000000000000000000000282828282828282828280000280000000000000000000000000000000000000000000000000000000000000000000000000000000000000000000000000000000000000000002D2D2D00
310
002D00000000000000000000000000000000000000000000000000000000000000000000000000000000F5000000000000000000000000000000000000000000000000000000000000000000000000000000000000000000000000000000000000000000000000000000000000000000000000000000000000000000000000
310
000000000000000000000000F500000000000000000000000000000000000000000000002D000000002D00000000000000000000000000282800002828282828282828280000000000000000000000000000000000000000000000000000000000000000000000000000000000000000000000000000000000000000000000
310
0000002D00000000000000000000000000000000000000000000000000000000000000000000000000000000F500000000000000000000000000000000000000000000000000000000000000000000000000000000000000000000000000000000000000000000000000000000000000000000000000000000000000000000
310
0000000000000000000000000000F500000000000000000000000000000000000000000000002D000000002D0000000000000000000000000028280000002828282828282828000000000000000000000000000000000000000000000000000000000000000000000000000000000000000000000000000000000000000000
310
00000000002D00000000000000000000000000000000000000000000000000000000000000000000000000000000F50000000000000000000000000000000000000000000000000000000000000000000000000000000000000000000000000000000000000000000000000000000000000000000000000000000000000000
310
00000000000000000000000000000000F500000000000000000000000000000000000000000000002D000000002D000000000000000000000000002828282828282828280000002D00000000000000000000000000000000000000000000000000000000000000000000000000000000000000000000000000000000000000
310
000000000000002D00000000000000000000000000000000000000000000000000000000000000000000000000000000F5000000000000000000000000000000000000000000000000000000000000000000000000000000000000000000000000000000000000000000000000000000000000000000000000000000000000
310
000000000000000000000000000000000000F500000000000000000000000000000000000000000000002D000000002D000000000000000000000000002828282800000000000000002D0000000000000000000000000000000000000000000000000000000000000000000000000000000000000000000000000000000000
310
0000000000000000002D00000000000000000000000000000000000000000000000000000000000000000000000000000000F500000000000000000000000000000000000000000000000000000000000000000000000000000000000000000000000000000000000000000000000000000000000000000000000000000000
310
0000000000000000000000000000000000000000F500000000000000000000000000000000000000000000002D2D0000002D000000000000000000000000002828282800000000000000002D000000000000000000000000000000000000000000000000000000000000000000000000000000000000000000000000000000
310
00000000000000000000002D00000000000000000000000000000000000000000000000000000000000000000000000000000000F50000000000000000000000000000000000000000000000000000000000000000000000000000000000000000000000000000000000000000000000000000000000000000000000000000
310
00000000000000000000000000000000000000000000F500000000000000000000000000000000000000000000002D2D0000002D000000000000000000000000002828002800000000000000002D00000000000000000000000000000000000000000000000000000000000000000000000000000000000000000000000000
310
000000000000000000000000002D00000000000000000000000000000000000000000000000000000000000000000000000000000000F5000000000000000000000000000000000000000000000000000000000000000000000000000000000000000000000000000000000000000000000000000000000000000000000000
310
000000000000000000000000000000000000000000000000F5000000000000000000000000000000000000000000002D2D2D2D2D2D2D2D2D2D2D2D2D2D2D2D2D2D2D2D2828280000000000000000002D0000000000000000000000000000000000000000000000000000000000000000000000000000000000000000000000
310
0000000000000000000000000000002D00000000000000000000000000000000000000000000000000000000000000000000000000000000F500000000000000000000000000000000000000000000000000000000000000000000000000000000000000000000000000000000000000000000000000000000000000000000
310
0000000000000000000000000000000000000000000000000000F50000000000000000000000000000000000000000000000000000000000000000000000000000000000002D00000000000000000000002D000000000000000000000000000000000000000000000000000000000000000000000000000000000000000000
310
00000000000000000000000000000000002D00000000000000000000000000000000000000000000000000000000000000000000000000000000F50000000000000000000000000000000000000000000000000000000000000000000000000000000000000000000000000000000000000000000000000000000000000000
310
00000000000000000000000000000000000000000000000000000000F50000000000000000000000000000000000000000000000000000000000000000000000000000000000002D00000000000000000000002D00000000000000000000000000000000000000000000000000000000000000000000000000000000000000
310
000000000000000000000000000000000000002D00000000000000000000000000000000000000000000000000000000000000000000000000000000F5000000000000000000000000000000000000000000000000000000000000000000000000000000000000000000000000000000000000000000000000000000000000
310
000000000000000000000000000000000000000000000000000000000000F50000000000000000000000000000000000000000000000000000000000000000000000000000000000002D00000000000000000000002D0000000000000000000000000000000000000000000000000000000000000000000000000000000000
310
0000000000000000000000000000000000000000002D00000000000000000000000000000000000000000000000000000000000000000000000000000000F500000000000000000000000000000000000000000000000000000000000000000000000000000000000000000000000000000000000000000000000000000000
310
0000000000000000000000000000000000000000000000000000000000000000F50000000000000000000000000000000000000000000000000000000000000000000000000000000000002D00000000000000000000002D000000000000000000000000000000000000000000000000000000000000000000000000000000
310
00000000000000000000000000000000000000000000002D00000000000000000000000000000000000000000000000000000000000000000000000000000000F50000000000000000000000000000000000000000000000000000000000000000000000000000000000000000000000000000000000000000000000000000
310
00000000000000000000000000000000000000000000000000000000000000000000F50000000000000000000000000000000000000000000000000000000000000000000000000000000000002D00000000000000000000002D00000000000000000000000000000000000000000000000000000000000000000000000000
310
000000000000000000000000000000000000000000000000002D00000000000000000000000000000000000000000000000000000000000000000000000000000000F5000000000000000000000000000000000000000000000000000000000000000000000000000000000000000000000000000000000000000000000000
310
000000000000000000000000000000000000000000000000000000000000000000000000F50000000000000000000000000000000000000000000000000000000000000000000000000000000000002D2D2D2D2D2D2D2D2D2D2D2D2D0000000000000000000000000000000000000000000000000000000000000000000000
310
0000000000000000000000000000000000000000000000000000002D00000000000000000000000000000000000000000000000000000000000000000000000000000000F500000000000000000000000000000000000000000000000000000000000000000000000000000000000000000000000000000000000000000000
310
0000000000000000000000000000000000000000000000000000000000000000000000000000F50000000000000000000000000000000000000000000000000000000000000000000000000000000000002D2D2D00002D2D2D2D00002D2D000000000000000000000000000000000000000000000000000000000000000000
310
00000000000000000000000000000000000000000000000000000000002D00000000000000000000000000000000000000000000000000000000000000000000000000000000F50000000000000000000000000000000000000000000000000000000000000000000000000000000000000000000000000000000000000000
310
00000000000000000000000000000000000000000000000000000000000000000000000000000000F50000000000000000000000000000000000000000000000000000000000000000000000000000000000002D000000002D2D2D2D0000000000000000000000000000000000000000000000000000000000000000000000
310
000000000000000000000000000000000000000000000000000000000000002D00000000000000000000000000000000000000000000000000000000000000000000000000000000F5000000000000000000000000000000000000000000000000000000000000000000000000000000000000000000000000000000000000
310
000000000000000000000000000000000000000000000000000000000000000000000000000000000000F50000000000000000000000000000000000000000000000000000000000000000000000000000000000002D000000002D2D2D2D000000000000000000000000000000000000000000000000000000000000000000
310
0000000000000000000000000000000000000000000000000000000000000000002D00000000000000000000000000000000000000000000000000000000000000000000000000000000F500000000000000000000000000000000000000000000000000000000000000000000000000000000000000000000000000000000
310
0000000000000000000000000000000000000000000000000000000000000000000000000000000000000000F50000000000000000000000000000000000000000000000000000000000000000000000000000000000002D2D2D2D2D2D2D2D2D2D2D2D2D2D2D2D2D2D2D2D2D2D2D2D2D2D2D2D2D2D2D2D2D2D2D2D2D2D2D2D
310
2D2D2D2D2D2D2D2D2D2D2D2D2D2D2D2D2D2D2D2D2D2D2D2D2D2D2D2D2D2D2D2D2D2D2D2D00000000000000000000000000000000000000000000000000000000000000000000000000000000F50000000000000000000000000000000000000000000000000000000000000000000000000000000000000000000000000000
310
00000000000000000000000000000000000000000000000000000000000000000000000000000000000000000000F50000000000000000000000000000000000000000000000000000000000000000000000000000000000002D2D2D0000000000000000000000000000000000000000000000000000000000000000002D2D
310
2D2D0000000000000000000000000000000000000000000000000000000000000000002D2D2D00000000000000000000000000000000000000000000000000000000000000000000000000000000F5000000000000000000000000000000000000000000000000000000000000000000000000000000000000000000000000
310
000000000000000000000000000000000000000000000000000000000000000000000000000000000000000000000000F5000000000000000000000000000000000000000000000000000000000000000000000000000000000000000000000000000000000000000000000000000000000000000000000000000000000000
310
2D2D2D2D00000000000000000000000000000000000000000000000000000000000000000000000000000000000000000000000000000000000000000000000000000000000000000000000000000000F500000000000000000000000000000000000000000000000000000000000000000000000000000000000000000000
310
0000000000000000000000000000000000000000000000000000000000000000000000000000000000000000000000000000F500000000000000000000000000000000000000000000000000000000000000000000000000000000000000000000000000000000000000000000000000000000000000000000000000000000
310
00002D2D2D2D00000000000000000000000000000000000000000000000000000000000000000000000000000000000000000000000000000000000000000000000000000000000000000000000000000000F50000000000000000000000000000000000000000000000000000000000000000000000000000000000000000
310
00000000000000000000000000000000000000000000000000000000000000000000000000000000000000000000000000000000F50000000000000000000000000000000000000000000000000000000000000000000000000000000000000000000000000000000000000000000000000000000000000000000000000000
310
000000000000000000000000000000000000000000000000000000000000000000000000000000000000000000000000000000000000000000000000000000000000000000000000000000000000000000000000F5000000000000000000000000000000000000000000000000000000000000000000000000000000000000
310
000000000000000000000000000000000000000000000000000000000000000000000000000000000000000000000000000000000000F5000000000000000000000000000000000000000000000000000000000000000000000000000000000000000000000000000000000000000000000000000000000000000000000000
310
0000000000000000000000000000000000000000000000000000000000000000000000000000000000000000000000000000000000000000000000000000000000000000000000000000000000000000000000000000F500000000000000000000000000000000000000000000000000000000000000000000000000000000
310
0000000000000000000000000000000000000000000000000000000000000000000000000000000000000000000000000000000000000000F500000000000000000000000000000000000000000000000000000000000000000000000000000000000000000000000000000000000000000000000000000000000000000000
310
00000000000000000000000000000000000000000000000000000000000000000000000000000000000000000000000000000000000000000000000000000000000000000000000000000000000000000000000000000000F50000000000000000000000000000000000000000000000000000000000000000000000000000
310
00000000000000000000000000000000000000000000000000000000000000000000000000000000000000000000000000000000000000000000F50000000000000000000000000000000000000000000000000000000000000000000000000000000000000000000000000000000000000000000000000000000000000000
310
000000000000000000000000000000000000000000000000000000000000000000000000000000000000000000000000000000000000000000000000000000000000000000000000000000000000000000000000000000000000F5000000000000000000000000000000000000000000000000000000000000000000000000
310
000000000000000000000000000000000000000000000000000000000000000000000000000000000000000000000000000000000000000000000000F5000000000000000000000000000000000000000000000000000000000000000000000000000000000000000000000000000000000000000000000000000000000000
310
0000000000000000000000000000000000000000000000000000000000000000000000000000000000000000000000000000000000000000000000000000000000000000000000000000000000000000000000000000000000000000F500000000000000000000000000000000000000000000000000000000000000000000
310
0000000000000000000000000000000000000000000000000000000000000000000000000000000000000000000000000000000000000000000000000000F5F5F5F5F5F5F5F5F5F5F5F5F5F5F5F5F5F5F5F5F5F5F5F5F5F5F5F5F5F5F5F5F5F5F5F5F5F5F5F5F5F5F5F5F5F5F5F5F5F5F5F5F5F5F5F5F5F5F5F5F5F5F5F5F5
310
F5F5F5F5F5F5F5F5F5F5F5F5F5F5F5F5F5F5F5F5F5F5F5F5F5F5F5F5F5F5F5F5F5F5F5F5F5F5F5F5F5F5F5F5F5F5F5F5F5F5F5F5F5F5F5F5F5F5F5F5F5F5F5F5F5F5F5F5F5F5F5F5F5F5F5F5F5F5F5F5F5F5F5F5F5F5F5F5F5F5F5F5F5F5F50000000000000000000000000000000000000000000000000000000000000000
310
00000000000000000000000000000000000000000000000000000000000000000000000000000000000000000000000000000000000000000000000000000000000000000000000000000000000000000000000000000000000000000000000000000000000000000000000000000000000000000000000000000000000000
310
00000000000000000000000000000000000000000000000000000000000000000000000000000000000000000000000000000000000000000000000000000000000000000000000000000000000000000000000000000000000000000000000000000000000000000000000000000000000000000000000000000000000000
310
00000000000000000000000000000000000000000000000000000000000000000000000000000000000000000000000000000000000000000000000000000000000000000000000000000000000000000000000000000000000000000000000000000000000000000000000000000000000000000000000000000000000000
310
00000000000000000000000000000000000000000000000000000000000000000000000000000000000000000000000000000000000000000000000000000000000000000000000000000000000000000000000000000000000000000000000000000000000000000000000000000000000000000000000000000000000000
310
0000000000000000000000000000000000000000000000000000000000000000000000000000000000000000
  0
XRECORD
  5
2E81
102
{ACAD_REACTORS
330
2E80
102
}
330
2E80
100
AcDbXrecord
280
     1
102
SHADEPLOT
 70
     0
102
SHADEPLOTRESLEVEL
 70
     2
102
SHADEPLOTCUSTOMDPI
 70
   300
  0
XRECORD
  5
2E32
102
{ACAD_REACTORS
330
2DAC
102
}
330
2DAC
100
AcDbXrecord
280
     1
102
MATERIAL
148
0.0
149
0.0
149
0.0
 93
        0
 94
      127
282
     0
 72
     0
 77
     0
171
     0
175
     0
179
     0
273
     0
  0
XRECORD
  5
2DAE
102
{ACAD_REACTORS
330
2DAC
102
}
330
2DAC
100
AcDbXrecord
280
     1
270
     1
271
     1
  0
XRECORD
  5
2DAD
102
{ACAD_REACTORS
330
2DAC
102
}
330
2DAC
100
AcDbXrecord
280
     1
270
     1
271
     1
  0
XRECORD
  5
2DB1
102
{ACAD_REACTORS
330
2DAC
102
}
330
2DAC
100
AcDbXrecord
280
     1
270
     1
271
     1
  0
XRECORD
  5
2DB0
102
{ACAD_REACTORS
330
2DAC
102
}
330
2DAC
100
AcDbXrecord
280
     1
270
     1
271
     1
  0
XRECORD
  5
2DB2
102
{ACAD_REACTORS
330
2DAC
102
}
330
2DAC
100
AcDbXrecord
280
     1
270
     1
271
     1
  0
XRECORD
  5
2DAF
102
{ACAD_REACTORS
330
2DAC
102
}
330
2DAC
100
AcDbXrecord
280
     1
270
     1
271
     1
  0
XRECORD
  5
2E31
102
{ACAD_REACTORS
330
2DA4
102
}
330
2DA4
100
AcDbXrecord
280
     1
102
MATERIAL
148
0.0
149
0.0
149
0.0
 93
        0
 94
      127
282
     0
 72
     0
 77
     0
171
     0
175
     0
179
     0
273
     0
  0
XRECORD
  5
2DA6
102
{ACAD_REACTORS
330
2DA4
102
}
330
2DA4
100
AcDbXrecord
280
     1
270
     1
271
     1
  0
XRECORD
  5
2DA5
102
{ACAD_REACTORS
330
2DA4
102
}
330
2DA4
100
AcDbXrecord
280
     1
270
     1
271
     1
  0
XRECORD
  5
2DA9
102
{ACAD_REACTORS
330
2DA4
102
}
330
2DA4
100
AcDbXrecord
280
     1
270
     1
271
     1
  0
XRECORD
  5
2DA8
102
{ACAD_REACTORS
330
2DA4
102
}
330
2DA4
100
AcDbXrecord
280
     1
270
     1
271
     1
  0
XRECORD
  5
2DAA
102
{ACAD_REACTORS
330
2DA4
102
}
330
2DA4
100
AcDbXrecord
280
     1
270
     1
271
     1
  0
XRECORD
  5
2DA7
102
{ACAD_REACTORS
330
2DA4
102
}
330
2DA4
100
AcDbXrecord
280
     1
270
     1
271
     1
  0
XRECORD
  5
2E33
102
{ACAD_REACTORS
330
2DB4
102
}
330
2DB4
100
AcDbXrecord
280
     1
102
MATERIAL
148
0.0
149
0.0
149
0.0
 93
        0
 94
      127
282
     0
 72
     0
 77
     0
171
     0
175
     0
179
     0
273
     0
  0
XRECORD
  5
2DB6
102
{ACAD_REACTORS
330
2DB4
102
}
330
2DB4
100
AcDbXrecord
280
     1
270
     1
271
     1
  0
XRECORD
  5
2DB5
102
{ACAD_REACTORS
330
2DB4
102
}
330
2DB4
100
AcDbXrecord
280
     1
270
     1
271
     1
  0
XRECORD
  5
2DB9
102
{ACAD_REACTORS
330
2DB4
102
}
330
2DB4
100
AcDbXrecord
280
     1
270
     1
271
     1
  0
XRECORD
  5
2DB8
102
{ACAD_REACTORS
330
2DB4
102
}
330
2DB4
100
AcDbXrecord
280
     1
270
     1
271
     1
  0
XRECORD
  5
2DBA
102
{ACAD_REACTORS
330
2DB4
102
}
330
2DB4
100
AcDbXrecord
280
     1
270
     1
271
     1
  0
XRECORD
  5
2DB7
102
{ACAD_REACTORS
330
2DB4
102
}
330
2DB4
100
AcDbXrecord
280
     1
270
     1
271
     1
  0
ACAD_PROXY_OBJECT
  5
2E25
102
{ACAD_REACTORS
330
2E24
102
}
330
2E24
100
AcDbProxyObject
 90
      499
 91
      565
 95
   983063
 70
     0
 93
     5304
310
40D054060020000020000003200101A000080002A5058000000C10000000000000006101010000000000003E0FC000000000000F83F0000000000003E0FC000000000000F83F000000000000049000000000000001240419019018000000C1003FBFFFFFE0000000000003C8FD029018000000C1003FBFFFFFE00000000000
310
03C8FD049018000000C1003FBFFFFFE0000000000003C8FD089018000000C1003FBFFFFFE0000000000003C8FD109018000000C1003FBFFFFFE0000000000003C8FD209018000000C1003FBFFFFFE0000000000003C8FD01405075F5449544C450041501A8000000C800406800020000A94160000003040000000000000012
310
40404000000000000F83F0000000000003E0FC000000000000F83F0000000000003E0FC0000000000001240000000000000049010640640600000030400FEFFFFFF8000000000000F23F40A40600000030400FEFFFFFF8000000000000F23F41240600000030400FEFFFFFF8000000000000F23F42240600000030400FEFFF
310
FFF8000000000000F23F44240600000030400FEFFFFFF8000000000000F23F48240600000030400FEFFFFFF8000000000000F23F409014217D2115051115480105406A0000003200101A000080002A5028000000C10000000000000004901010000000000003E0FC000000000000F83F0000000000003E0FC000000000000F
310
83F000000000000049000000000000001240419019018000000C1003FBFFFFFE0000000000003C8FD029018000000C1003FBFFFFFE0000000000003C8FD049018000000C1003FBFFFFFE0000000000003C8FD089018000000C1003FBFFFFFE0000000000003C8FD109018000000C1003FBFFFFFE0000000000003C8FD20901
310
8000000C1003FBFFFFFE0000000000003C8FD03409065F444154410000
340
10
340
0
340
0
340
0
340
0
340
0
340
0
340
10
340
0
340
0
340
0
340
0
340
0
340
0
340
10
340
0
340
0
340
0
340
0
340
0
340
0
 94
        0
1001
ACAD
1000
AcRTDxfName
1000
CELLSTYLEMAP
  0
XRECORD
  5
2E64
102
{ACAD_REACTORS
330
2E24
102
}
330
2E24
100
AcDbXrecord
280
     1
102
ACAD_ROUNDTRIP_PRE2007_TABLESTYLE
 90
      512
 91
        0
  1

 92
      512
 93
        0
  2

 94
      512
 95
        0
  3

  0
XRECORD
  5
2E3F
102
{ACAD_REACTORS
330
2E3E
102
}
330
2E3E
100
AcDbXrecord
280
     1
102
RTVSPropertyOp0
 70
     1
102
RTVSPropertyOp1
 70
     1
102
RTVSPropertyOp2
 70
     1
102
RTVSPropertyOp3
 70
     1
102
RTVSPropertyOp4
 70
     1
102
RTVSPropertyOp5
 70
     1
102
RTVSPropertyOp6
 70
     1
102
RTVSPropertyOp7
 70
     1
102
RTVSPropertyOp8
 70
     1
102
RTVSPropertyOp9
 70
     1
102
RTVSPropertyOp10
 70
     1
102
RTVSPropertyOp11
 70
     1
102
RTVSPropertyOp12
 70
     1
102
RTVSPropertyOp13
 70
     1
102
RTVSPropertyOp14
 70
     1
102
RTVSPropertyOp15
 70
     1
102
RTVSPropertyOp16
 70
     1
102
RTVSPropertyOp17
 70
     1
102
RTVSPropertyOp18
 70
     1
102
RTVSPropertyOp19
 70
     1
102
RTVSPropertyOp20
 70
     1
102
RTVSPropertyOp21
 70
     1
102
RTVSPropertyOp22
 70
     1
102
RTVSPropertyOp23
 70
     1
102
RTVSPropertyOp24
 70
     1
102
RTVSPropertyOp25
 70
     1
102
RTVSPropertyOp26
 70
     1
102
RTVSPropertyOp27
 70
     1
102
RTVSPropertyOp28
 70
     1
102
RTVSPropertyOp29
 70
     1
102
RTVSPropertyOp30
 70
     1
102
RTVSPropertyOp31
 70
     1
102
RTVSPropertyOp32
 70
     1
  0
XRECORD
  5
2E3D
102
{ACAD_REACTORS
330
2E3C
102
}
330
2E3C
100
AcDbXrecord
280
     1
102
RTVSPropertyOp0
 70
     1
102
RTVSPropertyOp1
 70
     1
102
RTVSPropertyOp2
 70
     1
102
RTVSPropertyOp3
 70
     1
102
RTVSPropertyOp4
 70
     1
102
RTVSPropertyOp5
 70
     1
102
RTVSPropertyOp6
 70
     1
102
RTVSPropertyOp7
 70
     1
102
RTVSPropertyOp8
 70
     1
102
RTVSPropertyOp9
 70
     1
102
RTVSPropertyOp10
 70
     1
102
RTVSPropertyOp11
 70
     1
102
RTVSPropertyOp12
 70
     1
102
RTVSPropertyOp13
 70
     1
102
RTVSPropertyOp14
 70
     1
102
RTVSPropertyOp15
 70
     1
102
RTVSPropertyOp16
 70
     1
102
RTVSPropertyOp17
 70
     1
102
RTVSPropertyOp18
 70
     1
102
RTVSPropertyOp19
 70
     1
102
RTVSPropertyOp20
 70
     1
102
RTVSPropertyOp21
 70
     1
102
RTVSPropertyOp22
 70
     1
102
RTVSPropertyOp23
 70
     1
102
RTVSPropertyOp24
 70
     1
102
RTVSPropertyOp25
 70
     1
102
RTVSPropertyOp26
 70
     1
102
RTVSPropertyOp27
 70
     1
102
RTVSPropertyOp28
 70
     1
102
RTVSPropertyOp29
 70
     1
102
RTVSPropertyOp30
 70
     1
102
RTVSPropertyOp31
 70
     1
102
RTVSPropertyOp32
 70
     1
  0
XRECORD
  5
2E4B
102
{ACAD_REACTORS
330
2E4A
102
}
330
2E4A
100
AcDbXrecord
280
     1
102
RTVSPropertyOp0
 70
     1
102
RTVSPropertyOp1
 70
     1
102
RTVSPropertyOp2
 70
     1
102
RTVSPropertyOp3
 70
     1
102
RTVSPropertyOp4
 70
     1
102
RTVSPropertyOp5
 70
     1
102
RTVSPropertyOp6
 70
     1
102
RTVSPropertyOp7
 70
     1
102
RTVSPropertyOp8
 70
     1
102
RTVSPropertyOp9
 70
     1
102
RTVSPropertyOp10
 70
     1
102
RTVSPropertyOp11
 70
     1
102
RTVSPropertyOp12
 70
     1
102
RTVSPropertyOp13
 70
     1
102
RTVSPropertyOp14
 70
     1
102
RTVSPropertyOp15
 70
     1
102
RTVSPropertyOp16
 70
     1
102
RTVSPropertyOp17
 70
     1
102
RTVSPropertyOp18
 70
     1
102
RTVSPropertyOp19
 70
     1
102
RTVSPropertyOp20
 70
     1
102
RTVSPropertyOp21
 70
     1
102
RTVSPropertyOp22
 70
     1
102
RTVSPropertyOp23
 70
     1
102
RTVSPropertyOp24
 70
     1
102
RTVSPropertyOp25
 70
     1
102
RTVSPropertyOp26
 70
     1
102
RTVSPropertyOp27
 70
     1
102
RTVSPropertyOp28
 70
     1
102
RTVSPropertyOp29
 70
     1
102
RTVSPropertyOp30
 70
     1
102
RTVSPropertyOp31
 70
     1
102
RTVSPropertyOp32
 70
     1
  0
XRECORD
  5
2E53
102
{ACAD_REACTORS
330
2E52
102
}
330
2E52
100
AcDbXrecord
280
     1
102
RTVSPropertyOp0
 70
     1
102
RTVSPropertyOp1
 70
     1
102
RTVSPropertyOp2
 70
     1
102
RTVSPropertyOp3
 70
     1
102
RTVSPropertyOp4
 70
     1
102
RTVSPropertyOp5
 70
     1
102
RTVSPropertyOp6
 70
     1
102
RTVSPropertyOp7
 70
     1
102
RTVSPropertyOp8
 70
     1
102
RTVSPropertyOp9
 70
     1
102
RTVSPropertyOp10
 70
     1
102
RTVSPropertyOp11
 70
     1
102
RTVSPropertyOp12
 70
     1
102
RTVSPropertyOp13
 70
     1
102
RTVSPropertyOp14
 70
     1
102
RTVSPropertyOp15
 70
     1
102
RTVSPropertyOp16
 70
     1
102
RTVSPropertyOp17
 70
     1
102
RTVSPropertyOp18
 70
     1
102
RTVSPropertyOp19
 70
     1
102
RTVSPropertyOp20
 70
     1
102
RTVSPropertyOp21
 70
     1
102
RTVSPropertyOp22
 70
     1
102
RTVSPropertyOp23
 70
     1
102
RTVSPropertyOp24
 70
     1
102
RTVSPropertyOp25
 70
     1
102
RTVSPropertyOp26
 70
     1
102
RTVSPropertyOp27
 70
     1
102
RTVSPropertyOp28
 70
     1
102
RTVSPropertyOp29
 70
     1
102
RTVSPropertyOp30
 70
     1
102
RTVSPropertyOp31
 70
     1
102
RTVSPropertyOp32
 70
     1
  0
XRECORD
  5
2E45
102
{ACAD_REACTORS
330
2E44
102
}
330
2E44
100
AcDbXrecord
280
     1
102
RTVSPropertyOp0
 70
     1
102
RTVSPropertyOp1
 70
     1
102
RTVSPropertyOp2
 70
     1
102
RTVSPropertyOp3
 70
     1
102
RTVSPropertyOp4
 70
     1
102
RTVSPropertyOp5
 70
     1
102
RTVSPropertyOp6
 70
     1
102
RTVSPropertyOp7
 70
     1
102
RTVSPropertyOp8
 70
     1
102
RTVSPropertyOp9
 70
     1
102
RTVSPropertyOp10
 70
     1
102
RTVSPropertyOp11
 70
     1
102
RTVSPropertyOp12
 70
     1
102
RTVSPropertyOp13
 70
     1
102
RTVSPropertyOp14
 70
     1
102
RTVSPropertyOp15
 70
     1
102
RTVSPropertyOp16
 70
     1
102
RTVSPropertyOp17
 70
     1
102
RTVSPropertyOp18
 70
     1
102
RTVSPropertyOp19
 70
     1
102
RTVSPropertyOp20
 70
     1
102
RTVSPropertyOp21
 70
     1
102
RTVSPropertyOp22
 70
     1
102
RTVSPropertyOp23
 70
     1
102
RTVSPropertyOp24
 70
     1
102
RTVSPropertyOp25
 70
     1
102
RTVSPropertyOp26
 70
     1
102
RTVSPropertyOp27
 70
     1
102
RTVSPropertyOp28
 70
     1
102
RTVSPropertyOp29
 70
     1
102
RTVSPropertyOp30
 70
     1
102
RTVSPropertyOp31
 70
     1
102
RTVSPropertyOp32
 70
     1
  0
XRECORD
  5
2E49
102
{ACAD_REACTORS
330
2E48
102
}
330
2E48
100
AcDbXrecord
280
     1
102
RTVSPropertyOp0
 70
     1
102
RTVSPropertyOp1
 70
     1
102
RTVSPropertyOp2
 70
     1
102
RTVSPropertyOp3
 70
     1
102
RTVSPropertyOp4
 70
     1
102
RTVSPropertyOp5
 70
     1
102
RTVSPropertyOp6
 70
     1
102
RTVSPropertyOp7
 70
     1
102
RTVSPropertyOp8
 70
     1
102
RTVSPropertyOp9
 70
     1
102
RTVSPropertyOp10
 70
     1
102
RTVSPropertyOp11
 70
     1
102
RTVSPropertyOp12
 70
     1
102
RTVSPropertyOp13
 70
     1
102
RTVSPropertyOp14
 70
     1
102
RTVSPropertyOp15
 70
     1
102
RTVSPropertyOp16
 70
     1
102
RTVSPropertyOp17
 70
     1
102
RTVSPropertyOp18
 70
     1
102
RTVSPropertyOp19
 70
     1
102
RTVSPropertyOp20
 70
     1
102
RTVSPropertyOp21
 70
     1
102
RTVSPropertyOp22
 70
     1
102
RTVSPropertyOp23
 70
     1
102
RTVSPropertyOp24
 70
     1
102
RTVSPropertyOp25
 70
     1
102
RTVSPropertyOp26
 70
     1
102
RTVSPropertyOp27
 70
     1
102
RTVSPropertyOp28
 70
     1
102
RTVSPropertyOp29
 70
     1
102
RTVSPropertyOp30
 70
     1
102
RTVSPropertyOp31
 70
     1
102
RTVSPropertyOp32
 70
     1
  0
XRECORD
  5
2E63
102
{ACAD_REACTORS
330
2E62
102
}
330
2E62
100
AcDbXrecord
280
     1
102
RTVSPropertyOp0
 70
     0
102
RTVSPropertyOp1
 70
     0
102
RTVSPropertyOp2
 70
     0
102
RTVSPropertyOp3
 70
     0
102
RTVSPropertyOp4
 70
     0
102
RTVSPropertyOp5
 70
     0
102
RTVSPropertyOp6
 70
     0
102
RTVSPropertyOp7
 70
     0
102
RTVSPropertyOp8
 70
     0
102
RTVSPropertyOp9
 70
     0
102
RTVSPropertyOp10
 70
     0
102
RTVSPropertyOp11
 70
     0
102
RTVSPropertyOp12
 70
     0
102
RTVSPropertyOp13
 70
     0
102
RTVSPropertyOp14
 70
     2
102
RTVSPropertyOp15
 70
     0
102
RTVSPropertyOp16
 70
     0
102
RTVSPropertyOp17
 70
     0
102
RTVSPropertyOp18
 70
     0
102
RTVSPropertyOp19
 70
     0
102
RTVSPropertyOp20
 70
     0
102
RTVSPropertyOp21
 70
     0
102
RTVSPropertyOp22
 70
     0
102
RTVSPropertyOp23
 70
     0
102
RTVSPropertyOp24
 70
     0
102
RTVSPropertyOp25
 70
     0
102
RTVSPropertyOp26
 70
     0
102
RTVSPropertyOp27
 70
     0
102
RTVSPropertyOp28
 70
     1
102
RTVSPropertyOp29
 70
     1
102
RTVSPropertyOp30
 70
     1
102
RTVSPropertyOp31
 70
     1
102
RTVSPropertyOp32
 70
     1
  0
XRECORD
  5
2E51
102
{ACAD_REACTORS
330
2E50
102
}
330
2E50
100
AcDbXrecord
280
     1
102
RTVSPropertyOp0
 70
     1
102
RTVSPropertyOp1
 70
     1
102
RTVSPropertyOp2
 70
     1
102
RTVSPropertyOp3
 70
     1
102
RTVSPropertyOp4
 70
     1
102
RTVSPropertyOp5
 70
     1
102
RTVSPropertyOp6
 70
     1
102
RTVSPropertyOp7
 70
     1
102
RTVSPropertyOp8
 70
     1
102
RTVSPropertyOp9
 70
     1
102
RTVSPropertyOp10
 70
     1
102
RTVSPropertyOp11
 70
     1
102
RTVSPropertyOp12
 70
     1
102
RTVSPropertyOp13
 70
     1
102
RTVSPropertyOp14
 70
     1
102
RTVSPropertyOp15
 70
     1
102
RTVSPropertyOp16
 70
     1
102
RTVSPropertyOp17
 70
     1
102
RTVSPropertyOp18
 70
     1
102
RTVSPropertyOp19
 70
     1
102
RTVSPropertyOp20
 70
     1
102
RTVSPropertyOp21
 70
     1
102
RTVSPropertyOp22
 70
     1
102
RTVSPropertyOp23
 70
     1
102
RTVSPropertyOp24
 70
     1
102
RTVSPropertyOp25
 70
     1
102
RTVSPropertyOp26
 70
     1
102
RTVSPropertyOp27
 70
     1
102
RTVSPropertyOp28
 70
     1
102
RTVSPropertyOp29
 70
     1
102
RTVSPropertyOp30
 70
     1
102
RTVSPropertyOp31
 70
     1
102
RTVSPropertyOp32
 70
     1
  0
XRECORD
  5
2E35
102
{ACAD_REACTORS
330
2E34
102
}
330
2E34
100
AcDbXrecord
280
     1
102
RTVSPropertyOp0
 70
     1
102
RTVSPropertyOp1
 70
     1
102
RTVSPropertyOp2
 70
     1
102
RTVSPropertyOp3
 70
     1
102
RTVSPropertyOp4
 70
     1
102
RTVSPropertyOp5
 70
     1
102
RTVSPropertyOp6
 70
     1
102
RTVSPropertyOp7
 70
     1
102
RTVSPropertyOp8
 70
     1
102
RTVSPropertyOp9
 70
     1
102
RTVSPropertyOp10
 70
     1
102
RTVSPropertyOp11
 70
     1
102
RTVSPropertyOp12
 70
     1
102
RTVSPropertyOp13
 70
     1
102
RTVSPropertyOp14
 70
     1
102
RTVSPropertyOp15
 70
     1
102
RTVSPropertyOp16
 70
     1
102
RTVSPropertyOp17
 70
     1
102
RTVSPropertyOp18
 70
     1
102
RTVSPropertyOp19
 70
     1
102
RTVSPropertyOp20
 70
     1
102
RTVSPropertyOp21
 70
     1
102
RTVSPropertyOp22
 70
     1
102
RTVSPropertyOp23
 70
     1
102
RTVSPropertyOp24
 70
     1
102
RTVSPropertyOp25
 70
     1
102
RTVSPropertyOp26
 70
     1
102
RTVSPropertyOp27
 70
     1
102
RTVSPropertyOp28
 70
     1
102
RTVSPropertyOp29
 70
     1
102
RTVSPropertyOp30
 70
     1
102
RTVSPropertyOp31
 70
     1
102
RTVSPropertyOp32
 70
     1
  0
XRECORD
  5
2E37
102
{ACAD_REACTORS
330
2E36
102
}
330
2E36
100
AcDbXrecord
280
     1
102
RTVSPropertyOp0
 70
     1
102
RTVSPropertyOp1
 70
     1
102
RTVSPropertyOp2
 70
     1
102
RTVSPropertyOp3
 70
     1
102
RTVSPropertyOp4
 70
     1
102
RTVSPropertyOp5
 70
     1
102
RTVSPropertyOp6
 70
     1
102
RTVSPropertyOp7
 70
     1
102
RTVSPropertyOp8
 70
     1
102
RTVSPropertyOp9
 70
     1
102
RTVSPropertyOp10
 70
     1
102
RTVSPropertyOp11
 70
     1
102
RTVSPropertyOp12
 70
     1
102
RTVSPropertyOp13
 70
     1
102
RTVSPropertyOp14
 70
     1
102
RTVSPropertyOp15
 70
     1
102
RTVSPropertyOp16
 70
     1
102
RTVSPropertyOp17
 70
     1
102
RTVSPropertyOp18
 70
     1
102
RTVSPropertyOp19
 70
     1
102
RTVSPropertyOp20
 70
     1
102
RTVSPropertyOp21
 70
     1
102
RTVSPropertyOp22
 70
     1
102
RTVSPropertyOp23
 70
     1
102
RTVSPropertyOp24
 70
     1
102
RTVSPropertyOp25
 70
     1
102
RTVSPropertyOp26
 70
     1
102
RTVSPropertyOp27
 70
     1
102
RTVSPropertyOp28
 70
     1
102
RTVSPropertyOp29
 70
     1
102
RTVSPropertyOp30
 70
     1
102
RTVSPropertyOp31
 70
     1
102
RTVSPropertyOp32
 70
     1
  0
XRECORD
  5
2E39
102
{ACAD_REACTORS
330
2E38
102
}
330
2E38
100
AcDbXrecord
280
     1
102
RTVSPropertyOp0
 70
     1
102
RTVSPropertyOp1
 70
     1
102
RTVSPropertyOp2
 70
     1
102
RTVSPropertyOp3
 70
     1
102
RTVSPropertyOp4
 70
     1
102
RTVSPropertyOp5
 70
     1
102
RTVSPropertyOp6
 70
     1
102
RTVSPropertyOp7
 70
     1
102
RTVSPropertyOp8
 70
     1
102
RTVSPropertyOp9
 70
     1
102
RTVSPropertyOp10
 70
     1
102
RTVSPropertyOp11
 70
     1
102
RTVSPropertyOp12
 70
     1
102
RTVSPropertyOp13
 70
     1
102
RTVSPropertyOp14
 70
     1
102
RTVSPropertyOp15
 70
     1
102
RTVSPropertyOp16
 70
     1
102
RTVSPropertyOp17
 70
     1
102
RTVSPropertyOp18
 70
     1
102
RTVSPropertyOp19
 70
     1
102
RTVSPropertyOp20
 70
     1
102
RTVSPropertyOp21
 70
     1
102
RTVSPropertyOp22
 70
     1
102
RTVSPropertyOp23
 70
     1
102
RTVSPropertyOp24
 70
     1
102
RTVSPropertyOp25
 70
     1
102
RTVSPropertyOp26
 70
     1
102
RTVSPropertyOp27
 70
     1
102
RTVSPropertyOp28
 70
     1
102
RTVSPropertyOp29
 70
     1
102
RTVSPropertyOp30
 70
     1
102
RTVSPropertyOp31
 70
     1
102
RTVSPropertyOp32
 70
     1
  0
XRECORD
  5
2E3B
102
{ACAD_REACTORS
330
2E3A
102
}
330
2E3A
100
AcDbXrecord
280
     1
102
RTVSPropertyOp0
 70
     1
102
RTVSPropertyOp1
 70
     1
102
RTVSPropertyOp2
 70
     1
102
RTVSPropertyOp3
 70
     1
102
RTVSPropertyOp4
 70
     1
102
RTVSPropertyOp5
 70
     1
102
RTVSPropertyOp6
 70
     1
102
RTVSPropertyOp7
 70
     1
102
RTVSPropertyOp8
 70
     1
102
RTVSPropertyOp9
 70
     1
102
RTVSPropertyOp10
 70
     1
102
RTVSPropertyOp11
 70
     1
102
RTVSPropertyOp12
 70
     1
102
RTVSPropertyOp13
 70
     1
102
RTVSPropertyOp14
 70
     1
102
RTVSPropertyOp15
 70
     1
102
RTVSPropertyOp16
 70
     1
102
RTVSPropertyOp17
 70
     1
102
RTVSPropertyOp18
 70
     1
102
RTVSPropertyOp19
 70
     1
102
RTVSPropertyOp20
 70
     1
102
RTVSPropertyOp21
 70
     1
102
RTVSPropertyOp22
 70
     1
102
RTVSPropertyOp23
 70
     1
102
RTVSPropertyOp24
 70
     1
102
RTVSPropertyOp25
 70
     1
102
RTVSPropertyOp26
 70
     1
102
RTVSPropertyOp27
 70
     1
102
RTVSPropertyOp28
 70
     1
102
RTVSPropertyOp29
 70
     1
102
RTVSPropertyOp30
 70
     1
102
RTVSPropertyOp31
 70
     1
102
RTVSPropertyOp32
 70
     1
  0
XRECORD
  5
2E43
102
{ACAD_REACTORS
330
2E42
102
}
330
2E42
100
AcDbXrecord
280
     1
102
RTVSPropertyOp0
 70
     1
102
RTVSPropertyOp1
 70
     1
102
RTVSPropertyOp2
 70
     1
102
RTVSPropertyOp3
 70
     1
102
RTVSPropertyOp4
 70
     1
102
RTVSPropertyOp5
 70
     1
102
RTVSPropertyOp6
 70
     1
102
RTVSPropertyOp7
 70
     1
102
RTVSPropertyOp8
 70
     1
102
RTVSPropertyOp9
 70
     1
102
RTVSPropertyOp10
 70
     1
102
RTVSPropertyOp11
 70
     1
102
RTVSPropertyOp12
 70
     1
102
RTVSPropertyOp13
 70
     1
102
RTVSPropertyOp14
 70
     1
102
RTVSPropertyOp15
 70
     1
102
RTVSPropertyOp16
 70
     1
102
RTVSPropertyOp17
 70
     1
102
RTVSPropertyOp18
 70
     1
102
RTVSPropertyOp19
 70
     1
102
RTVSPropertyOp20
 70
     1
102
RTVSPropertyOp21
 70
     1
102
RTVSPropertyOp22
 70
     1
102
RTVSPropertyOp23
 70
     1
102
RTVSPropertyOp24
 70
     1
102
RTVSPropertyOp25
 70
     1
102
RTVSPropertyOp26
 70
     1
102
RTVSPropertyOp27
 70
     1
102
RTVSPropertyOp28
 70
     1
102
RTVSPropertyOp29
 70
     1
102
RTVSPropertyOp30
 70
     1
102
RTVSPropertyOp31
 70
     1
102
RTVSPropertyOp32
 70
     1
  0
XRECORD
  5
2E5F
102
{ACAD_REACTORS
330
2E5E
102
}
330
2E5E
100
AcDbXrecord
280
     1
102
RTVSPropertyOp0
 70
     0
102
RTVSPropertyOp1
 70
     0
102
RTVSPropertyOp2
 70
     0
102
RTVSPropertyOp3
 70
     0
102
RTVSPropertyOp4
 70
     0
102
RTVSPropertyOp5
 70
     0
102
RTVSPropertyOp6
 70
     0
102
RTVSPropertyOp7
 70
     0
102
RTVSPropertyOp8
 70
     0
102
RTVSPropertyOp9
 70
     0
102
RTVSPropertyOp10
 70
     0
102
RTVSPropertyOp11
 70
     0
102
RTVSPropertyOp12
 70
     0
102
RTVSPropertyOp13
 70
     0
102
RTVSPropertyOp14
 70
     2
102
RTVSPropertyOp15
 70
     0
102
RTVSPropertyOp16
 70
     0
102
RTVSPropertyOp17
 70
     0
102
RTVSPropertyOp18
 70
     0
102
RTVSPropertyOp19
 70
     0
102
RTVSPropertyOp20
 70
     0
102
RTVSPropertyOp21
 70
     0
102
RTVSPropertyOp22
 70
     0
102
RTVSPropertyOp23
 70
     0
102
RTVSPropertyOp24
 70
     0
102
RTVSPropertyOp25
 70
     0
102
RTVSPropertyOp26
 70
     0
102
RTVSPropertyOp27
 70
     0
102
RTVSPropertyOp28
 70
     1
102
RTVSPropertyOp29
 70
     1
102
RTVSPropertyOp30
 70
     1
102
RTVSPropertyOp31
 70
     1
102
RTVSPropertyOp32
 70
     1
  0
XRECORD
  5
2E4F
102
{ACAD_REACTORS
330
2E4E
102
}
330
2E4E
100
AcDbXrecord
280
     1
102
RTVSPropertyOp0
 70
     1
102
RTVSPropertyOp1
 70
     1
102
RTVSPropertyOp2
 70
     1
102
RTVSPropertyOp3
 70
     1
102
RTVSPropertyOp4
 70
     1
102
RTVSPropertyOp5
 70
     1
102
RTVSPropertyOp6
 70
     1
102
RTVSPropertyOp7
 70
     1
102
RTVSPropertyOp8
 70
     1
102
RTVSPropertyOp9
 70
     1
102
RTVSPropertyOp10
 70
     1
102
RTVSPropertyOp11
 70
     1
102
RTVSPropertyOp12
 70
     1
102
RTVSPropertyOp13
 70
     1
102
RTVSPropertyOp14
 70
     1
102
RTVSPropertyOp15
 70
     1
102
RTVSPropertyOp16
 70
     1
102
RTVSPropertyOp17
 70
     1
102
RTVSPropertyOp18
 70
     1
102
RTVSPropertyOp19
 70
     1
102
RTVSPropertyOp20
 70
     1
102
RTVSPropertyOp21
 70
     1
102
RTVSPropertyOp22
 70
     1
102
RTVSPropertyOp23
 70
     1
102
RTVSPropertyOp24
 70
     1
102
RTVSPropertyOp25
 70
     1
102
RTVSPropertyOp26
 70
     1
102
RTVSPropertyOp27
 70
     1
102
RTVSPropertyOp28
 70
     1
102
RTVSPropertyOp29
 70
     1
102
RTVSPropertyOp30
 70
     1
102
RTVSPropertyOp31
 70
     1
102
RTVSPropertyOp32
 70
     1
  0
XRECORD
  5
2E61
102
{ACAD_REACTORS
330
2E60
102
}
330
2E60
100
AcDbXrecord
280
     1
102
RTVSPropertyOp0
 70
     0
102
RTVSPropertyOp1
 70
     0
102
RTVSPropertyOp2
 70
     0
102
RTVSPropertyOp3
 70
     0
102
RTVSPropertyOp4
 70
     0
102
RTVSPropertyOp5
 70
     0
102
RTVSPropertyOp6
 70
     0
102
RTVSPropertyOp7
 70
     0
102
RTVSPropertyOp8
 70
     0
102
RTVSPropertyOp9
 70
     0
102
RTVSPropertyOp10
 70
     0
102
RTVSPropertyOp11
 70
     0
102
RTVSPropertyOp12
 70
     0
102
RTVSPropertyOp13
 70
     0
102
RTVSPropertyOp14
 70
     2
102
RTVSPropertyOp15
 70
     0
102
RTVSPropertyOp16
 70
     0
102
RTVSPropertyOp17
 70
     0
102
RTVSPropertyOp18
 70
     0
102
RTVSPropertyOp19
 70
     0
102
RTVSPropertyOp20
 70
     0
102
RTVSPropertyOp21
 70
     0
102
RTVSPropertyOp22
 70
     0
102
RTVSPropertyOp23
 70
     0
102
RTVSPropertyOp24
 70
     0
102
RTVSPropertyOp25
 70
     0
102
RTVSPropertyOp26
 70
     0
102
RTVSPropertyOp27
 70
     0
102
RTVSPropertyOp28
 70
     1
102
RTVSPropertyOp29
 70
     1
102
RTVSPropertyOp30
 70
     1
102
RTVSPropertyOp31
 70
     1
102
RTVSPropertyOp32
 70
     1
  0
XRECORD
  5
2E47
102
{ACAD_REACTORS
330
2E46
102
}
330
2E46
100
AcDbXrecord
280
     1
102
RTVSPropertyOp0
 70
     1
102
RTVSPropertyOp1
 70
     1
102
RTVSPropertyOp2
 70
     1
102
RTVSPropertyOp3
 70
     1
102
RTVSPropertyOp4
 70
     1
102
RTVSPropertyOp5
 70
     1
102
RTVSPropertyOp6
 70
     1
102
RTVSPropertyOp7
 70
     1
102
RTVSPropertyOp8
 70
     1
102
RTVSPropertyOp9
 70
     1
102
RTVSPropertyOp10
 70
     1
102
RTVSPropertyOp11
 70
     1
102
RTVSPropertyOp12
 70
     1
102
RTVSPropertyOp13
 70
     1
102
RTVSPropertyOp14
 70
     1
102
RTVSPropertyOp15
 70
     1
102
RTVSPropertyOp16
 70
     1
102
RTVSPropertyOp17
 70
     1
102
RTVSPropertyOp18
 70
     1
102
RTVSPropertyOp19
 70
     1
102
RTVSPropertyOp20
 70
     1
102
RTVSPropertyOp21
 70
     1
102
RTVSPropertyOp22
 70
     1
102
RTVSPropertyOp23
 70
     1
102
RTVSPropertyOp24
 70
     1
102
RTVSPropertyOp25
 70
     1
102
RTVSPropertyOp26
 70
     1
102
RTVSPropertyOp27
 70
     1
102
RTVSPropertyOp28
 70
     1
102
RTVSPropertyOp29
 70
     1
102
RTVSPropertyOp30
 70
     1
102
RTVSPropertyOp31
 70
     1
102
RTVSPropertyOp32
 70
     1
  0
XRECORD
  5
2E5D
102
{ACAD_REACTORS
330
2E5C
102
}
330
2E5C
100
AcDbXrecord
280
     1
102
RTVSPropertyOp0
 70
     1
102
RTVSPropertyOp1
 70
     1
102
RTVSPropertyOp2
 70
     1
102
RTVSPropertyOp3
 70
     1
102
RTVSPropertyOp4
 70
     1
102
RTVSPropertyOp5
 70
     1
102
RTVSPropertyOp6
 70
     1
102
RTVSPropertyOp7
 70
     1
102
RTVSPropertyOp8
 70
     1
102
RTVSPropertyOp9
 70
     1
102
RTVSPropertyOp10
 70
     1
102
RTVSPropertyOp11
 70
     1
102
RTVSPropertyOp12
 70
     1
102
RTVSPropertyOp13
 70
     1
102
RTVSPropertyOp14
 70
     1
102
RTVSPropertyOp15
 70
     1
102
RTVSPropertyOp16
 70
     1
102
RTVSPropertyOp17
 70
     1
102
RTVSPropertyOp18
 70
     1
102
RTVSPropertyOp19
 70
     1
102
RTVSPropertyOp20
 70
     1
102
RTVSPropertyOp21
 70
     1
102
RTVSPropertyOp22
 70
     1
102
RTVSPropertyOp23
 70
     1
102
RTVSPropertyOp24
 70
     1
102
RTVSPropertyOp25
 70
     1
102
RTVSPropertyOp26
 70
     1
102
RTVSPropertyOp27
 70
     1
102
RTVSPropertyOp28
 70
     1
102
RTVSPropertyOp29
 70
     1
102
RTVSPropertyOp30
 70
     1
102
RTVSPropertyOp31
 70
     1
102
RTVSPropertyOp32
 70
     1
  0
XRECORD
  5
2E5B
102
{ACAD_REACTORS
330
2E5A
102
}
330
2E5A
100
AcDbXrecord
280
     1
102
RTVSPropertyOp0
 70
     1
102
RTVSPropertyOp1
 70
     1
102
RTVSPropertyOp2
 70
     1
102
RTVSPropertyOp3
 70
     1
102
RTVSPropertyOp4
 70
     1
102
RTVSPropertyOp5
 70
     1
102
RTVSPropertyOp6
 70
     1
102
RTVSPropertyOp7
 70
     1
102
RTVSPropertyOp8
 70
     1
102
RTVSPropertyOp9
 70
     1
102
RTVSPropertyOp10
 70
     1
102
RTVSPropertyOp11
 70
     1
102
RTVSPropertyOp12
 70
     1
102
RTVSPropertyOp13
 70
     1
102
RTVSPropertyOp14
 70
     1
102
RTVSPropertyOp15
 70
     1
102
RTVSPropertyOp16
 70
     1
102
RTVSPropertyOp17
 70
     1
102
RTVSPropertyOp18
 70
     1
102
RTVSPropertyOp19
 70
     1
102
RTVSPropertyOp20
 70
     1
102
RTVSPropertyOp21
 70
     1
102
RTVSPropertyOp22
 70
     1
102
RTVSPropertyOp23
 70
     1
102
RTVSPropertyOp24
 70
     1
102
RTVSPropertyOp25
 70
     1
102
RTVSPropertyOp26
 70
     1
102
RTVSPropertyOp27
 70
     1
102
RTVSPropertyOp28
 70
     1
102
RTVSPropertyOp29
 70
     1
102
RTVSPropertyOp30
 70
     1
102
RTVSPropertyOp31
 70
     1
102
RTVSPropertyOp32
 70
     1
  0
XRECORD
  5
2E55
102
{ACAD_REACTORS
330
2E54
102
}
330
2E54
100
AcDbXrecord
280
     1
102
RTVSPropertyOp0
 70
     1
102
RTVSPropertyOp1
 70
     1
102
RTVSPropertyOp2
 70
     1
102
RTVSPropertyOp3
 70
     1
102
RTVSPropertyOp4
 70
     1
102
RTVSPropertyOp5
 70
     1
102
RTVSPropertyOp6
 70
     1
102
RTVSPropertyOp7
 70
     1
102
RTVSPropertyOp8
 70
     1
102
RTVSPropertyOp9
 70
     1
102
RTVSPropertyOp10
 70
     1
102
RTVSPropertyOp11
 70
     1
102
RTVSPropertyOp12
 70
     1
102
RTVSPropertyOp13
 70
     1
102
RTVSPropertyOp14
 70
     1
102
RTVSPropertyOp15
 70
     1
102
RTVSPropertyOp16
 70
     1
102
RTVSPropertyOp17
 70
     1
102
RTVSPropertyOp18
 70
     1
102
RTVSPropertyOp19
 70
     1
102
RTVSPropertyOp20
 70
     1
102
RTVSPropertyOp21
 70
     1
102
RTVSPropertyOp22
 70
     1
102
RTVSPropertyOp23
 70
     1
102
RTVSPropertyOp24
 70
     1
102
RTVSPropertyOp25
 70
     1
102
RTVSPropertyOp26
 70
     1
102
RTVSPropertyOp27
 70
     1
102
RTVSPropertyOp28
 70
     1
102
RTVSPropertyOp29
 70
     1
102
RTVSPropertyOp30
 70
     1
102
RTVSPropertyOp31
 70
     1
102
RTVSPropertyOp32
 70
     1
  0
XRECORD
  5
2E57
102
{ACAD_REACTORS
330
2E56
102
}
330
2E56
100
AcDbXrecord
280
     1
102
RTVSPropertyOp0
 70
     1
102
RTVSPropertyOp1
 70
     1
102
RTVSPropertyOp2
 70
     1
102
RTVSPropertyOp3
 70
     1
102
RTVSPropertyOp4
 70
     1
102
RTVSPropertyOp5
 70
     1
102
RTVSPropertyOp6
 70
     1
102
RTVSPropertyOp7
 70
     1
102
RTVSPropertyOp8
 70
     1
102
RTVSPropertyOp9
 70
     1
102
RTVSPropertyOp10
 70
     1
102
RTVSPropertyOp11
 70
     1
102
RTVSPropertyOp12
 70
     1
102
RTVSPropertyOp13
 70
     1
102
RTVSPropertyOp14
 70
     1
102
RTVSPropertyOp15
 70
     1
102
RTVSPropertyOp16
 70
     1
102
RTVSPropertyOp17
 70
     1
102
RTVSPropertyOp18
 70
     1
102
RTVSPropertyOp19
 70
     1
102
RTVSPropertyOp20
 70
     1
102
RTVSPropertyOp21
 70
     1
102
RTVSPropertyOp22
 70
     1
102
RTVSPropertyOp23
 70
     1
102
RTVSPropertyOp24
 70
     1
102
RTVSPropertyOp25
 70
     1
102
RTVSPropertyOp26
 70
     1
102
RTVSPropertyOp27
 70
     1
102
RTVSPropertyOp28
 70
     1
102
RTVSPropertyOp29
 70
     1
102
RTVSPropertyOp30
 70
     1
102
RTVSPropertyOp31
 70
     1
102
RTVSPropertyOp32
 70
     1
  0
XRECORD
  5
2E4D
102
{ACAD_REACTORS
330
2E4C
102
}
330
2E4C
100
AcDbXrecord
280
     1
102
RTVSPropertyOp0
 70
     1
102
RTVSPropertyOp1
 70
     1
102
RTVSPropertyOp2
 70
     1
102
RTVSPropertyOp3
 70
     1
102
RTVSPropertyOp4
 70
     1
102
RTVSPropertyOp5
 70
     1
102
RTVSPropertyOp6
 70
     1
102
RTVSPropertyOp7
 70
     1
102
RTVSPropertyOp8
 70
     1
102
RTVSPropertyOp9
 70
     1
102
RTVSPropertyOp10
 70
     1
102
RTVSPropertyOp11
 70
     1
102
RTVSPropertyOp12
 70
     1
102
RTVSPropertyOp13
 70
     1
102
RTVSPropertyOp14
 70
     1
102
RTVSPropertyOp15
 70
     1
102
RTVSPropertyOp16
 70
     1
102
RTVSPropertyOp17
 70
     1
102
RTVSPropertyOp18
 70
     1
102
RTVSPropertyOp19
 70
     1
102
RTVSPropertyOp20
 70
     1
102
RTVSPropertyOp21
 70
     1
102
RTVSPropertyOp22
 70
     1
102
RTVSPropertyOp23
 70
     1
102
RTVSPropertyOp24
 70
     1
102
RTVSPropertyOp25
 70
     1
102
RTVSPropertyOp26
 70
     1
102
RTVSPropertyOp27
 70
     1
102
RTVSPropertyOp28
 70
     1
102
RTVSPropertyOp29
 70
     1
102
RTVSPropertyOp30
 70
     1
102
RTVSPropertyOp31
 70
     1
102
RTVSPropertyOp32
 70
     1
  0
XRECORD
  5
2E41
102
{ACAD_REACTORS
330
2E40
102
}
330
2E40
100
AcDbXrecord
280
     1
102
RTVSPropertyOp0
 70
     1
102
RTVSPropertyOp1
 70
     1
102
RTVSPropertyOp2
 70
     1
102
RTVSPropertyOp3
 70
     1
102
RTVSPropertyOp4
 70
     1
102
RTVSPropertyOp5
 70
     1
102
RTVSPropertyOp6
 70
     1
102
RTVSPropertyOp7
 70
     1
102
RTVSPropertyOp8
 70
     1
102
RTVSPropertyOp9
 70
     1
102
RTVSPropertyOp10
 70
     1
102
RTVSPropertyOp11
 70
     1
102
RTVSPropertyOp12
 70
     1
102
RTVSPropertyOp13
 70
     1
102
RTVSPropertyOp14
 70
     1
102
RTVSPropertyOp15
 70
     1
102
RTVSPropertyOp16
 70
     1
102
RTVSPropertyOp17
 70
     1
102
RTVSPropertyOp18
 70
     1
102
RTVSPropertyOp19
 70
     1
102
RTVSPropertyOp20
 70
     1
102
RTVSPropertyOp21
 70
     1
102
RTVSPropertyOp22
 70
     1
102
RTVSPropertyOp23
 70
     1
102
RTVSPropertyOp24
 70
     1
102
RTVSPropertyOp25
 70
     1
102
RTVSPropertyOp26
 70
     1
102
RTVSPropertyOp27
 70
     1
102
RTVSPropertyOp28
 70
     1
102
RTVSPropertyOp29
 70
     1
102
RTVSPropertyOp30
 70
     1
102
RTVSPropertyOp31
 70
     1
102
RTVSPropertyOp32
 70
     1
  0
XRECORD
  5
2E59
102
{ACAD_REACTORS
330
2E58
102
}
330
2E58
100
AcDbXrecord
280
     1
102
RTVSPropertyOp0
 70
     1
102
RTVSPropertyOp1
 70
     1
102
RTVSPropertyOp2
 70
     1
102
RTVSPropertyOp3
 70
     1
102
RTVSPropertyOp4
 70
     1
102
RTVSPropertyOp5
 70
     1
102
RTVSPropertyOp6
 70
     1
102
RTVSPropertyOp7
 70
     1
102
RTVSPropertyOp8
 70
     1
102
RTVSPropertyOp9
 70
     1
102
RTVSPropertyOp10
 70
     1
102
RTVSPropertyOp11
 70
     1
102
RTVSPropertyOp12
 70
     1
102
RTVSPropertyOp13
 70
     1
102
RTVSPropertyOp14
 70
     1
102
RTVSPropertyOp15
 70
     1
102
RTVSPropertyOp16
 70
     1
102
RTVSPropertyOp17
 70
     1
102
RTVSPropertyOp18
 70
     1
102
RTVSPropertyOp19
 70
     1
102
RTVSPropertyOp20
 70
     1
102
RTVSPropertyOp21
 70
     1
102
RTVSPropertyOp22
 70
     1
102
RTVSPropertyOp23
 70
     1
102
RTVSPropertyOp24
 70
     1
102
RTVSPropertyOp25
 70
     1
102
RTVSPropertyOp26
 70
     1
102
RTVSPropertyOp27
 70
     1
102
RTVSPropertyOp28
 70
     1
102
RTVSPropertyOp29
 70
     1
102
RTVSPropertyOp30
 70
     1
102
RTVSPropertyOp31
 70
     1
102
RTVSPropertyOp32
 70
     1
  0
ENDSEC
  0
EOF
