  0
SECTION
  2
HEADER
  9
$ACADVER
  1
AC1014
  9
$ACADMAINTVER
 70
     9
  9
$DWGCODEPAGE
  3
ANSI_932
  9
$INSBASE
 10
0.0
 20
0.0
 30
0.0
  9
$EXTMIN
 10
599.8703869890364
 20
20.45228648191812
 30
-0.0015258207003583
  9
$EXTMAX
 10
1320.912047397734
 20
296.2839667551266
 30
0.0000000349246037
  9
$LIMMIN
 10
0.0
 20
0.0
  9
$LIMMAX
 10
420.0
 20
297.0
  9
$ORTHOMODE
 70
     0
  9
$REGENMODE
 70
     1
  9
$FILLMODE
 70
     1
  9
$QTEXTMODE
 70
     0
  9
$MIRRTEXT
 70
     1
  9
$DRAGMODE
 70
     2
  9
$LTSCALE
 40
1.0
  9
$OSMODE
 70
    37
  9
$ATTMODE
 70
     1
  9
$TEXTSIZE
 40
2.5
  9
$TRACEWID
 40
1.0
  9
$TEXTSTYLE
  7
STANDARD
  9
$CLAYER
  8
SUNPOU
  9
$CELTYPE
  6
BYLAYER
  9
$CECOLOR
 62
   256
  9
$CELTSCALE
 40
1.0
  9
$DELOBJ
 70
     1
  9
$DISPSILH
 70
     0
  9
$DIMSCALE
 40
1.0
  9
$DIMASZ
 40
3.0
  9
$DIMEXO
 40
3.0
  9
$DIMDLI
 40
7.0
  9
$DIMRND
 40
0.0
  9
$DIMDLE
 40
0.0
  9
$DIMEXE
 40
1.5
  9
$DIMTP
 40
0.0
  9
$DIMTM
 40
0.0
  9
$DIMTXT
 40
3.0
  9
$DIMCEN
 40
200.0
  9
$DIMTSZ
 40
0.0
  9
$DIMTOL
 70
     0
  9
$DIMLIM
 70
     0
  9
$DIMTIH
 70
     0
  9
$DIMTOH
 70
     0
  9
$DIMSE1
 70
     0
  9
$DIMSE2
 70
     0
  9
$DIMTAD
 70
     3
  9
$DIMZIN
 70
     0
  9
$DIMBLK
  1

  9
$DIMASO
 70
     1
  9
$DIMSHO
 70
     1
  9
$DIMPOST
  1

  9
$DIMAPOST
  1

  9
$DIMALT
 70
     0
  9
$DIMALTD
 70
     2
  9
$DIMALTF
 40
25.4
  9
$DIMLFAC
 40
1.0
  9
$DIMTOFL
 70
     1
  9
$DIMTVP
 40
0.0
  9
$DIMTIX
 70
     0
  9
$DIMSOXD
 70
     0
  9
$DIMSAH
 70
     1
  9
$DIMBLK1
  1
OPEN
  9
$DIMBLK2
  1
OPEN
  9
$DIMSTYLE
  2
STANDARD
  9
$DIMCLRD
 70
   256
  9
$DIMCLRE
 70
   256
  9
$DIMCLRT
 70
   256
  9
$DIMTFAC
 40
1.0
  9
$DIMGAP
 40
1.0
  9
$DIMJUST
 70
     0
  9
$DIMSD1
 70
     0
  9
$DIMSD2
 70
     0
  9
$DIMTOLJ
 70
     1
  9
$DIMTZIN
 70
     0
  9
$DIMALTZ
 70
     0
  9
$DIMALTTZ
 70
     0
  9
$DIMFIT
 70
     5
  9
$DIMUPT
 70
     1
  9
$DIMUNIT
 70
     2
  9
$DIMDEC
 70
     0
  9
$DIMTDEC
 70
     0
  9
$DIMALTU
 70
     2
  9
$DIMALTTD
 70
     2
  9
$DIMTXSTY
  7
STANDARD
  9
$DIMAUNIT
 70
     0
  9
$LUNITS
 70
     2
  9
$LUPREC
 70
     4
  9
$SKETCHINC
 40
1.0
  9
$FILLETRAD
 40
0.3
  9
$AUNITS
 70
     0
  9
$AUPREC
 70
     0
  9
$MENU
  1
.
  9
$ELEVATION
 40
0.0
  9
$PELEVATION
 40
0.0
  9
$THICKNESS
 40
0.0
  9
$LIMCHECK
 70
     0
  9
$BLIPMODE
 70
     0
  9
$CHAMFERA
 40
0.0
  9
$CHAMFERB
 40
0.0
  9
$CHAMFERC
 40
20.0
  9
$CHAMFERD
 40
0.0
  9
$SKPOLY
 70
     0
  9
$TDCREATE
 40
2451094.495386573
  9
$TDUPDATE
 40
2454519.639810984
  9
$TDINDWG
 40
0.1416103704
  9
$TDUSRTIMER
 40
0.1416103704
  9
$USRTIMER
 70
     1
  9
$ANGBASE
 50
0.0
  9
$ANGDIR
 70
     0
  9
$PDMODE
 70
    34
  9
$PDSIZE
 40
-50.0
  9
$PLINEWID
 40
0.0
  9
$COORDS
 70
     2
  9
$SPLFRAME
 70
     0
  9
$SPLINETYPE
 70
     6
  9
$SPLINESEGS
 70
     8
  9
$ATTDIA
 70
     0
  9
$ATTREQ
 70
     1
  9
$HANDLING
 70
 10241
  9
$HANDSEED
  5
32B2
  9
$SURFTAB1
 70
     6
  9
$SURFTAB2
 70
     6
  9
$SURFTYPE
 70
     6
  9
$SURFU
 70
     6
  9
$SURFV
 70
     6
  9
$UCSNAME
  2

  9
$UCSORG
 10
0.0
 20
0.0
 30
0.0
  9
$UCSXDIR
 10
1.0
 20
0.0
 30
0.0
  9
$UCSYDIR
 10
0.0
 20
1.0
 30
0.0
  9
$PUCSNAME
  2

  9
$PUCSORG
 10
0.0
 20
0.0
 30
0.0
  9
$PUCSXDIR
 10
1.0
 20
0.0
 30
0.0
  9
$PUCSYDIR
 10
0.0
 20
1.0
 30
0.0
  9
$USERI1
 70
     0
  9
$USERI2
 70
     0
  9
$USERI3
 70
     0
  9
$USERI4
 70
     0
  9
$USERI5
 70
     0
  9
$USERR1
 40
0.0
  9
$USERR2
 40
0.0
  9
$USERR3
 40
0.0
  9
$USERR4
 40
0.0
  9
$USERR5
 40
0.0
  9
$WORLDVIEW
 70
     1
  9
$SHADEDGE
 70
     3
  9
$SHADEDIF
 70
    70
  9
$TILEMODE
 70
     1
  9
$MAXACTVP
 70
    16
  9
$PINSBASE
 10
0.0
 20
0.0
 30
0.0
  9
$PLIMCHECK
 70
     0
  9
$PEXTMIN
 10
0.0
 20
0.0
 30
0.0
  9
$PEXTMAX
 10
420.0
 20
297.0
 30
0.0
  9
$PLIMMIN
 10
0.0
 20
0.0
  9
$PLIMMAX
 10
420.0
 20
297.0
  9
$UNITMODE
 70
     0
  9
$VISRETAIN
 70
     0
  9
$PLINEGEN
 70
     0
  9
$PSLTSCALE
 70
     1
  9
$TREEDEPTH
 70
  3020
  9
$PICKSTYLE
 70
     1
  9
$CMLSTYLE
  2
STANDARD
  9
$CMLJUST
 70
     0
  9
$CMLSCALE
 40
1.0
  9
$PROXYGRAPHICS
 70
     1
  9
$MEASUREMENT
 70
     1
  0
ENDSEC
  0
SECTION
  2
CLASSES
  0
CLASS
  1
ACDBDICTIONARYWDFLT
  2
AcDbDictionaryWithDefault
  3
AutoCAD 2000
 90
        0
280
     0
281
     0
  0
CLASS
  1
ACDBPLACEHOLDER
  2
AcDbPlaceHolder
  3
AutoCAD 2000
 90
        0
280
     0
281
     0
  0
CLASS
  1
LAYOUT
  2
AcDbLayout
  3
AutoCAD 2000
 90
        0
280
     0
281
     0
  0
CLASS
  1
LONG_TRANSACTION
  2
AcDbLongTransaction
  3
AutoCAD 2000
 90
        0
280
     0
281
     0
  0
CLASS
  1
LWPOLYLINE
  2
AcDbPolyline
  3
AutoCAD 2000
 90
        0
280
     0
281
     1
  0
CLASS
  1
HATCH
  2
AcDbHatch
  3
AutoCAD 2000
 90
        0
280
     0
281
     1
  0
CLASS
  1
XRECORD
  2
AcDbXrecord
  3
AutoCAD 2000
 90
        0
280
     0
281
     0
  0
CLASS
  1
LONG_TRANSACTION
  2
AcDbLongTransaction
  3
AutoCAD 2000
 90
        0
280
     0
281
     0
  0
CLASS
  1
LWPOLYLINE
  2
AcDbPolyline
  3
AutoCAD 2000
 90
        0
280
     0
281
     1
  0
CLASS
  1
HATCH
  2
AcDbHatch
  3
AutoCAD 2000
 90
        0
280
     0
281
     1
  0
CLASS
  1
XRECORD
  2
AcDbXrecord
  3
AutoCAD 2000
 90
        0
280
     0
281
     0
  0
CLASS
  1
LONG_TRANSACTION
  2
AcDbLongTransaction
  3
AutoCAD 2000
 90
        0
280
     0
281
     0
  0
CLASS
  1
LWPOLYLINE
  2
AcDbPolyline
  3
AutoCAD 2000
 90
        0
280
     0
281
     1
  0
CLASS
  1
HATCH
  2
AcDbHatch
  3
AutoCAD 2000
 90
        0
280
     0
281
     1
  0
CLASS
  1
XRECORD
  2
AcDbXrecord
  3
AutoCAD 2000
 90
        0
280
     0
281
     0
  0
CLASS
  1
LONG_TRANSACTION
  2
AcDbLongTransaction
  3
AutoCAD 2000
 90
        0
280
     0
281
     0
  0
CLASS
  1
LWPOLYLINE
  2
AcDbPolyline
  3
AutoCAD 2000
 90
        0
280
     0
281
     1
  0
CLASS
  1
HATCH
  2
AcDbHatch
  3
AutoCAD 2000
 90
        0
280
     0
281
     1
  0
CLASS
  1
XRECORD
  2
AcDbXrecord
  3
AutoCAD 2000
 90
        0
280
     0
281
     0
  0
CLASS
  1
LONG_TRANSACTION
  2
AcDbLongTransaction
  3
AutoCAD 2000
 90
        0
280
     0
281
     0
  0
CLASS
  1
LWPOLYLINE
  2
AcDbPolyline
  3
AutoCAD 2000
 90
        0
280
     0
281
     1
  0
CLASS
  1
HATCH
  2
AcDbHatch
  3
AutoCAD 2000
 90
        0
280
     0
281
     1
  0
CLASS
  1
XRECORD
  2
AcDbXrecord
  3
AutoCAD 2000
 90
        0
280
     0
281
     0
  0
CLASS
  1
LONG_TRANSACTION
  2
AcDbLongTransaction
  3
AutoCAD 2000
 90
        0
280
     0
281
     0
  0
CLASS
  1
LWPOLYLINE
  2
AcDbPolyline
  3
AutoCAD 2000
 90
        0
280
     0
281
     1
  0
CLASS
  1
HATCH
  2
AcDbHatch
  3
AutoCAD 2000
 90
        0
280
     0
281
     1
  0
CLASS
  1
XRECORD
  2
AcDbXrecord
  3
AutoCAD 2000
 90
        0
280
     0
281
     0
  0
ENDSEC
  0
SECTION
  2
TABLES
  0
TABLE
  2
VPORT
  5
8
330
0
100
AcDbSymbolTable
 70
     2
  0
VPORT
  5
31E9
330
8
100
AcDbSymbolTableRecord
100
AcDbViewportTableRecord
  2
*ACTIVE
 70
     0
 10
0.0
 20
0.0
 11
1.0
 21
1.0
 12
1122.999895778858
 22
161.1522201972598
 13
0.0
 23
0.0
 14
5.0
 24
5.0
 15
0.0
 25
0.0
 16
0.0
 26
0.0
 36
1.0
 17
0.0
 27
0.0
 37
0.0
 40
361.7744498967979
 41
1.570153061224489
 42
50.0
 43
0.0
 44
0.0
 50
0.0
 51
0.0
 71
     0
 72
   100
 73
     1
 74
     0
 75
     0
 76
     0
 77
     0
 78
     0
  0
ENDTAB
  0
TABLE
  2
LTYPE
  5
5
330
0
100
AcDbSymbolTable
 70
     3
  0
LTYPE
  5
14
330
5
100
AcDbSymbolTableRecord
100
AcDbLinetypeTableRecord
  2
BYBLOCK
 70
     0
  3

 72
    65
 73
     0
 40
0.0
  0
LTYPE
  5
15
330
5
100
AcDbSymbolTableRecord
100
AcDbLinetypeTableRecord
  2
BYLAYER
 70
     0
  3

 72
    65
 73
     0
 40
0.0
  0
LTYPE
  5
16
330
5
100
AcDbSymbolTableRecord
100
AcDbLinetypeTableRecord
  2
CONTINUOUS
 70
     0
  3
Solid line
 72
    65
 73
     0
 40
0.0
  0
LTYPE
  5
120
330
5
100
AcDbSymbolTableRecord
100
AcDbLinetypeTableRecord
  2
CENTER
 70
     0
  3
____ _ ____ _ ____ _ ____ _ ____ _ ____ _ ____ 
 72
    65
 73
     4
 40
2.0
 49
1.25
 74
     0
 49
-0.25
 74
     0
 49
0.25
 74
     0
 49
-0.25
 74
     0
  0
LTYPE
  5
1604
330
5
100
AcDbSymbolTableRecord
100
AcDbLinetypeTableRecord
  2
CENTER2
 70
     0
  3
Center (.5x) ___ _ ___ _ ___ _ ___ _ ___ _ ___
 72
    65
 73
     4
 40
28.57499999999999
 49
19.05
 74
     0
 49
-3.174999999999998
 74
     0
 49
3.174999999999998
 74
     0
 49
-3.174999999999998
 74
     0
  0
ENDTAB
  0
TABLE
  2
LAYER
  5
2
102
{ACAD_XDICTIONARY
360
154D
102
}
330
0
100
AcDbSymbolTable
 70
     9
  0
LAYER
  5
F
330
2
100
AcDbSymbolTableRecord
100
AcDbLayerTableRecord
  2
0
 70
     0
 62
     7
  6
CONTINUOUS
  0
LAYER
  5
62
330
2
100
AcDbSymbolTableRecord
100
AcDbLayerTableRecord
  2
VIEWPORT
 70
     0
 62
     7
  6
CONTINUOUS
  0
LAYER
  5
6B
330
2
100
AcDbSymbolTableRecord
100
AcDbLayerTableRecord
  2
ZUWAKU
 70
     0
 62
     7
  6
CONTINUOUS
  0
LAYER
  5
134
330
2
100
AcDbSymbolTableRecord
100
AcDbLayerTableRecord
  2
SEIHIN
 70
     0
 62
     3
  6
CONTINUOUS
  0
LAYER
  5
208
330
2
100
AcDbSymbolTableRecord
100
AcDbLayerTableRecord
  2
SUNPOU
 70
     0
 62
     4
  6
CONTINUOUS
  0
LAYER
  5
20E
330
2
100
AcDbSymbolTableRecord
100
AcDbLayerTableRecord
  2
DEFPOINTS
 70
     0
 62
     7
  6
CONTINUOUS
  0
LAYER
  5
BC1
330
2
100
AcDbSymbolTableRecord
100
AcDbLayerTableRecord
  2
MOJI
 70
     0
 62
     2
  6
CONTINUOUS
  0
LAYER
  5
E7B
330
2
100
AcDbSymbolTableRecord
100
AcDbLayerTableRecord
  2
KEIJYO
 70
     0
 62
    -7
  6
CONTINUOUS
  0
LAYER
  5
1605
330
2
100
AcDbSymbolTableRecord
100
AcDbLayerTableRecord
  2
CENTERL
 70
     0
 62
     1
  6
CENTER2
  0
ENDTAB
  0
TABLE
  2
STYLE
  5
3
330
0
100
AcDbSymbolTable
 70
     2
  0
STYLE
  5
10
330
3
100
AcDbSymbolTableRecord
100
AcDbTextStyleTableRecord
  2
STANDARD
 70
     0
 40
0.0
 41
1.0
 50
0.0
 71
     0
 42
2.5
  3
TXT
  4
bigfont.shx
  0
STYLE
  5
BC2
330
3
100
AcDbSymbolTableRecord
100
AcDbTextStyleTableRecord
  2
ｽﾀｲﾙ1
 70
     0
 40
0.0
 41
1.0
 50
0.0
 71
     0
 42
2.5
  3
MS PGothic.ttf
  4

1001
ACAD
1000
MS PGothic
1071
    32818
  0
ENDTAB
  0
TABLE
  2
VIEW
  5
6
330
0
100
AcDbSymbolTable
 70
     0
  0
ENDTAB
  0
TABLE
  2
UCS
  5
7
330
0
100
AcDbSymbolTable
 70
     0
  0
ENDTAB
  0
TABLE
  2
APPID
  5
9
330
0
100
AcDbSymbolTable
 70
     2
  0
APPID
  5
11
330
9
100
AcDbSymbolTableRecord
100
AcDbRegAppTableRecord
  2
ACAD
 70
     0
  0
APPID
  5
1F95
330
9
100
AcDbSymbolTableRecord
100
AcDbRegAppTableRecord
  2
ACAD_PSEXT
 70
     0
  0
ENDTAB
  0
TABLE
  2
DIMSTYLE
  5
A
330
0
100
AcDbSymbolTable
 70
     1
  0
DIMSTYLE
105
1D
102
{ACAD_REACTORS
330
2F70
330
2F72
330
2F71
330
2F74
330
2F73
330
2F75
330
2F54
330
2F4B
330
2F93
330
2F4A
330
2F5D
330
2F5E
330
2F5C
330
2F53
330
2F50
330
2F49
330
31A8
102
}
330
A
100
AcDbSymbolTableRecord
100
AcDbDimStyleTableRecord
  2
STANDARD
 70
     0
  3

  4

  5

  6

  7

 40
1.0
 41
0.18
 42
0.0625
 43
0.38
 44
0.18
 45
0.0
 46
0.0
 47
0.0
 48
0.0
140
0.18
141
0.09
142
0.0
143
25.4
144
1.0
145
0.0
146
1.0
147
0.09
 71
     0
 72
     0
 73
     1
 74
     1
 75
     0
 76
     0
 77
     0
 78
     0
170
     0
171
     2
172
     0
173
     0
174
     0
175
     0
176
     0
177
     0
178
     0
270
     2
271
     4
272
     4
273
     2
274
     2
340
10
275
     0
280
     0
281
     0
282
     0
283
     1
284
     0
285
     0
286
     0
287
     3
288
     0
  0
ENDTAB
  0
TABLE
  2
BLOCK_RECORD
  5
1
330
0
100
AcDbSymbolTable
 70
    18
  0
BLOCK_RECORD
  5
1A
102
{ACAD_XDICTIONARY
360
64B
102
}
330
1
100
AcDbSymbolTableRecord
100
AcDbBlockTableRecord
  2
*MODEL_SPACE
  0
BLOCK_RECORD
  5
17
102
{ACAD_XDICTIONARY
360
649
102
}
330
1
100
AcDbSymbolTableRecord
100
AcDbBlockTableRecord
  2
*PAPER_SPACE
  0
BLOCK_RECORD
  5
B2
330
1
100
AcDbSymbolTableRecord
100
AcDbBlockTableRecord
  2
_OPEN
  0
BLOCK_RECORD
  5
2FA4
330
1
100
AcDbSymbolTableRecord
100
AcDbBlockTableRecord
  2
*D1
  0
BLOCK_RECORD
  5
2FB2
330
1
100
AcDbSymbolTableRecord
100
AcDbBlockTableRecord
  2
*D2
  0
BLOCK_RECORD
  5
2FBE
330
1
100
AcDbSymbolTableRecord
100
AcDbBlockTableRecord
  2
*D3
  0
BLOCK_RECORD
  5
2FCA
330
1
100
AcDbSymbolTableRecord
100
AcDbBlockTableRecord
  2
*D4
  0
BLOCK_RECORD
  5
2FD8
330
1
100
AcDbSymbolTableRecord
100
AcDbBlockTableRecord
  2
*D5
  0
BLOCK_RECORD
  5
2FE4
330
1
100
AcDbSymbolTableRecord
100
AcDbBlockTableRecord
  2
*D6
  0
BLOCK_RECORD
  5
2FF0
330
1
100
AcDbSymbolTableRecord
100
AcDbBlockTableRecord
  2
*D7
  0
BLOCK_RECORD
  5
2FFE
330
1
100
AcDbSymbolTableRecord
100
AcDbBlockTableRecord
  2
*D8
  0
BLOCK_RECORD
  5
300A
330
1
100
AcDbSymbolTableRecord
100
AcDbBlockTableRecord
  2
*D9
  0
BLOCK_RECORD
  5
3016
330
1
100
AcDbSymbolTableRecord
100
AcDbBlockTableRecord
  2
*D10
  0
BLOCK_RECORD
  5
3022
330
1
100
AcDbSymbolTableRecord
100
AcDbBlockTableRecord
  2
*D11
  0
BLOCK_RECORD
  5
3030
330
1
100
AcDbSymbolTableRecord
100
AcDbBlockTableRecord
  2
*D12
  0
BLOCK_RECORD
  5
303C
330
1
100
AcDbSymbolTableRecord
100
AcDbBlockTableRecord
  2
*D13
  0
BLOCK_RECORD
  5
3048
330
1
100
AcDbSymbolTableRecord
100
AcDbBlockTableRecord
  2
*D14
  0
BLOCK_RECORD
  5
3054
330
1
100
AcDbSymbolTableRecord
100
AcDbBlockTableRecord
  2
*D15
  0
BLOCK_RECORD
  5
3060
330
1
100
AcDbSymbolTableRecord
100
AcDbBlockTableRecord
  2
*D16
  0
BLOCK_RECORD
  5
31A9
330
1
100
AcDbSymbolTableRecord
100
AcDbBlockTableRecord
  2
*D17
  0
ENDTAB
  0
ENDSEC
  0
SECTION
  2
BLOCKS
  0
BLOCK
  5
1B
330
1A
100
AcDbEntity
  8
0
100
AcDbBlockBegin
  2
*MODEL_SPACE
 70
     0
 10
0.0
 20
0.0
 30
0.0
  3
*MODEL_SPACE
  1

  0
ENDBLK
  5
1C
330
1A
100
AcDbEntity
  8
0
100
AcDbBlockEnd
  0
BLOCK
  5
18
330
17
100
AcDbEntity
 67
     1
  8
0
100
AcDbBlockBegin
  2
*PAPER_SPACE
 70
     0
 10
0.0
 20
0.0
 30
0.0
  3
*PAPER_SPACE
  1

  0
ENDBLK
  5
19
330
17
100
AcDbEntity
 67
     1
  8
0
100
AcDbBlockEnd
  0
BLOCK
  5
B3
330
B2
100
AcDbEntity
  8
0
100
AcDbBlockBegin
  2
_OPEN
 70
     0
 10
0.0
 20
0.0
 30
0.0
  3
_OPEN
  1

  0
LINE
  5
B4
330
B2
100
AcDbEntity
  8
0
  6
BYBLOCK
 62
     0
100
AcDbLine
 10
-1.0
 20
0.1666666666666666
 30
0.0
 11
0.0
 21
0.0
 31
0.0
  0
LINE
  5
B5
330
B2
100
AcDbEntity
  8
0
  6
BYBLOCK
 62
     0
100
AcDbLine
 10
0.0
 20
0.0
 30
0.0
 11
-1.0
 21
-0.1666666666666666
 31
0.0
  0
LINE
  5
B6
330
B2
100
AcDbEntity
  8
0
  6
BYBLOCK
 62
     0
100
AcDbLine
 10
0.0
 20
0.0
 30
0.0
 11
-1.0
 21
0.0
 31
0.0
  0
ENDBLK
  5
B7
330
B2
100
AcDbEntity
  8
0
100
AcDbBlockEnd
  0
BLOCK
  5
2FB0
330
2FA4
100
AcDbEntity
  8
0
100
AcDbBlockBegin
  2
*D1
 70
     1
 10
0.0
 20
0.0
 30
0.0
  3
*D1
  1

  0
LINE
  5
3264
330
2FA4
100
AcDbEntity
  8
SUNPOU
100
AcDbLine
 10
1172.131436396772
 20
128.0050090177927
 30
0.0
 11
1172.224638645536
 21
129.1770578007805
 31
0.0
  0
LINE
  5
3265
330
2FA4
100
AcDbEntity
  8
SUNPOU
100
AcDbLine
 10
1173.72640141823
 20
127.8781761343353
 30
0.0
 11
1173.819603666994
 21
129.0502249173231
 31
0.0
  0
LINE
  5
3266
330
2FA4
100
AcDbEntity
  8
SUNPOU
100
AcDbLine
 10
1169.352985058544
 20
130.9101491648798
 30
0.0
 11
1166.362425643311
 21
131.1479608213624
 31
0.0
  0
LINE
  5
3267
330
2FA4
100
AcDbEntity
  8
SUNPOU
100
AcDbLine
 10
1176.929068910469
 20
130.3076929684572
 30
0.0
 11
1192.878719125047
 21
129.0393641338833
 31
0.0
  0
LINE
  5
3268
330
2FA4
100
AcDbEntity
  8
SUNPOU
100
AcDbLine
 10
1172.343544473777
 20
130.6723375083972
 30
0.0
 11
1173.938509495235
 21
130.5455046249398
 31
0.0
  0
INSERT
  5
3269
330
2FA4
100
AcDbEntity
  8
SUNPOU
100
AcDbBlockReference
  2
_OPEN
 10
1172.343544473777
 20
130.6723375083972
 30
0.0
 41
3.0
 42
3.0
 43
3.0
 50
355.4533617064216
  0
INSERT
  5
326A
330
2FA4
100
AcDbEntity
  8
SUNPOU
100
AcDbBlockReference
  2
_OPEN
 10
1173.938509495235
 20
130.5455046249398
 30
0.0
 41
3.0
 42
3.0
 43
3.0
 50
175.4533617064216
  0
MTEXT
  5
326B
330
2FA4
100
AcDbEntity
  8
SUNPOU
100
AcDbMText
 10
1186.597350105777
 20
132.0467555689567
 30
0.0
 40
3.0
 41
0.0
 71
     5
 72
     1
  1
\A1;t=1.6
 11
0.9968531384111257
 21
-0.0792705521608681
 31
0.0
  0
POINT
  5
326C
330
2FA4
100
AcDbEntity
  8
DEFPOINTS
 62
     0
100
AcDbPoint
 10
1172.369248053255
 20
130.9955684330261
 30
0.0
  0
POINT
  5
326D
330
2FA4
100
AcDbEntity
  8
DEFPOINTS
 62
     0
100
AcDbPoint
 10
1173.964213074713
 20
130.8687355495687
 30
0.0
  0
POINT
  5
326E
330
2FA4
100
AcDbEntity
  8
DEFPOINTS
 62
     0
100
AcDbPoint
 10
1173.938509495235
 20
130.5455046249398
 30
0.0
  0
ENDBLK
  5
2FB1
330
2FA4
100
AcDbEntity
  8
0
100
AcDbBlockEnd
  0
BLOCK
  5
2FBC
330
2FB2
100
AcDbEntity
  8
0
100
AcDbBlockBegin
  2
*D2
 70
     1
 10
0.0
 20
0.0
 30
0.0
  3
*D2
  1

  0
LINE
  5
3278
330
2FB2
100
AcDbEntity
  8
SUNPOU
100
AcDbLine
 10
1052.697667239275
 20
213.2264598846008
 30
0.0
 11
1052.697667239275
 21
224.6628000160124
 31
0.0
  0
LINE
  5
3279
330
2FB2
100
AcDbEntity
  8
SUNPOU
100
AcDbLine
 10
1069.097667239275
 20
208.0783252883699
 30
0.0
 11
1069.097667239275
 21
224.6628000160124
 31
0.0
  0
LINE
  5
327A
330
2FB2
100
AcDbEntity
  8
SUNPOU
100
AcDbLine
 10
1055.697667239275
 20
223.1628000160124
 30
0.0
 11
1066.097667239275
 21
223.1628000160124
 31
0.0
  0
INSERT
  5
327B
330
2FB2
100
AcDbEntity
  8
SUNPOU
100
AcDbBlockReference
  2
_OPEN
 10
1052.697667239275
 20
223.1628000160124
 30
0.0
 41
3.0
 42
3.0
 43
3.0
 50
180.0
  0
INSERT
  5
327C
330
2FB2
100
AcDbEntity
  8
SUNPOU
100
AcDbBlockReference
  2
_OPEN
 10
1069.097667239275
 20
223.1628000160124
 30
0.0
 41
3.0
 42
3.0
 43
3.0
  0
MTEXT
  5
327D
330
2FB2
100
AcDbEntity
  8
SUNPOU
100
AcDbMText
 10
1060.897667239275
 20
225.6628000160123
 30
0.0
 40
3.0
 41
0.0
 71
     5
 72
     1
  1
\A1;16
  0
POINT
  5
327E
330
2FB2
100
AcDbEntity
  8
DEFPOINTS
 62
     0
100
AcDbPoint
 10
1052.697667239275
 20
210.2264598846007
 30
0.0
  0
POINT
  5
327F
330
2FB2
100
AcDbEntity
  8
DEFPOINTS
 62
     0
100
AcDbPoint
 10
1069.097667239275
 20
205.0783252883699
 30
0.0
  0
POINT
  5
3280
330
2FB2
100
AcDbEntity
  8
DEFPOINTS
 62
     0
100
AcDbPoint
 10
1069.097667239275
 20
223.1628000160124
 30
0.0
  0
ENDBLK
  5
2FBD
330
2FB2
100
AcDbEntity
  8
0
100
AcDbBlockEnd
  0
BLOCK
  5
2FC8
330
2FBE
100
AcDbEntity
  8
0
100
AcDbBlockBegin
  2
*D3
 70
     1
 10
0.0
 20
0.0
 30
0.0
  3
*D3
  1

  0
LINE
  5
326F
330
2FBE
100
AcDbEntity
  8
SUNPOU
100
AcDbLine
 10
1052.697667239275
 20
213.2264598846008
 30
0.0
 11
1052.697667239275
 21
232.6956662654861
 31
0.0
  0
LINE
  5
3270
330
2FBE
100
AcDbEntity
  8
SUNPOU
100
AcDbLine
 10
1183.297667239275
 20
189.2880126974097
 30
0.0
 11
1183.297667239275
 21
232.6956662654861
 31
0.0
  0
LINE
  5
3271
330
2FBE
100
AcDbEntity
  8
SUNPOU
100
AcDbLine
 10
1055.697667239275
 20
231.1956662654861
 30
0.0
 11
1180.297667239275
 21
231.1956662654861
 31
0.0
  0
INSERT
  5
3272
330
2FBE
100
AcDbEntity
  8
SUNPOU
100
AcDbBlockReference
  2
_OPEN
 10
1052.697667239275
 20
231.1956662654861
 30
0.0
 41
3.0
 42
3.0
 43
3.0
 50
180.0
  0
INSERT
  5
3273
330
2FBE
100
AcDbEntity
  8
SUNPOU
100
AcDbBlockReference
  2
_OPEN
 10
1183.297667239275
 20
231.1956662654861
 30
0.0
 41
3.0
 42
3.0
 43
3.0
  0
MTEXT
  5
3274
330
2FBE
100
AcDbEntity
  8
SUNPOU
100
AcDbMText
 10
1117.997667239275
 20
233.6956662654861
 30
0.0
 40
3.0
 41
0.0
 71
     5
 72
     1
  1
\A1;131
  0
POINT
  5
3275
330
2FBE
100
AcDbEntity
  8
DEFPOINTS
 62
     0
100
AcDbPoint
 10
1052.697667239275
 20
210.2264598846007
 30
0.0
  0
POINT
  5
3276
330
2FBE
100
AcDbEntity
  8
DEFPOINTS
 62
     0
100
AcDbPoint
 10
1183.297667239275
 20
186.2880126974097
 30
0.0
  0
POINT
  5
3277
330
2FBE
100
AcDbEntity
  8
DEFPOINTS
 62
     0
100
AcDbPoint
 10
1183.297667239275
 20
231.1956662654861
 30
0.0
  0
ENDBLK
  5
2FC9
330
2FBE
100
AcDbEntity
  8
0
100
AcDbBlockEnd
  0
BLOCK
  5
2FD6
330
2FCA
100
AcDbEntity
  8
0
100
AcDbBlockBegin
  2
*D4
 70
     1
 10
0.0
 20
0.0
 30
0.0
  3
*D4
  1

  0
LINE
  5
328A
330
2FCA
100
AcDbEntity
  8
SUNPOU
100
AcDbLine
 10
1052.697667239275
 20
203.7880126974097
 30
0.0
 11
1052.697667239275
 21
174.0453709910336
 31
0.0
  0
LINE
  5
328B
330
2FCA
100
AcDbEntity
  8
SUNPOU
100
AcDbLine
 10
1057.697667239275
 20
189.7880126974097
 30
0.0
 11
1057.697667239275
 21
174.0453709910336
 31
0.0
  0
LINE
  5
328C
330
2FCA
100
AcDbEntity
  8
SUNPOU
100
AcDbLine
 10
1049.697667239275
 20
175.5453709910336
 30
0.0
 11
1046.697667239275
 21
175.5453709910336
 31
0.0
  0
LINE
  5
328D
330
2FCA
100
AcDbEntity
  8
SUNPOU
100
AcDbLine
 10
1060.697667239275
 20
175.5453709910336
 30
0.0
 11
1063.697667239275
 21
175.5453709910336
 31
0.0
  0
LINE
  5
328E
330
2FCA
100
AcDbEntity
  8
SUNPOU
100
AcDbLine
 10
1052.697667239275
 20
175.5453709910336
 30
0.0
 11
1057.697667239275
 21
175.5453709910336
 31
0.0
  0
INSERT
  5
328F
330
2FCA
100
AcDbEntity
  8
SUNPOU
100
AcDbBlockReference
  2
_OPEN
 10
1052.697667239275
 20
175.5453709910336
 30
0.0
 41
3.0
 42
3.0
 43
3.0
  0
INSERT
  5
3290
330
2FCA
100
AcDbEntity
  8
SUNPOU
100
AcDbBlockReference
  2
_OPEN
 10
1057.697667239275
 20
175.5453709910336
 30
0.0
 41
3.0
 42
3.0
 43
3.0
 50
180.0
  0
MTEXT
  5
3291
330
2FCA
100
AcDbEntity
  8
SUNPOU
100
AcDbMText
 10
1055.197667239275
 20
178.0453709910336
 30
0.0
 40
3.0
 41
0.0
 71
     5
 72
     1
  1
\A1;5
  0
POINT
  5
3292
330
2FCA
100
AcDbEntity
  8
DEFPOINTS
 62
     0
100
AcDbPoint
 10
1052.697667239275
 20
206.7880126974097
 30
0.0
  0
POINT
  5
3293
330
2FCA
100
AcDbEntity
  8
DEFPOINTS
 62
     0
100
AcDbPoint
 10
1057.697667239275
 20
192.7880126974097
 30
0.0
  0
POINT
  5
3294
330
2FCA
100
AcDbEntity
  8
DEFPOINTS
 62
     0
100
AcDbPoint
 10
1057.697667239275
 20
175.5453709910336
 30
0.0
  0
ENDBLK
  5
2FD7
330
2FCA
100
AcDbEntity
  8
0
100
AcDbBlockEnd
  0
BLOCK
  5
2FE2
330
2FD8
100
AcDbEntity
  8
0
100
AcDbBlockBegin
  2
*D5
 70
     1
 10
0.0
 20
0.0
 30
0.0
  3
*D5
  1

  0
LINE
  5
3281
330
2FD8
100
AcDbEntity
  8
SUNPOU
100
AcDbLine
 10
1057.697667239275
 20
189.7880126974097
 30
0.0
 11
1057.697667239275
 21
174.0453709910336
 31
0.0
  0
LINE
  5
3282
330
2FD8
100
AcDbEntity
  8
SUNPOU
100
AcDbLine
 10
1070.197667239275
 20
181.7880126974084
 30
0.0
 11
1070.197667239275
 21
174.0453709910336
 31
0.0
  0
LINE
  5
3283
330
2FD8
100
AcDbEntity
  8
SUNPOU
100
AcDbLine
 10
1060.697667239275
 20
175.5453709910336
 30
0.0
 11
1067.197667239275
 21
175.5453709910336
 31
0.0
  0
INSERT
  5
3284
330
2FD8
100
AcDbEntity
  8
SUNPOU
100
AcDbBlockReference
  2
_OPEN
 10
1057.697667239275
 20
175.5453709910336
 30
0.0
 41
3.0
 42
3.0
 43
3.0
 50
180.0
  0
INSERT
  5
3285
330
2FD8
100
AcDbEntity
  8
SUNPOU
100
AcDbBlockReference
  2
_OPEN
 10
1070.197667239275
 20
175.5453709910336
 30
0.0
 41
3.0
 42
3.0
 43
3.0
  0
MTEXT
  5
3286
330
2FD8
100
AcDbEntity
  8
SUNPOU
100
AcDbMText
 10
1063.947667239275
 20
178.0453709910336
 30
0.0
 40
3.0
 41
0.0
 71
     5
 72
     1
  1
\A1;13
  0
POINT
  5
3287
330
2FD8
100
AcDbEntity
  8
DEFPOINTS
 62
     0
100
AcDbPoint
 10
1057.697667239275
 20
192.7880126974097
 30
0.0
  0
POINT
  5
3288
330
2FD8
100
AcDbEntity
  8
DEFPOINTS
 62
     0
100
AcDbPoint
 10
1070.197667239275
 20
184.7880126974084
 30
0.0
  0
POINT
  5
3289
330
2FD8
100
AcDbEntity
  8
DEFPOINTS
 62
     0
100
AcDbPoint
 10
1070.197667239275
 20
175.5453709910336
 30
0.0
  0
ENDBLK
  5
2FE3
330
2FD8
100
AcDbEntity
  8
0
100
AcDbBlockEnd
  0
BLOCK
  5
2FEE
330
2FE4
100
AcDbEntity
  8
0
100
AcDbBlockBegin
  2
*D6
 70
     1
 10
0.0
 20
0.0
 30
0.0
  3
*D6
  1

  0
LINE
  5
3295
330
2FE4
100
AcDbEntity
  8
SUNPOU
100
AcDbLine
 10
1049.697667239275
 20
212.7880126974089
 30
0.0
 11
1035.858557864557
 21
212.7880126974089
 31
0.0
  0
LINE
  5
3296
330
2FE4
100
AcDbEntity
  8
SUNPOU
100
AcDbLine
 10
1054.909082998146
 20
192.7880126974097
 30
0.0
 11
1035.858557864557
 21
192.7880126974097
 31
0.0
  0
LINE
  5
3297
330
2FE4
100
AcDbEntity
  8
SUNPOU
100
AcDbLine
 10
1037.358557864557
 20
209.7880126974088
 30
0.0
 11
1037.358557864557
 21
195.7880126974097
 31
0.0
  0
INSERT
  5
3298
330
2FE4
100
AcDbEntity
  8
SUNPOU
100
AcDbBlockReference
  2
_OPEN
 10
1037.358557864557
 20
212.7880126974089
 30
0.0
 41
3.0
 42
3.0
 43
3.0
 50
90.0
  0
INSERT
  5
3299
330
2FE4
100
AcDbEntity
  8
SUNPOU
100
AcDbBlockReference
  2
_OPEN
 10
1037.358557864557
 20
192.7880126974097
 30
0.0
 41
3.0
 42
3.0
 43
3.0
 50
270.0
  0
MTEXT
  5
329A
330
2FE4
100
AcDbEntity
  8
SUNPOU
100
AcDbMText
 10
1034.858557864557
 20
203.3090005131289
 30
0.0
 40
3.0
 41
0.0
 71
     5
 72
     1
  1
\A1;20
 11
0.0000000000000001
 21
1.0
 31
0.0
  0
POINT
  5
329B
330
2FE4
100
AcDbEntity
  8
DEFPOINTS
 62
     0
100
AcDbPoint
 10
1052.697667239275
 20
212.7880126974089
 30
0.0
  0
POINT
  5
329C
330
2FE4
100
AcDbEntity
  8
DEFPOINTS
 62
     0
100
AcDbPoint
 10
1057.909082998146
 20
192.7880126974097
 30
0.0
  0
POINT
  5
329D
330
2FE4
100
AcDbEntity
  8
DEFPOINTS
 62
     0
100
AcDbPoint
 10
1037.358557864557
 20
192.7880126974097
 30
0.0
  0
ENDBLK
  5
2FEF
330
2FE4
100
AcDbEntity
  8
0
100
AcDbBlockEnd
  0
BLOCK
  5
2FFC
330
2FF0
100
AcDbEntity
  8
0
100
AcDbBlockBegin
  2
*D7
 70
     1
 10
0.0
 20
0.0
 30
0.0
  3
*D7
  1

  0
LINE
  5
323C
330
2FF0
100
AcDbEntity
  8
SUNPOU
100
AcDbLine
 10
1090.896991801618
 20
113.7880126974095
 30
0.0
 11
1035.858557864557
 21
113.7880126974095
 31
0.0
  0
LINE
  5
323D
330
2FF0
100
AcDbEntity
  8
SUNPOU
100
AcDbLine
 10
1134.697667239275
 20
101.7880126974099
 30
0.0
 11
1035.858557864557
 21
101.7880126974099
 31
0.0
  0
LINE
  5
323E
330
2FF0
100
AcDbEntity
  8
SUNPOU
100
AcDbLine
 10
1037.358557864557
 20
116.7880126974095
 30
0.0
 11
1037.358557864557
 21
119.7880126974095
 31
0.0
  0
LINE
  5
323F
330
2FF0
100
AcDbEntity
  8
SUNPOU
100
AcDbLine
 10
1037.358557864557
 20
98.78801269740998
 30
0.0
 11
1037.358557864557
 21
95.78801269740997
 31
0.0
  0
LINE
  5
3240
330
2FF0
100
AcDbEntity
  8
SUNPOU
100
AcDbLine
 10
1037.358557864557
 20
113.7880126974095
 30
0.0
 11
1037.358557864557
 21
101.7880126974099
 31
0.0
  0
INSERT
  5
3241
330
2FF0
100
AcDbEntity
  8
SUNPOU
100
AcDbBlockReference
  2
_OPEN
 10
1037.358557864557
 20
113.7880126974095
 30
0.0
 41
3.0
 42
3.0
 43
3.0
 50
270.0
  0
INSERT
  5
3242
330
2FF0
100
AcDbEntity
  8
SUNPOU
100
AcDbBlockReference
  2
_OPEN
 10
1037.358557864557
 20
101.7880126974099
 30
0.0
 41
3.0
 42
3.0
 43
3.0
 50
90.0
  0
MTEXT
  5
3243
330
2FF0
100
AcDbEntity
  8
SUNPOU
100
AcDbMText
 10
1034.858557864557
 20
107.7880126974097
 30
0.0
 40
3.0
 41
0.0
 71
     5
 72
     1
  1
\A1;12
 11
0.0000000000000001
 21
1.0
 31
0.0
  0
POINT
  5
3244
330
2FF0
100
AcDbEntity
  8
DEFPOINTS
 62
     0
100
AcDbPoint
 10
1093.896991801618
 20
113.7880126974095
 30
0.0
  0
POINT
  5
3245
330
2FF0
100
AcDbEntity
  8
DEFPOINTS
 62
     0
100
AcDbPoint
 10
1137.697667239275
 20
101.7880126974099
 30
0.0
  0
POINT
  5
3246
330
2FF0
100
AcDbEntity
  8
DEFPOINTS
 62
     0
100
AcDbPoint
 10
1037.358557864557
 20
101.7880126974099
 30
0.0
  0
ENDBLK
  5
2FFD
330
2FF0
100
AcDbEntity
  8
0
100
AcDbBlockEnd
  0
BLOCK
  5
3008
330
2FFE
100
AcDbEntity
  8
0
100
AcDbBlockBegin
  2
*D8
 70
     1
 10
0.0
 20
0.0
 30
0.0
  3
*D8
  1

  0
LINE
  5
3221
330
2FFE
100
AcDbEntity
  8
SUNPOU
100
AcDbLine
 10
1049.697667239275
 20
212.7880126974089
 30
0.0
 11
1025.703169938233
 21
212.7880126974089
 31
0.0
  0
LINE
  5
3222
330
2FFE
100
AcDbEntity
  8
SUNPOU
100
AcDbLine
 10
1131.697667239275
 20
101.7880126974099
 30
0.0
 11
1025.703169938233
 21
101.7880126974099
 31
0.0
  0
LINE
  5
3223
330
2FFE
100
AcDbEntity
  8
SUNPOU
100
AcDbLine
 10
1027.203169938234
 20
209.7880126974088
 30
0.0
 11
1027.203169938234
 21
104.7880126974099
 31
0.0
  0
INSERT
  5
3224
330
2FFE
100
AcDbEntity
  8
SUNPOU
100
AcDbBlockReference
  2
_OPEN
 10
1027.203169938234
 20
212.7880126974089
 30
0.0
 41
3.0
 42
3.0
 43
3.0
 50
90.0
  0
INSERT
  5
3225
330
2FFE
100
AcDbEntity
  8
SUNPOU
100
AcDbBlockReference
  2
_OPEN
 10
1027.203169938234
 20
101.7880126974099
 30
0.0
 41
3.0
 42
3.0
 43
3.0
 50
270.0
  0
MTEXT
  5
3226
330
2FFE
100
AcDbEntity
  8
SUNPOU
100
AcDbMText
 10
1024.703169938234
 20
156.9773787911507
 30
0.0
 40
3.0
 41
0.0
 71
     5
 72
     1
  1
\A1;111
 11
0.0000000000000001
 21
1.0
 31
0.0
  0
POINT
  5
3227
330
2FFE
100
AcDbEntity
  8
DEFPOINTS
 62
     0
100
AcDbPoint
 10
1052.697667239275
 20
212.7880126974089
 30
0.0
  0
POINT
  5
3228
330
2FFE
100
AcDbEntity
  8
DEFPOINTS
 62
     0
100
AcDbPoint
 10
1134.697667239275
 20
101.7880126974099
 30
0.0
  0
POINT
  5
3229
330
2FFE
100
AcDbEntity
  8
DEFPOINTS
 62
     0
100
AcDbPoint
 10
1027.203169938234
 20
101.7880126974099
 30
0.0
  0
ENDBLK
  5
3009
330
2FFE
100
AcDbEntity
  8
0
100
AcDbBlockEnd
  0
BLOCK
  5
3014
330
300A
100
AcDbEntity
  8
0
100
AcDbBlockBegin
  2
*D9
 70
     1
 10
0.0
 20
0.0
 30
0.0
  3
*D9
  1

  0
LINE
  5
329E
330
300A
100
AcDbEntity
  8
SUNPOU
100
AcDbLine
 10
1183.297667239276
 20
189.2880126974097
 30
0.0
 11
1198.154272360605
 21
189.2880126974097
 31
0.0
  0
LINE
  5
329F
330
300A
100
AcDbEntity
  8
SUNPOU
100
AcDbLine
 10
1186.297667239275
 20
171.2880126974096
 30
0.0
 11
1198.154272360605
 21
171.2880126974096
 31
0.0
  0
LINE
  5
32A0
330
300A
100
AcDbEntity
  8
SUNPOU
100
AcDbLine
 10
1196.654272360605
 20
186.2880126974097
 30
0.0
 11
1196.654272360605
 21
174.2880126974096
 31
0.0
  0
INSERT
  5
32A1
330
300A
100
AcDbEntity
  8
SUNPOU
100
AcDbBlockReference
  2
_OPEN
 10
1196.654272360605
 20
189.2880126974097
 30
0.0
 41
3.0
 42
3.0
 43
3.0
 50
90.0
  0
INSERT
  5
32A2
330
300A
100
AcDbEntity
  8
SUNPOU
100
AcDbBlockReference
  2
_OPEN
 10
1196.654272360605
 20
171.2880126974096
 30
0.0
 41
3.0
 42
3.0
 43
3.0
 50
270.0
  0
MTEXT
  5
32A3
330
300A
100
AcDbEntity
  8
SUNPOU
100
AcDbMText
 10
1194.154272360605
 20
180.2880126974096
 30
0.0
 40
3.0
 41
0.0
 71
     5
 72
     1
  1
\A1;18
 11
0.0000000000000001
 21
1.0
 31
0.0
  0
POINT
  5
32A4
330
300A
100
AcDbEntity
  8
DEFPOINTS
 62
     0
100
AcDbPoint
 10
1180.297667239276
 20
189.2880126974097
 30
0.0
  0
POINT
  5
32A5
330
300A
100
AcDbEntity
  8
DEFPOINTS
 62
     0
100
AcDbPoint
 10
1183.297667239275
 20
171.2880126974096
 30
0.0
  0
POINT
  5
32A6
330
300A
100
AcDbEntity
  8
DEFPOINTS
 62
     0
100
AcDbPoint
 10
1196.654272360605
 20
171.2880126974096
 30
0.0
  0
ENDBLK
  5
3015
330
300A
100
AcDbEntity
  8
0
100
AcDbBlockEnd
  0
BLOCK
  5
3020
330
3016
100
AcDbEntity
  8
0
100
AcDbBlockBegin
  2
*D10
 70
     1
 10
0.0
 20
0.0
 30
0.0
  3
*D10
  1

  0
LINE
  5
3218
330
3016
100
AcDbEntity
  8
SUNPOU
100
AcDbLine
 10
1183.297667239276
 20
189.2880126974097
 30
0.0
 11
1210.007885769204
 21
189.2880126974097
 31
0.0
  0
LINE
  5
3219
330
3016
100
AcDbEntity
  8
SUNPOU
100
AcDbLine
 10
1140.697667239275
 20
101.7880126974099
 30
0.0
 11
1210.007885769204
 21
101.7880126974099
 31
0.0
  0
LINE
  5
321A
330
3016
100
AcDbEntity
  8
SUNPOU
100
AcDbLine
 10
1208.507885769203
 20
186.2880126974097
 30
0.0
 11
1208.507885769203
 21
104.7880126974099
 31
0.0
  0
INSERT
  5
321B
330
3016
100
AcDbEntity
  8
SUNPOU
100
AcDbBlockReference
  2
_OPEN
 10
1208.507885769203
 20
189.2880126974097
 30
0.0
 41
3.0
 42
3.0
 43
3.0
 50
90.0
  0
INSERT
  5
321C
330
3016
100
AcDbEntity
  8
SUNPOU
100
AcDbBlockReference
  2
_OPEN
 10
1208.507885769203
 20
101.7880126974099
 30
0.0
 41
3.0
 42
3.0
 43
3.0
 50
270.0
  0
MTEXT
  5
321D
330
3016
100
AcDbEntity
  8
SUNPOU
100
AcDbMText
 10
1206.007885769204
 20
145.5380126974098
 30
0.0
 40
3.0
 41
0.0
 71
     5
 72
     1
  1
\A1;88
 11
0.0000000000000001
 21
1.0
 31
0.0
  0
POINT
  5
321E
330
3016
100
AcDbEntity
  8
DEFPOINTS
 62
     0
100
AcDbPoint
 10
1180.297667239276
 20
189.2880126974097
 30
0.0
  0
POINT
  5
321F
330
3016
100
AcDbEntity
  8
DEFPOINTS
 62
     0
100
AcDbPoint
 10
1137.697667239275
 20
101.7880126974099
 30
0.0
  0
POINT
  5
3220
330
3016
100
AcDbEntity
  8
DEFPOINTS
 62
     0
100
AcDbPoint
 10
1208.507885769203
 20
101.7880126974099
 30
0.0
  0
ENDBLK
  5
3021
330
3016
100
AcDbEntity
  8
0
100
AcDbBlockEnd
  0
BLOCK
  5
302E
330
3022
100
AcDbEntity
  8
0
100
AcDbBlockBegin
  2
*D11
 70
     1
 10
0.0
 20
0.0
 30
0.0
  3
*D11
  1

  0
LINE
  5
3250
330
3022
100
AcDbEntity
  8
SUNPOU
100
AcDbLine
 10
1092.087221716064
 20
130.0940304790459
 30
0.0
 11
1113.751269677785
 21
130.0940304790459
 31
0.0
  0
LINE
  5
3251
330
3022
100
AcDbEntity
  8
SUNPOU
100
AcDbLine
 10
1101.861236316433
 20
128.2231785662173
 30
0.0
 11
1113.751269677785
 21
128.2231785662173
 31
0.0
  0
LINE
  5
3252
330
3022
100
AcDbEntity
  8
SUNPOU
100
AcDbLine
 10
1112.251269677785
 20
133.0940304790459
 30
0.0
 11
1112.251269677785
 21
136.0940304790459
 31
0.0
  0
LINE
  5
3253
330
3022
100
AcDbEntity
  8
SUNPOU
100
AcDbLine
 10
1112.251269677785
 20
125.2231785662173
 30
0.0
 11
1112.251269677785
 21
122.2231785662173
 31
0.0
  0
MTEXT
  5
3254
330
3022
100
AcDbEntity
  8
SUNPOU
100
AcDbMText
 10
1109.412663532281
 20
132.4871764641222
 30
0.0
 40
3.0
 41
0.0
 71
     5
 72
     1
  1
\A1;2
 11
0.0000000000000001
 21
1.0
 31
0.0
  0
LINE
  5
3255
330
3022
100
AcDbEntity
  8
SUNPOU
100
AcDbLine
 10
1112.251269677785
 20
130.0940304790459
 30
0.0
 11
1112.251269677785
 21
128.2231785662173
 31
0.0
  0
INSERT
  5
3256
330
3022
100
AcDbEntity
  8
SUNPOU
100
AcDbBlockReference
  2
_OPEN
 10
1112.251269677785
 20
130.0940304790459
 30
0.0
 41
3.0
 42
3.0
 43
3.0
 50
270.0
  0
INSERT
  5
3257
330
3022
100
AcDbEntity
  8
SUNPOU
100
AcDbBlockReference
  2
_OPEN
 10
1112.251269677785
 20
128.2231785662173
 30
0.0
 41
3.0
 42
3.0
 43
3.0
 50
90.0
  0
POINT
  5
3258
330
3022
100
AcDbEntity
  8
DEFPOINTS
 62
     0
100
AcDbPoint
 10
1089.087221716064
 20
130.0940304790459
 30
0.0
  0
POINT
  5
3259
330
3022
100
AcDbEntity
  8
DEFPOINTS
 62
     0
100
AcDbPoint
 10
1098.861236316433
 20
128.2231785662173
 30
0.0
  0
POINT
  5
325A
330
3022
100
AcDbEntity
  8
DEFPOINTS
 62
     0
100
AcDbPoint
 10
1112.251269677785
 20
128.2231785662173
 30
0.0
  0
ENDBLK
  5
302F
330
3022
100
AcDbEntity
  8
0
100
AcDbBlockEnd
  0
BLOCK
  5
303A
330
3030
100
AcDbEntity
  8
0
100
AcDbBlockBegin
  2
*D12
 70
     1
 10
0.0
 20
0.0
 30
0.0
  3
*D12
  1

  0
LINE
  5
325B
330
3030
100
AcDbEntity
  8
SUNPOU
100
AcDbLine
 10
1101.861236316433
 20
128.2231785662173
 30
0.0
 11
1113.751269677785
 21
128.2231785662173
 31
0.0
  0
LINE
  5
325C
330
3030
100
AcDbEntity
  8
SUNPOU
100
AcDbLine
 10
1103.831753367547
 20
115.3904748634805
 30
0.0
 11
1113.751269677785
 21
115.3904748634805
 31
0.0
  0
LINE
  5
325D
330
3030
100
AcDbEntity
  8
SUNPOU
100
AcDbLine
 10
1112.251269677785
 20
125.2231785662173
 30
0.0
 11
1112.251269677785
 21
118.3904748634805
 31
0.0
  0
INSERT
  5
325E
330
3030
100
AcDbEntity
  8
SUNPOU
100
AcDbBlockReference
  2
_OPEN
 10
1112.251269677785
 20
128.2231785662173
 30
0.0
 41
3.0
 42
3.0
 43
3.0
 50
90.0
  0
INSERT
  5
325F
330
3030
100
AcDbEntity
  8
SUNPOU
100
AcDbBlockReference
  2
_OPEN
 10
1112.251269677785
 20
115.3904748634805
 30
0.0
 41
3.0
 42
3.0
 43
3.0
 50
270.0
  0
MTEXT
  5
3260
330
3030
100
AcDbEntity
  8
SUNPOU
100
AcDbMText
 10
1109.751269677785
 20
121.8068267148491
 30
0.0
 40
3.0
 41
0.0
 71
     5
 72
     1
  1
\A1;13
 11
0.0000000000000001
 21
1.0
 31
0.0
  0
POINT
  5
3261
330
3030
100
AcDbEntity
  8
DEFPOINTS
 62
     0
100
AcDbPoint
 10
1098.861236316433
 20
128.2231785662173
 30
0.0
  0
POINT
  5
3262
330
3030
100
AcDbEntity
  8
DEFPOINTS
 62
     0
100
AcDbPoint
 10
1100.831753367547
 20
115.3904748634805
 30
0.0
  0
POINT
  5
3263
330
3030
100
AcDbEntity
  8
DEFPOINTS
 62
     0
100
AcDbPoint
 10
1112.251269677785
 20
115.3904748634805
 30
0.0
  0
ENDBLK
  5
303B
330
3030
100
AcDbEntity
  8
0
100
AcDbBlockEnd
  0
BLOCK
  5
3046
330
303C
100
AcDbEntity
  8
0
100
AcDbBlockBegin
  2
*D13
 70
     1
 10
0.0
 20
0.0
 30
0.0
  3
*D13
  1

  0
LINE
  5
3247
330
303C
100
AcDbEntity
  8
SUNPOU
100
AcDbLine
 10
1089.08722171606
 20
133.0940304790581
 30
0.0
 11
1089.08722171606
 21
142.401439213333
 31
0.0
  0
LINE
  5
3248
330
303C
100
AcDbEntity
  8
SUNPOU
100
AcDbLine
 10
1098.861236316433
 20
131.2231785662173
 30
0.0
 11
1098.861236316433
 21
142.401439213333
 31
0.0
  0
LINE
  5
3249
330
303C
100
AcDbEntity
  8
SUNPOU
100
AcDbLine
 10
1092.08722171606
 20
140.9014392133331
 30
0.0
 11
1095.861236316433
 21
140.9014392133331
 31
0.0
  0
MTEXT
  5
324A
330
303C
100
AcDbEntity
  8
SUNPOU
100
AcDbMText
 10
1094.220672384913
 20
143.6203914924258
 30
0.0
 40
3.0
 41
0.0
 71
     5
 72
     1
  1
\A1;10
  0
INSERT
  5
324B
330
303C
100
AcDbEntity
  8
SUNPOU
100
AcDbBlockReference
  2
_OPEN
 10
1089.08722171606
 20
140.9014392133331
 30
0.0
 41
3.0
 42
3.0
 43
3.0
 50
180.0
  0
INSERT
  5
324C
330
303C
100
AcDbEntity
  8
SUNPOU
100
AcDbBlockReference
  2
_OPEN
 10
1098.861236316433
 20
140.9014392133331
 30
0.0
 41
3.0
 42
3.0
 43
3.0
  0
POINT
  5
324D
330
303C
100
AcDbEntity
  8
DEFPOINTS
 62
     0
100
AcDbPoint
 10
1089.08722171606
 20
130.0940304790581
 30
0.0
  0
POINT
  5
324E
330
303C
100
AcDbEntity
  8
DEFPOINTS
 62
     0
100
AcDbPoint
 10
1098.861236316433
 20
128.2231785662173
 30
0.0
  0
POINT
  5
324F
330
303C
100
AcDbEntity
  8
DEFPOINTS
 62
     0
100
AcDbPoint
 10
1098.861236316433
 20
140.9014392133331
 30
0.0
  0
ENDBLK
  5
3047
330
303C
100
AcDbEntity
  8
0
100
AcDbBlockEnd
  0
BLOCK
  5
3052
330
3048
100
AcDbEntity
  8
0
100
AcDbBlockBegin
  2
*D14
 70
     1
 10
0.0
 20
0.0
 30
0.0
  3
*D14
  1

  0
LINE
  5
3233
330
3048
100
AcDbEntity
  8
SUNPOU
100
AcDbLine
 10
1093.197667239275
 20
110.7880126974094
 30
0.0
 11
1093.197667239275
 21
82.8561077055931
 31
0.0
  0
LINE
  5
3234
330
3048
100
AcDbEntity
  8
SUNPOU
100
AcDbLine
 10
1103.697667239275
 20
99.36617983603014
 30
0.0
 11
1103.697667239275
 21
82.8561077055931
 31
0.0
  0
LINE
  5
3235
330
3048
100
AcDbEntity
  8
SUNPOU
100
AcDbLine
 10
1096.197667239275
 20
84.35610770559311
 30
0.0
 11
1100.697667239275
 21
84.35610770559311
 31
0.0
  0
INSERT
  5
3236
330
3048
100
AcDbEntity
  8
SUNPOU
100
AcDbBlockReference
  2
_OPEN
 10
1093.197667239275
 20
84.35610770559311
 30
0.0
 41
3.0
 42
3.0
 43
3.0
 50
180.0
  0
INSERT
  5
3237
330
3048
100
AcDbEntity
  8
SUNPOU
100
AcDbBlockReference
  2
_OPEN
 10
1103.697667239275
 20
84.35610770559311
 30
0.0
 41
3.0
 42
3.0
 43
3.0
  0
MTEXT
  5
3238
330
3048
100
AcDbEntity
  8
SUNPOU
100
AcDbMText
 10
1098.447667239275
 20
86.85610770559311
 30
0.0
 40
3.0
 41
0.0
 71
     5
 72
     1
  1
\A1;11
  0
POINT
  5
3239
330
3048
100
AcDbEntity
  8
DEFPOINTS
 62
     0
100
AcDbPoint
 10
1093.197667239275
 20
113.7880126974094
 30
0.0
  0
POINT
  5
323A
330
3048
100
AcDbEntity
  8
DEFPOINTS
 62
     0
100
AcDbPoint
 10
1103.697667239275
 20
102.3661798360301
 30
0.0
  0
POINT
  5
323B
330
3048
100
AcDbEntity
  8
DEFPOINTS
 62
     0
100
AcDbPoint
 10
1103.697667239275
 20
84.35610770559311
 30
0.0
  0
ENDBLK
  5
3053
330
3048
100
AcDbEntity
  8
0
100
AcDbBlockEnd
  0
BLOCK
  5
305E
330
3054
100
AcDbEntity
  8
0
100
AcDbBlockBegin
  2
*D15
 70
     1
 10
0.0
 20
0.0
 30
0.0
  3
*D15
  1

  0
LINE
  5
322A
330
3054
100
AcDbEntity
  8
SUNPOU
100
AcDbLine
 10
1171.697667239275
 20
99.36617983602992
 30
0.0
 11
1171.697667239275
 21
82.8561077055931
 31
0.0
  0
LINE
  5
322B
330
3054
100
AcDbEntity
  8
SUNPOU
100
AcDbLine
 10
1103.697667239275
 20
99.36617983603014
 30
0.0
 11
1103.697667239275
 21
82.8561077055931
 31
0.0
  0
LINE
  5
322C
330
3054
100
AcDbEntity
  8
SUNPOU
100
AcDbLine
 10
1168.697667239275
 20
84.35610770559311
 30
0.0
 11
1106.697667239275
 21
84.35610770559311
 31
0.0
  0
INSERT
  5
322D
330
3054
100
AcDbEntity
  8
SUNPOU
100
AcDbBlockReference
  2
_OPEN
 10
1171.697667239275
 20
84.35610770559311
 30
0.0
 41
3.0
 42
3.0
 43
3.0
  0
INSERT
  5
322E
330
3054
100
AcDbEntity
  8
SUNPOU
100
AcDbBlockReference
  2
_OPEN
 10
1103.697667239275
 20
84.35610770559311
 30
0.0
 41
3.0
 42
3.0
 43
3.0
 50
180.0
  0
MTEXT
  5
322F
330
3054
100
AcDbEntity
  8
SUNPOU
100
AcDbMText
 10
1137.697667239275
 20
86.85610770559311
 30
0.0
 40
3.0
 41
0.0
 71
     5
 72
     1
  1
\A1;68
  0
POINT
  5
3230
330
3054
100
AcDbEntity
  8
DEFPOINTS
 62
     0
100
AcDbPoint
 10
1171.697667239275
 20
102.3661798360299
 30
0.0
  0
POINT
  5
3231
330
3054
100
AcDbEntity
  8
DEFPOINTS
 62
     0
100
AcDbPoint
 10
1103.697667239275
 20
102.3661798360301
 30
0.0
  0
POINT
  5
3232
330
3054
100
AcDbEntity
  8
DEFPOINTS
 62
     0
100
AcDbPoint
 10
1103.697667239275
 20
84.35610770559311
 30
0.0
  0
ENDBLK
  5
305F
330
3054
100
AcDbEntity
  8
0
100
AcDbBlockEnd
  0
BLOCK
  5
306C
330
3060
100
AcDbEntity
  8
0
100
AcDbBlockBegin
  2
*D16
 70
     1
 10
0.0
 20
0.0
 30
0.0
  3
*D16
  1

  0
LINE
  5
320D
330
3060
100
AcDbEntity
  8
SUNPOU
100
AcDbLine
 10
1171.697667239275
 20
96.36617983602992
 30
0.0
 11
1171.697667239275
 21
82.8561077055931
 31
0.0
  0
LINE
  5
320E
330
3060
100
AcDbEntity
  8
SUNPOU
100
AcDbLine
 10
1183.297667239275
 20
168.2880126974096
 30
0.0
 11
1183.297667239275
 21
82.8561077055931
 31
0.0
  0
LINE
  5
320F
330
3060
100
AcDbEntity
  8
SUNPOU
100
AcDbLine
 10
1168.697667239275
 20
84.35610770559311
 30
0.0
 11
1165.697667239275
 21
84.35610770559311
 31
0.0
  0
LINE
  5
3210
330
3060
100
AcDbEntity
  8
SUNPOU
100
AcDbLine
 10
1186.297667239275
 20
84.35610770559311
 30
0.0
 11
1189.297667239275
 21
84.35610770559311
 31
0.0
  0
MTEXT
  5
3211
330
3060
100
AcDbEntity
  8
SUNPOU
100
AcDbMText
 10
1177.722653025497
 20
86.83114540013002
 30
0.0
 40
3.0
 41
0.0
 71
     5
 72
     1
  1
\A1;12
  0
LINE
  5
3212
330
3060
100
AcDbEntity
  8
SUNPOU
100
AcDbLine
 10
1171.697667239275
 20
84.35610770559311
 30
0.0
 11
1183.297667239275
 21
84.35610770559311
 31
0.0
  0
INSERT
  5
3213
330
3060
100
AcDbEntity
  8
SUNPOU
100
AcDbBlockReference
  2
_OPEN
 10
1171.697667239275
 20
84.35610770559311
 30
0.0
 41
3.0
 42
3.0
 43
3.0
  0
INSERT
  5
3214
330
3060
100
AcDbEntity
  8
SUNPOU
100
AcDbBlockReference
  2
_OPEN
 10
1183.297667239275
 20
84.35610770559311
 30
0.0
 41
3.0
 42
3.0
 43
3.0
 50
180.0
  0
POINT
  5
3215
330
3060
100
AcDbEntity
  8
DEFPOINTS
 62
     0
100
AcDbPoint
 10
1171.697667239275
 20
99.36617983602992
 30
0.0
  0
POINT
  5
3216
330
3060
100
AcDbEntity
  8
DEFPOINTS
 62
     0
100
AcDbPoint
 10
1183.297667239275
 20
171.2880126974096
 30
0.0
  0
POINT
  5
3217
330
3060
100
AcDbEntity
  8
DEFPOINTS
 62
     0
100
AcDbPoint
 10
1183.297667239275
 20
84.35610770559311
 30
0.0
  0
ENDBLK
  5
306D
330
3060
100
AcDbEntity
  8
0
100
AcDbBlockEnd
  0
BLOCK
  5
31B5
330
31A9
100
AcDbEntity
  8
0
100
AcDbBlockBegin
  2
*D17
 70
     1
 10
0.0
 20
0.0
 30
0.0
  3
*D17
  1

  0
LINE
  5
32A7
330
31A9
100
AcDbEntity
  8
SUNPOU
100
AcDbLine
 10
1183.297667239275
 20
189.2880126974097
 30
0.0
 11
1183.297667239275
 21
200.6043829955495
 31
0.0
  0
LINE
  5
32A8
330
31A9
100
AcDbEntity
  8
SUNPOU
100
AcDbLine
 10
1177.004709452323
 20
192.2880126974099
 30
0.0
 11
1177.004709452323
 21
200.6043829955495
 31
0.0
  0
LINE
  5
32A9
330
31A9
100
AcDbEntity
  8
SUNPOU
100
AcDbLine
 10
1174.004709452323
 20
199.1043829955494
 30
0.0
 11
1171.004709452323
 21
199.1043829955494
 31
0.0
  0
LINE
  5
32AA
330
31A9
100
AcDbEntity
  8
SUNPOU
100
AcDbLine
 10
1186.297667239275
 20
199.1043829955494
 30
0.0
 11
1193.297667239275
 21
199.1043829955494
 31
0.0
  0
LINE
  5
32AB
330
31A9
100
AcDbEntity
  8
SUNPOU
100
AcDbLine
 10
1177.004709452323
 20
199.1043829955494
 30
0.0
 11
1183.297667239275
 21
199.1043829955494
 31
0.0
  0
INSERT
  5
32AC
330
31A9
100
AcDbEntity
  8
SUNPOU
100
AcDbBlockReference
  2
_OPEN
 10
1177.004709452323
 20
199.1043829955494
 30
0.0
 41
3.0
 42
3.0
 43
3.0
  0
INSERT
  5
32AD
330
31A9
100
AcDbEntity
  8
SUNPOU
100
AcDbBlockReference
  2
_OPEN
 10
1183.297667239275
 20
199.1043829955494
 30
0.0
 41
3.0
 42
3.0
 43
3.0
 50
180.0
  0
MTEXT
  5
32AE
330
31A9
100
AcDbEntity
  8
SUNPOU
100
AcDbMText
 10
1191.297667239275
 20
201.6043829955494
 30
0.0
 40
3.0
 41
0.0
 71
     5
 72
     1
  1
\A1;6
  0
POINT
  5
32AF
330
31A9
100
AcDbEntity
  8
DEFPOINTS
 62
     0
100
AcDbPoint
 10
1183.297667239275
 20
186.2880126974097
 30
0.0
  0
POINT
  5
32B0
330
31A9
100
AcDbEntity
  8
DEFPOINTS
 62
     0
100
AcDbPoint
 10
1177.004709452323
 20
189.2880126974099
 30
0.0
  0
POINT
  5
32B1
330
31A9
100
AcDbEntity
  8
DEFPOINTS
 62
     0
100
AcDbPoint
 10
1177.004709452323
 20
199.1043829955494
 30
0.0
  0
ENDBLK
  5
31B6
330
31A9
100
AcDbEntity
  8
0
100
AcDbBlockEnd
  0
ENDSEC
  0
SECTION
  2
ENTITIES
  0
LINE
  5
1337
102
{ACAD_REACTORS
330
1546
102
}
330
1A
100
AcDbEntity
  8
KEIJYO
 62
   251
100
AcDbLine
 10
720.4347811579522
 20
177.8076768213581
 30
0.0
 11
715.360179757952
 21
163.1302856213579
 31
0.0
  0
LINE
  5
1338
102
{ACAD_REACTORS
330
1546
102
}
330
1A
100
AcDbEntity
  8
KEIJYO
 62
   251
100
AcDbLine
 10
715.9127174579522
 20
180.029987121358
 30
0.0
 11
711.086972857952
 21
166.072370221358
 31
0.0
  0
LINE
  5
1339
102
{ACAD_REACTORS
330
1546
102
}
330
1A
100
AcDbEntity
  8
KEIJYO
 62
   251
100
AcDbLine
 10
692.3478487579521
 20
178.096956721358
 30
0.0
 11
705.3686266579521
 21
162.750849221358
 31
0.0
  0
LINE
  5
133A
102
{ACAD_REACTORS
330
1546
102
}
330
1A
100
AcDbEntity
  8
KEIJYO
 62
   251
100
AcDbLine
 10
696.1631023579522
 20
181.328652421358
 30
0.0
 11
709.3793540579521
 21
165.752162221358
 31
0.0
  0
LINE
  5
133B
102
{ACAD_REACTORS
330
1546
102
}
330
1A
100
AcDbEntity
  8
KEIJYO
 62
   251
100
AcDbLine
 10
745.5986647579522
 20
138.173759021358
 30
0.0
 11
745.5986647579522
 21
224.173859021358
 31
0.0
  0
LINE
  5
133C
102
{ACAD_REACTORS
330
1546
102
}
330
1A
100
AcDbEntity
  8
KEIJYO
 62
   251
100
AcDbLine
 10
738.5987459579521
 20
163.173759021358
 30
0.0
 11
735.6926771579521
 21
222.265344621358
 31
0.0
  0
LINE
  5
133D
102
{ACAD_REACTORS
330
1546
102
}
330
1A
100
AcDbEntity
  8
KEIJYO
 62
   251
100
AcDbLine
 10
740.6011798579522
 20
163.202528121358
 30
0.0
 11
737.6011915579522
 21
224.173859021358
 31
0.0
  0
ARC
  5
133E
102
{ACAD_REACTORS
330
1546
102
}
330
1A
100
AcDbEntity
  8
KEIJYO
 62
   251
100
AcDbCircle
 10
660.592135657952
 20
193.890773221358
 30
0.0
 40
33.00000000072407
100
AcDbArc
 50
203.3137343321842
 51
254.6133765798074
  0
ARC
  5
133F
102
{ACAD_REACTORS
330
1546
102
}
330
1A
100
AcDbEntity
  8
KEIJYO
 62
   251
100
AcDbCircle
 10
665.8987560579521
 20
213.173920321358
 30
0.0
 40
42.99999998695902
100
AcDbArc
 50
211.7533237087005
 51
305.7172656493562
  0
ARC
  5
1340
102
{ACAD_REACTORS
330
1546
102
}
330
1A
100
AcDbEntity
  8
KEIJYO
 62
   251
100
AcDbCircle
 10
660.592135657952
 20
193.890773221358
 30
0.0
 40
38.00000003265383
100
AcDbArc
 50
204.8282500950414
 51
254.6133764957839
  0
LINE
  5
1341
102
{ACAD_REACTORS
330
1546
102
}
330
1A
100
AcDbEntity
  8
KEIJYO
 62
   251
100
AcDbLine
 10
741.9295981649459
 20
141.6175569502839
 30
0.0
 11
741.9295981649459
 21
171.7242561626438
 31
0.0
  0
LINE
  5
1342
102
{ACAD_REACTORS
330
1546
102
}
330
1A
100
AcDbEntity
  8
KEIJYO
 62
   251
100
AcDbLine
 10
745.9295981649459
 20
137.6642771976065
 30
0.0
 11
745.9295981649459
 21
211.3642771976065
 31
0.0
  0
LINE
  5
1343
102
{ACAD_REACTORS
330
1546
102
}
330
1A
100
AcDbEntity
  8
KEIJYO
 62
   251
100
AcDbLine
 10
738.9295963061461
 20
163.6643067516065
 30
0.0
 11
736.1371079503458
 21
208.0648716115065
 31
0.0
  0
LINE
  5
1344
102
{ACAD_REACTORS
330
1546
102
}
330
1A
100
AcDbEntity
  8
KEIJYO
 62
   251
100
AcDbLine
 10
718.766897711546
 20
165.6230962426065
 30
0.0
 11
721.991740244846
 21
177.6583724230064
 31
0.0
  0
LINE
  5
1345
102
{ACAD_REACTORS
330
1546
102
}
330
1A
100
AcDbEntity
  8
KEIJYO
 62
   251
100
AcDbLine
 10
714.3348573907459
 20
162.6054581525065
 30
0.0
 11
718.6109998528459
 21
178.5642390809065
 31
0.0
  0
ARC
  5
1346
102
{ACAD_REACTORS
330
1546
102
}
330
1A
100
AcDbEntity
  8
KEIJYO
 62
   251
100
AcDbCircle
 10
701.429598164946
 20
278.3642771976065
 30
0.0
 40
116.5
100
AcDbArc
 50
225.0204654645004
 51
269.9999985406015
  0
ARC
  5
1347
102
{ACAD_REACTORS
330
1546
102
}
330
1A
100
AcDbEntity
  8
KEIJYO
 62
   251
100
AcDbCircle
 10
701.429598164946
 20
278.3642771976065
 30
0.0
 40
120.0
100
AcDbArc
 50
224.832108070396
 51
269.9999985406015
  0
LINE
  5
1377
102
{ACAD_REACTORS
330
1546
102
}
330
1A
100
AcDbEntity
  8
KEIJYO
 62
   251
100
AcDbLine
 10
704.726960757952
 20
161.111205321358
 30
0.0
 11
709.5757747579519
 21
161.701495721358
 31
0.0
  0
LINE
  5
1378
102
{ACAD_REACTORS
330
1546
102
}
330
1A
100
AcDbEntity
  8
KEIJYO
 62
   251
100
AcDbLine
 10
701.4680839579519
 20
155.173866221358
 30
0.0
 11
722.2028805579522
 21
157.698102321358
 31
0.0
  0
LINE
  5
1379
102
{ACAD_REACTORS
330
1546
102
}
330
1A
100
AcDbEntity
  8
KEIJYO
 62
   251
100
AcDbLine
 10
701.429595108346
 20
161.8642771976065
 30
0.0
 11
713.3689315644459
 21
161.8642771976065
 31
0.0
  0
LINE
  5
137A
102
{ACAD_REACTORS
330
1546
102
}
330
1A
100
AcDbEntity
  8
KEIJYO
 62
   251
100
AcDbLine
 10
701.429595108346
 20
158.3642771976065
 30
0.0
 11
720.078745203846
 21
158.3642771976065
 31
0.0
  0
LINE
  5
137B
102
{ACAD_REACTORS
330
1546
102
}
330
1A
100
AcDbEntity
  8
KEIJYO
 62
   251
100
AcDbLine
 10
697.0274452579521
 20
160.173873021358
 30
0.0
 11
665.8986754579522
 21
160.173920321358
 31
0.0
  0
LINE
  5
137C
102
{ACAD_REACTORS
330
1546
102
}
330
1A
100
AcDbEntity
  8
KEIJYO
 62
   251
100
AcDbLine
 10
701.4680839579519
 20
155.173866221358
 30
0.0
 11
665.8986678579521
 21
155.173920321358
 31
0.0
  0
ARC
  5
137D
102
{ACAD_REACTORS
330
1546
102
}
330
1A
100
AcDbEntity
  8
KEIJYO
 62
   251
100
AcDbCircle
 10
665.8987560579521
 20
213.173920321358
 30
0.0
 40
57.9999999946558
100
AcDbArc
 50
254.6133765640796
 51
269.9999140563276
  0
ARC
  5
137E
102
{ACAD_REACTORS
330
1546
102
}
330
1A
100
AcDbEntity
  8
KEIJYO
 62
   251
100
AcDbCircle
 10
665.8987560579521
 20
213.173920321358
 30
0.0
 40
52.99999999017543
100
AcDbArc
 50
254.6133765186122
 51
269.9999128671727
  0
LINE
  5
137F
102
{ACAD_REACTORS
330
1546
102
}
330
1A
100
AcDbEntity
  8
KEIJYO
 62
   251
100
AcDbLine
 10
697.0274452579521
 20
160.173873021358
 30
0.0
 11
704.726960457952
 21
161.111205321358
 31
0.0
  0
ARC
  5
1380
102
{ACAD_REACTORS
330
1546
102
}
330
1A
100
AcDbEntity
  8
KEIJYO
 62
   251
100
AcDbCircle
 10
704.6061135579521
 20
162.1038764213579
 30
0.0
 40
0.99999999753361
100
AcDbArc
 50
276.9409995518147
 51
40.31375012250694
  0
LINE
  5
1381
102
{ACAD_REACTORS
330
1546
102
}
330
1A
100
AcDbEntity
  8
KEIJYO
 62
   251
100
AcDbLine
 10
738.5987459579521
 20
162.173856121358
 30
0.0
 11
740.5987459579521
 21
160.173856121358
 31
0.0
  0
LINE
  5
1382
102
{ACAD_REACTORS
330
1546
102
}
330
1A
100
AcDbEntity
  8
KEIJYO
 62
   251
100
AcDbLine
 10
741.5987459579521
 20
136.173759021358
 30
0.0
 11
739.0987459579521
 21
136.173759021358
 31
0.0
  0
LINE
  5
1383
102
{ACAD_REACTORS
330
1546
102
}
330
1A
100
AcDbEntity
  8
KEIJYO
  6
CENTER
 62
   251
 48
5.0
100
AcDbLine
 10
731.929598164946
 20
141.6642771976064
 30
0.0
 11
752.9295981649458
 21
141.6642771976065
 31
0.0
  0
LINE
  5
1384
102
{ACAD_REACTORS
330
1546
102
}
330
1A
100
AcDbEntity
  8
KEIJYO
 62
   251
100
AcDbLine
 10
740.9295981649458
 20
133.6642771976065
 30
0.0
 11
738.9295981649459
 21
133.6642771976065
 31
0.0
  0
ARC
  5
1385
102
{ACAD_REACTORS
330
1546
102
}
330
1A
100
AcDbEntity
  8
KEIJYO
 62
   251
100
AcDbCircle
 10
736.3930695127098
 20
141.6409170739338
 30
0.0
 40
5.536577933381693
100
AcDbArc
 50
297.2671598356293
 51
0.2417450783888347
  0
LINE
  5
1386
102
{ACAD_REACTORS
330
1546
102
}
330
1A
100
AcDbEntity
  8
KEIJYO
 62
   251
100
AcDbLine
 10
736.209639057952
 20
152.710951321358
 30
0.0
 11
738.5987459579521
 21
144.173759021358
 31
0.0
  0
LINE
  5
1387
102
{ACAD_REACTORS
330
1546
102
}
330
1A
100
AcDbEntity
  8
KEIJYO
 62
   251
100
AcDbLine
 10
738.5987459579521
 20
163.173759021358
 30
0.0
 11
738.5987459579521
 21
136.673759021358
 31
0.0
  0
LINE
  5
1388
102
{ACAD_REACTORS
330
1546
102
}
330
1A
100
AcDbEntity
  8
KEIJYO
 62
   251
100
AcDbLine
 10
738.9295981649459
 20
136.7195638445065
 30
0.0
 11
738.9295981649459
 21
163.6643067516065
 31
0.0
  0
ARC
  5
1389
102
{ACAD_REACTORS
330
1546
102
}
330
1A
100
AcDbEntity
  8
KEIJYO
 62
   251
100
AcDbCircle
 10
739.0987459579521
 20
136.673759021358
 30
0.0
 40
0.5
100
AcDbArc
 50
180.0
 51
270.0
  0
LINE
  5
138A
102
{ACAD_REACTORS
330
1546
102
}
330
1A
100
AcDbEntity
  8
KEIJYO
 62
   251
100
AcDbLine
 10
738.9295981649459
 20
134.0006663632065
 30
0.0
 11
738.9295981649459
 21
133.6642771976065
 31
0.0
  0
LINE
  5
138B
102
{ACAD_REACTORS
330
1546
102
}
330
1A
100
AcDbEntity
  8
KEIJYO
 62
   251
100
AcDbLine
 10
738.9295981649459
 20
134.0006663632065
 30
0.0
 11
738.9295981649459
 21
136.7195638445065
 31
0.0
  0
ARC
  5
138C
102
{ACAD_REACTORS
330
1546
102
}
330
1A
100
AcDbEntity
  8
KEIJYO
 62
   251
100
AcDbCircle
 10
721.5986459579522
 20
162.661458121358
 30
0.0
 40
5.000000012461504
100
AcDbArc
 50
276.9409832111319
 51
0.0
  0
LINE
  5
138D
102
{ACAD_REACTORS
330
1546
102
}
330
1A
100
AcDbEntity
  8
KEIJYO
 62
   251
100
AcDbLine
 10
715.8931562579519
 20
162.470568221358
 30
0.0
 11
726.0382224579521
 21
163.705619821358
 31
0.0
  0
LINE
  5
138E
102
{ACAD_REACTORS
330
1546
102
}
330
1A
100
AcDbEntity
  8
KEIJYO
 62
   251
100
AcDbLine
 10
725.5635727610459
 20
164.3642771975065
 30
0.0
 11
715.1897950274459
 21
164.3642771975065
 31
0.0
  0
ARC
  5
138F
102
{ACAD_REACTORS
330
1546
102
}
330
1A
100
AcDbEntity
  8
KEIJYO
 62
   251
100
AcDbCircle
 10
720.078745203846
 20
163.3642771976065
 30
0.0
 40
5.0
100
AcDbArc
 50
270.0
 51
330.0000000010006
  0
ARC
  5
1390
102
{ACAD_REACTORS
330
1546
102
}
330
1A
100
AcDbEntity
  8
KEIJYO
 62
   251
100
AcDbCircle
 10
715.8327327579521
 20
162.966903821358
 30
0.0
 40
0.4999999887799412
100
AcDbArc
 50
160.9275415853917
 51
276.9409874842328
  0
LINE
  5
1391
102
{ACAD_REACTORS
330
1546
102
}
330
1A
100
AcDbEntity
  8
KEIJYO
 62
   251
100
AcDbLine
 10
715.0986459579522
 20
162.3738452213579
 30
0.0
 11
715.0986459579522
 21
156.829479821358
 31
0.0
  0
LINE
  5
1392
102
{ACAD_REACTORS
330
1546
102
}
330
1A
100
AcDbEntity
  8
KEIJYO
 62
   251
100
AcDbLine
 10
711.086972857952
 20
166.072370221358
 30
0.0
 11
709.5757747579519
 21
161.701495721358
 31
0.0
  0
ARC
  5
1393
102
{ACAD_REACTORS
330
1546
102
}
330
1A
100
AcDbEntity
  8
KEIJYO
 62
   251
100
AcDbCircle
 10
713.3689315644459
 20
162.8642771976065
 30
0.0
 40
1.0
100
AcDbArc
 50
270.0
 51
344.9999999997021
  0
ARC
  5
1394
102
{ACAD_REACTORS
330
1546
102
}
330
1A
100
AcDbEntity
  8
KEIJYO
 62
   251
100
AcDbCircle
 10
710.1418671579521
 20
166.399135021358
 30
0.0
 40
1.000000012575719
100
AcDbArc
 50
220.3137501225028
 51
340.9274709880181
  0
ARC
  5
1395
102
{ACAD_REACTORS
330
1546
102
}
330
1A
100
AcDbEntity
  8
KEIJYO
 62
   251
100
AcDbCircle
 10
715.1897950274459
 20
163.8642771975065
 30
0.0
 40
0.5
100
AcDbArc
 50
90.0
 51
164.9999999997024
  0
ARC
  5
1396
102
{ACAD_REACTORS
330
1546
102
}
330
1A
100
AcDbEntity
  8
KEIJYO
 62
   251
100
AcDbCircle
 10
719.7328235377459
 20
165.3642771975064
 30
0.0
 40
1.0
100
AcDbArc
 50
164.9999999997024
 51
270.0
  0
LINE
  5
1397
102
{ACAD_REACTORS
330
1546
102
}
330
1A
100
AcDbEntity
  8
KEIJYO
 62
   251
100
AcDbLine
 10
718.766692237746
 20
165.6223294041065
 30
0.0
 11
718.766435673146
 21
165.6213707524065
 31
0.0
  0
LINE
  5
1398
102
{ACAD_REACTORS
330
1546
102
}
330
1A
100
AcDbEntity
  8
KEIJYO
 62
   251
100
AcDbLine
 10
719.731037257946
 20
164.3642774925065
 30
0.0
 11
719.7320296481461
 21
164.3642771975065
 31
0.0
  0
LINE
  5
1399
102
{ACAD_REACTORS
330
1546
102
}
330
1A
100
AcDbEntity
  8
KEIJYO
 62
   251
100
AcDbLine
 10
736.0986459579519
 20
159.087529221358
 30
0.0
 11
736.0986459579519
 21
153.5194309213579
 31
0.0
  0
ARC
  5
139A
102
{ACAD_REACTORS
330
1546
102
}
330
1A
100
AcDbEntity
  8
KEIJYO
 62
   251
100
AcDbCircle
 10
739.4295981649459
 20
157.7504270031065
 30
0.0
 40
3.0
100
AcDbArc
 50
179.9999964820984
 51
219.8055623932021
  0
LINE
  5
139B
102
{ACAD_REACTORS
330
1546
102
}
330
1A
100
AcDbEntity
  8
KEIJYO
 62
   251
100
AcDbLine
 10
736.209639057952
 20
152.710951321358
 30
0.0
 11
736.0986459579519
 21
153.173759021358
 31
0.0
  0
LINE
  5
139C
102
{ACAD_REACTORS
330
1546
102
}
330
1A
100
AcDbEntity
  8
KEIJYO
 62
   251
100
AcDbLine
 10
736.0986459579519
 20
153.173759021358
 30
0.0
 11
736.0986459579519
 21
153.5194309213579
 31
0.0
  0
ARC
  5
139D
102
{ACAD_REACTORS
330
1546
102
}
330
1A
100
AcDbEntity
  8
KEIJYO
 62
   251
100
AcDbCircle
 10
739.0986459579519
 20
153.5194309213579
 30
0.0
 40
3.000000010988652
100
AcDbArc
 50
180.0
 51
195.6341114152877
  0
LINE
  5
139E
102
{ACAD_REACTORS
330
1546
102
}
330
1A
100
AcDbEntity
  8
KEIJYO
 62
   251
100
AcDbLine
 10
737.1249340345459
 20
155.8298741540065
 30
0.0
 11
738.2342622802459
 21
154.4986802593065
 31
0.0
  0
ARC
  5
139F
102
{ACAD_REACTORS
330
1546
102
}
330
1A
100
AcDbEntity
  8
KEIJYO
 62
   251
100
AcDbCircle
 10
735.9295981649458
 20
152.5781273921065
 30
0.0
 40
3.0
100
AcDbArc
 50
0.0
 51
39.80556284279827
  0
LINE
  5
13A0
102
{ACAD_REACTORS
330
1546
102
}
330
1A
100
AcDbEntity
  8
KEIJYO
 62
   251
100
AcDbLine
 10
725.9965854629459
 20
163.6142771975065
 30
0.0
 11
724.408872222846
 21
160.8642771977065
 31
0.0
  0
ARC
  5
13A1
102
{ACAD_REACTORS
330
1546
102
}
330
1A
100
AcDbEntity
  8
KEIJYO
 62
   251
100
AcDbCircle
 10
726.0986459579522
 20
163.209284221358
 30
0.0
 40
0.4999999760409623
100
AcDbArc
 50
0.0
 51
96.94101161939039
  0
LINE
  5
13A2
102
{ACAD_REACTORS
330
1546
102
}
330
1A
100
AcDbEntity
  8
KEIJYO
 62
   251
100
AcDbLine
 10
726.5986459579522
 20
163.209284221358
 30
0.0
 11
726.5986459579522
 21
162.661458121358
 31
0.0
  0
LINE
  5
13A3
102
{ACAD_REACTORS
330
1546
102
}
330
1A
100
AcDbEntity
  8
KEIJYO
 62
   251
100
AcDbLine
 10
725.996321448846
 20
163.6138199116065
 30
0.0
 11
725.904628796046
 21
163.4550035783065
 31
0.0
  0
LINE
  5
13A4
102
{ACAD_REACTORS
330
1546
102
}
330
1A
100
AcDbEntity
  8
KEIJYO
 62
   251
100
AcDbLine
 10
725.563968363646
 20
164.3642771975065
 30
0.0
 11
725.563748614246
 21
164.3642771975065
 31
0.0
  0
ARC
  5
13A5
102
{ACAD_REACTORS
330
1546
102
}
330
1A
100
AcDbEntity
  8
KEIJYO
 62
   251
100
AcDbCircle
 10
725.5635727610459
 20
163.8642771975065
 30
0.0
 40
0.5
100
AcDbArc
 50
330.0000000010006
 51
90.0
  0
LINE
  5
13A6
102
{ACAD_REACTORS
330
1546
102
}
330
1A
100
AcDbEntity
  8
KEIJYO
 62
   251
100
AcDbLine
 10
738.5987459579521
 20
163.173759021358
 30
0.0
 11
736.7939995579519
 21
161.008103321358
 31
0.0
  0
LINE
  5
13A7
102
{ACAD_REACTORS
330
1546
102
}
330
1A
100
AcDbEntity
  8
KEIJYO
 62
   251
100
AcDbLine
 10
738.1652329790461
 20
162.7470389746065
 30
0.0
 11
737.1249343261458
 21
161.4986805910065
 31
0.0
  0
ARC
  5
13A8
102
{ACAD_REACTORS
330
1546
102
}
330
1A
100
AcDbEntity
  8
KEIJYO
 62
   251
100
AcDbCircle
 10
739.0986459579519
 20
159.087529221358
 30
0.0
 40
2.999999991885308
100
AcDbArc
 50
140.1939090317893
 51
180.0
  0
LINE
  5
13A9
102
{ACAD_REACTORS
330
1546
102
}
330
1A
100
AcDbEntity
  8
KEIJYO
 62
   251
100
AcDbLine
 10
736.4295981649458
 20
159.5781279701065
 30
0.0
 11
736.4295981649458
 21
157.7504271873065
 31
0.0
  0
ARC
  5
13AA
102
{ACAD_REACTORS
330
1546
102
}
330
1A
100
AcDbEntity
  8
KEIJYO
 62
   251
100
AcDbCircle
 10
739.4295981649459
 20
159.5781273921065
 30
0.0
 40
3.0
100
AcDbArc
 50
140.1944289077022
 51
179.9999889610973
  0
ARC
  5
13AB
102
{ACAD_REACTORS
330
1546
102
}
330
1A
100
AcDbEntity
  8
KEIJYO
 62
   251
100
AcDbCircle
 10
735.8605691403461
 20
164.6675921736065
 30
0.0
 40
3.0
100
AcDbArc
 50
320.1944289077024
 51
3.598768116799344
  0
LINE
  5
13AC
102
{ACAD_REACTORS
330
1546
102
}
330
1A
100
AcDbEntity
  8
KEIJYO
 62
   251
100
AcDbLine
 10
741.5987459579521
 20
136.173759021358
 30
0.0
 11
741.5987459579521
 21
160.173856121358
 31
0.0
  0
LINE
  5
13AD
102
{ACAD_REACTORS
330
1546
102
}
330
1A
100
AcDbEntity
  8
KEIJYO
 62
   251
100
AcDbLine
 10
745.9295981649459
 20
138.4700592204065
 30
0.0
 11
745.9295981649459
 21
141.9897026413065
 31
0.0
  0
LINE
  5
13AE
102
{ACAD_REACTORS
330
1546
102
}
330
1A
100
AcDbEntity
  8
KEIJYO
 62
   251
100
AcDbLine
 10
745.5986647579522
 20
138.173759021358
 30
0.0
 11
741.5987459579521
 21
136.173759021358
 31
0.0
  0
LINE
  5
13AF
102
{ACAD_REACTORS
330
1546
102
}
330
1A
100
AcDbEntity
  8
KEIJYO
 62
   251
100
AcDbLine
 10
745.9295981649459
 20
137.6642771976065
 30
0.0
 11
740.9295981649458
 21
134.6642771976065
 31
0.0
  0
LINE
  5
13B0
102
{ACAD_REACTORS
330
1546
102
}
330
1A
100
AcDbEntity
  8
KEIJYO
 62
   251
100
AcDbLine
 10
740.9295981649458
 20
134.6642771976065
 30
0.0
 11
740.9295981649458
 21
133.6642771976065
 31
0.0
  0
LINE
  5
13B1
102
{ACAD_REACTORS
330
1546
102
}
330
1A
100
AcDbEntity
  8
KEIJYO
 62
   251
100
AcDbLine
 10
745.9295981649459
 20
137.6642771976065
 30
0.0
 11
745.9295981649459
 21
138.4700592204065
 31
0.0
  0
LINE
  5
13B2
102
{ACAD_REACTORS
330
1546
102
}
330
1A
100
AcDbEntity
  8
KEIJYO
 62
   251
100
AcDbLine
 10
742.5987459579521
 20
162.373856121358
 30
0.0
 11
742.5987459579521
 21
160.173856121358
 31
0.0
  0
LINE
  5
13B3
102
{ACAD_REACTORS
330
1546
102
}
330
1A
100
AcDbEntity
  8
KEIJYO
 62
   251
100
AcDbLine
 10
740.5987459579521
 20
163.243446521358
 30
0.0
 11
740.5987459579521
 21
160.173856121358
 31
0.0
  0
LINE
  5
13B4
102
{ACAD_REACTORS
330
1546
102
}
330
1A
100
AcDbEntity
  8
KEIJYO
 62
   251
100
AcDbLine
 10
740.5987459579521
 20
160.173856121358
 30
0.0
 11
742.5987459579521
 21
160.173856121358
 31
0.0
  0
LINE
  5
13B5
102
{ACAD_REACTORS
330
1546
102
}
330
1A
100
AcDbEntity
  8
KEIJYO
 62
   251
100
AcDbLine
 10
745.5986647579522
 20
164.173871721358
 30
0.0
 11
742.5987459579521
 21
162.373856121358
 31
0.0
  0
ARC
  5
13B6
102
{ACAD_REACTORS
330
1546
102
}
330
1A
100
AcDbEntity
  8
KEIJYO
 62
   251
100
AcDbCircle
 10
665.8987560579521
 20
213.173920321358
 30
0.0
 40
37.9999999621277
100
AcDbArc
 50
211.7533304376405
 51
322.9461836114391
  0
ARC
  5
13B7
102
{ACAD_REACTORS
330
1546
102
}
330
1A
100
AcDbEntity
  8
KEIJYO
 62
   251
100
AcDbCircle
 10
669.929598164946
 20
245.3642771976065
 30
0.0
 40
63.5
100
AcDbArc
 50
231.7238242138968
 51
314.6746095643968
  0
ARC
  5
13B8
102
{ACAD_REACTORS
330
1546
102
}
330
1A
100
AcDbEntity
  8
KEIJYO
 62
   251
100
AcDbCircle
 10
669.929598164946
 20
245.3642771976065
 30
0.0
 40
60.0
100
AcDbArc
 50
228.6788462656025
 51
314.6746095643968
  0
ARC
  5
13C1
102
{ACAD_REACTORS
330
1546
102
}
330
1A
100
AcDbEntity
  8
KEIJYO
 62
   251
100
AcDbCircle
 10
608.3783660579521
 20
210.173978921358
 30
0.0
 40
0.4999999761464608
100
AcDbArc
 50
339.5277163292311
 51
90.0
  0
ARC
  5
13C2
102
{ACAD_REACTORS
330
1546
102
}
330
1A
100
AcDbEntity
  8
KEIJYO
 62
   251
100
AcDbCircle
 10
609.1802403579521
 20
205.173978921358
 30
0.0
 40
2.000000004515706
100
AcDbArc
 50
159.5277337563807
 51
269.999971352107
  0
LINE
  5
13C3
102
{ACAD_REACTORS
330
1546
102
}
330
1A
100
AcDbEntity
  8
KEIJYO
 62
   251
100
AcDbLine
 10
608.8467867579521
 20
209.999101821358
 30
0.0
 11
607.3065573579521
 21
205.8734872213579
 31
0.0
  0
LINE
  5
13C4
102
{ACAD_REACTORS
330
1546
102
}
330
1A
100
AcDbEntity
  8
KEIJYO
 62
   251
100
AcDbLine
 10
607.748740157952
 20
197.173978921358
 30
0.0
 11
616.4828301579522
 21
197.173978921358
 31
0.0
  0
LINE
  5
13C5
102
{ACAD_REACTORS
330
1546
102
}
330
1A
100
AcDbEntity
  8
KEIJYO
 62
   251
100
AcDbLine
 10
607.5608434622449
 20
206.3249780470466
 30
0.0
 11
608.846786780299
 21
209.9991018130152
 31
0.0
  0
ARC
  5
13C6
102
{ACAD_REACTORS
330
1546
102
}
330
1A
100
AcDbEntity
  8
KEIJYO
 62
   251
100
AcDbCircle
 10
608.3748576021147
 20
210.1642770253752
 30
0.0
 40
0.5
100
AcDbArc
 50
340.7099537812948
 51
89.99999591649428
  0
LINE
  5
13C7
102
{ACAD_REACTORS
330
1546
102
}
330
1A
100
AcDbEntity
  8
KEIJYO
 62
   251
100
AcDbLine
 10
608.079599225346
 20
197.6642771976065
 30
0.0
 11
624.3998273274459
 21
197.6642771976065
 31
0.0
  0
ARC
  5
13C8
102
{ACAD_REACTORS
330
1546
102
}
330
1A
100
AcDbEntity
  8
KEIJYO
 62
   251
100
AcDbCircle
 10
609.4485601749826
 20
205.6642771976064
 30
0.0
 40
2.0
100
AcDbArc
 50
160.7099537813002
 51
270.0
  0
ARC
  5
13C9
102
{ACAD_REACTORS
330
1546
102
}
330
1A
100
AcDbEntity
  8
KEIJYO
 62
   251
100
AcDbCircle
 10
607.7487408579521
 20
203.923978921358
 30
0.0
 40
6.750000000000017
100
AcDbArc
 50
90.0
 51
269.9999940582117
  0
ARC
  5
13CA
102
{ACAD_REACTORS
330
1546
102
}
330
1A
100
AcDbEntity
  8
KEIJYO
 62
   251
100
AcDbCircle
 10
608.0795981649461
 20
204.4142771976065
 30
0.0
 40
6.75
100
AcDbArc
 50
180.2539075404981
 51
270.0000090010027
  0
ARC
  5
13CB
102
{ACAD_REACTORS
330
1546
102
}
330
1A
100
AcDbEntity
  8
KEIJYO
 62
   251
100
AcDbCircle
 10
608.0795981649461
 20
204.4142771976065
 30
0.0
 40
6.75
100
AcDbArc
 50
116.5253520166007
 51
179.7460924595995
  0
LINE
  5
13CC
102
{ACAD_REACTORS
330
1546
102
}
330
1A
100
AcDbEntity
  8
KEIJYO
 62
   251
100
AcDbLine
 10
601.3296644444459
 20
204.3843645181065
 30
0.0
 11
601.3296644444459
 21
204.4441898770065
 31
0.0
  0
LINE
  5
13CD
102
{ACAD_REACTORS
330
1546
102
}
330
1A
100
AcDbEntity
  8
KEIJYO
 62
   251
100
AcDbLine
 10
608.3783660579521
 20
210.673978921358
 30
0.0
 11
607.7487408579521
 21
210.673978921358
 31
0.0
  0
ARC
  5
13CE
102
{ACAD_REACTORS
330
1546
102
}
330
1A
100
AcDbEntity
  8
KEIJYO
 62
   251
100
AcDbCircle
 10
605.958277821346
 20
208.6642771976065
 30
0.0
 40
2.0
100
AcDbArc
 50
90.0
 51
116.5253520166007
  0
ARC
  5
13CF
102
{ACAD_REACTORS
330
1546
102
}
330
1A
100
AcDbEntity
  8
KEIJYO
 62
   251
100
AcDbCircle
 10
608.0795981649461
 20
204.4142771976065
 30
0.0
 40
6.75
100
AcDbArc
 50
116.5175626991003
 51
116.5218888107022
  0
LINE
  5
13D0
102
{ACAD_REACTORS
330
1546
102
}
330
1A
100
AcDbEntity
  8
KEIJYO
 62
   251
100
AcDbLine
 10
605.957990673946
 20
210.6642771976065
 30
0.0
 11
605.9576318762459
 21
210.6642771976065
 31
0.0
  0
LINE
  5
13D1
102
{ACAD_REACTORS
330
1546
102
}
330
1A
100
AcDbEntity
  8
KEIJYO
 62
   251
100
AcDbLine
 10
608.3748576377501
 20
210.6642770253752
 30
0.0
 11
605.958277821346
 21
210.6642771976065
 31
0.0
  0
LINE
  5
13D2
102
{ACAD_REACTORS
330
1546
102
}
330
1A
100
AcDbEntity
  8
KEIJYO
 62
   251
100
AcDbLine
 10
625.815831857952
 20
196.230651521358
 30
0.0
 11
629.334923057952
 21
190.544600521358
 31
0.0
  0
LINE
  5
13D3
102
{ACAD_REACTORS
330
1546
102
}
330
1A
100
AcDbEntity
  8
KEIJYO
 62
   251
100
AcDbLine
 10
618.3195331579521
 20
195.965510221358
 30
0.0
 11
626.0197818376233
 21
178.0975243474782
 31
0.0
  0
LINE
  5
13D4
102
{ACAD_REACTORS
330
1546
102
}
330
1A
100
AcDbEntity
  8
KEIJYO
 62
   251
100
AcDbLine
 10
624.0471585579521
 20
195.308622621358
 30
0.0
 11
630.2865350579521
 21
180.830506921358
 31
0.0
  0
ARC
  5
13D5
102
{ACAD_REACTORS
330
1546
102
}
330
1A
100
AcDbEntity
  8
KEIJYO
 62
   251
100
AcDbCircle
 10
610.4220996063556
 20
193.173978921358
 30
0.0
 40
4.000000020652752
100
AcDbArc
 50
330.2159705597423
 51
90.00002435070282
  0
ARC
  5
13D6
102
{ACAD_REACTORS
330
1546
102
}
330
1A
100
AcDbEntity
  8
KEIJYO
 62
   251
100
AcDbCircle
 10
612.3296644444459
 20
193.6642771976065
 30
0.0
 40
4.0
100
AcDbArc
 50
319.9266683214965
 51
1.37797588190002
  0
ARC
  5
13D7
102
{ACAD_REACTORS
330
1546
102
}
330
1A
100
AcDbEntity
  8
KEIJYO
 62
   251
100
AcDbCircle
 10
624.2893134546861
 20
177.0947885020758
 30
0.0
 40
2.0
100
AcDbArc
 50
24.82825009504149
 51
89.99999999999349
  0
LINE
  5
13D8
102
{ACAD_REACTORS
330
1546
102
}
330
1A
100
AcDbEntity
  8
KEIJYO
 62
   251
100
AcDbLine
 10
614.3295981649461
 20
179.6642771976065
 30
0.0
 11
631.9406781848459
 21
179.6642771976065
 31
0.0
  0
ARC
  5
13D9
102
{ACAD_REACTORS
330
1546
102
}
330
1A
100
AcDbEntity
  8
KEIJYO
 62
   251
100
AcDbCircle
 10
613.9987459579522
 20
183.0947885020758
 30
0.0
 40
4.0
100
AcDbArc
 50
148.8534686845128
 51
270.0
  0
ARC
  5
13DA
102
{ACAD_REACTORS
330
1546
102
}
330
1A
100
AcDbEntity
  8
KEIJYO
 62
   251
100
AcDbCircle
 10
614.3295981649461
 20
183.6642771976065
 30
0.0
 40
4.0
100
AcDbArc
 50
139.6387505755019
 51
270.0
  0
LINE
  5
13DB
102
{ACAD_REACTORS
330
1546
102
}
330
1A
100
AcDbEntity
  8
KEIJYO
 62
   251
100
AcDbLine
 10
613.9987459579522
 20
179.0947885020758
 30
0.0
 11
624.2893134546861
 21
179.0947885020758
 31
0.0
  0
LINE
  5
13DC
102
{ACAD_REACTORS
330
1546
102
}
330
1A
100
AcDbEntity
  8
KEIJYO
 62
   251
100
AcDbLine
 10
613.893715406709
 20
191.1870506639821
 30
0.0
 11
610.5753567066796
 21
185.1637027183426
 31
0.0
  0
LINE
  5
13DD
102
{ACAD_REACTORS
330
1546
102
}
330
1A
100
AcDbEntity
  8
KEIJYO
 62
   251
100
AcDbLine
 10
615.3905489460461
 20
191.0892070883065
 30
0.0
 11
611.2816922725459
 21
186.2546960191065
 31
0.0
  0
ARC
  5
13DE
102
{ACAD_REACTORS
330
1546
102
}
330
1A
100
AcDbEntity
  8
KEIJYO
 62
   251
100
AcDbCircle
 10
612.3296644444459
 20
193.6642771976065
 30
0.0
 40
4.0
100
AcDbArc
 50
319.3508328298964
 51
319.9266683214965
  0
ARC
  5
13DF
102
{ACAD_REACTORS
330
1546
102
}
330
1A
100
AcDbEntity
  8
KEIJYO
 62
   251
100
AcDbCircle
 10
631.9406781848459
 20
175.6642771976065
 30
0.0
 40
4.0
100
AcDbArc
 50
55.91691445849956
 51
90.0
  0
ARC
  5
13E0
102
{ACAD_REACTORS
330
1546
102
}
330
1A
100
AcDbEntity
  8
KEIJYO
 62
   251
100
AcDbCircle
 10
624.6131084579521
 20
198.173978921358
 30
0.0
 40
4.999999978972496
100
AcDbArc
 50
31.75332054288022
 51
89.999995416334
  0
ARC
  5
13E1
102
{ACAD_REACTORS
330
1546
102
}
330
1A
100
AcDbEntity
  8
KEIJYO
 62
   251
100
AcDbCircle
 10
624.965510157952
 20
195.704388221358
 30
0.0
 40
1.000000031445915
100
AcDbArc
 50
31.75332601791545
 51
203.3137302472893
  0
ARC
  5
13E2
102
{ACAD_REACTORS
330
1546
102
}
330
1A
100
AcDbEntity
  8
KEIJYO
 62
   251
100
AcDbCircle
 10
621.3990922949459
 20
190.1642771976065
 30
0.0
 40
13.5
100
AcDbArc
 50
48.67884626560259
 51
90.0
  0
ARC
  5
13E3
102
{ACAD_REACTORS
330
1546
102
}
330
1A
100
AcDbEntity
  8
KEIJYO
 62
   251
100
AcDbCircle
 10
624.399827684546
 20
187.6642771976065
 30
0.0
 40
10.0
100
AcDbArc
 50
51.72382421389674
 51
90.00000204599656
  0
ARC
  5
13E4
102
{ACAD_REACTORS
330
1546
102
}
330
1A
100
AcDbEntity
  8
KEIJYO
 62
   251
100
AcDbCircle
 10
616.4828301579522
 20
195.173978921358
 30
0.0
 40
1.999999992827478
100
AcDbArc
 50
23.31381865122807
 51
90.00001718873447
  0
ARC
  5
13E5
102
{ACAD_REACTORS
330
1546
102
}
330
1A
100
AcDbEntity
  8
KEIJYO
 62
   251
100
AcDbCircle
 10
610.8652011868461
 20
193.6642771976065
 30
0.0
 40
4.0
100
AcDbArc
 50
43.08358177649814
 51
90.0
  0
ARC
  5
13E6
102
{ACAD_REACTORS
330
1546
102
}
330
1A
100
AcDbEntity
  8
KEIJYO
 62
   251
100
AcDbCircle
 10
616.328507530846
 20
189.7604687885064
 30
0.0
 40
4.0
100
AcDbArc
 50
89.99999794360091
 51
90.00000464929881
  0
ARC
  5
13E7
102
{ACAD_REACTORS
330
1546
102
}
330
1A
100
AcDbEntity
  8
KEIJYO
 62
   251
100
AcDbCircle
 10
701.429598164946
 20
278.3642771976065
 30
0.0
 40
120.0
100
AcDbArc
 50
223.0835817764981
 51
224.832108070396
  0
ARC
  5
13E8
102
{ACAD_REACTORS
330
1546
102
}
330
1A
100
AcDbEntity
  8
KEIJYO
 62
   251
100
AcDbCircle
 10
619.787942130746
 20
196.6642771976065
 30
0.0
 40
1.0
100
AcDbArc
 50
90.0
 51
225.0204654645004
  0
LINE
  5
13E9
102
{ACAD_REACTORS
330
1546
102
}
330
1A
100
AcDbEntity
  8
KEIJYO
 62
   251
100
AcDbLine
 10
609.1802403579521
 20
203.173978921358
 30
0.0
 11
624.6131084579521
 21
203.173978921358
 31
0.0
  0
LINE
  5
13EA
102
{ACAD_REACTORS
330
1546
102
}
330
1A
100
AcDbEntity
  8
KEIJYO
 62
   251
100
AcDbLine
 10
621.3990922949459
 20
203.6642771976064
 30
0.0
 11
609.4485601749826
 21
203.6642771976064
 31
0.0
  0
LINE
  5
13EB
102
{ACAD_REACTORS
330
1546
102
}
330
1A
100
AcDbEntity
  8
KEIJYO
 62
   251
100
AcDbLine
 10
628.864716957952
 20
200.805295121358
 30
0.0
 11
633.586531557952
 21
193.1759168213579
 31
0.0
  0
ARC
  5
13EC
102
{ACAD_REACTORS
330
1546
102
}
330
1A
100
AcDbEntity
  8
KEIJYO
 62
   251
100
AcDbCircle
 10
728.1482070579521
 20
166.1738587213579
 30
0.0
 40
35.00000002024044
100
AcDbArc
 50
90.00000049110614
 51
142.9461834702695
  0
ARC
  5
13ED
102
{ACAD_REACTORS
330
1546
102
}
330
1A
100
AcDbEntity
  8
KEIJYO
 62
   251
100
AcDbCircle
 10
728.1482070579521
 20
166.1738587213579
 30
0.0
 40
39.99999998020622
100
AcDbArc
 50
90.00000042971381
 51
142.9461835312711
  0
ARC
  5
13EE
102
{ACAD_REACTORS
330
1546
102
}
330
1A
100
AcDbEntity
  8
KEIJYO
 62
   251
100
AcDbCircle
 10
665.8987560579521
 20
213.173920321358
 30
0.0
 40
43.00000000068138
100
AcDbArc
 50
305.7172656493562
 51
314.8421456027968
  0
ARC
  5
13EF
102
{ACAD_REACTORS
330
1546
102
}
330
1A
100
AcDbEntity
  8
KEIJYO
 62
   251
100
AcDbCircle
 10
691.5853356579522
 20
177.449983921358
 30
0.0
 40
1.000000030492406
100
AcDbArc
 50
40.31375012250694
 51
125.7172637824657
  0
ARC
  5
13F0
102
{ACAD_REACTORS
330
1546
102
}
330
1A
100
AcDbEntity
  8
KEIJYO
 62
   251
100
AcDbCircle
 10
665.8987560579521
 20
213.173920321358
 30
0.0
 40
43.0000000024102
100
AcDbArc
 50
314.8421450374815
 51
322.9461835454216
  0
ARC
  5
13F1
102
{ACAD_REACTORS
330
1546
102
}
330
1A
100
AcDbEntity
  8
KEIJYO
 62
   251
100
AcDbCircle
 10
696.925618257952
 20
181.975621921358
 30
0.0
 40
1.000000010170451
100
AcDbArc
 50
134.8421239329911
 51
220.3135021568671
  0
LINE
  5
13F2
102
{ACAD_REACTORS
330
1546
102
}
330
1A
100
AcDbEntity
  8
KEIJYO
 62
   251
100
AcDbLine
 10
735.6926771579521
 20
222.265344621358
 30
0.0
 11
721.6863546579522
 21
206.6662590213581
 31
0.0
  0
LINE
  5
13F3
102
{ACAD_REACTORS
330
1546
102
}
330
1A
100
AcDbEntity
  8
KEIJYO
  6
CENTER
 62
   251
 48
5.0
100
AcDbLine
 10
750.5986647579523
 20
181.173859021358
 30
0.0
 11
730.5986647579522
 21
181.173859021358
 31
0.0
  0
LINE
  5
13F4
102
{ACAD_REACTORS
330
1546
102
}
330
1A
100
AcDbEntity
  8
KEIJYO
  6
CENTER
 62
   251
 48
5.0
100
AcDbLine
 10
750.5986647579523
 20
214.1738590213579
 30
0.0
 11
730.0986647579521
 21
214.1738590213579
 31
0.0
  0
LINE
  5
13F5
102
{ACAD_REACTORS
330
1546
102
}
330
1A
100
AcDbEntity
  8
KEIJYO
 62
   251
100
AcDbLine
 10
741.9295981649459
 20
171.7242561626446
 30
0.0
 11
739.4365135364462
 21
211.3642771976065
 31
0.0
  0
LINE
  5
13F6
102
{ACAD_REACTORS
330
1546
102
}
330
1A
100
AcDbEntity
  8
KEIJYO
  6
CENTER
 62
   251
 48
5.0
100
AcDbLine
 10
731.929598164946
 20
191.6642771976064
 30
0.0
 11
752.9295981649458
 21
191.6642771976064
 31
0.0
  0
LINE
  5
13F7
102
{ACAD_REACTORS
330
1546
102
}
330
1A
100
AcDbEntity
  8
KEIJYO
 62
   251
100
AcDbLine
 10
745.9295981649459
 20
211.3642771976065
 30
0.0
 11
733.2067662432462
 21
211.3642771976065
 31
0.0
  0
ARC
  5
13F8
102
{ACAD_REACTORS
330
1546
102
}
330
1A
100
AcDbEntity
  8
KEIJYO
 62
   251
100
AcDbCircle
 10
732.1555832579522
 20
192.395948321358
 30
0.0
 40
4.999999990175512
100
AcDbArc
 50
274.8740065102775
 51
2.815484447338424
  0
ARC
  5
13F9
102
{ACAD_REACTORS
330
1546
102
}
330
1A
100
AcDbEntity
  8
KEIJYO
 62
   251
100
AcDbCircle
 10
725.1603116579521
 20
176.173859021358
 30
0.0
 40
4.999999978876629
100
AcDbArc
 50
89.99998510309854
 51
160.9275300466951
  0
ARC
  5
13FA
102
{ACAD_REACTORS
330
1546
102
}
330
1A
100
AcDbEntity
  8
KEIJYO
 62
   251
100
AcDbCircle
 10
725.3637786579521
 20
176.762351421358
 30
0.0
 40
9.99999999715634
100
AcDbArc
 50
94.87400651027751
 51
160.9275454565615
  0
ARC
  5
13FB
102
{ACAD_REACTORS
330
1546
102
}
330
1A
100
AcDbEntity
  8
KEIJYO
 62
   251
100
AcDbCircle
 10
726.821369376246
 20
176.3642771975065
 30
0.0
 40
5.0
100
AcDbArc
 50
90.0
 51
164.9999999997024
  0
ARC
  5
13FC
102
{ACAD_REACTORS
330
1546
102
}
330
1A
100
AcDbEntity
  8
KEIJYO
 62
   251
100
AcDbCircle
 10
726.821369376246
 20
176.3642771975065
 30
0.0
 40
8.5
100
AcDbArc
 50
90.0
 51
164.9999999997024
  0
ARC
  5
13FD
102
{ACAD_REACTORS
330
1546
102
}
330
1A
100
AcDbEntity
  8
KEIJYO
 62
   251
100
AcDbCircle
 10
731.098645957952
 20
178.173859021358
 30
0.0
 40
3.0
100
AcDbArc
 50
0.0
 51
90.0
  0
ARC
  5
13FE
102
{ACAD_REACTORS
330
1546
102
}
330
1A
100
AcDbEntity
  8
KEIJYO
 62
   251
100
AcDbCircle
 10
734.8574306579519
 20
178.173859021358
 30
0.0
 40
3.000000001513865
100
AcDbArc
 50
2.815484447338424
 51
90.0
  0
ARC
  5
13FF
102
{ACAD_REACTORS
330
1546
102
}
330
1A
100
AcDbEntity
  8
KEIJYO
 62
   251
100
AcDbCircle
 10
731.4295981649459
 20
178.3642771975065
 30
0.0
 40
3.0
100
AcDbArc
 50
0.0
 51
90.0
  0
ARC
  5
1400
102
{ACAD_REACTORS
330
1546
102
}
330
1A
100
AcDbEntity
  8
KEIJYO
 62
   251
100
AcDbCircle
 10
733.1209769368459
 20
176.3642771975065
 30
0.0
 40
5.0
100
AcDbArc
 50
3.598768116600248
 51
90.0
  0
ARC
  5
1401
102
{ACAD_REACTORS
330
1546
102
}
330
1A
100
AcDbEntity
  8
KEIJYO
 62
   251
100
AcDbCircle
 10
737.0986459579519
 20
175.730590521358
 30
0.0
 40
2.999999998074809
100
AcDbArc
 50
180.0
 51
233.4253702037183
  0
ARC
  5
1402
102
{ACAD_REACTORS
330
1546
102
}
330
1A
100
AcDbEntity
  8
KEIJYO
 62
   251
100
AcDbCircle
 10
737.4295981649459
 20
176.2621603981065
 30
0.0
 40
3.0
100
AcDbArc
 50
180.0
 51
233.0653994738029
  0
LINE
  5
1403
102
{ACAD_REACTORS
330
1546
102
}
330
1A
100
AcDbEntity
  8
KEIJYO
 62
   251
100
AcDbLine
 10
735.3110379579523
 20
173.321346321358
 30
0.0
 11
738.2053085579521
 21
171.1738590213579
 31
0.0
  0
LINE
  5
1404
102
{ACAD_REACTORS
330
1546
102
}
330
1A
100
AcDbEntity
  8
KEIJYO
 62
   251
100
AcDbLine
 10
735.6268890453459
 20
173.8641946289065
 30
0.0
 11
737.3155315766459
 21
172.5947305981065
 31
0.0
  0
ARC
  5
1405
102
{ACAD_REACTORS
330
1546
102
}
330
1A
100
AcDbEntity
  8
KEIJYO
 62
   251
100
AcDbCircle
 10
735.5128224311458
 20
170.1967648484065
 30
0.0
 40
3.0
100
AcDbArc
 50
3.598768116600248
 51
53.06539885499873
  0
LINE
  5
1406
102
{ACAD_REACTORS
330
1546
102
}
330
1A
100
AcDbEntity
  8
KEIJYO
 62
   251
100
AcDbLine
 10
734.0986459579519
 20
178.173859021358
 30
0.0
 11
734.0986459579519
 21
175.730590521358
 31
0.0
  0
LINE
  5
1407
102
{ACAD_REACTORS
330
1546
102
}
330
1A
100
AcDbEntity
  8
KEIJYO
 62
   251
100
AcDbLine
 10
734.4295981649459
 20
178.3642771975065
 30
0.0
 11
734.4295981649459
 21
176.2621603981065
 31
0.0
  0
LINE
  5
1408
102
{ACAD_REACTORS
330
1546
102
}
330
1A
100
AcDbEntity
  8
KEIJYO
 62
   251
100
AcDbLine
 10
732.5804077579521
 20
187.414028621358
 30
0.0
 11
724.5141296579521
 21
186.726190821358
 31
0.0
  0
LINE
  5
1409
102
{ACAD_REACTORS
330
1546
102
}
330
1A
100
AcDbEntity
  8
KEIJYO
 62
   251
100
AcDbLine
 10
734.8574306579519
 20
181.173859021358
 30
0.0
 11
725.1603129579522
 21
181.173859021358
 31
0.0
  0
LINE
  5
140A
102
{ACAD_REACTORS
330
1546
102
}
330
1A
100
AcDbEntity
  8
KEIJYO
 62
   251
100
AcDbLine
 10
726.821369376246
 20
184.8642771975065
 30
0.0
 11
732.271920333146
 21
184.8642771975065
 31
0.0
  0
LINE
  5
140B
102
{ACAD_REACTORS
330
1546
102
}
330
1A
100
AcDbEntity
  8
KEIJYO
 62
   251
100
AcDbLine
 10
726.821369376246
 20
181.3642771975065
 30
0.0
 11
733.1209769368459
 21
181.3642771975065
 31
0.0
  0
LINE
  5
140C
102
{ACAD_REACTORS
330
1546
102
}
330
1A
100
AcDbEntity
  8
KEIJYO
 62
   251
100
AcDbLine
 10
726.819032201946
 20
181.3642771975065
 30
0.0
 11
726.8161111409459
 21
181.3642766856064
 31
0.0
  0
ARC
  5
140D
102
{ACAD_REACTORS
330
1546
102
}
330
1A
100
AcDbEntity
  8
KEIJYO
 62
   251
100
AcDbCircle
 10
732.271920333146
 20
189.8642771975065
 30
0.0
 40
5.0
100
AcDbArc
 50
270.0
 51
3.598768116600248
  0
LINE
  5
140E
102
{ACAD_REACTORS
330
1546
102
}
330
1A
100
AcDbEntity
  8
KEIJYO
 62
   251
100
AcDbLine
 10
737.342838257952
 20
181.173859021358
 30
0.0
 11
734.5448459579522
 21
181.173859021358
 31
0.0
  0
ARC
  5
140F
102
{ACAD_REACTORS
330
1546
102
}
330
1A
100
AcDbEntity
  8
KEIJYO
 62
   251
100
AcDbCircle
 10
733.2067662432462
 20
181.3642771976065
 30
0.0
 40
26.5
100
AcDbArc
 50
104.1873164804006
 51
134.6746095644972
  0
ARC
  5
1410
102
{ACAD_REACTORS
330
1546
102
}
330
1A
100
AcDbEntity
  8
KEIJYO
 62
   251
100
AcDbCircle
 10
733.2067662432462
 20
181.3642771976065
 30
0.0
 40
30.0
100
AcDbArc
 50
90.0
 51
134.6746095643968
  0
LINE
  5
1411
102
{ACAD_REACTORS
330
1546
102
}
330
1A
100
AcDbEntity
  8
KEIJYO
 62
   251
100
AcDbLine
 10
721.6863546579522
 20
206.6662590213581
 30
0.0
 11
720.5987449579521
 21
205.454969021358
 31
0.0
  0
ARC
  5
1412
102
{ACAD_REACTORS
330
1546
102
}
330
1A
100
AcDbEntity
  8
KEIJYO
 62
   251
100
AcDbCircle
 10
728.672549914046
 20
199.3000203459065
 30
0.0
 40
8.0
100
AcDbArc
 50
3.598768116600248
 51
104.1873164804006
  0
LINE
  5
1413
102
{ACAD_REACTORS
330
1546
102
}
330
1A
100
AcDbEntity
  8
KEIJYO
 62
   251
100
AcDbLine
 10
728.1482067579521
 20
201.1738587213579
 30
0.0
 11
731.9704146579522
 21
201.1738587213579
 31
0.0
  0
LINE
  5
1414
102
{ACAD_REACTORS
330
1546
102
}
330
1A
100
AcDbEntity
  8
KEIJYO
 62
   251
100
AcDbLine
 10
728.1482067579521
 20
201.173859021358
 30
0.0
 11
731.2840987579521
 21
201.173859021358
 31
0.0
  0
ARC
  5
1415
102
{ACAD_REACTORS
330
1546
102
}
330
1A
100
AcDbEntity
  8
KEIJYO
 62
   251
100
AcDbCircle
 10
731.9704146579522
 20
196.1738587213579
 30
0.0
 40
4.999999968791364
100
AcDbArc
 50
2.816868130596912
 51
90.0
  0
LINE
  5
1416
102
{ACAD_REACTORS
330
1546
102
}
330
1A
100
AcDbEntity
  8
KEIJYO
 62
   251
100
AcDbLine
 10
728.1482067579521
 20
206.1738590213579
 30
0.0
 11
736.4844307579521
 21
206.1738590213579
 31
0.0
  0
LINE
  5
1417
102
{ACAD_REACTORS
330
1546
102
}
330
1A
100
AcDbEntity
  8
KEIJYO
 62
   251
100
AcDbLine
 10
736.1371079503458
 20
208.0648716115065
 30
0.0
 11
731.388018331946
 21
210.9266425365065
 31
0.0
  0
LINE
  5
1418
102
{ACAD_REACTORS
330
1546
102
}
330
1A
100
AcDbEntity
  8
KEIJYO
 62
   251
100
AcDbLine
 10
739.4365135364462
 20
211.3642771976065
 30
0.0
 11
736.1371079503458
 21
208.0648716115065
 31
0.0
  0
LINE
  5
1419
102
{ACAD_REACTORS
330
1546
102
}
330
1A
100
AcDbEntity
  8
KEIJYO
 62
   251
100
AcDbLine
 10
745.9295981649459
 20
176.7891504091504
 30
0.0
 11
741.6110511596404
 21
176.7891504091504
 31
0.0
  0
LINE
  5
141A
102
{ACAD_REACTORS
330
1546
102
}
330
1A
100
AcDbEntity
  8
KEIJYO
 62
   251
100
AcDbLine
 10
737.6011915579522
 20
224.173859021358
 30
0.0
 11
745.5987720579521
 21
224.173859021358
 31
0.0
  0
LINE
  5
141B
102
{ACAD_REACTORS
330
1546
102
}
330
1A
100
AcDbEntity
  8
KEIJYO
 62
   251
100
AcDbLine
 10
735.6926771579521
 20
222.265344621358
 30
0.0
 11
737.6011915579522
 21
224.173859021358
 31
0.0
  0
LINE
  5
1806
330
1A
100
AcDbEntity
  8
ZUWAKU
100
AcDbLine
 10
922.0717345159419
 20
35.8666677847838
 30
0.0
 11
1320.771734515941
 21
35.8666677847838
 31
0.0
  0
LINE
  5
1807
330
1A
100
AcDbEntity
  8
ZUWAKU
100
AcDbLine
 10
922.0717345159419
 20
35.76666778478379
 30
0.0
 11
1320.771734515941
 21
35.76666778478379
 31
0.0
  0
LINE
  5
1808
330
1A
100
AcDbEntity
  8
ZUWAKU
100
AcDbLine
 10
922.0717345159419
 20
35.6666677847838
 30
0.0
 11
1320.771734515941
 21
35.6666677847838
 31
0.0
  0
LINE
  5
1809
330
1A
100
AcDbEntity
  8
ZUWAKU
100
AcDbLine
 10
922.0717345159419
 20
35.56666778478379
 30
0.0
 11
1320.771734515941
 21
35.56666778478379
 31
0.0
  0
LINE
  5
180A
330
1A
100
AcDbEntity
  8
ZUWAKU
100
AcDbLine
 10
922.0717345159419
 20
35.46666778478379
 30
0.0
 11
1320.771734515941
 21
35.46666778478379
 31
0.0
  0
LWPOLYLINE
  5
180B
330
1A
100
AcDbEntity
  8
ZUWAKU
100
AcDbPolyline
 90
        4
 70
     1
 43
0.0
 10
922.1717345159417
 20
296.1666677847838
 10
922.1717345159417
 20
20.56666778478381
 10
1320.771734515941
 20
20.56666778478382
 10
1320.771734515941
 20
296.1666677847838
  0
LWPOLYLINE
  5
180C
330
1A
100
AcDbEntity
  8
ZUWAKU
100
AcDbPolyline
 90
        4
 70
     1
 43
0.0
 10
922.3717345159418
 20
295.9666677847838
 10
922.3717345159418
 20
20.7666677847838
 10
1320.571734515942
 20
20.76666778478382
 10
1320.571734515942
 20
295.9666677847838
  0
LWPOLYLINE
  5
180D
330
1A
100
AcDbEntity
  8
ZUWAKU
100
AcDbPolyline
 90
        4
 70
     1
 43
0.0
 10
922.0717345159419
 20
296.2666677847838
 10
922.0717345159419
 20
20.46666778478379
 10
1320.871734515942
 20
20.46666778478383
 10
1320.871734515942
 20
296.2666677847838
  0
LWPOLYLINE
  5
180E
330
1A
100
AcDbEntity
  8
ZUWAKU
100
AcDbPolyline
 90
        4
 70
     1
 43
0.0
 10
922.271734515942
 20
296.0666677847838
 10
922.271734515942
 20
20.66666778478384
 10
1320.671734515941
 20
20.66666778478383
 10
1320.671734515941
 20
296.0666677847838
  0
LWPOLYLINE
  5
180F
330
1A
100
AcDbEntity
  8
ZUWAKU
100
AcDbPolyline
 90
        4
 70
     1
 43
0.0
 10
922.4717345159419
 20
295.8666677847838
 10
922.4717345159419
 20
20.86666778478382
 10
1320.471734515942
 20
20.86666778478382
 10
1320.471734515942
 20
295.8666677847838
  0
TEXT
  5
181D
330
1A
100
AcDbEntity
  8
ZUWAKU
100
AcDbText
 10
1026.93375767208
 20
25.2943460539766
 30
0.0
 40
2.0
  1
サイズ
 41
0.9
  7
ｽﾀｲﾙ1
100
AcDbText
  0
LINE
  5
181E
330
1A
100
AcDbEntity
  8
ZUWAKU
100
AcDbLine
 10
1026.395035160976
 20
28.16666778478381
 30
0.0
 11
1145.783916501437
 21
28.16666778478381
 31
0.0
  0
LINE
  5
181F
330
1A
100
AcDbEntity
  8
ZUWAKU
100
AcDbLine
 10
1026.395035160976
 20
28.26666778478381
 30
0.0
 11
1145.783916501437
 21
28.26666778478381
 31
0.0
  0
LINE
  5
1820
330
1A
100
AcDbEntity
  8
ZUWAKU
100
AcDbLine
 10
1026.395035160976
 20
28.06666778478381
 30
0.0
 11
1145.783916501437
 21
28.06666778478381
 31
0.0
  0
LINE
  5
1821
330
1A
100
AcDbEntity
  8
ZUWAKU
100
AcDbLine
 10
940.1602235115881
 20
32.09166778478379
 30
0.0
 11
941.0096682013927
 21
32.09166778478379
 31
0.0
  0
LINE
  5
1822
330
1A
100
AcDbEntity
  8
ZUWAKU
100
AcDbLine
 10
940.1602235115881
 20
24.0416677847838
 30
0.0
 11
941.0096682013927
 21
24.0416677847838
 31
0.0
  0
LINE
  5
1823
330
1A
100
AcDbEntity
  8
ZUWAKU
100
AcDbLine
 10
941.2599836509903
 20
24.38321476886728
 30
0.0
 11
940.0967879617535
 21
28.0666677847838
 31
0.0
  0
LINE
  5
1824
330
1A
100
AcDbEntity
  8
ZUWAKU
100
AcDbLine
 10
940.7291638344215
 20
30.0691913815655
 30
0.0
 11
940.0967879617535
 21
28.0666677847838
 31
0.0
  0
HATCH
  5
1825
330
1A
100
AcDbEntity
  8
ZUWAKU
100
AcDbHatch
 10
0.0
 20
0.0
 30
0.0
210
0.0
220
0.0
230
1.0
  2
ANSI37
 70
     0
 71
     0
 91
        8
 92
        7
 72
     1
 73
     1
 93
       24
 10
929.3228658465018
 20
29.28909202527558
 42
-0.1989123673796348
 10
929.1178405933324
 20
29.78406677210611
 42
0.0
 10
929.1178405933324
 20
30.4291677847838
 42
-0.4142135623730912
 10
929.3803405933324
 20
30.69166778478379
 42
0.0
 10
930.8678405933324
 20
30.69166778478379
 42
0.4142135623731546
 10
931.1303405933324
 20
30.95416778478379
 42
0.0
 10
931.1303405933324
 20
31.8291677847838
 42
0.4142135623731586
 10
930.8678405933324
 20
32.09166778478379
 42
0.0
 10
929.1178405933324
 20
32.09166778478379
 42
0.4142135623730928
 10
927.7178405933325
 20
30.69166778478381
 42
0.0
 10
927.7178405933325
 20
29.78406677210617
 42
0.1989123673796619
 10
928.3329163528406
 20
28.29914253161437
 42
0.0
 10
929.7878153401629
 20
26.84424354429204
 42
-0.1989123673796613
 10
929.9928405933323
 20
26.34926879746144
 42
0.0
 10
929.9928405933323
 20
25.70416778478379
 42
-0.4142135623730911
 10
929.7303405933325
 20
25.44166778478379
 42
0.0
 10
928.2428405933325
 20
25.44166778478379
 42
0.4142135623731526
 10
927.9803405933325
 20
25.1791677847838
 42
0.0
 10
927.9803405933325
 20
24.30416778478379
 42
0.4142135623731526
 10
928.2428405933325
 20
24.0416677847838
 42
0.0
 10
929.9928405933323
 20
24.0416677847838
 42
0.4142135623731044
 10
931.3928405933324
 20
25.44166778478378
 42
0.0
 10
931.3928405933324
 20
26.34926879746142
 42
0.1989123673796604
 10
930.7777648338243
 20
27.83419303795319
 42
0.0
 97
        0
 92
        7
 72
     1
 73
     1
 93
       16
 10
933.8428405933326
 20
29.9916677847838
 42
-0.4142135623730935
 10
934.5428405933324
 20
30.69166778478379
 42
0.0
 10
935.5053405933324
 20
30.69166778478379
 42
0.4142135623731546
 10
935.7678405933326
 20
30.95416778478379
 42
0.0
 10
935.7678405933326
 20
31.8291677847838
 42
0.4142135623730951
 10
935.5053405933324
 20
32.09166778478379
 42
0.0
 10
934.5428405933324
 20
32.09166778478378
 42
0.4142135623730892
 10
932.4428405933325
 20
29.99166778478376
 42
0.0
 10
932.4428405933325
 20
26.14166778478381
 42
0.4142135623730969
 10
934.5428405933324
 20
24.0416677847838
 42
0.0
 10
935.5053405933324
 20
24.0416677847838
 42
0.4142135623731526
 10
935.7678405933326
 20
24.30416778478379
 42
0.0
 10
935.7678405933326
 20
25.1791677847838
 42
0.4142135623730891
 10
935.5053405933324
 20
25.44166778478379
 42
0.0
 10
934.5428405933324
 20
25.44166778478379
 42
-0.4142135623730928
 10
933.8428405933326
 20
26.14166778478379
 42
0.0
 97
        0
 92
        7
 72
     1
 73
     1
 93
        2
 10
934.1928405933325
 20
28.06666778478379
 42
1.0
 10
935.9428405933325
 20
28.06666778478379
 42
1.0
 97
        0
 92
        7
 72
     1
 73
     1
 93
       26
 10
940.7291638344215
 20
30.0691913815655
 42
0.0
 10
941.2599836509903
 20
31.7501208007003
 42
0.5069206636600134
 10
941.0096682013927
 20
32.09166778478379
 42
0.0
 10
940.1602235115881
 20
32.09166778478379
 42
0.3272098845218764
 10
939.9099080619903
 20
31.90821476886728
 42
0.0
 10
938.9757731246746
 20
28.95012080070033
 42
-0.3272098845219541
 10
938.7254576750768
 20
28.76666778478379
 42
0.0
 10
938.6553405933325
 20
28.76666778478379
 42
-0.4142135623731526
 10
938.3928405933325
 20
29.02916778478378
 42
0.0
 10
938.3928405933325
 20
31.8291677847838
 42
0.4142135623730951
 10
938.1303405933325
 20
32.09166778478379
 42
0.0
 10
937.2553405933324
 20
32.09166778478379
 42
0.4142135623730871
 10
936.9928405933324
 20
31.8291677847838
 42
0.0
 10
936.9928405933324
 20
24.30416778478379
 42
0.4142135623730891
 10
937.2553405933324
 20
24.0416677847838
 42
0.0
 10
938.1303405933325
 20
24.0416677847838
 42
0.4142135623731526
 10
938.3928405933325
 20
24.30416778478379
 42
0.0
 10
938.3928405933325
 20
27.1041677847838
 42
-0.4142135623731526
 10
938.6553405933325
 20
27.3666677847838
 42
0.0
 10
938.7254576750768
 20
27.3666677847838
 42
-0.3272098845218915
 10
938.9757731246746
 20
27.18321476886726
 42
0.0
 10
939.9099080619903
 20
24.22512080070033
 42
0.3272098845218902
 10
940.1602235115881
 20
24.0416677847838
 42
0.0
 10
941.0096682013927
 20
24.0416677847838
 42
0.5069206636600335
 10
941.2599836509903
 20
24.3832147688673
 42
0.0
 10
940.0967879617535
 20
28.06666778478387
 42
0.0
 97
        0
 92
        7
 72
     1
 73
     1
 93
        8
 10
943.8178405933324
 20
31.8291677847838
 42
0.4142135623731546
 10
943.5553405933324
 20
32.09166778478379
 42
0.0
 10
942.6803405933325
 20
32.09166778478379
 42
0.4142135623731507
 10
942.4178405933325
 20
31.8291677847838
 42
0.0
 10
942.4178405933325
 20
24.30416778478379
 42
0.4142135623731526
 10
942.6803405933325
 20
24.0416677847838
 42
0.0
 10
943.5553405933324
 20
24.0416677847838
 42
0.4142135623731526
 10
943.8178405933324
 20
24.30416778478379
 42
0.0
 97
        0
 92
        7
 72
     1
 73
     1
 93
       24
 10
946.2678405933324
 20
30.4291677847838
 42
-0.4142135623731546
 10
946.5303405933324
 20
30.69166778478379
 42
0.0
 10
948.0178405933324
 20
30.69166778478379
 42
0.4142135623730911
 10
948.2803405933324
 20
30.95416778478379
 42
0.0
 10
948.2803405933324
 20
31.8291677847838
 42
0.4142135623730952
 10
948.0178405933324
 20
32.09166778478379
 42
0.0
 10
946.2678405933324
 20
32.09166778478379
 42
0.4142135623731048
 10
944.8678405933323
 20
30.69166778478381
 42
0.0
 10
944.8678405933323
 20
29.78406677210617
 42
0.1989123673796613
 10
945.4829163528406
 20
28.2991425316144
 42
0.0
 10
946.9378153401631
 20
26.84424354429206
 42
-0.1989123673796402
 10
947.1428405933325
 20
26.34926879746153
 42
0.0
 10
947.1428405933325
 20
25.70416778478379
 42
-0.4142135623730911
 10
946.8803405933325
 20
25.44166778478379
 42
0.0
 10
945.3928405933325
 20
25.44166778478379
 42
0.4142135623731526
 10
945.1303405933325
 20
25.1791677847838
 42
0.0
 10
945.1303405933325
 20
24.30416778478379
 42
0.4142135623730891
 10
945.3928405933325
 20
24.0416677847838
 42
0.0
 10
947.1428405933325
 20
24.0416677847838
 42
0.4142135623730925
 10
948.5428405933324
 20
25.44166778478378
 42
0.0
 10
948.5428405933324
 20
26.34926879746142
 42
0.1989123673796675
 10
947.9277648338241
 20
27.83419303795325
 42
0.0
 10
946.4728658465018
 20
29.28909202527551
 42
-0.1989123673796652
 10
946.2678405933324
 20
29.78406677210609
 42
0.0
 97
        0
 92
        7
 72
     1
 73
     1
 93
       16
 10
950.9928405933324
 20
31.82916778478379
 42
0.414213562373103
 10
950.7303405933324
 20
32.09166778478379
 42
0.0
 10
949.8553405933325
 20
32.09166778478379
 42
0.4142135623730871
 10
949.5928405933325
 20
31.8291677847838
 42
0.0
 10
949.5928405933325
 20
25.44166778478378
 42
0.4142135623730926
 10
950.9928405933324
 20
24.0416677847838
 42
0.0
 10
952.7428405933324
 20
24.0416677847838
 42
0.4142135623731044
 10
954.1428405933325
 20
25.44166778478378
 42
0.0
 10
954.1428405933325
 20
31.8291677847838
 42
0.4142135623730951
 10
953.8803405933323
 20
32.09166778478379
 42
0.0
 10
953.0053405933324
 20
32.09166778478379
 42
0.4142135623730871
 10
952.7428405933324
 20
31.8291677847838
 42
0.0
 10
952.7428405933324
 20
25.96666778478378
 42
-0.414213562373088
 10
952.2178405933326
 20
25.44166778478379
 42
0.0
 10
951.5178405933324
 20
25.44166778478379
 42
-0.4142135623731197
 10
950.9928405933324
 20
25.96666778478378
 42
0.0
 97
        0
 92
        7
 72
     1
 73
     1
 93
        8
 10
956.5928405933325
 20
31.8291677847838
 42
0.4142135623730871
 10
956.3303405933325
 20
32.09166778478379
 42
0.0
 10
955.4553405933324
 20
32.09166778478379
 42
0.4142135623731507
 10
955.1928405933324
 20
31.8291677847838
 42
0.0
 10
955.1928405933324
 20
24.30416778478379
 42
0.4142135623730891
 10
955.4553405933324
 20
24.0416677847838
 42
0.0
 10
956.3303405933325
 20
24.0416677847838
 42
0.4142135623730891
 10
956.5928405933325
 20
24.30416778478379
 42
0.0
 97
        0
 75
     0
 76
     1
 52
0.0
 41
0.1
 77
     0
 78
     2
 53
45.0
 43
471.6005823486024
 44
13.86666778478383
 45
-0.2245064030267288
 46
0.2245064030267288
 79
     0
 53
135.0
 43
471.6005823486024
 44
13.86666778478383
 45
-0.2245064030267288
 46
-0.2245064030267288
 79
     0
 47
0.057451373970553
 98
        8
 10
930.1116619974536
 20
28.05025460772657
 10
933.2739920191615
 20
29.8886988760093
 10
934.6539184587717
 20
28.22260860781915
 10
937.5287645067604
 20
28.56731660800454
 10
942.9909705254202
 20
28.79712274177535
 10
945.5208349635066
 20
30.1759559429874
 10
950.3505775021421
 20
29.8312467423313
 10
955.9852743257533
 20
30.06105287610211
  0
ARC
  5
1826
330
1A
100
AcDbEntity
  8
ZUWAKU
100
AcDbCircle
 10
934.5428405933324
 20
29.99166778478379
 30
0.0
 40
0.7
100
AcDbArc
 50
90.0
 51
180.0
  0
ARC
  5
1827
330
1A
100
AcDbEntity
  8
ZUWAKU
100
AcDbCircle
 10
929.3803405933324
 20
30.42916778478379
 30
0.0
 40
0.2625
100
AcDbArc
 50
90.0
 51
180.0
  0
LINE
  5
1828
330
1A
100
AcDbEntity
  8
ZUWAKU
100
AcDbLine
 10
927.7178405933325
 20
30.69166778478379
 30
0.0
 11
927.7178405933325
 21
29.78406677210612
 31
0.0
  0
ARC
  5
1829
330
1A
100
AcDbEntity
  8
ZUWAKU
100
AcDbCircle
 10
934.5428405933324
 20
29.99166778478377
 30
0.0
 40
2.099999999999999
100
AcDbArc
 50
90.0
 51
180.0
  0
LINE
  5
182A
330
1A
100
AcDbEntity
  8
ZUWAKU
100
AcDbLine
 10
936.9928405933324
 20
31.82916778478379
 30
0.0
 11
936.9928405933324
 21
24.30416778478379
 31
0.0
  0
LINE
  5
182B
330
1A
100
AcDbEntity
  8
ZUWAKU
100
AcDbLine
 10
938.3928405933325
 20
29.02916778478379
 30
0.0
 11
938.3928405933325
 21
31.82916778478379
 31
0.0
  0
LINE
  5
182C
330
1A
100
AcDbEntity
  8
ZUWAKU
100
AcDbLine
 10
939.9099080619903
 20
31.90821476886728
 30
0.0
 11
938.9757731246746
 21
28.95012080070031
 31
0.0
  0
LINE
  5
182D
330
1A
100
AcDbEntity
  8
ZUWAKU
100
AcDbLine
 10
928.2428405933323
 20
24.0416677847838
 30
0.0
 11
929.9928405933323
 21
24.0416677847838
 31
0.0
  0
LINE
  5
182E
330
1A
100
AcDbEntity
  8
ZUWAKU
100
AcDbLine
 10
928.3329163528406
 20
28.29914253161438
 30
0.0
 11
929.7878153401629
 21
26.84424354429205
 31
0.0
  0
LINE
  5
182F
330
1A
100
AcDbEntity
  8
ZUWAKU
100
AcDbLine
 10
928.2428405933323
 20
25.44166778478379
 30
0.0
 11
929.7303405933325
 21
25.44166778478379
 31
0.0
  0
ARC
  5
1830
330
1A
100
AcDbEntity
  8
ZUWAKU
100
AcDbCircle
 10
928.2428405933323
 20
24.30416778478379
 30
0.0
 40
0.2625
100
AcDbArc
 50
180.0
 51
270.0
  0
LINE
  5
1831
330
1A
100
AcDbEntity
  8
ZUWAKU
100
AcDbLine
 10
927.9803405933325
 20
24.30416778478379
 30
0.0
 11
927.9803405933325
 21
25.1791677847838
 31
0.0
  0
ARC
  5
1832
330
1A
100
AcDbEntity
  8
ZUWAKU
100
AcDbCircle
 10
928.2428405933323
 20
25.1791677847838
 30
0.0
 40
0.2625
100
AcDbArc
 50
90.0
 51
180.0
  0
ARC
  5
1833
330
1A
100
AcDbEntity
  8
ZUWAKU
100
AcDbCircle
 10
929.8178405933324
 20
29.78406677210614
 30
0.0
 40
2.099999999999999
100
AcDbArc
 50
180.0
 51
224.9999999999997
  0
ARC
  5
1834
330
1A
100
AcDbEntity
  8
ZUWAKU
100
AcDbCircle
 10
935.5053405933324
 20
24.30416778478379
 30
0.0
 40
0.2625
100
AcDbArc
 50
270.0
 51
0.0
  0
ARC
  5
1835
330
1A
100
AcDbEntity
  8
ZUWAKU
100
AcDbCircle
 10
937.2553405933324
 20
24.30416778478379
 30
0.0
 40
0.2625
100
AcDbArc
 50
180.0
 51
270.0
  0
ARC
  5
1836
330
1A
100
AcDbEntity
  8
ZUWAKU
100
AcDbCircle
 10
938.1303405933325
 20
24.30416778478379
 30
0.0
 40
0.2625
100
AcDbArc
 50
270.0
 51
0.0
  0
ARC
  5
1837
330
1A
100
AcDbEntity
  8
ZUWAKU
100
AcDbCircle
 10
940.1602235115881
 20
24.30416778478379
 30
0.0
 40
0.2625
100
AcDbArc
 50
197.5255683737228
 51
270.0
  0
ARC
  5
1838
330
1A
100
AcDbEntity
  8
ZUWAKU
100
AcDbCircle
 10
929.9928405933323
 20
25.44166778478379
 30
0.0
 40
1.399999999999999
100
AcDbArc
 50
270.0
 51
0.0
  0
ARC
  5
1839
330
1A
100
AcDbEntity
  8
ZUWAKU
100
AcDbCircle
 10
934.5428405933324
 20
26.14166778478379
 30
0.0
 40
2.099999999999999
100
AcDbArc
 50
180.0
 51
270.0
  0
LINE
  5
183A
330
1A
100
AcDbEntity
  8
ZUWAKU
100
AcDbLine
 10
935.5053405933324
 20
24.0416677847838
 30
0.0
 11
934.5428405933324
 21
24.0416677847838
 31
0.0
  0
LINE
  5
183B
330
1A
100
AcDbEntity
  8
ZUWAKU
100
AcDbLine
 10
937.2553405933324
 20
24.0416677847838
 30
0.0
 11
938.1303405933325
 21
24.0416677847838
 31
0.0
  0
LINE
  5
183C
330
1A
100
AcDbEntity
  8
ZUWAKU
100
AcDbLine
 10
934.5428405933324
 20
25.44166778478379
 30
0.0
 11
935.5053405933324
 21
25.44166778478379
 31
0.0
  0
CIRCLE
  5
183D
330
1A
100
AcDbEntity
  8
ZUWAKU
100
AcDbCircle
 10
935.0678405933324
 20
28.06666778478379
 30
0.0
 40
0.875
  0
LINE
  5
183E
330
1A
100
AcDbEntity
  8
ZUWAKU
100
AcDbLine
 10
929.1178405933324
 20
30.42916778478379
 30
0.0
 11
929.1178405933324
 21
29.78406677210612
 31
0.0
  0
ARC
  5
183F
330
1A
100
AcDbEntity
  8
ZUWAKU
100
AcDbCircle
 10
934.5428405933324
 20
26.14166778478379
 30
0.0
 40
0.7
100
AcDbArc
 50
180.0
 51
270.0
  0
LINE
  5
1840
330
1A
100
AcDbEntity
  8
ZUWAKU
100
AcDbLine
 10
930.7777648338243
 20
27.83419303795321
 30
0.0
 11
929.3228658465018
 21
29.28909202527554
 31
0.0
  0
ARC
  5
1841
330
1A
100
AcDbEntity
  8
ZUWAKU
100
AcDbCircle
 10
929.7303405933325
 20
25.7041677847838
 30
0.0
 40
0.2625
100
AcDbArc
 50
270.0
 51
0.0
  0
LINE
  5
1842
330
1A
100
AcDbEntity
  8
ZUWAKU
100
AcDbLine
 10
931.3928405933324
 20
25.44166778478379
 30
0.0
 11
931.3928405933324
 21
26.34926879746147
 31
0.0
  0
LINE
  5
1843
330
1A
100
AcDbEntity
  8
ZUWAKU
100
AcDbLine
 10
929.9928405933323
 20
25.7041677847838
 30
0.0
 11
929.9928405933323
 21
26.34926879746147
 31
0.0
  0
ARC
  5
1844
330
1A
100
AcDbEntity
  8
ZUWAKU
100
AcDbCircle
 10
929.2928405933324
 20
26.34926879746147
 30
0.0
 40
0.7
100
AcDbArc
 50
0.0
 51
44.99999999999971
  0
ARC
  5
1845
330
1A
100
AcDbEntity
  8
ZUWAKU
100
AcDbCircle
 10
929.2928405933324
 20
26.34926879746144
 30
0.0
 40
2.099999999999999
100
AcDbArc
 50
0.0
 51
44.99999999999971
  0
ARC
  5
1846
330
1A
100
AcDbEntity
  8
ZUWAKU
100
AcDbCircle
 10
929.8178405933324
 20
29.78406677210614
 30
0.0
 40
0.7
100
AcDbArc
 50
180.0000000000016
 51
224.9999999999991
  0
LINE
  5
1847
330
1A
100
AcDbEntity
  8
ZUWAKU
100
AcDbLine
 10
933.8428405933326
 20
29.99166778478379
 30
0.0
 11
933.8428405933326
 21
26.14166778478379
 31
0.0
  0
LINE
  5
1848
330
1A
100
AcDbEntity
  8
ZUWAKU
100
AcDbLine
 10
932.4428405933325
 20
26.14166778478379
 30
0.0
 11
932.4428405933325
 21
29.99166778478377
 31
0.0
  0
ARC
  5
1849
330
1A
100
AcDbEntity
  8
ZUWAKU
100
AcDbCircle
 10
938.7254576750768
 20
29.02916778478379
 30
0.0
 40
0.2625
100
AcDbArc
 50
270.0
 51
342.4744316262771
  0
ARC
  5
184A
330
1A
100
AcDbEntity
  8
ZUWAKU
100
AcDbCircle
 10
938.6553405933325
 20
29.02916778478379
 30
0.0
 40
0.2625
100
AcDbArc
 50
180.0
 51
270.0
  0
LINE
  5
184B
330
1A
100
AcDbEntity
  8
ZUWAKU
100
AcDbLine
 10
935.7678405933326
 20
25.1791677847838
 30
0.0
 11
935.7678405933326
 21
24.30416778478379
 31
0.0
  0
ARC
  5
184C
330
1A
100
AcDbEntity
  8
ZUWAKU
100
AcDbCircle
 10
935.5053405933324
 20
25.1791677847838
 30
0.0
 40
0.2625
100
AcDbArc
 50
0.0
 51
90.0
  0
LINE
  5
184D
330
1A
100
AcDbEntity
  8
ZUWAKU
100
AcDbLine
 10
938.7254576750768
 20
28.76666778478379
 30
0.0
 11
938.6553405933325
 21
28.76666778478379
 31
0.0
  0
LINE
  5
184E
330
1A
100
AcDbEntity
  8
ZUWAKU
100
AcDbLine
 10
938.6553405933325
 20
27.3666677847838
 30
0.0
 11
938.7254576750768
 21
27.3666677847838
 31
0.0
  0
LINE
  5
184F
330
1A
100
AcDbEntity
  8
ZUWAKU
100
AcDbLine
 10
938.3928405933325
 20
24.30416778478379
 30
0.0
 11
938.3928405933325
 21
27.10416778478379
 31
0.0
  0
ARC
  5
1850
330
1A
100
AcDbEntity
  8
ZUWAKU
100
AcDbCircle
 10
938.7254576750768
 20
27.10416778478379
 30
0.0
 40
0.2625
100
AcDbArc
 50
17.52556837372284
 51
90.0
  0
ARC
  5
1851
330
1A
100
AcDbEntity
  8
ZUWAKU
100
AcDbCircle
 10
938.6553405933325
 20
27.10416778478379
 30
0.0
 40
0.2625
100
AcDbArc
 50
90.0
 51
180.0
  0
LINE
  5
1852
330
1A
100
AcDbEntity
  8
ZUWAKU
100
AcDbLine
 10
939.9099080619903
 20
24.22512080070031
 30
0.0
 11
938.9757731246746
 21
27.18321476886728
 31
0.0
  0
ARC
  5
1853
330
1A
100
AcDbEntity
  8
ZUWAKU
100
AcDbCircle
 10
929.1178405933324
 20
30.69166778478379
 30
0.0
 40
1.399999999999999
100
AcDbArc
 50
90.0
 51
180.0
  0
LINE
  5
1854
330
1A
100
AcDbEntity
  8
ZUWAKU
100
AcDbLine
 10
934.5428405933324
 20
32.09166778478378
 30
0.0
 11
935.5053405933324
 21
32.09166778478379
 31
0.0
  0
LINE
  5
1855
330
1A
100
AcDbEntity
  8
ZUWAKU
100
AcDbLine
 10
935.5053405933324
 20
30.69166778478379
 30
0.0
 11
934.5428405933324
 21
30.69166778478379
 31
0.0
  0
LINE
  5
1856
330
1A
100
AcDbEntity
  8
ZUWAKU
100
AcDbLine
 10
929.1178405933324
 20
32.09166778478379
 30
0.0
 11
930.8678405933324
 21
32.09166778478379
 31
0.0
  0
LINE
  5
1857
330
1A
100
AcDbEntity
  8
ZUWAKU
100
AcDbLine
 10
930.8678405933324
 20
30.69166778478379
 30
0.0
 11
929.3803405933324
 21
30.69166778478379
 31
0.0
  0
ARC
  5
1858
330
1A
100
AcDbEntity
  8
ZUWAKU
100
AcDbCircle
 10
930.8678405933324
 20
31.82916778478379
 30
0.0
 40
0.2625
100
AcDbArc
 50
0.0
 51
90.0
  0
ARC
  5
1859
330
1A
100
AcDbEntity
  8
ZUWAKU
100
AcDbCircle
 10
930.8678405933324
 20
30.95416778478379
 30
0.0
 40
0.2625
100
AcDbArc
 50
270.0
 51
0.0
  0
LINE
  5
185A
330
1A
100
AcDbEntity
  8
ZUWAKU
100
AcDbLine
 10
931.1303405933324
 20
31.82916778478379
 30
0.0
 11
931.1303405933324
 21
30.95416778478379
 31
0.0
  0
LINE
  5
185B
330
1A
100
AcDbEntity
  8
ZUWAKU
100
AcDbLine
 10
938.1303405933325
 20
32.09166778478379
 30
0.0
 11
937.2553405933324
 21
32.09166778478379
 31
0.0
  0
ARC
  5
185C
330
1A
100
AcDbEntity
  8
ZUWAKU
100
AcDbCircle
 10
935.5053405933324
 20
31.82916778478379
 30
0.0
 40
0.2625
100
AcDbArc
 50
0.0
 51
90.0
  0
ARC
  5
185D
330
1A
100
AcDbEntity
  8
ZUWAKU
100
AcDbCircle
 10
937.2553405933324
 20
31.82916778478379
 30
0.0
 40
0.2625
100
AcDbArc
 50
90.0
 51
180.0
  0
ARC
  5
185E
330
1A
100
AcDbEntity
  8
ZUWAKU
100
AcDbCircle
 10
935.5053405933324
 20
30.95416778478379
 30
0.0
 40
0.2625
100
AcDbArc
 50
270.0
 51
0.0
  0
LINE
  5
185F
330
1A
100
AcDbEntity
  8
ZUWAKU
100
AcDbLine
 10
935.7678405933326
 20
31.82916778478379
 30
0.0
 11
935.7678405933326
 21
30.95416778478379
 31
0.0
  0
ARC
  5
1860
330
1A
100
AcDbEntity
  8
ZUWAKU
100
AcDbCircle
 10
938.1303405933325
 20
31.82916778478379
 30
0.0
 40
0.2625
100
AcDbArc
 50
0.0
 51
90.0
  0
ARC
  5
1861
330
1A
100
AcDbEntity
  8
ZUWAKU
100
AcDbCircle
 10
940.1602235115881
 20
31.82916778478379
 30
0.0
 40
0.2625
100
AcDbArc
 50
90.0
 51
162.4744316262771
  0
LINE
  5
1862
330
1A
100
AcDbEntity
  8
ZUWAKU
100
AcDbLine
 10
1026.195035160975
 20
35.46666778478379
 30
0.0
 11
1026.195035160975
 21
20.86666778478382
 31
0.0
  0
LINE
  5
1863
330
1A
100
AcDbEntity
  8
ZUWAKU
100
AcDbLine
 10
1026.395035160975
 20
35.46666778478379
 30
0.0
 11
1026.395035160976
 21
20.86666778478382
 31
0.0
  0
LINE
  5
1864
330
1A
100
AcDbEntity
  8
ZUWAKU
100
AcDbLine
 10
1026.295035160975
 20
35.46666778478379
 30
0.0
 11
1026.295035160975
 21
20.86666778478382
 31
0.0
  0
LINE
  5
1865
330
1A
100
AcDbEntity
  8
ZUWAKU
100
AcDbLine
 10
961.735049289936
 20
35.46666778478379
 30
0.0
 11
961.735049289936
 21
20.86666778478382
 31
0.0
  0
LINE
  5
1866
330
1A
100
AcDbEntity
  8
ZUWAKU
100
AcDbLine
 10
961.8350492899359
 20
35.46666778478379
 30
0.0
 11
961.8350492899361
 21
20.86666778478382
 31
0.0
  0
LINE
  5
1867
330
1A
100
AcDbEntity
  8
ZUWAKU
100
AcDbLine
 10
961.6350492899361
 20
35.46666778478379
 30
0.0
 11
961.6350492899361
 21
20.86666778478382
 31
0.0
  0
LINE
  5
1868
330
1A
100
AcDbEntity
  8
ZUWAKU
100
AcDbLine
 10
954.1428405933325
 20
25.44166778478379
 30
0.0
 11
954.1428405933325
 21
31.82916778478379
 31
0.0
  0
LINE
  5
1869
330
1A
100
AcDbEntity
  8
ZUWAKU
100
AcDbLine
 10
952.7428405933324
 20
31.82916778478379
 30
0.0
 11
952.7428405933324
 21
25.96666778478379
 31
0.0
  0
LINE
  5
186A
330
1A
100
AcDbEntity
  8
ZUWAKU
100
AcDbLine
 10
956.5928405933325
 20
24.30416778478379
 30
0.0
 11
956.5928405933325
 21
31.82916778478379
 31
0.0
  0
LINE
  5
186B
330
1A
100
AcDbEntity
  8
ZUWAKU
100
AcDbLine
 10
955.1928405933324
 20
31.82916778478379
 30
0.0
 11
955.1928405933324
 21
24.30416778478379
 31
0.0
  0
LINE
  5
186C
330
1A
100
AcDbEntity
  8
ZUWAKU
100
AcDbLine
 10
949.5928405933325
 20
31.82916778478379
 30
0.0
 11
949.5928405933325
 21
25.44166778478379
 31
0.0
  0
LINE
  5
186D
330
1A
100
AcDbEntity
  8
ZUWAKU
100
AcDbLine
 10
950.9928405933324
 20
25.96666778478379
 30
0.0
 11
950.9928405933324
 21
31.82916778478379
 31
0.0
  0
TEXT
  5
186E
330
1A
100
AcDbEntity
  8
MOJI
100
AcDbText
 10
968.5506293100264
 20
26.83725684992117
 30
0.0
 40
3.0
  1
アートフェイスＶＭ１２０
 41
0.9
  7
ｽﾀｲﾙ1
100
AcDbText
  0
ARC
  5
186F
330
1A
100
AcDbEntity
  8
ZUWAKU
100
AcDbCircle
 10
946.5303405933324
 20
30.42916778478379
 30
0.0
 40
0.2625
100
AcDbArc
 50
90.0
 51
180.0
  0
LINE
  5
1870
330
1A
100
AcDbEntity
  8
ZUWAKU
100
AcDbLine
 10
944.8678405933323
 20
30.69166778478379
 30
0.0
 11
944.8678405933323
 21
29.78406677210612
 31
0.0
  0
LINE
  5
1871
330
1A
100
AcDbEntity
  8
ZUWAKU
100
AcDbLine
 10
941.2599836509903
 20
31.75012080070031
 30
0.0
 11
940.7291638344215
 21
30.0691913815655
 31
0.0
  0
LINE
  5
1872
330
1A
100
AcDbEntity
  8
ZUWAKU
100
AcDbLine
 10
942.4178405933325
 20
31.82916778478379
 30
0.0
 11
942.4178405933325
 21
24.30416778478379
 31
0.0
  0
LINE
  5
1873
330
1A
100
AcDbEntity
  8
ZUWAKU
100
AcDbLine
 10
943.8178405933324
 20
24.30416778478379
 30
0.0
 11
943.8178405933324
 21
31.82916778478379
 31
0.0
  0
LINE
  5
1874
330
1A
100
AcDbEntity
  8
ZUWAKU
100
AcDbLine
 10
952.2178405933326
 20
25.44166778478379
 30
0.0
 11
951.5178405933324
 21
25.44166778478379
 31
0.0
  0
LINE
  5
1875
330
1A
100
AcDbEntity
  8
ZUWAKU
100
AcDbLine
 10
950.9928405933324
 20
24.0416677847838
 30
0.0
 11
952.7428405933324
 21
24.0416677847838
 31
0.0
  0
ARC
  5
1876
330
1A
100
AcDbEntity
  8
ZUWAKU
100
AcDbCircle
 10
950.9928405933324
 20
25.44166778478379
 30
0.0
 40
1.399999999999999
100
AcDbArc
 50
180.0
 51
270.0
  0
ARC
  5
1877
330
1A
100
AcDbEntity
  8
ZUWAKU
100
AcDbCircle
 10
945.3928405933325
 20
24.30416778478379
 30
0.0
 40
0.2625
100
AcDbArc
 50
180.0
 51
270.0
  0
ARC
  5
1878
330
1A
100
AcDbEntity
  8
ZUWAKU
100
AcDbCircle
 10
943.5553405933324
 20
24.30416778478379
 30
0.0
 40
0.2625
100
AcDbArc
 50
270.0
 51
0.0
  0
ARC
  5
1879
330
1A
100
AcDbEntity
  8
ZUWAKU
100
AcDbCircle
 10
942.6803405933323
 20
24.30416778478379
 30
0.0
 40
0.2625
100
AcDbArc
 50
180.0
 51
270.0
  0
ARC
  5
187A
330
1A
100
AcDbEntity
  8
ZUWAKU
100
AcDbCircle
 10
941.0096682013927
 20
24.30416778478379
 30
0.0
 40
0.2625
100
AcDbArc
 50
270.0
 51
17.52556837372284
  0
ARC
  5
187B
330
1A
100
AcDbEntity
  8
ZUWAKU
100
AcDbCircle
 10
947.1428405933325
 20
25.44166778478379
 30
0.0
 40
1.399999999999999
100
AcDbArc
 50
270.0
 51
0.0
  0
LINE
  5
187C
330
1A
100
AcDbEntity
  8
ZUWAKU
100
AcDbLine
 10
945.3928405933325
 20
24.0416677847838
 30
0.0
 11
947.1428405933325
 21
24.0416677847838
 31
0.0
  0
LINE
  5
187D
330
1A
100
AcDbEntity
  8
ZUWAKU
100
AcDbLine
 10
942.6803405933323
 20
24.0416677847838
 30
0.0
 11
943.5553405933324
 21
24.0416677847838
 31
0.0
  0
LINE
  5
187E
330
1A
100
AcDbEntity
  8
ZUWAKU
100
AcDbLine
 10
945.3928405933325
 20
25.44166778478379
 30
0.0
 11
946.8803405933325
 21
25.44166778478379
 31
0.0
  0
LINE
  5
187F
330
1A
100
AcDbEntity
  8
ZUWAKU
100
AcDbLine
 10
945.4829163528406
 20
28.29914253161438
 30
0.0
 11
946.9378153401631
 21
26.84424354429205
 31
0.0
  0
ARC
  5
1880
330
1A
100
AcDbEntity
  8
ZUWAKU
100
AcDbCircle
 10
946.9678405933326
 20
29.78406677210614
 30
0.0
 40
0.7
100
AcDbArc
 50
180.0000000000016
 51
224.9999999999991
  0
LINE
  5
1881
330
1A
100
AcDbEntity
  8
ZUWAKU
100
AcDbLine
 10
946.2678405933324
 20
30.42916778478379
 30
0.0
 11
946.2678405933324
 21
29.78406677210612
 31
0.0
  0
LINE
  5
1882
330
1A
100
AcDbEntity
  8
ZUWAKU
100
AcDbLine
 10
945.1303405933325
 20
24.30416778478379
 30
0.0
 11
945.1303405933325
 21
25.1791677847838
 31
0.0
  0
ARC
  5
1883
330
1A
100
AcDbEntity
  8
ZUWAKU
100
AcDbCircle
 10
945.3928405933325
 20
25.1791677847838
 30
0.0
 40
0.2625
100
AcDbArc
 50
90.0
 51
180.0
  0
ARC
  5
1884
330
1A
100
AcDbEntity
  8
ZUWAKU
100
AcDbCircle
 10
946.9678405933326
 20
29.78406677210614
 30
0.0
 40
2.099999999999999
100
AcDbArc
 50
180.0
 51
224.9999999999997
  0
ARC
  5
1885
330
1A
100
AcDbEntity
  8
ZUWAKU
100
AcDbCircle
 10
951.5178405933324
 20
25.96666778478379
 30
0.0
 40
0.525
100
AcDbArc
 50
180.0
 51
270.0
  0
LINE
  5
1886
330
1A
100
AcDbEntity
  8
ZUWAKU
100
AcDbLine
 10
947.9277648338243
 20
27.83419303795321
 30
0.0
 11
946.4728658465018
 21
29.28909202527554
 31
0.0
  0
LINE
  5
1887
330
1A
100
AcDbEntity
  8
ZUWAKU
100
AcDbLine
 10
948.5428405933324
 20
25.44166778478379
 30
0.0
 11
948.5428405933324
 21
26.34926879746147
 31
0.0
  0
LINE
  5
1888
330
1A
100
AcDbEntity
  8
ZUWAKU
100
AcDbLine
 10
947.1428405933325
 20
25.7041677847838
 30
0.0
 11
947.1428405933325
 21
26.34926879746147
 31
0.0
  0
ARC
  5
1889
330
1A
100
AcDbEntity
  8
ZUWAKU
100
AcDbCircle
 10
946.4428405933324
 20
26.34926879746147
 30
0.0
 40
0.7
100
AcDbArc
 50
0.0
 51
44.99999999999971
  0
ARC
  5
188A
330
1A
100
AcDbEntity
  8
ZUWAKU
100
AcDbCircle
 10
946.8803405933325
 20
25.7041677847838
 30
0.0
 40
0.2625
100
AcDbArc
 50
270.0
 51
0.0
  0
ARC
  5
188B
330
1A
100
AcDbEntity
  8
ZUWAKU
100
AcDbCircle
 10
946.4428405933324
 20
26.34926879746144
 30
0.0
 40
2.099999999999999
100
AcDbArc
 50
0.0
 51
44.99999999999971
  0
ARC
  5
188C
330
1A
100
AcDbEntity
  8
ZUWAKU
100
AcDbCircle
 10
956.3303405933325
 20
24.30416778478379
 30
0.0
 40
0.2625
100
AcDbArc
 50
270.0
 51
0.0
  0
ARC
  5
188D
330
1A
100
AcDbEntity
  8
ZUWAKU
100
AcDbCircle
 10
955.4553405933324
 20
24.30416778478379
 30
0.0
 40
0.2625
100
AcDbArc
 50
180.0
 51
270.0
  0
ARC
  5
188E
330
1A
100
AcDbEntity
  8
ZUWAKU
100
AcDbCircle
 10
952.7428405933324
 20
25.44166778478379
 30
0.0
 40
1.399999999999999
100
AcDbArc
 50
270.0
 51
0.0
  0
LINE
  5
188F
330
1A
100
AcDbEntity
  8
ZUWAKU
100
AcDbLine
 10
955.4553405933324
 20
24.0416677847838
 30
0.0
 11
956.3303405933325
 21
24.0416677847838
 31
0.0
  0
ARC
  5
1890
330
1A
100
AcDbEntity
  8
ZUWAKU
100
AcDbCircle
 10
952.2178405933326
 20
25.96666778478379
 30
0.0
 40
0.525
100
AcDbArc
 50
270.0
 51
0.0
  0
LINE
  5
1891
330
1A
100
AcDbEntity
  8
ZUWAKU
100
AcDbLine
 10
946.2678405933324
 20
32.09166778478379
 30
0.0
 11
948.0178405933324
 21
32.09166778478379
 31
0.0
  0
ARC
  5
1892
330
1A
100
AcDbEntity
  8
ZUWAKU
100
AcDbCircle
 10
943.5553405933324
 20
31.82916778478379
 30
0.0
 40
0.2625
100
AcDbArc
 50
0.0
 51
90.0
  0
ARC
  5
1893
330
1A
100
AcDbEntity
  8
ZUWAKU
100
AcDbCircle
 10
942.6803405933323
 20
31.82916778478379
 30
0.0
 40
0.2625
100
AcDbArc
 50
90.0
 51
180.0
  0
ARC
  5
1894
330
1A
100
AcDbEntity
  8
ZUWAKU
100
AcDbCircle
 10
941.0096682013927
 20
31.82916778478379
 30
0.0
 40
0.2625
100
AcDbArc
 50
342.4744316262771
 51
90.0
  0
LINE
  5
1895
330
1A
100
AcDbEntity
  8
ZUWAKU
100
AcDbLine
 10
943.5553405933324
 20
32.09166778478379
 30
0.0
 11
942.6803405933323
 21
32.09166778478379
 31
0.0
  0
ARC
  5
1896
330
1A
100
AcDbEntity
  8
ZUWAKU
100
AcDbCircle
 10
946.2678405933324
 20
30.69166778478379
 30
0.0
 40
1.399999999999999
100
AcDbArc
 50
90.0
 51
180.0
  0
ARC
  5
1897
330
1A
100
AcDbEntity
  8
ZUWAKU
100
AcDbCircle
 10
950.7303405933324
 20
31.82916778478379
 30
0.0
 40
0.2625
100
AcDbArc
 50
0.0
 51
90.0
  0
ARC
  5
1898
330
1A
100
AcDbEntity
  8
ZUWAKU
100
AcDbCircle
 10
949.8553405933325
 20
31.82916778478379
 30
0.0
 40
0.2625
100
AcDbArc
 50
90.0
 51
180.0
  0
LINE
  5
1899
330
1A
100
AcDbEntity
  8
ZUWAKU
100
AcDbLine
 10
950.7303405933324
 20
32.09166778478379
 30
0.0
 11
949.8553405933325
 21
32.09166778478379
 31
0.0
  0
ARC
  5
189A
330
1A
100
AcDbEntity
  8
ZUWAKU
100
AcDbCircle
 10
948.0178405933324
 20
31.82916778478379
 30
0.0
 40
0.2625
100
AcDbArc
 50
0.0
 51
90.0
  0
ARC
  5
189B
330
1A
100
AcDbEntity
  8
ZUWAKU
100
AcDbCircle
 10
948.0178405933324
 20
30.95416778478379
 30
0.0
 40
0.2625
100
AcDbArc
 50
270.0
 51
0.0
  0
LINE
  5
189C
330
1A
100
AcDbEntity
  8
ZUWAKU
100
AcDbLine
 10
948.0178405933324
 20
30.69166778478379
 30
0.0
 11
946.5303405933324
 21
30.69166778478379
 31
0.0
  0
LINE
  5
189D
330
1A
100
AcDbEntity
  8
ZUWAKU
100
AcDbLine
 10
948.2803405933324
 20
31.82916778478379
 30
0.0
 11
948.2803405933324
 21
30.95416778478379
 31
0.0
  0
ARC
  5
189E
330
1A
100
AcDbEntity
  8
ZUWAKU
100
AcDbCircle
 10
953.8803405933323
 20
31.82916778478379
 30
0.0
 40
0.2625
100
AcDbArc
 50
0.0
 51
90.0
  0
LINE
  5
189F
330
1A
100
AcDbEntity
  8
ZUWAKU
100
AcDbLine
 10
953.8803405933323
 20
32.09166778478379
 30
0.0
 11
953.0053405933324
 21
32.09166778478379
 31
0.0
  0
ARC
  5
18A0
330
1A
100
AcDbEntity
  8
ZUWAKU
100
AcDbCircle
 10
953.0053405933324
 20
31.82916778478379
 30
0.0
 40
0.2625
100
AcDbArc
 50
90.0
 51
180.0
  0
ARC
  5
18A1
330
1A
100
AcDbEntity
  8
ZUWAKU
100
AcDbCircle
 10
956.3303405933325
 20
31.82916778478379
 30
0.0
 40
0.2625
100
AcDbArc
 50
0.0
 51
90.0
  0
ARC
  5
18A2
330
1A
100
AcDbEntity
  8
ZUWAKU
100
AcDbCircle
 10
955.4553405933324
 20
31.82916778478379
 30
0.0
 40
0.2625
100
AcDbArc
 50
90.0
 51
180.0
  0
LINE
  5
18A3
330
1A
100
AcDbEntity
  8
ZUWAKU
100
AcDbLine
 10
956.3303405933325
 20
32.09166778478379
 30
0.0
 11
955.4553405933324
 21
32.09166778478379
 31
0.0
  0
TEXT
  5
18A4
330
1A
100
AcDbEntity
  8
ZUWAKU
100
AcDbText
 10
1026.93375767208
 20
32.49434605397658
 30
0.0
 40
2.0
  1
品名
 41
0.9
  7
ｽﾀｲﾙ1
100
AcDbText
  0
TEXT
  5
18A8
330
1A
100
AcDbEntity
  8
MOJI
100
AcDbText
 10
1041.985335856367
 20
29.46912831348749
 30
0.0
 40
2.799999999999999
  1
のきとい
 41
0.9
  7
ｽﾀｲﾙ1
100
AcDbText
  0
TEXT
  5
18A9
330
1A
100
AcDbEntity
  8
MOJI
100
AcDbText
 10
1041.985335856367
 20
22.0691283134875
 30
0.0
 40
2.799999999999999
  1
ＶＭ１２０－３,６００
 41
0.9
  7
ｽﾀｲﾙ1
100
AcDbText
  0
LINE
  5
18AA
330
1A
100
AcDbEntity
  8
ZUWAKU
100
AcDbLine
 10
1145.783916501437
 20
35.46666778478379
 30
0.0
 11
1145.783916501437
 21
20.86666778478382
 31
0.0
  0
LINE
  5
18AB
330
1A
100
AcDbEntity
  8
ZUWAKU
100
AcDbLine
 10
1145.983916501437
 20
35.46666778478379
 30
0.0
 11
1145.983916501437
 21
20.86666778478382
 31
0.0
  0
LINE
  5
18AC
330
1A
100
AcDbEntity
  8
ZUWAKU
100
AcDbLine
 10
1145.883916501437
 20
35.46666778478379
 30
0.0
 11
1145.883916501437
 21
20.86666778478382
 31
0.0
  0
LINE
  5
18AD
330
1A
100
AcDbEntity
  8
ZUWAKU
100
AcDbLine
 10
1198.435212398997
 20
35.46666778478379
 30
0.0
 11
1198.435212398998
 21
20.86666778478382
 31
0.0
  0
LINE
  5
18AE
330
1A
100
AcDbEntity
  8
ZUWAKU
100
AcDbLine
 10
1198.535212398998
 20
35.46666778478379
 30
0.0
 11
1198.535212398998
 21
20.86666778478382
 31
0.0
  0
LINE
  5
18AF
330
1A
100
AcDbEntity
  8
ZUWAKU
100
AcDbLine
 10
1198.335212398998
 20
35.46666778478379
 30
0.0
 11
1198.335212398998
 21
20.86666778478382
 31
0.0
  0
LINE
  5
18B0
330
1A
100
AcDbEntity
  8
ZUWAKU
100
AcDbLine
 10
1174.471324265012
 20
35.46666778478379
 30
0.0
 11
1174.471324265012
 21
20.86666778478382
 31
0.0
  0
LINE
  5
18B1
330
1A
100
AcDbEntity
  8
ZUWAKU
100
AcDbLine
 10
1174.671324265012
 20
35.46666778478379
 30
0.0
 11
1174.671324265012
 21
20.86666778478382
 31
0.0
  0
LINE
  5
18B2
330
1A
100
AcDbEntity
  8
ZUWAKU
100
AcDbLine
 10
1174.571324265012
 20
35.46666778478379
 30
0.0
 11
1174.571324265012
 21
20.86666778478382
 31
0.0
  0
TEXT
  5
18B3
330
1A
100
AcDbEntity
  8
MOJI
100
AcDbText
 10
1186.092188502098
 20
29.46912831348749
 30
0.0
 40
2.799999999999999
  1
Ａ３
 41
0.9
  7
ｽﾀｲﾙ1
100
AcDbText
  0
TEXT
  5
18B4
330
1A
100
AcDbEntity
  8
ZUWAKU
100
AcDbText
 10
1153.016368550144
 20
21.77370324035354
 30
0.0
 40
1.5
  1
□には色品番が入ります
 41
0.9
  7
ｽﾀｲﾙ1
100
AcDbText
  0
TEXT
  5
18B5
330
1A
100
AcDbEntity
  8
MOJI
100
AcDbText
 10
1153.694950511443
 20
26.43797664561378
 30
0.0
 40
2.799999999999999
  1
ＣＶ５０□
 41
0.9
  7
ｽﾀｲﾙ1
100
AcDbText
  0
LINE
  5
18B6
330
1A
100
AcDbEntity
  8
ZUWAKU
100
AcDbLine
 10
1174.671324265012
 20
28.26666778478381
 30
0.0
 11
1198.335212398998
 21
28.26666778478381
 31
0.0
  0
LINE
  5
18B7
330
1A
100
AcDbEntity
  8
ZUWAKU
100
AcDbLine
 10
1174.671324265012
 20
28.16666778478381
 30
0.0
 11
1198.335212398998
 21
28.16666778478381
 31
0.0
  0
LINE
  5
18B8
330
1A
100
AcDbEntity
  8
ZUWAKU
100
AcDbLine
 10
1174.671324265012
 20
28.06666778478381
 30
0.0
 11
1198.335212398998
 21
28.06666778478381
 31
0.0
  0
TEXT
  5
18B9
330
1A
100
AcDbEntity
  8
ZUWAKU
100
AcDbText
 10
1175.410046776117
 20
25.2943460539766
 30
0.0
 40
2.0
  1
縮尺
 41
0.9
  7
ｽﾀｲﾙ1
100
AcDbText
  0
TEXT
  5
18BA
330
1A
100
AcDbEntity
  8
MOJI
100
AcDbText
 10
1186.092188502098
 20
22.0691283134875
 30
0.0
 40
2.799999999999999
  1
１/１
 41
0.9
  7
ｽﾀｲﾙ1
100
AcDbText
  0
TEXT
  5
18BB
330
1A
100
AcDbEntity
  8
ZUWAKU
100
AcDbText
 10
1146.722639012542
 20
32.49434605397658
 30
0.0
 40
2.0
  1
品番
 41
0.9
  7
ｽﾀｲﾙ1
100
AcDbText
  0
TEXT
  5
18BC
330
1A
100
AcDbEntity
  8
ZUWAKU
100
AcDbText
 10
1175.410046776117
 20
32.49434605397658
 30
0.0
 40
2.0
  1
用紙
 41
0.9
  7
ｽﾀｲﾙ1
100
AcDbText
  0
TEXT
  5
1940
330
1A
100
AcDbEntity
  8
ZUWAKU
100
AcDbText
 10
1276.335776612063
 20
29.24358745262719
 30
0.0
 40
3.0
  1
積水化学工業株式会社
 41
0.9
  7
ｽﾀｲﾙ1
100
AcDbText
  0
LINE
  5
1941
330
1A
100
AcDbEntity
  8
ZUWAKU
100
AcDbLine
 10
1246.380335771044
 20
35.46666778478379
 30
0.0
 11
1246.380335771044
 21
20.86666778478382
 31
0.0
  0
LINE
  5
1942
330
1A
100
AcDbEntity
  8
ZUWAKU
100
AcDbLine
 10
1246.480335771044
 20
35.46666778478379
 30
0.0
 11
1246.480335771044
 21
20.86666778478382
 31
0.0
  0
LINE
  5
1943
330
1A
100
AcDbEntity
  8
ZUWAKU
100
AcDbLine
 10
1246.280335771044
 20
35.46666778478379
 30
0.0
 11
1246.280335771044
 21
20.86666778478382
 31
0.0
  0
LINE
  5
1944
330
1A
100
AcDbEntity
  8
ZUWAKU
100
AcDbLine
 10
1270.696239790212
 20
35.46666778478379
 30
0.0
 11
1270.696239790212
 21
20.86666778478382
 31
0.0
  0
LINE
  5
1945
330
1A
100
AcDbEntity
  8
ZUWAKU
100
AcDbLine
 10
1270.796239790212
 20
35.46666778478379
 30
0.0
 11
1270.796239790212
 21
20.86666778478382
 31
0.0
  0
LINE
  5
1946
330
1A
100
AcDbEntity
  8
ZUWAKU
100
AcDbLine
 10
1270.896239790212
 20
35.46666778478379
 30
0.0
 11
1270.896239790212
 21
20.86666778478382
 31
0.0
  0
LINE
  5
1947
330
1A
100
AcDbEntity
  8
ZUWAKU
100
AcDbLine
 10
1270.996239790212
 20
35.46666778478379
 30
0.0
 11
1270.996239790212
 21
20.86666778478382
 31
0.0
  0
TEXT
  5
1948
330
1A
100
AcDbEntity
  8
ZUWAKU
100
AcDbText
 10
1251.173703359593
 20
29.46912831348749
 30
0.0
 40
2.799999999999999
  1
　　．　　．　　
 41
0.9
  7
ｽﾀｲﾙ1
100
AcDbText
  0
LINE
  5
1949
330
1A
100
AcDbEntity
  8
ZUWAKU
100
AcDbLine
 10
1246.480335771043
 20
28.26666778478381
 30
0.0
 11
1270.696239790212
 21
28.26666778478381
 31
0.0
  0
LINE
  5
194A
330
1A
100
AcDbEntity
  8
ZUWAKU
100
AcDbLine
 10
1246.480335771044
 20
28.16666778478381
 30
0.0
 11
1270.696239790212
 21
28.16666778478381
 31
0.0
  0
LINE
  5
194B
330
1A
100
AcDbEntity
  8
ZUWAKU
100
AcDbLine
 10
1246.480335771043
 20
28.06666778478381
 30
0.0
 11
1270.696239790212
 21
28.06666778478381
 31
0.0
  0
TEXT
  5
194C
330
1A
100
AcDbEntity
  8
ZUWAKU
100
AcDbText
 10
1276.335776612063
 20
23.79108794171082
 30
0.0
 40
3.0
  1
建材事業部
 41
0.9
  7
ｽﾀｲﾙ1
100
AcDbText
  0
TEXT
  5
194D
330
1A
100
AcDbEntity
  8
ZUWAKU
100
AcDbText
 10
1247.219058282149
 20
32.49434605397658
 30
0.0
 40
2.0
  1
DATE
 41
0.9
  7
ｽﾀｲﾙ1
100
AcDbText
  0
CIRCLE
  5
1C2C
102
{ACAD_REACTORS
330
1D2A
102
}
330
1A
100
AcDbEntity
  8
KEIJYO
 62
   251
100
AcDbCircle
 10
1073.616471607715
 20
210.4461801752265
 30
0.0
 40
0.7788173943287319
  0
LINE
  5
1D28
102
{ACAD_REACTORS
330
1D2A
102
}
330
1A
100
AcDbEntity
  8
KEIJYO
 62
   251
100
AcDbLine
 10
1073.616471607715
 20
211.2249975695553
 30
0.0
 11
1073.616471607715
 21
209.6673627808978
 31
0.0
  0
LINE
  5
1D29
102
{ACAD_REACTORS
330
1D2A
102
}
330
1A
100
AcDbEntity
  8
KEIJYO
 62
   251
100
AcDbLine
 10
1072.837654213386
 20
210.4461801752265
 30
0.0
 11
1074.395289002044
 21
210.4461801752265
 31
0.0
  0
LINE
  5
2011
102
{ACAD_REACTORS
330
2014
102
}
330
1A
100
AcDbEntity
  8
KEIJYO
 62
   251
100
AcDbLine
 10
1061.138820771885
 20
218.6743938496298
 30
0.0
 11
1062.696455560542
 21
218.6743938496298
 31
0.0
  0
LINE
  5
2012
102
{ACAD_REACTORS
330
2014
102
}
330
1A
100
AcDbEntity
  8
KEIJYO
 62
   251
100
AcDbLine
 10
1061.917638166214
 20
219.4532112439586
 30
0.0
 11
1061.917638166214
 21
217.8955764553011
 31
0.0
  0
CIRCLE
  5
2013
102
{ACAD_REACTORS
330
2014
102
}
330
1A
100
AcDbEntity
  8
KEIJYO
 62
   251
100
AcDbCircle
 10
1061.917638166214
 20
218.6743938496298
 30
0.0
 40
0.7788173943287319
  0
DIMENSION
  5
2F49
330
1A
100
AcDbEntity
  8
SUNPOU
100
AcDbDimension
  2
*D16
 10
1183.297667239275
 20
84.35610770559311
 30
0.0
 11
1177.722653025497
 21
86.83114540013002
 31
0.0
 70
   160
  3
STANDARD
100
AcDbAlignedDimension
 13
1171.697667239275
 23
99.36617983602992
 33
0.0
 14
1183.297667239275
 24
171.2880126974096
 34
0.0
100
AcDbRotatedDimension
1001
ACAD
1000
DSTYLE
1002
{
1070
   287
1070
     5
1070
    41
1040
3.0
1070
    42
1040
3.0
1070
    43
1040
7.0
1070
    44
1040
1.5
1070
    73
1070
     0
1070
    74
1070
     0
1070
    77
1070
     3
1070
   140
1040
3.0
1070
   141
1040
200.0
1070
   147
1040
1.0
1070
   172
1070
     1
1070
   173
1070
     1
1070
   176
1070
   256
1070
   177
1070
   256
1070
   178
1070
   256
1070
   271
1070
     0
1070
   272
1070
     0
1070
   279
1070
     2
1070
   288
1070
     1
1070
   341
1005
B2
1070
     6
1000
OPEN
1070
     7
1000
OPEN
1070
   371
1070
    -1
1070
   372
1070
    -1
1002
}
  0
DIMENSION
  5
2F4A
330
1A
100
AcDbEntity
  8
SUNPOU
100
AcDbDimension
  2
*D10
 10
1208.507885769203
 20
101.7880126974099
 30
0.0
 11
1208.507885769203
 21
145.5380126974098
 31
0.0
 70
   160
  3
STANDARD
100
AcDbAlignedDimension
 13
1180.297667239276
 23
189.2880126974097
 33
0.0
 14
1137.697667239275
 24
101.7880126974099
 34
0.0
 50
90.0
100
AcDbRotatedDimension
1001
ACAD
1000
DSTYLE
1002
{
1070
    41
1040
3.0
1070
    42
1040
3.0
1070
    43
1040
7.0
1070
    44
1040
1.5
1070
    73
1070
     0
1070
    74
1070
     0
1070
    77
1070
     3
1070
   140
1040
3.0
1070
   141
1040
200.0
1070
   147
1040
1.0
1070
   172
1070
     1
1070
   173
1070
     1
1070
   176
1070
   256
1070
   177
1070
   256
1070
   178
1070
   256
1070
   271
1070
     0
1070
   272
1070
     0
1070
   288
1070
     1
1070
   341
1005
B2
1070
     6
1000
OPEN
1070
     7
1000
OPEN
1070
   371
1070
    -1
1070
   372
1070
    -1
1002
}
  0
DIMENSION
  5
2F4B
330
1A
100
AcDbEntity
  8
SUNPOU
100
AcDbDimension
  2
*D8
 10
1027.203169938234
 20
101.7880126974099
 30
0.0
 11
1027.203169938234
 21
156.9773787911507
 31
0.0
 70
   160
  3
STANDARD
100
AcDbAlignedDimension
 13
1052.697667239275
 23
212.7880126974089
 33
0.0
 14
1134.697667239275
 24
101.7880126974099
 34
0.0
 50
90.0
100
AcDbRotatedDimension
1001
ACAD
1000
DSTYLE
1002
{
1070
    41
1040
3.0
1070
    42
1040
3.0
1070
    43
1040
7.0
1070
    44
1040
1.5
1070
    73
1070
     0
1070
    74
1070
     0
1070
    77
1070
     3
1070
   140
1040
3.0
1070
   141
1040
200.0
1070
   147
1040
1.0
1070
   172
1070
     1
1070
   173
1070
     1
1070
   176
1070
   256
1070
   177
1070
   256
1070
   178
1070
   256
1070
   271
1070
     0
1070
   272
1070
     0
1070
   288
1070
     1
1070
   341
1005
B2
1070
     6
1000
OPEN
1070
     7
1000
OPEN
1070
   371
1070
    -1
1070
   372
1070
    -1
1002
}
  0
ARC
  5
2F4C
330
1A
100
AcDbEntity
  8
SEIHIN
 48
0.5
100
AcDbCircle
 10
2032.364107155006
 20
457.250380557431
 30
0.0
 40
998.400000000001
100
AcDbArc
 50
195.8235897225792
 51
199.1280600411797
  0
ARC
  5
2F4D
330
1A
100
AcDbEntity
  8
SEIHIN
 48
0.5
100
AcDbCircle
 10
2032.364107155006
 20
457.250380557431
 30
0.0
 40
1000.000000000001
100
AcDbArc
 50
195.8108447710364
 51
200.0478728188227
  0
LINE
  5
2F4E
330
1A
100
AcDbEntity
  8
SEIHIN
 48
0.5
100
AcDbLine
 10
1177.261058671319
 20
172.3276479734901
 30
0.0
 11
1171.839310202458
 21
104.1473864573148
 31
0.0
  0
LINE
  5
2F4F
330
1A
100
AcDbEntity
  8
SEIHIN
 48
0.5
100
AcDbLine
 10
1176.968100884367
 20
188.8276479734904
 30
0.0
 11
1170.357843550652
 21
105.7014984867897
 31
0.0
  0
DIMENSION
  5
2F50
330
1A
100
AcDbEntity
  8
SUNPOU
100
AcDbDimension
  2
*D15
 10
1103.697667239275
 20
84.35610770559311
 30
0.0
 11
1137.697667239275
 21
86.85610770559311
 31
0.0
 70
    32
  3
STANDARD
100
AcDbAlignedDimension
 13
1171.697667239275
 23
102.3661798360299
 33
0.0
 14
1103.697667239275
 24
102.3661798360301
 34
0.0
100
AcDbRotatedDimension
1001
ACAD
1000
DSTYLE
1002
{
1070
   287
1070
     5
1070
    41
1040
3.0
1070
    42
1040
3.0
1070
    43
1040
7.0
1070
    44
1040
1.5
1070
    73
1070
     0
1070
    74
1070
     0
1070
    77
1070
     3
1070
   140
1040
3.0
1070
   141
1040
200.0
1070
   147
1040
1.0
1070
   172
1070
     1
1070
   173
1070
     1
1070
   176
1070
   256
1070
   177
1070
   256
1070
   178
1070
   256
1070
   271
1070
     0
1070
   272
1070
     0
1070
   279
1070
     2
1070
   288
1070
     1
1070
   341
1005
B2
1070
     6
1000
OPEN
1070
     7
1000
OPEN
1070
   371
1070
    -1
1070
   372
1070
    -1
1002
}
  0
ARC
  5
2F51
330
1A
100
AcDbEntity
  8
SEIHIN
 48
0.5
100
AcDbCircle
 10
1137.697667239275
 20
1101.788012697409
 30
0.0
 40
998.3999999999998
100
AcDbArc
 50
268.1931128391828
 51
271.7636860866345
  0
ARC
  5
2F52
330
1A
100
AcDbEntity
  8
SEIHIN
 48
0.5
100
AcDbCircle
 10
1137.697667239275
 20
1101.788012697409
 30
0.0
 40
999.9999999999996
100
AcDbArc
 50
268.1300946705856
 51
271.8459516885246
  0
DIMENSION
  5
2F53
330
1A
100
AcDbEntity
  8
SUNPOU
100
AcDbDimension
  2
*D14
 10
1103.697667239275
 20
84.35610770559311
 30
0.0
 11
1098.447667239275
 21
86.85610770559311
 31
0.0
 70
    32
  3
STANDARD
100
AcDbAlignedDimension
 13
1093.197667239275
 23
113.7880126974094
 33
0.0
 14
1103.697667239275
 24
102.3661798360301
 34
0.0
100
AcDbRotatedDimension
1001
ACAD
1000
DSTYLE
1002
{
1070
   287
1070
     5
1070
    41
1040
3.0
1070
    42
1040
3.0
1070
    43
1040
7.0
1070
    44
1040
1.5
1070
    73
1070
     0
1070
    74
1070
     0
1070
    77
1070
     3
1070
   140
1040
3.0
1070
   141
1040
200.0
1070
   147
1040
1.0
1070
   172
1070
     1
1070
   173
1070
     1
1070
   176
1070
   256
1070
   177
1070
   256
1070
   178
1070
   256
1070
   271
1070
     0
1070
   272
1070
     0
1070
   279
1070
     2
1070
   288
1070
     1
1070
   341
1005
B2
1070
     6
1000
OPEN
1070
     7
1000
OPEN
1070
   371
1070
    -1
1070
   372
1070
    -1
1002
}
  0
DIMENSION
  5
2F54
330
1A
100
AcDbEntity
  8
SUNPOU
100
AcDbDimension
  2
*D7
 10
1037.358557864557
 20
101.7880126974099
 30
0.0
 11
1037.358557864557
 21
107.7880126974097
 31
0.0
 70
   160
  3
STANDARD
100
AcDbAlignedDimension
 13
1093.896991801618
 23
113.7880126974095
 33
0.0
 14
1137.697667239275
 24
101.7880126974099
 34
0.0
 50
90.0
100
AcDbRotatedDimension
1001
ACAD
1000
DSTYLE
1002
{
1070
    41
1040
3.0
1070
    42
1040
3.0
1070
    43
1040
7.0
1070
    44
1040
1.5
1070
    73
1070
     0
1070
    74
1070
     0
1070
    77
1070
     3
1070
   140
1040
3.0
1070
   141
1040
200.0
1070
   147
1040
1.0
1070
   172
1070
     1
1070
   173
1070
     1
1070
   176
1070
   256
1070
   177
1070
   256
1070
   178
1070
   256
1070
   271
1070
     0
1070
   272
1070
     0
1070
   288
1070
     1
1070
   341
1005
B2
1070
     6
1000
OPEN
1070
     7
1000
OPEN
1070
   371
1070
    -1
1070
   372
1070
    -1
1002
}
  0
LINE
  5
2F55
330
1A
100
AcDbEntity
  8
SEIHIN
 48
0.5
100
AcDbLine
 10
1100.831753367547
 20
115.3904748634806
 30
0.0
 11
1104.392680171666
 21
105.222397166416
 31
0.0
  0
LINE
  5
2F56
330
1A
100
AcDbEntity
  8
SEIHIN
 48
0.5
100
AcDbLine
 10
1099.932122066958
 20
113.1185367335755
 30
0.0
 11
1103.245120988789
 21
103.6584067448057
 31
0.0
  0
ARC
  5
2F57
330
1A
100
AcDbEntity
  8
SEIHIN
 48
0.5
100
AcDbCircle
 10
1105.132716137666
 20
104.3194548171376
 30
0.0
 40
2.000000000000189
100
AcDbArc
 50
199.3005854307851
 51
268.1300946705856
  0
ARC
  5
2F58
330
1A
100
AcDbEntity
  8
SEIHIN
 48
0.5
100
AcDbCircle
 10
1137.697667239275
 20
1101.788012697409
 30
0.0
 40
998.3999999999998
100
AcDbArc
 50
268.1931128391698
 51
268.2030170125457
  0
ARC
  5
2F59
330
1A
100
AcDbEntity
  8
SEIHIN
 48
0.5
100
AcDbCircle
 10
1106.280275320544
 20
105.8834452387476
 30
0.0
 40
2.0
100
AcDbArc
 50
199.3005854307751
 51
268.1931128353899
  0
LINE
  5
2F5A
330
1A
100
AcDbEntity
  8
CENTERL
100
AcDbLine
 10
1137.697667239275
 20
110.0368696747666
 30
0.0
 11
1137.697667239275
 21
95.77884804050468
 31
0.0
  0
LINE
  5
2F5B
330
1A
100
AcDbEntity
  8
SEIHIN
 48
0.5
100
AcDbLine
 10
1089.318831637063
 20
129.8968452478613
 30
0.0
 11
1098.154482101429
 21
128.3471379896026
 31
0.0
  0
DIMENSION
  5
2F5C
330
1A
100
AcDbEntity
  8
SUNPOU
100
AcDbDimension
  2
*D13
 10
1098.861236316433
 20
140.9014392133331
 30
0.0
 11
1094.220672384913
 21
143.6203914924258
 31
0.0
 70
   160
  3
STANDARD
100
AcDbAlignedDimension
 13
1089.08722171606
 23
130.0940304790581
 33
0.0
 14
1098.861236316433
 24
128.2231785662173
 34
0.0
100
AcDbRotatedDimension
1001
ACAD
1000
DSTYLE
1002
{
1070
   287
1070
     5
1070
    41
1040
3.0
1070
    42
1040
3.0
1070
    43
1040
7.0
1070
    44
1040
1.5
1070
    73
1070
     0
1070
    74
1070
     0
1070
    77
1070
     3
1070
   140
1040
3.0
1070
   141
1040
200.0
1070
   147
1040
1.0
1070
   172
1070
     1
1070
   173
1070
     1
1070
   176
1070
   256
1070
   177
1070
   256
1070
   178
1070
   256
1070
   271
1070
     0
1070
   272
1070
     0
1070
   279
1070
     2
1070
   288
1070
     1
1070
   341
1005
B2
1070
     6
1000
OPEN
1070
     7
1000
OPEN
1070
   371
1070
    -1
1070
   372
1070
    -1
1002
}
  0
DIMENSION
  5
2F5D
330
1A
100
AcDbEntity
  8
SUNPOU
100
AcDbDimension
  2
*D11
 10
1112.251269677785
 20
128.2231785662173
 30
0.0
 11
1109.412663532281
 21
132.4871764641222
 31
0.0
 70
   160
  3
STANDARD
100
AcDbAlignedDimension
 13
1089.087221716064
 23
130.0940304790459
 33
0.0
 14
1098.861236316433
 24
128.2231785662173
 34
0.0
 50
90.0
100
AcDbRotatedDimension
1001
ACAD
1000
DSTYLE
1002
{
1070
   287
1070
     5
1070
    41
1040
3.0
1070
    42
1040
3.0
1070
    43
1040
7.0
1070
    44
1040
1.5
1070
    73
1070
     0
1070
    74
1070
     0
1070
    77
1070
     3
1070
   140
1040
3.0
1070
   141
1040
200.0
1070
   147
1040
1.0
1070
   172
1070
     1
1070
   173
1070
     1
1070
   176
1070
   256
1070
   177
1070
   256
1070
   178
1070
   256
1070
   271
1070
     0
1070
   272
1070
     0
1070
   279
1070
     2
1070
   288
1070
     1
1070
   341
1005
B2
1070
     6
1000
OPEN
1070
     7
1000
OPEN
1070
   371
1070
    -1
1070
   372
1070
    -1
1002
}
  0
DIMENSION
  5
2F5E
330
1A
100
AcDbEntity
  8
SUNPOU
100
AcDbDimension
  2
*D12
 10
1112.251269677785
 20
115.3904748634805
 30
0.0
 11
1109.751269677785
 21
121.8068267148491
 31
0.0
 70
    32
  3
STANDARD
100
AcDbAlignedDimension
 13
1098.861236316433
 23
128.2231785662173
 33
0.0
 14
1100.831753367547
 24
115.3904748634805
 34
0.0
 50
90.0
100
AcDbRotatedDimension
1001
ACAD
1000
DSTYLE
1002
{
1070
   287
1070
     5
1070
    41
1040
3.0
1070
    42
1040
3.0
1070
    43
1040
7.0
1070
    44
1040
1.5
1070
    73
1070
     0
1070
    74
1070
     0
1070
    77
1070
     3
1070
   140
1040
3.0
1070
   141
1040
200.0
1070
   147
1040
1.0
1070
   172
1070
     1
1070
   173
1070
     1
1070
   176
1070
   256
1070
   177
1070
   256
1070
   178
1070
   256
1070
   271
1070
     0
1070
   272
1070
     0
1070
   279
1070
     2
1070
   288
1070
     1
1070
   341
1005
B2
1070
     6
1000
OPEN
1070
     7
1000
OPEN
1070
   371
1070
    -1
1070
   372
1070
    -1
1002
}
  0
LINE
  5
2F5F
330
1A
100
AcDbEntity
  8
SEIHIN
 48
0.5
100
AcDbLine
 10
1100.831753367547
 20
115.3904748634805
 30
0.0
 11
1098.970141633577
 21
127.5139486380767
 31
0.0
  0
ARC
  5
2F60
330
1A
100
AcDbEntity
  8
SEIHIN
 48
0.5
100
AcDbCircle
 10
2032.364107155006
 20
457.250380557431
 30
0.0
 40
998.400000000001
100
AcDbArc
 50
199.6943655548746
 51
200.0036946400145
  0
LINE
  5
2F61
330
1A
100
AcDbEntity
  8
SEIHIN
 48
0.5
100
AcDbLine
 10
1099.261492254992
 20
115.733545314879
 30
0.0
 11
1097.574643373413
 21
126.718901608218
 31
0.0
  0
LINE
  5
2F62
330
1A
100
AcDbEntity
  8
SEIHIN
 48
0.5
100
AcDbLine
 10
1098.988324492519
 20
113.7880126974097
 30
0.0
 11
1093.896991801618
 21
113.7880126974095
 31
0.0
  0
ARC
  5
2F63
330
1A
100
AcDbEntity
  8
SEIHIN
 48
0.5
100
AcDbCircle
 10
1093.896991801618
 20
114.7880126974095
 30
0.0
 40
1.0
100
AcDbArc
 50
200.0478728129293
 51
270.0
  0
ARC
  5
2F64
330
1A
100
AcDbEntity
  8
SEIHIN
 48
0.5
100
AcDbCircle
 10
1098.964967752216
 20
115.6880126974097
 30
0.0
 40
0.3
100
AcDbArc
 50
270.0
 51
8.729827134784871
  0
ARC
  5
2F65
330
1A
100
AcDbEntity
  8
SEIHIN
 48
0.5
100
AcDbCircle
 10
1094.666851208824
 20
115.8880126974095
 30
0.0
 40
0.5
100
AcDbArc
 50
200.0036946400022
 51
270.0
  0
LINE
  5
2F66
330
1A
100
AcDbEntity
  8
SEIHIN
 48
0.5
100
AcDbLine
 10
1098.964967752216
 20
115.3880126974097
 30
0.0
 11
1094.666851208824
 21
115.3880126974095
 31
0.0
  0
ARC
  5
2F67
330
1A
100
AcDbEntity
  8
SEIHIN
 48
0.5
100
AcDbCircle
 10
1098.988324492519
 20
112.7880126974097
 30
0.0
 40
1.0
100
AcDbArc
 50
19.30058543077517
 51
90.0
  0
LINE
  5
2F68
330
1A
100
AcDbEntity
  8
SEIHIN
 48
0.5
100
AcDbLine
 10
1090.21310491532
 20
128.2170992280636
 30
0.0
 11
1097.329945513769
 21
126.9688584136758
 31
0.0
  0
ARC
  5
2F69
330
1A
100
AcDbEntity
  8
SEIHIN
 48
0.5
100
AcDbCircle
 10
1090.161278272189
 20
127.9216098051366
 30
0.0
 40
0.3
100
AcDbArc
 50
80.05193287166816
 51
199.2660858688236
  0
ARC
  5
2F6A
330
1A
100
AcDbEntity
  8
SEIHIN
 48
0.5
100
AcDbCircle
 10
2032.364107155006
 20
457.250380557431
 30
0.0
 40
998.400000000001
100
AcDbArc
 50
199.2660858688894
 51
199.6943655548746
  0
ARC
  5
2F6B
330
1A
100
AcDbEntity
  8
SEIHIN
 48
0.5
100
AcDbCircle
 10
1097.981726624325
 20
127.3621732465125
 30
0.0
 40
1.0
100
AcDbArc
 50
8.729827134784871
 51
80.05193287166802
  0
ARC
  5
2F6C
330
1A
100
AcDbEntity
  8
SEIHIN
 48
0.5
100
AcDbCircle
 10
1097.278118870638
 20
126.6733689907487
 30
0.0
 40
0.3
100
AcDbArc
 50
8.729827134784871
 51
80.05193287166802
  0
ARC
  5
2F6D
330
1A
100
AcDbEntity
  8
SEIHIN
 48
0.5
100
AcDbCircle
 10
1089.370658280195
 20
130.1923346707882
 30
0.0
 40
0.3
100
AcDbArc
 50
199.1280600411523
 51
260.0519328716549
  0
ARC
  5
2F6E
330
1A
100
AcDbEntity
  8
SEIHIN
 48
0.5
100
AcDbCircle
 10
1169.845603925635
 20
104.3059275616368
 30
0.0
 40
1.999999999999998
100
AcDbArc
 50
271.8459516880293
 51
355.4533617064136
  0
ARC
  5
2F6F
330
1A
100
AcDbEntity
  8
SEIHIN
 48
0.5
100
AcDbCircle
 10
1168.36413727383
 20
105.8600395911115
 30
0.0
 40
2.0
100
AcDbArc
 50
271.7636860866215
 51
355.4533617064136
  0
DIMENSION
  5
2F70
330
1A
100
AcDbEntity
  8
SUNPOU
100
AcDbDimension
  2
*D1
 10
1173.938509495235
 20
130.5455046249398
 30
0.0
 11
1186.399173725374
 21
129.5546227229289
 31
0.0
 70
   161
  1
t=1.6
  3
STANDARD
100
AcDbAlignedDimension
 13
1172.369248053255
 23
130.9955684330261
 33
0.0
 14
1173.964213074713
 24
130.8687355495687
 34
0.0
1001
ACAD
1000
DSTYLE
1002
{
1070
    41
1040
3.0
1070
    42
1040
3.0
1070
    43
1040
7.0
1070
    44
1040
1.5
1070
    73
1070
     0
1070
    74
1070
     0
1070
    77
1070
     3
1070
   140
1040
3.0
1070
   141
1040
200.0
1070
   147
1040
1.0
1070
   172
1070
     1
1070
   173
1070
     1
1070
   176
1070
   256
1070
   177
1070
   256
1070
   178
1070
   256
1070
   271
1070
     0
1070
   272
1070
     0
1070
   288
1070
     1
1070
   341
1005
B2
1070
     6
1000
OPEN
1070
     7
1000
OPEN
1070
   371
1070
    -1
1070
   372
1070
    -1
1002
}
  0
DIMENSION
  5
2F71
330
1A
100
AcDbEntity
  8
SUNPOU
100
AcDbDimension
  2
*D3
 10
1183.297667239275
 20
231.1956662654861
 30
0.0
 11
1117.997667239275
 21
231.1956662654861
 31
0.0
 70
   160
  3
STANDARD
100
AcDbAlignedDimension
 13
1052.697667239275
 23
210.2264598846007
 33
0.0
 14
1183.297667239275
 24
186.2880126974097
 34
0.0
100
AcDbRotatedDimension
1001
ACAD
1000
DSTYLE
1002
{
1070
    41
1040
3.0
1070
    42
1040
3.0
1070
    43
1040
7.0
1070
    44
1040
1.5
1070
    73
1070
     0
1070
    74
1070
     0
1070
    77
1070
     3
1070
   140
1040
3.0
1070
   141
1040
200.0
1070
   147
1040
1.0
1070
   172
1070
     1
1070
   173
1070
     1
1070
   176
1070
   256
1070
   177
1070
   256
1070
   178
1070
   256
1070
   271
1070
     0
1070
   272
1070
     0
1070
   288
1070
     1
1070
   341
1005
B2
1070
     6
1000
OPEN
1070
     7
1000
OPEN
1070
   371
1070
    -1
1070
   372
1070
    -1
1002
}
  0
DIMENSION
  5
2F72
330
1A
100
AcDbEntity
  8
SUNPOU
100
AcDbDimension
  2
*D2
 10
1069.097667239275
 20
223.1628000160124
 30
0.0
 11
1060.897667239275
 21
223.1628000160124
 31
0.0
 70
   160
  3
STANDARD
100
AcDbAlignedDimension
 13
1052.697667239275
 23
210.2264598846007
 33
0.0
 14
1069.097667239275
 24
205.0783252883699
 34
0.0
100
AcDbRotatedDimension
1001
ACAD
1000
DSTYLE
1002
{
1070
    41
1040
3.0
1070
    42
1040
3.0
1070
    43
1040
7.0
1070
    44
1040
1.5
1070
    73
1070
     0
1070
    74
1070
     0
1070
    77
1070
     3
1070
   140
1040
3.0
1070
   141
1040
200.0
1070
   147
1040
1.0
1070
   172
1070
     1
1070
   173
1070
     1
1070
   176
1070
   256
1070
   177
1070
   256
1070
   178
1070
   256
1070
   271
1070
     0
1070
   272
1070
     0
1070
   288
1070
     1
1070
   341
1005
B2
1070
     6
1000
OPEN
1070
     7
1000
OPEN
1070
   371
1070
    -1
1070
   372
1070
    -1
1002
}
  0
DIMENSION
  5
2F73
330
1A
100
AcDbEntity
  8
SUNPOU
100
AcDbDimension
  2
*D5
 10
1070.197667239275
 20
175.5453709910336
 30
0.0
 11
1063.947667239275
 21
178.0453709910336
 31
0.0
 70
    32
  3
STANDARD
100
AcDbAlignedDimension
 13
1057.697667239275
 23
192.7880126974097
 33
0.0
 14
1070.197667239275
 24
184.7880126974084
 34
0.0
100
AcDbRotatedDimension
1001
ACAD
1000
DSTYLE
1002
{
1070
   287
1070
     4
1070
   279
1070
     1
1070
    41
1040
3.0
1070
    42
1040
3.0
1070
    43
1040
7.0
1070
    44
1040
1.5
1070
    73
1070
     0
1070
    74
1070
     0
1070
    77
1070
     3
1070
   140
1040
3.0
1070
   141
1040
200.0
1070
   147
1040
1.0
1070
   172
1070
     1
1070
   173
1070
     1
1070
   176
1070
   256
1070
   177
1070
   256
1070
   178
1070
   256
1070
   271
1070
     0
1070
   272
1070
     0
1070
   288
1070
     1
1070
   341
1005
B2
1070
     6
1000
OPEN
1070
     7
1000
OPEN
1070
   371
1070
    -1
1070
   372
1070
    -1
1002
}
  0
DIMENSION
  5
2F74
330
1A
100
AcDbEntity
  8
SUNPOU
100
AcDbDimension
  2
*D4
 10
1057.697667239275
 20
175.5453709910336
 30
0.0
 11
1055.197667239275
 21
175.5453709910336
 31
0.0
 70
   160
  3
STANDARD
100
AcDbAlignedDimension
 13
1052.697667239275
 23
206.7880126974097
 33
0.0
 14
1057.697667239275
 24
192.7880126974097
 34
0.0
100
AcDbRotatedDimension
1001
ACAD
1000
DSTYLE
1002
{
1070
    41
1040
3.0
1070
    42
1040
3.0
1070
    43
1040
7.0
1070
    44
1040
1.5
1070
    73
1070
     0
1070
    74
1070
     0
1070
    77
1070
     3
1070
   140
1040
3.0
1070
   141
1040
200.0
1070
   147
1040
1.0
1070
   172
1070
     1
1070
   173
1070
     1
1070
   176
1070
   256
1070
   177
1070
   256
1070
   178
1070
   256
1070
   271
1070
     0
1070
   272
1070
     0
1070
   288
1070
     1
1070
   341
1005
B2
1070
     6
1000
OPEN
1070
     7
1000
OPEN
1070
   371
1070
    -1
1070
   372
1070
    -1
1002
}
  0
DIMENSION
  5
2F75
330
1A
100
AcDbEntity
  8
SUNPOU
100
AcDbDimension
  2
*D6
 10
1037.358557864557
 20
192.7880126974097
 30
0.0
 11
1037.358557864557
 21
203.3090005131289
 31
0.0
 70
   160
  3
STANDARD
100
AcDbAlignedDimension
 13
1052.697667239275
 23
212.7880126974089
 33
0.0
 14
1057.909082998146
 24
192.7880126974097
 34
0.0
 50
90.0
100
AcDbRotatedDimension
1001
ACAD
1000
DSTYLE
1002
{
1070
    41
1040
3.0
1070
    42
1040
3.0
1070
    43
1040
7.0
1070
    44
1040
1.5
1070
    73
1070
     0
1070
    74
1070
     0
1070
    77
1070
     3
1070
   140
1040
3.0
1070
   141
1040
200.0
1070
   147
1040
1.0
1070
   172
1070
     1
1070
   173
1070
     1
1070
   176
1070
   256
1070
   177
1070
   256
1070
   178
1070
   256
1070
   271
1070
     0
1070
   272
1070
     0
1070
   288
1070
     1
1070
   341
1005
B2
1070
     6
1000
OPEN
1070
     7
1000
OPEN
1070
   371
1070
    -1
1070
   372
1070
    -1
1002
}
  0
ARC
  5
2F76
330
1A
100
AcDbEntity
  8
SEIHIN
 48
0.5
100
AcDbCircle
 10
1067.097667239275
 20
201.6880126974096
 30
0.0
 40
2.0
100
AcDbArc
 50
270.0
 51
0.0
  0
LINE
  5
2F77
330
1A
100
AcDbEntity
  8
SEIHIN
 48
0.5
100
AcDbLine
 10
1064.879066101025
 20
202.6365807256228
 30
0.0
 11
1064.492453516246
 21
200.2685786438559
 31
0.0
  0
REGION
  5
2F78
330
1A
100
AcDbEntity
  8
SEIHIN
 48
0.5
100
AcDbModelerGeometry
 70
     1
  1
noi ki n o          
  1
=0;& {rn {n {rn {rn |
  1
3*2/ {rn {rn {m {o |
  1
,7:33 {rn {rn {rn {l {n |
  1
9><: {rn {rn {k {m {rn {j 90-(>-; ;0*=3: 0*+ |
  1
300/ {rn {rn {i {l |
  1
/3>1:r,*-9><: {rn noiiqinjnkgkogjign molqiomkjmgnimliig o o o n n o o o V V V V |
  1
<0:;8: {rn {h {g {rn {f n {k {rn |
  1
<0:;8: {rn {no {i {rn {nn o {k {rn |
  1
<0:;8: {rn {i {nm {rn {nl o {k {rn |
  1
:;8: {rn {nk {nj {i {ni o |
  1
<0:;8: {rn {nh {h {rn {ng n {k {rn |
  1
:;8: {rn {nk {nf {h {mo o |
  1
<0:;8: {rn {g {mn {rn {mm n {k {rn |
  1
:;8: {rn {ml {nj {g {mk o |
  1
):-+:' {rn {f {mj |
  1
):-+:' {rn {f {mi |
  1
:336/,:r<*-): {rn noilqlfgiiihhfginl momqghgmhgjhlfhjff o o o n mqfffffffffffffflg o o n V V |
  1
<0:;8: {rn {mh {no {rn {mg o {k {rn |
  1
:;8: {rn {mf {nf {no {lo o |
  1
):-+:' {rn {ng {ln |
  1
,+->687+r<*-): {rn noiiqljfkijkmmnggk momqlfkggmghhmifij o roqninnlngfgfonhgffk roqfgiflmggohhjhknnj o V V |
  1
<0:;8: {rn {nm {mh {rn {lm o {k {rn |
  1
:;8: {rn {ml {ll {nm {lk o |
  1
):-+:' {rn {nl {lj |
  1
,+->687+r<*-): {rn noikqgiojfmkhlnnnf mojqflihgmkknnigkg o roqninnlngfggfflloif roqfgiflmggohhinkmhm o V V |
  1
/061+ {rn noiiqljfkijkmmnggk momqlfkggmghhmifij o |
  1
/061+ {rn noikqhfkhhniikfhfi mojqjllimfffnlkfgn o |
  1
<0:;8: {rn {mn {nh {rn {li o {k {rn |
  1
:;8: {rn {mf {lh {nh {lg o |
  1
):-+:' {rn {mg {lf |
  1
,+->687+r<*-): {rn noihqofhiihmlfmhjg monqnggonmifhkofjf o rn mqklnnhjnifljnijh:ronl o V V |
  1
/061+ {rn noiiqnimkmjlfmgmlf monqnggonmifhkofgm o |
  1
:;8: {rn {ko {ll {mn {kn o |
  1
):-+:' {rn {mm {km |
  1
,+->687+r<*-): {rn noikqgiojfmkhlnnnf mojqflihgmkknnigkg o oqfghgmjfjohnnhknmf roqnjjjilnkngkkmnglj o V V |
  1
/061+ {rn noikqgiojfmkhlnnnf mojqflihgmkknnigkg o |
  1
:;8: {rn {lh {ko {mh {kl o |
  1
):-+:' {rn {li {kk |
  1
:336/,:r<*-): {rn noihqofhiihmlfmhjg monqiggonmifhkofjf o o o n oqkfffffffffffffffk o o n V V |
  1
/061+ {rn noihqofhiihmlfmhjg monqnggonmifhkofjf o |
  1
):-+:' {rn {lm {kj |
  1
:336/,:r<*-): {rn noihqnfhiihmlfmhin mojqnilgofjlhjfmji o o o n oqkooooooooooooooom o o n V V |
  1
/061+ {rn noihqmjfgfmkfionlf mojqjjgflffnhghhng o |
  1
,+->687+r<*-): {rn noihqjfhiihmlfmhjg monqiggonmifhkofjf o nqloglmjkimiogmglg:ronl n o V V |
  1
/061+ {rn noihqjfhiihmlfmhjg monqiggonmifhkofjf o |
  1
/061+ {rn noihqjfhiihmlfmhim mojqnilgofjlhjfmji o |
  0
ARC
  5
2F79
330
1A
100
AcDbEntity
  8
SEIHIN
 48
0.5
100
AcDbCircle
 10
1064.90302277338
 20
197.5880126974099
 30
0.0
 40
6.999999999999444
100
AcDbArc
 50
105.8737907964528
 51
185.9246913826273
  0
LINE
  5
2F7A
330
1A
100
AcDbEntity
  8
SEIHIN
 48
0.5
100
AcDbLine
 10
1052.697667239275
 20
206.7880126974097
 30
0.0
 11
1057.626560424668
 21
192.9871117783101
 31
0.0
  0
REGION
  5
2F7B
330
1A
100
AcDbEntity
  8
SEIHIN
 48
0.5
100
AcDbModelerGeometry
 70
     1
  1
noi jn n o          
  1
=0;& {rn {n {rn {rn |
  1
3*2/ {rn {rn {m {o |
  1
,7:33 {rn {rn {rn {l {n |
  1
9><: {rn {rn {k {m {rn {j 90-(>-; ;0*=3: 0*+ |
  1
300/ {rn {rn {i {l |
  1
/3>1:r,*-9><: {rn nojiqgikhfllfgkig mohqjmhjiomnlljmn o o o n n o o o V V V V |
  1
<0:;8: {rn {h {g {rn {f n {k {rn |
  1
<0:;8: {rn {no {i {rn {nn n {k {rn |
  1
<0:;8: {rn {i {nm {rn {nl o {k {rn |
  1
:;8: {rn {nk {nj {i {ni o |
  1
<0:;8: {rn {nh {h {rn {ng n {k {rn |
  1
:;8: {rn {nf {nk {h {mo o |
  1
<0:;8: {rn {g {mn {rn {mm n {k {rn |
  1
:;8: {rn {ml {nj {g {mk o |
  1
):-+:' {rn {f {mj |
  1
):-+:' {rn {f {mi |
  1
:336/,:r<*-): {rn noikqfolommhhllgnn nfhqjggonmifhkofig o o o n gqkffffffffffffiof o o n V V |
  1
<0:;8: {rn {mh {no {rn {mg n {k {rn |
  1
:;8: {rn {mf {nf {no {lo o |
  1
):-+:' {rn {ng {ln |
  1
,+->687+r<*-): {rn noilqlhggmffgoimgl moiqnhonlogijngnfl o roqninnlngfgfolmjlfh roqfgiflmggohhjjomnm o V V |
  1
<0:;8: {rn {nm {lm {rn {ll o {k {rn |
  1
:;8: {rn {ml {lk {nm {lj o |
  1
):-+:' {rn {nl {li |
  1
,+->687+r<*-): {rn nojkqnfhiihmlfmhin mohqlkjnjkifijjnmg o oqllillilfiffgoghgh roqfknhknfnnjfkgingh o V V |
  1
/061+ {rn noilqlkngnlfihkgj mojqfklkohhgkigohk o |
  1
/061+ {rn nojiqhglgimnkfgkjk mooqnolgogfkifjjin o |
  1
<0:;8: {rn {lm {nh {rn {lh n {k {rn |
  1
:;8: {rn {lg {mf {nh {lf o |
  1
):-+:' {rn {mg {ko |
  1
,+->687+r<*-): {rn nojiqilnohjhnhhinm mohqmlmhifllnhhkgg o oqfghgmjfjohnnhmifi roqnjjjilnkngkkloffh o V V |
  1
/061+ {rn noilqlhggmffgoimgl moiqnhonlogijngnfl o |
  1
<0:;8: {rn {mn {mh {rn {kn n {k {rn |
  1
:;8: {rn {km {lk {mn {kl o |
  1
):-+:' {rn {mm {kk |
  1
,+->687+r<*-): {rn nojkqnfhiihmlfmhin mohqlkjnjkifijjnmg o o n o V V |
  1
/061+ {rn nojkqnfhiihmlfmhin mohqlkjnjkifijjnmg o |
  1
:;8: {rn {kj {lg {mh {ki o |
  1
):-+:' {rn {lh {kh |
  1
:336/,:r<*-): {rn nojiqfkmmonghjgghg mofqmogkmnmjmfhnhf o o o n nqfffffffffffffhkh o o n V V |
  1
/061+ {rn nojiqilnohjhnhhinm mohqmlmhifllnhhkgg o |
  1
:;8: {rn {km {kj {lm {kg o |
  1
):-+:' {rn {ll {kf |
  1
:336/,:r<*-): {rn nojkqifhiihmlfmhjh mnoqmmikjfggkioohf o o o n oqj o o n V V |
  1
/061+ {rn nojkqnfhiihmlfmhin mnoqmmikjfggkioohf o |
  1
):-+:' {rn {kn {jo |
  1
,+->687+r<*-): {rn nojjqohinogkojfhfj mnoqikhmlhhfinmhnn o roqoffjolhnfomnohnnhh roqffjolhnfomoffgngl o V V |
  1
/061+ {rn nojkqfjmnmhkiklilj mofqkohkmglhffihm o |
  1
,+->687+r<*-): {rn nojkqgngfljojnhfkn mnoqhnnjlnnlkihlki o oqfhonkmjoonkjmgnjg roqmkmjljimjolijlkgk o V V |
  1
/061+ {rn nojkqgngfljojnhfkn mnoqhnnjlnnlkihlki o |
  1
/061+ {rn nojjqohinogkojfhfj mnoqikhmlhhfinmhnn o |
  0
ARC
  5
2F7C
330
1A
100
AcDbEntity
  8
SEIHIN
 48
0.5
100
AcDbCircle
 10
1069.197667239275
 20
191.7880126974097
 30
0.0
 40
1.0
100
AcDbArc
 50
0.0
 51
90.0
  0
LINE
  5
2F7D
330
1A
100
AcDbEntity
  8
SEIHIN
 48
0.5
100
AcDbLine
 10
1071.797667239258
 20
185.0102760401388
 30
0.0
 11
1071.797667239277
 21
194.088012697409
 31
0.0
  0
LINE
  5
2F7E
330
1A
100
AcDbEntity
  8
SEIHIN
 48
0.5
100
AcDbLine
 10
1070.197667239275
 20
191.7880126974097
 30
0.0
 11
1070.197667239275
 21
191.7880126974097
 31
0.0
  0
LINE
  5
2F7F
330
1A
100
AcDbEntity
  8
SEIHIN
 48
0.5
100
AcDbLine
 10
1070.197667239275
 20
191.7880126974097
 30
0.0
 11
1070.197667239275
 21
184.788012697409
 31
0.0
  0
LINE
  5
2F80
330
1A
100
AcDbEntity
  8
SEIHIN
 48
0.5
100
AcDbLine
 10
1071.497667239277
 20
194.3880126974096
 30
0.0
 11
1060.234656345728
 21
194.3880126974091
 31
0.0
  0
LINE
  5
2F81
330
1A
100
AcDbEntity
  8
SEIHIN
 48
0.5
100
AcDbLine
 10
1069.197667239275
 20
192.7880126974097
 30
0.0
 11
1057.909082998146
 21
192.7880126974097
 31
0.0
  0
ARC
  5
2F82
330
1A
100
AcDbEntity
  8
SEIHIN
 48
0.5
100
AcDbCircle
 10
1060.234656345728
 20
196.3880126974091
 30
0.0
 40
2.0
100
AcDbArc
 50
199.6538240580533
 51
270.0
  0
LINE
  5
2F83
330
1A
100
AcDbEntity
  8
SEIHIN
 48
0.5
100
AcDbLine
 10
1057.940413786281
 20
196.8654643649364
 30
0.0
 11
1058.351172522539
 21
195.7153399034128
 31
0.0
  0
ARC
  5
2F84
330
1A
100
AcDbEntity
  8
SEIHIN
 48
0.5
100
AcDbCircle
 10
1057.909082998146
 20
193.0880126974096
 30
0.0
 40
0.3
100
AcDbArc
 50
199.6538240580945
 51
270.0
  0
LINE
  5
2F85
330
1A
100
AcDbEntity
  8
SEIHIN
 48
0.5
100
AcDbLine
 10
1067.097667239275
 20
199.6880126974095
 30
0.0
 11
1064.985919957125
 21
199.6880126974095
 31
0.0
  0
ARC
  5
2F86
330
1A
100
AcDbEntity
  8
SEIHIN
 48
0.5
100
AcDbCircle
 10
1064.985919957125
 20
200.1880126974096
 30
0.0
 40
0.5000000000000745
100
AcDbArc
 50
170.7273985716946
 51
270.0
  0
ARC
  5
2F87
330
1A
100
AcDbEntity
  8
SEIHIN
 48
0.5
100
AcDbCircle
 10
1071.497667239277
 20
194.0880126974096
 30
0.0
 40
0.3
100
AcDbArc
 50
359.9999999998762
 51
90.0
  0
LINE
  5
2F88
330
1A
100
AcDbEntity
  8
SEIHIN
 48
0.5
100
AcDbLine
 10
1056.671866629679
 20
211.5300066014471
 30
0.0
 11
1056.444683280783
 21
209.2581731124822
 31
0.0
  0
ARC
  5
2F89
330
1A
100
AcDbEntity
  8
SEIHIN
 48
0.5
100
AcDbCircle
 10
1054.697667239275
 20
210.2264598846007
 30
0.0
 40
2.0
100
AcDbArc
 50
75.96375653207984
 51
180.0
  0
LINE
  5
2F8A
330
1A
100
AcDbEntity
  8
SEIHIN
 48
0.5
100
AcDbLine
 10
1056.864420371018
 20
208.7145082672139
 30
0.0
 11
1067.408793522964
 21
207.053977062183
 31
0.0
  0
LINE
  5
2F8B
330
1A
100
AcDbEntity
  8
SEIHIN
 48
0.5
100
AcDbLine
 10
1052.697667239275
 20
206.7880126974097
 30
0.0
 11
1052.697667239275
 21
210.2264598846007
 31
0.0
  0
ARC
  5
2F8C
330
1A
100
AcDbEntity
  8
SEIHIN
 48
0.5
100
AcDbCircle
 10
1056.942201875887
 20
209.2084212529718
 30
0.0
 40
0.499999999999911
100
AcDbArc
 50
174.2894068625029
 51
261.0505495781456
  0
ARC
  5
2F8D
330
1A
100
AcDbEntity
  8
SEIHIN
 48
0.5
100
AcDbCircle
 10
1067.097667239275
 20
205.0783251607596
 30
0.0
 40
2.000000000000039
100
AcDbArc
 50
0.0000036557655802
 51
81.050541915791
  0
ARC
  5
2F8E
330
1A
100
AcDbEntity
  8
SEIHIN
 48
0.5
100
AcDbCircle
 10
1063.398666779861
 20
202.878278573976
 30
0.0
 40
1.499999999999993
100
AcDbArc
 50
350.7273982227996
 51
105.8737869821552
  0
LINE
  5
2F8F
330
1A
100
AcDbEntity
  8
SEIHIN
 48
0.5
100
AcDbLine
 10
1069.097667239275
 20
201.6880126974096
 30
0.0
 11
1069.097667239275
 21
205.0783252883699
 31
0.0
  0
LINE
  5
2F90
330
1A
100
AcDbEntity
  8
SEIHIN
 48
0.5
100
AcDbLine
 10
1055.182738489347
 20
212.1667448848916
 30
0.0
 11
1056.446116160127
 21
211.8509004671969
 31
0.0
  0
ARC
  5
2F91
330
1A
100
AcDbEntity
  8
SEIHIN
 48
0.5
100
AcDbCircle
 10
1056.373355472616
 20
211.5598577171532
 30
0.0
 40
0.3000000000000382
100
AcDbArc
 50
354.2894068625288
 51
75.96375653202612
  0
LINE
  5
2F92
330
1A
100
AcDbEntity
  8
SEIHIN
 48
0.5
100
AcDbLine
 10
1183.297667239275
 20
186.2880126974097
 30
0.0
 11
1183.297667239275
 21
172.1711078868942
 31
0.0
  0
DIMENSION
  5
2F93
330
1A
100
AcDbEntity
  8
SUNPOU
100
AcDbDimension
  2
*D9
 10
1196.654272360605
 20
171.2880126974096
 30
0.0
 11
1196.654272360605
 21
180.2880126974096
 31
0.0
 70
   160
  3
STANDARD
100
AcDbAlignedDimension
 13
1180.297667239276
 23
189.2880126974097
 33
0.0
 14
1183.297667239275
 24
171.2880126974096
 34
0.0
 50
90.0
100
AcDbRotatedDimension
1001
ACAD
1000
DSTYLE
1002
{
1070
    41
1040
3.0
1070
    42
1040
3.0
1070
    43
1040
7.0
1070
    44
1040
1.5
1070
    73
1070
     0
1070
    74
1070
     0
1070
    77
1070
     3
1070
   140
1040
3.0
1070
   141
1040
200.0
1070
   147
1040
1.0
1070
   172
1070
     1
1070
   173
1070
     1
1070
   176
1070
   256
1070
   177
1070
   256
1070
   178
1070
   256
1070
   271
1070
     0
1070
   272
1070
     0
1070
   288
1070
     1
1070
   341
1005
B2
1070
     6
1000
OPEN
1070
     7
1000
OPEN
1070
   371
1070
    -1
1070
   372
1070
    -1
1002
}
  0
LINE
  5
2F94
330
1A
100
AcDbEntity
  8
SEIHIN
 48
0.5
100
AcDbLine
 10
1181.697667239275
 20
185.625270997613
 30
0.0
 11
1181.697667239276
 21
179.9117938630583
 31
0.0
  0
LINE
  5
2F95
330
1A
100
AcDbEntity
  8
SEIHIN
 48
0.5
100
AcDbLine
 10
1178.345602808804
 20
187.2276479734899
 30
0.0
 11
1177.76384028781
 21
179.9117938630583
 31
0.0
  0
ARC
  5
2F96
330
1A
100
AcDbEntity
  8
SEIHIN
 48
0.5
100
AcDbCircle
 10
1177.865923623
 20
174.8880126974101
 30
0.0
 40
0.5
100
AcDbArc
 50
175.4533617064201
 51
270.0
  0
LINE
  5
2F97
330
1A
100
AcDbEntity
  8
SEIHIN
 48
0.5
100
AcDbLine
 10
1181.697667239276
 20
179.8880126974099
 30
0.0
 11
1181.697667239276
 21
174.3880126974098
 31
0.0
  0
LINE
  5
2F98
330
1A
100
AcDbEntity
  8
SEIHIN
 48
0.5
100
AcDbLine
 10
1180.797667239275
 20
172.7880126974097
 30
0.0
 11
1182.540419361561
 21
171.7423614240379
 31
0.0
  0
LINE
  5
2F99
330
1A
100
AcDbEntity
  8
SEIHIN
 48
0.5
100
AcDbLine
 10
1177.865923623
 20
174.38801269741
 30
0.0
 11
1181.697667239276
 21
174.3880126974098
 31
0.0
  0
ARC
  5
2F9A
330
1A
100
AcDbEntity
  8
SEIHIN
 48
0.5
100
AcDbCircle
 10
1182.797667239275
 20
172.1711078868942
 30
0.0
 40
0.5000000000000169
100
AcDbArc
 50
239.0362434679241
 51
0.0
  0
ARC
  5
2F9B
330
1A
100
AcDbEntity
  8
SEIHIN
 48
0.5
100
AcDbCircle
 10
1177.759485240524
 20
172.2880126974097
 30
0.0
 40
0.5
100
AcDbArc
 50
90.0
 51
175.4533617064217
  0
LINE
  5
2F9C
330
1A
100
AcDbEntity
  8
SEIHIN
 48
0.5
100
AcDbLine
 10
1177.759485240524
 20
172.7880126974097
 30
0.0
 11
1180.797667239275
 21
172.7880126974097
 31
0.0
  0
LINE
  5
2F9D
330
1A
100
AcDbEntity
  8
SEIHIN
 48
0.5
100
AcDbLine
 10
1177.763840287811
 20
179.9117938630583
 30
0.0
 11
1177.367497053795
 21
174.9276479734904
 31
0.0
  0
ARC
  5
2F9E
330
1A
100
AcDbEntity
  8
SEIHIN
 48
0.5
100
AcDbCircle
 10
1177.466527453572
 20
188.7880126974099
 30
0.0
 40
0.5
100
AcDbArc
 50
90.0
 51
175.4533617064201
  0
LINE
  5
2F9F
330
1A
100
AcDbEntity
  8
SEIHIN
 48
0.5
100
AcDbLine
 10
1178.84402937801
 20
187.6880126974096
 30
0.0
 11
1179.634925539478
 21
187.6880126974098
 31
0.0
  0
ARC
  5
2FA0
330
1A
100
AcDbEntity
  8
SEIHIN
 48
0.5
100
AcDbCircle
 10
1178.84402937801
 20
187.1880126974095
 30
0.0
 40
0.5
100
AcDbArc
 50
90.00000000001303
 51
175.4533617064201
  0
LINE
  5
2FA1
330
1A
100
AcDbEntity
  8
SEIHIN
 48
0.5
100
AcDbLine
 10
1177.466527453572
 20
189.2880126974099
 30
0.0
 11
1180.297667239276
 21
189.2880126974097
 31
0.0
  0
LINE
  5
2FA2
330
1A
100
AcDbEntity
  8
SEIHIN
 48
0.5
100
AcDbLine
 10
1180.297667239276
 20
189.2880126974097
 30
0.0
 11
1183.297667239275
 21
186.2880126974097
 31
0.0
  0
LINE
  5
2FA3
330
1A
100
AcDbEntity
  8
SEIHIN
 48
0.5
100
AcDbLine
 10
1179.634925539478
 20
187.6880126974098
 30
0.0
 11
1181.697667239275
 21
185.625270997613
 31
0.0
  0
DIMENSION
  5
31A8
330
1A
100
AcDbEntity
  8
SUNPOU
100
AcDbDimension
  2
*D17
 10
1177.004709452323
 20
199.1043829955494
 30
0.0
 11
1191.297667239275
 21
199.1043829955494
 31
0.0
 70
   160
  3
STANDARD
100
AcDbAlignedDimension
 13
1183.297667239275
 23
186.2880126974097
 33
0.0
 14
1177.004709452323
 24
189.2880126974099
 34
0.0
100
AcDbRotatedDimension
1001
ACAD
1000
DSTYLE
1002
{
1070
    41
1040
3.0
1070
    42
1040
3.0
1070
    43
1040
7.0
1070
    44
1040
1.5
1070
    73
1070
     0
1070
    74
1070
     0
1070
    77
1070
     3
1070
   140
1040
3.0
1070
   141
1040
200.0
1070
   147
1040
1.0
1070
   172
1070
     1
1070
   173
1070
     1
1070
   176
1070
   256
1070
   177
1070
   256
1070
   178
1070
   256
1070
   271
1070
     0
1070
   272
1070
     0
1070
   279
1070
     0
1070
   288
1070
     1
1070
   341
1005
B2
1070
     6
1000
OPEN
1070
     7
1000
OPEN
1070
   371
1070
    -1
1070
   372
1070
    -1
1002
}
  0
VIEWPORT
  5
22
330
17
100
AcDbEntity
 67
     1
  8
0
100
AcDbViewport
 10
313.6808219178082
 20
148.5
 30
0.0
 40
627.3616438356165
 41
297.0
 68
     2
 69
     1
1001
ACAD
1000
MVIEW
1002
{
1070
    16
1010
0.0
1020
0.0
1030
0.0
1010
0.0
1020
0.0
1030
1.0
1040
0.0
1040
297.0
1040
313.6808219178082
1040
148.5
1040
50.0
1040
0.0
1040
0.0
1070
     0
1070
   100
1070
     1
1070
     0
1070
     0
1070
     0
1070
     0
1070
     0
1040
0.0
1040
0.0
1040
0.0
1040
1.0
1040
1.0
1040
10.0
1040
10.0
1070
     0
1002
{
1002
}
1002
}
  0
VIEWPORT
  5
64
330
17
100
AcDbEntity
 67
     1
  8
VIEWPORT
100
AcDbViewport
 10
210.0
 20
148.5
 30
0.0
 40
420.0
 41
297.0
 68
     1
 69
     2
1001
ACAD
1000
MVIEW
1002
{
1070
    16
1010
0.0
1020
0.0
1030
0.0
1010
0.0
1020
0.0
1030
1.0
1040
0.0
1040
302.9399999999998
1040
210.0
1040
148.5
1040
50.0
1040
0.0
1040
0.0
1070
     0
1070
   100
1070
     1
1070
     0
1070
     0
1070
     0
1070
     0
1070
     0
1040
0.0
1040
0.0
1040
0.0
1040
5.0
1040
5.0
1040
0.0
1040
0.0
1070
     0
1002
{
1002
}
1002
}
  0
ENDSEC
  0
SECTION
  2
OBJECTS
  0
DICTIONARY
  5
C
330
0
100
AcDbDictionary
  3
ACAD_GROUP
350
D
  3
ACAD_LAYOUT
350
352
  3
ACAD_MLINESTYLE
350
E
  3
ACAD_PLOTSETTINGS
350
353
  3
ACAD_PLOTSTYLENAME
350
350
  3
ACDBHEADERROUNDTRIPXREC
350
31EA
  0
DICTIONARY
  5
154D
330
2
100
AcDbDictionary
280
     1
  3
ACAD_LAYERFILTERS
360
154E
  0
DICTIONARY
  5
64B
330
1A
100
AcDbDictionary
280
     1
  3
ACAD_LAYOUTSELFREF
360
320C
  0
DICTIONARY
  5
649
330
17
100
AcDbDictionary
280
     1
  3
ACAD_LAYOUTSELFREF
360
320B
  0
DICTIONARY
  5
D
102
{ACAD_REACTORS
330
C
102
}
330
C
100
AcDbDictionary
  3
*A1
350
FAF
  3
*A2
350
1546
  3
*A3
350
1B31
  3
*A4
350
1B32
  3
*A5
350
1BFF
  3
*A6
350
1C00
  3
*A7
350
1D2A
  3
*A8
350
2014
  0
DICTIONARY
  5
352
102
{ACAD_REACTORS
330
C
102
}
330
C
100
AcDbDictionary
  0
DICTIONARY
  5
E
102
{ACAD_REACTORS
330
C
102
}
330
C
100
AcDbDictionary
  3
STANDARD
350
13
  0
DICTIONARY
  5
353
102
{ACAD_REACTORS
330
C
102
}
330
C
100
AcDbDictionary
  0
ACDBDICTIONARYWDFLT
  5
350
102
{ACAD_REACTORS
330
C
102
}
330
C
100
AcDbDictionary
281
     1
  3
Normal
350
351
100
AcDbDictionaryWithDefault
340
351
1001
ACAD
1000
TREAT_AS_HARD
1070
     0
1000
TREAT_AS_HARD
1070
     0
1000
TREAT_AS_HARD
1070
     0
1000
TREAT_AS_HARD
1070
     0
1000
TREAT_AS_HARD
1070
     0
  0
DICTIONARY
  5
31EA
102
{ACAD_REACTORS
330
C
102
}
330
C
100
AcDbDictionary
  3
TSTACKALIGN
350
31EB
  3
TSTACKSIZE
350
31EC
  3
HYPERLINKBASE
350
31ED
  3
STYLESHEET
350
31EE
  3
LAYOUTDICT
350
31EF
  3
PLOTSETDICT
350
31F0
  3
PLOTSTYLNAMDICT
350
31F1
  3
LWETCUNION
350
31F2
  3
INSUNITS
350
31F3
  3
CEPSNTYPE
350
31F4
  3
FINGERPRINTGUID
350
31F5
  3
VERSIONGUID
350
31F6
  3
PSVPSCALE
350
31F7
  3
DIMSTYLEDATA
350
31F8
  3
PUCSORTHOREF
350
31F9
  3
PUCSORTHOVIEW
350
31FA
  3
PUCSBASE
350
31FB
  3
PUCSORGTOP
350
31FC
  3
PUCSORGBOTTOM
350
31FD
  3
PUCSORGLEFT
350
31FE
  3
PUCSORGRIGHT
350
31FF
  3
PUCSORGFRONT
350
3200
  3
PUCSORGBACK
350
3201
  3
UCSORTHOREF
350
3202
  3
UCSORTHOVIEW
350
3203
  3
UCSBASE
350
3204
  3
UCSORGTOP
350
3205
  3
UCSORGBOTTOM
350
3206
  3
UCSORGLEFT
350
3207
  3
UCSORGRIGHT
350
3208
  3
UCSORGFRONT
350
3209
  3
UCSORGBACK
350
320A
  0
DICTIONARY
  5
154E
102
{ACAD_REACTORS
330
154D
102
}
330
154D
100
AcDbDictionary
280
     1
  3
50
360
154F
  0
XRECORD
  5
320C
102
{ACAD_REACTORS
330
64B
102
}
330
64B
100
AcDbXrecord
340
1A
  0
XRECORD
  5
320B
102
{ACAD_REACTORS
330
649
102
}
330
649
100
AcDbXrecord
340
17
  0
GROUP
  5
FAF
102
{ACAD_REACTORS
330
D
102
}
330
D
100
AcDbGroup
300

 70
     1
 71
     1
  0
GROUP
  5
1546
102
{ACAD_REACTORS
330
D
102
}
330
D
100
AcDbGroup
300

 70
     1
 71
     1
340
13AC
340
1388
340
1387
340
1342
340
1341
340
133B
340
1383
340
13B1
340
1385
340
13AF
340
13AE
340
13B0
340
138B
340
138A
340
1389
340
1384
340
1382
340
13AD
340
13ED
340
13EC
340
13B8
340
13B7
340
1380
340
137A
340
1379
340
1378
340
1377
340
133A
340
13B6
340
1347
340
1346
340
1340
340
133F
340
133E
340
13DD
340
13DC
340
13D4
340
13D3
340
13DB
340
13D8
340
13DA
340
13D9
340
13D7
340
13DF
340
13D1
340
13CA
340
13C9
340
13C8
340
13C2
340
13CB
340
13CC
340
13D0
340
13CF
340
13CE
340
13E9
340
13E2
340
13C7
340
13E7
340
13D5
340
13C4
340
13E5
340
13E8
340
13E4
340
13E6
340
13DE
340
13D6
340
13EA
340
13C5
340
13C3
340
13CD
340
13C6
340
13C1
340
13E0
340
13EB
340
13E3
340
13E1
340
13D2
340
137C
340
137B
340
137E
340
137D
340
1339
340
137F
340
13EE
340
13EF
340
13F0
340
13F1
340
13F8
340
13F5
340
1343
340
133D
340
133C
340
140D
340
1405
340
1400
340
13FE
340
13F3
340
13AB
340
13A6
340
139F
340
1386
340
1345
340
1344
340
1338
340
1337
340
138F
340
138E
340
138D
340
1393
340
1394
340
1392
340
1391
340
1395
340
1390
340
1398
340
1397
340
1396
340
139E
340
1399
340
139D
340
139C
340
139B
340
13A0
340
138C
340
13A5
340
13A3
340
13A4
340
13A2
340
13A1
340
13AA
340
13A9
340
13A8
340
139A
340
13A7
340
13FC
340
13FB
340
13FA
340
13F9
340
13FF
340
13FD
340
1404
340
1403
340
1402
340
1401
340
1406
340
1407
340
140B
340
140A
340
1409
340
1408
340
140C
340
140E
340
13B3
340
13B2
340
1381
340
13B4
340
13B5
340
1419
340
141A
340
1418
340
1412
340
13F7
340
13F6
340
13F4
340
13F2
340
1410
340
140F
340
1411
340
1415
340
1414
340
1413
340
1416
340
1417
340
141B
  0
GROUP
  5
1B31
102
{ACAD_REACTORS
330
D
102
}
330
D
100
AcDbGroup
300

 70
     1
 71
     1
  0
GROUP
  5
1B32
102
{ACAD_REACTORS
330
D
102
}
330
D
100
AcDbGroup
300

 70
     1
 71
     1
  0
GROUP
  5
1BFF
102
{ACAD_REACTORS
330
D
102
}
330
D
100
AcDbGroup
300

 70
     1
 71
     1
  0
GROUP
  5
1C00
102
{ACAD_REACTORS
330
D
102
}
330
D
100
AcDbGroup
300

 70
     1
 71
     1
  0
GROUP
  5
1D2A
102
{ACAD_REACTORS
330
D
102
}
330
D
100
AcDbGroup
300

 70
     1
 71
     1
340
1D29
340
1D28
340
1C2C
  0
GROUP
  5
2014
102
{ACAD_REACTORS
330
D
102
}
330
D
100
AcDbGroup
300

 70
     1
 71
     1
340
2011
340
2012
340
2013
  0
MLINESTYLE
  5
13
102
{ACAD_REACTORS
330
E
102
}
330
E
100
AcDbMlineStyle
  2
STANDARD
 70
     0
  3

 62
     0
 51
90.0
 52
90.0
 71
     2
 49
0.5
 62
   256
  6
BYLAYER
 49
-0.5
 62
   256
  6
BYLAYER
  0
ACDBPLACEHOLDER
  5
351
102
{ACAD_REACTORS
330
350
102
}
330
350
100
AcDbPlaceHolder
280
     0
  0
XRECORD
  5
31EB
102
{ACAD_REACTORS
330
31EA
102
}
330
31EA
100
AcDbXrecord
 90
        1
  0
XRECORD
  5
31EC
102
{ACAD_REACTORS
330
31EA
102
}
330
31EA
100
AcDbXrecord
 90
       70
  0
XRECORD
  5
31ED
102
{ACAD_REACTORS
330
31EA
102
}
330
31EA
100
AcDbXrecord
  1

  0
XRECORD
  5
31EE
102
{ACAD_REACTORS
330
31EA
102
}
330
31EA
100
AcDbXrecord
  1
systemprinter.ctb
  0
XRECORD
  5
31EF
102
{ACAD_REACTORS
330
31EA
102
}
330
31EA
100
AcDbXrecord
340
352
  0
XRECORD
  5
31F0
102
{ACAD_REACTORS
330
31EA
102
}
330
31EA
100
AcDbXrecord
340
353
  0
XRECORD
  5
31F1
102
{ACAD_REACTORS
330
31EA
102
}
330
31EA
100
AcDbXrecord
340
350
  0
XRECORD
  5
31F2
102
{ACAD_REACTORS
330
31EA
102
}
330
31EA
100
AcDbXrecord
 90
    10781
  0
XRECORD
  5
31F3
102
{ACAD_REACTORS
330
31EA
102
}
330
31EA
100
AcDbXrecord
 90
        0
  0
XRECORD
  5
31F4
102
{ACAD_REACTORS
330
31EA
102
}
330
31EA
100
AcDbXrecord
 90
        0
  0
XRECORD
  5
31F5
102
{ACAD_REACTORS
330
31EA
102
}
330
31EA
100
AcDbXrecord
  1
{FE2B4833-B477-44F5-8DA5-88CB8407FFE5}
  0
XRECORD
  5
31F6
102
{ACAD_REACTORS
330
31EA
102
}
330
31EA
100
AcDbXrecord
  1
{F6FF83E8-4236-4B69-8FC7-A44EBF5573B4}
  0
XRECORD
  5
31F7
102
{ACAD_REACTORS
330
31EA
102
}
330
31EA
100
AcDbXrecord
 40
0.0
  0
XRECORD
  5
31F8
102
{ACAD_REACTORS
330
31EA
102
}
330
31EA
100
AcDbXrecord
1000
DSTYLE
1002
{
1070
   279
 70
     2
1070
   341
340
B2
1070
   343
340
B2
1070
   344
340
B2
1070
   371
 70
    -1
1070
   372
 70
    -1
1002
}
  0
XRECORD
  5
31F9
102
{ACAD_REACTORS
330
31EA
102
}
330
31EA
100
AcDbXrecord
340
0
  0
XRECORD
  5
31FA
102
{ACAD_REACTORS
330
31EA
102
}
330
31EA
100
AcDbXrecord
 70
     0
  0
XRECORD
  5
31FB
102
{ACAD_REACTORS
330
31EA
102
}
330
31EA
100
AcDbXrecord
340
0
  0
XRECORD
  5
31FC
102
{ACAD_REACTORS
330
31EA
102
}
330
31EA
100
AcDbXrecord
 10
0.0
 20
0.0
 30
0.0
  0
XRECORD
  5
31FD
102
{ACAD_REACTORS
330
31EA
102
}
330
31EA
100
AcDbXrecord
 10
0.0
 20
0.0
 30
0.0
  0
XRECORD
  5
31FE
102
{ACAD_REACTORS
330
31EA
102
}
330
31EA
100
AcDbXrecord
 10
0.0
 20
0.0
 30
0.0
  0
XRECORD
  5
31FF
102
{ACAD_REACTORS
330
31EA
102
}
330
31EA
100
AcDbXrecord
 10
0.0
 20
0.0
 30
0.0
  0
XRECORD
  5
3200
102
{ACAD_REACTORS
330
31EA
102
}
330
31EA
100
AcDbXrecord
 10
0.0
 20
0.0
 30
0.0
  0
XRECORD
  5
3201
102
{ACAD_REACTORS
330
31EA
102
}
330
31EA
100
AcDbXrecord
 10
0.0
 20
0.0
 30
0.0
  0
XRECORD
  5
3202
102
{ACAD_REACTORS
330
31EA
102
}
330
31EA
100
AcDbXrecord
340
0
  0
XRECORD
  5
3203
102
{ACAD_REACTORS
330
31EA
102
}
330
31EA
100
AcDbXrecord
 70
     0
  0
XRECORD
  5
3204
102
{ACAD_REACTORS
330
31EA
102
}
330
31EA
100
AcDbXrecord
340
0
  0
XRECORD
  5
3205
102
{ACAD_REACTORS
330
31EA
102
}
330
31EA
100
AcDbXrecord
 10
0.0
 20
0.0
 30
0.0
  0
XRECORD
  5
3206
102
{ACAD_REACTORS
330
31EA
102
}
330
31EA
100
AcDbXrecord
 10
0.0
 20
0.0
 30
0.0
  0
XRECORD
  5
3207
102
{ACAD_REACTORS
330
31EA
102
}
330
31EA
100
AcDbXrecord
 10
0.0
 20
0.0
 30
0.0
  0
XRECORD
  5
3208
102
{ACAD_REACTORS
330
31EA
102
}
330
31EA
100
AcDbXrecord
 10
0.0
 20
0.0
 30
0.0
  0
XRECORD
  5
3209
102
{ACAD_REACTORS
330
31EA
102
}
330
31EA
100
AcDbXrecord
 10
0.0
 20
0.0
 30
0.0
  0
XRECORD
  5
320A
102
{ACAD_REACTORS
330
31EA
102
}
330
31EA
100
AcDbXrecord
 10
0.0
 20
0.0
 30
0.0
  0
XRECORD
  5
154F
102
{ACAD_REACTORS
330
154E
102
}
330
154E
100
AcDbXrecord
  1
50
  1
*-50
  1
*
  1
*
 70
     0
  1
*
  1
*
  0
ENDSEC
  0
EOF
