  0
SECTION
  2
HEADER
  9
$ACADVER
  1
AC1015
  9
$ACADMAINTVER
 70
    20
  9
$DWGCODEPAGE
  3
ANSI_932
  9
$INSBASE
 10
0.0
 20
0.0
 30
0.0
  9
$EXTMIN
 10
5.0
 20
-225.3035601136833
 30
0.0
  9
$EXTMAX
 10
1361.4
 20
282.8000000000002
 30
0.0
  9
$LIMMIN
 10
0.0
 20
0.0
  9
$LIMMAX
 10
420.0
 20
297.0
  9
$ORTHOMODE
 70
     1
  9
$REGENMODE
 70
     1
  9
$FILLMODE
 70
     1
  9
$QTEXTMODE
 70
     0
  9
$MIRRTEXT
 70
     1
  9
$LTSCALE
 40
1.0
  9
$ATTMODE
 70
     1
  9
$TEXTSIZE
 40
2.5
  9
$TRACEWID
 40
1.0
  9
$TEXTSTYLE
  7
STANDARD
  9
$CLAYER
  8
0
  9
$CELTYPE
  6
BYLAYER
  9
$CECOLOR
 62
   256
  9
$CELTSCALE
 40
1.0
  9
$DISPSILH
 70
     0
  9
$DIMSCALE
 40
1.0
  9
$DIMASZ
 40
3.0
  9
$DIMEXO
 40
3.0
  9
$DIMDLI
 40
7.0
  9
$DIMRND
 40
0.0
  9
$DIMDLE
 40
0.0
  9
$DIMEXE
 40
1.5
  9
$DIMTP
 40
0.0
  9
$DIMTM
 40
0.0
  9
$DIMTXT
 40
3.0
  9
$DIMCEN
 40
150.0
  9
$DIMTSZ
 40
0.0
  9
$DIMTOL
 70
     0
  9
$DIMLIM
 70
     0
  9
$DIMTIH
 70
     0
  9
$DIMTOH
 70
     0
  9
$DIMSE1
 70
     0
  9
$DIMSE2
 70
     0
  9
$DIMTAD
 70
     3
  9
$DIMZIN
 70
     0
  9
$DIMBLK
  1

  9
$DIMASO
 70
     1
  9
$DIMSHO
 70
     1
  9
$DIMPOST
  1

  9
$DIMAPOST
  1

  9
$DIMALT
 70
     0
  9
$DIMALTD
 70
     2
  9
$DIMALTF
 40
25.4
  9
$DIMLFAC
 40
1.0
  9
$DIMTOFL
 70
     1
  9
$DIMTVP
 40
0.0
  9
$DIMTIX
 70
     0
  9
$DIMSOXD
 70
     0
  9
$DIMSAH
 70
     1
  9
$DIMBLK1
  1
OPEN
  9
$DIMBLK2
  1
OPEN
  9
$DIMSTYLE
  2
STANDARD
  9
$DIMCLRD
 70
   256
  9
$DIMCLRE
 70
   256
  9
$DIMCLRT
 70
   256
  9
$DIMTFAC
 40
1.0
  9
$DIMGAP
 40
1.0
  9
$DIMJUST
 70
     0
  9
$DIMSD1
 70
     0
  9
$DIMSD2
 70
     0
  9
$DIMTOLJ
 70
     1
  9
$DIMTZIN
 70
     0
  9
$DIMALTZ
 70
     0
  9
$DIMALTTZ
 70
     0
  9
$DIMUPT
 70
     0
  9
$DIMDEC
 70
     0
  9
$DIMTDEC
 70
     0
  9
$DIMALTU
 70
     2
  9
$DIMALTTD
 70
     2
  9
$DIMTXSTY
  7
STANDARD
  9
$DIMAUNIT
 70
     0
  9
$DIMADEC
 70
     0
  9
$DIMALTRND
 40
0.0
  9
$DIMAZIN
 70
     0
  9
$DIMDSEP
 70
    46
  9
$DIMATFIT
 70
     3
  9
$DIMFRAC
 70
     0
  9
$DIMLDRBLK
  1
OPEN
  9
$DIMLUNIT
 70
     2
  9
$DIMLWD
 70
    -1
  9
$DIMLWE
 70
    -1
  9
$DIMTMOVE
 70
     0
  9
$LUNITS
 70
     2
  9
$LUPREC
 70
     4
  9
$SKETCHINC
 40
1.0
  9
$FILLETRAD
 40
2.0
  9
$AUNITS
 70
     0
  9
$AUPREC
 70
     0
  9
$MENU
  1
.
  9
$ELEVATION
 40
0.0
  9
$PELEVATION
 40
0.0
  9
$THICKNESS
 40
0.0
  9
$LIMCHECK
 70
     0
  9
$CHAMFERA
 40
10.0
  9
$CHAMFERB
 40
10.0
  9
$CHAMFERC
 40
20.0
  9
$CHAMFERD
 40
0.0
  9
$SKPOLY
 70
     0
  9
$TDCREATE
 40
2450994.350997107
  9
$TDUCREATE
 40
2450993.975997107
  9
$TDUPDATE
 40
2460269.675660382
  9
$TDUUPDATE
 40
2460269.300660382
  9
$TDINDWG
 40
0.0737594907
  9
$TDUSRTIMER
 40
0.0737594907
  9
$USRTIMER
 70
     1
  9
$ANGBASE
 50
0.0
  9
$ANGDIR
 70
     0
  9
$PDMODE
 70
     0
  9
$PDSIZE
 40
0.0
  9
$PLINEWID
 40
0.0
  9
$SPLFRAME
 70
     0
  9
$SPLINETYPE
 70
     6
  9
$SPLINESEGS
 70
     8
  9
$HANDSEED
  5
12C0
  9
$SURFTAB1
 70
     6
  9
$SURFTAB2
 70
     6
  9
$SURFTYPE
 70
     6
  9
$SURFU
 70
     6
  9
$SURFV
 70
     6
  9
$UCSBASE
  2

  9
$UCSNAME
  2

  9
$UCSORG
 10
0.0
 20
0.0
 30
0.0
  9
$UCSXDIR
 10
1.0
 20
0.0
 30
0.0
  9
$UCSYDIR
 10
0.0
 20
1.0
 30
0.0
  9
$UCSORTHOREF
  2

  9
$UCSORTHOVIEW
 70
     0
  9
$UCSORGTOP
 10
0.0
 20
0.0
 30
0.0
  9
$UCSORGBOTTOM
 10
0.0
 20
0.0
 30
0.0
  9
$UCSORGLEFT
 10
0.0
 20
0.0
 30
0.0
  9
$UCSORGRIGHT
 10
0.0
 20
0.0
 30
0.0
  9
$UCSORGFRONT
 10
0.0
 20
0.0
 30
0.0
  9
$UCSORGBACK
 10
0.0
 20
0.0
 30
0.0
  9
$PUCSBASE
  2

  9
$PUCSNAME
  2

  9
$PUCSORG
 10
0.0
 20
0.0
 30
0.0
  9
$PUCSXDIR
 10
1.0
 20
0.0
 30
0.0
  9
$PUCSYDIR
 10
0.0
 20
1.0
 30
0.0
  9
$PUCSORTHOREF
  2

  9
$PUCSORTHOVIEW
 70
     0
  9
$PUCSORGTOP
 10
0.0
 20
0.0
 30
0.0
  9
$PUCSORGBOTTOM
 10
0.0
 20
0.0
 30
0.0
  9
$PUCSORGLEFT
 10
0.0
 20
0.0
 30
0.0
  9
$PUCSORGRIGHT
 10
0.0
 20
0.0
 30
0.0
  9
$PUCSORGFRONT
 10
0.0
 20
0.0
 30
0.0
  9
$PUCSORGBACK
 10
0.0
 20
0.0
 30
0.0
  9
$USERI1
 70
     0
  9
$USERI2
 70
     0
  9
$USERI3
 70
     0
  9
$USERI4
 70
     0
  9
$USERI5
 70
     0
  9
$USERR1
 40
0.0
  9
$USERR2
 40
0.0
  9
$USERR3
 40
0.0
  9
$USERR4
 40
0.0
  9
$USERR5
 40
0.0
  9
$WORLDVIEW
 70
     1
  9
$SHADEDGE
 70
     3
  9
$SHADEDIF
 70
    70
  9
$TILEMODE
 70
     1
  9
$MAXACTVP
 70
    16
  9
$PINSBASE
 10
0.0
 20
0.0
 30
0.0
  9
$PLIMCHECK
 70
     0
  9
$PEXTMIN
 10
0.0
 20
0.0
 30
0.0
  9
$PEXTMAX
 10
420.0
 20
297.0
 30
0.0
  9
$PLIMMIN
 10
0.0
 20
0.0
  9
$PLIMMAX
 10
420.0
 20
297.0
  9
$UNITMODE
 70
     0
  9
$VISRETAIN
 70
     0
  9
$PLINEGEN
 70
     0
  9
$PSLTSCALE
 70
     1
  9
$TREEDEPTH
 70
  3020
  9
$CMLSTYLE
  2
STANDARD
  9
$CMLJUST
 70
     0
  9
$CMLSCALE
 40
1.0
  9
$PROXYGRAPHICS
 70
     1
  9
$MEASUREMENT
 70
     1
  9
$CELWEIGHT
370
    -1
  9
$ENDCAPS
280
     0
  9
$JOINSTYLE
280
     0
  9
$LWDISPLAY
290
     0
  9
$INSUNITS
 70
     0
  9
$HYPERLINKBASE
  1

  9
$STYLESHEET
  1
print.ctb
  9
$XEDIT
290
     1
  9
$CEPSNTYPE
380
     0
  9
$PSTYLEMODE
290
     1
  9
$FINGERPRINTGUID
  2
{82FDD278-AA6F-4D36-9138-12B8559949E7}
  9
$VERSIONGUID
  2
{E08CD3CE-ED13-434F-81F8-C9C81CDAC7C9}
  9
$EXTNAMES
290
     1
  9
$PSVPSCALE
 40
0.0
  9
$OLESTARTUP
290
     0
  0
ENDSEC
  0
SECTION
  2
CLASSES
  0
CLASS
  1
ACDBDICTIONARYWDFLT
  2
AcDbDictionaryWithDefault
  3
ObjectDBX Classes
 90
        0
280
     0
281
     0
  0
CLASS
  1
ACDBPLACEHOLDER
  2
AcDbPlaceHolder
  3
ObjectDBX Classes
 90
        0
280
     0
281
     0
  0
CLASS
  1
LAYOUT
  2
AcDbLayout
  3
ObjectDBX Classes
 90
        0
280
     0
281
     0
  0
CLASS
  1
SORTENTSTABLE
  2
AcDbSortentsTable
  3
ObjectDBX Classes
 90
        0
280
     0
281
     0
  0
CLASS
  1
DICTIONARYVAR
  2
AcDbDictionaryVar
  3
ObjectDBX Classes
 90
        0
280
     0
281
     0
  0
ENDSEC
  0
SECTION
  2
TABLES
  0
TABLE
  2
VPORT
  5
8
330
0
100
AcDbSymbolTable
 70
    10
  0
VPORT
  5
12B4
330
8
100
AcDbSymbolTableRecord
100
AcDbViewportTableRecord
  2
*Active
 70
     0
 10
0.0
 20
0.0
 11
1.0
 21
1.0
 12
187.2574749639709
 22
136.9468195980058
 13
0.0
 23
0.0
 14
5.0
 24
5.0
 15
0.0
 25
0.0
 16
0.0
 26
0.0
 36
1.0
 17
0.0
 27
0.0
 37
0.0
 40
350.2819782801073
 41
1.802298850574712
 42
50.0
 43
0.0
 44
0.0
 50
0.0
 51
0.0
 71
     0
 72
   100
 73
     1
 74
     0
 75
     0
 76
     0
 77
     0
 78
     0
281
     0
 65
     1
110
0.0
120
0.0
130
0.0
111
1.0
121
0.0
131
0.0
112
0.0
122
1.0
132
0.0
 79
     0
146
0.0
  0
ENDTAB
  0
TABLE
  2
LTYPE
  5
5
330
0
100
AcDbSymbolTable
 70
     4
  0
LTYPE
  5
14
330
5
100
AcDbSymbolTableRecord
100
AcDbLinetypeTableRecord
  2
BYBLOCK
 70
     0
  3

 72
    65
 73
     0
 40
0.0
  0
LTYPE
  5
15
330
5
100
AcDbSymbolTableRecord
100
AcDbLinetypeTableRecord
  2
BYLAYER
 70
     0
  3

 72
    65
 73
     0
 40
0.0
  0
LTYPE
  5
16
330
5
100
AcDbSymbolTableRecord
100
AcDbLinetypeTableRecord
  2
CONTINUOUS
 70
     0
  3
Solid line
 72
    65
 73
     0
 40
0.0
  0
LTYPE
  5
120
330
5
100
AcDbSymbolTableRecord
100
AcDbLinetypeTableRecord
  2
CENTER
 70
     0
  3
____ _ ____ _ ____ _ ____ _ ____ _ ____ _ ____ 
 72
    65
 73
     4
 40
2.0
 49
1.25
 74
     0
 49
-0.25
 74
     0
 49
0.25
 74
     0
 49
-0.25
 74
     0
  0
LTYPE
  5
1024
330
5
100
AcDbSymbolTableRecord
100
AcDbLinetypeTableRecord
  2
ACAD_ISO02W100
 70
     0
  3
ISO dash __ __ __ __ __ __ __ __ __ __ __ __ __
 72
    65
 73
     2
 40
15.0
 49
12.0
 74
     0
 49
-3.0
 74
     0
  0
LTYPE
  5
1025
330
5
100
AcDbSymbolTableRecord
100
AcDbLinetypeTableRecord
  2
DASHED2
 70
     0
  3
Dashed (.5x) _ _ _ _ _ _ _ _ _ _ _ _ _ _ _ _ _
 72
    65
 73
     2
 40
9.524999999999998
 49
6.349999999999999
 74
     0
 49
-3.174999999999999
 74
     0
  0
ENDTAB
  0
TABLE
  2
LAYER
  5
2
102
{ACAD_XDICTIONARY
360
102D
102
}
330
0
100
AcDbSymbolTable
 70
    10
  0
LAYER
  5
F
330
2
100
AcDbSymbolTableRecord
100
AcDbLayerTableRecord
  2
0
 70
     0
 62
     7
  6
CONTINUOUS
370
    -3
390
287
  0
LAYER
  5
62
330
2
100
AcDbSymbolTableRecord
100
AcDbLayerTableRecord
  2
VIEWPORT
 70
     0
 62
     7
  6
CONTINUOUS
370
    -3
390
287
  0
LAYER
  5
6B
330
2
100
AcDbSymbolTableRecord
100
AcDbLayerTableRecord
  2
ZUWAKU
 70
     0
 62
     7
  6
CONTINUOUS
370
    -3
390
287
  0
LAYER
  5
140
330
2
100
AcDbSymbolTableRecord
100
AcDbLayerTableRecord
  2
SEIHIN
 70
     0
 62
     3
  6
CONTINUOUS
370
    -3
390
287
  0
LAYER
  5
141
330
2
100
AcDbSymbolTableRecord
100
AcDbLayerTableRecord
  2
SUNPOU
 70
     0
 62
     4
  6
CONTINUOUS
370
    -3
390
287
  0
LAYER
  5
142
330
2
100
AcDbSymbolTableRecord
100
AcDbLayerTableRecord
  2
CENTER L
 70
     0
 62
     1
  6
CENTER
370
    -3
390
287
  0
LAYER
  5
1DB
330
2
100
AcDbSymbolTableRecord
100
AcDbLayerTableRecord
  2
DEFPOINTS
 70
     0
 62
     7
  6
CONTINUOUS
290
     0
370
    -3
390
287
  0
LAYER
  5
905
330
2
100
AcDbSymbolTableRecord
100
AcDbLayerTableRecord
  2
moji
 70
     0
 62
     2
  6
CONTINUOUS
370
    -3
390
287
  0
LAYER
  5
1026
102
{ACAD_XDICTIONARY
360
1027
102
}
330
2
100
AcDbSymbolTableRecord
100
AcDbLayerTableRecord
  2
図枠
 70
     0
 62
     7
  6
CONTINUOUS
370
    -3
390
287
  0
LAYER
  5
1028
102
{ACAD_XDICTIONARY
360
1029
102
}
330
2
100
AcDbSymbolTableRecord
100
AcDbLayerTableRecord
  2
修正履歴
 70
     0
 62
     6
  6
ACAD_ISO02W100
370
    -3
390
287
1001
AcAecLayerStandard
1000

1000

1001
AcCmTransparency
1071
        0
  0
ENDTAB
  0
TABLE
  2
STYLE
  5
3
330
0
100
AcDbSymbolTable
 70
     3
  0
STYLE
  5
10
330
3
100
AcDbSymbolTableRecord
100
AcDbTextStyleTableRecord
  2
STANDARD
 70
     0
 40
0.0
 41
1.0
 50
0.0
 71
     0
 42
2.5
  3
TXT
  4
bigfont.shx
  0
STYLE
  5
906
330
3
100
AcDbSymbolTableRecord
100
AcDbTextStyleTableRecord
  2
ｽﾀｲﾙ1
 70
     0
 40
0.0
 41
1.0
 50
0.0
 71
     0
 42
2.5
  3

  4

1001
ACAD
1000
MS PGothic
1071
    32818
  0
STYLE
  5
102A
330
3
100
AcDbSymbolTableRecord
100
AcDbTextStyleTableRecord
  2
MSPｺﾞｼｯｸ
 70
     0
 40
0.0
 41
1.0
 50
0.0
 71
     0
 42
2.5
  3

  4

1001
ACAD
1000
MS PGothic
1071
    32818
  0
ENDTAB
  0
TABLE
  2
VIEW
  5
6
330
0
100
AcDbSymbolTable
 70
     0
  0
ENDTAB
  0
TABLE
  2
UCS
  5
7
330
0
100
AcDbSymbolTable
 70
     0
  0
ENDTAB
  0
TABLE
  2
APPID
  5
9
330
0
100
AcDbSymbolTable
 70
     3
  0
APPID
  5
11
330
9
100
AcDbSymbolTableRecord
100
AcDbRegAppTableRecord
  2
ACAD
 70
     0
  0
APPID
  5
102B
330
9
100
AcDbSymbolTableRecord
100
AcDbRegAppTableRecord
  2
AcAecLayerStandard
 70
     0
  0
APPID
  5
102C
330
9
100
AcDbSymbolTableRecord
100
AcDbRegAppTableRecord
  2
AcCmTransparency
 70
     0
  0
ENDTAB
  0
TABLE
  2
DIMSTYLE
  5
A
330
0
100
AcDbSymbolTable
 70
     1
100
AcDbDimStyleTable
 71
     0
  0
DIMSTYLE
105
1D
102
{ACAD_REACTORS
330
3BB
330
3BA
330
496
330
4B0
330
61F
330
61E
330
684
330
110D
330
110C
330
1105
330
1104
330
10FC
330
10FB
330
10F1
102
}
330
A
100
AcDbSymbolTableRecord
100
AcDbDimStyleTableRecord
  2
STANDARD
 70
     0
340
10
  0
ENDTAB
  0
TABLE
  2
BLOCK_RECORD
  5
1
330
0
100
AcDbSymbolTable
 70
    20
  0
BLOCK_RECORD
  5
1A
102
{ACAD_XDICTIONARY
360
2BC
102
}
330
1
100
AcDbSymbolTableRecord
100
AcDbBlockTableRecord
  2
*MODEL_SPACE
340
28A
  0
BLOCK_RECORD
  5
17
102
{ACAD_XDICTIONARY
360
2BA
102
}
330
1
100
AcDbSymbolTableRecord
100
AcDbBlockTableRecord
  2
*PAPER_SPACE
340
28B
  0
BLOCK_RECORD
  5
B2
330
1
100
AcDbSymbolTableRecord
100
AcDbBlockTableRecord
  2
_OPEN
340
0
102
{BLKREFS
331
EA5
331
EA6
331
E9C
331
E9D
331
EB6
331
EB7
331
EC7
331
EC8
331
ED0
331
ED1
331
1197
331
1198
331
11A8
331
11A9
331
11B1
331
11B2
331
11C2
331
11C3
331
11CB
331
11CC
331
1263
331
1264
331
127E
331
127F
331
1290
331
1291
331
12A2
331
12A3
102
}
  0
BLOCK_RECORD
  5
3BC
330
1
100
AcDbSymbolTableRecord
100
AcDbBlockTableRecord
  2
*D1
340
0
  0
BLOCK_RECORD
  5
3C7
330
1
100
AcDbSymbolTableRecord
100
AcDbBlockTableRecord
  2
*D2
340
0
  0
BLOCK_RECORD
  5
497
330
1
100
AcDbSymbolTableRecord
100
AcDbBlockTableRecord
  2
*D3
340
0
  0
BLOCK_RECORD
  5
4B1
330
1
100
AcDbSymbolTableRecord
100
AcDbBlockTableRecord
  2
*D4
340
0
  0
BLOCK_RECORD
  5
620
330
1
100
AcDbSymbolTableRecord
100
AcDbBlockTableRecord
  2
*D5
340
0
  0
BLOCK_RECORD
  5
62C
330
1
100
AcDbSymbolTableRecord
100
AcDbBlockTableRecord
  2
*D6
340
0
  0
BLOCK_RECORD
  5
685
330
1
100
AcDbSymbolTableRecord
100
AcDbBlockTableRecord
  2
*D7
340
0
  0
BLOCK_RECORD
  5
A46
330
1
100
AcDbSymbolTableRecord
100
AcDbBlockTableRecord
  2
*X8
340
0
102
{BLKREFS
331
CD4
331
10E1
102
}
  0
BLOCK_RECORD
  5
FFF
102
{ACAD_XDICTIONARY
360
1000
102
}
330
1
100
AcDbSymbolTableRecord
100
AcDbBlockTableRecord
  2
A$C00BA3E29
340
0
102
{BLKREFS
331
1032
331
1042
102
}
  0
BLOCK_RECORD
  5
1008
102
{ACAD_XDICTIONARY
360
1009
102
}
330
1
100
AcDbSymbolTableRecord
100
AcDbBlockTableRecord
  2
A$C36686642
340
0
102
{BLKREFS
331
1033
331
1043
102
}
  0
BLOCK_RECORD
  5
1142
330
1
100
AcDbSymbolTableRecord
100
AcDbBlockTableRecord
  2
*D12
340
0
  0
BLOCK_RECORD
  5
114E
330
1
100
AcDbSymbolTableRecord
100
AcDbBlockTableRecord
  2
*D13
340
0
  0
BLOCK_RECORD
  5
1159
330
1
100
AcDbSymbolTableRecord
100
AcDbBlockTableRecord
  2
*D14
340
0
  0
BLOCK_RECORD
  5
1165
330
1
100
AcDbSymbolTableRecord
100
AcDbBlockTableRecord
  2
*D15
340
0
  0
BLOCK_RECORD
  5
1171
330
1
100
AcDbSymbolTableRecord
100
AcDbBlockTableRecord
  2
*D16
340
0
  0
BLOCK_RECORD
  5
117C
330
1
100
AcDbSymbolTableRecord
100
AcDbBlockTableRecord
  2
*D17
340
0
  0
BLOCK_RECORD
  5
1188
330
1
100
AcDbSymbolTableRecord
100
AcDbBlockTableRecord
  2
*D18
340
0
  0
ENDTAB
  0
ENDSEC
  0
SECTION
  2
BLOCKS
  0
BLOCK
  5
1B
330
1A
100
AcDbEntity
  8
0
100
AcDbBlockBegin
  2
*MODEL_SPACE
 70
     0
 10
0.0
 20
0.0
 30
0.0
  3
*MODEL_SPACE
  1

  0
ENDBLK
  5
1C
330
1A
100
AcDbEntity
  8
0
100
AcDbBlockEnd
  0
BLOCK
  5
18
330
17
100
AcDbEntity
 67
     1
  8
0
100
AcDbBlockBegin
  2
*PAPER_SPACE
 70
     0
 10
0.0
 20
0.0
 30
0.0
  3
*PAPER_SPACE
  1

  0
ENDBLK
  5
19
330
17
100
AcDbEntity
 67
     1
  8
0
100
AcDbBlockEnd
  0
BLOCK
  5
B3
330
B2
100
AcDbEntity
  8
0
100
AcDbBlockBegin
  2
_OPEN
 70
     0
 10
0.0
 20
0.0
 30
0.0
  3
_OPEN
  1

  0
LINE
  5
B4
330
B2
100
AcDbEntity
  8
0
  6
ByBlock
 62
     0
100
AcDbLine
 10
-1.0
 20
0.1666666666666666
 30
0.0
 11
0.0
 21
0.0
 31
0.0
  0
LINE
  5
B5
330
B2
100
AcDbEntity
  8
0
  6
ByBlock
 62
     0
100
AcDbLine
 10
0.0
 20
0.0
 30
0.0
 11
-1.0
 21
-0.1666666666666666
 31
0.0
  0
LINE
  5
B6
330
B2
100
AcDbEntity
  8
0
  6
ByBlock
 62
     0
100
AcDbLine
 10
0.0
 20
0.0
 30
0.0
 11
-1.0
 21
0.0
 31
0.0
  0
ENDBLK
  5
B7
330
B2
100
AcDbEntity
  8
0
100
AcDbBlockEnd
  0
BLOCK
  5
3C5
330
3BC
100
AcDbEntity
  8
0
100
AcDbBlockBegin
  2
*D1
 70
     1
 10
0.0
 20
0.0
 30
0.0
  3
*D1
  1

  0
LINE
  5
127B
330
3BC
100
AcDbEntity
  8
SUNPOU
  6
Continuous
 62
     4
370
    -2
100
AcDbLine
 10
273.0630840622769
 20
61.24645246741986
 30
0.0
 11
273.0630208351179
 21
42.58388165769584
 31
0.0
  0
LINE
  5
127C
330
3BC
100
AcDbEntity
  8
SUNPOU
  6
Continuous
 62
     4
370
    -2
100
AcDbLine
 10
107.212983924596
 20
60.24615246636368
 30
0.0
 11
107.2129240882695
 21
42.58444354333057
 31
0.0
  0
LINE
  5
127D
330
3BC
100
AcDbEntity
  8
SUNPOU
  6
Continuous
 62
     4
370
    -2
100
AcDbLine
 10
270.063025917004
 20
44.08389182142507
 30
0.0
 11
110.2129291701212
 21
44.08443337958412
 31
0.0
  0
INSERT
  5
127E
330
3BC
100
AcDbEntity
  8
SUNPOU
  6
Continuous
 62
     4
370
    -2
100
AcDbBlockReference
  2
_OPEN
 10
273.0630259169867
 20
44.08388165768723
 30
0.0
 41
3.0
 42
3.0
 43
3.0
 50
359.9998058869059
  0
INSERT
  5
127F
330
3BC
100
AcDbEntity
  8
SUNPOU
  6
Continuous
 62
     4
370
    -2
100
AcDbBlockReference
  2
_OPEN
 10
107.2129291701385
 20
44.08444354332196
 30
0.0
 41
3.0
 42
3.0
 43
3.0
 50
179.9998058869058
  0
MTEXT
  5
1280
330
3BC
100
AcDbEntity
  8
SUNPOU
  6
Continuous
 62
     4
100
AcDbMText
 10
190.1379860133442
 20
46.58416260049025
 30
0.0
 40
3.0
 41
0.0
 71
     5
 72
     1
  1
\A1;φ165.85
 11
0.9999999999942609
 21
-0.0000033879126136
 31
0.0
 73
     1
 44
1.0
1001
ACAD
1000
MTEXTBEGIN
1070
    73
1070
     1
1070
    44
1040
1.0
1070
    74
1070
     0
1000
MTEXTEND
  0
POINT
  5
1281
330
3BC
100
AcDbEntity
  8
DEFPOINTS
  6
Continuous
 62
     0
100
AcDbPoint
 10
273.0630942260148
 20
64.24645246740265
 30
0.0
  0
POINT
  5
1282
330
3BC
100
AcDbEntity
  8
DEFPOINTS
  6
Continuous
 62
     0
100
AcDbPoint
 10
107.2129940883338
 20
63.24615246634646
 30
0.0
  0
POINT
  5
1283
330
3BC
100
AcDbEntity
  8
DEFPOINTS
  6
Continuous
 62
     0
100
AcDbPoint
 10
107.2129291701385
 20
44.08444354332196
 30
0.0
  0
ENDBLK
  5
3C6
330
3BC
100
AcDbEntity
  8
0
100
AcDbBlockEnd
  0
BLOCK
  5
3D1
330
3C7
100
AcDbEntity
  8
0
100
AcDbBlockBegin
  2
*D2
 70
     1
 10
0.0
 20
0.0
 30
0.0
  3
*D2
  1

  0
LINE
  5
EA2
330
3C7
100
AcDbEntity
  8
SUNPOU
  6
Continuous
 62
     4
370
    -2
100
AcDbLine
 10
278.6880806743318
 20
60.24643341041704
 30
0.0
 11
278.6879873938017
 21
32.71309924715132
 31
0.0
  0
LINE
  5
EA3
330
3C7
100
AcDbEntity
  8
SUNPOU
  6
Continuous
 62
     4
370
    -2
100
AcDbLine
 10
101.5879806746708
 20
60.24683341007837
 30
0.0
 11
101.5878873948183
 21
32.71369924681398
 31
0.0
  0
LINE
  5
EA4
330
3C7
100
AcDbEntity
  8
SUNPOU
  6
Continuous
 62
     4
370
    -2
100
AcDbLine
 10
275.6879924756879
 20
34.21310941088056
 30
0.0
 11
104.58789247667
 21
34.21368908306753
 31
0.0
  0
INSERT
  5
EA5
330
3C7
100
AcDbEntity
  8
SUNPOU
  6
Continuous
 62
     4
370
    -2
100
AcDbBlockReference
  2
_OPEN
 10
278.6879924756707
 20
34.21309924714272
 30
0.0
 41
3.0
 42
3.0
 43
3.0
 50
359.9998058869059
  0
INSERT
  5
EA6
330
3C7
100
AcDbEntity
  8
SUNPOU
  6
Continuous
 62
     4
370
    -2
100
AcDbBlockReference
  2
_OPEN
 10
101.5878924766872
 20
34.21369924680537
 30
0.0
 41
3.0
 42
3.0
 43
3.0
 50
179.9998058869058
  0
MTEXT
  5
EA7
330
3C7
100
AcDbEntity
  8
SUNPOU
  6
Continuous
 62
     4
100
AcDbMText
 10
190.1379509459605
 20
36.7133992469597
 30
0.0
 40
3.0
 41
0.0
 71
     5
 72
     5
  1
\A1;\U+03c6177
 11
0.9999999999942609
 21
-0.0000033879126136
 31
0.0
 73
     1
 44
1.0
1001
ACAD
1000
MTEXTBEGIN
1070
    73
1070
     1
1070
    44
1040
1.0
1070
    74
1070
     0
1000
MTEXTEND
  0
POINT
  5
EA8
330
3C7
100
AcDbEntity
  8
DEFPOINTS
  6
Continuous
 62
     0
100
AcDbPoint
 10
278.6880908380697
 20
63.24643341039982
 30
0.0
  0
POINT
  5
EA9
330
3C7
100
AcDbEntity
  8
DEFPOINTS
  6
Continuous
 62
     0
100
AcDbPoint
 10
101.5879908384087
 20
63.24683341006116
 30
0.0
  0
POINT
  5
EAA
330
3C7
100
AcDbEntity
  8
DEFPOINTS
  6
Continuous
 62
     0
100
AcDbPoint
 10
101.5878924766872
 20
34.21369924680537
 30
0.0
  0
ENDBLK
  5
3D2
330
3C7
100
AcDbEntity
  8
0
100
AcDbBlockEnd
  0
BLOCK
  5
4A1
330
497
100
AcDbEntity
  8
0
100
AcDbBlockBegin
  2
*D3
 70
     1
 10
0.0
 20
0.0
 30
0.0
  3
*D3
  1

  0
LINE
  5
E99
330
497
100
AcDbEntity
  8
SUNPOU
100
AcDbLine
 10
268.0879732390923
 20
233.2461397653506
 30
0.0
 11
326.2880563739184
 21
233.2461397653505
 31
0.0
  0
LINE
  5
E9A
330
497
100
AcDbEntity
  8
SUNPOU
100
AcDbLine
 10
281.6880908380698
 20
63.24643341039982
 30
0.0
 11
326.2880563739184
 21
63.24643341039981
 31
0.0
  0
LINE
  5
E9B
330
497
100
AcDbEntity
  8
SUNPOU
100
AcDbLine
 10
324.7880563739184
 20
230.2461397653505
 30
0.0
 11
324.7880563739184
 21
66.2464334103998
 31
0.0
  0
INSERT
  5
E9C
330
497
100
AcDbEntity
  8
SUNPOU
100
AcDbBlockReference
  2
_OPEN
 10
324.7880563739184
 20
233.2461397653505
 30
0.0
 41
3.0
 42
3.0
 43
3.0
 50
90.0
  0
INSERT
  5
E9D
330
497
100
AcDbEntity
  8
SUNPOU
100
AcDbBlockReference
  2
_OPEN
 10
324.7880563739184
 20
63.24643341039981
 30
0.0
 41
3.0
 42
3.0
 43
3.0
 50
270.0
  0
MTEXT
  5
E9E
330
497
100
AcDbEntity
  8
SUNPOU
100
AcDbMText
 10
322.2880563739184
 20
148.2462865878752
 30
0.0
 40
3.0
 41
0.0
 71
     5
 72
     5
  1
\A1;170
 11
0.0000000000000001
 21
1.0
 31
0.0
 73
     1
 44
1.0
1001
ACAD
1000
MTEXTBEGIN
1070
    73
1070
     1
1070
    44
1040
1.0
1070
    74
1070
     0
1000
MTEXTEND
  0
POINT
  5
E9F
330
497
100
AcDbEntity
  8
DEFPOINTS
 62
     0
100
AcDbPoint
 10
265.0879732390923
 20
233.2461397653506
 30
0.0
  0
POINT
  5
EA0
330
497
100
AcDbEntity
  8
DEFPOINTS
 62
     0
100
AcDbPoint
 10
278.6880908380697
 20
63.24643341039982
 30
0.0
  0
POINT
  5
EA1
330
497
100
AcDbEntity
  8
DEFPOINTS
 62
     0
100
AcDbPoint
 10
324.7880563739184
 20
63.24643341039981
 30
0.0
  0
ENDBLK
  5
4A2
330
497
100
AcDbEntity
  8
0
100
AcDbBlockEnd
  0
BLOCK
  5
4BB
330
4B1
100
AcDbEntity
  8
0
100
AcDbBlockBegin
  2
*D4
 70
     1
 10
0.0
 20
0.0
 30
0.0
  3
*D4
  1

  0
LINE
  5
EB3
330
4B1
100
AcDbEntity
  8
SUNPOU
100
AcDbLine
 10
275.2683686469035
 20
143.2465334102681
 30
0.0
 11
315.0442688782335
 21
143.2465334102681
 31
0.0
  0
LINE
  5
EB4
330
4B1
100
AcDbEntity
  8
SUNPOU
100
AcDbLine
 10
281.6880908380698
 20
63.24643341039982
 30
0.0
 11
315.0442688782334
 21
63.24643341039981
 31
0.0
  0
LINE
  5
EB5
330
4B1
100
AcDbEntity
  8
SUNPOU
100
AcDbLine
 10
313.5442688782335
 20
140.2465334102681
 30
0.0
 11
313.5442688782334
 21
66.2464334103998
 31
0.0
  0
INSERT
  5
EB6
330
4B1
100
AcDbEntity
  8
SUNPOU
100
AcDbBlockReference
  2
_OPEN
 10
313.5442688782335
 20
143.2465334102681
 30
0.0
 41
3.0
 42
3.0
 43
3.0
 50
90.0
  0
INSERT
  5
EB7
330
4B1
100
AcDbEntity
  8
SUNPOU
100
AcDbBlockReference
  2
_OPEN
 10
313.5442688782334
 20
63.24643341039981
 30
0.0
 41
3.0
 42
3.0
 43
3.0
 50
270.0
  0
MTEXT
  5
EB8
330
4B1
100
AcDbEntity
  8
SUNPOU
100
AcDbMText
 10
311.0442688782334
 20
103.246483410334
 30
0.0
 40
3.0
 41
0.0
 71
     5
 72
     5
  1
\A1;80
 11
0.0000000000000001
 21
1.0
 31
0.0
 73
     1
 44
1.0
1001
ACAD
1000
MTEXTBEGIN
1070
    73
1070
     1
1070
    44
1040
1.0
1070
    74
1070
     0
1000
MTEXTEND
  0
POINT
  5
EB9
330
4B1
100
AcDbEntity
  8
DEFPOINTS
 62
     0
100
AcDbPoint
 10
272.2683686469035
 20
143.2465334102681
 30
0.0
  0
POINT
  5
EBA
330
4B1
100
AcDbEntity
  8
DEFPOINTS
 62
     0
100
AcDbPoint
 10
278.6880908380697
 20
63.24643341039982
 30
0.0
  0
POINT
  5
EBB
330
4B1
100
AcDbEntity
  8
DEFPOINTS
 62
     0
100
AcDbPoint
 10
313.5442688782334
 20
63.24643341039981
 30
0.0
  0
ENDBLK
  5
4BC
330
4B1
100
AcDbEntity
  8
0
100
AcDbBlockEnd
  0
BLOCK
  5
62A
330
620
100
AcDbEntity
  8
0
100
AcDbBlockBegin
  2
*D5
 70
     1
 10
0.0
 20
0.0
 30
0.0
  3
*D5
  1

  0
LINE
  5
EC4
330
620
100
AcDbEntity
  8
SUNPOU
  6
Continuous
 62
     4
370
    -2
100
AcDbLine
 10
251.0377927017602
 20
236.2464334092926
 30
0.0
 11
251.0377927017602
 21
263.6660913013021
 31
0.0
  0
LINE
  5
EC5
330
620
100
AcDbEntity
  8
SUNPOU
  6
Continuous
 62
     4
370
    -2
100
AcDbLine
 10
129.2377927017603
 20
236.2465334092926
 30
0.0
 11
129.2377927017603
 21
263.6660913013021
 31
0.0
  0
LINE
  5
EC6
330
620
100
AcDbEntity
  8
SUNPOU
  6
Continuous
 62
     4
370
    -2
100
AcDbLine
 10
248.0377927017602
 20
262.1660913013021
 30
0.0
 11
132.2377927017603
 21
262.1660913013021
 31
0.0
  0
INSERT
  5
EC7
330
620
100
AcDbEntity
  8
SUNPOU
  6
Continuous
 62
     4
370
    -2
100
AcDbBlockReference
  2
_OPEN
 10
251.0377927017602
 20
262.1660913013021
 30
0.0
 41
3.0
 42
3.0
 43
3.0
  0
INSERT
  5
EC8
330
620
100
AcDbEntity
  8
SUNPOU
  6
Continuous
 62
     4
370
    -2
100
AcDbBlockReference
  2
_OPEN
 10
129.2377927017603
 20
262.1660913013021
 30
0.0
 41
3.0
 42
3.0
 43
3.0
 50
180.0
  0
MTEXT
  5
EC9
330
620
100
AcDbEntity
  8
SUNPOU
  6
Continuous
 62
     4
100
AcDbMText
 10
190.1377927017602
 20
264.6660913013021
 30
0.0
 40
3.0
 41
0.0
 71
     5
 72
     5
  1
\A1;\U+03c6122
 73
     1
 44
1.0
1001
ACAD
1000
MTEXTBEGIN
1070
    73
1070
     1
1070
    44
1040
1.0
1070
    74
1070
     0
1000
MTEXTEND
  0
POINT
  5
ECA
330
620
100
AcDbEntity
  8
DEFPOINTS
  6
Continuous
 62
     0
100
AcDbPoint
 10
251.0377927017602
 20
233.2464334092926
 30
0.0
  0
POINT
  5
ECB
330
620
100
AcDbEntity
  8
DEFPOINTS
  6
Continuous
 62
     0
100
AcDbPoint
 10
129.2377927017603
 20
233.2465334092926
 30
0.0
  0
POINT
  5
ECC
330
620
100
AcDbEntity
  8
DEFPOINTS
  6
Continuous
 62
     0
100
AcDbPoint
 10
129.2377927017603
 20
262.1660913013021
 30
0.0
  0
ENDBLK
  5
62B
330
620
100
AcDbEntity
  8
0
100
AcDbBlockEnd
  0
BLOCK
  5
635
330
62C
100
AcDbEntity
  8
0
100
AcDbBlockBegin
  2
*D6
 70
     1
 10
0.0
 20
0.0
 30
0.0
  3
*D6
  1

  0
LINE
  5
1260
330
62C
100
AcDbEntity
  8
SUNPOU
  6
Continuous
 62
     4
370
    -2
100
AcDbLine
 10
247.4127927017602
 20
235.7464334092926
 30
0.0
 11
247.4127927017602
 21
252.6340610374151
 31
0.0
  0
LINE
  5
1261
330
62C
100
AcDbEntity
  8
SUNPOU
  6
Continuous
 62
     4
370
    -2
100
AcDbLine
 10
132.8627850846695
 20
236.2465274569241
 30
0.0
 11
132.8627850846695
 21
252.6340610374151
 31
0.0
  0
LINE
  5
1262
330
62C
100
AcDbEntity
  8
SUNPOU
  6
Continuous
 62
     4
370
    -2
100
AcDbLine
 10
244.4127927017602
 20
251.1340610374151
 30
0.0
 11
135.8627850846695
 21
251.1340610374151
 31
0.0
  0
INSERT
  5
1263
330
62C
100
AcDbEntity
  8
SUNPOU
  6
Continuous
 62
     4
370
    -2
100
AcDbBlockReference
  2
_OPEN
 10
247.4127927017602
 20
251.1340610374151
 30
0.0
 41
3.0
 42
3.0
 43
3.0
  0
INSERT
  5
1264
330
62C
100
AcDbEntity
  8
SUNPOU
  6
Continuous
 62
     4
370
    -2
100
AcDbBlockReference
  2
_OPEN
 10
132.8627850846695
 20
251.1340610374151
 30
0.0
 41
3.0
 42
3.0
 43
3.0
 50
180.0
  0
MTEXT
  5
1265
330
62C
100
AcDbEntity
  8
SUNPOU
  6
Continuous
 62
     4
100
AcDbMText
 10
190.1377888932148
 20
253.6340610374151
 30
0.0
 40
3.0
 41
0.0
 71
     5
 72
     1
  1
\A1;φ114.55
 73
     1
 44
1.0
1001
ACAD
1000
MTEXTBEGIN
1070
    73
1070
     1
1070
    44
1040
1.0
1070
    74
1070
     0
1000
MTEXTEND
  0
POINT
  5
1266
330
62C
100
AcDbEntity
  8
DEFPOINTS
  6
Continuous
 62
     0
100
AcDbPoint
 10
247.4127927017602
 20
232.7464334092926
 30
0.0
  0
POINT
  5
1267
330
62C
100
AcDbEntity
  8
DEFPOINTS
  6
Continuous
 62
     0
100
AcDbPoint
 10
132.8627850846695
 20
233.2465274569241
 30
0.0
  0
POINT
  5
1268
330
62C
100
AcDbEntity
  8
DEFPOINTS
  6
Continuous
 62
     0
100
AcDbPoint
 10
132.8627850846695
 20
251.1340610374151
 30
0.0
  0
ENDBLK
  5
636
330
62C
100
AcDbEntity
  8
0
100
AcDbBlockEnd
  0
BLOCK
  5
68F
330
685
100
AcDbEntity
  8
0
100
AcDbBlockBegin
  2
*D7
 70
     1
 10
0.0
 20
0.0
 30
0.0
  3
*D7
  1

  0
LINE
  5
ECD
330
685
100
AcDbEntity
  8
SUNPOU
100
AcDbLine
 10
254.0377927017602
 20
233.2464334092926
 30
0.0
 11
315.0442688782335
 21
233.2464334092926
 31
0.0
  0
LINE
  5
ECE
330
685
100
AcDbEntity
  8
SUNPOU
100
AcDbLine
 10
249.9127927017602
 20
183.2464334092926
 30
0.0
 11
315.0442688782335
 21
183.2464334092926
 31
0.0
  0
LINE
  5
ECF
330
685
100
AcDbEntity
  8
SUNPOU
100
AcDbLine
 10
313.5442688782335
 20
230.2464334092926
 30
0.0
 11
313.5442688782335
 21
186.2464334092926
 31
0.0
  0
INSERT
  5
ED0
330
685
100
AcDbEntity
  8
SUNPOU
100
AcDbBlockReference
  2
_OPEN
 10
313.5442688782335
 20
233.2464334092926
 30
0.0
 41
3.0
 42
3.0
 43
3.0
 50
90.0
  0
INSERT
  5
ED1
330
685
100
AcDbEntity
  8
SUNPOU
100
AcDbBlockReference
  2
_OPEN
 10
313.5442688782335
 20
183.2464334092926
 30
0.0
 41
3.0
 42
3.0
 43
3.0
 50
270.0
  0
MTEXT
  5
ED2
330
685
100
AcDbEntity
  8
SUNPOU
100
AcDbMText
 10
311.0442688782334
 20
208.2464334092926
 30
0.0
 40
3.0
 41
0.0
 71
     5
 72
     5
  1
\A1;50
 11
0.0000000000000001
 21
1.0
 31
0.0
 73
     1
 44
1.0
1001
ACAD
1000
MTEXTBEGIN
1070
    73
1070
     1
1070
    44
1040
1.0
1070
    74
1070
     0
1000
MTEXTEND
  0
POINT
  5
ED3
330
685
100
AcDbEntity
  8
DEFPOINTS
 62
     0
100
AcDbPoint
 10
251.0377927017602
 20
233.2464334092926
 30
0.0
  0
POINT
  5
ED4
330
685
100
AcDbEntity
  8
DEFPOINTS
 62
     0
100
AcDbPoint
 10
246.9127927017602
 20
183.2464334092926
 30
0.0
  0
POINT
  5
ED5
330
685
100
AcDbEntity
  8
DEFPOINTS
 62
     0
100
AcDbPoint
 10
313.5442688782335
 20
183.2464334092926
 30
0.0
  0
ENDBLK
  5
690
330
685
100
AcDbEntity
  8
0
100
AcDbBlockEnd
  0
BLOCK
  5
BDA
330
A46
100
AcDbEntity
  8
0
100
AcDbBlockBegin
  2
*X8
 70
     1
 10
0.0
 20
0.0
 30
0.0
  3
*X8
  1

  0
LINE
  5
A47
330
A46
100
AcDbEntity
  8
0
 62
     0
100
AcDbLine
 10
66.75047808566091
 20
28.71175535310772
 30
0.0
 11
66.10464715594599
 21
29.3575862828227
 31
0.0
  0
LINE
  5
A48
330
A46
100
AcDbEntity
  8
0
 62
     0
100
AcDbLine
 10
66.75047808566091
 20
27.81372974100083
 30
0.0
 11
65.20662154383905
 21
29.3575862828227
 31
0.0
  0
LINE
  5
A49
330
A46
100
AcDbEntity
  8
0
 62
     0
100
AcDbLine
 10
66.75047808566086
 20
26.91570412889388
 30
0.0
 11
64.32934413964591
 21
29.33683807490883
 31
0.0
  0
LINE
  5
A4A
330
A46
100
AcDbEntity
  8
0
 62
     0
100
AcDbLine
 10
66.75047808566091
 20
26.01767851678705
 30
0.0
 11
63.95047808566085
 21
28.81767851678706
 31
0.0
  0
LINE
  5
A4B
330
A46
100
AcDbEntity
  8
0
 62
     0
100
AcDbLine
 10
66.75047808566091
 20
25.1196529046801
 30
0.0
 11
63.95047808566085
 21
27.91965290468017
 31
0.0
  0
LINE
  5
A4C
330
A46
100
AcDbEntity
  8
0
 62
     0
100
AcDbLine
 10
66.75047808566086
 20
24.22162729257315
 30
0.0
 11
63.95047808566079
 21
27.02162729257322
 31
0.0
  0
LINE
  5
A4D
330
A46
100
AcDbEntity
  8
0
 62
     0
100
AcDbLine
 10
61.85047808566082
 20
28.22360168046635
 30
0.0
 11
60.71649348330453
 21
29.3575862828227
 31
0.0
  0
LINE
  5
A4E
330
A46
100
AcDbEntity
  8
0
 62
     0
100
AcDbLine
 10
66.75047808566091
 20
23.32360168046631
 30
0.0
 11
63.95047808566085
 21
26.12360168046638
 31
0.0
  0
LINE
  5
A4F
330
A46
100
AcDbEntity
  8
0
 62
     0
100
AcDbLine
 10
61.85047808566082
 20
27.32557606835945
 30
0.0
 11
59.81846787119758
 21
29.35758628282264
 31
0.0
  0
LINE
  5
A50
330
A46
100
AcDbEntity
  8
0
 62
     0
100
AcDbLine
 10
66.75047808566086
 20
22.42557606835936
 30
0.0
 11
63.95047808566085
 21
25.22557606835943
 31
0.0
  0
LINE
  5
A51
330
A46
100
AcDbEntity
  8
0
 62
     0
100
AcDbLine
 10
61.85047808566082
 20
26.4275504562525
 30
0.0
 11
59.14496712052375
 21
29.13306142138959
 31
0.0
  0
LINE
  5
A52
330
A46
100
AcDbEntity
  8
0
 62
     0
100
AcDbLine
 10
66.75047808566086
 20
21.52755045625247
 30
0.0
 11
63.95047808566079
 21
24.32755045625248
 31
0.0
  0
LINE
  5
A53
330
A46
100
AcDbEntity
  8
0
 62
     0
100
AcDbLine
 10
61.85047808566094
 20
25.5295248441455
 30
0.0
 11
59.05047808566076
 21
28.32952484414562
 31
0.0
  0
LINE
  5
A54
330
A46
100
AcDbEntity
  8
0
 62
     0
100
AcDbLine
 10
66.75047808566091
 20
20.62952484414552
 30
0.0
 11
63.95047808566085
 21
23.42952484414559
 31
0.0
  0
LINE
  5
A55
330
A46
100
AcDbEntity
  8
0
 62
     0
100
AcDbLine
 10
61.85047808566088
 20
24.63149923203861
 30
0.0
 11
59.05047808566076
 21
27.43149923203879
 31
0.0
  0
LINE
  5
A56
330
A46
100
AcDbEntity
  8
0
 62
     0
100
AcDbLine
 10
66.75047808566086
 20
19.73149923203863
 30
0.0
 11
63.95047808566079
 21
22.5314992320387
 31
0.0
  0
LINE
  5
A57
330
A46
100
AcDbEntity
  8
0
 62
     0
100
AcDbLine
 10
61.85047808566088
 20
23.73347361993172
 30
0.0
 11
59.05047808566076
 21
26.53347361993184
 31
0.0
  0
LINE
  5
A58
330
A46
100
AcDbEntity
  8
0
 62
     0
100
AcDbLine
 10
66.75047808566086
 20
18.83347361993173
 30
0.0
 11
63.95047808566079
 21
21.63347361993181
 31
0.0
  0
LINE
  5
A59
330
A46
100
AcDbEntity
  8
0
 62
     0
100
AcDbLine
 10
61.85047808566082
 20
22.83544800782477
 30
0.0
 11
59.0504780856607
 21
25.63544800782489
 31
0.0
  0
LINE
  5
A5A
330
A46
100
AcDbEntity
  8
0
 62
     0
100
AcDbLine
 10
66.7504780856608
 20
17.93544800782479
 30
0.0
 11
63.95047808566079
 21
20.73544800782486
 31
0.0
  0
LINE
  5
A5B
330
A46
100
AcDbEntity
  8
0
 62
     0
100
AcDbLine
 10
61.85047808566088
 20
21.93742239571793
 30
0.0
 11
59.05047808566076
 21
24.73742239571806
 31
0.0
  0
LINE
  5
A5C
330
A46
100
AcDbEntity
  8
0
 62
     0
100
AcDbLine
 10
55.55047808566081
 20
28.237422395718
 30
0.0
 11
54.43031419855618
 21
29.35758628282264
 31
0.0
  0
LINE
  5
A5D
330
A46
100
AcDbEntity
  8
0
 62
     0
100
AcDbLine
 10
66.75047808566086
 20
17.03742239571795
 30
0.0
 11
63.95047808566079
 21
19.83742239571796
 31
0.0
  0
LINE
  5
A5E
330
A46
100
AcDbEntity
  8
0
 62
     0
100
AcDbLine
 10
61.85047808566088
 20
21.03939678361098
 30
0.0
 11
59.0504780856607
 21
23.83939678361111
 31
0.0
  0
LINE
  5
A5F
330
A46
100
AcDbEntity
  8
0
 62
     0
100
AcDbLine
 10
55.55047808566076
 20
27.33939678361105
 30
0.0
 11
53.53228858644922
 21
29.35758628282264
 31
0.0
  0
LINE
  5
A60
330
A46
100
AcDbEntity
  8
0
 62
     0
100
AcDbLine
 10
66.75047808566086
 20
16.139396783611
 30
0.0
 11
63.95047808566079
 21
18.93939678361107
 31
0.0
  0
LINE
  5
A61
330
A46
100
AcDbEntity
  8
0
 62
     0
100
AcDbLine
 10
61.85047808566082
 20
20.14137117150409
 30
0.0
 11
59.05047808566076
 21
22.9413711715041
 31
0.0
  0
LINE
  5
A62
330
A46
100
AcDbEntity
  8
0
 62
     0
100
AcDbLine
 10
55.55047808566076
 20
26.44137117150416
 30
0.0
 11
52.85071536233676
 21
29.14113389482816
 31
0.0
  0
LINE
  5
A63
330
A46
100
AcDbEntity
  8
0
 62
     0
100
AcDbLine
 10
66.7504780856608
 20
15.24137117150411
 30
0.0
 11
63.95047808566073
 21
18.04137117150412
 31
0.0
  0
LINE
  5
A64
330
A46
100
AcDbEntity
  8
0
 62
     0
100
AcDbLine
 10
61.85047808566088
 20
19.24334555939714
 30
0.0
 11
59.05047808566081
 21
22.04334555939721
 31
0.0
  0
LINE
  5
A65
330
A46
100
AcDbEntity
  8
0
 62
     0
100
AcDbLine
 10
55.55047808566081
 20
25.54334555939721
 30
0.0
 11
52.7504780856608
 21
28.34334555939722
 31
0.0
  0
LINE
  5
A66
330
A46
100
AcDbEntity
  8
0
 62
     0
100
AcDbLine
 10
66.75047808566086
 20
14.34334555939716
 30
0.0
 11
63.95047808566079
 21
17.14334555939723
 31
0.0
  0
LINE
  5
A67
330
A46
100
AcDbEntity
  8
0
 62
     0
100
AcDbLine
 10
61.85047808566082
 20
18.34531994729025
 30
0.0
 11
59.05047808566081
 21
21.14531994729032
 31
0.0
  0
LINE
  5
A68
330
A46
100
AcDbEntity
  8
0
 62
     0
100
AcDbLine
 10
55.55047808566087
 20
24.64531994729026
 30
0.0
 11
52.7504780856608
 21
27.44531994729033
 31
0.0
  0
LINE
  5
A69
330
A46
100
AcDbEntity
  8
0
 62
     0
100
AcDbLine
 10
66.67851273077104
 20
13.51728530218008
 30
0.0
 11
63.95047808566079
 21
16.24531994729034
 31
0.0
  0
LINE
  5
A6A
330
A46
100
AcDbEntity
  8
0
 62
     0
100
AcDbLine
 10
61.85047808566088
 20
17.44729433518324
 30
0.0
 11
59.05047808566076
 21
20.24729433518337
 31
0.0
  0
LINE
  5
A6B
330
A46
100
AcDbEntity
  8
0
 62
     0
100
AcDbLine
 10
55.55047808566081
 20
23.74729433518337
 30
0.0
 11
52.75047808566075
 21
26.54729433518338
 31
0.0
  0
LINE
  5
A6C
330
A46
100
AcDbEntity
  8
0
 62
     0
100
AcDbLine
 10
66.04018613802157
 20
13.25758628282261
 30
0.0
 11
63.95047808566073
 21
15.34729433518345
 31
0.0
  0
LINE
  5
A6D
330
A46
100
AcDbEntity
  8
0
 62
     0
100
AcDbLine
 10
55.55047808566081
 20
22.84926872307642
 30
0.0
 11
52.75047808566075
 21
25.64926872307649
 31
0.0
  0
LINE
  5
A6E
330
A46
100
AcDbEntity
  8
0
 62
     0
100
AcDbLine
 10
61.85047808566088
 20
16.54926872307635
 30
0.0
 11
59.05047808566076
 21
19.34926872307648
 31
0.0
  0
LINE
  5
A6F
330
A46
100
AcDbEntity
  8
0
 62
     0
100
AcDbLine
 10
50.1254780856608
 20
28.27426872307643
 30
0.0
 11
49.04216052591465
 21
29.35758628282253
 31
0.0
  0
LINE
  5
A70
330
A46
100
AcDbEntity
  8
0
 62
     0
100
AcDbLine
 10
65.14216052591468
 20
13.2575862828225
 30
0.0
 11
63.95047808566073
 21
14.4492687230765
 31
0.0
  0
LINE
  5
A71
330
A46
100
AcDbEntity
  8
0
 62
     0
100
AcDbLine
 10
55.55047808566081
 20
21.95124311096953
 30
0.0
 11
52.75047808566085
 21
24.75124311096954
 31
0.0
  0
LINE
  5
A72
330
A46
100
AcDbEntity
  8
0
 62
     0
100
AcDbLine
 10
50.1254780856608
 20
27.37624311096954
 30
0.0
 11
48.14413491380782
 21
29.35758628282258
 31
0.0
  0
LINE
  5
A73
330
A46
100
AcDbEntity
  8
0
 62
     0
100
AcDbLine
 10
61.82451978501529
 20
15.6772014116151
 30
0.0
 11
59.05047808566076
 21
18.45124311096958
 31
0.0
  0
LINE
  5
A74
330
A46
100
AcDbEntity
  8
0
 62
     0
100
AcDbLine
 10
55.55047808566081
 20
21.05321749886264
 30
0.0
 11
52.75047808566085
 21
23.85321749886259
 31
0.0
  0
LINE
  5
A75
330
A46
100
AcDbEntity
  8
0
 62
     0
100
AcDbLine
 10
49.92989753954697
 20
26.67379804497648
 30
0.0
 11
47.24610930170081
 21
29.35758628282264
 31
0.0
  0
LINE
  5
A76
330
A46
100
AcDbEntity
  8
0
 62
     0
100
AcDbLine
 10
61.63153448975805
 20
14.97216109476534
 30
0.0
 11
59.05047808566076
 21
17.55321749886269
 31
0.0
  0
LINE
  5
A77
330
A46
100
AcDbEntity
  8
0
 62
     0
100
AcDbLine
 10
55.55047808566081
 20
20.15519188675569
 30
0.0
 11
52.7504780856608
 21
22.9551918867557
 31
0.0
  0
LINE
  5
A78
330
A46
100
AcDbEntity
  8
0
 62
     0
100
AcDbLine
 10
49.14808368959382
 20
26.55758628282263
 30
0.0
 11
46.34808368959392
 21
29.35758628282253
 31
0.0
  0
LINE
  5
A79
330
A46
100
AcDbEntity
  8
0
 62
     0
100
AcDbLine
 10
61.30650261383448
 20
14.39916735858196
 30
0.0
 11
58.97896234650125
 21
16.72670762591525
 31
0.0
  0
LINE
  5
A7A
330
A46
100
AcDbEntity
  8
0
 62
     0
100
AcDbLine
 10
55.55047808566081
 20
19.25716627464885
 30
0.0
 11
52.75047808566085
 21
22.05716627464881
 31
0.0
  0
LINE
  5
A7B
330
A46
100
AcDbEntity
  8
0
 62
     0
100
AcDbLine
 10
48.25005807748704
 20
26.55758628282257
 30
0.0
 11
45.5124913483096
 21
29.29515301200007
 31
0.0
  0
LINE
  5
A7C
330
A46
100
AcDbEntity
  8
0
 62
     0
100
AcDbLine
 10
60.87446081650944
 20
13.93318354380017
 30
0.0
 11
58.57737670803373
 21
16.23026765227587
 31
0.0
  0
LINE
  5
A7D
330
A46
100
AcDbEntity
  8
0
 62
     0
100
AcDbLine
 10
55.55047808566081
 20
18.3591406625419
 30
0.0
 11
52.7504780856608
 21
21.15914066254186
 31
0.0
  0
LINE
  5
A7E
330
A46
100
AcDbEntity
  8
0
 62
     0
100
AcDbLine
 10
47.35203246538015
 20
26.55758628282257
 30
0.0
 11
44.8478509237762
 21
29.06176782442646
 31
0.0
  0
LINE
  5
A7F
330
A46
100
AcDbEntity
  8
0
 62
     0
100
AcDbLine
 10
60.33829847158341
 20
13.5713202766193
 30
0.0
 11
57.85203246538014
 21
16.05758628282257
 31
0.0
  0
LINE
  5
A80
330
A46
100
AcDbEntity
  8
0
 62
     0
100
AcDbLine
 10
55.55047808566076
 20
17.46111505043495
 30
0.0
 11
52.7504780856608
 21
20.26111505043497
 31
0.0
  0
LINE
  5
A81
330
A46
100
AcDbEntity
  8
0
 62
     0
100
AcDbLine
 10
46.47579668129123
 20
26.53579645480448
 30
0.0
 11
44.30524998656602
 21
28.70634314952969
 31
0.0
  0
LINE
  5
A82
330
A46
100
AcDbEntity
  8
0
 62
     0
100
AcDbLine
 10
59.68188591167211
 20
13.32970722442366
 30
0.0
 11
56.95400685327314
 21
16.05758628282262
 31
0.0
  0
LINE
  5
A83
330
A46
100
AcDbEntity
  8
0
 62
     0
100
AcDbLine
 10
46.10047808566088
 20
26.01308943832788
 30
0.0
 11
43.86713792752146
 21
28.24642959646729
 31
0.0
  0
LINE
  5
A84
330
A46
100
AcDbEntity
  8
0
 62
     0
100
AcDbLine
 10
58.85598124116626
 20
13.25758628282256
 30
0.0
 11
52.7504780856608
 21
19.36308943832802
 31
0.0
  0
LINE
  5
A85
330
A46
100
AcDbEntity
  8
0
 62
     0
100
AcDbLine
 10
46.10047808566088
 20
25.11506382622111
 30
0.0
 11
43.53536701516844
 21
27.68017489671354
 31
0.0
  0
LINE
  5
A86
330
A46
100
AcDbEntity
  8
0
 62
     0
100
AcDbLine
 10
57.95795562905937
 20
13.25758628282256
 30
0.0
 11
52.7504780856608
 21
18.46506382622118
 31
0.0
  0
LINE
  5
A87
330
A46
100
AcDbEntity
  8
0
 62
     0
100
AcDbLine
 10
46.30702236676467
 20
24.01049393301037
 30
0.0
 11
43.33318849580433
 21
26.98432780397065
 31
0.0
  0
LINE
  5
A88
330
A46
100
AcDbEntity
  8
0
 62
     0
100
AcDbLine
 10
57.05993001695247
 20
13.25758628282256
 30
0.0
 11
52.7504780856608
 21
17.56703821411423
 31
0.0
  0
LINE
  5
A89
330
A46
100
AcDbEntity
  8
0
 62
     0
100
AcDbLine
 10
50.52408178835225
 20
18.89540889931584
 30
0.0
 11
43.30047808566075
 21
26.11901260200733
 31
0.0
  0
LINE
  5
A8A
330
A46
100
AcDbEntity
  8
0
 62
     0
100
AcDbLine
 10
41.20047808566073
 20
28.2190126020073
 30
0.0
 11
40.06190440484544
 21
29.35758628282264
 31
0.0
  0
LINE
  5
A8B
330
A46
100
AcDbEntity
  8
0
 62
     0
100
AcDbLine
 10
56.16190440484553
 20
13.25758628282256
 30
0.0
 11
52.75047808566075
 21
16.66901260200728
 31
0.0
  0
LINE
  5
A8C
330
A46
100
AcDbEntity
  8
0
 62
     0
100
AcDbLine
 10
50.65047808566089
 20
17.87098698990036
 30
0.0
 11
43.30047808566081
 21
25.22098698990044
 31
0.0
  0
LINE
  5
A8D
330
A46
100
AcDbEntity
  8
0
 62
     0
100
AcDbLine
 10
41.20047808566084
 20
27.32098698990035
 30
0.0
 11
39.16387879273856
 21
29.3575862828227
 31
0.0
  0
LINE
  5
A8E
330
A46
100
AcDbEntity
  8
0
 62
     0
100
AcDbLine
 10
55.24743091399376
 20
13.2740341615675
 30
0.0
 11
52.76692596440574
 21
15.75453911115551
 31
0.0
  0
LINE
  5
A8F
330
A46
100
AcDbEntity
  8
0
 62
     0
100
AcDbLine
 10
41.20047808566084
 20
26.42296137779346
 30
0.0
 11
38.49308819788553
 21
29.13035126556872
 31
0.0
  0
LINE
  5
A90
330
A46
100
AcDbEntity
  8
0
 62
     0
100
AcDbLine
 10
50.65047808566084
 20
16.97296137779341
 30
0.0
 11
43.3238887535432
 21
24.2995507099111
 31
0.0
  0
LINE
  5
A91
330
A46
100
AcDbEntity
  8
0
 62
     0
100
AcDbLine
 10
41.20047808566084
 20
25.52493576568651
 30
0.0
 11
38.40047808566078
 21
28.32493576568658
 31
0.0
  0
LINE
  5
A92
330
A46
100
AcDbEntity
  8
0
 62
     0
100
AcDbLine
 10
50.65047808566072
 20
16.07493576568657
 30
0.0
 11
43.64200817138322
 21
23.08340567996413
 31
0.0
  0
LINE
  5
A93
330
A46
100
AcDbEntity
  8
0
 62
     0
100
AcDbLine
 10
41.20047808566084
 20
24.62691015357961
 30
0.0
 11
38.40047808566078
 21
27.42691015357963
 31
0.0
  0
LINE
  5
A94
330
A46
100
AcDbEntity
  8
0
 62
     0
100
AcDbLine
 10
50.54191626807176
 20
15.2854719711687
 30
0.0
 11
47.84628147903345
 21
17.98110676020701
 31
0.0
  0
LINE
  5
A95
330
A46
100
AcDbEntity
  8
0
 62
     0
100
AcDbLine
 10
41.20047808566084
 20
23.72888454147272
 30
0.0
 11
38.40047808566078
 21
26.52888454147279
 31
0.0
  0
LINE
  5
A96
330
A46
100
AcDbEntity
  8
0
 62
     0
100
AcDbLine
 10
36.10899118508382
 20
28.82037144204969
 30
0.0
 11
35.57177634431094
 21
29.35758628282264
 31
0.0
  0
LINE
  5
A97
330
A46
100
AcDbEntity
  8
0
 62
     0
100
AcDbLine
 10
50.2740405603102
 20
14.65532206682337
 30
0.0
 11
47.85047808566088
 21
17.07888454147269
 31
0.0
  0
LINE
  5
A98
330
A46
100
AcDbEntity
  8
0
 62
     0
100
AcDbLine
 10
41.20047808566079
 20
22.83085892936577
 30
0.0
 11
38.40047808566078
 21
25.63085892936584
 31
0.0
  0
LINE
  5
A99
330
A46
100
AcDbEntity
  8
0
 62
     0
100
AcDbLine
 10
35.91006352083122
 20
28.12127349419535
 30
0.0
 11
34.67375073220399
 21
29.35758628282264
 31
0.0
  0
LINE
  5
A9A
330
A46
100
AcDbEntity
  8
0
 62
     0
100
AcDbLine
 10
49.8910537621349
 20
14.14028325289172
 30
0.0
 11
47.75319290277439
 21
16.27814411225222
 31
0.0
  0
LINE
  5
A9B
330
A46
100
AcDbEntity
  8
0
 62
     0
100
AcDbLine
 10
41.20047808566079
 20
21.93283331725888
 30
0.0
 11
38.40047808566072
 21
24.7328333172589
 31
0.0
  0
LINE
  5
A9C
330
A46
100
AcDbEntity
  8
0
 62
     0
100
AcDbLine
 10
35.69453737392553
 20
27.43877402899409
 30
0.0
 11
33.78532181045495
 21
29.34798959246473
 31
0.0
  0
LINE
  5
A9D
330
A46
100
AcDbEntity
  8
0
 62
     0
100
AcDbLine
 10
49.40473479701927
 20
13.72857660590034
 30
0.0
 11
47.07572512009704
 21
16.05758628282262
 31
0.0
  0
LINE
  5
A9E
330
A46
100
AcDbEntity
  8
0
 62
     0
100
AcDbLine
 10
41.20047808566084
 20
21.03480770515199
 30
0.0
 11
38.40047808566078
 21
23.83480770515206
 31
0.0
  0
LINE
  5
A9F
330
A46
100
AcDbEntity
  8
0
 62
     0
100
AcDbLine
 10
35.47901122702001
 20
26.75627456379283
 30
0.0
 11
33.35101122701997
 21
28.88427456379287
 31
0.0
  0
LINE
  5
AA0
330
A46
100
AcDbEntity
  8
0
 62
     0
100
AcDbLine
 10
48.8086508485589
 20
13.42663494225388
 30
0.0
 11
46.17769950799015
 21
16.05758628282268
 31
0.0
  0
LINE
  5
AA1
330
A46
100
AcDbEntity
  8
0
 62
     0
100
AcDbLine
 10
41.20047808566079
 20
20.1367820930451
 30
0.0
 11
38.40047808566072
 21
22.93678209304511
 31
0.0
  0
LINE
  5
AA2
330
A46
100
AcDbEntity
  8
0
 62
     0
100
AcDbLine
 10
35.26348508011415
 20
26.07377509859174
 30
0.0
 11
33.13548508011417
 21
28.20177509859173
 31
0.0
  0
LINE
  5
AA3
330
A46
100
AcDbEntity
  8
0
 62
     0
100
AcDbLine
 10
48.07097819691143
 20
13.26628198179446
 30
0.0
 11
45.27967389588326
 21
16.05758628282262
 31
0.0
  0
LINE
  5
AA4
330
A46
100
AcDbEntity
  8
0
 62
     0
100
AcDbLine
 10
41.20047808566079
 20
19.23875648093815
 30
0.0
 11
38.40047808566078
 21
22.03875648093811
 31
0.0
  0
LINE
  5
AA5
330
A46
100
AcDbEntity
  8
0
 62
     0
100
AcDbLine
 10
35.04795893320858
 20
25.39127563339036
 30
0.0
 11
32.91995893320848
 21
27.51927563339041
 31
0.0
  0
LINE
  5
AA6
330
A46
100
AcDbEntity
  8
0
 62
     0
100
AcDbLine
 10
47.18164828377638
 20
13.25758628282256
 30
0.0
 11
44.38164828377631
 21
16.05758628282262
 31
0.0
  0
LINE
  5
AA7
330
A46
100
AcDbEntity
  8
0
 62
     0
100
AcDbLine
 10
41.20047808566079
 20
18.34073086883126
 30
0.0
 11
38.40047808566083
 21
21.14073086883127
 31
0.0
  0
LINE
  5
AA8
330
A46
100
AcDbEntity
  8
0
 62
     0
100
AcDbLine
 10
34.83243278630295
 20
24.70877616818916
 30
0.0
 11
32.70443278630285
 21
26.83677616818921
 31
0.0
  0
LINE
  5
AA9
330
A46
100
AcDbEntity
  8
0
 62
     0
100
AcDbLine
 10
46.28362267166949
 20
13.25758628282261
 30
0.0
 11
43.8500109743731
 21
15.691197980119
 31
0.0
  0
LINE
  5
AAA
330
A46
100
AcDbEntity
  8
0
 62
     0
100
AcDbLine
 10
34.61690663939732
 20
24.02627670298779
 30
0.0
 11
32.48890663939722
 21
26.15427670298795
 31
0.0
  0
LINE
  5
AAB
330
A46
100
AcDbEntity
  8
0
 62
     0
100
AcDbLine
 10
41.20047808566079
 20
17.44270525672436
 30
0.0
 11
38.40047808566083
 21
20.24270525672432
 31
0.0
  0
LINE
  5
AAC
330
A46
100
AcDbEntity
  8
0
 62
     0
100
AcDbLine
 10
30.35047808566083
 20
28.29270525672433
 30
0.0
 11
29.28559705956252
 21
29.35758628282258
 31
0.0
  0
LINE
  5
AAD
330
A46
100
AcDbEntity
  8
0
 62
     0
100
AcDbLine
 10
45.38559705956259
 20
13.25758628282256
 30
0.0
 11
43.82547808566084
 21
14.81770525672431
 31
0.0
  0
LINE
  5
AAE
330
A46
100
AcDbEntity
  8
0
 62
     0
100
AcDbLine
 10
34.40138049249152
 20
23.3437772377867
 30
0.0
 11
32.27338049249159
 21
25.47177723778663
 31
0.0
  0
LINE
  5
AAF
330
A46
100
AcDbEntity
  8
0
 62
     0
100
AcDbLine
 10
41.20047808566079
 20
16.54467964461742
 30
0.0
 11
38.40047808566078
 21
19.34467964461743
 31
0.0
  0
LINE
  5
AB0
330
A46
100
AcDbEntity
  8
0
 62
     0
100
AcDbLine
 10
30.35047808566083
 20
27.39467964461738
 30
0.0
 11
28.38757144745563
 21
29.35758628282258
 31
0.0
  0
LINE
  5
AB1
330
A46
100
AcDbEntity
  8
0
 62
     0
100
AcDbLine
 10
44.48757144745559
 20
13.25758628282261
 30
0.0
 11
43.82547808566079
 21
13.91967964461736
 31
0.0
  0
LINE
  5
AB2
330
A46
100
AcDbEntity
  8
0
 62
     0
100
AcDbLine
 10
34.18585434558588
 20
22.66127777258538
 30
0.0
 11
32.05785434558584
 21
24.78927777258542
 31
0.0
  0
LINE
  5
AB3
330
A46
100
AcDbEntity
  8
0
 62
     0
100
AcDbLine
 10
30.35047808566077
 20
26.49665403251044
 30
0.0
 11
27.67503315676317
 21
29.1720989614081
 31
0.0
  0
LINE
  5
AB4
330
A46
100
AcDbEntity
  8
0
 62
     0
100
AcDbLine
 10
41.20047808566073
 20
15.64665403251052
 30
0.0
 11
38.40047808566078
 21
18.44665403251048
 31
0.0
  0
LINE
  5
AB5
330
A46
100
AcDbEntity
  8
0
 62
     0
100
AcDbLine
 10
33.97032819868025
 20
21.97877830738418
 30
0.0
 11
31.84232819868026
 21
24.10677830738416
 31
0.0
  0
LINE
  5
AB6
330
A46
100
AcDbEntity
  8
0
 62
     0
100
AcDbLine
 10
30.35047808566083
 20
25.5986284204036
 30
0.0
 11
27.55047808566076
 21
28.39862842040361
 31
0.0
  0
LINE
  5
AB7
330
A46
100
AcDbEntity
  8
0
 62
     0
100
AcDbLine
 10
41.20047808566079
 20
14.74862842040363
 30
0.0
 11
38.40047808566078
 21
17.54862842040359
 31
0.0
  0
LINE
  5
AB8
330
A46
100
AcDbEntity
  8
0
 62
     0
100
AcDbLine
 10
33.7652396892882
 20
21.28584120466928
 30
0.0
 11
31.62680205177452
 21
23.42427884218296
 31
0.0
  0
LINE
  5
AB9
330
A46
100
AcDbEntity
  8
0
 62
     0
100
AcDbLine
 10
30.35047808566083
 20
24.70060280829665
 30
0.0
 11
27.55047808566076
 21
27.50060280829672
 31
0.0
  0
LINE
  5
ABA
330
A46
100
AcDbEntity
  8
0
 62
     0
100
AcDbLine
 10
41.20047808566073
 20
13.85060280829668
 30
0.0
 11
38.40047808566078
 21
16.65060280829669
 31
0.0
  0
LINE
  5
ABB
330
A46
100
AcDbEntity
  8
0
 62
     0
100
AcDbLine
 10
34.1797130487222
 20
19.97334223312833
 30
0.0
 11
31.3362545560899
 21
22.81680072576063
 31
0.0
  0
LINE
  5
ABC
330
A46
100
AcDbEntity
  8
0
 62
     0
100
AcDbLine
 10
30.35047808566088
 20
23.80257719618965
 30
0.0
 11
27.5504780856607
 21
26.60257719618977
 31
0.0
  0
LINE
  5
ABD
330
A46
100
AcDbEntity
  8
0
 62
     0
100
AcDbLine
 10
40.8614330883284
 20
13.29162219352207
 30
0.0
 11
38.40047808566078
 21
15.75257719618974
 31
0.0
  0
LINE
  5
ABE
330
A46
100
AcDbEntity
  8
0
 62
     0
100
AcDbLine
 10
34.59418640815619
 20
18.6608432615875
 30
0.0
 11
27.55047808566076
 21
25.70455158408293
 31
0.0
  0
LINE
  5
ABF
330
A46
100
AcDbEntity
  8
0
 62
     0
100
AcDbLine
 10
25.10047808566088
 20
28.15455158408281
 30
0.0
 11
23.89744338692111
 21
29.35758628282258
 31
0.0
  0
LINE
  5
AC0
330
A46
100
AcDbEntity
  8
0
 62
     0
100
AcDbLine
 10
39.99744338692114
 20
13.25758628282256
 30
0.0
 11
38.40047808566089
 21
14.8545515840828
 31
0.0
  0
LINE
  5
AC1
330
A46
100
AcDbEntity
  8
0
 62
     0
100
AcDbLine
 10
35.00865976759025
 20
17.34834429004649
 30
0.0
 11
27.55047808566076
 21
24.80652597197599
 31
0.0
  0
LINE
  5
AC2
330
A46
100
AcDbEntity
  8
0
 62
     0
100
AcDbLine
 10
25.10047808566088
 20
27.25652597197586
 30
0.0
 11
22.99941777481411
 21
29.35758628282264
 31
0.0
  0
LINE
  5
AC3
330
A46
100
AcDbEntity
  8
0
 62
     0
100
AcDbLine
 10
39.09941777481419
 20
13.2575862828225
 30
0.0
 11
38.40047808566083
 21
13.95652597197591
 31
0.0
  0
LINE
  5
AC4
330
A46
100
AcDbEntity
  8
0
 62
     0
100
AcDbLine
 10
24.83357139027078
 20
26.62540705525902
 30
0.0
 11
22.13334967205935
 21
29.32562877347038
 31
0.0
  0
LINE
  5
AC5
330
A46
100
AcDbEntity
  8
0
 62
     0
100
AcDbLine
 10
35.42313312702419
 20
16.03584531850561
 30
0.0
 11
27.55047808566081
 21
23.90850035986898
 31
0.0
  0
LINE
  5
AC6
330
A46
100
AcDbEntity
  8
0
 62
     0
100
AcDbLine
 10
30.68798700800244
 20
19.87296582542046
 30
0.0
 11
27.55047808566081
 21
23.01047474776209
 31
0.0
  0
LINE
  5
AC7
330
A46
100
AcDbEntity
  8
0
 62
     0
100
AcDbLine
 10
24.00336655060034
 20
26.55758628282252
 30
0.0
 11
21.39530660247209
 21
29.16564623095081
 31
0.0
  0
LINE
  5
AC8
330
A46
100
AcDbEntity
  8
0
 62
     0
100
AcDbLine
 10
35.83760648645824
 20
14.72334634696466
 30
0.0
 11
31.74529879415013
 21
18.81565403927277
 31
0.0
  0
LINE
  5
AC9
330
A46
100
AcDbEntity
  8
0
 62
     0
100
AcDbLine
 10
30.35047808566088
 20
19.31244913565513
 30
0.0
 11
27.55047808566081
 21
22.1124491356552
 31
0.0
  0
LINE
  5
ACA
330
A46
100
AcDbEntity
  8
0
 62
     0
100
AcDbLine
 10
23.10534093849333
 20
26.55758628282263
 30
0.0
 11
20.75658518664136
 21
28.9063420346746
 31
0.0
  0
LINE
  5
ACB
330
A46
100
AcDbEntity
  8
0
 62
     0
100
AcDbLine
 10
36.07264534416885
 20
13.59028187714711
 30
0.0
 11
32.15977215358407
 21
17.50315506773194
 31
0.0
  0
LINE
  5
ACC
330
A46
100
AcDbEntity
  8
0
 62
     0
100
AcDbLine
 10
30.35047808566083
 20
18.41442352354824
 30
0.0
 11
27.55047808566076
 21
21.21442352354825
 31
0.0
  0
LINE
  5
ACD
330
A46
100
AcDbEntity
  8
0
 62
     0
100
AcDbLine
 10
22.2622274359498
 20
26.50267417325927
 30
0.0
 11
20.19783621130682
 21
28.56706539790224
 31
0.0
  0
LINE
  5
ACE
330
A46
100
AcDbEntity
  8
0
 62
     0
100
AcDbLine
 10
35.5073153263865
 20
13.25758628282256
 30
0.0
 11
32.57424551301813
 21
16.19065609619088
 31
0.0
  0
LINE
  5
ACF
330
A46
100
AcDbEntity
  8
0
 62
     0
100
AcDbLine
 10
30.35047808566083
 20
17.51639791144128
 30
0.0
 11
27.55047808566076
 21
20.31639791144136
 31
0.0
  0
LINE
  5
AD0
330
A46
100
AcDbEntity
  8
0
 62
     0
100
AcDbLine
 10
21.6903712431108
 20
26.17650475399131
 30
0.0
 11
19.71018100269503
 21
28.15669499440708
 31
0.0
  0
LINE
  5
AD1
330
A46
100
AcDbEntity
  8
0
 62
     0
100
AcDbLine
 10
34.60928971427956
 20
13.25758628282256
 30
0.0
 11
32.98871887245207
 21
14.87815712465004
 31
0.0
  0
LINE
  5
AD2
330
A46
100
AcDbEntity
  8
0
 62
     0
100
AcDbLine
 10
25.43590721845857
 20
21.53294316653671
 30
0.0
 11
23.92583496937482
 21
23.04301541562046
 31
0.0
  0
LINE
  5
AD3
330
A46
100
AcDbEntity
  8
0
 62
     0
100
AcDbLine
 10
30.35047808566094
 20
16.61837229933434
 30
0.0
 11
27.55047808566081
 21
19.41837229933446
 31
0.0
  0
LINE
  5
AD4
330
A46
100
AcDbEntity
  8
0
 62
     0
100
AcDbLine
 10
21.33424967298186
 20
25.63460071201343
 30
0.0
 11
19.2908149766838
 21
27.67803540831148
 31
0.0
  0
LINE
  5
AD5
330
A46
100
AcDbEntity
  8
0
 62
     0
100
AcDbLine
 10
33.66093109796805
 20
13.30791928702723
 30
0.0
 11
33.41057692637674
 21
13.55827345861854
 31
0.0
  0
LINE
  5
AD6
330
A46
100
AcDbEntity
  8
0
 62
     0
100
AcDbLine
 10
25.34939355831665
 20
20.72143121457168
 30
0.0
 11
23.11432301740979
 21
22.95650175547854
 31
0.0
  0
LINE
  5
AD7
330
A46
100
AcDbEntity
  8
0
 62
     0
100
AcDbLine
 10
21.25047808566092
 20
24.82034668722742
 30
0.0
 11
18.94187595572214
 21
27.12894881716619
 31
0.0
  0
LINE
  5
AD8
330
A46
100
AcDbEntity
  8
0
 62
     0
100
AcDbLine
 10
30.35047808566088
 20
15.72034668722739
 30
0.0
 11
27.55047808566076
 21
18.52034668722757
 31
0.0
  0
LINE
  5
AD9
330
A46
100
AcDbEntity
  8
0
 62
     0
100
AcDbLine
 10
25.0175379990186
 20
20.15526116176272
 30
0.0
 11
22.54815296460083
 21
22.62464619618049
 31
0.0
  0
LINE
  5
ADA
330
A46
100
AcDbEntity
  8
0
 62
     0
100
AcDbLine
 10
21.25047808566092
 20
23.92232107512047
 30
0.0
 11
18.67129624851196
 21
26.50150291226942
 31
0.0
  0
LINE
  5
ADB
330
A46
100
AcDbEntity
  8
0
 62
     0
100
AcDbLine
 10
30.35047808566088
 20
14.8223210751205
 30
0.0
 11
27.55047808566081
 21
17.62232107512057
 31
0.0
  0
LINE
  5
ADC
330
A46
100
AcDbEntity
  8
0
 62
     0
100
AcDbLine
 10
21.25047808566092
 20
23.02429546301357
 30
0.0
 11
18.49658237558611
 21
25.77819117308843
 31
0.0
  0
LINE
  5
ADD
330
A46
100
AcDbEntity
  8
0
 62
     0
100
AcDbLine
 10
24.51570455688216
 20
19.75906899179239
 30
0.0
 11
22.1519607946305
 21
22.12281275404405
 31
0.0
  0
LINE
  5
ADE
330
A46
100
AcDbEntity
  8
0
 62
     0
100
AcDbLine
 10
15.82547808566073
 20
28.44929546301376
 30
0.0
 11
14.91718726585185
 21
29.3575862828227
 31
0.0
  0
LINE
  5
ADF
330
A46
100
AcDbEntity
  8
0
 62
     0
100
AcDbLine
 10
30.35047808566094
 20
13.9242954630136
 30
0.0
 11
27.55047808566087
 21
16.72429546301367
 31
0.0
  0
LINE
  5
AE0
330
A46
100
AcDbEntity
  8
0
 62
     0
100
AcDbLine
 10
21.25047808566092
 20
22.12626985090668
 30
0.0
 11
18.45047808566085
 21
24.92626985090675
 31
0.0
  0
LINE
  5
AE1
330
A46
100
AcDbEntity
  8
0
 62
     0
100
AcDbLine
 10
23.81538511445473
 20
19.56136282211287
 30
0.0
 11
21.95425462495098
 21
21.42249331161662
 31
0.0
  0
LINE
  5
AE2
330
A46
100
AcDbEntity
  8
0
 62
     0
100
AcDbLine
 10
15.82547808566073
 20
27.55126985090686
 30
0.0
 11
14.0191616537449
 21
29.35758628282264
 31
0.0
  0
LINE
  5
AE3
330
A46
100
AcDbEntity
  8
0
 62
     0
100
AcDbLine
 10
30.06257428439023
 20
13.31417365217737
 30
0.0
 11
27.55047808566081
 21
15.82626985090672
 31
0.0
  0
LINE
  5
AE4
330
A46
100
AcDbEntity
  8
0
 62
     0
100
AcDbLine
 10
21.25047808566092
 20
21.22824423879973
 30
0.0
 11
18.45047808566085
 21
24.0282442387998
 31
0.0
  0
LINE
  5
AE5
330
A46
100
AcDbEntity
  8
0
 62
     0
100
AcDbLine
 10
15.71644411539046
 20
26.76227820907019
 30
0.0
 11
13.12113604163789
 21
29.3575862828227
 31
0.0
  0
LINE
  5
AE6
330
A46
100
AcDbEntity
  8
0
 62
     0
100
AcDbLine
 10
29.22113604163809
 20
13.2575862828225
 30
0.0
 11
27.55047808566081
 21
14.92824423879983
 31
0.0
  0
LINE
  5
AE7
330
A46
100
AcDbEntity
  8
0
 62
     0
100
AcDbLine
 10
21.25047808566086
 20
20.33021862669284
 30
0.0
 11
18.45047808566079
 21
23.13021862669285
 31
0.0
  0
LINE
  5
AE8
330
A46
100
AcDbEntity
  8
0
 62
     0
100
AcDbLine
 10
15.02311042953113
 20
26.55758628282257
 30
0.0
 11
12.223110429531
 21
29.3575862828227
 31
0.0
  0
LINE
  5
AE9
330
A46
100
AcDbEntity
  8
0
 62
     0
100
AcDbLine
 10
28.32311042953108
 20
13.25758628282256
 30
0.0
 11
27.55047808566081
 21
14.03021862669288
 31
0.0
  0
LINE
  5
AEA
330
A46
100
AcDbEntity
  8
0
 62
     0
100
AcDbLine
 10
21.25047808566092
 20
19.43219301458595
 30
0.0
 11
18.45047808566085
 21
22.23219301458602
 31
0.0
  0
LINE
  5
AEB
330
A46
100
AcDbEntity
  8
0
 62
     0
100
AcDbLine
 10
14.12508481742424
 20
26.55758628282257
 30
0.0
 11
11.35995554531934
 21
29.32271555492753
 31
0.0
  0
LINE
  5
AEC
330
A46
100
AcDbEntity
  8
0
 62
     0
100
AcDbLine
 10
25.09787563682392
 20
15.58479546342289
 30
0.0
 11
24.62768726626121
 21
16.05498383398566
 31
0.0
  0
LINE
  5
AED
330
A46
100
AcDbEntity
  8
0
 62
     0
100
AcDbLine
 10
21.25047808566086
 20
18.534167402479
 30
0.0
 11
18.45047808566085
 21
21.33416740247907
 31
0.0
  0
LINE
  5
AEE
330
A46
100
AcDbEntity
  8
0
 62
     0
100
AcDbLine
 10
13.22705920531734
 20
26.55758628282257
 30
0.0
 11
10.66682073684086
 21
29.11782475129906
 31
0.0
  0
LINE
  5
AEF
330
A46
100
AcDbEntity
  8
0
 62
     0
100
AcDbLine
 10
25.10047808566083
 20
14.68416740247903
 30
0.0
 11
23.72705920531729
 21
16.05758628282262
 31
0.0
  0
LINE
  5
AF0
330
A46
100
AcDbEntity
  8
0
 62
     0
100
AcDbLine
 10
21.25047808566086
 20
17.63614179037211
 30
0.0
 11
18.4504780856609
 21
20.43614179037206
 31
0.0
  0
LINE
  5
AF1
330
A46
100
AcDbEntity
  8
0
 62
     0
100
AcDbLine
 10
12.3290335932104
 20
26.55758628282252
 30
0.0
 11
10.10257407699362
 21
28.78404579903929
 31
0.0
  0
LINE
  5
AF2
330
A46
100
AcDbEntity
  8
0
 62
     0
100
AcDbLine
 10
25.10047808566083
 20
13.78614179037214
 30
0.0
 11
22.8290335932104
 21
16.05758628282251
 31
0.0
  0
LINE
  5
AF3
330
A46
100
AcDbEntity
  8
0
 62
     0
100
AcDbLine
 10
11.8187407655958
 20
26.16985349833033
 30
0.0
 11
9.644481264752869
 21
28.34411299917326
 31
0.0
  0
LINE
  5
AF4
330
A46
100
AcDbEntity
  8
0
 62
     0
100
AcDbLine
 10
24.71274530116853
 20
13.27584896275761
 30
0.0
 11
18.4504780856609
 21
19.53811617826523
 31
0.0
  0
LINE
  5
AF5
330
A46
100
AcDbEntity
  8
0
 62
     0
100
AcDbLine
 10
11.80047808566087
 20
25.29009056615831
 30
0.0
 11
9.291000062283785
 21
27.7995685895354
 31
0.0
  0
LINE
  5
AF6
330
A46
100
AcDbEntity
  8
0
 62
     0
100
AcDbLine
 10
23.83298236899662
 20
13.25758628282256
 30
0.0
 11
18.4504780856609
 21
18.64009056615828
 31
0.0
  0
LINE
  5
AF7
330
A46
100
AcDbEntity
  8
0
 62
     0
100
AcDbLine
 10
11.8626137937963
 20
24.32992924591588
 30
0.0
 11
9.060119959990061
 21
27.13242307972218
 31
0.0
  0
LINE
  5
AF8
330
A46
100
AcDbEntity
  8
0
 62
     0
100
AcDbLine
 10
22.93495675688962
 20
13.25758628282261
 30
0.0
 11
18.45047808566085
 21
17.74206495405133
 31
0.0
  0
LINE
  5
AF9
330
A46
100
AcDbEntity
  8
0
 62
     0
100
AcDbLine
 10
16.15485417688353
 20
19.13966325072181
 30
0.0
 11
9.000478085660915
 21
26.29403934194443
 31
0.0
  0
LINE
  5
AFA
330
A46
100
AcDbEntity
  8
0
 62
     0
100
AcDbLine
 10
21.98365905772607
 20
13.31085836987927
 30
0.0
 11
18.5037501727175
 21
16.79076725488784
 31
0.0
  0
LINE
  5
AFB
330
A46
100
AcDbEntity
  8
0
 62
     0
100
AcDbLine
 10
16.34674869096875
 20
18.04974312452969
 30
0.0
 11
9.000478085660802
 21
25.39601372983765
 31
0.0
  0
LINE
  5
AFC
330
A46
100
AcDbEntity
  8
0
 62
     0
100
AcDbLine
 10
20.60985114512448
 20
13.78664067037391
 30
0.0
 11
18.97953247321209
 21
15.41695934228636
 31
0.0
  0
LINE
  5
AFD
330
A46
100
AcDbEntity
  8
0
 62
     0
100
AcDbLine
 10
16.35047808566088
 20
17.14798811773062
 30
0.0
 11
9.008042533083198
 21
24.49042367030825
 31
0.0
  0
LINE
  5
AFE
330
A46
100
AcDbEntity
  8
0
 62
     0
100
AcDbLine
 10
16.35047808566082
 20
16.24996250562373
 30
0.0
 11
9.231333291407054
 21
23.36910729987744
 31
0.0
  0
LINE
  5
AFF
330
A46
100
AcDbEntity
  8
0
 62
     0
100
AcDbLine
 10
16.27795808952891
 20
15.42445688964881
 30
0.0
 11
13.51456644590985
 21
18.18784853326787
 31
0.0
  0
LINE
  5
B00
330
A46
100
AcDbEntity
  8
0
 62
     0
100
AcDbLine
 10
16.03602015050006
 20
14.7683692165707
 30
0.0
 11
13.55047808566081
 21
17.25391128140995
 31
0.0
  0
LINE
  5
B01
330
A46
100
AcDbEntity
  8
0
 62
     0
100
AcDbLine
 10
15.67390090311829
 20
14.23246285184552
 30
0.0
 11
13.51457905336014
 21
16.39178470160368
 31
0.0
  0
LINE
  5
B02
330
A46
100
AcDbEntity
  8
0
 62
     0
100
AcDbLine
 10
15.20767453085142
 20
13.80066361200551
 30
0.0
 11
12.9507518600343
 21
16.05758628282268
 31
0.0
  0
LINE
  5
B03
330
A46
100
AcDbEntity
  8
0
 62
     0
100
AcDbLine
 10
14.63441008311861
 20
13.47590244763142
 30
0.0
 11
12.05272624792735
 21
16.05758628282262
 31
0.0
  0
LINE
  5
B04
330
A46
100
AcDbEntity
  8
0
 62
     0
100
AcDbLine
 10
13.92899749403267
 20
13.28328942461041
 30
0.0
 11
11.15470063582046
 21
16.05758628282262
 31
0.0
  0
LINE
  5
B05
330
A46
100
AcDbEntity
  8
0
 62
     0
100
AcDbLine
 10
13.05667502371363
 20
13.25758628282244
 30
0.0
 11
10.25667502371351
 21
16.05758628282262
 31
0.0
  0
LINE
  5
B06
330
A46
100
AcDbEntity
  8
0
 62
     0
100
AcDbLine
 10
12.15864941160669
 20
13.25758628282256
 30
0.0
 11
9.605325516788809
 21
15.81091017764049
 31
0.0
  0
LINE
  5
B07
330
A46
100
AcDbEntity
  8
0
 62
     0
100
AcDbLine
 10
11.2606237994998
 20
13.25758628282256
 30
0.0
 11
9.525478085660836
 21
14.99273199666152
 31
0.0
  0
LINE
  5
B08
330
A46
100
AcDbEntity
  8
0
 62
     0
100
AcDbLine
 10
10.36259818739285
 20
13.25758628282256
 30
0.0
 11
9.525478085660836
 21
14.09470638455457
 31
0.0
  0
LINE
  5
B09
330
A46
100
AcDbEntity
  8
0
 62
     0
100
AcDbLine
 10
66.34216537032779
 20
13.27071805994012
 30
0.0
 11
66.73734630854358
 21
13.66589899815591
 31
0.0
  0
LINE
  5
B0A
330
A46
100
AcDbEntity
  8
0
 62
     0
100
AcDbLine
 10
65.43100798110334
 20
13.2575862828225
 30
0.0
 11
66.75047808566103
 21
14.57705638738019
 31
0.0
  0
LINE
  5
B0B
330
A46
100
AcDbEntity
  8
0
 62
     0
100
AcDbLine
 10
64.53298236899644
 20
13.2575862828225
 30
0.0
 11
66.75047808566103
 21
15.47508199948708
 31
0.0
  0
LINE
  5
B0C
330
A46
100
AcDbEntity
  8
0
 62
     0
100
AcDbLine
 10
63.9816756489127
 20
13.60430517484571
 30
0.0
 11
66.75047808566097
 21
16.37310761159404
 31
0.0
  0
LINE
  5
B0D
330
A46
100
AcDbEntity
  8
0
 62
     0
100
AcDbLine
 10
63.9504780856609
 20
14.47113322370086
 30
0.0
 11
66.75047808566097
 21
17.27113322370087
 31
0.0
  0
LINE
  5
B0E
330
A46
100
AcDbEntity
  8
0
 62
     0
100
AcDbLine
 10
63.95047808566096
 20
15.36915883580775
 30
0.0
 11
66.75047808566097
 21
18.16915883580782
 31
0.0
  0
LINE
  5
B0F
330
A46
100
AcDbEntity
  8
0
 62
     0
100
AcDbLine
 10
63.9504780856609
 20
16.2671844479147
 30
0.0
 11
66.75047808566097
 21
19.06718444791477
 31
0.0
  0
LINE
  5
B10
330
A46
100
AcDbEntity
  8
0
 62
     0
100
AcDbLine
 10
63.9504780856609
 20
17.16521006002159
 30
0.0
 11
66.75047808566097
 21
19.96521006002166
 31
0.0
  0
LINE
  5
B11
330
A46
100
AcDbEntity
  8
0
 62
     0
100
AcDbLine
 10
60.37704294772618
 20
13.59177492208687
 30
0.0
 11
61.51628944639674
 21
14.73102142075748
 31
0.0
  0
LINE
  5
B12
330
A46
100
AcDbEntity
  8
0
 62
     0
100
AcDbLine
 10
63.9504780856609
 20
18.06323567212848
 30
0.0
 11
66.75047808566097
 21
20.86323567212855
 31
0.0
  0
LINE
  5
B13
330
A46
100
AcDbEntity
  8
0
 62
     0
100
AcDbLine
 10
59.14647478120338
 20
13.25923236767096
 30
0.0
 11
61.8488320008127
 21
15.96158958728023
 31
0.0
  0
LINE
  5
B14
330
A46
100
AcDbEntity
  8
0
 62
     0
100
AcDbLine
 10
63.9504780856609
 20
18.96126128423543
 30
0.0
 11
66.75047808566097
 21
21.76126128423545
 31
0.0
  0
LINE
  5
B15
330
A46
100
AcDbEntity
  8
0
 62
     0
100
AcDbLine
 10
58.24680308424797
 20
13.2575862828225
 30
0.0
 11
61.850478085661
 21
16.86126128423547
 31
0.0
  0
LINE
  5
B16
330
A46
100
AcDbEntity
  8
0
 62
     0
100
AcDbLine
 10
63.9504780856609
 20
19.85928689634232
 30
0.0
 11
66.75047808566091
 21
22.6592868963424
 31
0.0
  0
LINE
  5
B17
330
A46
100
AcDbEntity
  8
0
 62
     0
100
AcDbLine
 10
57.34877747214108
 20
13.2575862828225
 30
0.0
 11
61.85047808566094
 21
17.75928689634241
 31
0.0
  0
LINE
  5
B18
330
A46
100
AcDbEntity
  8
0
 62
     0
100
AcDbLine
 10
63.9504780856609
 20
20.75731250844922
 30
0.0
 11
66.75047808566097
 21
23.55731250844929
 31
0.0
  0
LINE
  5
B19
330
A46
100
AcDbEntity
  8
0
 62
     0
100
AcDbLine
 10
56.45075186003424
 20
13.25758628282256
 30
0.0
 11
61.850478085661
 21
18.65731250844931
 31
0.0
  0
LINE
  5
B1A
330
A46
100
AcDbEntity
  8
0
 62
     0
100
AcDbLine
 10
58.94588688357988
 20
16.65074691847513
 30
0.0
 11
61.850478085661
 21
19.5553381205562
 31
0.0
  0
LINE
  5
B1B
330
A46
100
AcDbEntity
  8
0
 62
     0
100
AcDbLine
 10
63.9504780856609
 20
21.65533812055611
 30
0.0
 11
66.75047808566097
 21
24.45533812055618
 31
0.0
  0
LINE
  5
B1C
330
A46
100
AcDbEntity
  8
0
 62
     0
100
AcDbLine
 10
55.55272624792724
 20
13.2575862828225
 30
0.0
 11
58.45731745000836
 21
16.16217748490356
 31
0.0
  0
LINE
  5
B1D
330
A46
100
AcDbEntity
  8
0
 62
     0
100
AcDbLine
 10
59.05047808566087
 20
17.65336373266308
 30
0.0
 11
61.85047808566094
 21
20.45336373266315
 31
0.0
  0
LINE
  5
B1E
330
A46
100
AcDbEntity
  8
0
 62
     0
100
AcDbLine
 10
63.95047808566085
 20
22.55336373266306
 30
0.0
 11
66.75047808566091
 21
25.35336373266313
 31
0.0
  0
LINE
  5
B1F
330
A46
100
AcDbEntity
  8
0
 62
     0
100
AcDbLine
 10
54.76665038719755
 20
13.36953603419971
 30
0.0
 11
57.45470063582041
 21
16.05758628282257
 31
0.0
  0
LINE
  5
B20
330
A46
100
AcDbEntity
  8
0
 62
     0
100
AcDbLine
 10
59.05047808566092
 20
18.55138934477009
 30
0.0
 11
61.85047808566094
 21
21.35138934477004
 31
0.0
  0
LINE
  5
B21
330
A46
100
AcDbEntity
  8
0
 62
     0
100
AcDbLine
 10
63.95047808566085
 20
23.45138934477001
 30
0.0
 11
66.75047808566091
 21
26.25138934477002
 31
0.0
  0
LINE
  5
B22
330
A46
100
AcDbEntity
  8
0
 62
     0
100
AcDbLine
 10
54.1386635199874
 20
13.63957477909656
 30
0.0
 11
56.55755280935784
 21
16.058464068467
 31
0.0
  0
LINE
  5
B23
330
A46
100
AcDbEntity
  8
0
 62
     0
100
AcDbLine
 10
59.05047808566099
 20
19.44941495687698
 30
0.0
 11
61.85047808566094
 21
22.24941495687693
 31
0.0
  0
LINE
  5
B24
330
A46
100
AcDbEntity
  8
0
 62
     0
100
AcDbLine
 10
63.9504780856609
 20
24.34941495687684
 30
0.0
 11
66.75047808566091
 21
27.14941495687691
 31
0.0
  0
LINE
  5
B25
330
A46
100
AcDbEntity
  8
0
 62
     0
100
AcDbLine
 10
53.62540363862234
 20
14.02434050983828
 30
0.0
 11
55.91407422064515
 21
16.31301109186114
 31
0.0
  0
LINE
  5
B26
330
A46
100
AcDbEntity
  8
0
 62
     0
100
AcDbLine
 10
59.05047808566099
 20
20.34744056898387
 30
0.0
 11
61.85047808566094
 21
23.14744056898388
 31
0.0
  0
LINE
  5
B27
330
A46
100
AcDbEntity
  8
0
 62
     0
100
AcDbLine
 10
63.95047808566085
 20
25.24744056898379
 30
0.0
 11
66.75047808566091
 21
28.04744056898386
 31
0.0
  0
LINE
  5
B28
330
A46
100
AcDbEntity
  8
0
 62
     0
100
AcDbLine
 10
53.21543946339722
 20
14.5124019467201
 30
0.0
 11
55.57683594223573
 21
16.87379842555867
 31
0.0
  0
LINE
  5
B29
330
A46
100
AcDbEntity
  8
0
 62
     0
100
AcDbLine
 10
59.05047808566092
 20
21.24546618109082
 30
0.0
 11
61.850478085661
 21
24.04546618109089
 31
0.0
  0
LINE
  5
B2A
330
A46
100
AcDbEntity
  8
0
 62
     0
100
AcDbLine
 10
63.95047808566085
 20
26.14546618109069
 30
0.0
 11
66.74032893211045
 21
28.93531702754035
 31
0.0
  0
LINE
  5
B2B
330
A46
100
AcDbEntity
  8
0
 62
     0
100
AcDbLine
 10
52.91551458496321
 20
15.1105026803931
 30
0.0
 11
55.55047808566093
 21
17.74546618109076
 31
0.0
  0
LINE
  5
B2C
330
A46
100
AcDbEntity
  8
0
 62
     0
100
AcDbLine
 10
59.05047808566099
 20
22.14349179319766
 30
0.0
 11
61.85047808566105
 21
24.94349179319772
 31
0.0
  0
LINE
  5
B2D
330
A46
100
AcDbEntity
  8
0
 62
     0
100
AcDbLine
 10
63.95047808566085
 20
27.04349179319758
 30
0.0
 11
66.26321458703097
 21
29.3562282945677
 31
0.0
  0
LINE
  5
B2E
330
A46
100
AcDbEntity
  8
0
 62
     0
100
AcDbLine
 10
52.75810105000676
 20
15.85111475754348
 30
0.0
 11
55.55047808566093
 21
18.64349179319765
 31
0.0
  0
LINE
  5
B2F
330
A46
100
AcDbEntity
  8
0
 62
     0
100
AcDbLine
 10
59.05047808566092
 20
23.04151740530461
 30
0.0
 11
61.850478085661
 21
25.84151740530467
 31
0.0
  0
LINE
  5
B30
330
A46
100
AcDbEntity
  8
0
 62
     0
100
AcDbLine
 10
63.9504780856609
 20
27.94151740530458
 30
0.0
 11
65.3665469631789
 21
29.35758628282258
 31
0.0
  0
LINE
  5
B31
330
A46
100
AcDbEntity
  8
0
 62
     0
100
AcDbLine
 10
52.75047808566097
 20
16.74151740530459
 30
0.0
 11
55.55047808566098
 21
19.54151740530466
 31
0.0
  0
LINE
  5
B32
330
A46
100
AcDbEntity
  8
0
 62
     0
100
AcDbLine
 10
59.05047808566092
 20
23.93954301741155
 30
0.0
 11
61.850478085661
 21
26.73954301741157
 31
0.0
  0
LINE
  5
B33
330
A46
100
AcDbEntity
  8
0
 62
     0
100
AcDbLine
 10
52.75047808566092
 20
17.63954301741154
 30
0.0
 11
55.55047808566098
 21
20.43954301741161
 31
0.0
  0
LINE
  5
B34
330
A46
100
AcDbEntity
  8
0
 62
     0
100
AcDbLine
 10
63.95052480040835
 20
28.83958973215897
 30
0.0
 11
64.46847463632463
 21
29.3575395680752
 31
0.0
  0
LINE
  5
B35
330
A46
100
AcDbEntity
  8
0
 62
     0
100
AcDbLine
 10
48.42892245494891
 20
13.31798738669948
 30
0.0
 11
50.59007698178408
 21
15.4791419135347
 31
0.0
  0
LINE
  5
B36
330
A46
100
AcDbEntity
  8
0
 62
     0
100
AcDbLine
 10
52.75047808566092
 20
18.53756862951843
 30
0.0
 11
55.55047808566098
 21
21.3375686295185
 31
0.0
  0
LINE
  5
B37
330
A46
100
AcDbEntity
  8
0
 62
     0
100
AcDbLine
 10
59.05047808566092
 20
24.83756862951845
 30
0.0
 11
61.85047808566094
 21
27.63756862951851
 31
0.0
  0
LINE
  5
B38
330
A46
100
AcDbEntity
  8
0
 62
     0
100
AcDbLine
 10
47.47049573896504
 20
13.25758628282261
 30
0.0
 11
50.65047808566089
 21
16.43756862951846
 31
0.0
  0
LINE
  5
B39
330
A46
100
AcDbEntity
  8
0
 62
     0
100
AcDbLine
 10
52.75047808566092
 20
19.43559424162532
 30
0.0
 11
55.55047808566098
 21
22.23559424162539
 31
0.0
  0
LINE
  5
B3A
330
A46
100
AcDbEntity
  8
0
 62
     0
100
AcDbLine
 10
59.05047808566092
 20
25.73559424162534
 30
0.0
 11
61.850478085661
 21
28.5355942416254
 31
0.0
  0
LINE
  5
B3B
330
A46
100
AcDbEntity
  8
0
 62
     0
100
AcDbLine
 10
46.57247012685814
 20
13.25758628282256
 30
0.0
 11
50.65047808566095
 21
17.3355942416253
 31
0.0
  0
LINE
  5
B3C
330
A46
100
AcDbEntity
  8
0
 62
     0
100
AcDbLine
 10
52.75047808566092
 20
20.33361985373227
 30
0.0
 11
55.55047808566098
 21
23.13361985373228
 31
0.0
  0
LINE
  5
B3D
330
A46
100
AcDbEntity
  8
0
 62
     0
100
AcDbLine
 10
59.05047808566092
 20
26.63361985373223
 30
0.0
 11
61.65674063082684
 21
29.23988239889821
 31
0.0
  0
LINE
  5
B3E
330
A46
100
AcDbEntity
  8
0
 62
     0
100
AcDbLine
 10
45.67444451475125
 20
13.25758628282261
 30
0.0
 11
50.63615948524807
 21
18.21930125331937
 31
0.0
  0
LINE
  5
B3F
330
A46
100
AcDbEntity
  8
0
 62
     0
100
AcDbLine
 10
52.75047808566092
 20
21.23164546583916
 30
0.0
 11
55.55047808566093
 21
24.03164546583923
 31
0.0
  0
LINE
  5
B40
330
A46
100
AcDbEntity
  8
0
 62
     0
100
AcDbLine
 10
59.05047808566087
 20
27.53164546583918
 30
0.0
 11
60.87641890264433
 21
29.35758628282264
 31
0.0
  0
LINE
  5
B41
330
A46
100
AcDbEntity
  8
0
 62
     0
100
AcDbLine
 10
44.77641890264431
 20
13.25758628282261
 30
0.0
 11
50.50124711461927
 21
18.98241449479758
 31
0.0
  0
LINE
  5
B42
330
A46
100
AcDbEntity
  8
0
 62
     0
100
AcDbLine
 10
52.75047808566092
 20
22.12967107794606
 30
0.0
 11
55.55047808566098
 21
24.92967107794612
 31
0.0
  0
LINE
  5
B43
330
A46
100
AcDbEntity
  8
0
 62
     0
100
AcDbLine
 10
47.85047808566105
 20
17.22967107794613
 30
0.0
 11
50.26065965770072
 21
19.63985264998587
 31
0.0
  0
LINE
  5
B44
330
A46
100
AcDbEntity
  8
0
 62
     0
100
AcDbLine
 10
59.05047808566092
 20
28.42967107794607
 30
0.0
 11
59.9783932905375
 21
29.35758628282264
 31
0.0
  0
LINE
  5
B45
330
A46
100
AcDbEntity
  8
0
 62
     0
100
AcDbLine
 10
44.00664864366854
 20
13.38584163595368
 30
0.0
 11
46.67839329053743
 21
16.05758628282257
 31
0.0
  0
LINE
  5
B46
330
A46
100
AcDbEntity
  8
0
 62
     0
100
AcDbLine
 10
47.83060751053364
 20
18.10782611492567
 30
0.0
 11
49.93716035284013
 21
20.21437895723216
 31
0.0
  0
LINE
  5
B47
330
A46
100
AcDbEntity
  8
0
 62
     0
100
AcDbLine
 10
52.75047808566092
 20
23.02769669005295
 30
0.0
 11
55.55047808566093
 21
25.82769669005302
 31
0.0
  0
LINE
  5
B48
330
A46
100
AcDbEntity
  8
0
 62
     0
100
AcDbLine
 10
43.82547808566096
 20
14.10269669005299
 30
0.0
 11
45.78036767843047
 21
16.05758628282257
 31
0.0
  0
LINE
  5
B49
330
A46
100
AcDbEntity
  8
0
 62
     0
100
AcDbLine
 10
47.55622267339475
 20
18.73146688989379
 30
0.0
 11
49.54128923491231
 21
20.71653345141135
 31
0.0
  0
LINE
  5
B4A
330
A46
100
AcDbEntity
  8
0
 62
     0
100
AcDbLine
 10
52.75047808566085
 20
23.9257223021599
 30
0.0
 11
55.55047808566093
 21
26.72572230215997
 31
0.0
  0
LINE
  5
B4B
330
A46
100
AcDbEntity
  8
0
 62
     0
100
AcDbLine
 10
43.8254780856609
 20
15.00072230215994
 30
0.0
 11
44.88234206632358
 21
16.05758628282262
 31
0.0
  0
LINE
  5
B4C
330
A46
100
AcDbEntity
  8
0
 62
     0
100
AcDbLine
 10
52.75047808566092
 20
24.82374791426679
 30
0.0
 11
55.55047808566098
 21
27.6237479142668
 31
0.0
  0
LINE
  5
B4D
330
A46
100
AcDbEntity
  8
0
 62
     0
100
AcDbLine
 10
47.11494777627769
 20
19.1882176048835
 30
0.0
 11
49.09484676360006
 21
21.16811659220593
 31
0.0
  0
LINE
  5
B4E
330
A46
100
AcDbEntity
  8
0
 62
     0
100
AcDbLine
 10
46.66593497022421
 20
19.63723041093698
 30
0.0
 11
48.64583395754658
 21
21.61712939825941
 31
0.0
  0
LINE
  5
B4F
330
A46
100
AcDbEntity
  8
0
 62
     0
100
AcDbLine
 10
52.75047808566085
 20
25.72177352637368
 30
0.0
 11
55.55047808566093
 21
28.52177352637375
 31
0.0
  0
LINE
  5
B50
330
A46
100
AcDbEntity
  8
0
 62
     0
100
AcDbLine
 10
40.28629084210973
 20
13.25758628282256
 30
0.0
 11
41.2004780856609
 21
14.17177352637367
 31
0.0
  0
LINE
  5
B51
330
A46
100
AcDbEntity
  8
0
 62
     0
100
AcDbLine
 10
46.21692216417073
 20
20.08624321699045
 30
0.0
 11
48.19682115149311
 21
22.06614220431288
 31
0.0
  0
LINE
  5
B52
330
A46
100
AcDbEntity
  8
0
 62
     0
100
AcDbLine
 10
52.75047808566085
 20
26.61979913848063
 30
0.0
 11
55.36429717756226
 21
29.23361823038198
 31
0.0
  0
LINE
  5
B53
330
A46
100
AcDbEntity
  8
0
 62
     0
100
AcDbLine
 10
39.38826523000279
 20
13.25758628282256
 30
0.0
 11
41.20047808566096
 21
15.06979913848067
 31
0.0
  0
LINE
  5
B54
330
A46
100
AcDbEntity
  8
0
 62
     0
100
AcDbLine
 10
45.76790935811726
 20
20.53525602304393
 30
0.0
 11
47.74780834543963
 21
22.51515501036636
 31
0.0
  0
LINE
  5
B55
330
A46
100
AcDbEntity
  8
0
 62
     0
100
AcDbLine
 10
52.75047808566085
 20
27.51782475058752
 30
0.0
 11
54.59023961789597
 21
29.3575862828227
 31
0.0
  0
LINE
  5
B56
330
A46
100
AcDbEntity
  8
0
 62
     0
100
AcDbLine
 10
38.60185075575788
 20
13.36919742068454
 30
0.0
 11
41.2004780856609
 21
15.96782475058762
 31
0.0
  0
LINE
  5
B57
330
A46
100
AcDbEntity
  8
0
 62
     0
100
AcDbLine
 10
45.31889655206384
 20
20.98426882909735
 30
0.0
 11
47.29879553938622
 21
22.96416781641978
 31
0.0
  0
LINE
  5
B58
330
A46
100
AcDbEntity
  8
0
 62
     0
100
AcDbLine
 10
52.75047808566085
 20
28.41585036269441
 30
0.0
 11
53.69221400578914
 21
29.35758628282264
 31
0.0
  0
LINE
  5
B59
330
A46
100
AcDbEntity
  8
0
 62
     0
100
AcDbLine
 10
38.40047808566095
 20
14.0658503626945
 30
0.0
 11
41.20047808566096
 21
16.86585036269446
 31
0.0
  0
LINE
  5
B5A
330
A46
100
AcDbEntity
  8
0
 62
     0
100
AcDbLine
 10
44.86988374601037
 20
21.43328163515082
 30
0.0
 11
46.84978273333274
 21
23.41318062247325
 31
0.0
  0
LINE
  5
B5B
330
A46
100
AcDbEntity
  8
0
 62
     0
100
AcDbLine
 10
38.40047808566095
 20
14.96387597480145
 30
0.0
 11
41.2004780856609
 21
17.76387597480141
 31
0.0
  0
LINE
  5
B5C
330
A46
100
AcDbEntity
  8
0
 62
     0
100
AcDbLine
 10
44.42289984496904
 20
21.88432334621649
 30
0.0
 11
46.40687337835106
 21
23.86829687959846
 31
0.0
  0
LINE
  5
B5D
330
A46
100
AcDbEntity
  8
0
 62
     0
100
AcDbLine
 10
38.40047808566095
 20
15.86190158690834
 30
0.0
 11
41.2004780856609
 21
18.66190158690836
 31
0.0
  0
LINE
  5
B5E
330
A46
100
AcDbEntity
  8
0
 62
     0
100
AcDbLine
 10
49.09616278157511
 20
26.55758628282257
 30
0.0
 11
50.12547808566097
 21
27.58690158690837
 31
0.0
  0
LINE
  5
B5F
330
A46
100
AcDbEntity
  8
0
 62
     0
100
AcDbLine
 10
35.90782186095072
 20
13.36924536219811
 30
0.0
 11
35.99747422240574
 21
13.45889772365319
 31
0.0
  0
LINE
  5
B60
330
A46
100
AcDbEntity
  8
0
 62
     0
100
AcDbLine
 10
44.02489766614706
 20
22.38434677950136
 30
0.0
 11
46.12453194356567
 21
24.48398105691996
 31
0.0
  0
LINE
  5
B61
330
A46
100
AcDbEntity
  8
0
 62
     0
100
AcDbLine
 10
38.40047808566095
 20
16.75992719901524
 30
0.0
 11
41.20047808566096
 21
19.55992719901519
 31
0.0
  0
LINE
  5
B62
330
A46
100
AcDbEntity
  8
0
 62
     0
100
AcDbLine
 10
48.19813716946834
 20
26.55758628282263
 30
0.0
 11
50.12547808566097
 21
28.48492719901526
 31
0.0
  0
LINE
  5
B63
330
A46
100
AcDbEntity
  8
0
 62
     0
100
AcDbLine
 10
34.89813716946827
 20
13.25758628282256
 30
0.0
 11
35.9639162657748
 21
14.32336537912908
 31
0.0
  0
LINE
  5
B64
330
A46
100
AcDbEntity
  8
0
 62
     0
100
AcDbLine
 10
43.69906340175037
 20
22.95653812721162
 30
0.0
 11
46.10047808566105
 21
25.35795281112229
 31
0.0
  0
LINE
  5
B65
330
A46
100
AcDbEntity
  8
0
 62
     0
100
AcDbLine
 10
38.40047808566095
 20
17.65795281112213
 30
0.0
 11
41.2004780856609
 21
20.45795281112214
 31
0.0
  0
LINE
  5
B66
330
A46
100
AcDbEntity
  8
0
 62
     0
100
AcDbLine
 10
47.30011155736133
 20
26.55758628282257
 30
0.0
 11
49.95880915386305
 21
29.21628387932429
 31
0.0
  0
LINE
  5
B67
330
A46
100
AcDbEntity
  8
0
 62
     0
100
AcDbLine
 10
34.00011155736127
 20
13.2575862828225
 30
0.0
 11
35.74839011886911
 21
15.00586484433035
 31
0.0
  0
LINE
  5
B68
330
A46
100
AcDbEntity
  8
0
 62
     0
100
AcDbLine
 10
38.40047808566089
 20
18.55597842322907
 30
0.0
 11
41.2004780856609
 21
21.35597842322903
 31
0.0
  0
LINE
  5
B69
330
A46
100
AcDbEntity
  8
0
 62
     0
100
AcDbLine
 10
43.45568133908028
 20
23.61118167664847
 30
0.0
 11
49.20208594525445
 21
29.35758628282264
 31
0.0
  0
LINE
  5
B6A
330
A46
100
AcDbEntity
  8
0
 62
     0
100
AcDbLine
 10
33.40809724670629
 20
13.56359758427447
 30
0.0
 11
35.53286397196342
 21
15.68836430953161
 31
0.0
  0
LINE
  5
B6B
330
A46
100
AcDbEntity
  8
0
 62
     0
100
AcDbLine
 10
38.40047808566089
 20
19.45400403533603
 30
0.0
 11
41.20047808566084
 21
22.25400403533598
 31
0.0
  0
LINE
  5
B6C
330
A46
100
AcDbEntity
  8
0
 62
     0
100
AcDbLine
 10
43.31697447999459
 20
24.37050042966973
 30
0.0
 11
48.30406033314756
 21
29.35758628282264
 31
0.0
  0
LINE
  5
B6D
330
A46
100
AcDbEntity
  8
0
 62
     0
100
AcDbLine
 10
33.18933782505769
 20
14.24286377473282
 30
0.0
 11
35.31733782505773
 21
16.37086377473287
 31
0.0
  0
LINE
  5
B6E
330
A46
100
AcDbEntity
  8
0
 62
     0
100
AcDbLine
 10
38.40047808566095
 20
20.35202964744286
 30
0.0
 11
41.2004780856609
 21
23.15202964744287
 31
0.0
  0
LINE
  5
B6F
330
A46
100
AcDbEntity
  8
0
 62
     0
100
AcDbLine
 10
43.30047808566092
 20
25.25202964744284
 30
0.0
 11
47.40603472104067
 21
29.35758628282264
 31
0.0
  0
LINE
  5
B70
330
A46
100
AcDbEntity
  8
0
 62
     0
100
AcDbLine
 10
32.97381167815206
 20
14.92536323993403
 30
0.0
 11
35.10181167815216
 21
17.05336323993407
 31
0.0
  0
LINE
  5
B71
330
A46
100
AcDbEntity
  8
0
 62
     0
100
AcDbLine
 10
38.40047808566089
 20
21.25005525954981
 30
0.0
 11
41.2004780856609
 21
24.05005525954976
 31
0.0
  0
LINE
  5
B72
330
A46
100
AcDbEntity
  8
0
 62
     0
100
AcDbLine
 10
43.30047808566098
 20
26.15005525954984
 30
0.0
 11
46.50800910893377
 21
29.35758628282264
 31
0.0
  0
LINE
  5
B73
330
A46
100
AcDbEntity
  8
0
 62
     0
100
AcDbLine
 10
32.75828553124632
 20
15.60786270513523
 30
0.0
 11
34.88628553124653
 21
17.73586270513544
 31
0.0
  0
LINE
  5
B74
330
A46
100
AcDbEntity
  8
0
 62
     0
100
AcDbLine
 10
38.40047808566089
 20
22.1480808716567
 30
0.0
 11
41.20047808566096
 21
24.94808087165677
 31
0.0
  0
LINE
  5
B75
330
A46
100
AcDbEntity
  8
0
 62
     0
100
AcDbLine
 10
32.54275938434068
 20
16.29036217033655
 30
0.0
 11
34.67075938434078
 21
18.41836217033659
 31
0.0
  0
LINE
  5
B76
330
A46
100
AcDbEntity
  8
0
 62
     0
100
AcDbLine
 10
43.35379475578213
 20
27.101397541778
 30
0.0
 11
45.55666682670545
 21
29.30426961270132
 31
0.0
  0
LINE
  5
B77
330
A46
100
AcDbEntity
  8
0
 62
     0
100
AcDbLine
 10
29.50998349682669
 20
13.25758628282256
 30
0.0
 11
30.35047808566088
 21
14.09808087165675
 31
0.0
  0
LINE
  5
B78
330
A46
100
AcDbEntity
  8
0
 62
     0
100
AcDbLine
 10
32.32723323743511
 20
16.97286163553775
 30
0.0
 11
34.45523323743515
 21
19.10086163553785
 31
0.0
  0
LINE
  5
B79
330
A46
100
AcDbEntity
  8
0
 62
     0
100
AcDbLine
 10
38.40047808566089
 20
23.04610648376359
 30
0.0
 11
41.20047808566096
 21
25.84610648376366
 31
0.0
  0
LINE
  5
B7A
330
A46
100
AcDbEntity
  8
0
 62
     0
100
AcDbLine
 10
28.61195788471986
 20
13.2575862828225
 30
0.0
 11
30.35047808566094
 21
14.99610648376364
 31
0.0
  0
LINE
  5
B7B
330
A46
100
AcDbEntity
  8
0
 62
     0
100
AcDbLine
 10
32.11170709052942
 20
17.65536110073901
 30
0.0
 11
34.23970709052947
 21
19.78336110073911
 31
0.0
  0
LINE
  5
B7C
330
A46
100
AcDbEntity
  8
0
 62
     0
100
AcDbLine
 10
38.40047808566089
 20
23.94413209587054
 30
0.0
 11
41.20047808566096
 21
26.74413209587056
 31
0.0
  0
LINE
  5
B7D
330
A46
100
AcDbEntity
  8
0
 62
     0
100
AcDbLine
 10
27.7950820202642
 20
13.33873603047385
 30
0.0
 11
30.35047808566094
 21
15.89413209587053
 31
0.0
  0
LINE
  5
B7E
330
A46
100
AcDbEntity
  8
0
 62
     0
100
AcDbLine
 10
31.89618094362373
 20
18.33786056594027
 30
0.0
 11
34.02418094362378
 21
20.46586056594037
 31
0.0
  0
LINE
  5
B7F
330
A46
100
AcDbEntity
  8
0
 62
     0
100
AcDbLine
 10
38.40047808566089
 20
24.84215770797744
 30
0.0
 11
41.2004780856609
 21
27.64215770797751
 31
0.0
  0
LINE
  5
B80
330
A46
100
AcDbEntity
  8
0
 62
     0
100
AcDbLine
 10
27.55047808566093
 20
13.99215770797747
 30
0.0
 11
30.350478085661
 21
16.79215770797753
 31
0.0
  0
LINE
  5
B81
330
A46
100
AcDbEntity
  8
0
 62
     0
100
AcDbLine
 10
31.6806547967181
 20
19.02036003114148
 30
0.0
 11
33.80865479671826
 21
21.14836003114163
 31
0.0
  0
LINE
  5
B82
330
A46
100
AcDbEntity
  8
0
 62
     0
100
AcDbLine
 10
38.40047808566089
 20
25.74018332008433
 30
0.0
 11
41.20047808566096
 21
28.5401833200844
 31
0.0
  0
LINE
  5
B83
330
A46
100
AcDbEntity
  8
0
 62
     0
100
AcDbLine
 10
27.55047808566093
 20
14.89018332008436
 30
0.0
 11
30.350478085661
 21
17.69018332008443
 31
0.0
  0
LINE
  5
B84
330
A46
100
AcDbEntity
  8
0
 62
     0
100
AcDbLine
 10
31.44585600974636
 20
19.68358685627675
 30
0.0
 11
34.07615007767737
 21
22.3138809242077
 31
0.0
  0
LINE
  5
B85
330
A46
100
AcDbEntity
  8
0
 62
     0
100
AcDbLine
 10
38.40047808566095
 20
26.63820893219134
 30
0.0
 11
41.00420266316251
 21
29.24193350969284
 31
0.0
  0
LINE
  5
B86
330
A46
100
AcDbEntity
  8
0
 62
     0
100
AcDbLine
 10
27.55047808566093
 20
15.78820893219131
 30
0.0
 11
30.350478085661
 21
18.58820893219132
 31
0.0
  0
LINE
  5
B87
330
A46
100
AcDbEntity
  8
0
 62
     0
100
AcDbLine
 10
30.75867063987897
 20
19.8944270985163
 30
0.0
 11
34.49062343711125
 21
23.62637989574858
 31
0.0
  0
LINE
  5
B88
330
A46
100
AcDbEntity
  8
0
 62
     0
100
AcDbLine
 10
27.55047808566093
 20
16.6862345442982
 30
0.0
 11
30.36363726996723
 21
19.4993937286045
 31
0.0
  0
LINE
  5
B89
330
A46
100
AcDbEntity
  8
0
 62
     0
100
AcDbLine
 10
38.40047808566095
 20
27.53623454429823
 30
0.0
 11
40.2218298241853
 21
29.35758628282264
 31
0.0
  0
LINE
  5
B8A
330
A46
100
AcDbEntity
  8
0
 62
     0
100
AcDbLine
 10
24.12182982418528
 20
13.25758628282256
 30
0.0
 11
25.10047808566094
 21
14.23623454429827
 31
0.0
  0
LINE
  5
B8B
330
A46
100
AcDbEntity
  8
0
 62
     0
100
AcDbLine
 10
27.55047808566087
 20
17.58426015640515
 30
0.0
 11
34.9050967965452
 21
24.93887886728948
 31
0.0
  0
LINE
  5
B8C
330
A46
100
AcDbEntity
  8
0
 62
     0
100
AcDbLine
 10
38.40047808566089
 20
28.43426015640517
 30
0.0
 11
39.3238042120783
 21
29.35758628282258
 31
0.0
  0
LINE
  5
B8D
330
A46
100
AcDbEntity
  8
0
 62
     0
100
AcDbLine
 10
23.22380421207833
 20
13.25758628282261
 30
0.0
 11
25.10047808566099
 21
15.13426015640527
 31
0.0
  0
LINE
  5
B8E
330
A46
100
AcDbEntity
  8
0
 62
     0
100
AcDbLine
 10
27.55047808566093
 20
18.48228576851198
 30
0.0
 11
35.31957015597931
 21
26.25137783883042
 31
0.0
  0
LINE
  5
B8F
330
A46
100
AcDbEntity
  8
0
 62
     0
100
AcDbLine
 10
22.33745922432155
 20
13.26926690717266
 30
0.0
 11
24.95914380205477
 21
15.89095148490583
 31
0.0
  0
LINE
  5
B90
330
A46
100
AcDbEntity
  8
0
 62
     0
100
AcDbLine
 10
27.55047808566087
 20
19.38031138061893
 30
0.0
 11
30.87775298786454
 21
22.7075862828226
 31
0.0
  0
LINE
  5
B91
330
A46
100
AcDbEntity
  8
0
 62
     0
100
AcDbLine
 10
31.64173582310542
 20
23.47156911806349
 30
0.0
 11
35.73404351541325
 21
27.56387681037131
 31
0.0
  0
LINE
  5
B92
330
A46
100
AcDbEntity
  8
0
 62
     0
100
AcDbLine
 10
21.56929870687458
 20
13.39913200183258
 30
0.0
 11
24.22775298786451
 21
16.05758628282257
 31
0.0
  0
LINE
  5
B93
330
A46
100
AcDbEntity
  8
0
 62
     0
100
AcDbLine
 10
27.55047808566087
 20
20.27833699272588
 30
0.0
 11
30.3684686563692
 21
23.09632756343416
 31
0.0
  0
LINE
  5
B94
330
A46
100
AcDbEntity
  8
0
 62
     0
100
AcDbLine
 10
32.05620918253937
 20
24.78406808960432
 30
0.0
 11
36.10911496721457
 21
28.83697387427958
 31
0.0
  0
LINE
  5
B95
330
A46
100
AcDbEntity
  8
0
 62
     0
100
AcDbLine
 10
20.90816445004816
 20
13.63602335711317
 30
0.0
 11
23.32972737575762
 21
16.05758628282257
 31
0.0
  0
LINE
  5
B96
330
A46
100
AcDbEntity
  8
0
 62
     0
100
AcDbLine
 10
27.55047808566093
 20
21.17636260483272
 30
0.0
 11
30.35047808566094
 21
23.97636260483279
 31
0.0
  0
LINE
  5
B97
330
A46
100
AcDbEntity
  8
0
 62
     0
100
AcDbLine
 10
32.4706825419733
 20
26.09656706114515
 30
0.0
 11
35.71510309464537
 21
29.34098761381722
 31
0.0
  0
LINE
  5
B98
330
A46
100
AcDbEntity
  8
0
 62
     0
100
AcDbLine
 10
20.33056116588387
 20
13.95644568505565
 30
0.0
 11
22.44662302437672
 21
16.07250754354857
 31
0.0
  0
LINE
  5
B99
330
A46
100
AcDbEntity
  8
0
 62
     0
100
AcDbLine
 10
27.55047808566087
 20
22.07438821693967
 30
0.0
 11
30.35047808566094
 21
24.87438821693974
 31
0.0
  0
LINE
  5
B9A
330
A46
100
AcDbEntity
  8
0
 62
     0
100
AcDbLine
 10
32.88515590140725
 20
27.40906603268598
 30
0.0
 11
34.83367615154378
 21
29.35758628282258
 31
0.0
  0
LINE
  5
B9B
330
A46
100
AcDbEntity
  8
0
 62
     0
100
AcDbLine
 10
19.8256061995018
 20
14.34951633078054
 30
0.0
 11
21.81230688335842
 21
16.33621701463716
 31
0.0
  0
LINE
  5
B9C
330
A46
100
AcDbEntity
  8
0
 62
     0
100
AcDbLine
 10
27.55047808566087
 20
22.97241382904656
 30
0.0
 11
30.35047808566094
 21
25.77241382904663
 31
0.0
  0
LINE
  5
B9D
330
A46
100
AcDbEntity
  8
0
 62
     0
100
AcDbLine
 10
24.21211221743738
 20
19.63404796082312
 30
0.0
 11
25.37401640766046
 21
20.79595215104621
 31
0.0
  0
LINE
  5
B9E
330
A46
100
AcDbEntity
  8
0
 62
     0
100
AcDbLine
 10
33.29962926084113
 20
28.72156500422688
 30
0.0
 11
33.93565053943684
 21
29.35758628282258
 31
0.0
  0
LINE
  5
B9F
330
A46
100
AcDbEntity
  8
0
 62
     0
100
AcDbLine
 10
19.38916912617196
 20
14.81110486955771
 30
0.0
 11
21.40205593208623
 21
16.82399167547197
 31
0.0
  0
LINE
  5
BA0
330
A46
100
AcDbEntity
  8
0
 62
     0
100
AcDbLine
 10
23.28713937580756
 20
19.60710073130025
 30
0.0
 11
25.40096363718334
 21
21.72092499267598
 31
0.0
  0
LINE
  5
BA1
330
A46
100
AcDbEntity
  8
0
 62
     0
100
AcDbLine
 10
27.55047808566093
 20
23.87043944115356
 30
0.0
 11
30.350478085661
 21
26.67043944115363
 31
0.0
  0
LINE
  5
BA2
330
A46
100
AcDbEntity
  8
0
 62
     0
100
AcDbLine
 10
19.022149901229
 20
15.34211125672164
 30
0.0
 11
21.25047808566092
 21
17.57043944115361
 31
0.0
  0
LINE
  5
BA3
330
A46
100
AcDbEntity
  8
0
 62
     0
100
AcDbLine
 10
22.67299280638736
 20
19.89097977398683
 30
0.0
 11
25.1170845944967
 21
22.33507156209623
 31
0.0
  0
LINE
  5
BA4
330
A46
100
AcDbEntity
  8
0
 62
     0
100
AcDbLine
 10
27.55047808566093
 20
24.76846505326046
 30
0.0
 11
30.350478085661
 21
27.56846505326052
 31
0.0
  0
LINE
  5
BA5
330
A46
100
AcDbEntity
  8
0
 62
     0
100
AcDbLine
 10
18.73083239130426
 20
15.94881935890379
 30
0.0
 11
21.25047808566092
 21
18.46846505326044
 31
0.0
  0
LINE
  5
BA6
330
A46
100
AcDbEntity
  8
0
 62
     0
100
AcDbLine
 10
22.23503287939764
 20
20.35104545910412
 30
0.0
 11
24.65701890937948
 21
22.7730314890859
 31
0.0
  0
LINE
  5
BA7
330
A46
100
AcDbEntity
  8
0
 62
     0
100
AcDbLine
 10
27.55047808566093
 20
25.6664906653674
 30
0.0
 11
30.350478085661
 21
28.46649066536742
 31
0.0
  0
LINE
  5
BA8
330
A46
100
AcDbEntity
  8
0
 62
     0
100
AcDbLine
 10
18.5296950271296
 20
16.64570760683608
 30
0.0
 11
21.25047808566092
 21
19.36649066536739
 31
0.0
  0
LINE
  5
BA9
330
A46
100
AcDbEntity
  8
0
 62
     0
100
AcDbLine
 10
21.97898214698927
 20
20.99302033880264
 30
0.0
 11
24.0150440296809
 21
23.02908222149432
 31
0.0
  0
LINE
  5
BAA
330
A46
100
AcDbEntity
  8
0
 62
     0
100
AcDbLine
 10
18.45047808566085
 20
17.46451627747427
 30
0.0
 11
21.25047808566092
 21
20.26451627747428
 31
0.0
  0
LINE
  5
BAB
330
A46
100
AcDbEntity
  8
0
 62
     0
100
AcDbLine
 10
27.55047808566093
 20
26.5645162774743
 30
0.0
 11
30.19322797730581
 21
29.20726616911924
 31
0.0
  0
LINE
  5
BAC
330
A46
100
AcDbEntity
  8
0
 62
     0
100
AcDbLine
 10
14.36448132778525
 20
13.37851951959868
 30
0.0
 11
16.22954484888498
 21
15.24358304069841
 31
0.0
  0
LINE
  5
BAD
330
A46
100
AcDbEntity
  8
0
 62
     0
100
AcDbLine
 10
22.09739523047006
 20
22.00945903439032
 30
0.0
 11
22.99860533409327
 21
22.91066913801353
 31
0.0
  0
LINE
  5
BAE
330
A46
100
AcDbEntity
  8
0
 62
     0
100
AcDbLine
 10
18.45047808566085
 20
18.36254188958111
 30
0.0
 11
21.25047808566092
 21
21.16254188958118
 31
0.0
  0
LINE
  5
BAF
330
A46
100
AcDbEntity
  8
0
 62
     0
100
AcDbLine
 10
27.55047808566093
 20
27.46254188958119
 30
0.0
 11
29.44552247890232
 21
29.35758628282258
 31
0.0
  0
LINE
  5
BB0
330
A46
100
AcDbEntity
  8
0
 62
     0
100
AcDbLine
 10
13.34552247890229
 20
13.25758628282256
 30
0.0
 11
16.35047808566105
 21
16.26254188958126
 31
0.0
  0
LINE
  5
BB1
330
A46
100
AcDbEntity
  8
0
 62
     0
100
AcDbLine
 10
18.45047808566085
 20
19.26056750168806
 30
0.0
 11
21.25047808566092
 21
22.06056750168813
 31
0.0
  0
LINE
  5
BB2
330
A46
100
AcDbEntity
  8
0
 62
     0
100
AcDbLine
 10
27.55047808566093
 20
28.36056750168808
 30
0.0
 11
28.54749686679543
 21
29.35758628282264
 31
0.0
  0
LINE
  5
BB3
330
A46
100
AcDbEntity
  8
0
 62
     0
100
AcDbLine
 10
12.44749686679529
 20
13.2575862828225
 30
0.0
 11
16.35047808566099
 21
17.1605675016882
 31
0.0
  0
LINE
  5
BB4
330
A46
100
AcDbEntity
  8
0
 62
     0
100
AcDbLine
 10
18.45047808566085
 20
20.15859311379495
 30
0.0
 11
21.25047808566086
 21
22.95859311379502
 31
0.0
  0
LINE
  5
BB5
330
A46
100
AcDbEntity
  8
0
 62
     0
100
AcDbLine
 10
11.54947125468845
 20
13.25758628282261
 30
0.0
 11
16.34653873309975
 21
18.05465376123391
 31
0.0
  0
LINE
  5
BB6
330
A46
100
AcDbEntity
  8
0
 62
     0
100
AcDbLine
 10
18.45047808566085
 20
21.0566187259019
 30
0.0
 11
21.25047808566092
 21
23.85661872590197
 31
0.0
  0
LINE
  5
BB7
330
A46
100
AcDbEntity
  8
0
 62
     0
100
AcDbLine
 10
23.95144564258163
 20
26.55758628282268
 30
0.0
 11
25.10047808566105
 21
27.7066187259021
 31
0.0
  0
LINE
  5
BB8
330
A46
100
AcDbEntity
  8
0
 62
     0
100
AcDbLine
 10
10.6514456425815
 20
13.25758628282256
 30
0.0
 11
16.23687689677842
 21
18.84301753701947
 31
0.0
  0
LINE
  5
BB9
330
A46
100
AcDbEntity
  8
0
 62
     0
100
AcDbLine
 10
18.45047808566085
 20
21.95464433800879
 30
0.0
 11
21.25047808566092
 21
24.7546443380088
 31
0.0
  0
LINE
  5
BBA
330
A46
100
AcDbEntity
  8
0
 62
     0
100
AcDbLine
 10
13.55047808566093
 20
17.05464433800887
 30
0.0
 11
16.0145381527343
 21
19.51870440508225
 31
0.0
  0
LINE
  5
BBB
330
A46
100
AcDbEntity
  8
0
 62
     0
100
AcDbLine
 10
23.05342003047463
 20
26.55758628282257
 30
0.0
 11
25.10047808566105
 21
28.60464433800894
 31
0.0
  0
LINE
  5
BBC
330
A46
100
AcDbEntity
  8
0
 62
     0
100
AcDbLine
 10
9.811145905734576
 20
13.31531215808252
 30
0.0
 11
12.55342003047462
 21
16.05758628282257
 31
0.0
  0
LINE
  5
BBD
330
A46
100
AcDbEntity
  8
0
 62
     0
100
AcDbLine
 10
18.45047808566079
 20
22.85266995011568
 30
0.0
 11
21.41629279144058
 21
25.81848465589548
 31
0.0
  0
LINE
  5
BBE
330
A46
100
AcDbEntity
  8
0
 62
     0
100
AcDbLine
 10
13.54831899405167
 20
17.9505108585065
 30
0.0
 11
15.70610661806228
 21
20.10829848251717
 31
0.0
  0
LINE
  5
BBF
330
A46
100
AcDbEntity
  8
0
 62
     0
100
AcDbLine
 10
21.98957971258812
 20
26.39177157704302
 30
0.0
 11
24.86701067074114
 21
29.26920253519597
 31
0.0
  0
LINE
  5
BC0
330
A46
100
AcDbEntity
  8
0
 62
     0
100
AcDbLine
 10
9.52547808566095
 20
13.92766995011578
 30
0.0
 11
11.65539441836773
 21
16.05758628282257
 31
0.0
  0
LINE
  5
BC1
330
A46
100
AcDbEntity
  8
0
 62
     0
100
AcDbLine
 10
13.32871597455096
 20
18.6289334511128
 30
0.0
 11
15.32386465322338
 21
20.62408212978522
 31
0.0
  0
LINE
  5
BC2
330
A46
100
AcDbEntity
  8
0
 62
     0
100
AcDbLine
 10
18.45047808566079
 20
23.75069556222263
 30
0.0
 11
24.05736880626085
 21
29.3575862828227
 31
0.0
  0
LINE
  5
BC3
330
A46
100
AcDbEntity
  8
0
 62
     0
100
AcDbLine
 10
9.525478085660893
 20
14.82569556222273
 30
0.0
 11
10.75736880626078
 21
16.05758628282262
 31
0.0
  0
LINE
  5
BC4
330
A46
100
AcDbEntity
  8
0
 62
     0
100
AcDbLine
 10
12.90246114624625
 20
19.10070423491493
 30
0.0
 11
14.88236013356862
 21
21.0806032222373
 31
0.0
  0
LINE
  5
BC5
330
A46
100
AcDbEntity
  8
0
 62
     0
100
AcDbLine
 10
18.45047808566085
 20
24.64872117432947
 30
0.0
 11
23.15934319415379
 21
29.35758628282247
 31
0.0
  0
LINE
  5
BC6
330
A46
100
AcDbEntity
  8
0
 62
     0
100
AcDbLine
 10
9.594430007680671
 20
15.79267309634935
 30
0.0
 11
9.790391272134286
 21
15.98863436080296
 31
0.0
  0
LINE
  5
BC7
330
A46
100
AcDbEntity
  8
0
 62
     0
100
AcDbLine
 10
18.47045319981743
 20
25.566721900593
 30
0.0
 11
22.24134246789043
 21
29.33761116866606
 31
0.0
  0
LINE
  5
BC8
330
A46
100
AcDbEntity
  8
0
 62
     0
100
AcDbLine
 10
12.45344834019278
 20
19.5497170409684
 30
0.0
 11
14.43334732751515
 21
21.52961602829078
 31
0.0
  0
LINE
  5
BC9
330
A46
100
AcDbEntity
  8
0
 62
     0
100
AcDbLine
 10
18.76991663208321
 20
26.76421094496578
 30
0.0
 11
21.0438534235177
 21
29.03814773640028
 31
0.0
  0
LINE
  5
BCA
330
A46
100
AcDbEntity
  8
0
 62
     0
100
AcDbLine
 10
12.0044355341393
 20
19.99872984702188
 30
0.0
 11
13.98433452146167
 21
21.97862883434425
 31
0.0
  0
LINE
  5
BCB
330
A46
100
AcDbEntity
  8
0
 62
     0
100
AcDbLine
 10
11.55542272808588
 20
20.4477426530753
 30
0.0
 11
13.5353217154082
 21
22.42764164039755
 31
0.0
  0
LINE
  5
BCC
330
A46
100
AcDbEntity
  8
0
 62
     0
100
AcDbLine
 10
11.10640992203241
 20
20.89675545912877
 30
0.0
 11
13.08630890935473
 21
22.87665444645103
 31
0.0
  0
LINE
  5
BCD
330
A46
100
AcDbEntity
  8
0
 62
     0
100
AcDbLine
 10
10.65739711597894
 20
21.34576826518225
 30
0.0
 11
12.63729610330125
 21
23.3256672525045
 31
0.0
  0
LINE
  5
BCE
330
A46
100
AcDbEntity
  8
0
 62
     0
100
AcDbLine
 10
14.97118952151237
 20
26.55758628282257
 30
0.0
 11
15.82547808566085
 21
27.4118748469711
 31
0.0
  0
LINE
  5
BCF
330
A46
100
AcDbEntity
  8
0
 62
     0
100
AcDbLine
 10
10.20846762395359
 20
21.79486438526385
 30
0.0
 11
12.18853326738605
 21
23.77493002869631
 31
0.0
  0
LINE
  5
BD0
330
A46
100
AcDbEntity
  8
0
 62
     0
100
AcDbLine
 10
14.07316390940548
 20
26.55758628282257
 30
0.0
 11
15.8254780856609
 21
28.309900459078
 31
0.0
  0
LINE
  5
BD1
330
A46
100
AcDbEntity
  8
0
 62
     0
100
AcDbLine
 10
9.796999699402022
 20
22.28142207281905
 30
0.0
 11
11.85863638609811
 21
24.3430587595152
 31
0.0
  0
LINE
  5
BD2
330
A46
100
AcDbEntity
  8
0
 62
     0
100
AcDbLine
 10
13.17513829729853
 20
26.55758628282257
 30
0.0
 11
15.73891918589976
 21
29.1213671714238
 31
0.0
  0
LINE
  5
BD3
330
A46
100
AcDbEntity
  8
0
 62
     0
100
AcDbLine
 10
9.456539093139554
 20
22.83898707866354
 30
0.0
 11
11.80047808566098
 21
25.18292607118497
 31
0.0
  0
LINE
  5
BD4
330
A46
100
AcDbEntity
  8
0
 62
     0
100
AcDbLine
 10
12.27464603602152
 20
26.55511963365245
 30
0.0
 11
15.07711268519171
 21
29.35758628282264
 31
0.0
  0
LINE
  5
BD5
330
A46
100
AcDbEntity
  8
0
 62
     0
100
AcDbLine
 10
9.195845797407457
 20
23.47631939503839
 30
0.0
 11
11.80294473483104
 21
26.08341833246203
 31
0.0
  0
LINE
  5
BD6
330
A46
100
AcDbEntity
  8
0
 62
     0
100
AcDbLine
 10
9.034033835159391
 20
24.21253304489721
 30
0.0
 11
14.17908707308481
 21
29.35758628282264
 31
0.0
  0
LINE
  5
BD7
330
A46
100
AcDbEntity
  8
0
 62
     0
100
AcDbLine
 10
9.000478085660972
 20
25.07700290750574
 30
0.0
 11
13.28106146097781
 21
29.35758628282258
 31
0.0
  0
LINE
  5
BD8
330
A46
100
AcDbEntity
  8
0
 62
     0
100
AcDbLine
 10
9.000478085660972
 20
25.97502851961264
 30
0.0
 11
12.38303584887086
 21
29.35758628282258
 31
0.0
  0
LINE
  5
BD9
330
A46
100
AcDbEntity
  8
0
 62
     0
100
AcDbLine
 10
9.020670096099195
 20
26.89324614215781
 30
0.0
 11
11.4648182263258
 21
29.33739427238442
 31
0.0
  0
ENDBLK
  5
BDB
330
A46
100
AcDbEntity
  8
0
100
AcDbBlockEnd
  0
BLOCK
  5
1002
330
FFF
100
AcDbEntity
  8
0
100
AcDbBlockBegin
  2
A$C00BA3E29
 70
     0
 10
0.0
 20
0.0
 30
0.0
  3
A$C00BA3E29
  1

  0
TEXT
  5
1003
330
FFF
100
AcDbEntity
  8
修正履歴
 62
     6
100
AcDbText
 10
-0.6935058364232419
 20
-7.74585877193251
 30
0.0
 40
4.455
  1
1
100
AcDbText
  0
LINE
  5
1004
330
FFF
100
AcDbEntity
  8
修正履歴
  6
Continuous
 62
     6
100
AcDbLine
 10
0.0
 20
0.0
 30
0.0
 11
5.904278961887143
 21
-9.058835388370731
 31
0.0
  0
LINE
  5
1005
330
FFF
100
AcDbEntity
  8
修正履歴
  6
Continuous
 62
     6
100
AcDbLine
 10
-5.904278961887371
 20
-9.058835388370731
 30
0.0
 11
5.904278961887143
 21
-9.058835388370731
 31
0.0
  0
LINE
  5
1006
330
FFF
100
AcDbEntity
  8
修正履歴
  6
Continuous
 62
     6
100
AcDbLine
 10
0.0
 20
0.0
 30
0.0
 11
-5.904278961887371
 21
-9.058835388370731
 31
0.0
  0
ENDBLK
  5
1007
330
FFF
100
AcDbEntity
  8
0
100
AcDbBlockEnd
  0
BLOCK
  5
100B
330
1008
100
AcDbEntity
  8
0
100
AcDbBlockBegin
  2
A$C36686642
 70
     0
 10
0.0
 20
0.0
 30
0.0
  3
A$C36686642
  1

  0
LINE
  5
100C
330
1008
100
AcDbEntity
  8
修正履歴
  6
ByBlock
 62
   253
 48
0.5
100
AcDbLine
 10
-754.3999999999991
 20
-27.15968349854592
 30
0.0
 11
-754.3999999999991
 21
-152.1596834985459
 31
0.0
  0
LINE
  5
100D
330
1008
100
AcDbEntity
  8
図枠
 62
   253
100
AcDbLine
 10
-798.3999999999996
 20
-27.15968349854592
 30
0.0
 11
-0.7999999999992724
 21
-27.15968349854592
 31
0.0
  0
LINE
  5
100E
330
1008
100
AcDbEntity
  8
図枠
 62
   253
100
AcDbLine
 10
-798.3999999999996
 20
-25.0
 30
0.0
 11
-0.7999999999992724
 21
-25.0
 31
0.0
  0
LINE
  5
100F
330
1008
100
AcDbEntity
  8
図枠
 62
   253
100
AcDbLine
 10
-798.3999999999996
 20
0.0
 30
0.0
 11
0.0
 21
0.0
 31
0.0
  0
LINE
  5
1010
330
1008
100
AcDbEntity
  8
修正履歴
  6
DASHED2
 62
   253
 48
0.7
100
AcDbLine
 10
-798.4
 20
-52.15968349854591
 30
0.0
 11
-0.8000000000001818
 21
-52.15968349854591
 31
0.0
  0
LINE
  5
1011
330
1008
100
AcDbEntity
  8
修正履歴
  6
ByBlock
 62
   253
 48
0.5
100
AcDbLine
 10
-649.9533987099312
 20
0.0
 30
0.0
 11
-649.9533987099312
 21
-152.159683498546
 31
0.0
  0
LINE
  5
1012
330
1008
100
AcDbEntity
  8
図枠
 62
   253
100
AcDbLine
 10
-798.3999999999996
 20
-152.1596834985459
 30
0.0
 11
-0.8000000000010913
 21
-152.1596834985459
 31
0.0
  0
LINE
  5
1013
330
1008
100
AcDbEntity
  8
修正履歴
  6
DASHED2
 62
   253
 48
0.7
100
AcDbLine
 10
-798.3999999999996
 20
-77.1596834985459
 30
0.0
 11
-0.7999999999997272
 21
-77.1596834985459
 31
0.0
  0
LINE
  5
1014
330
1008
100
AcDbEntity
  8
修正履歴
  6
DASHED2
 62
   253
 48
0.7
100
AcDbLine
 10
-798.3999999999996
 20
-102.1596834985459
 30
0.0
 11
-3.429593822600509
 21
-102.1596834985459
 31
0.0
  0
LINE
  5
1015
330
1008
100
AcDbEntity
  8
修正履歴
  6
DASHED2
 62
   253
 48
0.7
100
AcDbLine
 10
-798.3999999999996
 20
-127.1596834985459
 30
0.0
 11
-0.7999999999992724
 21
-127.1596834985459
 31
0.0
  0
LINE
  5
1016
330
1008
100
AcDbEntity
  8
修正履歴
  6
ByBlock
 62
   253
 48
0.5
100
AcDbLine
 10
-798.3999999999996
 20
0.0
 30
0.0
 11
-798.3999999999996
 21
-152.1596834985459
 31
0.0
  0
TEXT
  5
1017
330
1008
100
AcDbEntity
  8
ZUWAKU
 62
   253
100
AcDbText
 10
-785.4278114556536
 20
-18.44861993851639
 30
0.0
 40
12.0
  1
変更履歴
  7
MSPｺﾞｼｯｸ
100
AcDbText
  0
LINE
  5
1018
330
1008
100
AcDbEntity
  8
修正履歴
  6
ByBlock
 62
   253
 48
0.5
100
AcDbLine
 10
-754.3999999999991
 20
-27.15968349854592
 30
0.0
 11
-754.3999999999991
 21
-152.1596834985459
 31
0.0
  0
LINE
  5
1019
330
1008
100
AcDbEntity
  8
図枠
 62
   253
100
AcDbLine
 10
-798.3999999999996
 20
-27.15968349854592
 30
0.0
 11
-0.7999999999992724
 21
-27.15968349854592
 31
0.0
  0
LINE
  5
101A
330
1008
100
AcDbEntity
  8
図枠
 62
   253
100
AcDbLine
 10
-798.3999999999996
 20
-25.0
 30
0.0
 11
-0.7999999999992724
 21
-25.0
 31
0.0
  0
LINE
  5
101B
330
1008
100
AcDbEntity
  8
図枠
 62
   253
100
AcDbLine
 10
-798.3999999999996
 20
0.0
 30
0.0
 11
0.0
 21
0.0
 31
0.0
  0
LINE
  5
101C
330
1008
100
AcDbEntity
  8
修正履歴
  6
DASHED2
 62
   253
 48
0.7
100
AcDbLine
 10
-798.4
 20
-52.15968349854591
 30
0.0
 11
-0.8000000000001818
 21
-52.15968349854591
 31
0.0
  0
LINE
  5
101D
330
1008
100
AcDbEntity
  8
図枠
 62
   253
100
AcDbLine
 10
-798.3999999999996
 20
-152.1596834985459
 30
0.0
 11
-0.8000000000010913
 21
-152.1596834985459
 31
0.0
  0
LINE
  5
101E
330
1008
100
AcDbEntity
  8
修正履歴
  6
DASHED2
 62
   253
 48
0.7
100
AcDbLine
 10
-798.3999999999996
 20
-77.1596834985459
 30
0.0
 11
-0.7999999999997272
 21
-77.1596834985459
 31
0.0
  0
LINE
  5
101F
330
1008
100
AcDbEntity
  8
修正履歴
  6
DASHED2
 62
   253
 48
0.7
100
AcDbLine
 10
-798.3999999999996
 20
-102.1596834985459
 30
0.0
 11
-3.429593822600509
 21
-102.1596834985459
 31
0.0
  0
LINE
  5
1020
330
1008
100
AcDbEntity
  8
修正履歴
  6
DASHED2
 62
   253
 48
0.7
100
AcDbLine
 10
-798.3999999999996
 20
-127.1596834985459
 30
0.0
 11
-0.7999999999992724
 21
-127.1596834985459
 31
0.0
  0
LINE
  5
1021
330
1008
100
AcDbEntity
  8
修正履歴
  6
ByBlock
 62
   253
 48
0.5
100
AcDbLine
 10
-798.3999999999996
 20
0.0
 30
0.0
 11
-798.3999999999996
 21
-152.1596834985459
 31
0.0
  0
LINE
  5
1022
330
1008
100
AcDbEntity
  8
修正履歴
  6
ByBlock
 62
   253
 48
0.5
100
AcDbLine
 10
0.0
 20
0.0
 30
0.0
 11
0.0
 21
-152.159683498546
 31
0.0
  0
ENDBLK
  5
1023
330
1008
100
AcDbEntity
  8
0
100
AcDbBlockEnd
  0
BLOCK
  5
114C
330
1142
100
AcDbEntity
  8
0
100
AcDbBlockBegin
  2
*D12
 70
     1
 10
0.0
 20
0.0
 30
0.0
  3
*D12
  1

  0
LINE
  5
1194
330
1142
100
AcDbEntity
  8
SUNPOU
  6
Continuous
 62
     4
370
    -2
100
AcDbLine
 10
757.0880806743322
 20
60.2464334104171
 30
0.0
 11
757.0879873938021
 21
32.7130992471514
 31
0.0
  0
LINE
  5
1195
330
1142
100
AcDbEntity
  8
SUNPOU
  6
Continuous
 62
     4
370
    -2
100
AcDbLine
 10
579.9879806746712
 20
60.24683341007843
 30
0.0
 11
579.9878873948187
 21
32.71369924681405
 31
0.0
  0
LINE
  5
1196
330
1142
100
AcDbEntity
  8
SUNPOU
  6
Continuous
 62
     4
370
    -2
100
AcDbLine
 10
754.0879924756882
 20
34.21310941088063
 30
0.0
 11
582.9878924766704
 21
34.2136890830676
 31
0.0
  0
INSERT
  5
1197
330
1142
100
AcDbEntity
  8
SUNPOU
  6
Continuous
 62
     4
370
    -2
100
AcDbBlockReference
  2
_OPEN
 10
757.087992475671
 20
34.21309924714279
 30
0.0
 41
3.0
 42
3.0
 43
3.0
 50
359.9998058869059
  0
INSERT
  5
1198
330
1142
100
AcDbEntity
  8
SUNPOU
  6
Continuous
 62
     4
370
    -2
100
AcDbBlockReference
  2
_OPEN
 10
579.9878924766876
 20
34.21369924680544
 30
0.0
 41
3.0
 42
3.0
 43
3.0
 50
179.9998058869058
  0
MTEXT
  5
1199
330
1142
100
AcDbEntity
  8
SUNPOU
  6
Continuous
 62
     4
100
AcDbMText
 10
668.5379509459608
 20
36.71339924695977
 30
0.0
 40
3.0
 41
0.0
 71
     5
 72
     1
  1
\A1;φ177
 11
0.9999999999942609
 21
-0.0000033879126136
 31
0.0
 73
     1
 44
1.0
1001
ACAD
1000
MTEXTBEGIN
1070
    73
1070
     1
1070
    44
1040
1.0
1070
    74
1070
     0
1000
MTEXTEND
  0
POINT
  5
119A
330
1142
100
AcDbEntity
  8
DEFPOINTS
  6
Continuous
 62
     0
100
AcDbPoint
 10
757.0880908380701
 20
63.24643341039989
 30
0.0
  0
POINT
  5
119B
330
1142
100
AcDbEntity
  8
DEFPOINTS
  6
Continuous
 62
     0
100
AcDbPoint
 10
579.9879908384091
 20
63.24683341006122
 30
0.0
  0
POINT
  5
119C
330
1142
100
AcDbEntity
  8
DEFPOINTS
  6
Continuous
 62
     0
100
AcDbPoint
 10
579.9878924766876
 20
34.21369924680544
 30
0.0
  0
ENDBLK
  5
114D
330
1142
100
AcDbEntity
  8
0
100
AcDbBlockEnd
  0
BLOCK
  5
1157
330
114E
100
AcDbEntity
  8
0
100
AcDbBlockBegin
  2
*D13
 70
     1
 10
0.0
 20
0.0
 30
0.0
  3
*D13
  1

  0
LINE
  5
128D
330
114E
100
AcDbEntity
  8
SUNPOU
  6
Continuous
 62
     4
370
    -2
100
AcDbLine
 10
751.4630840622772
 20
61.24645246741994
 30
0.0
 11
751.4630208351182
 21
42.58388165769592
 31
0.0
  0
LINE
  5
128E
330
114E
100
AcDbEntity
  8
SUNPOU
  6
Continuous
 62
     4
370
    -2
100
AcDbLine
 10
585.6129959775013
 20
56.87552011472774
 30
0.0
 11
585.6129475605826
 21
42.58444354325113
 31
0.0
  0
LINE
  5
128F
330
114E
100
AcDbEntity
  8
SUNPOU
  6
Continuous
 62
     4
370
    -2
100
AcDbLine
 10
748.4630259170042
 20
44.08389182142516
 30
0.0
 11
588.6129526424345
 21
44.08443337950468
 31
0.0
  0
INSERT
  5
1290
330
114E
100
AcDbEntity
  8
SUNPOU
  6
Continuous
 62
     4
370
    -2
100
AcDbBlockReference
  2
_OPEN
 10
751.4630259169871
 20
44.08388165768732
 30
0.0
 41
3.0
 42
3.0
 43
3.0
 50
359.9998058869059
  0
INSERT
  5
1291
330
114E
100
AcDbEntity
  8
SUNPOU
  6
Continuous
 62
     4
370
    -2
100
AcDbBlockReference
  2
_OPEN
 10
585.6129526424516
 20
44.08444354324252
 30
0.0
 41
3.0
 42
3.0
 43
3.0
 50
179.9998058869058
  0
MTEXT
  5
1292
330
114E
100
AcDbEntity
  8
SUNPOU
  6
Continuous
 62
     4
100
AcDbMText
 10
668.5379977495009
 20
46.58416260045058
 30
0.0
 40
3.0
 41
0.0
 71
     5
 72
     1
  1
\A1;φ165.85
 11
0.9999999999942609
 21
-0.0000033879126136
 31
0.0
 73
     1
 44
1.0
1001
ACAD
1000
MTEXTBEGIN
1070
    73
1070
     1
1070
    44
1040
1.0
1070
    74
1070
     0
1000
MTEXTEND
  0
POINT
  5
1293
330
114E
100
AcDbEntity
  8
DEFPOINTS
  6
Continuous
 62
     0
100
AcDbPoint
 10
751.4630942260151
 20
64.24645246740272
 30
0.0
  0
POINT
  5
1294
330
114E
100
AcDbEntity
  8
DEFPOINTS
  6
Continuous
 62
     0
100
AcDbPoint
 10
585.6130061412391
 20
59.87552011471052
 30
0.0
  0
POINT
  5
1295
330
114E
100
AcDbEntity
  8
DEFPOINTS
  6
Continuous
 62
     0
100
AcDbPoint
 10
585.6129526424516
 20
44.08444354324252
 30
0.0
  0
ENDBLK
  5
1158
330
114E
100
AcDbEntity
  8
0
100
AcDbBlockEnd
  0
BLOCK
  5
1163
330
1159
100
AcDbEntity
  8
0
100
AcDbBlockBegin
  2
*D14
 70
     1
 10
0.0
 20
0.0
 30
0.0
  3
*D14
  1

  0
LINE
  5
11A5
330
1159
100
AcDbEntity
  8
SUNPOU
100
AcDbLine
 10
746.4879732390926
 20
233.2461397653506
 30
0.0
 11
804.6880563739186
 21
233.2461397653506
 31
0.0
  0
LINE
  5
11A6
330
1159
100
AcDbEntity
  8
SUNPOU
100
AcDbLine
 10
760.08809083807
 20
63.24643341039988
 30
0.0
 11
804.6880563739186
 21
63.24643341039987
 31
0.0
  0
LINE
  5
11A7
330
1159
100
AcDbEntity
  8
SUNPOU
100
AcDbLine
 10
803.1880563739187
 20
230.2461397653506
 30
0.0
 11
803.1880563739187
 21
66.24643341039986
 31
0.0
  0
INSERT
  5
11A8
330
1159
100
AcDbEntity
  8
SUNPOU
100
AcDbBlockReference
  2
_OPEN
 10
803.1880563739187
 20
233.2461397653506
 30
0.0
 41
3.0
 42
3.0
 43
3.0
 50
90.0
  0
INSERT
  5
11A9
330
1159
100
AcDbEntity
  8
SUNPOU
100
AcDbBlockReference
  2
_OPEN
 10
803.1880563739187
 20
63.24643341039987
 30
0.0
 41
3.0
 42
3.0
 43
3.0
 50
270.0
  0
MTEXT
  5
11AA
330
1159
100
AcDbEntity
  8
SUNPOU
100
AcDbMText
 10
800.6880563739187
 20
148.2462865878753
 30
0.0
 40
3.0
 41
0.0
 71
     5
 72
     1
  1
\A1;170
 11
0.0000000000000001
 21
1.0
 31
0.0
 73
     1
 44
1.0
1001
ACAD
1000
MTEXTBEGIN
1070
    73
1070
     1
1070
    44
1040
1.0
1070
    74
1070
     0
1000
MTEXTEND
  0
POINT
  5
11AB
330
1159
100
AcDbEntity
  8
DEFPOINTS
 62
     0
100
AcDbPoint
 10
743.4879732390926
 20
233.2461397653506
 30
0.0
  0
POINT
  5
11AC
330
1159
100
AcDbEntity
  8
DEFPOINTS
 62
     0
100
AcDbPoint
 10
757.08809083807
 20
63.24643341039988
 30
0.0
  0
POINT
  5
11AD
330
1159
100
AcDbEntity
  8
DEFPOINTS
 62
     0
100
AcDbPoint
 10
803.1880563739187
 20
63.24643341039987
 30
0.0
  0
ENDBLK
  5
1164
330
1159
100
AcDbEntity
  8
0
100
AcDbBlockEnd
  0
BLOCK
  5
116F
330
1165
100
AcDbEntity
  8
0
100
AcDbBlockBegin
  2
*D15
 70
     1
 10
0.0
 20
0.0
 30
0.0
  3
*D15
  1

  0
LINE
  5
11AE
330
1165
100
AcDbEntity
  8
SUNPOU
100
AcDbLine
 10
753.6683686469038
 20
143.2465334102682
 30
0.0
 11
793.4442688782337
 21
143.2465334102682
 31
0.0
  0
LINE
  5
11AF
330
1165
100
AcDbEntity
  8
SUNPOU
100
AcDbLine
 10
760.08809083807
 20
63.24643341039988
 30
0.0
 11
793.4442688782337
 21
63.24643341039987
 31
0.0
  0
LINE
  5
11B0
330
1165
100
AcDbEntity
  8
SUNPOU
100
AcDbLine
 10
791.9442688782337
 20
140.2465334102681
 30
0.0
 11
791.9442688782337
 21
66.24643341039988
 31
0.0
  0
INSERT
  5
11B1
330
1165
100
AcDbEntity
  8
SUNPOU
100
AcDbBlockReference
  2
_OPEN
 10
791.9442688782337
 20
143.2465334102682
 30
0.0
 41
3.0
 42
3.0
 43
3.0
 50
90.0
  0
INSERT
  5
11B2
330
1165
100
AcDbEntity
  8
SUNPOU
100
AcDbBlockReference
  2
_OPEN
 10
791.9442688782337
 20
63.24643341039987
 30
0.0
 41
3.0
 42
3.0
 43
3.0
 50
270.0
  0
MTEXT
  5
11B3
330
1165
100
AcDbEntity
  8
SUNPOU
100
AcDbMText
 10
789.4442688782337
 20
103.2464834103341
 30
0.0
 40
3.0
 41
0.0
 71
     5
 72
     1
  1
\A1;80
 11
0.0000000000000001
 21
1.0
 31
0.0
 73
     1
 44
1.0
1001
ACAD
1000
MTEXTBEGIN
1070
    73
1070
     1
1070
    44
1040
1.0
1070
    74
1070
     0
1000
MTEXTEND
  0
POINT
  5
11B4
330
1165
100
AcDbEntity
  8
DEFPOINTS
 62
     0
100
AcDbPoint
 10
750.6683686469038
 20
143.2465334102682
 30
0.0
  0
POINT
  5
11B5
330
1165
100
AcDbEntity
  8
DEFPOINTS
 62
     0
100
AcDbPoint
 10
757.08809083807
 20
63.24643341039988
 30
0.0
  0
POINT
  5
11B6
330
1165
100
AcDbEntity
  8
DEFPOINTS
 62
     0
100
AcDbPoint
 10
791.9442688782337
 20
63.24643341039987
 30
0.0
  0
ENDBLK
  5
1170
330
1165
100
AcDbEntity
  8
0
100
AcDbBlockEnd
  0
BLOCK
  5
117A
330
1171
100
AcDbEntity
  8
0
100
AcDbBlockBegin
  2
*D16
 70
     1
 10
0.0
 20
0.0
 30
0.0
  3
*D16
  1

  0
LINE
  5
129F
330
1171
100
AcDbEntity
  8
SUNPOU
  6
Continuous
 62
     4
370
    -2
100
AcDbLine
 10
725.8127927017605
 20
235.7464334092926
 30
0.0
 11
725.8127927017605
 21
252.6340610374152
 31
0.0
  0
LINE
  5
12A0
330
1171
100
AcDbEntity
  8
SUNPOU
  6
Continuous
 62
     4
370
    -2
100
AcDbLine
 10
611.2627927017606
 20
239.0050084484246
 30
0.0
 11
611.2627927017606
 21
252.6340610374152
 31
0.0
  0
LINE
  5
12A1
330
1171
100
AcDbEntity
  8
SUNPOU
  6
Continuous
 62
     4
370
    -2
100
AcDbLine
 10
722.8127927017606
 20
251.1340610374152
 30
0.0
 11
614.2627927017606
 21
251.1340610374152
 31
0.0
  0
INSERT
  5
12A2
330
1171
100
AcDbEntity
  8
SUNPOU
  6
Continuous
 62
     4
370
    -2
100
AcDbBlockReference
  2
_OPEN
 10
725.8127927017605
 20
251.1340610374152
 30
0.0
 41
3.0
 42
3.0
 43
3.0
  0
INSERT
  5
12A3
330
1171
100
AcDbEntity
  8
SUNPOU
  6
Continuous
 62
     4
370
    -2
100
AcDbBlockReference
  2
_OPEN
 10
611.2627927017606
 20
251.1340610374152
 30
0.0
 41
3.0
 42
3.0
 43
3.0
 50
180.0
  0
MTEXT
  5
12A4
330
1171
100
AcDbEntity
  8
SUNPOU
  6
Continuous
 62
     4
100
AcDbMText
 10
668.5377927017606
 20
253.6340610374152
 30
0.0
 40
3.0
 41
0.0
 71
     5
 72
     1
  1
\A1;φ114.55
 73
     1
 44
1.0
1001
ACAD
1000
MTEXTBEGIN
1070
    73
1070
     1
1070
    44
1040
1.0
1070
    74
1070
     0
1000
MTEXTEND
  0
POINT
  5
12A5
330
1171
100
AcDbEntity
  8
DEFPOINTS
  6
Continuous
 62
     0
100
AcDbPoint
 10
725.8127927017605
 20
232.7464334092927
 30
0.0
  0
POINT
  5
12A6
330
1171
100
AcDbEntity
  8
DEFPOINTS
  6
Continuous
 62
     0
100
AcDbPoint
 10
611.2627927017606
 20
236.0050084484246
 30
0.0
  0
POINT
  5
12A7
330
1171
100
AcDbEntity
  8
DEFPOINTS
  6
Continuous
 62
     0
100
AcDbPoint
 10
611.2627927017606
 20
251.1340610374152
 30
0.0
  0
ENDBLK
  5
117B
330
1171
100
AcDbEntity
  8
0
100
AcDbBlockEnd
  0
BLOCK
  5
1186
330
117C
100
AcDbEntity
  8
0
100
AcDbBlockBegin
  2
*D17
 70
     1
 10
0.0
 20
0.0
 30
0.0
  3
*D17
  1

  0
LINE
  5
11BF
330
117C
100
AcDbEntity
  8
SUNPOU
  6
Continuous
 62
     4
370
    -2
100
AcDbLine
 10
729.4377927017606
 20
236.2464334092926
 30
0.0
 11
729.4377927017606
 21
263.6660913013022
 31
0.0
  0
LINE
  5
11C0
330
117C
100
AcDbEntity
  8
SUNPOU
  6
Continuous
 62
     4
370
    -2
100
AcDbLine
 10
607.6377927017606
 20
236.2465334092926
 30
0.0
 11
607.6377927017606
 21
263.6660913013022
 31
0.0
  0
LINE
  5
11C1
330
117C
100
AcDbEntity
  8
SUNPOU
  6
Continuous
 62
     4
370
    -2
100
AcDbLine
 10
726.4377927017606
 20
262.1660913013022
 30
0.0
 11
610.6377927017606
 21
262.1660913013022
 31
0.0
  0
INSERT
  5
11C2
330
117C
100
AcDbEntity
  8
SUNPOU
  6
Continuous
 62
     4
370
    -2
100
AcDbBlockReference
  2
_OPEN
 10
729.4377927017606
 20
262.1660913013022
 30
0.0
 41
3.0
 42
3.0
 43
3.0
  0
INSERT
  5
11C3
330
117C
100
AcDbEntity
  8
SUNPOU
  6
Continuous
 62
     4
370
    -2
100
AcDbBlockReference
  2
_OPEN
 10
607.6377927017606
 20
262.1660913013022
 30
0.0
 41
3.0
 42
3.0
 43
3.0
 50
180.0
  0
MTEXT
  5
11C4
330
117C
100
AcDbEntity
  8
SUNPOU
  6
Continuous
 62
     4
100
AcDbMText
 10
668.5377927017606
 20
264.6660913013022
 30
0.0
 40
3.0
 41
0.0
 71
     5
 72
     1
  1
\A1;φ122
 73
     1
 44
1.0
1001
ACAD
1000
MTEXTBEGIN
1070
    73
1070
     1
1070
    44
1040
1.0
1070
    74
1070
     0
1000
MTEXTEND
  0
POINT
  5
11C5
330
117C
100
AcDbEntity
  8
DEFPOINTS
  6
Continuous
 62
     0
100
AcDbPoint
 10
729.4377927017606
 20
233.2464334092926
 30
0.0
  0
POINT
  5
11C6
330
117C
100
AcDbEntity
  8
DEFPOINTS
  6
Continuous
 62
     0
100
AcDbPoint
 10
607.6377927017606
 20
233.2465334092926
 30
0.0
  0
POINT
  5
11C7
330
117C
100
AcDbEntity
  8
DEFPOINTS
  6
Continuous
 62
     0
100
AcDbPoint
 10
607.6377927017606
 20
262.1660913013022
 30
0.0
  0
ENDBLK
  5
1187
330
117C
100
AcDbEntity
  8
0
100
AcDbBlockEnd
  0
BLOCK
  5
1192
330
1188
100
AcDbEntity
  8
0
100
AcDbBlockBegin
  2
*D18
 70
     1
 10
0.0
 20
0.0
 30
0.0
  3
*D18
  1

  0
LINE
  5
11C8
330
1188
100
AcDbEntity
  8
SUNPOU
100
AcDbLine
 10
732.4377927017605
 20
233.2464334092926
 30
0.0
 11
793.4442688782337
 21
233.2464334092926
 31
0.0
  0
LINE
  5
11C9
330
1188
100
AcDbEntity
  8
SUNPOU
100
AcDbLine
 10
728.3127927017606
 20
183.2464334092927
 30
0.0
 11
793.4442688782337
 21
183.2464334092927
 31
0.0
  0
LINE
  5
11CA
330
1188
100
AcDbEntity
  8
SUNPOU
100
AcDbLine
 10
791.9442688782337
 20
230.2464334092927
 30
0.0
 11
791.9442688782337
 21
186.2464334092926
 31
0.0
  0
INSERT
  5
11CB
330
1188
100
AcDbEntity
  8
SUNPOU
100
AcDbBlockReference
  2
_OPEN
 10
791.9442688782337
 20
233.2464334092926
 30
0.0
 41
3.0
 42
3.0
 43
3.0
 50
90.0
  0
INSERT
  5
11CC
330
1188
100
AcDbEntity
  8
SUNPOU
100
AcDbBlockReference
  2
_OPEN
 10
791.9442688782337
 20
183.2464334092927
 30
0.0
 41
3.0
 42
3.0
 43
3.0
 50
270.0
  0
MTEXT
  5
11CD
330
1188
100
AcDbEntity
  8
SUNPOU
100
AcDbMText
 10
789.4442688782337
 20
208.2464334092928
 30
0.0
 40
3.0
 41
0.0
 71
     5
 72
     1
  1
\A1;50
 11
0.0000000000000001
 21
1.0
 31
0.0
 73
     1
 44
1.0
1001
ACAD
1000
MTEXTBEGIN
1070
    73
1070
     1
1070
    44
1040
1.0
1070
    74
1070
     0
1000
MTEXTEND
  0
POINT
  5
11CE
330
1188
100
AcDbEntity
  8
DEFPOINTS
 62
     0
100
AcDbPoint
 10
729.4377927017606
 20
233.2464334092926
 30
0.0
  0
POINT
  5
11CF
330
1188
100
AcDbEntity
  8
DEFPOINTS
 62
     0
100
AcDbPoint
 10
725.3127927017605
 20
183.2464334092927
 30
0.0
  0
POINT
  5
11D0
330
1188
100
AcDbEntity
  8
DEFPOINTS
 62
     0
100
AcDbPoint
 10
791.9442688782337
 20
183.2464334092927
 30
0.0
  0
ENDBLK
  5
1193
330
1188
100
AcDbEntity
  8
0
100
AcDbBlockEnd
  0
ENDSEC
  0
SECTION
  2
ENTITIES
  0
LINE
  5
18E
330
1A
100
AcDbEntity
  8
SEIHIN
  6
Continuous
 62
     3
100
AcDbLine
 10
190.1383686469033
 20
63.24643341026825
 30
0.0
 11
278.6883686469034
 21
63.24643341026825
 31
0.0
  0
LINE
  5
18F
330
1A
100
AcDbEntity
  8
SEIHIN
  6
Continuous
 62
     3
100
AcDbLine
 10
273.0633686469035
 20
64.24643341026814
 30
0.0
 11
190.1383686469033
 21
64.24643341026814
 31
0.0
  0
LINE
  5
191
330
1A
100
AcDbEntity
  8
SEIHIN
  6
Continuous
 62
     3
100
AcDbLine
 10
272.2633686469035
 20
143.2464334102681
 30
0.0
 11
190.1383686469033
 21
143.2464334102681
 31
0.0
  0
LINE
  5
192
330
1A
100
AcDbEntity
  8
SEIHIN
  6
Continuous
 62
     3
100
AcDbLine
 10
190.1383686469033
 20
63.24643341026825
 30
0.0
 11
278.6883686469034
 21
63.24643341026825
 31
0.0
  0
LINE
  5
197
330
1A
100
AcDbEntity
  8
CENTER L
  6
CENTER
 62
     1
 48
5.0
100
AcDbLine
 10
190.1383686469033
 20
53.06833341026822
 30
0.0
 11
190.1380621780496
 21
240.2464334073778
 31
0.0
  0
LINE
  5
19A
330
1A
100
AcDbEntity
  8
SEIHIN
  6
Continuous
 62
     3
100
AcDbLine
 10
190.1383686469033
 20
63.24643341026825
 30
0.0
 11
101.5882686469035
 21
63.24613341026822
 31
0.0
  0
LINE
  5
19B
330
1A
100
AcDbEntity
  8
SEIHIN
  6
Continuous
 62
     3
100
AcDbLine
 10
190.1383686469033
 20
63.24643341026825
 30
0.0
 11
101.5882686469035
 21
63.24613341026822
 31
0.0
  0
LINE
  5
1AA
330
1A
100
AcDbEntity
  8
SEIHIN
  6
Continuous
 62
     3
100
AcDbLine
 10
273.0633686469035
 20
64.24643341026814
 30
0.0
 11
272.2683686469035
 21
143.2465334102681
 31
0.0
  0
LINE
  5
1AB
330
1A
100
AcDbEntity
  8
SEIHIN
  6
Continuous
 62
     3
100
AcDbLine
 10
278.6883686469034
 20
63.24653341026823
 30
0.0
 11
278.6882686469034
 21
145.2464334102681
 31
0.0
  0
LINE
  5
1AC
330
1A
100
AcDbEntity
  8
SEIHIN
  6
Continuous
 62
     3
100
AcDbLine
 10
278.6883686469034
 20
63.24653341026823
 30
0.0
 11
278.688263768726
 21
149.246534020025
 31
0.0
  0
LINE
  5
1AD
330
1A
100
AcDbEntity
  8
SEIHIN
  6
Continuous
 62
     3
100
AcDbLine
 10
273.0633686469035
 20
64.24643341026814
 30
0.0
 11
274.0633686469035
 21
63.24643341026825
 31
0.0
  0
LINE
  5
1B4
330
1A
100
AcDbEntity
  8
SEIHIN
  6
Continuous
 62
     3
100
AcDbLine
 10
263.0383686469035
 20
149.3668760620678
 30
0.0
 11
263.0383686469035
 21
143.2464334102681
 31
0.0
  0
DIMENSION
  5
3BA
330
1A
100
AcDbEntity
  8
SUNPOU
  6
Continuous
100
AcDbDimension
  2
*D2
 10
101.5878924766872
 20
34.21369924680537
 30
0.0
 11
190.1379509459605
 21
36.7133992469597
 31
0.0
 70
    32
  1
φ<>
 71
     5
 42
-1.0
  3
STANDARD
100
AcDbAlignedDimension
 13
278.6880908380697
 23
63.24643341039982
 33
0.0
 14
101.5879908384087
 24
63.24683341006116
 34
0.0
 50
359.9998058869059
100
AcDbRotatedDimension
1001
ACAD
1000
DSTYLE
1002
{
1070
   140
1040
3.0
1070
    74
1070
     0
1070
   172
1070
     1
1070
    73
1070
     0
1070
   272
1070
     2
1070
    77
1070
     3
1070
   173
1070
     1
1070
   147
1040
1.0
1070
    42
1040
3.0
1070
    44
1040
1.5
1070
    43
1040
7.0
1070
   271
1070
     0
1070
   178
1070
     4
1070
   177
1070
     4
1070
   176
1070
     4
1070
   141
1040
150.0
1070
     7
1000
_OPEN
1070
     6
1000
_OPEN
1070
    41
1040
3.0
1002
}
  0
DIMENSION
  5
3BB
330
1A
100
AcDbEntity
  8
SUNPOU
  6
Continuous
100
AcDbDimension
  2
*D1
 10
107.2129291701385
 20
44.08444354332196
 30
0.0
 11
190.1379860133442
 21
46.58416260049025
 31
0.0
 70
    32
  1
φ<>
 71
     5
 42
165.8500967478001
  3
STANDARD
100
AcDbAlignedDimension
 13
273.0630942260148
 23
64.24645246740266
 33
0.0
 14
107.2129940883338
 24
63.24615246634645
 34
0.0
 50
359.9998058869059
100
AcDbRotatedDimension
1001
ACAD
1000
DSTYLE
1002
{
1070
   140
1040
3.0
1070
    74
1070
     0
1070
   172
1070
     1
1070
    73
1070
     0
1070
   272
1070
     2
1070
    77
1070
     3
1070
    76
1070
     0
1070
   173
1070
     1
1070
   147
1040
1.0
1070
    42
1040
3.0
1070
    44
1040
1.5
1070
    43
1040
7.0
1070
   271
1070
     2
1070
   178
1070
     4
1070
   177
1070
     4
1070
   176
1070
     4
1070
   141
1040
150.0
1070
     7
1000
_OPEN
1070
     6
1000
_OPEN
1070
    41
1040
3.0
1002
}
  0
LINE
  5
460
330
1A
100
AcDbEntity
  8
SEIHIN
100
AcDbLine
 10
271.5555540718892
 20
149.7465334102681
 30
0.0
 11
278.1882637687264
 21
149.7465334102681
 31
0.0
  0
ARC
  5
467
330
1A
100
AcDbEntity
  8
SEIHIN
100
AcDbCircle
 10
278.1882637687264
 20
149.2465334102681
 30
0.0
 40
0.5
100
AcDbArc
 50
0.0000698729869884
 51
90.0
  0
LINE
  5
46F
330
1A
100
AcDbEntity
  8
SEIHIN
  6
Continuous
 62
     3
100
AcDbLine
 10
101.5883353176104
 20
63.24624344234883
 30
0.0
 11
101.5881585782095
 21
149.2462440519879
 31
0.0
  0
LINE
  5
470
330
1A
100
AcDbEntity
  8
SEIHIN
  6
Continuous
 62
     3
100
AcDbLine
 10
101.5883353176104
 20
63.24624344234883
 30
0.0
 11
101.5881667988535
 21
145.2461434422365
 31
0.0
  0
LINE
  5
473
330
1A
100
AcDbEntity
  8
SEIHIN
100
AcDbLine
 10
190.1382103545756
 20
149.7465334102677
 30
0.0
 11
102.088156940897
 21
149.7462450795399
 31
0.0
  0
ARC
  5
477
330
1A
100
AcDbEntity
  8
SEIHIN
100
AcDbCircle
 10
102.0881585782085
 20
149.2462450795426
 30
0.0
 40
0.5
100
AcDbArc
 50
90.00018762207622
 51
180.0001177490892
  0
DIMENSION
  5
496
330
1A
100
AcDbEntity
  8
SUNPOU
100
AcDbDimension
  2
*D3
 10
324.7880563739184
 20
63.24643341039981
 30
0.0
 11
322.2880563739184
 21
148.2462865878752
 31
0.0
 70
    32
 71
     5
 42
-1.0
  3
STANDARD
100
AcDbAlignedDimension
 13
265.0879732390923
 23
233.2461397653506
 33
0.0
 14
278.6880908380697
 24
63.24643341039982
 34
0.0
 50
90.0
100
AcDbRotatedDimension
1001
ACAD
1000
DSTYLE
1002
{
1070
    41
1040
3.0
1070
    42
1040
3.0
1070
    43
1040
7.0
1070
    44
1040
1.5
1070
    73
1070
     0
1070
    74
1070
     0
1070
    77
1070
     3
1070
   140
1040
3.0
1070
   141
1040
150.0
1070
   147
1040
1.0
1070
   172
1070
     1
1070
   173
1070
     1
1070
   176
1070
   256
1070
   177
1070
   256
1070
   178
1070
   256
1070
   271
1070
     0
1070
   272
1070
     0
1070
   341
1005
B2
1070
     6
1000
OPEN
1070
     7
1000
OPEN
1070
   371
1070
    -1
1070
   372
1070
    -1
1002
}
  0
DIMENSION
  5
4B0
330
1A
100
AcDbEntity
  8
SUNPOU
100
AcDbDimension
  2
*D4
 10
313.5442688782334
 20
63.24643341039981
 30
0.0
 11
311.0442688782334
 21
103.246483410334
 31
0.0
 70
    32
 71
     5
 42
-1.0
  3
STANDARD
100
AcDbAlignedDimension
 13
272.2683686469035
 23
143.2465334102681
 33
0.0
 14
278.6880908380697
 24
63.24643341039982
 34
0.0
 50
90.0
100
AcDbRotatedDimension
1001
ACAD
1000
DSTYLE
1002
{
1070
    41
1040
3.0
1070
    42
1040
3.0
1070
    43
1040
7.0
1070
    44
1040
1.5
1070
    73
1070
     0
1070
    74
1070
     0
1070
    77
1070
     3
1070
   140
1040
3.0
1070
   141
1040
150.0
1070
   147
1040
1.0
1070
   172
1070
     1
1070
   173
1070
     1
1070
   176
1070
   256
1070
   177
1070
   256
1070
   178
1070
   256
1070
   271
1070
     0
1070
   272
1070
     0
1070
   341
1005
B2
1070
     6
1000
OPEN
1070
     7
1000
OPEN
1070
   371
1070
    -1
1070
   372
1070
    -1
1002
}
  0
LINE
  5
615
330
1A
100
AcDbEntity
  8
SEIHIN
  6
Continuous
 62
     3
100
AcDbLine
 10
190.1377927017604
 20
233.2464334092926
 30
0.0
 11
251.0377927017602
 21
233.2464334092926
 31
0.0
  0
LINE
  5
616
330
1A
100
AcDbEntity
  8
SEIHIN
  6
Continuous
 62
     3
100
AcDbLine
 10
247.4127927017602
 20
232.7464334092926
 30
0.0
 11
190.1377927017604
 21
232.7464334092926
 31
0.0
  0
LINE
  5
617
330
1A
100
AcDbEntity
  8
SEIHIN
  6
Continuous
 62
     3
100
AcDbLine
 10
190.1377927017604
 20
233.2464334092926
 30
0.0
 11
129.2377927017603
 21
233.2465334092926
 31
0.0
  0
LINE
  5
618
330
1A
100
AcDbEntity
  8
SEIHIN
  6
Continuous
 62
     3
100
AcDbLine
 10
247.9606179660553
 20
233.2464334092926
 30
0.0
 11
247.4127927017602
 21
232.7464334092926
 31
0.0
  0
LINE
  5
61B
330
1A
100
AcDbEntity
  8
SEIHIN
  6
Continuous
 62
     3
100
AcDbLine
 10
246.9127927017602
 20
183.2464334092926
 30
0.0
 11
190.1377927017604
 21
183.2464334092926
 31
0.0
  0
LINE
  5
61C
330
1A
100
AcDbEntity
  8
SEIHIN
  6
Continuous
 62
     3
100
AcDbLine
 10
251.0377927017602
 20
233.2464334092926
 30
0.0
 11
251.0377927017602
 21
181.2464334092926
 31
0.0
  0
LINE
  5
61D
330
1A
100
AcDbEntity
  8
SEIHIN
  6
Continuous
 62
     3
100
AcDbLine
 10
247.4127927017602
 20
232.7464334092926
 30
0.0
 11
246.9127927017602
 21
183.2464334092926
 31
0.0
  0
DIMENSION
  5
61E
330
1A
100
AcDbEntity
  8
SUNPOU
  6
Continuous
100
AcDbDimension
  2
*D6
 10
132.8627850846695
 20
251.1340610374151
 30
0.0
 11
190.1377888932148
 21
253.6340610374151
 31
0.0
 70
    32
  1
φ<>
 71
     5
 42
114.5500076170907
  3
STANDARD
100
AcDbAlignedDimension
 13
247.4127927017602
 23
232.7464334092926
 33
0.0
 14
132.8627850846695
 24
233.2465274569241
 34
0.0
100
AcDbRotatedDimension
1001
ACAD
1000
DSTYLE
1002
{
1070
   140
1040
3.0
1070
    74
1070
     0
1070
   172
1070
     1
1070
    73
1070
     0
1070
   272
1070
     2
1070
    77
1070
     3
1070
    76
1070
     0
1070
   173
1070
     1
1070
   147
1040
1.0
1070
    42
1040
3.0
1070
    44
1040
1.5
1070
    43
1040
7.0
1070
   271
1070
     2
1070
   178
1070
     4
1070
   177
1070
     4
1070
   176
1070
     4
1070
   141
1040
150.0
1070
     7
1000
_OPEN
1070
     6
1000
_OPEN
1070
    41
1040
3.0
1002
}
  0
DIMENSION
  5
61F
330
1A
100
AcDbEntity
  8
SUNPOU
  6
Continuous
100
AcDbDimension
  2
*D5
 10
129.2377927017603
 20
262.1660913013021
 30
0.0
 11
190.1377927017602
 21
264.6660913013021
 31
0.0
 70
    32
  1
φ<>
 71
     5
 42
-1.0
  3
STANDARD
100
AcDbAlignedDimension
 13
251.0377927017602
 23
233.2464334092926
 33
0.0
 14
129.2377927017603
 24
233.2465334092926
 34
0.0
100
AcDbRotatedDimension
1001
ACAD
1000
DSTYLE
1002
{
1070
   140
1040
3.0
1070
    74
1070
     0
1070
   172
1070
     1
1070
    73
1070
     0
1070
   272
1070
     2
1070
    77
1070
     3
1070
   173
1070
     1
1070
   147
1040
1.0
1070
    42
1040
3.0
1070
    44
1040
1.5
1070
    43
1040
7.0
1070
   271
1070
     0
1070
   178
1070
     4
1070
   177
1070
     4
1070
   176
1070
     4
1070
   141
1040
150.0
1070
     7
1000
_OPEN
1070
     6
1000
_OPEN
1070
    41
1040
3.0
1002
}
  0
LINE
  5
649
330
1A
100
AcDbEntity
  8
SEIHIN
100
AcDbLine
 10
251.0377927017602
 20
181.2464334092926
 30
0.0
 11
269.8526261409212
 21
150.6977071796994
 31
0.0
  0
ARC
  5
64A
330
1A
100
AcDbEntity
  8
SEIHIN
100
AcDbCircle
 10
271.5555540718892
 20
151.7465334102681
 30
0.0
 40
2.0
100
AcDbArc
 50
211.6287428616107
 51
270.0000000000002
  0
LINE
  5
64D
330
1A
100
AcDbEntity
  8
SEIHIN
100
AcDbLine
 10
242.1720901746104
 20
183.2464334092926
 30
0.0
 11
263.0383686469035
 21
149.3668760620678
 31
0.0
  0
LINE
  5
64E
330
1A
100
AcDbEntity
  8
SEIHIN
  6
Continuous
 62
     3
100
AcDbLine
 10
129.2377853789492
 20
233.2455406938698
 30
0.0
 11
129.2385476318094
 21
181.2455406994566
 31
0.0
  0
LINE
  5
64F
330
1A
100
AcDbEntity
  8
SEIHIN
100
AcDbLine
 10
129.238539625517
 20
181.2457843955816
 30
0.0
 11
110.4240317484057
 21
150.6968576560687
 31
0.0
  0
LINE
  5
650
330
1A
100
AcDbEntity
  8
SEIHIN
100
AcDbLine
 10
108.721113954293
 20
149.7456657384097
 30
0.0
 11
102.0884042578325
 21
149.7455950529265
 31
0.0
  0
ARC
  5
651
330
1A
100
AcDbEntity
  8
SEIHIN
100
AcDbCircle
 10
108.7210926400832
 20
151.7456657382961
 30
0.0
 40
2.0
100
AcDbArc
 50
270.0006106071349
 51
328.3718677455243
  0
ARC
  5
652
330
1A
100
AcDbEntity
  8
SEIHIN
100
AcDbCircle
 10
102.088409586385
 20
149.2455950529549
 30
0.0
 40
0.5
100
AcDbArc
 50
90.00061060713505
 51
180.000540734148
  0
LINE
  5
653
330
1A
100
AcDbEntity
  8
SEIHIN
  6
Continuous
 62
     3
100
AcDbLine
 10
190.1381587808891
 20
181.2455406994567
 30
0.0
 11
129.2381848287654
 21
181.2455406994567
 31
0.0
  0
DIMENSION
  5
684
330
1A
100
AcDbEntity
  8
SUNPOU
100
AcDbDimension
  2
*D7
 10
313.5442688782335
 20
183.2464334092926
 30
0.0
 11
311.0442688782334
 21
208.2464334092926
 31
0.0
 70
    32
 71
     5
 42
-1.0
  3
STANDARD
100
AcDbAlignedDimension
 13
251.0377927017602
 23
233.2464334092926
 33
0.0
 14
246.9127927017602
 24
183.2464334092926
 34
0.0
 50
90.0
100
AcDbRotatedDimension
1001
ACAD
1000
DSTYLE
1002
{
1070
    41
1040
3.0
1070
    42
1040
3.0
1070
    43
1040
7.0
1070
    44
1040
1.5
1070
    73
1070
     0
1070
    74
1070
     0
1070
    77
1070
     3
1070
   140
1040
3.0
1070
   141
1040
150.0
1070
   147
1040
1.0
1070
   172
1070
     1
1070
   173
1070
     1
1070
   176
1070
   256
1070
   177
1070
   256
1070
   178
1070
   256
1070
   271
1070
     0
1070
   272
1070
     0
1070
   341
1005
B2
1070
     6
1000
OPEN
1070
     7
1000
OPEN
1070
   371
1070
    -1
1070
   372
1070
    -1
1002
}
  0
LINE
  5
CB8
330
1A
100
AcDbEntity
  8
ZUWAKU
100
AcDbLine
 10
109.3233006450339
 20
14.60000000000005
 30
0.0
 11
228.7121819854956
 21
14.60000000000005
 31
0.0
  0
LINE
  5
CB9
330
1A
100
AcDbEntity
  8
ZUWAKU
100
AcDbLine
 10
109.3233006450339
 20
14.80000000000005
 30
0.0
 11
228.7121819854956
 21
14.80000000000005
 31
0.0
  0
LINE
  5
CBA
330
1A
100
AcDbEntity
  8
ZUWAKU
100
AcDbLine
 10
109.3233006450339
 20
14.70000000000004
 30
0.0
 11
228.7121819854956
 21
14.70000000000004
 31
0.0
  0
LINE
  5
CBB
330
1A
100
AcDbEntity
  8
ZUWAKU
100
AcDbLine
 10
5.0
 20
22.40000000000003
 30
0.0
 11
403.6999999999998
 21
22.40000000000003
 31
0.0
  0
LINE
  5
CBC
330
1A
100
AcDbEntity
  8
ZUWAKU
100
AcDbLine
 10
5.0
 20
22.30000000000004
 30
0.0
 11
403.6999999999998
 21
22.30000000000004
 31
0.0
  0
LINE
  5
CBD
330
1A
100
AcDbEntity
  8
ZUWAKU
100
AcDbLine
 10
5.0
 20
22.20000000000003
 30
0.0
 11
403.6999999999998
 21
22.20000000000003
 31
0.0
  0
LINE
  5
CBE
330
1A
100
AcDbEntity
  8
ZUWAKU
100
AcDbLine
 10
5.0
 20
22.10000000000004
 30
0.0
 11
403.6999999999998
 21
22.10000000000004
 31
0.0
  0
LINE
  5
CBF
330
1A
100
AcDbEntity
  8
ZUWAKU
100
AcDbLine
 10
5.0
 20
22.00000000000003
 30
0.0
 11
403.6999999999998
 21
22.00000000000003
 31
0.0
  0
LWPOLYLINE
  5
CC0
330
1A
100
AcDbEntity
  8
ZUWAKU
100
AcDbPolyline
 90
        4
 70
     1
 43
0.0
 10
5.099999999999965
 20
282.7000000000001
 10
5.099999999999965
 20
7.100000000000051
 10
403.6999999999998
 20
7.100000000000065
 10
403.7
 20
282.7000000000001
  0
LWPOLYLINE
  5
CC1
330
1A
100
AcDbEntity
  8
ZUWAKU
100
AcDbPolyline
 90
        4
 70
     1
 43
0.0
 10
5.299999999999954
 20
282.5000000000001
 10
5.299999999999954
 20
7.300000000000039
 10
403.5
 20
7.300000000000068
 10
403.5
 20
282.5000000000001
  0
LWPOLYLINE
  5
CC2
330
1A
100
AcDbEntity
  8
ZUWAKU
100
AcDbPolyline
 90
        4
 70
     1
 43
0.0
 10
5.0
 20
282.8000000000001
 10
5.0
 20
7.000000000000028
 10
403.7999999999999
 20
7.000000000000063
 10
403.7999999999999
 20
282.8000000000001
  0
LWPOLYLINE
  5
CC3
330
1A
100
AcDbEntity
  8
ZUWAKU
100
AcDbPolyline
 90
        4
 70
     1
 43
0.0
 10
5.199999999999988
 20
282.6000000000001
 10
5.199999999999988
 20
7.200000000000073
 10
403.5999999999999
 20
7.200000000000066
 10
403.5999999999999
 20
282.6000000000001
  0
LWPOLYLINE
  5
CC4
330
1A
100
AcDbEntity
  8
ZUWAKU
100
AcDbPolyline
 90
        4
 70
     1
 43
0.0
 10
5.399999999999977
 20
282.4000000000001
 10
5.399999999999977
 20
7.400000000000062
 10
403.3999999999998
 20
7.400000000000062
 10
403.3999999999998
 20
282.4000000000001
  0
LINE
  5
CD2
330
1A
100
AcDbEntity
  8
ZUWAKU
100
AcDbLine
 10
13.79610607739056
 20
17.22500000000003
 30
0.0
 11
12.30860607739055
 21
17.22500000000003
 31
0.0
  0
ARC
  5
CD3
330
1A
100
AcDbEntity
  8
ZUWAKU
100
AcDbCircle
 10
12.92110607739056
 20
11.97500000000004
 30
0.0
 40
1.399999999999999
100
AcDbArc
 50
270.0
 51
0.0
  0
INSERT
  5
CD4
330
1A
100
AcDbEntity
  8
ZUWAKU
  6
Continuous
100
AcDbBlockReference
  2
*X8
 10
6.145867034560126
 20
3.946206858588709
 30
0.0
 41
0.5
 42
0.5
 43
0.5
1001
ACAD
1000
HATCH
1002
{
1070
    19
1000
ANSI37
1040
0.2
1040
0.0
1000
R14_HATCH_DATA
1000
4E4
1011
6.645867034560126
1021
3.946206858588709
1031
0.0
1011
6.145867034560126
1021
4.446206858588709
1031
0.0
1011
6.145867034560126
1021
3.946206858588709
1031
0.5
1040
0.0
1010
0.0
1020
0.0
1030
1.0
1000
ANSI37
1070
     0
1070
     0
1071
        8
1071
        7
1070
     1
1070
     1
1071
       24
1040
12.2105285919996
1040
23.75243476380623
1040
-0.1989123673796348
1040
11.80047808566087
1040
24.74238425746728
1040
0.0
1040
11.80047808566087
1040
26.03258628282266
1040
-0.4142135623730912
1040
12.32547808566085
1040
26.55758628282265
1040
0.0
1040
15.30047808566076
1040
26.55758628282265
1040
0.4142135623731546
1040
15.82547808566085
1040
27.08258628282264
1040
0.0
1040
15.82547808566085
1040
28.83258628282265
1040
0.4142135623731586
1040
15.30047808566076
1040
29.35758628282265
1040
0.0
1040
11.80047808566087
1040
29.35758628282265
1040
0.4142135623730928
1040
9.000478085660915
1040
26.55758628282268
1040
0.0
1040
9.000478085660915
1040
24.74238425746741
1040
0.1989123673796619
1040
10.23062960467735
1040
21.7725357764838
1040
0.0
1040
13.14042757932202
1040
18.86273780183914
1040
-0.1989123673796613
1040
13.55047808566087
1040
17.87278830817795
1040
0.0
1040
13.55047808566087
1040
16.58258628282264
1040
-0.4142135623730911
1040
13.02547808566089
1040
16.05758628282265
1040
0.0
1040
10.05047808566098
1040
16.05758628282265
1040
0.4142135623731526
1040
9.525478085660893
1040
15.53258628282266
1040
0.0
1040
9.525478085660893
1040
13.78258628282264
1040
0.4142135623731526
1040
10.05047808566098
1040
13.25758628282265
1040
0.0
1040
13.55047808566087
1040
13.25758628282265
1040
0.4142135623731044
1040
16.35047808566094
1040
16.05758628282262
1040
0.0
1040
16.35047808566094
1040
17.87278830817789
1040
0.1989123673796604
1040
15.12032656664439
1040
20.84263678916144
1040
0.0
1071
        0
1071
        7
1070
     1
1070
     1
1071
       16
1040
21.25047808566092
1040
25.15758628282266
1040
-0.4142135623730935
1040
22.65047808566089
1040
26.55758628282265
1040
0.0
1040
24.57547808566085
1040
26.55758628282265
1040
0.4142135623731546
1040
25.10047808566094
1040
27.08258628282264
1040
0.0
1040
25.10047808566094
1040
28.83258628282265
1040
0.4142135623730951
1040
24.57547808566096
1040
29.35758628282265
1040
0.0
1040
22.65047808566078
1040
29.35758628282261
1040
0.4142135623730892
1040
18.45047808566085
1040
25.15758628282259
1040
0.0
1040
18.45047808566085
1040
17.45758628282267
1040
0.4142135623730969
1040
22.65047808566089
1040
13.25758628282265
1040
0.0
1040
24.57547808566085
1040
13.25758628282265
1040
0.4142135623731526
1040
25.10047808566094
1040
13.78258628282264
1040
0.0
1040
25.10047808566094
1040
15.53258628282266
1040
0.4142135623730891
1040
24.57547808566096
1040
16.05758628282265
1040
0.0
1040
22.65047808566089
1040
16.05758628282265
1040
-0.4142135623730928
1040
21.25047808566092
1040
17.45758628282264
1040
0.0
1071
        0
1071
        7
1070
     1
1070
     1
1071
        2
1040
21.95047808566085
1040
21.30758628282265
1040
1.0
1040
25.45047808566085
1040
21.30758628282265
1040
1.0
1071
        0
1071
        7
1070
     1
1070
     1
1071
       26
1040
35.02312456783887
1040
25.31263347638608
1040
0.0
1040
36.08476420097668
1040
28.67449231465567
1040
0.5069206636600134
1040
35.58413330178132
1040
29.35758628282265
1040
0.0
1040
33.8852439221721
1040
29.35758628282265
1040
0.3272098845218764
1040
33.38461302297674
1040
28.99068025098962
1040
0.0
1040
31.51634314834496
1040
23.07449231465573
1040
-0.3272098845219541
1040
31.01571224914949
1040
22.70758628282265
1040
0.0
1040
30.87547808566103
1040
22.70758628282265
1040
-0.4142135623731526
1040
30.35047808566094
1040
23.23258628282263
1040
0.0
1040
30.35047808566094
1040
28.83258628282265
1040
0.4142135623730951
1040
29.82547808566096
1040
29.35758628282265
1040
0.0
1040
28.07547808566085
1040
29.35758628282265
1040
0.4142135623730871
1040
27.55047808566087
1040
28.83258628282267
1040
0.0
1040
27.55047808566087
1040
13.78258628282264
1040
0.4142135623730891
1040
28.07547808566085
1040
13.25758628282265
1040
0.0
1040
29.82547808566085
1040
13.25758628282265
1040
0.4142135623731526
1040
30.35047808566094
1040
13.78258628282264
1040
0.0
1040
30.35047808566094
1040
19.38258628282266
1040
-0.4142135623731526
1040
30.87547808566103
1040
19.90758628282265
1040
0.0
1040
31.0157122491496
1040
19.90758628282265
1040
-0.3272098845218915
1040
31.51634314834496
1040
19.54068025098957
1040
0.0
1040
33.38461302297674
1040
13.62449231465572
1040
0.3272098845218902
1040
33.8852439221721
1040
13.25758628282265
1040
0.0
1040
35.58413330178132
1040
13.25758628282265
1040
0.5069206636600335
1040
36.08476420097668
1040
13.94068025098966
1040
0.0
1040
33.75837282250302
1040
21.30758628282279
1040
0.0
1071
        0
1071
        7
1070
     1
1070
     1
1071
        8
1040
41.20047808566084
1040
28.83258628282266
1040
0.4142135623731546
1040
40.67547808566075
1040
29.35758628282265
1040
0.0
1040
38.92547808566098
1040
29.35758628282265
1040
0.4142135623731507
1040
38.40047808566089
1040
28.83258628282267
1040
0.0
1040
38.40047808566089
1040
13.78258628282264
1040
0.4142135623731526
1040
38.92547808566098
1040
13.25758628282265
1040
0.0
1040
40.67547808566075
1040
13.25758628282265
1040
0.4142135623731526
1040
41.20047808566084
1040
13.78258628282264
1040
0.0
1071
        0
1071
        7
1070
     1
1070
     1
1071
       24
1040
46.10047808566093
1040
26.03258628282266
1040
-0.4142135623731546
1040
46.62547808566102
1040
26.55758628282265
1040
0.0
1040
49.60047808566094
1040
26.55758628282265
1040
0.4142135623730911
1040
50.12547808566091
1040
27.08258628282264
1040
0.0
1040
50.12547808566091
1040
28.83258628282265
1040
0.4142135623730952
1040
49.60047808566094
1040
29.35758628282265
1040
0.0
1040
46.10047808566093
1040
29.35758628282265
1040
0.4142135623731048
1040
43.30047808566087
1040
26.55758628282268
1040
0.0
1040
43.30047808566087
1040
24.74238425746741
1040
0.1989123673796613
1040
44.53062960467741
1040
21.77253577648386
1040
0.0
1040
47.44042757932208
1040
18.86273780183919
1040
-0.1989123673796402
1040
47.85047808566093
1040
17.87278830817811
1040
0.0
1040
47.85047808566093
1040
16.58258628282264
1040
-0.4142135623730911
1040
47.32547808566096
1040
16.05758628282265
1040
0.0
1040
44.35047808566094
1040
16.05758628282265
1040
0.4142135623731526
1040
43.82547808566084
1040
15.53258628282266
1040
0.0
1040
43.82547808566084
1040
13.78258628282264
1040
0.4142135623730891
1040
44.35047808566082
1040
13.25758628282265
1040
0.0
1040
47.85047808566093
1040
13.25758628282265
1040
0.4142135623730925
1040
50.65047808566089
1040
16.05758628282262
1040
0.0
1040
50.65047808566089
1040
17.87278830817789
1040
0.1989123673796675
1040
49.42032656664435
1040
20.84263678916155
1040
0.0
1040
46.51052859199978
1040
23.75243476380607
1040
-0.1989123673796652
1040
46.10047808566093
1040
24.74238425746724
1040
0.0
1071
        0
1071
        7
1070
     1
1070
     1
1071
       16
1040
55.55047808566087
1040
28.83258628282264
1040
0.414213562373103
1040
55.02547808566089
1040
29.35758628282265
1040
0.0
1040
53.27547808566089
1040
29.35758628282265
1040
0.4142135623730871
1040
52.75047808566092
1040
28.83258628282267
1040
0.0
1040
52.75047808566092
1040
16.05758628282262
1040
0.4142135623730926
1040
55.55047808566087
1040
13.25758628282265
1040
0.0
1040
59.05047808566087
1040
13.25758628282265
1040
0.4142135623731044
1040
61.85047808566094
1040
16.05758628282262
1040
0.0
1040
61.85047808566094
1040
28.83258628282265
1040
0.4142135623730951
1040
61.32547808566096
1040
29.35758628282265
1040
0.0
1040
59.57547808566085
1040
29.35758628282265
1040
0.4142135623730871
1040
59.05047808566087
1040
28.83258628282267
1040
0.0
1040
59.05047808566087
1040
17.10758628282262
1040
-0.414213562373088
1040
58.00047808566091
1040
16.05758628282265
1040
0.0
1040
56.60047808566094
1040
16.05758628282265
1040
-0.4142135623731197
1040
55.55047808566087
1040
17.10758628282262
1040
0.0
1071
        0
1071
        7
1070
     1
1070
     1
1071
        8
1040
66.75047808566091
1040
28.83258628282267
1040
0.4142135623730871
1040
66.22547808566094
1040
29.35758628282265
1040
0.0
1040
64.47547808566094
1040
29.35758628282265
1040
0.4142135623731507
1040
63.95047808566085
1040
28.83258628282267
1040
0.0
1040
63.95047808566085
1040
13.78258628282264
1040
0.4142135623730891
1040
64.47547808566082
1040
13.25758628282265
1040
0.0
1040
66.22547808566094
1040
13.25758628282265
1040
0.4142135623730891
1040
66.75047808566091
1040
13.78258628282264
1040
0.0
1071
        0
1070
     0
1070
     1
1040
0.0
1040
0.2
1070
     0
1070
     2
1040
0.7853981633974483
1040
-903.2340384037992
1040
-7.092413717177286
1040
-0.4490128060534576
1040
0.4490128060534577
1070
     0
1040
2.356194490192344
1040
-903.2340384037992
1040
-7.092413717177286
1040
-0.4490128060534577
1040
-0.4490128060534576
1070
     0
1040
0.057451373970553
1071
        8
1040
13.78812089390305
1040
21.2747599287082
1040
0.0
1040
20.11278093731892
1040
24.95164846527366
1040
0.0
1040
22.87263381653941
1040
21.61946792889336
1040
0.0
1040
28.62232591251689
1040
22.30888392926415
1040
0.0
1040
39.54673794983648
1040
22.76849619680576
1040
0.0
1040
44.6064668260093
1040
25.52616259922986
1040
0.0
1040
54.2659519032801
1040
24.83674419791766
1040
0.0
1040
65.53534555050248
1040
25.29635646545928
1040
0.0
1002
}
  0
LINE
  5
CD5
330
1A
100
AcDbEntity
  8
ZUWAKU
100
AcDbLine
 10
12.04610607739056
 20
18.62500000000003
 30
0.0
 11
13.79610607739056
 21
18.62500000000003
 31
0.0
  0
LINE
  5
CD6
330
1A
100
AcDbEntity
  8
ZUWAKU
100
AcDbLine
 10
13.70603031788232
 20
14.36752525316945
 30
0.0
 11
12.25113133055998
 21
15.82242424049178
 31
0.0
  0
ARC
  5
CD7
330
1A
100
AcDbEntity
  8
ZUWAKU
100
AcDbCircle
 10
12.74610607739055
 20
16.31739898732238
 30
0.0
 40
2.099999999999999
100
AcDbArc
 50
180.0
 51
224.9999999999994
  0
ARC
  5
CD8
330
1A
100
AcDbEntity
  8
ZUWAKU
100
AcDbCircle
 10
12.22110607739057
 20
12.88260101267771
 30
0.0
 40
0.7
100
AcDbArc
 50
0.0
 51
44.99999999999942
  0
LINE
  5
CD9
330
1A
100
AcDbEntity
  8
ZUWAKU
100
AcDbLine
 10
12.92110607739056
 20
12.23750000000004
 30
0.0
 11
12.92110607739056
 21
12.88260101267771
 31
0.0
  0
ARC
  5
CDA
330
1A
100
AcDbEntity
  8
ZUWAKU
100
AcDbCircle
 10
12.65860607739057
 20
12.23750000000004
 30
0.0
 40
0.2625
100
AcDbArc
 50
270.0
 51
0.0
  0
LINE
  5
CDB
330
1A
100
AcDbEntity
  8
ZUWAKU
100
AcDbLine
 10
10.90860607739057
 20
10.83750000000003
 30
0.0
 11
10.90860607739057
 21
11.71250000000003
 31
0.0
  0
ARC
  5
CDC
330
1A
100
AcDbEntity
  8
ZUWAKU
100
AcDbCircle
 10
11.17110607739056
 20
10.83750000000003
 30
0.0
 40
0.2625
100
AcDbArc
 50
180.0
 51
270.0
  0
ARC
  5
CDD
330
1A
100
AcDbEntity
  8
ZUWAKU
100
AcDbCircle
 10
11.17110607739056
 20
11.71250000000003
 30
0.0
 40
0.2625
100
AcDbArc
 50
90.0
 51
180.0
  0
LINE
  5
CDE
330
1A
100
AcDbEntity
  8
ZUWAKU
100
AcDbLine
 10
11.17110607739056
 20
10.57500000000003
 30
0.0
 11
12.92110607739056
 21
10.57500000000003
 31
0.0
  0
LINE
  5
CDF
330
1A
100
AcDbEntity
  8
ZUWAKU
100
AcDbLine
 10
11.17110607739056
 20
11.97500000000004
 30
0.0
 11
12.65860607739057
 21
11.97500000000004
 31
0.0
  0
LINE
  5
CE0
330
1A
100
AcDbEntity
  8
ZUWAKU
100
AcDbLine
 10
11.2611818368988
 20
14.83247474683063
 30
0.0
 11
12.71608082422114
 21
13.37757575950829
 31
0.0
  0
LINE
  5
CE1
330
1A
100
AcDbEntity
  8
ZUWAKU
100
AcDbLine
 10
12.04610607739056
 20
16.96250000000003
 30
0.0
 11
12.04610607739056
 21
16.31739898732236
 31
0.0
  0
LINE
  5
CE2
330
1A
100
AcDbEntity
  8
ZUWAKU
100
AcDbLine
 10
10.64610607739058
 20
17.22500000000003
 30
0.0
 11
10.64610607739058
 21
16.31739898732236
 31
0.0
  0
ARC
  5
CE3
330
1A
100
AcDbEntity
  8
ZUWAKU
100
AcDbCircle
 10
12.04610607739056
 20
17.22500000000003
 30
0.0
 40
1.399999999999999
100
AcDbArc
 50
90.0
 51
180.0
  0
ARC
  5
CE4
330
1A
100
AcDbEntity
  8
ZUWAKU
100
AcDbCircle
 10
12.74610607739055
 20
16.31739898732238
 30
0.0
 40
0.7
100
AcDbArc
 50
180.0000000000016
 51
224.9999999999994
  0
ARC
  5
CE5
330
1A
100
AcDbEntity
  8
ZUWAKU
100
AcDbCircle
 10
12.30860607739055
 20
16.96250000000003
 30
0.0
 40
0.2625
100
AcDbArc
 50
90.0
 51
180.0
  0
LINE
  5
CE6
330
1A
100
AcDbEntity
  8
ZUWAKU
100
AcDbLine
 10
44.6633147739941
 20
22.00000000000003
 30
0.0
 11
44.66331477399421
 21
7.400000000000062
 31
0.0
  0
LINE
  5
CE7
330
1A
100
AcDbEntity
  8
ZUWAKU
100
AcDbLine
 10
44.76331477399412
 20
22.00000000000003
 30
0.0
 11
44.76331477399424
 21
7.400000000000062
 31
0.0
  0
LINE
  5
CE8
330
1A
100
AcDbEntity
  8
ZUWAKU
100
AcDbLine
 10
44.56331477399419
 20
22.00000000000003
 30
0.0
 11
44.56331477399419
 21
7.400000000000062
 31
0.0
  0
LINE
  5
CE9
330
1A
100
AcDbEntity
  8
ZUWAKU
100
AcDbLine
 10
29.19610607739059
 20
18.62500000000003
 30
0.0
 11
30.9461060773906
 21
18.62500000000003
 31
0.0
  0
LINE
  5
CEA
330
1A
100
AcDbEntity
  8
ZUWAKU
100
AcDbLine
 10
30.9461060773906
 20
17.22500000000003
 30
0.0
 11
29.45860607739059
 21
17.22500000000003
 31
0.0
  0
LINE
  5
CEB
330
1A
100
AcDbEntity
  8
ZUWAKU
100
AcDbLine
 10
30.85603031788236
 20
14.36752525316945
 30
0.0
 11
29.40113133055996
 21
15.82242424049178
 31
0.0
  0
LINE
  5
CEC
330
1A
100
AcDbEntity
  8
ZUWAKU
100
AcDbLine
 10
28.3211060773906
 20
11.97500000000004
 30
0.0
 11
29.80860607739055
 21
11.97500000000004
 31
0.0
  0
LINE
  5
CED
330
1A
100
AcDbEntity
  8
ZUWAKU
100
AcDbLine
 10
28.3211060773906
 20
10.57500000000003
 30
0.0
 11
30.0711060773906
 21
10.57500000000003
 31
0.0
  0
LINE
  5
CEE
330
1A
100
AcDbEntity
  8
ZUWAKU
100
AcDbLine
 10
28.41118183689884
 20
14.83247474683063
 30
0.0
 11
29.86608082422117
 21
13.37757575950829
 31
0.0
  0
ARC
  5
CEF
330
1A
100
AcDbEntity
  8
ZUWAKU
100
AcDbCircle
 10
21.05860607739055
 20
18.36250000000003
 30
0.0
 40
0.2625
100
AcDbArc
 50
0.0
 51
90.0
  0
ARC
  5
CF0
330
1A
100
AcDbEntity
  8
ZUWAKU
100
AcDbCircle
 10
21.58360607739059
 20
15.56250000000003
 30
0.0
 40
0.2625
100
AcDbArc
 50
180.0
 51
270.0
  0
ARC
  5
CF1
330
1A
100
AcDbEntity
  8
ZUWAKU
100
AcDbCircle
 10
21.05860607739055
 20
10.83750000000003
 30
0.0
 40
0.2625
100
AcDbArc
 50
270.0
 51
0.0
  0
ARC
  5
CF2
330
1A
100
AcDbEntity
  8
ZUWAKU
100
AcDbCircle
 10
21.58360607739059
 20
13.63750000000003
 30
0.0
 40
0.2625
100
AcDbArc
 50
90.0
 51
180.0
  0
CIRCLE
  5
CF3
330
1A
100
AcDbEntity
  8
ZUWAKU
100
AcDbCircle
 10
17.99610607739055
 20
14.60000000000003
 30
0.0
 40
0.875
  0
LINE
  5
CF4
330
1A
100
AcDbEntity
  8
ZUWAKU
100
AcDbLine
 10
16.77110607739058
 20
16.52500000000003
 30
0.0
 11
16.77110607739058
 21
12.67500000000004
 31
0.0
  0
LINE
  5
CF5
330
1A
100
AcDbEntity
  8
ZUWAKU
100
AcDbLine
 10
15.37110607739055
 20
12.67500000000004
 30
0.0
 11
15.37110607739055
 21
16.52500000000001
 31
0.0
  0
LINE
  5
CF6
330
1A
100
AcDbEntity
  8
ZUWAKU
100
AcDbLine
 10
19.92110607739056
 20
18.36250000000003
 30
0.0
 11
19.92110607739056
 21
10.83750000000003
 31
0.0
  0
ARC
  5
CF7
330
1A
100
AcDbEntity
  8
ZUWAKU
100
AcDbCircle
 10
17.47110607739057
 20
12.67500000000004
 30
0.0
 40
0.7
100
AcDbArc
 50
180.0
 51
270.0
  0
ARC
  5
CF8
330
1A
100
AcDbEntity
  8
ZUWAKU
100
AcDbCircle
 10
17.47110607739057
 20
12.67500000000004
 30
0.0
 40
2.099999999999999
100
AcDbArc
 50
180.0
 51
270.0
  0
LINE
  5
CF9
330
1A
100
AcDbEntity
  8
ZUWAKU
100
AcDbLine
 10
14.32110607739059
 20
11.97500000000004
 30
0.0
 11
14.32110607739059
 21
12.88260101267771
 31
0.0
  0
ARC
  5
CFA
330
1A
100
AcDbEntity
  8
ZUWAKU
100
AcDbCircle
 10
12.22110607739057
 20
12.88260101267768
 30
0.0
 40
2.099999999999999
100
AcDbArc
 50
0.0
 51
44.99999999999942
  0
LINE
  5
CFB
330
1A
100
AcDbEntity
  8
ZUWAKU
100
AcDbLine
 10
21.32110607739059
 20
10.83750000000003
 30
0.0
 11
21.32110607739059
 21
13.63750000000003
 31
0.0
  0
LINE
  5
CFC
330
1A
100
AcDbEntity
  8
ZUWAKU
100
AcDbLine
 10
17.47110607739057
 20
11.97500000000004
 30
0.0
 11
18.43360607739055
 21
11.97500000000004
 31
0.0
  0
LINE
  5
CFD
330
1A
100
AcDbEntity
  8
ZUWAKU
100
AcDbLine
 10
18.43360607739055
 20
10.57500000000003
 30
0.0
 11
17.47110607739057
 21
10.57500000000003
 31
0.0
  0
LINE
  5
CFE
330
1A
100
AcDbEntity
  8
ZUWAKU
100
AcDbLine
 10
18.69610607739059
 20
11.71250000000003
 30
0.0
 11
18.69610607739059
 21
10.83750000000003
 31
0.0
  0
ARC
  5
CFF
330
1A
100
AcDbEntity
  8
ZUWAKU
100
AcDbCircle
 10
18.43360607739055
 20
10.83750000000003
 30
0.0
 40
0.2625
100
AcDbArc
 50
270.0
 51
0.0
  0
ARC
  5
D00
330
1A
100
AcDbEntity
  8
ZUWAKU
100
AcDbCircle
 10
18.43360607739055
 20
11.71250000000003
 30
0.0
 40
0.2625
100
AcDbArc
 50
0.0
 51
90.0
  0
ARC
  5
D01
330
1A
100
AcDbEntity
  8
ZUWAKU
100
AcDbCircle
 10
20.18360607739055
 20
10.83750000000003
 30
0.0
 40
0.2625
100
AcDbArc
 50
180.0
 51
270.0
  0
LINE
  5
D02
330
1A
100
AcDbEntity
  8
ZUWAKU
100
AcDbLine
 10
20.18360607739055
 20
10.57500000000003
 30
0.0
 11
21.05860607739055
 21
10.57500000000003
 31
0.0
  0
ARC
  5
D03
330
1A
100
AcDbEntity
  8
ZUWAKU
100
AcDbCircle
 10
17.47110607739057
 20
16.52500000000003
 30
0.0
 40
0.7
100
AcDbArc
 50
90.0
 51
180.0
  0
ARC
  5
D04
330
1A
100
AcDbEntity
  8
ZUWAKU
100
AcDbCircle
 10
17.47110607739057
 20
16.52500000000001
 30
0.0
 40
2.099999999999999
100
AcDbArc
 50
90.0
 51
180.0
  0
ARC
  5
D05
330
1A
100
AcDbEntity
  8
ZUWAKU
100
AcDbCircle
 10
13.79610607739056
 20
18.36250000000003
 30
0.0
 40
0.2625
100
AcDbArc
 50
0.0
 51
90.0
  0
ARC
  5
D06
330
1A
100
AcDbEntity
  8
ZUWAKU
100
AcDbCircle
 10
13.79610607739056
 20
17.48750000000003
 30
0.0
 40
0.2625
100
AcDbArc
 50
270.0
 51
0.0
  0
LINE
  5
D07
330
1A
100
AcDbEntity
  8
ZUWAKU
100
AcDbLine
 10
14.05860607739055
 20
18.36250000000003
 30
0.0
 11
14.05860607739055
 21
17.48750000000003
 31
0.0
  0
LINE
  5
D08
330
1A
100
AcDbEntity
  8
ZUWAKU
100
AcDbLine
 10
21.32110607739059
 20
15.56250000000003
 30
0.0
 11
21.32110607739059
 21
18.36250000000003
 31
0.0
  0
LINE
  5
D09
330
1A
100
AcDbEntity
  8
ZUWAKU
100
AcDbLine
 10
17.47110607739057
 20
18.62500000000001
 30
0.0
 11
18.43360607739055
 21
18.62500000000003
 31
0.0
  0
LINE
  5
D0A
330
1A
100
AcDbEntity
  8
ZUWAKU
100
AcDbLine
 10
18.43360607739055
 20
17.22500000000003
 30
0.0
 11
17.47110607739057
 21
17.22500000000003
 31
0.0
  0
ARC
  5
D0B
330
1A
100
AcDbEntity
  8
ZUWAKU
100
AcDbCircle
 10
18.43360607739055
 20
18.36250000000003
 30
0.0
 40
0.2625
100
AcDbArc
 50
0.0
 51
90.0
  0
ARC
  5
D0C
330
1A
100
AcDbEntity
  8
ZUWAKU
100
AcDbCircle
 10
20.18360607739055
 20
18.36250000000003
 30
0.0
 40
0.2625
100
AcDbArc
 50
90.0
 51
180.0
  0
ARC
  5
D0D
330
1A
100
AcDbEntity
  8
ZUWAKU
100
AcDbCircle
 10
18.43360607739055
 20
17.48750000000003
 30
0.0
 40
0.2625
100
AcDbArc
 50
270.0
 51
0.0
  0
LINE
  5
D0E
330
1A
100
AcDbEntity
  8
ZUWAKU
100
AcDbLine
 10
18.69610607739059
 20
18.36250000000003
 30
0.0
 11
18.69610607739059
 21
17.48750000000003
 31
0.0
  0
LINE
  5
D0F
330
1A
100
AcDbEntity
  8
ZUWAKU
100
AcDbLine
 10
21.05860607739055
 20
18.62500000000003
 30
0.0
 11
20.18360607739055
 21
18.62500000000003
 31
0.0
  0
ARC
  5
D10
330
1A
100
AcDbEntity
  8
ZUWAKU
100
AcDbCircle
 10
29.89610607739058
 20
16.31739898732238
 30
0.0
 40
2.099999999999999
100
AcDbArc
 50
180.0
 51
224.9999999999994
  0
LINE
  5
D11
330
1A
100
AcDbEntity
  8
ZUWAKU
100
AcDbLine
 10
23.65742931847956
 20
16.60252359678175
 30
0.0
 11
23.02505344581164
 21
14.60000000000004
 31
0.0
  0
LINE
  5
D12
330
1A
100
AcDbEntity
  8
ZUWAKU
100
AcDbLine
 10
25.34610607739057
 20
18.36250000000003
 30
0.0
 11
25.34610607739057
 21
10.83750000000003
 31
0.0
  0
LINE
  5
D13
330
1A
100
AcDbEntity
  8
ZUWAKU
100
AcDbLine
 10
26.74610607739055
 20
10.83750000000003
 30
0.0
 11
26.74610607739055
 21
18.36250000000003
 31
0.0
  0
ARC
  5
D14
330
1A
100
AcDbEntity
  8
ZUWAKU
100
AcDbCircle
 10
25.60860607739056
 20
10.83750000000003
 30
0.0
 40
0.2625
100
AcDbArc
 50
180.0
 51
270.0
  0
LINE
  5
D15
330
1A
100
AcDbEntity
  8
ZUWAKU
100
AcDbLine
 10
22.83817354604849
 20
10.75845301591654
 30
0.0
 11
21.9040386087326
 21
13.71654698408352
 31
0.0
  0
LINE
  5
D16
330
1A
100
AcDbEntity
  8
ZUWAKU
100
AcDbLine
 10
23.08848899564623
 20
10.57500000000003
 30
0.0
 11
23.93793368545073
 21
10.57500000000003
 31
0.0
  0
ARC
  5
D17
330
1A
100
AcDbEntity
  8
ZUWAKU
100
AcDbCircle
 10
23.93793368545073
 20
10.83750000000003
 30
0.0
 40
0.2625
100
AcDbArc
 50
270.0
 51
17.52556837372265
  0
ARC
  5
D18
330
1A
100
AcDbEntity
  8
ZUWAKU
100
AcDbCircle
 10
23.08848899564623
 20
10.83750000000003
 30
0.0
 40
0.2625
100
AcDbArc
 50
197.5255683737221
 51
270.0
  0
LINE
  5
D19
330
1A
100
AcDbEntity
  8
ZUWAKU
100
AcDbLine
 10
21.58360607739059
 20
13.90000000000003
 30
0.0
 11
21.65372315913493
 21
13.90000000000003
 31
0.0
  0
LINE
  5
D1A
330
1A
100
AcDbEntity
  8
ZUWAKU
100
AcDbLine
 10
24.18824913504847
 20
10.91654698408352
 30
0.0
 11
23.02505344581164
 21
14.60000000000004
 31
0.0
  0
ARC
  5
D1B
330
1A
100
AcDbEntity
  8
ZUWAKU
100
AcDbCircle
 10
21.65372315913493
 20
13.63750000000003
 30
0.0
 40
0.2625
100
AcDbArc
 50
17.52556837372265
 51
90.0
  0
LINE
  5
D1C
330
1A
100
AcDbEntity
  8
ZUWAKU
100
AcDbLine
 10
25.60860607739056
 20
10.57500000000003
 30
0.0
 11
26.48360607739056
 21
10.57500000000003
 31
0.0
  0
LINE
  5
D1D
330
1A
100
AcDbEntity
  8
ZUWAKU
100
AcDbLine
 10
28.05860607739055
 20
10.83750000000003
 30
0.0
 11
28.05860607739055
 21
11.71250000000003
 31
0.0
  0
ARC
  5
D1E
330
1A
100
AcDbEntity
  8
ZUWAKU
100
AcDbCircle
 10
28.3211060773906
 20
10.83750000000003
 30
0.0
 40
0.2625
100
AcDbArc
 50
180.0
 51
270.0
  0
ARC
  5
D1F
330
1A
100
AcDbEntity
  8
ZUWAKU
100
AcDbCircle
 10
26.48360607739056
 20
10.83750000000003
 30
0.0
 40
0.2625
100
AcDbArc
 50
270.0
 51
0.0
  0
ARC
  5
D20
330
1A
100
AcDbEntity
  8
ZUWAKU
100
AcDbCircle
 10
28.3211060773906
 20
11.71250000000003
 30
0.0
 40
0.2625
100
AcDbArc
 50
90.0
 51
180.0
  0
ARC
  5
D21
330
1A
100
AcDbEntity
  8
ZUWAKU
100
AcDbCircle
 10
25.60860607739056
 20
18.36250000000003
 30
0.0
 40
0.2625
100
AcDbArc
 50
90.0
 51
180.0
  0
LINE
  5
D22
330
1A
100
AcDbEntity
  8
ZUWAKU
100
AcDbLine
 10
22.83817354604849
 20
18.44154698408351
 30
0.0
 11
21.9040386087326
 21
15.48345301591655
 31
0.0
  0
ARC
  5
D23
330
1A
100
AcDbEntity
  8
ZUWAKU
100
AcDbCircle
 10
21.65372315913493
 20
15.56250000000003
 30
0.0
 40
0.2625
100
AcDbArc
 50
270.0
 51
342.4744316262774
  0
LINE
  5
D24
330
1A
100
AcDbEntity
  8
ZUWAKU
100
AcDbLine
 10
21.65372315913493
 20
15.30000000000003
 30
0.0
 11
21.58360607739059
 21
15.30000000000003
 31
0.0
  0
LINE
  5
D25
330
1A
100
AcDbEntity
  8
ZUWAKU
100
AcDbLine
 10
23.08848899564623
 20
18.62500000000003
 30
0.0
 11
23.93793368545073
 21
18.62500000000003
 31
0.0
  0
ARC
  5
D26
330
1A
100
AcDbEntity
  8
ZUWAKU
100
AcDbCircle
 10
23.93793368545073
 20
18.36250000000003
 30
0.0
 40
0.2625
100
AcDbArc
 50
342.4744316262774
 51
90.0
  0
LINE
  5
D27
330
1A
100
AcDbEntity
  8
ZUWAKU
100
AcDbLine
 10
24.18824913504847
 20
18.28345301591655
 30
0.0
 11
23.65742931847956
 21
16.60252359678175
 31
0.0
  0
ARC
  5
D28
330
1A
100
AcDbEntity
  8
ZUWAKU
100
AcDbCircle
 10
23.08848899564623
 20
18.36250000000003
 30
0.0
 40
0.2625
100
AcDbArc
 50
90.0
 51
162.4744316262773
  0
ARC
  5
D29
330
1A
100
AcDbEntity
  8
ZUWAKU
100
AcDbCircle
 10
29.45860607739059
 20
16.96250000000003
 30
0.0
 40
0.2625
100
AcDbArc
 50
90.0
 51
180.0
  0
LINE
  5
D2A
330
1A
100
AcDbEntity
  8
ZUWAKU
100
AcDbLine
 10
29.19610607739059
 20
16.96250000000003
 30
0.0
 11
29.19610607739059
 21
16.31739898732236
 31
0.0
  0
ARC
  5
D2B
330
1A
100
AcDbEntity
  8
ZUWAKU
100
AcDbCircle
 10
29.89610607739058
 20
16.31739898732238
 30
0.0
 40
0.7
100
AcDbArc
 50
180.0000000000016
 51
224.9999999999994
  0
LINE
  5
D2C
330
1A
100
AcDbEntity
  8
ZUWAKU
100
AcDbLine
 10
26.48360607739056
 20
18.62500000000003
 30
0.0
 11
25.60860607739056
 21
18.62500000000003
 31
0.0
  0
ARC
  5
D2D
330
1A
100
AcDbEntity
  8
ZUWAKU
100
AcDbCircle
 10
26.48360607739056
 20
18.36250000000003
 30
0.0
 40
0.2625
100
AcDbArc
 50
0.0
 51
90.0
  0
LINE
  5
D2E
330
1A
100
AcDbEntity
  8
ZUWAKU
100
AcDbLine
 10
27.79610607739056
 20
17.22500000000003
 30
0.0
 11
27.79610607739056
 21
16.31739898732236
 31
0.0
  0
ARC
  5
D2F
330
1A
100
AcDbEntity
  8
ZUWAKU
100
AcDbCircle
 10
29.19610607739059
 20
17.22500000000003
 30
0.0
 40
1.399999999999999
100
AcDbArc
 50
90.0
 51
180.0
  0
LINE
  5
D30
330
1A
100
AcDbEntity
  8
ZUWAKU
100
AcDbLine
 10
37.0711060773906
 20
11.97500000000004
 30
0.0
 11
37.0711060773906
 21
18.36250000000003
 31
0.0
  0
LINE
  5
D31
330
1A
100
AcDbEntity
  8
ZUWAKU
100
AcDbLine
 10
35.67110607739056
 20
18.36250000000003
 30
0.0
 11
35.67110607739056
 21
12.50000000000003
 31
0.0
  0
LINE
  5
D32
330
1A
100
AcDbEntity
  8
ZUWAKU
100
AcDbLine
 10
32.52110607739059
 20
18.36250000000003
 30
0.0
 11
32.52110607739059
 21
11.97500000000004
 31
0.0
  0
LINE
  5
D33
330
1A
100
AcDbEntity
  8
ZUWAKU
100
AcDbLine
 10
33.92110607739056
 20
12.50000000000003
 30
0.0
 11
33.92110607739056
 21
18.36250000000003
 31
0.0
  0
ARC
  5
D34
330
1A
100
AcDbEntity
  8
ZUWAKU
100
AcDbCircle
 10
33.92110607739056
 20
11.97500000000004
 30
0.0
 40
1.399999999999999
100
AcDbArc
 50
180.0
 51
270.0
  0
ARC
  5
D35
330
1A
100
AcDbEntity
  8
ZUWAKU
100
AcDbCircle
 10
29.37110607739055
 20
12.88260101267771
 30
0.0
 40
0.7
100
AcDbArc
 50
0.0
 51
44.99999999999942
  0
ARC
  5
D36
330
1A
100
AcDbEntity
  8
ZUWAKU
100
AcDbCircle
 10
30.0711060773906
 20
11.97500000000004
 30
0.0
 40
1.399999999999999
100
AcDbArc
 50
270.0
 51
0.0
  0
LINE
  5
D37
330
1A
100
AcDbEntity
  8
ZUWAKU
100
AcDbLine
 10
30.0711060773906
 20
12.23750000000004
 30
0.0
 11
30.0711060773906
 21
12.88260101267771
 31
0.0
  0
ARC
  5
D38
330
1A
100
AcDbEntity
  8
ZUWAKU
100
AcDbCircle
 10
29.80860607739055
 20
12.23750000000004
 30
0.0
 40
0.2625
100
AcDbArc
 50
270.0
 51
0.0
  0
LINE
  5
D39
330
1A
100
AcDbEntity
  8
ZUWAKU
100
AcDbLine
 10
31.47110607739057
 20
11.97500000000004
 30
0.0
 11
31.47110607739057
 21
12.88260101267771
 31
0.0
  0
ARC
  5
D3A
330
1A
100
AcDbEntity
  8
ZUWAKU
100
AcDbCircle
 10
29.37110607739055
 20
12.88260101267768
 30
0.0
 40
2.099999999999999
100
AcDbArc
 50
0.0
 51
44.99999999999942
  0
LINE
  5
D3B
330
1A
100
AcDbEntity
  8
ZUWAKU
100
AcDbLine
 10
35.14610607739058
 20
11.97500000000004
 30
0.0
 11
34.4461060773906
 21
11.97500000000004
 31
0.0
  0
LINE
  5
D3C
330
1A
100
AcDbEntity
  8
ZUWAKU
100
AcDbLine
 10
33.92110607739056
 20
10.57500000000003
 30
0.0
 11
35.67110607739056
 21
10.57500000000003
 31
0.0
  0
ARC
  5
D3D
330
1A
100
AcDbEntity
  8
ZUWAKU
100
AcDbCircle
 10
34.4461060773906
 20
12.50000000000003
 30
0.0
 40
0.525
100
AcDbArc
 50
180.0
 51
270.0
  0
ARC
  5
D3E
330
1A
100
AcDbEntity
  8
ZUWAKU
100
AcDbCircle
 10
35.14610607739058
 20
12.50000000000003
 30
0.0
 40
0.525
100
AcDbArc
 50
270.0
 51
0.0
  0
ARC
  5
D3F
330
1A
100
AcDbEntity
  8
ZUWAKU
100
AcDbCircle
 10
35.67110607739056
 20
11.97500000000004
 30
0.0
 40
1.399999999999999
100
AcDbArc
 50
270.0
 51
0.0
  0
LINE
  5
D40
330
1A
100
AcDbEntity
  8
ZUWAKU
100
AcDbLine
 10
33.65860607739057
 20
18.62500000000003
 30
0.0
 11
32.78360607739057
 21
18.62500000000003
 31
0.0
  0
ARC
  5
D41
330
1A
100
AcDbEntity
  8
ZUWAKU
100
AcDbCircle
 10
32.78360607739057
 20
18.36250000000003
 30
0.0
 40
0.2625
100
AcDbArc
 50
90.0
 51
180.0
  0
ARC
  5
D42
330
1A
100
AcDbEntity
  8
ZUWAKU
100
AcDbCircle
 10
30.9461060773906
 20
18.36250000000003
 30
0.0
 40
0.2625
100
AcDbArc
 50
0.0
 51
90.0
  0
ARC
  5
D43
330
1A
100
AcDbEntity
  8
ZUWAKU
100
AcDbCircle
 10
30.9461060773906
 20
17.48750000000003
 30
0.0
 40
0.2625
100
AcDbArc
 50
270.0
 51
0.0
  0
LINE
  5
D44
330
1A
100
AcDbEntity
  8
ZUWAKU
100
AcDbLine
 10
31.20860607739059
 20
18.36250000000003
 30
0.0
 11
31.20860607739059
 21
17.48750000000003
 31
0.0
  0
ARC
  5
D45
330
1A
100
AcDbEntity
  8
ZUWAKU
100
AcDbCircle
 10
33.65860607739057
 20
18.36250000000003
 30
0.0
 40
0.2625
100
AcDbArc
 50
0.0
 51
90.0
  0
LINE
  5
D46
330
1A
100
AcDbEntity
  8
ZUWAKU
100
AcDbLine
 10
36.80860607739055
 20
18.62500000000003
 30
0.0
 11
35.93360607739055
 21
18.62500000000003
 31
0.0
  0
ARC
  5
D47
330
1A
100
AcDbEntity
  8
ZUWAKU
100
AcDbCircle
 10
35.93360607739055
 20
18.36250000000003
 30
0.0
 40
0.2625
100
AcDbArc
 50
90.0
 51
180.0
  0
ARC
  5
D48
330
1A
100
AcDbEntity
  8
ZUWAKU
100
AcDbCircle
 10
36.80860607739055
 20
18.36250000000003
 30
0.0
 40
0.2625
100
AcDbArc
 50
0.0
 51
90.0
  0
LINE
  5
D49
330
1A
100
AcDbEntity
  8
ZUWAKU
100
AcDbLine
 10
39.52110607739058
 20
10.83750000000003
 30
0.0
 11
39.52110607739058
 21
18.36250000000003
 31
0.0
  0
LINE
  5
D4A
330
1A
100
AcDbEntity
  8
ZUWAKU
100
AcDbLine
 10
38.12110607739055
 20
18.36250000000003
 30
0.0
 11
38.12110607739055
 21
10.83750000000003
 31
0.0
  0
LINE
  5
D4B
330
1A
100
AcDbEntity
  8
ZUWAKU
100
AcDbLine
 10
38.3836060773906
 20
10.57500000000003
 30
0.0
 11
39.2586060773906
 21
10.57500000000003
 31
0.0
  0
ARC
  5
D4C
330
1A
100
AcDbEntity
  8
ZUWAKU
100
AcDbCircle
 10
38.3836060773906
 20
10.83750000000003
 30
0.0
 40
0.2625
100
AcDbArc
 50
180.0
 51
270.0
  0
ARC
  5
D4D
330
1A
100
AcDbEntity
  8
ZUWAKU
100
AcDbCircle
 10
39.2586060773906
 20
10.83750000000003
 30
0.0
 40
0.2625
100
AcDbArc
 50
270.0
 51
0.0
  0
LINE
  5
D4E
330
1A
100
AcDbEntity
  8
ZUWAKU
100
AcDbLine
 10
39.2586060773906
 20
18.62500000000003
 30
0.0
 11
38.3836060773906
 21
18.62500000000003
 31
0.0
  0
ARC
  5
D4F
330
1A
100
AcDbEntity
  8
ZUWAKU
100
AcDbCircle
 10
38.3836060773906
 20
18.36250000000003
 30
0.0
 40
0.2625
100
AcDbArc
 50
90.0
 51
180.0
  0
ARC
  5
D50
330
1A
100
AcDbEntity
  8
ZUWAKU
100
AcDbCircle
 10
39.2586060773906
 20
18.36250000000003
 30
0.0
 40
0.2625
100
AcDbArc
 50
0.0
 51
90.0
  0
TEXT
  5
D51
330
1A
100
AcDbEntity
  8
moji
100
AcDbText
 10
47.66029627350929
 20
12.86023780678749
 30
0.0
 40
2.799999999999999
  1
大型　たてとい
 41
0.9
  7
ｽﾀｲﾙ1
100
AcDbText
  0
TEXT
  5
D52
330
1A
100
AcDbEntity
  8
moji
100
AcDbText
 10
124.6898867783893
 20
8.879787054177199
 30
0.0
 40
2.799999999999999
  1
ＤＶＩＮ１５０－１００
 41
0.9
  7
ｽﾀｲﾙ1
100
AcDbText
  0
TEXT
  5
D53
330
1A
100
AcDbEntity
  8
moji
100
AcDbText
 10
124.5172868455377
 20
16.1659852625113
 30
0.0
 40
2.799999999999999
  1
インクリーザー
 41
0.9
  7
ｽﾀｲﾙ1
100
AcDbText
  0
LINE
  5
D54
330
1A
100
AcDbEntity
  8
ZUWAKU
100
AcDbLine
 10
109.1233006450338
 20
22.00000000000003
 30
0.0
 11
109.1233006450338
 21
7.400000000000062
 31
0.0
  0
LINE
  5
D55
330
1A
100
AcDbEntity
  8
ZUWAKU
100
AcDbLine
 10
109.3233006450339
 20
22.00000000000003
 30
0.0
 11
109.3233006450339
 21
7.400000000000062
 31
0.0
  0
LINE
  5
D56
330
1A
100
AcDbEntity
  8
ZUWAKU
100
AcDbLine
 10
109.2233006450337
 20
22.00000000000003
 30
0.0
 11
109.223300645034
 21
7.400000000000062
 31
0.0
  0
TEXT
  5
D57
330
1A
100
AcDbEntity
  8
ZUWAKU
100
AcDbText
 10
109.8620231561388
 20
11.82767826919284
 30
0.0
 40
2.0
  1
サイズ
 41
0.9
  7
ｽﾀｲﾙ1
100
AcDbText
  0
TEXT
  5
D58
330
1A
100
AcDbEntity
  8
ZUWAKU
100
AcDbText
 10
109.8620231561385
 20
19.02767826919282
 30
0.0
 40
2.0
  1
品名
 41
0.9
  7
ｽﾀｲﾙ1
100
AcDbText
  0
LINE
  5
D65
330
1A
100
AcDbEntity
  8
ZUWAKU
100
AcDbLine
 10
329.408601255102
 20
14.60000000000005
 30
0.0
 11
353.6245052742706
 21
14.60000000000005
 31
0.0
  0
LINE
  5
D66
330
1A
100
AcDbEntity
  8
ZUWAKU
100
AcDbLine
 10
329.4086012551022
 20
14.70000000000004
 30
0.0
 11
353.6245052742706
 21
14.70000000000004
 31
0.0
  0
LINE
  5
D67
330
1A
100
AcDbEntity
  8
ZUWAKU
100
AcDbLine
 10
329.408601255102
 20
14.80000000000005
 30
0.0
 11
353.6245052742706
 21
14.80000000000005
 31
0.0
  0
TEXT
  5
D68
330
1A
100
AcDbEntity
  8
ZUWAKU
100
AcDbText
 10
334.1019688436511
 20
16.00246052870372
 30
0.0
 40
2.799999999999999
  1
　　．　　．　　
 41
0.9
  7
ｽﾀｲﾙ1
100
AcDbText
  0
TEXT
  5
D69
330
1A
100
AcDbEntity
  8
moji
100
AcDbText
 10
269.0204539861563
 20
8.602460528703744
 30
0.0
 40
2.799999999999999
  1
１/１
 41
0.9
  7
ｽﾀｲﾙ1
100
AcDbText
  0
LINE
  5
D6A
330
1A
100
AcDbEntity
  8
ZUWAKU
100
AcDbLine
 10
257.5995897490705
 20
14.60000000000005
 30
0.0
 11
281.2634778830561
 21
14.60000000000005
 31
0.0
  0
LINE
  5
D6B
330
1A
100
AcDbEntity
  8
ZUWAKU
100
AcDbLine
 10
257.5995897490705
 20
14.70000000000004
 30
0.0
 11
281.2634778830561
 21
14.70000000000004
 31
0.0
  0
LINE
  5
D6C
330
1A
100
AcDbEntity
  8
ZUWAKU
100
AcDbLine
 10
257.5995897490705
 20
14.80000000000005
 30
0.0
 11
281.2634778830561
 21
14.80000000000005
 31
0.0
  0
LINE
  5
D6D
330
1A
100
AcDbEntity
  8
ZUWAKU
100
AcDbLine
 10
228.8121819854955
 20
22.00000000000003
 30
0.0
 11
228.8121819854957
 21
7.400000000000062
 31
0.0
  0
LINE
  5
D6E
330
1A
100
AcDbEntity
  8
ZUWAKU
100
AcDbLine
 10
228.9121819854956
 20
22.00000000000003
 30
0.0
 11
228.9121819854956
 21
7.400000000000062
 31
0.0
  0
LINE
  5
D6F
330
1A
100
AcDbEntity
  8
ZUWAKU
100
AcDbLine
 10
228.7121819854956
 20
22.00000000000003
 30
0.0
 11
228.7121819854956
 21
7.400000000000062
 31
0.0
  0
LINE
  5
D70
330
1A
100
AcDbEntity
  8
ZUWAKU
100
AcDbLine
 10
257.4995897490703
 20
22.00000000000003
 30
0.0
 11
257.4995897490705
 21
7.400000000000062
 31
0.0
  0
LINE
  5
D71
330
1A
100
AcDbEntity
  8
ZUWAKU
100
AcDbLine
 10
257.5995897490705
 20
22.00000000000003
 30
0.0
 11
257.5995897490705
 21
7.400000000000062
 31
0.0
  0
LINE
  5
D72
330
1A
100
AcDbEntity
  8
ZUWAKU
100
AcDbLine
 10
257.3995897490704
 20
22.00000000000003
 30
0.0
 11
257.3995897490704
 21
7.400000000000062
 31
0.0
  0
TEXT
  5
D74
330
1A
100
AcDbEntity
  8
ZUWAKU
100
AcDbText
 10
229.6509044966003
 20
19.02767826919282
 30
0.0
 40
2.0
  1
品番
 41
0.9
  7
ｽﾀｲﾙ1
100
AcDbText
  0
TEXT
  5
D75
330
1A
100
AcDbEntity
  8
ZUWAKU
100
AcDbText
 10
258.3383122601754
 20
11.82767826919284
 30
0.0
 40
2.0
  1
縮尺
 41
0.9
  7
ｽﾀｲﾙ1
100
AcDbText
  0
TEXT
  5
D76
330
1A
100
AcDbEntity
  8
ZUWAKU
100
AcDbText
 10
258.3383122601751
 20
19.02767826919282
 30
0.0
 40
2.0
  1
用紙
 41
0.9
  7
ｽﾀｲﾙ1
100
AcDbText
  0
TEXT
  5
D77
330
1A
100
AcDbEntity
  8
moji
100
AcDbText
 10
269.0204539861563
 20
16.00246052870372
 30
0.0
 40
2.799999999999999
  1
Ａ３
 41
0.9
  7
ｽﾀｲﾙ1
100
AcDbText
  0
LINE
  5
D78
330
1A
100
AcDbEntity
  8
ZUWAKU
100
AcDbLine
 10
281.363477883056
 20
22.00000000000003
 30
0.0
 11
281.3634778830563
 21
7.400000000000062
 31
0.0
  0
LINE
  5
D79
330
1A
100
AcDbEntity
  8
ZUWAKU
100
AcDbLine
 10
281.2634778830561
 20
22.00000000000003
 30
0.0
 11
281.2634778830561
 21
7.400000000000062
 31
0.0
  0
LINE
  5
D7A
330
1A
100
AcDbEntity
  8
ZUWAKU
100
AcDbLine
 10
329.3086012551021
 20
22.00000000000003
 30
0.0
 11
329.3086012551023
 21
7.400000000000062
 31
0.0
  0
LINE
  5
D7B
330
1A
100
AcDbEntity
  8
ZUWAKU
100
AcDbLine
 10
329.4086012551022
 20
22.00000000000003
 30
0.0
 11
329.4086012551022
 21
7.400000000000062
 31
0.0
  0
LINE
  5
D7C
330
1A
100
AcDbEntity
  8
ZUWAKU
100
AcDbLine
 10
329.2086012551022
 20
22.00000000000003
 30
0.0
 11
329.2086012551022
 21
7.400000000000062
 31
0.0
  0
LINE
  5
D7D
330
1A
100
AcDbEntity
  8
ZUWAKU
100
AcDbLine
 10
281.4634778830562
 20
22.00000000000003
 30
0.0
 11
281.4634778830562
 21
7.400000000000062
 31
0.0
  0
TEXT
  5
D7E
330
1A
100
AcDbEntity
  8
ZUWAKU
100
AcDbText
 10
330.1473237662069
 20
19.02767826919282
 30
0.0
 40
2.0
  1
DATE
 41
0.9
  7
ｽﾀｲﾙ1
100
AcDbText
  0
LINE
  5
D87
330
1A
100
AcDbEntity
  8
ZUWAKU
100
AcDbLine
 10
353.6245052742706
 20
22.00000000000003
 30
0.0
 11
353.6245052742706
 21
7.400000000000062
 31
0.0
  0
LINE
  5
D88
330
1A
100
AcDbEntity
  8
ZUWAKU
100
AcDbLine
 10
353.7245052742705
 20
22.00000000000003
 30
0.0
 11
353.7245052742705
 21
7.400000000000062
 31
0.0
  0
LINE
  5
D89
330
1A
100
AcDbEntity
  8
ZUWAKU
100
AcDbLine
 10
353.8245052742705
 20
22.00000000000003
 30
0.0
 11
353.8245052742707
 21
7.400000000000062
 31
0.0
  0
LINE
  5
D8A
330
1A
100
AcDbEntity
  8
ZUWAKU
100
AcDbLine
 10
353.9245052742706
 20
22.00000000000003
 30
0.0
 11
353.9245052742706
 21
7.400000000000062
 31
0.0
  0
TEXT
  5
D8B
330
1A
100
AcDbEntity
  8
ZUWAKU
100
AcDbText
 10
359.2640420961218
 20
13.17691966784343
 30
0.0
 40
3.0
  1
積水化学工業株式会社
 41
0.9
  7
ｽﾀｲﾙ1
100
AcDbText
  0
INSERT
  5
1042
330
1A
100
AcDbEntity
  8
ZUWAKU
100
AcDbBlockReference
  2
A$C00BA3E29
 10
494.8786626631953
 20
-48.66323367915375
 30
0.0
  0
INSERT
  5
1043
330
1A
100
AcDbEntity
  8
ZUWAKU
100
AcDbBlockReference
  2
A$C36686642
 10
882.6000000000002
 20
-33.07193830756862
 30
0.0
 41
0.5
 42
0.5
 43
0.5
  0
TEXT
  5
1044
330
1A
100
AcDbEntity
  8
修正履歴
 62
   253
100
AcDbText
 10
560.1233006450345
 20
-44.0719383075686
 30
0.0
 40
5.5
  1
大型 たてとい　インクリーザー　ＤＶＩＮ１５０－１００
  7
ｽﾀｲﾙ1
100
AcDbText
  0
TEXT
  5
1049
330
1A
100
AcDbEntity
  8
修正履歴
 62
     6
100
AcDbText
 10
507.9000000000005
 20
-57.65178005684159
 30
0.0
 40
6.5
  1
2023.11.20
  7
ｽﾀｲﾙ1
100
AcDbText
  0
TEXT
  5
104A
330
1A
100
AcDbEntity
  8
修正履歴
 62
     6
100
AcDbText
 10
560.1233006450345
 20
-56.03201743293216
 30
0.0
 40
5.5
  1
色品番追記 ： ホワイト （ ＤＩＮ1Ｆ２Ｗ）　、シルバー（ＪＤＩＮ１Ｆ２）、クリーム（ＣＤＩＮ１Ｆ２）を追加
  7
ｽﾀｲﾙ1
100
AcDbText
  0
LINE
  5
104C
330
1A
100
AcDbEntity
  8
ZUWAKU
100
AcDbLine
 10
759.8634778830565
 20
22.00000000000009
 30
0.0
 11
759.8634778830565
 21
7.400000000000126
 31
0.0
  0
LINE
  5
104D
330
1A
100
AcDbEntity
  8
ZUWAKU
100
AcDbLine
 10
759.6634778830564
 20
22.00000000000009
 30
0.0
 11
759.6634778830564
 21
7.400000000000126
 31
0.0
  0
LINE
  5
104E
330
1A
100
AcDbEntity
  8
ZUWAKU
100
AcDbLine
 10
759.7634778830563
 20
22.00000000000009
 30
0.0
 11
759.7634778830565
 21
7.400000000000126
 31
0.0
  0
TEXT
  5
104F
330
1A
100
AcDbEntity
  8
moji
100
AcDbText
 10
747.4204539861566
 20
16.00246052870378
 30
0.0
 40
2.799999999999999
  1
Ａ３
 41
0.9
  7
ｽﾀｲﾙ1
100
AcDbText
  0
TEXT
  5
1050
330
1A
100
AcDbEntity
  8
ZUWAKU
100
AcDbText
 10
736.7383122601754
 20
19.02767826919288
 30
0.0
 40
2.0
  1
用紙
 41
0.9
  7
ｽﾀｲﾙ1
100
AcDbText
  0
TEXT
  5
1051
330
1A
100
AcDbEntity
  8
ZUWAKU
100
AcDbText
 10
736.7383122601757
 20
11.82767826919291
 30
0.0
 40
2.0
  1
縮尺
 41
0.9
  7
ｽﾀｲﾙ1
100
AcDbText
  0
TEXT
  5
1052
330
1A
100
AcDbEntity
  8
ZUWAKU
100
AcDbText
 10
708.0509044966007
 20
19.02767826919288
 30
0.0
 40
2.0
  1
品番
 41
0.9
  7
ｽﾀｲﾙ1
100
AcDbText
  0
LINE
  5
1053
330
1A
100
AcDbEntity
  8
ZUWAKU
100
AcDbLine
 10
735.7995897490707
 20
22.00000000000009
 30
0.0
 11
735.7995897490707
 21
7.400000000000126
 31
0.0
  0
LINE
  5
1054
330
1A
100
AcDbEntity
  8
ZUWAKU
100
AcDbLine
 10
735.9995897490708
 20
22.00000000000009
 30
0.0
 11
735.9995897490708
 21
7.400000000000126
 31
0.0
  0
LINE
  5
1055
330
1A
100
AcDbEntity
  8
ZUWAKU
100
AcDbLine
 10
735.8995897490706
 20
22.00000000000009
 30
0.0
 11
735.8995897490708
 21
7.400000000000126
 31
0.0
  0
LINE
  5
1056
330
1A
100
AcDbEntity
  8
ZUWAKU
100
AcDbLine
 10
707.1121819854958
 20
22.00000000000009
 30
0.0
 11
707.1121819854958
 21
7.400000000000126
 31
0.0
  0
LINE
  5
1057
330
1A
100
AcDbEntity
  8
ZUWAKU
100
AcDbLine
 10
707.3121819854959
 20
22.00000000000009
 30
0.0
 11
707.3121819854959
 21
7.400000000000126
 31
0.0
  0
LINE
  5
1058
330
1A
100
AcDbEntity
  8
ZUWAKU
100
AcDbLine
 10
707.2121819854958
 20
22.00000000000009
 30
0.0
 11
707.212181985496
 21
7.400000000000126
 31
0.0
  0
LINE
  5
1059
330
1A
100
AcDbEntity
  8
ZUWAKU
100
AcDbLine
 10
735.9995897490708
 20
14.80000000000012
 30
0.0
 11
759.6634778830564
 21
14.80000000000012
 31
0.0
  0
LINE
  5
105A
330
1A
100
AcDbEntity
  8
ZUWAKU
100
AcDbLine
 10
735.9995897490708
 20
14.70000000000011
 30
0.0
 11
759.6634778830564
 21
14.70000000000011
 31
0.0
  0
LINE
  5
105B
330
1A
100
AcDbEntity
  8
ZUWAKU
100
AcDbLine
 10
735.9995897490708
 20
14.60000000000011
 30
0.0
 11
759.6634778830564
 21
14.60000000000011
 31
0.0
  0
TEXT
  5
105C
330
1A
100
AcDbEntity
  8
moji
100
AcDbText
 10
747.4204539861566
 20
8.602460528703808
 30
0.0
 40
2.799999999999999
  1
１/１
 41
0.9
  7
ｽﾀｲﾙ1
100
AcDbText
  0
TEXT
  5
105D
330
1A
100
AcDbEntity
  8
ZUWAKU
100
AcDbText
 10
588.2620231561388
 20
19.02767826919288
 30
0.0
 40
2.0
  1
品名
 41
0.9
  7
ｽﾀｲﾙ1
100
AcDbText
  0
TEXT
  5
105E
330
1A
100
AcDbEntity
  8
ZUWAKU
100
AcDbText
 10
588.262023156139
 20
11.82767826919291
 30
0.0
 40
2.0
  1
サイズ
 41
0.9
  7
ｽﾀｲﾙ1
100
AcDbText
  0
LINE
  5
105F
330
1A
100
AcDbEntity
  8
ZUWAKU
100
AcDbLine
 10
587.623300645034
 20
22.00000000000009
 30
0.0
 11
587.6233006450343
 21
7.400000000000126
 31
0.0
  0
LINE
  5
1060
330
1A
100
AcDbEntity
  8
ZUWAKU
100
AcDbLine
 10
587.7233006450341
 20
22.00000000000009
 30
0.0
 11
587.7233006450341
 21
7.400000000000126
 31
0.0
  0
LINE
  5
1061
330
1A
100
AcDbEntity
  8
ZUWAKU
100
AcDbLine
 10
587.5233006450342
 20
22.00000000000009
 30
0.0
 11
587.5233006450342
 21
7.400000000000126
 31
0.0
  0
TEXT
  5
1062
330
1A
100
AcDbEntity
  8
moji
100
AcDbText
 10
602.917286845538
 20
16.16598526251136
 30
0.0
 40
2.799999999999999
  1
インクリーザー
 41
0.9
  7
ｽﾀｲﾙ1
100
AcDbText
  0
TEXT
  5
1063
330
1A
100
AcDbEntity
  8
moji
100
AcDbText
 10
603.0898867783896
 20
8.879787054177263
 30
0.0
 40
2.799999999999999
  1
ＤＶＩＮ１５０－１００
 41
0.9
  7
ｽﾀｲﾙ1
100
AcDbText
  0
TEXT
  5
1064
330
1A
100
AcDbEntity
  8
moji
100
AcDbText
 10
526.0602962735096
 20
12.86023780678756
 30
0.0
 40
2.799999999999999
  1
大型　たてとい
 41
0.9
  7
ｽﾀｲﾙ1
100
AcDbText
  0
ARC
  5
1065
330
1A
100
AcDbEntity
  8
ZUWAKU
100
AcDbCircle
 10
517.6586060773908
 20
18.3625000000001
 30
0.0
 40
0.2625
100
AcDbArc
 50
0.0
 51
90.0
  0
ARC
  5
1066
330
1A
100
AcDbEntity
  8
ZUWAKU
100
AcDbCircle
 10
516.7836060773908
 20
18.3625000000001
 30
0.0
 40
0.2625
100
AcDbArc
 50
90.0
 51
180.0
  0
LINE
  5
1067
330
1A
100
AcDbEntity
  8
ZUWAKU
100
AcDbLine
 10
517.6586060773908
 20
18.6250000000001
 30
0.0
 11
516.7836060773908
 21
18.6250000000001
 31
0.0
  0
ARC
  5
1068
330
1A
100
AcDbEntity
  8
ZUWAKU
100
AcDbCircle
 10
517.6586060773908
 20
10.83750000000009
 30
0.0
 40
0.2625
100
AcDbArc
 50
270.0
 51
0.0
  0
ARC
  5
1069
330
1A
100
AcDbEntity
  8
ZUWAKU
100
AcDbCircle
 10
516.7836060773908
 20
10.83750000000009
 30
0.0
 40
0.2625
100
AcDbArc
 50
180.0
 51
270.0
  0
LINE
  5
106A
330
1A
100
AcDbEntity
  8
ZUWAKU
100
AcDbLine
 10
516.7836060773908
 20
10.57500000000009
 30
0.0
 11
517.6586060773908
 21
10.57500000000009
 31
0.0
  0
LINE
  5
106B
330
1A
100
AcDbEntity
  8
ZUWAKU
100
AcDbLine
 10
516.5211060773908
 20
18.3625000000001
 30
0.0
 11
516.5211060773908
 21
10.83750000000009
 31
0.0
  0
LINE
  5
106C
330
1A
100
AcDbEntity
  8
ZUWAKU
100
AcDbLine
 10
517.9211060773909
 20
10.83750000000009
 30
0.0
 11
517.9211060773909
 21
18.3625000000001
 31
0.0
  0
ARC
  5
106D
330
1A
100
AcDbEntity
  8
ZUWAKU
100
AcDbCircle
 10
515.2086060773909
 20
18.3625000000001
 30
0.0
 40
0.2625
100
AcDbArc
 50
0.0
 51
90.0
  0
ARC
  5
106E
330
1A
100
AcDbEntity
  8
ZUWAKU
100
AcDbCircle
 10
514.3336060773909
 20
18.3625000000001
 30
0.0
 40
0.2625
100
AcDbArc
 50
90.0
 51
180.0
  0
LINE
  5
106F
330
1A
100
AcDbEntity
  8
ZUWAKU
100
AcDbLine
 10
515.2086060773909
 20
18.6250000000001
 30
0.0
 11
514.3336060773909
 21
18.6250000000001
 31
0.0
  0
ARC
  5
1070
330
1A
100
AcDbEntity
  8
ZUWAKU
100
AcDbCircle
 10
512.0586060773908
 20
18.3625000000001
 30
0.0
 40
0.2625
100
AcDbArc
 50
0.0
 51
90.0
  0
LINE
  5
1071
330
1A
100
AcDbEntity
  8
ZUWAKU
100
AcDbLine
 10
509.6086060773909
 20
18.3625000000001
 30
0.0
 11
509.6086060773909
 21
17.4875000000001
 31
0.0
  0
ARC
  5
1072
330
1A
100
AcDbEntity
  8
ZUWAKU
100
AcDbCircle
 10
509.3461060773909
 20
17.4875000000001
 30
0.0
 40
0.2625
100
AcDbArc
 50
270.0
 51
0.0
  0
ARC
  5
1073
330
1A
100
AcDbEntity
  8
ZUWAKU
100
AcDbCircle
 10
509.3461060773909
 20
18.3625000000001
 30
0.0
 40
0.2625
100
AcDbArc
 50
0.0
 51
90.0
  0
ARC
  5
1074
330
1A
100
AcDbEntity
  8
ZUWAKU
100
AcDbCircle
 10
511.1836060773908
 20
18.3625000000001
 30
0.0
 40
0.2625
100
AcDbArc
 50
90.0
 51
180.0
  0
LINE
  5
1075
330
1A
100
AcDbEntity
  8
ZUWAKU
100
AcDbLine
 10
512.0586060773908
 20
18.6250000000001
 30
0.0
 11
511.1836060773908
 21
18.6250000000001
 31
0.0
  0
ARC
  5
1076
330
1A
100
AcDbEntity
  8
ZUWAKU
100
AcDbCircle
 10
514.0711060773908
 20
11.9750000000001
 30
0.0
 40
1.399999999999999
100
AcDbArc
 50
270.0
 51
0.0
  0
ARC
  5
1077
330
1A
100
AcDbEntity
  8
ZUWAKU
100
AcDbCircle
 10
513.5461060773909
 20
12.50000000000009
 30
0.0
 40
0.525
100
AcDbArc
 50
270.0
 51
0.0
  0
ARC
  5
1078
330
1A
100
AcDbEntity
  8
ZUWAKU
100
AcDbCircle
 10
512.8461060773909
 20
12.50000000000009
 30
0.0
 40
0.525
100
AcDbArc
 50
180.0
 51
270.0
  0
LINE
  5
1079
330
1A
100
AcDbEntity
  8
ZUWAKU
100
AcDbLine
 10
512.3211060773908
 20
10.57500000000009
 30
0.0
 11
514.0711060773908
 21
10.57500000000009
 31
0.0
  0
LINE
  5
107A
330
1A
100
AcDbEntity
  8
ZUWAKU
100
AcDbLine
 10
513.5461060773909
 20
11.9750000000001
 30
0.0
 11
512.8461060773909
 21
11.9750000000001
 31
0.0
  0
ARC
  5
107B
330
1A
100
AcDbEntity
  8
ZUWAKU
100
AcDbCircle
 10
507.7711060773908
 20
12.88260101267775
 30
0.0
 40
2.099999999999999
100
AcDbArc
 50
0.0
 51
44.99999999999942
  0
LINE
  5
107C
330
1A
100
AcDbEntity
  8
ZUWAKU
100
AcDbLine
 10
509.8711060773909
 20
11.9750000000001
 30
0.0
 11
509.8711060773909
 21
12.88260101267777
 31
0.0
  0
ARC
  5
107D
330
1A
100
AcDbEntity
  8
ZUWAKU
100
AcDbCircle
 10
508.2086060773908
 20
12.2375000000001
 30
0.0
 40
0.2625
100
AcDbArc
 50
270.0
 51
0.0
  0
LINE
  5
107E
330
1A
100
AcDbEntity
  8
ZUWAKU
100
AcDbLine
 10
508.4711060773908
 20
12.2375000000001
 30
0.0
 11
508.4711060773908
 21
12.88260101267777
 31
0.0
  0
ARC
  5
107F
330
1A
100
AcDbEntity
  8
ZUWAKU
100
AcDbCircle
 10
508.4711060773908
 20
11.9750000000001
 30
0.0
 40
1.399999999999999
100
AcDbArc
 50
270.0
 51
0.0
  0
ARC
  5
1080
330
1A
100
AcDbEntity
  8
ZUWAKU
100
AcDbCircle
 10
507.7711060773908
 20
12.88260101267777
 30
0.0
 40
0.7
100
AcDbArc
 50
0.0
 51
44.99999999999942
  0
ARC
  5
1081
330
1A
100
AcDbEntity
  8
ZUWAKU
100
AcDbCircle
 10
512.3211060773908
 20
11.9750000000001
 30
0.0
 40
1.399999999999999
100
AcDbArc
 50
180.0
 51
270.0
  0
LINE
  5
1082
330
1A
100
AcDbEntity
  8
ZUWAKU
100
AcDbLine
 10
512.3211060773908
 20
12.50000000000009
 30
0.0
 11
512.3211060773908
 21
18.3625000000001
 31
0.0
  0
LINE
  5
1083
330
1A
100
AcDbEntity
  8
ZUWAKU
100
AcDbLine
 10
510.9211060773908
 20
18.3625000000001
 30
0.0
 11
510.9211060773908
 21
11.9750000000001
 31
0.0
  0
LINE
  5
1084
330
1A
100
AcDbEntity
  8
ZUWAKU
100
AcDbLine
 10
514.0711060773908
 20
18.3625000000001
 30
0.0
 11
514.0711060773908
 21
12.50000000000009
 31
0.0
  0
LINE
  5
1085
330
1A
100
AcDbEntity
  8
ZUWAKU
100
AcDbLine
 10
515.4711060773909
 20
11.9750000000001
 30
0.0
 11
515.4711060773909
 21
18.3625000000001
 31
0.0
  0
ARC
  5
1086
330
1A
100
AcDbEntity
  8
ZUWAKU
100
AcDbCircle
 10
507.5961060773908
 20
17.2250000000001
 30
0.0
 40
1.399999999999999
100
AcDbArc
 50
90.0
 51
180.0
  0
LINE
  5
1087
330
1A
100
AcDbEntity
  8
ZUWAKU
100
AcDbLine
 10
506.1961060773908
 20
17.2250000000001
 30
0.0
 11
506.1961060773908
 21
16.31739898732243
 31
0.0
  0
ARC
  5
1088
330
1A
100
AcDbEntity
  8
ZUWAKU
100
AcDbCircle
 10
504.8836060773909
 20
18.3625000000001
 30
0.0
 40
0.2625
100
AcDbArc
 50
0.0
 51
90.0
  0
LINE
  5
1089
330
1A
100
AcDbEntity
  8
ZUWAKU
100
AcDbLine
 10
504.8836060773909
 20
18.6250000000001
 30
0.0
 11
504.0086060773909
 21
18.6250000000001
 31
0.0
  0
ARC
  5
108A
330
1A
100
AcDbEntity
  8
ZUWAKU
100
AcDbCircle
 10
508.2961060773909
 20
16.31739898732245
 30
0.0
 40
0.7
100
AcDbArc
 50
180.0000000000016
 51
224.9999999999994
  0
LINE
  5
108B
330
1A
100
AcDbEntity
  8
ZUWAKU
100
AcDbLine
 10
507.5961060773908
 20
16.96250000000009
 30
0.0
 11
507.5961060773908
 21
16.31739898732243
 31
0.0
  0
ARC
  5
108C
330
1A
100
AcDbEntity
  8
ZUWAKU
100
AcDbCircle
 10
507.8586060773909
 20
16.96250000000009
 30
0.0
 40
0.2625
100
AcDbArc
 50
90.0
 51
180.0
  0
ARC
  5
108D
330
1A
100
AcDbEntity
  8
ZUWAKU
100
AcDbCircle
 10
501.4884889956465
 20
18.3625000000001
 30
0.0
 40
0.2625
100
AcDbArc
 50
90.0
 51
162.4744316262773
  0
LINE
  5
108E
330
1A
100
AcDbEntity
  8
ZUWAKU
100
AcDbLine
 10
502.5882491350487
 20
18.28345301591661
 30
0.0
 11
502.0574293184798
 21
16.60252359678181
 31
0.0
  0
ARC
  5
108F
330
1A
100
AcDbEntity
  8
ZUWAKU
100
AcDbCircle
 10
502.337933685451
 20
18.3625000000001
 30
0.0
 40
0.2625
100
AcDbArc
 50
342.4744316262774
 51
90.0
  0
LINE
  5
1090
330
1A
100
AcDbEntity
  8
ZUWAKU
100
AcDbLine
 10
501.4884889956465
 20
18.6250000000001
 30
0.0
 11
502.337933685451
 21
18.6250000000001
 31
0.0
  0
LINE
  5
1091
330
1A
100
AcDbEntity
  8
ZUWAKU
100
AcDbLine
 10
500.0537231591352
 20
15.3000000000001
 30
0.0
 11
499.9836060773908
 21
15.3000000000001
 31
0.0
  0
ARC
  5
1092
330
1A
100
AcDbEntity
  8
ZUWAKU
100
AcDbCircle
 10
500.0537231591352
 20
15.5625000000001
 30
0.0
 40
0.2625
100
AcDbArc
 50
270.0
 51
342.4744316262774
  0
LINE
  5
1093
330
1A
100
AcDbEntity
  8
ZUWAKU
100
AcDbLine
 10
501.2381735460488
 20
18.44154698408358
 30
0.0
 11
500.3040386087329
 21
15.48345301591661
 31
0.0
  0
ARC
  5
1094
330
1A
100
AcDbEntity
  8
ZUWAKU
100
AcDbCircle
 10
504.0086060773909
 20
18.3625000000001
 30
0.0
 40
0.2625
100
AcDbArc
 50
90.0
 51
180.0
  0
ARC
  5
1095
330
1A
100
AcDbEntity
  8
ZUWAKU
100
AcDbCircle
 10
506.7211060773908
 20
11.7125000000001
 30
0.0
 40
0.2625
100
AcDbArc
 50
90.0
 51
180.0
  0
ARC
  5
1096
330
1A
100
AcDbEntity
  8
ZUWAKU
100
AcDbCircle
 10
504.8836060773909
 20
10.83750000000009
 30
0.0
 40
0.2625
100
AcDbArc
 50
270.0
 51
0.0
  0
ARC
  5
1097
330
1A
100
AcDbEntity
  8
ZUWAKU
100
AcDbCircle
 10
506.7211060773908
 20
10.83750000000009
 30
0.0
 40
0.2625
100
AcDbArc
 50
180.0
 51
270.0
  0
LINE
  5
1098
330
1A
100
AcDbEntity
  8
ZUWAKU
100
AcDbLine
 10
506.4586060773908
 20
10.83750000000009
 30
0.0
 11
506.4586060773908
 21
11.7125000000001
 31
0.0
  0
LINE
  5
1099
330
1A
100
AcDbEntity
  8
ZUWAKU
100
AcDbLine
 10
504.0086060773909
 20
10.57500000000009
 30
0.0
 11
504.8836060773909
 21
10.57500000000009
 31
0.0
  0
ARC
  5
109A
330
1A
100
AcDbEntity
  8
ZUWAKU
100
AcDbCircle
 10
500.0537231591352
 20
13.63750000000009
 30
0.0
 40
0.2625
100
AcDbArc
 50
17.52556837372265
 51
90.0
  0
LINE
  5
109B
330
1A
100
AcDbEntity
  8
ZUWAKU
100
AcDbLine
 10
502.5882491350487
 20
10.91654698408359
 30
0.0
 11
501.425053445812
 21
14.60000000000011
 31
0.0
  0
LINE
  5
109C
330
1A
100
AcDbEntity
  8
ZUWAKU
100
AcDbLine
 10
499.9836060773908
 20
13.9000000000001
 30
0.0
 11
500.0537231591352
 21
13.9000000000001
 31
0.0
  0
ARC
  5
109D
330
1A
100
AcDbEntity
  8
ZUWAKU
100
AcDbCircle
 10
501.4884889956465
 20
10.83750000000009
 30
0.0
 40
0.2625
100
AcDbArc
 50
197.5255683737221
 51
270.0
  0
ARC
  5
109E
330
1A
100
AcDbEntity
  8
ZUWAKU
100
AcDbCircle
 10
502.337933685451
 20
10.83750000000009
 30
0.0
 40
0.2625
100
AcDbArc
 50
270.0
 51
17.52556837372265
  0
LINE
  5
109F
330
1A
100
AcDbEntity
  8
ZUWAKU
100
AcDbLine
 10
501.4884889956465
 20
10.57500000000009
 30
0.0
 11
502.337933685451
 21
10.57500000000009
 31
0.0
  0
LINE
  5
10A0
330
1A
100
AcDbEntity
  8
ZUWAKU
100
AcDbLine
 10
501.2381735460488
 20
10.75845301591661
 30
0.0
 11
500.3040386087329
 21
13.71654698408358
 31
0.0
  0
ARC
  5
10A1
330
1A
100
AcDbEntity
  8
ZUWAKU
100
AcDbCircle
 10
504.0086060773909
 20
10.83750000000009
 30
0.0
 40
0.2625
100
AcDbArc
 50
180.0
 51
270.0
  0
LINE
  5
10A2
330
1A
100
AcDbEntity
  8
ZUWAKU
100
AcDbLine
 10
505.1461060773909
 20
10.83750000000009
 30
0.0
 11
505.1461060773909
 21
18.3625000000001
 31
0.0
  0
LINE
  5
10A3
330
1A
100
AcDbEntity
  8
ZUWAKU
100
AcDbLine
 10
503.7461060773908
 20
18.3625000000001
 30
0.0
 11
503.7461060773908
 21
10.83750000000009
 31
0.0
  0
LINE
  5
10A4
330
1A
100
AcDbEntity
  8
ZUWAKU
100
AcDbLine
 10
502.0574293184798
 20
16.60252359678181
 30
0.0
 11
501.425053445812
 21
14.60000000000011
 31
0.0
  0
ARC
  5
10A5
330
1A
100
AcDbEntity
  8
ZUWAKU
100
AcDbCircle
 10
508.2961060773909
 20
16.31739898732245
 30
0.0
 40
2.099999999999999
100
AcDbArc
 50
180.0
 51
224.9999999999994
  0
LINE
  5
10A6
330
1A
100
AcDbEntity
  8
ZUWAKU
100
AcDbLine
 10
499.4586060773908
 20
18.6250000000001
 30
0.0
 11
498.5836060773908
 21
18.6250000000001
 31
0.0
  0
LINE
  5
10A7
330
1A
100
AcDbEntity
  8
ZUWAKU
100
AcDbLine
 10
497.0961060773909
 20
18.3625000000001
 30
0.0
 11
497.0961060773909
 21
17.4875000000001
 31
0.0
  0
ARC
  5
10A8
330
1A
100
AcDbEntity
  8
ZUWAKU
100
AcDbCircle
 10
496.8336060773908
 20
17.4875000000001
 30
0.0
 40
0.2625
100
AcDbArc
 50
270.0
 51
0.0
  0
ARC
  5
10A9
330
1A
100
AcDbEntity
  8
ZUWAKU
100
AcDbCircle
 10
498.5836060773908
 20
18.3625000000001
 30
0.0
 40
0.2625
100
AcDbArc
 50
90.0
 51
180.0
  0
ARC
  5
10AA
330
1A
100
AcDbEntity
  8
ZUWAKU
100
AcDbCircle
 10
496.8336060773908
 20
18.3625000000001
 30
0.0
 40
0.2625
100
AcDbArc
 50
0.0
 51
90.0
  0
LINE
  5
10AB
330
1A
100
AcDbEntity
  8
ZUWAKU
100
AcDbLine
 10
496.8336060773908
 20
17.2250000000001
 30
0.0
 11
495.8711060773908
 21
17.2250000000001
 31
0.0
  0
LINE
  5
10AC
330
1A
100
AcDbEntity
  8
ZUWAKU
100
AcDbLine
 10
495.8711060773908
 20
18.62500000000007
 30
0.0
 11
496.8336060773908
 21
18.6250000000001
 31
0.0
  0
LINE
  5
10AD
330
1A
100
AcDbEntity
  8
ZUWAKU
100
AcDbLine
 10
499.7211060773909
 20
15.5625000000001
 30
0.0
 11
499.7211060773909
 21
18.3625000000001
 31
0.0
  0
LINE
  5
10AE
330
1A
100
AcDbEntity
  8
ZUWAKU
100
AcDbLine
 10
492.4586060773909
 20
18.3625000000001
 30
0.0
 11
492.4586060773909
 21
17.4875000000001
 31
0.0
  0
ARC
  5
10AF
330
1A
100
AcDbEntity
  8
ZUWAKU
100
AcDbCircle
 10
492.1961060773909
 20
17.4875000000001
 30
0.0
 40
0.2625
100
AcDbArc
 50
270.0
 51
0.0
  0
ARC
  5
10B0
330
1A
100
AcDbEntity
  8
ZUWAKU
100
AcDbCircle
 10
492.1961060773909
 20
18.3625000000001
 30
0.0
 40
0.2625
100
AcDbArc
 50
0.0
 51
90.0
  0
ARC
  5
10B1
330
1A
100
AcDbEntity
  8
ZUWAKU
100
AcDbCircle
 10
495.8711060773908
 20
16.52500000000008
 30
0.0
 40
2.099999999999999
100
AcDbArc
 50
90.0
 51
180.0
  0
ARC
  5
10B2
330
1A
100
AcDbEntity
  8
ZUWAKU
100
AcDbCircle
 10
495.8711060773908
 20
16.5250000000001
 30
0.0
 40
0.7
100
AcDbArc
 50
90.0
 51
180.0
  0
LINE
  5
10B3
330
1A
100
AcDbEntity
  8
ZUWAKU
100
AcDbLine
 10
498.5836060773908
 20
10.57500000000009
 30
0.0
 11
499.4586060773908
 21
10.57500000000009
 31
0.0
  0
ARC
  5
10B4
330
1A
100
AcDbEntity
  8
ZUWAKU
100
AcDbCircle
 10
498.5836060773908
 20
10.83750000000009
 30
0.0
 40
0.2625
100
AcDbArc
 50
180.0
 51
270.0
  0
ARC
  5
10B5
330
1A
100
AcDbEntity
  8
ZUWAKU
100
AcDbCircle
 10
496.8336060773908
 20
11.7125000000001
 30
0.0
 40
0.2625
100
AcDbArc
 50
0.0
 51
90.0
  0
ARC
  5
10B6
330
1A
100
AcDbEntity
  8
ZUWAKU
100
AcDbCircle
 10
496.8336060773908
 20
10.83750000000009
 30
0.0
 40
0.2625
100
AcDbArc
 50
270.0
 51
0.0
  0
LINE
  5
10B7
330
1A
100
AcDbEntity
  8
ZUWAKU
100
AcDbLine
 10
497.0961060773909
 20
11.7125000000001
 30
0.0
 11
497.0961060773909
 21
10.83750000000009
 31
0.0
  0
LINE
  5
10B8
330
1A
100
AcDbEntity
  8
ZUWAKU
100
AcDbLine
 10
496.8336060773908
 20
10.57500000000009
 30
0.0
 11
495.8711060773908
 21
10.57500000000009
 31
0.0
  0
LINE
  5
10B9
330
1A
100
AcDbEntity
  8
ZUWAKU
100
AcDbLine
 10
495.8711060773908
 20
11.9750000000001
 30
0.0
 11
496.8336060773908
 21
11.9750000000001
 31
0.0
  0
LINE
  5
10BA
330
1A
100
AcDbEntity
  8
ZUWAKU
100
AcDbLine
 10
499.7211060773909
 20
10.83750000000009
 30
0.0
 11
499.7211060773909
 21
13.63750000000009
 31
0.0
  0
ARC
  5
10BB
330
1A
100
AcDbEntity
  8
ZUWAKU
100
AcDbCircle
 10
490.6211060773909
 20
12.88260101267775
 30
0.0
 40
2.099999999999999
100
AcDbArc
 50
0.0
 51
44.99999999999942
  0
LINE
  5
10BC
330
1A
100
AcDbEntity
  8
ZUWAKU
100
AcDbLine
 10
492.7211060773909
 20
11.9750000000001
 30
0.0
 11
492.7211060773909
 21
12.88260101267777
 31
0.0
  0
ARC
  5
10BD
330
1A
100
AcDbEntity
  8
ZUWAKU
100
AcDbCircle
 10
495.8711060773908
 20
12.6750000000001
 30
0.0
 40
2.099999999999999
100
AcDbArc
 50
180.0
 51
270.0
  0
ARC
  5
10BE
330
1A
100
AcDbEntity
  8
ZUWAKU
100
AcDbCircle
 10
495.8711060773908
 20
12.6750000000001
 30
0.0
 40
0.7
100
AcDbArc
 50
180.0
 51
270.0
  0
LINE
  5
10BF
330
1A
100
AcDbEntity
  8
ZUWAKU
100
AcDbLine
 10
498.3211060773909
 20
18.3625000000001
 30
0.0
 11
498.3211060773909
 21
10.83750000000009
 31
0.0
  0
LINE
  5
10C0
330
1A
100
AcDbEntity
  8
ZUWAKU
100
AcDbLine
 10
493.7711060773908
 20
12.6750000000001
 30
0.0
 11
493.7711060773908
 21
16.52500000000008
 31
0.0
  0
LINE
  5
10C1
330
1A
100
AcDbEntity
  8
ZUWAKU
100
AcDbLine
 10
495.1711060773908
 20
16.5250000000001
 30
0.0
 11
495.1711060773908
 21
12.6750000000001
 31
0.0
  0
CIRCLE
  5
10C2
330
1A
100
AcDbEntity
  8
ZUWAKU
100
AcDbCircle
 10
496.3961060773908
 20
14.6000000000001
 30
0.0
 40
0.875
  0
ARC
  5
10C3
330
1A
100
AcDbEntity
  8
ZUWAKU
100
AcDbCircle
 10
499.9836060773908
 20
13.63750000000009
 30
0.0
 40
0.2625
100
AcDbArc
 50
90.0
 51
180.0
  0
ARC
  5
10C4
330
1A
100
AcDbEntity
  8
ZUWAKU
100
AcDbCircle
 10
499.4586060773908
 20
10.83750000000009
 30
0.0
 40
0.2625
100
AcDbArc
 50
270.0
 51
0.0
  0
ARC
  5
10C5
330
1A
100
AcDbEntity
  8
ZUWAKU
100
AcDbCircle
 10
499.9836060773908
 20
15.5625000000001
 30
0.0
 40
0.2625
100
AcDbArc
 50
180.0
 51
270.0
  0
ARC
  5
10C6
330
1A
100
AcDbEntity
  8
ZUWAKU
100
AcDbCircle
 10
499.4586060773908
 20
18.3625000000001
 30
0.0
 40
0.2625
100
AcDbArc
 50
0.0
 51
90.0
  0
LINE
  5
10C7
330
1A
100
AcDbEntity
  8
ZUWAKU
100
AcDbLine
 10
506.8111818368991
 20
14.83247474683069
 30
0.0
 11
508.2660808242215
 21
13.37757575950835
 31
0.0
  0
LINE
  5
10C8
330
1A
100
AcDbEntity
  8
ZUWAKU
100
AcDbLine
 10
506.7211060773908
 20
10.57500000000009
 30
0.0
 11
508.4711060773908
 21
10.57500000000009
 31
0.0
  0
LINE
  5
10C9
330
1A
100
AcDbEntity
  8
ZUWAKU
100
AcDbLine
 10
506.7211060773908
 20
11.9750000000001
 30
0.0
 11
508.2086060773908
 21
11.9750000000001
 31
0.0
  0
LINE
  5
10CA
330
1A
100
AcDbEntity
  8
ZUWAKU
100
AcDbLine
 10
509.2560303178826
 20
14.36752525316951
 30
0.0
 11
507.8011313305602
 21
15.82242424049185
 31
0.0
  0
LINE
  5
10CB
330
1A
100
AcDbEntity
  8
ZUWAKU
100
AcDbLine
 10
509.3461060773909
 20
17.2250000000001
 30
0.0
 11
507.8586060773909
 21
17.2250000000001
 31
0.0
  0
LINE
  5
10CC
330
1A
100
AcDbEntity
  8
ZUWAKU
100
AcDbLine
 10
507.5961060773908
 20
18.6250000000001
 30
0.0
 11
509.3461060773909
 21
18.6250000000001
 31
0.0
  0
LINE
  5
10CD
330
1A
100
AcDbEntity
  8
ZUWAKU
100
AcDbLine
 10
522.9633147739945
 20
22.00000000000009
 30
0.0
 11
522.9633147739945
 21
7.400000000000126
 31
0.0
  0
LINE
  5
10CE
330
1A
100
AcDbEntity
  8
ZUWAKU
100
AcDbLine
 10
523.1633147739944
 20
22.00000000000009
 30
0.0
 11
523.1633147739946
 21
7.400000000000126
 31
0.0
  0
LINE
  5
10CF
330
1A
100
AcDbEntity
  8
ZUWAKU
100
AcDbLine
 10
523.0633147739943
 20
22.00000000000009
 30
0.0
 11
523.0633147739945
 21
7.400000000000126
 31
0.0
  0
ARC
  5
10D0
330
1A
100
AcDbEntity
  8
ZUWAKU
100
AcDbCircle
 10
490.7086060773909
 20
16.96250000000009
 30
0.0
 40
0.2625
100
AcDbArc
 50
90.0
 51
180.0
  0
ARC
  5
10D1
330
1A
100
AcDbEntity
  8
ZUWAKU
100
AcDbCircle
 10
491.1461060773908
 20
16.31739898732245
 30
0.0
 40
0.7
100
AcDbArc
 50
180.0000000000016
 51
224.9999999999994
  0
ARC
  5
10D2
330
1A
100
AcDbEntity
  8
ZUWAKU
100
AcDbCircle
 10
490.4461060773908
 20
17.2250000000001
 30
0.0
 40
1.399999999999999
100
AcDbArc
 50
90.0
 51
180.0
  0
LINE
  5
10D3
330
1A
100
AcDbEntity
  8
ZUWAKU
100
AcDbLine
 10
489.0461060773908
 20
17.2250000000001
 30
0.0
 11
489.0461060773908
 21
16.31739898732243
 31
0.0
  0
LINE
  5
10D4
330
1A
100
AcDbEntity
  8
ZUWAKU
100
AcDbLine
 10
490.4461060773908
 20
16.96250000000009
 30
0.0
 11
490.4461060773908
 21
16.31739898732243
 31
0.0
  0
LINE
  5
10D5
330
1A
100
AcDbEntity
  8
ZUWAKU
100
AcDbLine
 10
489.6611818368991
 20
14.83247474683069
 30
0.0
 11
491.1160808242214
 21
13.37757575950835
 31
0.0
  0
LINE
  5
10D6
330
1A
100
AcDbEntity
  8
ZUWAKU
100
AcDbLine
 10
489.5711060773908
 20
11.9750000000001
 30
0.0
 11
491.0586060773908
 21
11.9750000000001
 31
0.0
  0
LINE
  5
10D7
330
1A
100
AcDbEntity
  8
ZUWAKU
100
AcDbLine
 10
489.5711060773908
 20
10.57500000000009
 30
0.0
 11
491.3211060773909
 21
10.57500000000009
 31
0.0
  0
ARC
  5
10D8
330
1A
100
AcDbEntity
  8
ZUWAKU
100
AcDbCircle
 10
489.5711060773908
 20
11.7125000000001
 30
0.0
 40
0.2625
100
AcDbArc
 50
90.0
 51
180.0
  0
ARC
  5
10D9
330
1A
100
AcDbEntity
  8
ZUWAKU
100
AcDbCircle
 10
489.5711060773908
 20
10.83750000000009
 30
0.0
 40
0.2625
100
AcDbArc
 50
180.0
 51
270.0
  0
LINE
  5
10DA
330
1A
100
AcDbEntity
  8
ZUWAKU
100
AcDbLine
 10
489.3086060773908
 20
10.83750000000009
 30
0.0
 11
489.3086060773908
 21
11.7125000000001
 31
0.0
  0
ARC
  5
10DB
330
1A
100
AcDbEntity
  8
ZUWAKU
100
AcDbCircle
 10
491.0586060773908
 20
12.2375000000001
 30
0.0
 40
0.2625
100
AcDbArc
 50
270.0
 51
0.0
  0
LINE
  5
10DC
330
1A
100
AcDbEntity
  8
ZUWAKU
100
AcDbLine
 10
491.3211060773909
 20
12.2375000000001
 30
0.0
 11
491.3211060773909
 21
12.88260101267777
 31
0.0
  0
ARC
  5
10DD
330
1A
100
AcDbEntity
  8
ZUWAKU
100
AcDbCircle
 10
490.6211060773909
 20
12.88260101267777
 30
0.0
 40
0.7
100
AcDbArc
 50
0.0
 51
44.99999999999942
  0
ARC
  5
10DE
330
1A
100
AcDbEntity
  8
ZUWAKU
100
AcDbCircle
 10
491.1461060773908
 20
16.31739898732245
 30
0.0
 40
2.099999999999999
100
AcDbArc
 50
180.0
 51
224.9999999999994
  0
LINE
  5
10DF
330
1A
100
AcDbEntity
  8
ZUWAKU
100
AcDbLine
 10
492.1060303178826
 20
14.36752525316951
 30
0.0
 11
490.6511313305602
 21
15.82242424049185
 31
0.0
  0
LINE
  5
10E0
330
1A
100
AcDbEntity
  8
ZUWAKU
100
AcDbLine
 10
490.4461060773908
 20
18.6250000000001
 30
0.0
 11
492.1961060773909
 21
18.6250000000001
 31
0.0
  0
INSERT
  5
10E1
330
1A
100
AcDbEntity
  8
ZUWAKU
  6
Continuous
100
AcDbBlockReference
  2
*X8
 10
484.5458670345604
 20
3.946206858588773
 30
0.0
 41
0.5
 42
0.5
 43
0.5
1001
ACAD
1000
HATCH
1002
{
1070
    19
1000
ANSI37
1040
0.2
1040
0.0
1000
R14_HATCH_DATA
1000
4E4
1011
485.0458670345604
1021
3.946206858588773
1031
0.0
1011
484.5458670345604
1021
4.446206858588773
1031
0.0
1011
484.5458670345604
1021
3.946206858588773
1031
0.5
1040
0.0
1010
0.0
1020
0.0
1030
1.0
1000
ANSI37
1070
     0
1070
     0
1071
        8
1071
        7
1070
     1
1070
     1
1071
       24
1040
12.2105285919996
1040
23.75243476380623
1040
-0.1989123673796348
1040
11.80047808566087
1040
24.74238425746728
1040
0.0
1040
11.80047808566087
1040
26.03258628282266
1040
-0.4142135623730912
1040
12.32547808566085
1040
26.55758628282265
1040
0.0
1040
15.30047808566076
1040
26.55758628282265
1040
0.4142135623731546
1040
15.82547808566085
1040
27.08258628282264
1040
0.0
1040
15.82547808566085
1040
28.83258628282265
1040
0.4142135623731586
1040
15.30047808566076
1040
29.35758628282265
1040
0.0
1040
11.80047808566087
1040
29.35758628282265
1040
0.4142135623730928
1040
9.000478085660915
1040
26.55758628282268
1040
0.0
1040
9.000478085660915
1040
24.74238425746741
1040
0.1989123673796619
1040
10.23062960467735
1040
21.7725357764838
1040
0.0
1040
13.14042757932202
1040
18.86273780183914
1040
-0.1989123673796613
1040
13.55047808566087
1040
17.87278830817795
1040
0.0
1040
13.55047808566087
1040
16.58258628282264
1040
-0.4142135623730911
1040
13.02547808566089
1040
16.05758628282265
1040
0.0
1040
10.05047808566098
1040
16.05758628282265
1040
0.4142135623731526
1040
9.525478085660893
1040
15.53258628282266
1040
0.0
1040
9.525478085660893
1040
13.78258628282264
1040
0.4142135623731526
1040
10.05047808566098
1040
13.25758628282265
1040
0.0
1040
13.55047808566087
1040
13.25758628282265
1040
0.4142135623731044
1040
16.35047808566094
1040
16.05758628282262
1040
0.0
1040
16.35047808566094
1040
17.87278830817789
1040
0.1989123673796604
1040
15.12032656664439
1040
20.84263678916144
1040
0.0
1071
        0
1071
        7
1070
     1
1070
     1
1071
       16
1040
21.25047808566092
1040
25.15758628282266
1040
-0.4142135623730935
1040
22.65047808566089
1040
26.55758628282265
1040
0.0
1040
24.57547808566085
1040
26.55758628282265
1040
0.4142135623731546
1040
25.10047808566094
1040
27.08258628282264
1040
0.0
1040
25.10047808566094
1040
28.83258628282265
1040
0.4142135623730951
1040
24.57547808566096
1040
29.35758628282265
1040
0.0
1040
22.65047808566078
1040
29.35758628282261
1040
0.4142135623730892
1040
18.45047808566085
1040
25.15758628282259
1040
0.0
1040
18.45047808566085
1040
17.45758628282267
1040
0.4142135623730969
1040
22.65047808566089
1040
13.25758628282265
1040
0.0
1040
24.57547808566085
1040
13.25758628282265
1040
0.4142135623731526
1040
25.10047808566094
1040
13.78258628282264
1040
0.0
1040
25.10047808566094
1040
15.53258628282266
1040
0.4142135623730891
1040
24.57547808566096
1040
16.05758628282265
1040
0.0
1040
22.65047808566089
1040
16.05758628282265
1040
-0.4142135623730928
1040
21.25047808566092
1040
17.45758628282264
1040
0.0
1071
        0
1071
        7
1070
     1
1070
     1
1071
        2
1040
21.95047808566085
1040
21.30758628282265
1040
1.0
1040
25.45047808566085
1040
21.30758628282265
1040
1.0
1071
        0
1071
        7
1070
     1
1070
     1
1071
       26
1040
35.02312456783887
1040
25.31263347638608
1040
0.0
1040
36.08476420097668
1040
28.67449231465567
1040
0.5069206636600134
1040
35.58413330178132
1040
29.35758628282265
1040
0.0
1040
33.8852439221721
1040
29.35758628282265
1040
0.3272098845218764
1040
33.38461302297674
1040
28.99068025098962
1040
0.0
1040
31.51634314834496
1040
23.07449231465573
1040
-0.3272098845219541
1040
31.01571224914949
1040
22.70758628282265
1040
0.0
1040
30.87547808566103
1040
22.70758628282265
1040
-0.4142135623731526
1040
30.35047808566094
1040
23.23258628282263
1040
0.0
1040
30.35047808566094
1040
28.83258628282265
1040
0.4142135623730951
1040
29.82547808566096
1040
29.35758628282265
1040
0.0
1040
28.07547808566085
1040
29.35758628282265
1040
0.4142135623730871
1040
27.55047808566087
1040
28.83258628282267
1040
0.0
1040
27.55047808566087
1040
13.78258628282264
1040
0.4142135623730891
1040
28.07547808566085
1040
13.25758628282265
1040
0.0
1040
29.82547808566085
1040
13.25758628282265
1040
0.4142135623731526
1040
30.35047808566094
1040
13.78258628282264
1040
0.0
1040
30.35047808566094
1040
19.38258628282266
1040
-0.4142135623731526
1040
30.87547808566103
1040
19.90758628282265
1040
0.0
1040
31.0157122491496
1040
19.90758628282265
1040
-0.3272098845218915
1040
31.51634314834496
1040
19.54068025098957
1040
0.0
1040
33.38461302297674
1040
13.62449231465572
1040
0.3272098845218902
1040
33.8852439221721
1040
13.25758628282265
1040
0.0
1040
35.58413330178132
1040
13.25758628282265
1040
0.5069206636600335
1040
36.08476420097668
1040
13.94068025098966
1040
0.0
1040
33.75837282250302
1040
21.30758628282279
1040
0.0
1071
        0
1071
        7
1070
     1
1070
     1
1071
        8
1040
41.20047808566084
1040
28.83258628282266
1040
0.4142135623731546
1040
40.67547808566075
1040
29.35758628282265
1040
0.0
1040
38.92547808566098
1040
29.35758628282265
1040
0.4142135623731507
1040
38.40047808566089
1040
28.83258628282267
1040
0.0
1040
38.40047808566089
1040
13.78258628282264
1040
0.4142135623731526
1040
38.92547808566098
1040
13.25758628282265
1040
0.0
1040
40.67547808566075
1040
13.25758628282265
1040
0.4142135623731526
1040
41.20047808566084
1040
13.78258628282264
1040
0.0
1071
        0
1071
        7
1070
     1
1070
     1
1071
       24
1040
46.10047808566093
1040
26.03258628282266
1040
-0.4142135623731546
1040
46.62547808566102
1040
26.55758628282265
1040
0.0
1040
49.60047808566094
1040
26.55758628282265
1040
0.4142135623730911
1040
50.12547808566091
1040
27.08258628282264
1040
0.0
1040
50.12547808566091
1040
28.83258628282265
1040
0.4142135623730952
1040
49.60047808566094
1040
29.35758628282265
1040
0.0
1040
46.10047808566093
1040
29.35758628282265
1040
0.4142135623731048
1040
43.30047808566087
1040
26.55758628282268
1040
0.0
1040
43.30047808566087
1040
24.74238425746741
1040
0.1989123673796613
1040
44.53062960467741
1040
21.77253577648386
1040
0.0
1040
47.44042757932208
1040
18.86273780183919
1040
-0.1989123673796402
1040
47.85047808566093
1040
17.87278830817811
1040
0.0
1040
47.85047808566093
1040
16.58258628282264
1040
-0.4142135623730911
1040
47.32547808566096
1040
16.05758628282265
1040
0.0
1040
44.35047808566094
1040
16.05758628282265
1040
0.4142135623731526
1040
43.82547808566084
1040
15.53258628282266
1040
0.0
1040
43.82547808566084
1040
13.78258628282264
1040
0.4142135623730891
1040
44.35047808566082
1040
13.25758628282265
1040
0.0
1040
47.85047808566093
1040
13.25758628282265
1040
0.4142135623730925
1040
50.65047808566089
1040
16.05758628282262
1040
0.0
1040
50.65047808566089
1040
17.87278830817789
1040
0.1989123673796675
1040
49.42032656664435
1040
20.84263678916155
1040
0.0
1040
46.51052859199978
1040
23.75243476380607
1040
-0.1989123673796652
1040
46.10047808566093
1040
24.74238425746724
1040
0.0
1071
        0
1071
        7
1070
     1
1070
     1
1071
       16
1040
55.55047808566087
1040
28.83258628282264
1040
0.414213562373103
1040
55.02547808566089
1040
29.35758628282265
1040
0.0
1040
53.27547808566089
1040
29.35758628282265
1040
0.4142135623730871
1040
52.75047808566092
1040
28.83258628282267
1040
0.0
1040
52.75047808566092
1040
16.05758628282262
1040
0.4142135623730926
1040
55.55047808566087
1040
13.25758628282265
1040
0.0
1040
59.05047808566087
1040
13.25758628282265
1040
0.4142135623731044
1040
61.85047808566094
1040
16.05758628282262
1040
0.0
1040
61.85047808566094
1040
28.83258628282265
1040
0.4142135623730951
1040
61.32547808566096
1040
29.35758628282265
1040
0.0
1040
59.57547808566085
1040
29.35758628282265
1040
0.4142135623730871
1040
59.05047808566087
1040
28.83258628282267
1040
0.0
1040
59.05047808566087
1040
17.10758628282262
1040
-0.414213562373088
1040
58.00047808566091
1040
16.05758628282265
1040
0.0
1040
56.60047808566094
1040
16.05758628282265
1040
-0.4142135623731197
1040
55.55047808566087
1040
17.10758628282262
1040
0.0
1071
        0
1071
        7
1070
     1
1070
     1
1071
        8
1040
66.75047808566091
1040
28.83258628282267
1040
0.4142135623730871
1040
66.22547808566094
1040
29.35758628282265
1040
0.0
1040
64.47547808566094
1040
29.35758628282265
1040
0.4142135623731507
1040
63.95047808566085
1040
28.83258628282267
1040
0.0
1040
63.95047808566085
1040
13.78258628282264
1040
0.4142135623730891
1040
64.47547808566082
1040
13.25758628282265
1040
0.0
1040
66.22547808566094
1040
13.25758628282265
1040
0.4142135623730891
1040
66.75047808566091
1040
13.78258628282264
1040
0.0
1071
        0
1070
     0
1070
     1
1040
0.0
1040
0.2
1070
     0
1070
     2
1040
0.7853981633974483
1040
-903.2340384037992
1040
-7.092413717177286
1040
-0.4490128060534576
1040
0.4490128060534577
1070
     0
1040
2.356194490192344
1040
-903.2340384037992
1040
-7.092413717177286
1040
-0.4490128060534577
1040
-0.4490128060534576
1070
     0
1040
0.057451373970553
1071
        8
1040
13.78812089390305
1040
21.2747599287082
1040
0.0
1040
20.11278093731892
1040
24.95164846527366
1040
0.0
1040
22.87263381653941
1040
21.61946792889336
1040
0.0
1040
28.62232591251689
1040
22.30888392926415
1040
0.0
1040
39.54673794983648
1040
22.76849619680576
1040
0.0
1040
44.6064668260093
1040
25.52616259922986
1040
0.0
1040
54.2659519032801
1040
24.83674419791766
1040
0.0
1040
65.53534555050248
1040
25.29635646545928
1040
0.0
1002
}
  0
ARC
  5
10E2
330
1A
100
AcDbEntity
  8
ZUWAKU
100
AcDbCircle
 10
491.3211060773909
 20
11.9750000000001
 30
0.0
 40
1.399999999999999
100
AcDbArc
 50
270.0
 51
0.0
  0
LINE
  5
10E3
330
1A
100
AcDbEntity
  8
ZUWAKU
100
AcDbLine
 10
492.1961060773909
 20
17.2250000000001
 30
0.0
 11
490.7086060773909
 21
17.2250000000001
 31
0.0
  0
LWPOLYLINE
  5
10E4
330
1A
100
AcDbEntity
  8
ZUWAKU
100
AcDbPolyline
 90
        4
 70
     1
 43
0.0
 10
483.8000000000002
 20
282.4000000000001
 10
483.8000000000002
 20
7.400000000000126
 10
881.8000000000001
 20
7.400000000000126
 10
881.8000000000001
 20
282.4000000000001
  0
LWPOLYLINE
  5
10E5
330
1A
100
AcDbEntity
  8
ZUWAKU
100
AcDbPolyline
 90
        4
 70
     1
 43
0.0
 10
483.6000000000002
 20
282.6000000000001
 10
483.6000000000002
 20
7.200000000000137
 10
882.0000000000002
 20
7.20000000000013
 10
882.0000000000002
 20
282.6000000000001
  0
LWPOLYLINE
  5
10E6
330
1A
100
AcDbEntity
  8
ZUWAKU
100
AcDbPolyline
 90
        4
 70
     1
 43
0.0
 10
483.4000000000003
 20
282.8000000000001
 10
483.4000000000003
 20
7.000000000000092
 10
882.2000000000002
 20
7.000000000000127
 10
882.2000000000002
 20
282.8000000000002
  0
LWPOLYLINE
  5
10E7
330
1A
100
AcDbEntity
  8
ZUWAKU
100
AcDbPolyline
 90
        4
 70
     1
 43
0.0
 10
483.7000000000002
 20
282.5000000000002
 10
483.7000000000002
 20
7.300000000000103
 10
881.9000000000002
 20
7.300000000000132
 10
881.9000000000002
 20
282.5000000000002
  0
LWPOLYLINE
  5
10E8
330
1A
100
AcDbEntity
  8
ZUWAKU
100
AcDbPolyline
 90
        4
 70
     1
 43
0.0
 10
483.5000000000002
 20
282.7000000000002
 10
483.5000000000002
 20
7.100000000000115
 10
882.1000000000001
 20
7.100000000000129
 10
882.1000000000003
 20
282.7000000000002
  0
LINE
  5
10E9
330
1A
100
AcDbEntity
  8
ZUWAKU
100
AcDbLine
 10
483.4000000000003
 20
22.00000000000009
 30
0.0
 11
882.1000000000001
 21
22.00000000000009
 31
0.0
  0
LINE
  5
10EA
330
1A
100
AcDbEntity
  8
ZUWAKU
100
AcDbLine
 10
483.4000000000003
 20
22.1000000000001
 30
0.0
 11
882.1000000000001
 21
22.1000000000001
 31
0.0
  0
LINE
  5
10EB
330
1A
100
AcDbEntity
  8
ZUWAKU
100
AcDbLine
 10
483.4000000000003
 20
22.20000000000009
 30
0.0
 11
882.1000000000001
 21
22.20000000000009
 31
0.0
  0
LINE
  5
10EC
330
1A
100
AcDbEntity
  8
ZUWAKU
100
AcDbLine
 10
483.4000000000003
 20
22.30000000000011
 30
0.0
 11
882.1000000000001
 21
22.30000000000011
 31
0.0
  0
LINE
  5
10ED
330
1A
100
AcDbEntity
  8
ZUWAKU
100
AcDbLine
 10
483.4000000000003
 20
22.4000000000001
 30
0.0
 11
882.1000000000001
 21
22.4000000000001
 31
0.0
  0
LINE
  5
10EE
330
1A
100
AcDbEntity
  8
ZUWAKU
100
AcDbLine
 10
587.7233006450341
 20
14.70000000000011
 30
0.0
 11
707.1121819854958
 21
14.70000000000011
 31
0.0
  0
LINE
  5
10EF
330
1A
100
AcDbEntity
  8
ZUWAKU
100
AcDbLine
 10
587.7233006450341
 20
14.80000000000012
 30
0.0
 11
707.1121819854958
 21
14.80000000000012
 31
0.0
  0
LINE
  5
10F0
330
1A
100
AcDbEntity
  8
ZUWAKU
100
AcDbLine
 10
587.7233006450341
 20
14.60000000000011
 30
0.0
 11
707.1121819854958
 21
14.60000000000011
 31
0.0
  0
DIMENSION
  5
10F1
330
1A
100
AcDbEntity
  8
SUNPOU
100
AcDbDimension
  2
*D18
 10
791.9442688782337
 20
183.2464334092927
 30
0.0
 11
789.4442688782337
 21
208.2464334092928
 31
0.0
 70
    32
 71
     5
 42
49.99999999999997
  3
STANDARD
100
AcDbAlignedDimension
 13
729.4377927017606
 23
233.2464334092926
 33
0.0
 14
725.3127927017605
 24
183.2464334092927
 34
0.0
 50
90.0
100
AcDbRotatedDimension
1001
ACAD
1000
DSTYLE
1002
{
1070
    41
1040
3.0
1070
    42
1040
3.0
1070
    43
1040
7.0
1070
    44
1040
1.5
1070
    73
1070
     0
1070
    74
1070
     0
1070
    77
1070
     3
1070
   140
1040
3.0
1070
   141
1040
150.0
1070
   147
1040
1.0
1070
   172
1070
     1
1070
   173
1070
     1
1070
   176
1070
   256
1070
   177
1070
   256
1070
   178
1070
   256
1070
   271
1070
     0
1070
   272
1070
     0
1070
   341
1005
B2
1070
     6
1000
OPEN
1070
     7
1000
OPEN
1070
   371
1070
    -1
1070
   372
1070
    -1
1002
}
  0
LINE
  5
10F2
330
1A
100
AcDbEntity
  8
SEIHIN
  6
Continuous
 62
     3
100
AcDbLine
 10
668.5381587808895
 20
181.2455406994567
 30
0.0
 11
607.6381848287657
 21
181.2455406994567
 31
0.0
  0
ARC
  5
10F3
330
1A
100
AcDbEntity
  8
SEIHIN
100
AcDbCircle
 10
580.4884095863854
 20
149.2455950529549
 30
0.0
 40
0.5
100
AcDbArc
 50
90.00061060713505
 51
180.000540734148
  0
ARC
  5
10F4
330
1A
100
AcDbEntity
  8
SEIHIN
100
AcDbCircle
 10
587.1210926400835
 20
151.7456657382962
 30
0.0
 40
2.0
100
AcDbArc
 50
270.0006106071349
 51
328.3718677455243
  0
LINE
  5
10F5
330
1A
100
AcDbEntity
  8
SEIHIN
100
AcDbLine
 10
587.1211139542934
 20
149.7456657384098
 30
0.0
 11
580.4884042578328
 21
149.7455950529265
 31
0.0
  0
LINE
  5
10F6
330
1A
100
AcDbEntity
  8
SEIHIN
100
AcDbLine
 10
607.6385396255172
 20
181.2457843955817
 30
0.0
 11
588.824031748406
 21
150.6968576560687
 31
0.0
  0
LINE
  5
10F7
330
1A
100
AcDbEntity
  8
SEIHIN
  6
Continuous
 62
     3
100
AcDbLine
 10
607.6377853789495
 20
233.2455406938699
 30
0.0
 11
607.6385476318098
 21
181.2455406994567
 31
0.0
  0
LINE
  5
10F8
330
1A
100
AcDbEntity
  8
SEIHIN
100
AcDbLine
 10
720.5720901746107
 20
183.2464334092927
 30
0.0
 11
741.4383686469038
 21
149.3668760620679
 31
0.0
  0
ARC
  5
10F9
330
1A
100
AcDbEntity
  8
SEIHIN
100
AcDbCircle
 10
749.9555540718895
 20
151.7465334102682
 30
0.0
 40
2.0
100
AcDbArc
 50
211.6287428616107
 51
270.0000000000002
  0
LINE
  5
10FA
330
1A
100
AcDbEntity
  8
SEIHIN
100
AcDbLine
 10
729.4377927017606
 20
181.2464334092926
 30
0.0
 11
748.2526261409215
 21
150.6977071796995
 31
0.0
  0
DIMENSION
  5
10FB
330
1A
100
AcDbEntity
  8
SUNPOU
  6
Continuous
100
AcDbDimension
  2
*D17
 10
607.6377927017606
 20
262.1660913013022
 30
0.0
 11
668.5377927017606
 21
264.6660913013022
 31
0.0
 70
    32
  1
φ<>
 71
     5
 42
121.7999999999999
  3
STANDARD
100
AcDbAlignedDimension
 13
729.4377927017606
 23
233.2464334092926
 33
0.0
 14
607.6377927017606
 24
233.2465334092926
 34
0.0
100
AcDbRotatedDimension
1001
ACAD
1000
DSTYLE
1002
{
1070
   140
1040
3.0
1070
    74
1070
     0
1070
   172
1070
     1
1070
    73
1070
     0
1070
   272
1070
     2
1070
    77
1070
     3
1070
   173
1070
     1
1070
   147
1040
1.0
1070
    42
1040
3.0
1070
    44
1040
1.5
1070
    43
1040
7.0
1070
   271
1070
     0
1070
   178
1070
     4
1070
   177
1070
     4
1070
   176
1070
     4
1070
   141
1040
150.0
1070
     7
1000
_OPEN
1070
     6
1000
_OPEN
1070
    41
1040
3.0
1002
}
  0
DIMENSION
  5
10FC
330
1A
100
AcDbEntity
  8
SUNPOU
  6
Continuous
100
AcDbDimension
  2
*D16
 10
611.2627927017606
 20
251.1340610374152
 30
0.0
 11
668.5377927017606
 21
253.6340610374152
 31
0.0
 70
    32
  1
φ<>
 71
     5
 42
114.5499999999999
  3
STANDARD
100
AcDbAlignedDimension
 13
725.8127927017605
 23
232.7464334092927
 33
0.0
 14
611.2627927017606
 24
236.0050084484246
 34
0.0
100
AcDbRotatedDimension
1001
ACAD
1000
DSTYLE
1002
{
1070
   140
1040
3.0
1070
    74
1070
     0
1070
   172
1070
     1
1070
    73
1070
     0
1070
   272
1070
     2
1070
    77
1070
     3
1070
    76
1070
     0
1070
   173
1070
     1
1070
   147
1040
1.0
1070
    42
1040
3.0
1070
    44
1040
1.5
1070
    43
1040
7.0
1070
   271
1070
     2
1070
   178
1070
     4
1070
   177
1070
     4
1070
   176
1070
     4
1070
   141
1040
150.0
1070
     7
1000
_OPEN
1070
     6
1000
_OPEN
1070
    41
1040
3.0
1002
}
  0
LINE
  5
10FD
330
1A
100
AcDbEntity
  8
SEIHIN
  6
Continuous
 62
     3
100
AcDbLine
 10
725.8127927017605
 20
232.7464334092927
 30
0.0
 11
725.3127927017605
 21
183.2464334092927
 31
0.0
  0
LINE
  5
10FE
330
1A
100
AcDbEntity
  8
SEIHIN
  6
Continuous
 62
     3
100
AcDbLine
 10
729.4377927017606
 20
233.2464334092926
 30
0.0
 11
729.4377927017606
 21
181.2464334092926
 31
0.0
  0
LINE
  5
10FF
330
1A
100
AcDbEntity
  8
SEIHIN
  6
Continuous
 62
     3
100
AcDbLine
 10
725.3127927017605
 20
183.2464334092927
 30
0.0
 11
668.5377927017607
 21
183.2464334092927
 31
0.0
  0
LINE
  5
1100
330
1A
100
AcDbEntity
  8
SEIHIN
  6
Continuous
 62
     3
100
AcDbLine
 10
726.3606179660555
 20
233.2464334092926
 30
0.0
 11
725.8127927017605
 21
232.7464334092927
 31
0.0
  0
LINE
  5
1101
330
1A
100
AcDbEntity
  8
SEIHIN
  6
Continuous
 62
     3
100
AcDbLine
 10
668.5377927017607
 20
233.2464334092926
 30
0.0
 11
607.6377927017606
 21
233.2465334092926
 31
0.0
  0
LINE
  5
1102
330
1A
100
AcDbEntity
  8
SEIHIN
  6
Continuous
 62
     3
100
AcDbLine
 10
725.8127927017605
 20
232.7464334092927
 30
0.0
 11
668.5377927017607
 21
232.7464334092927
 31
0.0
  0
LINE
  5
1103
330
1A
100
AcDbEntity
  8
SEIHIN
  6
Continuous
 62
     3
100
AcDbLine
 10
668.5377927017607
 20
233.2464334092926
 30
0.0
 11
729.4377927017606
 21
233.2464334092926
 31
0.0
  0
DIMENSION
  5
1104
330
1A
100
AcDbEntity
  8
SUNPOU
100
AcDbDimension
  2
*D15
 10
791.9442688782337
 20
63.24643341039987
 30
0.0
 11
789.4442688782337
 21
103.2464834103341
 31
0.0
 70
    32
 71
     5
 42
80.00009999986829
  3
STANDARD
100
AcDbAlignedDimension
 13
750.6683686469038
 23
143.2465334102682
 33
0.0
 14
757.08809083807
 24
63.24643341039988
 34
0.0
 50
90.0
100
AcDbRotatedDimension
1001
ACAD
1000
DSTYLE
1002
{
1070
    41
1040
3.0
1070
    42
1040
3.0
1070
    43
1040
7.0
1070
    44
1040
1.5
1070
    73
1070
     0
1070
    74
1070
     0
1070
    77
1070
     3
1070
   140
1040
3.0
1070
   141
1040
150.0
1070
   147
1040
1.0
1070
   172
1070
     1
1070
   173
1070
     1
1070
   176
1070
   256
1070
   177
1070
   256
1070
   178
1070
   256
1070
   271
1070
     0
1070
   272
1070
     0
1070
   341
1005
B2
1070
     6
1000
OPEN
1070
     7
1000
OPEN
1070
   371
1070
    -1
1070
   372
1070
    -1
1002
}
  0
DIMENSION
  5
1105
330
1A
100
AcDbEntity
  8
SUNPOU
100
AcDbDimension
  2
*D14
 10
803.1880563739187
 20
63.24643341039987
 30
0.0
 11
800.6880563739187
 21
148.2462865878753
 31
0.0
 70
    32
 71
     5
 42
169.9997063549507
  3
STANDARD
100
AcDbAlignedDimension
 13
743.4879732390926
 23
233.2461397653506
 33
0.0
 14
757.08809083807
 24
63.24643341039988
 34
0.0
 50
90.0
100
AcDbRotatedDimension
1001
ACAD
1000
DSTYLE
1002
{
1070
    41
1040
3.0
1070
    42
1040
3.0
1070
    43
1040
7.0
1070
    44
1040
1.5
1070
    73
1070
     0
1070
    74
1070
     0
1070
    77
1070
     3
1070
   140
1040
3.0
1070
   141
1040
150.0
1070
   147
1040
1.0
1070
   172
1070
     1
1070
   173
1070
     1
1070
   176
1070
   256
1070
   177
1070
   256
1070
   178
1070
   256
1070
   271
1070
     0
1070
   272
1070
     0
1070
   341
1005
B2
1070
     6
1000
OPEN
1070
     7
1000
OPEN
1070
   371
1070
    -1
1070
   372
1070
    -1
1002
}
  0
ARC
  5
1106
330
1A
100
AcDbEntity
  8
SEIHIN
100
AcDbCircle
 10
580.4881585782088
 20
149.2462450795426
 30
0.0
 40
0.5
100
AcDbArc
 50
90.00018762207622
 51
180.0001177490892
  0
LINE
  5
1107
330
1A
100
AcDbEntity
  8
SEIHIN
100
AcDbLine
 10
668.538210354576
 20
149.7465334102678
 30
0.0
 11
580.4881569408974
 21
149.7462450795399
 31
0.0
  0
LINE
  5
1108
330
1A
100
AcDbEntity
  8
SEIHIN
  6
Continuous
 62
     3
100
AcDbLine
 10
579.9883353176108
 20
63.24624344234889
 30
0.0
 11
579.9881667988538
 21
145.2461434422366
 31
0.0
  0
LINE
  5
1109
330
1A
100
AcDbEntity
  8
SEIHIN
  6
Continuous
 62
     3
100
AcDbLine
 10
579.9883353176108
 20
63.24624344234889
 30
0.0
 11
579.9881585782099
 21
149.246244051988
 31
0.0
  0
ARC
  5
110A
330
1A
100
AcDbEntity
  8
SEIHIN
100
AcDbCircle
 10
756.5882637687267
 20
149.2465334102682
 30
0.0
 40
0.5
100
AcDbArc
 50
0.0000698729869884
 51
90.0
  0
LINE
  5
110B
330
1A
100
AcDbEntity
  8
SEIHIN
100
AcDbLine
 10
749.9555540718895
 20
149.7465334102682
 30
0.0
 11
756.5882637687267
 21
149.7465334102682
 31
0.0
  0
DIMENSION
  5
110C
330
1A
100
AcDbEntity
  8
SUNPOU
  6
Continuous
100
AcDbDimension
  2
*D13
 10
585.6129526424516
 20
44.08444354324252
 30
0.0
 11
668.5379977495009
 21
46.58416260045058
 31
0.0
 70
    32
  1
φ<>
 71
     5
 42
165.8500732754872
  3
STANDARD
100
AcDbAlignedDimension
 13
751.4630942260151
 23
64.24645246740272
 33
0.0
 14
585.6130061412391
 24
59.87552011471052
 34
0.0
 50
359.9998058869059
100
AcDbRotatedDimension
1001
ACAD
1000
DSTYLE
1002
{
1070
   140
1040
3.0
1070
    74
1070
     0
1070
   172
1070
     1
1070
    73
1070
     0
1070
   272
1070
     2
1070
    77
1070
     3
1070
    76
1070
     0
1070
   173
1070
     1
1070
   147
1040
1.0
1070
    42
1040
3.0
1070
    44
1040
1.5
1070
    43
1040
7.0
1070
   271
1070
     2
1070
   178
1070
     4
1070
   177
1070
     4
1070
   176
1070
     4
1070
   141
1040
150.0
1070
     7
1000
_OPEN
1070
     6
1000
_OPEN
1070
    41
1040
3.0
1002
}
  0
DIMENSION
  5
110D
330
1A
100
AcDbEntity
  8
SUNPOU
  6
Continuous
100
AcDbDimension
  2
*D12
 10
579.9878924766876
 20
34.21369924680544
 30
0.0
 11
668.5379509459608
 21
36.71339924695977
 31
0.0
 70
    32
  1
φ<>
 71
     5
 42
177.1000999999998
  3
STANDARD
100
AcDbAlignedDimension
 13
757.08809083807
 23
63.24643341039988
 33
0.0
 14
579.987990838409
 24
63.24683341006122
 34
0.0
 50
359.9998058869059
100
AcDbRotatedDimension
1001
ACAD
1000
DSTYLE
1002
{
1070
   140
1040
3.0
1070
    74
1070
     0
1070
   172
1070
     1
1070
    73
1070
     0
1070
   272
1070
     2
1070
    77
1070
     3
1070
   173
1070
     1
1070
   147
1040
1.0
1070
    42
1040
3.0
1070
    44
1040
1.5
1070
    43
1040
7.0
1070
   271
1070
     0
1070
   178
1070
     4
1070
   177
1070
     4
1070
   176
1070
     4
1070
   141
1040
150.0
1070
     7
1000
_OPEN
1070
     6
1000
_OPEN
1070
    41
1040
3.0
1002
}
  0
LINE
  5
110E
330
1A
100
AcDbEntity
  8
SEIHIN
  6
Continuous
 62
     3
100
AcDbLine
 10
741.4383686469038
 20
149.3668760620679
 30
0.0
 11
741.4383686469038
 21
143.2464334102682
 31
0.0
  0
LINE
  5
110F
330
1A
100
AcDbEntity
  8
SEIHIN
  6
Continuous
 62
     3
100
AcDbLine
 10
751.4633686469038
 20
64.24643341026819
 30
0.0
 11
752.4633686469038
 21
63.24643341026831
 31
0.0
  0
LINE
  5
1110
330
1A
100
AcDbEntity
  8
SEIHIN
  6
Continuous
 62
     3
100
AcDbLine
 10
757.0883686469037
 20
63.24653341026829
 30
0.0
 11
757.0882637687263
 21
149.246534020025
 31
0.0
  0
LINE
  5
1111
330
1A
100
AcDbEntity
  8
SEIHIN
  6
Continuous
 62
     3
100
AcDbLine
 10
757.0883686469037
 20
63.24653341026829
 30
0.0
 11
757.0882686469038
 21
145.2464334102682
 31
0.0
  0
LINE
  5
1112
330
1A
100
AcDbEntity
  8
SEIHIN
  6
Continuous
 62
     3
100
AcDbLine
 10
751.4633686469038
 20
64.24643341026819
 30
0.0
 11
750.6683686469038
 21
143.2465334102682
 31
0.0
  0
LINE
  5
1113
330
1A
100
AcDbEntity
  8
SEIHIN
  6
Continuous
 62
     3
100
AcDbLine
 10
668.5383686469037
 20
63.24643341026831
 30
0.0
 11
579.9882686469039
 21
63.24613341026828
 31
0.0
  0
LINE
  5
1114
330
1A
100
AcDbEntity
  8
SEIHIN
  6
Continuous
 62
     3
100
AcDbLine
 10
668.5383686469037
 20
63.24643341026831
 30
0.0
 11
579.9882686469039
 21
63.24613341026828
 31
0.0
  0
LINE
  5
1115
330
1A
100
AcDbEntity
  8
CENTER L
  6
CENTER
 62
     1
 48
5.0
100
AcDbLine
 10
668.5383686469037
 20
53.06833341026829
 30
0.0
 11
668.5380621780499
 21
240.2464334073778
 31
0.0
  0
LINE
  5
1116
330
1A
100
AcDbEntity
  8
SEIHIN
  6
Continuous
 62
     3
100
AcDbLine
 10
668.5383686469037
 20
63.24643341026831
 30
0.0
 11
757.0883686469037
 21
63.24643341026831
 31
0.0
  0
LINE
  5
1117
330
1A
100
AcDbEntity
  8
SEIHIN
  6
Continuous
 62
     3
100
AcDbLine
 10
750.6633686469037
 20
143.2464334102682
 30
0.0
 11
668.5383686469037
 21
143.2464334102682
 31
0.0
  0
LINE
  5
1118
330
1A
100
AcDbEntity
  8
SEIHIN
  6
Continuous
 62
     3
100
AcDbLine
 10
751.4633686469038
 20
64.24643341026819
 30
0.0
 11
668.5383686469037
 21
64.24643341026819
 31
0.0
  0
LINE
  5
1119
330
1A
100
AcDbEntity
  8
SEIHIN
  6
Continuous
 62
     3
100
AcDbLine
 10
668.5383686469037
 20
63.24643341026831
 30
0.0
 11
757.0883686469037
 21
63.24643341026831
 31
0.0
  0
LINE
  5
111A
330
1A
100
AcDbEntity
  8
ZUWAKU
100
AcDbLine
 10
816.5659640880731
 20
69.88855469941981
 30
0.0
 11
876.0687008429515
 21
69.88855469941981
 31
0.0
  0
LINE
  5
111B
330
1A
100
AcDbEntity
  8
ZUWAKU
100
AcDbLine
 10
816.5659640880731
 20
69.78855469941982
 30
0.0
 11
876.0687008429515
 21
69.78855469941982
 31
0.0
  0
LINE
  5
111C
330
1A
100
AcDbEntity
  8
ZUWAKU
100
AcDbLine
 10
816.5659640880731
 20
69.68855469941982
 30
0.0
 11
876.0687008429515
 21
69.68855469941982
 31
0.0
  0
LINE
  5
111D
330
1A
100
AcDbEntity
  8
ZUWAKU
100
AcDbLine
 10
816.5659640880731
 20
77.80840633346386
 30
0.0
 11
876.0687008429515
 21
77.80840633346386
 31
0.0
  0
LINE
  5
111E
330
1A
100
AcDbEntity
  8
ZUWAKU
100
AcDbLine
 10
816.5659640880731
 20
77.90840633346386
 30
0.0
 11
876.0687008429515
 21
77.90840633346386
 31
0.0
  0
LINE
  5
111F
330
1A
100
AcDbEntity
  8
ZUWAKU
100
AcDbLine
 10
816.5659640880731
 20
78.00840633346388
 30
0.0
 11
876.0687008429515
 21
78.00840633346388
 31
0.0
  0
LINE
  5
1120
330
1A
100
AcDbEntity
  8
ZUWAKU
100
AcDbLine
 10
816.5659640880731
 20
61.56870306537577
 30
0.0
 11
876.0687008429515
 21
61.56870306537577
 31
0.0
  0
LINE
  5
1121
330
1A
100
AcDbEntity
  8
ZUWAKU
100
AcDbLine
 10
816.5659640880731
 20
61.66870306537576
 30
0.0
 11
876.0687008429515
 21
61.66870306537576
 31
0.0
  0
LINE
  5
1122
330
1A
100
AcDbEntity
  8
ZUWAKU
100
AcDbLine
 10
816.5659640880731
 20
61.76870306537577
 30
0.0
 11
876.0687008429515
 21
61.76870306537577
 31
0.0
  0
LINE
  5
1123
330
1A
100
AcDbEntity
  8
ZUWAKU
100
AcDbLine
 10
816.5659640880731
 20
53.44885143133172
 30
0.0
 11
876.0687008429515
 21
53.44885143133172
 31
0.0
  0
LINE
  5
1124
330
1A
100
AcDbEntity
  8
ZUWAKU
100
AcDbLine
 10
816.5659640880731
 20
53.54885143133171
 30
0.0
 11
876.0687008429515
 21
53.54885143133171
 31
0.0
  0
LINE
  5
1125
330
1A
100
AcDbEntity
  8
ZUWAKU
100
AcDbLine
 10
816.5659640880731
 20
53.64885143133172
 30
0.0
 11
876.0687008429515
 21
53.64885143133172
 31
0.0
  0
LINE
  5
1126
330
1A
100
AcDbEntity
  8
ZUWAKU
100
AcDbLine
 10
816.5659640880731
 20
29.08929652919956
 30
0.0
 11
816.5659640880731
 21
78.00840633346388
 31
0.0
  0
LINE
  5
1127
330
1A
100
AcDbEntity
  8
ZUWAKU
100
AcDbLine
 10
816.6659640880732
 20
29.08929652919956
 30
0.0
 11
816.6659640880732
 21
78.00840633346388
 31
0.0
  0
LINE
  5
1128
330
1A
100
AcDbEntity
  8
ZUWAKU
100
AcDbLine
 10
816.7659640880732
 20
29.08929652919956
 30
0.0
 11
816.7659640880732
 21
78.00840633346388
 31
0.0
  0
TEXT
  5
1129
330
1A
100
AcDbEntity
  8
moji
100
AcDbText
 10
827.2389314228849
 20
72.22393301468341
 30
0.0
 40
2.799999999999999
  1
色
 41
0.9
  7
ｽﾀｲﾙ1
100
AcDbText
  0
TEXT
  5
112A
330
1A
100
AcDbEntity
  8
moji
 62
     6
100
AcDbText
 10
822.2303318048879
 20
56.37324622036404
 30
0.0
 40
2.799999999999999
  1
ホワイト
 41
0.9
  7
ｽﾀｲﾙ1
100
AcDbText
  0
TEXT
  5
112B
330
1A
100
AcDbEntity
  8
moji
100
AcDbText
 10
822.2303318048879
 20
64.49309785440809
 30
0.0
 40
2.799999999999999
  1
グレー
 41
0.9
  7
ｽﾀｲﾙ1
100
AcDbText
  0
LINE
  5
112C
330
1A
100
AcDbEntity
  8
ZUWAKU
100
AcDbLine
 10
842.477961999854
 20
29.08929652919956
 30
0.0
 11
842.477961999854
 21
78.00840633346388
 31
0.0
  0
LINE
  5
112D
330
1A
100
AcDbEntity
  8
ZUWAKU
100
AcDbLine
 10
842.5779619998541
 20
29.08929652919956
 30
0.0
 11
842.5779619998541
 21
78.00840633346388
 31
0.0
  0
LINE
  5
112E
330
1A
100
AcDbEntity
  8
ZUWAKU
100
AcDbLine
 10
842.6779619998542
 20
29.08929652919956
 30
0.0
 11
842.6779619998539
 21
78.00840633346388
 31
0.0
  0
LINE
  5
112F
330
1A
100
AcDbEntity
  8
ZUWAKU
100
AcDbLine
 10
876.0687008429515
 20
29.08929652919956
 30
0.0
 11
876.0687008429515
 21
78.00840633346388
 31
0.0
  0
LINE
  5
1130
330
1A
100
AcDbEntity
  8
ZUWAKU
100
AcDbLine
 10
875.9687008429516
 20
29.08929652919956
 30
0.0
 11
875.9687008429514
 21
78.00840633346388
 31
0.0
  0
LINE
  5
1131
330
1A
100
AcDbEntity
  8
ZUWAKU
100
AcDbLine
 10
875.8687008429514
 20
29.08929652919956
 30
0.0
 11
875.8687008429514
 21
78.00840633346388
 31
0.0
  0
TEXT
  5
1132
330
1A
100
AcDbEntity
  8
moji
100
AcDbText
 10
852.8308688450747
 20
72.22393301468341
 30
0.0
 40
2.799999999999999
  1
品　番
 41
0.9
  7
ｽﾀｲﾙ1
100
AcDbText
  0
TEXT
  5
1133
330
1A
100
AcDbEntity
  8
moji
100
AcDbText
 10
846.7571523623087
 20
64.49309785440809
 30
0.0
 40
2.799999999999999
  1
　ＤＩＮ１Ｆ２
 41
0.9
  7
ｽﾀｲﾙ1
100
AcDbText
  0
TEXT
  5
1134
330
1A
100
AcDbEntity
  8
moji
 62
     6
100
AcDbText
 10
849.0682095400513
 20
56.37324622036404
 30
0.0
 40
2.799999999999999
  1
ＤＩＮ１Ｆ２Ｗ
 41
0.9
  7
ｽﾀｲﾙ1
100
AcDbText
  0
TEXT
  5
1135
330
1A
100
AcDbEntity
  8
ZUWAKU
100
AcDbText
 10
837.6640420961221
 20
13.17691966784349
 30
0.0
 40
3.0
  1
積水化学工業株式会社
 41
0.9
  7
ｽﾀｲﾙ1
100
AcDbText
  0
LINE
  5
1136
330
1A
100
AcDbEntity
  8
ZUWAKU
100
AcDbLine
 10
832.3245052742709
 20
22.00000000000009
 30
0.0
 11
832.3245052742709
 21
7.400000000000126
 31
0.0
  0
LINE
  5
1137
330
1A
100
AcDbEntity
  8
ZUWAKU
100
AcDbLine
 10
832.2245052742708
 20
22.00000000000009
 30
0.0
 11
832.224505274271
 21
7.400000000000126
 31
0.0
  0
LINE
  5
1138
330
1A
100
AcDbEntity
  8
ZUWAKU
100
AcDbLine
 10
832.1245052742709
 20
22.00000000000009
 30
0.0
 11
832.1245052742709
 21
7.400000000000126
 31
0.0
  0
LINE
  5
1139
330
1A
100
AcDbEntity
  8
ZUWAKU
100
AcDbLine
 10
832.0245052742709
 20
22.00000000000009
 30
0.0
 11
832.0245052742709
 21
7.400000000000126
 31
0.0
  0
TEXT
  5
113A
330
1A
100
AcDbEntity
  8
ZUWAKU
100
AcDbText
 10
808.5473237662071
 20
19.02767826919288
 30
0.0
 40
2.0
  1
DATE
 41
0.9
  7
ｽﾀｲﾙ1
100
AcDbText
  0
LINE
  5
113B
330
1A
100
AcDbEntity
  8
ZUWAKU
100
AcDbLine
 10
807.6086012551025
 20
22.00000000000009
 30
0.0
 11
807.6086012551025
 21
7.400000000000126
 31
0.0
  0
LINE
  5
113C
330
1A
100
AcDbEntity
  8
ZUWAKU
100
AcDbLine
 10
807.8086012551025
 20
22.00000000000009
 30
0.0
 11
807.8086012551025
 21
7.400000000000126
 31
0.0
  0
LINE
  5
113D
330
1A
100
AcDbEntity
  8
ZUWAKU
100
AcDbLine
 10
807.7086012551024
 20
22.00000000000009
 30
0.0
 11
807.7086012551026
 21
7.400000000000126
 31
0.0
  0
TEXT
  5
113E
330
1A
100
AcDbEntity
  8
ZUWAKU
100
AcDbText
 10
812.5019688436514
 20
16.00246052870378
 30
0.0
 40
2.799999999999999
  1
　　．　　．　　
 41
0.9
  7
ｽﾀｲﾙ1
100
AcDbText
  0
LINE
  5
113F
330
1A
100
AcDbEntity
  8
ZUWAKU
100
AcDbLine
 10
807.8086012551022
 20
14.80000000000012
 30
0.0
 11
832.0245052742709
 21
14.80000000000012
 31
0.0
  0
LINE
  5
1140
330
1A
100
AcDbEntity
  8
ZUWAKU
100
AcDbLine
 10
807.8086012551025
 20
14.70000000000011
 30
0.0
 11
832.0245052742709
 21
14.70000000000011
 31
0.0
  0
LINE
  5
1141
330
1A
100
AcDbEntity
  8
ZUWAKU
100
AcDbLine
 10
807.8086012551022
 20
14.60000000000011
 30
0.0
 11
832.0245052742709
 21
14.60000000000011
 31
0.0
  0
TEXT
  5
11D2
330
1A
100
AcDbEntity
  8
moji
 62
     6
100
AcDbText
 10
822.2303318048879
 20
48.25339458631997
 30
0.0
 40
2.799999999999999
  1
シルバー
 41
0.9
  7
ｽﾀｲﾙ1
100
AcDbText
  0
LINE
  5
11D3
330
1A
100
AcDbEntity
  8
ZUWAKU
100
AcDbLine
 10
816.5659640880731
 20
45.52899979728765
 30
0.0
 11
876.0687008429515
 21
45.52899979728765
 31
0.0
  0
LINE
  5
11D4
330
1A
100
AcDbEntity
  8
ZUWAKU
100
AcDbLine
 10
816.5659640880731
 20
45.42899979728765
 30
0.0
 11
876.0687008429515
 21
45.42899979728765
 31
0.0
  0
LINE
  5
11D5
330
1A
100
AcDbEntity
  8
ZUWAKU
100
AcDbLine
 10
816.5659640880731
 20
45.32899979728765
 30
0.0
 11
876.0687008429515
 21
45.32899979728765
 31
0.0
  0
TEXT
  5
11D6
330
1A
100
AcDbEntity
  8
moji
 62
     6
100
AcDbText
 10
849.0682095400513
 20
48.25339458631997
 30
0.0
 40
2.799999999999999
  1
ＪＤＩＮＦ２
 41
0.9
  7
ｽﾀｲﾙ1
100
AcDbText
  0
TEXT
  5
11D7
330
1A
100
AcDbEntity
  8
moji
 62
     6
100
AcDbText
 10
849.0682095400513
 20
40.13354295227592
 30
0.0
 40
2.799999999999999
  1
ＣＤＩＮ1Ｆ２
 41
0.9
  7
ｽﾀｲﾙ1
100
AcDbText
  0
LINE
  5
11D8
330
1A
100
AcDbEntity
  8
ZUWAKU
100
AcDbLine
 10
816.5659640880731
 20
37.20914816324361
 30
0.0
 11
876.0687008429515
 21
37.20914816324361
 31
0.0
  0
LINE
  5
11D9
330
1A
100
AcDbEntity
  8
ZUWAKU
100
AcDbLine
 10
816.5659640880731
 20
37.3091481632436
 30
0.0
 11
876.0687008429515
 21
37.3091481632436
 31
0.0
  0
LINE
  5
11DA
330
1A
100
AcDbEntity
  8
ZUWAKU
100
AcDbLine
 10
816.5659640880731
 20
37.40914816324361
 30
0.0
 11
876.0687008429515
 21
37.40914816324361
 31
0.0
  0
TEXT
  5
11DB
330
1A
100
AcDbEntity
  8
moji
 62
     6
100
AcDbText
 10
822.2303318048879
 20
40.13354295227592
 30
0.0
 40
2.799999999999999
  1
クリーム
 41
0.9
  7
ｽﾀｲﾙ1
100
AcDbText
  0
TEXT
  5
11DC
330
1A
100
AcDbEntity
  8
moji
100
AcDbText
 10
822.2303318048879
 20
32.01369131823188
 30
0.0
 40
2.799999999999999
  1
タフグレー
 41
0.9
  7
ｽﾀｲﾙ1
100
AcDbText
  0
LINE
  5
11DD
330
1A
100
AcDbEntity
  8
ZUWAKU
100
AcDbLine
 10
816.5659640880731
 20
29.28929652919956
 30
0.0
 11
876.0687008429515
 21
29.28929652919956
 31
0.0
  0
LINE
  5
11DE
330
1A
100
AcDbEntity
  8
ZUWAKU
100
AcDbLine
 10
816.5659640880731
 20
29.18929652919955
 30
0.0
 11
876.0687008429515
 21
29.18929652919955
 31
0.0
  0
LINE
  5
11DF
330
1A
100
AcDbEntity
  8
ZUWAKU
100
AcDbLine
 10
816.5659640880731
 20
29.08929652919956
 30
0.0
 11
876.0687008429515
 21
29.08929652919956
 31
0.0
  0
TEXT
  5
11E0
330
1A
100
AcDbEntity
  8
moji
100
AcDbText
 10
849.0682095400513
 20
32.01369131823188
 30
0.0
 40
2.799999999999999
  1
ＧＤＩＮ１Ｆ２
 41
0.9
  7
ｽﾀｲﾙ1
100
AcDbText
  0
TEXT
  5
1213
330
1A
100
AcDbEntity
  8
moji
100
AcDbText
 10
370.6682095400511
 20
32.01369131823181
 30
0.0
 40
2.799999999999999
  1
ＧＤＩＮ１Ｆ２
 41
0.9
  7
ｽﾀｲﾙ1
100
AcDbText
  0
LINE
  5
1214
330
1A
100
AcDbEntity
  8
ZUWAKU
100
AcDbLine
 10
338.1659640880728
 20
29.0892965291995
 30
0.0
 11
397.6687008429512
 21
29.0892965291995
 31
0.0
  0
LINE
  5
1215
330
1A
100
AcDbEntity
  8
ZUWAKU
100
AcDbLine
 10
338.1659640880728
 20
29.18929652919949
 30
0.0
 11
397.6687008429512
 21
29.18929652919949
 31
0.0
  0
LINE
  5
1216
330
1A
100
AcDbEntity
  8
ZUWAKU
100
AcDbLine
 10
338.1659640880728
 20
29.2892965291995
 30
0.0
 11
397.6687008429512
 21
29.2892965291995
 31
0.0
  0
TEXT
  5
1217
330
1A
100
AcDbEntity
  8
moji
100
AcDbText
 10
343.8303318048877
 20
32.01369131823181
 30
0.0
 40
2.799999999999999
  1
タフグレー
 41
0.9
  7
ｽﾀｲﾙ1
100
AcDbText
  0
TEXT
  5
1218
330
1A
100
AcDbEntity
  8
moji
 62
     2
100
AcDbText
 10
343.8303318048877
 20
40.13354295227586
 30
0.0
 40
2.799999999999999
  1
クリーム
 41
0.9
  7
ｽﾀｲﾙ1
100
AcDbText
  0
LINE
  5
1219
330
1A
100
AcDbEntity
  8
ZUWAKU
100
AcDbLine
 10
338.1659640880728
 20
37.40914816324354
 30
0.0
 11
397.6687008429512
 21
37.40914816324354
 31
0.0
  0
LINE
  5
121A
330
1A
100
AcDbEntity
  8
ZUWAKU
100
AcDbLine
 10
338.1659640880728
 20
37.30914816324354
 30
0.0
 11
397.6687008429512
 21
37.30914816324354
 31
0.0
  0
LINE
  5
121B
330
1A
100
AcDbEntity
  8
ZUWAKU
100
AcDbLine
 10
338.1659640880728
 20
37.20914816324354
 30
0.0
 11
397.6687008429512
 21
37.20914816324354
 31
0.0
  0
TEXT
  5
121C
330
1A
100
AcDbEntity
  8
moji
 62
     2
100
AcDbText
 10
370.6682095400511
 20
40.13354295227586
 30
0.0
 40
2.799999999999999
  1
ＣＤＩＮ1Ｆ２
 41
0.9
  7
ｽﾀｲﾙ1
100
AcDbText
  0
TEXT
  5
121D
330
1A
100
AcDbEntity
  8
moji
 62
     2
100
AcDbText
 10
370.6682095400511
 20
48.2533945863199
 30
0.0
 40
2.799999999999999
  1
ＪＤＩＮＦ２
 41
0.9
  7
ｽﾀｲﾙ1
100
AcDbText
  0
LINE
  5
121E
330
1A
100
AcDbEntity
  8
ZUWAKU
100
AcDbLine
 10
338.1659640880728
 20
45.32899979728759
 30
0.0
 11
397.6687008429512
 21
45.32899979728759
 31
0.0
  0
LINE
  5
121F
330
1A
100
AcDbEntity
  8
ZUWAKU
100
AcDbLine
 10
338.1659640880728
 20
45.42899979728757
 30
0.0
 11
397.6687008429512
 21
45.42899979728757
 31
0.0
  0
LINE
  5
1220
330
1A
100
AcDbEntity
  8
ZUWAKU
100
AcDbLine
 10
338.1659640880728
 20
45.52899979728759
 30
0.0
 11
397.6687008429512
 21
45.52899979728759
 31
0.0
  0
TEXT
  5
1221
330
1A
100
AcDbEntity
  8
moji
 62
     2
100
AcDbText
 10
343.8303318048877
 20
48.2533945863199
 30
0.0
 40
2.799999999999999
  1
シルバー
 41
0.9
  7
ｽﾀｲﾙ1
100
AcDbText
  0
TEXT
  5
1222
330
1A
100
AcDbEntity
  8
moji
 62
     2
100
AcDbText
 10
370.6682095400511
 20
56.37324622036397
 30
0.0
 40
2.799999999999999
  1
ＤＩＮ１Ｆ２Ｗ
 41
0.9
  7
ｽﾀｲﾙ1
100
AcDbText
  0
TEXT
  5
1223
330
1A
100
AcDbEntity
  8
moji
100
AcDbText
 10
368.1135040993492
 20
64.49309785440803
 30
0.0
 40
2.799999999999999
  1
　ＤＩＮ１Ｆ２
 41
0.9
  7
ｽﾀｲﾙ1
100
AcDbText
  0
TEXT
  5
1224
330
1A
100
AcDbEntity
  8
moji
100
AcDbText
 10
374.4308688450744
 20
72.22393301468335
 30
0.0
 40
2.799999999999999
  1
品　番
 41
0.9
  7
ｽﾀｲﾙ1
100
AcDbText
  0
LINE
  5
1225
330
1A
100
AcDbEntity
  8
ZUWAKU
100
AcDbLine
 10
397.4687008429512
 20
29.0892965291995
 30
0.0
 11
397.4687008429512
 21
78.00840633346382
 31
0.0
  0
LINE
  5
1226
330
1A
100
AcDbEntity
  8
ZUWAKU
100
AcDbLine
 10
397.5687008429512
 20
29.0892965291995
 30
0.0
 11
397.5687008429511
 21
78.00840633346382
 31
0.0
  0
LINE
  5
1227
330
1A
100
AcDbEntity
  8
ZUWAKU
100
AcDbLine
 10
397.6687008429512
 20
29.0892965291995
 30
0.0
 11
397.6687008429512
 21
78.00840633346382
 31
0.0
  0
LINE
  5
1228
330
1A
100
AcDbEntity
  8
ZUWAKU
100
AcDbLine
 10
364.2779619998539
 20
29.0892965291995
 30
0.0
 11
364.2779619998537
 21
78.00840633346382
 31
0.0
  0
LINE
  5
1229
330
1A
100
AcDbEntity
  8
ZUWAKU
100
AcDbLine
 10
364.1779619998539
 20
29.0892965291995
 30
0.0
 11
364.1779619998538
 21
78.00840633346382
 31
0.0
  0
LINE
  5
122A
330
1A
100
AcDbEntity
  8
ZUWAKU
100
AcDbLine
 10
364.0779619998538
 20
29.0892965291995
 30
0.0
 11
364.0779619998536
 21
78.00840633346382
 31
0.0
  0
TEXT
  5
122B
330
1A
100
AcDbEntity
  8
moji
100
AcDbText
 10
343.8303318048877
 20
64.49309785440803
 30
0.0
 40
2.799999999999999
  1
グレー
 41
0.9
  7
ｽﾀｲﾙ1
100
AcDbText
  0
TEXT
  5
122C
330
1A
100
AcDbEntity
  8
moji
 62
     2
100
AcDbText
 10
343.8303318048877
 20
56.37324622036397
 30
0.0
 40
2.799999999999999
  1
ホワイト
 41
0.9
  7
ｽﾀｲﾙ1
100
AcDbText
  0
TEXT
  5
122D
330
1A
100
AcDbEntity
  8
moji
100
AcDbText
 10
348.8389314228846
 20
72.22393301468335
 30
0.0
 40
2.799999999999999
  1
色
 41
0.9
  7
ｽﾀｲﾙ1
100
AcDbText
  0
LINE
  5
122E
330
1A
100
AcDbEntity
  8
ZUWAKU
100
AcDbLine
 10
338.3659640880728
 20
29.0892965291995
 30
0.0
 11
338.3659640880728
 21
78.00840633346382
 31
0.0
  0
LINE
  5
122F
330
1A
100
AcDbEntity
  8
ZUWAKU
100
AcDbLine
 10
338.2659640880729
 20
29.0892965291995
 30
0.0
 11
338.2659640880729
 21
78.00840633346382
 31
0.0
  0
LINE
  5
1230
330
1A
100
AcDbEntity
  8
ZUWAKU
100
AcDbLine
 10
338.1659640880728
 20
29.0892965291995
 30
0.0
 11
338.1659640880728
 21
78.00840633346382
 31
0.0
  0
LINE
  5
1231
330
1A
100
AcDbEntity
  8
ZUWAKU
100
AcDbLine
 10
338.1659640880728
 20
53.64885143133165
 30
0.0
 11
397.6687008429512
 21
53.64885143133165
 31
0.0
  0
LINE
  5
1232
330
1A
100
AcDbEntity
  8
ZUWAKU
100
AcDbLine
 10
338.1659640880728
 20
53.54885143133165
 30
0.0
 11
397.6687008429512
 21
53.54885143133165
 31
0.0
  0
LINE
  5
1233
330
1A
100
AcDbEntity
  8
ZUWAKU
100
AcDbLine
 10
338.1659640880728
 20
53.44885143133165
 30
0.0
 11
397.6687008429512
 21
53.44885143133165
 31
0.0
  0
LINE
  5
1234
330
1A
100
AcDbEntity
  8
ZUWAKU
100
AcDbLine
 10
338.1659640880728
 20
61.76870306537571
 30
0.0
 11
397.6687008429512
 21
61.76870306537571
 31
0.0
  0
LINE
  5
1235
330
1A
100
AcDbEntity
  8
ZUWAKU
100
AcDbLine
 10
338.1659640880728
 20
61.6687030653757
 30
0.0
 11
397.6687008429512
 21
61.6687030653757
 31
0.0
  0
LINE
  5
1236
330
1A
100
AcDbEntity
  8
ZUWAKU
100
AcDbLine
 10
338.1659640880728
 20
61.5687030653757
 30
0.0
 11
397.6687008429512
 21
61.5687030653757
 31
0.0
  0
LINE
  5
1237
330
1A
100
AcDbEntity
  8
ZUWAKU
100
AcDbLine
 10
338.1659640880728
 20
78.00840633346382
 30
0.0
 11
397.6687008429512
 21
78.00840633346382
 31
0.0
  0
LINE
  5
1238
330
1A
100
AcDbEntity
  8
ZUWAKU
100
AcDbLine
 10
338.1659640880728
 20
77.9084063334638
 30
0.0
 11
397.6687008429512
 21
77.9084063334638
 31
0.0
  0
LINE
  5
1239
330
1A
100
AcDbEntity
  8
ZUWAKU
100
AcDbLine
 10
338.1659640880728
 20
77.80840633346381
 30
0.0
 11
397.6687008429512
 21
77.80840633346381
 31
0.0
  0
LINE
  5
123A
330
1A
100
AcDbEntity
  8
ZUWAKU
100
AcDbLine
 10
338.1659640880728
 20
69.68855469941977
 30
0.0
 11
397.6687008429512
 21
69.68855469941977
 31
0.0
  0
LINE
  5
123B
330
1A
100
AcDbEntity
  8
ZUWAKU
100
AcDbLine
 10
338.1659640880728
 20
69.78855469941976
 30
0.0
 11
397.6687008429512
 21
69.78855469941976
 31
0.0
  0
LINE
  5
123C
330
1A
100
AcDbEntity
  8
ZUWAKU
100
AcDbLine
 10
338.1659640880728
 20
69.88855469941976
 30
0.0
 11
397.6687008429512
 21
69.88855469941976
 31
0.0
  0
VIEWPORT
  5
22
102
{ACAD_XDICTIONARY
360
12B8
102
}
330
17
100
AcDbEntity
 67
     1
  8
0
100
AcDbViewport
 10
313.6808219178083
 20
148.5
 30
0.0
 40
627.3616438356165
 41
297.0
 68
     2
 69
     1
 12
313.6808219178083
 22
148.5
 13
0.0
 23
0.0
 14
1.0
 24
1.0
 15
10.0
 25
10.0
 16
0.0
 26
0.0
 36
1.0
 17
0.0
 27
0.0
 37
0.0
 42
50.0
 43
0.0
 44
0.0
 45
297.0
 50
0.0
 51
0.0
 72
   100
 90
    32768
  1

281
     0
 71
     1
 74
     0
110
0.0
120
0.0
130
0.0
111
1.0
121
0.0
131
0.0
112
0.0
122
1.0
132
0.0
 79
     0
146
0.0
  0
VIEWPORT
  5
64
102
{ACAD_XDICTIONARY
360
12BA
102
}
330
17
100
AcDbEntity
 67
     1
  8
VIEWPORT
100
AcDbViewport
 10
210.0
 20
148.5
 30
0.0
 40
420.0
 41
297.0
 68
     1
 69
     2
 12
210.0
 22
148.5
 13
0.0
 23
0.0
 14
5.0
 24
5.0
 15
0.0
 25
0.0
 16
0.0
 26
0.0
 36
1.0
 17
0.0
 27
0.0
 37
0.0
 42
50.0
 43
0.0
 44
0.0
 45
302.9399999999999
 50
0.0
 51
0.0
 72
   100
 90
    32768
  1

281
     0
 71
     1
 74
     0
110
0.0
120
0.0
130
0.0
111
1.0
121
0.0
131
0.0
112
0.0
122
1.0
132
0.0
 79
     0
146
0.0
  0
ENDSEC
  0
SECTION
  2
OBJECTS
  0
DICTIONARY
  5
C
330
0
100
AcDbDictionary
281
     1
  3
ACAD_COLOR
350
F92
  3
ACAD_GROUP
350
D
  3
ACAD_LAYOUT
350
288
  3
ACAD_MATERIAL
350
F91
  3
ACAD_MLINESTYLE
350
E
  3
ACAD_PLOTSETTINGS
350
289
  3
ACAD_PLOTSTYLENAME
350
286
  3
ACDBHEADERROUNDTRIPXREC
350
12B5
  3
AcDbVariableDictionary
350
123F
  0
DICTIONARY
  5
102D
330
2
100
AcDbDictionary
280
     1
281
     1
  3
ACAD_LAYERSTATES
360
102E
  0
DICTIONARY
  5
1027
330
1026
100
AcDbDictionary
280
     1
281
     1
  0
DICTIONARY
  5
1029
330
1028
100
AcDbDictionary
280
     1
281
     1
  0
DICTIONARY
  5
2BC
330
1A
100
AcDbDictionary
280
     1
281
     1
  3
ACAD_LAYOUTSELFREF
360
F3C
  0
DICTIONARY
  5
2BA
330
17
100
AcDbDictionary
280
     1
281
     1
  3
ACAD_LAYOUTSELFREF
360
F3B
  0
DICTIONARY
  5
1000
330
FFF
100
AcDbDictionary
280
     1
281
     1
  3
ACAD_SORTENTS
360
1001
  0
DICTIONARY
  5
1009
330
1008
100
AcDbDictionary
280
     1
281
     1
  3
ACAD_SORTENTS
360
100A
  0
DICTIONARY
  5
12B8
330
22
100
AcDbDictionary
280
     1
281
     1
  3
ACAD_XREC_ROUNDTRIP
360
12B9
  0
DICTIONARY
  5
12BA
330
64
100
AcDbDictionary
280
     1
281
     1
  3
ACAD_XREC_ROUNDTRIP
360
12BB
  0
DICTIONARY
  5
F92
102
{ACAD_REACTORS
330
C
102
}
330
C
100
AcDbDictionary
281
     1
  0
DICTIONARY
  5
D
102
{ACAD_REACTORS
330
C
102
}
330
C
100
AcDbDictionary
281
     1
  0
DICTIONARY
  5
288
102
{ACAD_REACTORS
330
C
102
}
330
C
100
AcDbDictionary
281
     1
  3
Model
350
28A
  3
ﾚｲｱｳﾄ1
350
28B
  0
DICTIONARY
  5
F91
102
{ACAD_REACTORS
330
C
102
}
330
C
100
AcDbDictionary
281
     1
  0
DICTIONARY
  5
E
102
{ACAD_REACTORS
330
C
102
}
330
C
100
AcDbDictionary
281
     1
  3
STANDARD
350
13
  0
DICTIONARY
  5
289
102
{ACAD_REACTORS
330
C
102
}
330
C
100
AcDbDictionary
281
     1
  0
ACDBDICTIONARYWDFLT
  5
286
102
{ACAD_REACTORS
330
C
102
}
330
C
100
AcDbDictionary
281
     1
  3
Normal
350
287
100
AcDbDictionaryWithDefault
340
287
1001
ACAD
1000
TREAT_AS_HARD
1070
     0
1000
TREAT_AS_HARD
1070
     0
1000
TREAT_AS_HARD
1070
     0
1000
TREAT_AS_HARD
1070
     0
  0
DICTIONARY
  5
12B5
102
{ACAD_REACTORS
330
C
102
}
330
C
100
AcDbDictionary
281
     1
  3
COLORDICT
350
12B7
  3
MATERIALDICT
350
12B6
  0
DICTIONARY
  5
123F
102
{ACAD_REACTORS
330
C
102
}
330
C
100
AcDbDictionary
281
     1
  3
DIMASSOC
350
1240
  3
PROJECTNAME
350
1241
  0
DICTIONARY
  5
102E
102
{ACAD_REACTORS
330
102D
102
}
330
102D
100
AcDbDictionary
281
     1
  0
XRECORD
  5
F3C
102
{ACAD_REACTORS
330
2BC
102
}
330
2BC
100
AcDbXrecord
280
     1
340
1A
  0
XRECORD
  5
F3B
102
{ACAD_REACTORS
330
2BA
102
}
330
2BA
100
AcDbXrecord
280
     1
340
17
  0
SORTENTSTABLE
  5
1001
102
{ACAD_REACTORS
330
1000
102
}
330
1000
100
AcDbSortentsTable
330
FFF
  0
SORTENTSTABLE
  5
100A
102
{ACAD_REACTORS
330
1009
102
}
330
1009
100
AcDbSortentsTable
330
1008
  0
XRECORD
  5
12B9
102
{ACAD_REACTORS
330
12B8
102
}
330
12B8
100
AcDbXrecord
280
     1
102
SHADEPLOT
 70
     0
  0
XRECORD
  5
12BB
102
{ACAD_REACTORS
330
12BA
102
}
330
12BA
100
AcDbXrecord
280
     1
102
SHADEPLOT
 70
     0
  0
LAYOUT
  5
28A
102
{ACAD_XDICTIONARY
360
12BC
102
}
102
{ACAD_REACTORS
330
288
102
}
330
288
100
AcDbPlotSettings
  1

  2
Acrobat Distiller
  4
A3
  6

 40
3.174999952316284
 41
3.174999952316284
 42
3.17498779296875
 43
3.17498779296875
 44
297.0318298339844
 45
420.1583251953125
 46
0.0
 47
0.0
 48
0.0
 49
0.0
140
0.0
141
0.0
142
1.0
143
1.0
 70
 11952
 72
     1
 73
     1
 74
     2
  7
print.ctb
 75
    16
147
1.0
148
0.0
149
0.0
100
AcDbLayout
  1
Model
 70
     1
 71
     0
 10
0.0
 20
0.0
 11
12.0
 21
9.0
 12
0.0
 22
0.0
 32
0.0
 14
0.0
 24
0.0
 34
0.0
 15
0.0
 25
0.0
 35
0.0
146
0.0
 13
0.0
 23
0.0
 33
0.0
 16
1.0
 26
0.0
 36
0.0
 17
0.0
 27
1.0
 37
0.0
 76
     0
330
1A
  0
LAYOUT
  5
28B
102
{ACAD_XDICTIONARY
360
12BE
102
}
102
{ACAD_REACTORS
330
288
102
}
330
288
100
AcDbPlotSettings
  1

  2
Acrobat Distiller
  4

  6

 40
0.0
 41
0.0
 42
0.0
 43
0.0
 44
0.0
 45
0.0
 46
0.0
 47
0.0
 48
0.0
 49
0.0
140
0.0
141
0.0
142
1.0
143
1.0
 70
   688
 72
     0
 73
     0
 74
     5
  7
print.ctb
 75
    16
147
1.0
148
0.0
149
0.0
100
AcDbLayout
  1
ﾚｲｱｳﾄ1
 70
     1
 71
     1
 10
0.0
 20
0.0
 11
420.0
 21
297.0
 12
0.0
 22
0.0
 32
0.0
 14
0.0
 24
0.0
 34
0.0
 15
420.0
 25
297.0
 35
0.0
146
0.0
 13
0.0
 23
0.0
 33
0.0
 16
1.0
 26
0.0
 36
0.0
 17
0.0
 27
1.0
 37
0.0
 76
     0
330
17
331
64
  0
MLINESTYLE
  5
13
102
{ACAD_REACTORS
330
E
102
}
330
E
100
AcDbMlineStyle
  2
STANDARD
 70
     0
  3

 62
     0
 51
90.0
 52
90.0
 71
     2
 49
0.5
 62
   256
  6
BYLAYER
 49
-0.5
 62
   256
  6
BYLAYER
  0
ACDBPLACEHOLDER
  5
287
102
{ACAD_REACTORS
330
286
102
}
330
286
  0
XRECORD
  5
12B7
102
{ACAD_REACTORS
330
12B5
102
}
330
12B5
100
AcDbXrecord
280
     1
340
F92
  0
XRECORD
  5
12B6
102
{ACAD_REACTORS
330
12B5
102
}
330
12B5
100
AcDbXrecord
280
     1
340
F91
  0
DICTIONARYVAR
  5
1240
102
{ACAD_REACTORS
330
123F
102
}
330
123F
100
DictionaryVariables
280
     0
  1
1
  0
DICTIONARYVAR
  5
1241
102
{ACAD_REACTORS
330
123F
102
}
330
123F
100
DictionaryVariables
280
     0
  1

  0
DICTIONARY
  5
12BC
330
28A
100
AcDbDictionary
280
     1
281
     1
  3
ACAD_XREC_ROUNDTRIP
360
12BD
  0
DICTIONARY
  5
12BE
330
28B
100
AcDbDictionary
280
     1
281
     1
  3
ACAD_XREC_ROUNDTRIP
360
12BF
  0
XRECORD
  5
12BD
102
{ACAD_REACTORS
330
12BC
102
}
330
12BC
100
AcDbXrecord
280
     1
102
SHADEPLOT
 70
     0
102
SHADEPLOTRESLEVEL
 70
     2
102
SHADEPLOTCUSTOMDPI
 70
   300
  0
XRECORD
  5
12BF
102
{ACAD_REACTORS
330
12BE
102
}
330
12BE
100
AcDbXrecord
280
     1
102
SHADEPLOT
 70
     0
102
SHADEPLOTRESLEVEL
 70
     2
102
SHADEPLOTCUSTOMDPI
 70
   300
  0
ENDSEC
  0
EOF
