  0
SECTION
  2
HEADER
  9
$ACADVER
  1
AC1015
  9
$ACADMAINTVER
 70
     6
  9
$DWGCODEPAGE
  3
ANSI_932
  9
$INSBASE
 10
0.0
 20
0.0
 30
0.0
  9
$EXTMIN
 10
6.999999517101059
 20
6.999999961356365
 30
0.0
  9
$EXTMAX
 10
405.7999995171011
 20
282.7999999613564
 30
0.0
  9
$LIMMIN
 10
0.0
 20
0.0
  9
$LIMMAX
 10
420.0
 20
297.0
  9
$ORTHOMODE
 70
     1
  9
$REGENMODE
 70
     1
  9
$FILLMODE
 70
     1
  9
$QTEXTMODE
 70
     0
  9
$MIRRTEXT
 70
     1
  9
$LTSCALE
 40
1.0
  9
$ATTMODE
 70
     1
  9
$TEXTSIZE
 40
2.5
  9
$TRACEWID
 40
1.0
  9
$TEXTSTYLE
  7
STANDARD
  9
$CLAYER
  8
0
  9
$CELTYPE
  6
BYLAYER
  9
$CECOLOR
 62
   256
  9
$CELTSCALE
 40
1.0
  9
$DISPSILH
 70
     0
  9
$DIMSCALE
 40
1.0
  9
$DIMASZ
 40
3.0
  9
$DIMEXO
 40
3.0
  9
$DIMDLI
 40
7.0
  9
$DIMRND
 40
0.0
  9
$DIMDLE
 40
0.0
  9
$DIMEXE
 40
1.5
  9
$DIMTP
 40
0.0
  9
$DIMTM
 40
0.0
  9
$DIMTXT
 40
3.0
  9
$DIMCEN
 40
150.0
  9
$DIMTSZ
 40
0.0
  9
$DIMTOL
 70
     0
  9
$DIMLIM
 70
     0
  9
$DIMTIH
 70
     0
  9
$DIMTOH
 70
     0
  9
$DIMSE1
 70
     0
  9
$DIMSE2
 70
     0
  9
$DIMTAD
 70
     3
  9
$DIMZIN
 70
     0
  9
$DIMBLK
  1

  9
$DIMASO
 70
     1
  9
$DIMSHO
 70
     1
  9
$DIMPOST
  1

  9
$DIMAPOST
  1

  9
$DIMALT
 70
     0
  9
$DIMALTD
 70
     2
  9
$DIMALTF
 40
25.4
  9
$DIMLFAC
 40
1.0
  9
$DIMTOFL
 70
     1
  9
$DIMTVP
 40
0.0
  9
$DIMTIX
 70
     0
  9
$DIMSOXD
 70
     0
  9
$DIMSAH
 70
     1
  9
$DIMBLK1
  1
OPEN
  9
$DIMBLK2
  1
OPEN
  9
$DIMSTYLE
  2
STANDARD
  9
$DIMCLRD
 70
   256
  9
$DIMCLRE
 70
   256
  9
$DIMCLRT
 70
   256
  9
$DIMTFAC
 40
1.0
  9
$DIMGAP
 40
1.0
  9
$DIMJUST
 70
     0
  9
$DIMSD1
 70
     0
  9
$DIMSD2
 70
     0
  9
$DIMTOLJ
 70
     1
  9
$DIMTZIN
 70
     0
  9
$DIMALTZ
 70
     0
  9
$DIMALTTZ
 70
     0
  9
$DIMUPT
 70
     1
  9
$DIMDEC
 70
     0
  9
$DIMTDEC
 70
     0
  9
$DIMALTU
 70
     2
  9
$DIMALTTD
 70
     2
  9
$DIMTXSTY
  7
STANDARD
  9
$DIMAUNIT
 70
     0
  9
$DIMADEC
 70
     0
  9
$DIMALTRND
 40
0.0
  9
$DIMAZIN
 70
     0
  9
$DIMDSEP
 70
    46
  9
$DIMATFIT
 70
     3
  9
$DIMFRAC
 70
     0
  9
$DIMLDRBLK
  1
OPEN
  9
$DIMLUNIT
 70
     2
  9
$DIMLWD
 70
    -1
  9
$DIMLWE
 70
    -1
  9
$DIMTMOVE
 70
     0
  9
$LUNITS
 70
     2
  9
$LUPREC
 70
     4
  9
$SKETCHINC
 40
1.0
  9
$FILLETRAD
 40
0.5
  9
$AUNITS
 70
     0
  9
$AUPREC
 70
     0
  9
$MENU
  1
.
  9
$ELEVATION
 40
0.0
  9
$PELEVATION
 40
0.0
  9
$THICKNESS
 40
0.0
  9
$LIMCHECK
 70
     0
  9
$CHAMFERA
 40
10.0
  9
$CHAMFERB
 40
10.0
  9
$CHAMFERC
 40
20.0
  9
$CHAMFERD
 40
0.0
  9
$SKPOLY
 70
     0
  9
$TDCREATE
 40
2451100.394552546
  9
$TDUCREATE
 40
2451100.019552546
  9
$TDUPDATE
 40
2454876.402639386
  9
$TDUUPDATE
 40
2454876.027639386
  9
$TDINDWG
 40
0.1402851273
  9
$TDUSRTIMER
 40
0.1402851273
  9
$USRTIMER
 70
     1
  9
$ANGBASE
 50
0.0
  9
$ANGDIR
 70
     0
  9
$PDMODE
 70
     0
  9
$PDSIZE
 40
0.0
  9
$PLINEWID
 40
0.0
  9
$SPLFRAME
 70
     0
  9
$SPLINETYPE
 70
     6
  9
$SPLINESEGS
 70
     8
  9
$HANDSEED
  5
3702
  9
$SURFTAB1
 70
     6
  9
$SURFTAB2
 70
     6
  9
$SURFTYPE
 70
     6
  9
$SURFU
 70
     6
  9
$SURFV
 70
     6
  9
$UCSBASE
  2

  9
$UCSNAME
  2

  9
$UCSORG
 10
0.0
 20
0.0
 30
0.0
  9
$UCSXDIR
 10
1.0
 20
0.0
 30
0.0
  9
$UCSYDIR
 10
0.0
 20
1.0
 30
0.0
  9
$UCSORTHOREF
  2

  9
$UCSORTHOVIEW
 70
     0
  9
$UCSORGTOP
 10
0.0
 20
0.0
 30
0.0
  9
$UCSORGBOTTOM
 10
0.0
 20
0.0
 30
0.0
  9
$UCSORGLEFT
 10
0.0
 20
0.0
 30
0.0
  9
$UCSORGRIGHT
 10
0.0
 20
0.0
 30
0.0
  9
$UCSORGFRONT
 10
0.0
 20
0.0
 30
0.0
  9
$UCSORGBACK
 10
0.0
 20
0.0
 30
0.0
  9
$PUCSBASE
  2

  9
$PUCSNAME
  2

  9
$PUCSORG
 10
0.0
 20
0.0
 30
0.0
  9
$PUCSXDIR
 10
1.0
 20
0.0
 30
0.0
  9
$PUCSYDIR
 10
0.0
 20
1.0
 30
0.0
  9
$PUCSORTHOREF
  2

  9
$PUCSORTHOVIEW
 70
     0
  9
$PUCSORGTOP
 10
0.0
 20
0.0
 30
0.0
  9
$PUCSORGBOTTOM
 10
0.0
 20
0.0
 30
0.0
  9
$PUCSORGLEFT
 10
0.0
 20
0.0
 30
0.0
  9
$PUCSORGRIGHT
 10
0.0
 20
0.0
 30
0.0
  9
$PUCSORGFRONT
 10
0.0
 20
0.0
 30
0.0
  9
$PUCSORGBACK
 10
0.0
 20
0.0
 30
0.0
  9
$USERI1
 70
     0
  9
$USERI2
 70
     0
  9
$USERI3
 70
     0
  9
$USERI4
 70
     0
  9
$USERI5
 70
     0
  9
$USERR1
 40
0.0
  9
$USERR2
 40
0.0
  9
$USERR3
 40
0.0
  9
$USERR4
 40
0.0
  9
$USERR5
 40
0.0
  9
$WORLDVIEW
 70
     1
  9
$SHADEDGE
 70
     3
  9
$SHADEDIF
 70
    70
  9
$TILEMODE
 70
     1
  9
$MAXACTVP
 70
    16
  9
$PINSBASE
 10
0.0
 20
0.0
 30
0.0
  9
$PLIMCHECK
 70
     0
  9
$PEXTMIN
 10
0.0
 20
0.0
 30
0.0
  9
$PEXTMAX
 10
420.0
 20
297.0
 30
0.0
  9
$PLIMMIN
 10
0.0
 20
0.0
  9
$PLIMMAX
 10
420.0
 20
297.0
  9
$UNITMODE
 70
     0
  9
$VISRETAIN
 70
     0
  9
$PLINEGEN
 70
     0
  9
$PSLTSCALE
 70
     1
  9
$TREEDEPTH
 70
  3020
  9
$CMLSTYLE
  2
STANDARD
  9
$CMLJUST
 70
     0
  9
$CMLSCALE
 40
1.0
  9
$PROXYGRAPHICS
 70
     1
  9
$MEASUREMENT
 70
     1
  9
$CELWEIGHT
370
    -1
  9
$ENDCAPS
280
     0
  9
$JOINSTYLE
280
     0
  9
$LWDISPLAY
290
     0
  9
$INSUNITS
 70
     0
  9
$HYPERLINKBASE
  1

  9
$STYLESHEET
  1
print.ctb
  9
$XEDIT
290
     1
  9
$CEPSNTYPE
380
     0
  9
$PSTYLEMODE
290
     1
  9
$FINGERPRINTGUID
  2
{137E7082-72B8-11D5-AA3E-50A453C10000}
  9
$VERSIONGUID
  2
{AD2E696C-BBF1-4727-91A7-42FCA522B6C7}
  9
$EXTNAMES
290
     1
  9
$PSVPSCALE
 40
0.0
  9
$OLESTARTUP
290
     0
  0
ENDSEC
  0
SECTION
  2
CLASSES
  0
CLASS
  1
ACDBDICTIONARYWDFLT
  2
AcDbDictionaryWithDefault
  3
AutoCAD 2000
 90
        0
280
     0
281
     0
  0
CLASS
  1
ACDBPLACEHOLDER
  2
AcDbPlaceHolder
  3
AutoCAD 2000
 90
        0
280
     0
281
     0
  0
CLASS
  1
LAYOUT
  2
AcDbLayout
  3
AutoCAD 2000
 90
        0
280
     0
281
     0
  0
CLASS
  1
LONG_TRANSACTION
  2
AcDbLongTransaction
  3
AutoCAD 2000
 90
    32768
280
     0
281
     0
  0
CLASS
  1
LWPOLYLINE
  2
AcDbPolyline
  3
AutoCAD 2000
 90
    32768
280
     0
281
     1
  0
CLASS
  1
HATCH
  2
AcDbHatch
  3
AutoCAD 2000
 90
    32768
280
     0
281
     1
  0
CLASS
  1
XRECORD
  2
AcDbXrecord
  3
AutoCAD 2000
 90
    32768
280
     0
281
     0
  0
CLASS
  1
LONG_TRANSACTION
  2
AcDbLongTransaction
  3
AutoCAD 2000
 90
    32768
280
     0
281
     0
  0
CLASS
  1
LWPOLYLINE
  2
AcDbPolyline
  3
AutoCAD 2000
 90
    32768
280
     0
281
     1
  0
CLASS
  1
HATCH
  2
AcDbHatch
  3
AutoCAD 2000
 90
    32768
280
     0
281
     1
  0
CLASS
  1
XRECORD
  2
AcDbXrecord
  3
AutoCAD 2000
 90
    32768
280
     0
281
     0
  0
CLASS
  1
LONG_TRANSACTION
  2
AcDbLongTransaction
  3
AutoCAD 2000
 90
    32768
280
     0
281
     0
  0
CLASS
  1
LWPOLYLINE
  2
AcDbPolyline
  3
AutoCAD 2000
 90
    32768
280
     0
281
     1
  0
CLASS
  1
HATCH
  2
AcDbHatch
  3
AutoCAD 2000
 90
    32768
280
     0
281
     1
  0
CLASS
  1
XRECORD
  2
AcDbXrecord
  3
AutoCAD 2000
 90
    32768
280
     0
281
     0
  0
CLASS
  1
LONG_TRANSACTION
  2
AcDbLongTransaction
  3
AutoCAD 2000
 90
    32768
280
     0
281
     0
  0
CLASS
  1
LWPOLYLINE
  2
AcDbPolyline
  3
AutoCAD 2000
 90
    32768
280
     0
281
     1
  0
CLASS
  1
HATCH
  2
AcDbHatch
  3
AutoCAD 2000
 90
    32768
280
     0
281
     1
  0
CLASS
  1
XRECORD
  2
AcDbXrecord
  3
AutoCAD 2000
 90
    32768
280
     0
281
     0
  0
CLASS
  1
LONG_TRANSACTION
  2
AcDbLongTransaction
  3
AutoCAD 2000
 90
    32768
280
     0
281
     0
  0
CLASS
  1
LWPOLYLINE
  2
AcDbPolyline
  3
AutoCAD 2000
 90
    32768
280
     0
281
     1
  0
CLASS
  1
HATCH
  2
AcDbHatch
  3
AutoCAD 2000
 90
    32768
280
     0
281
     1
  0
CLASS
  1
XRECORD
  2
AcDbXrecord
  3
AutoCAD 2000
 90
    32768
280
     0
281
     0
  0
CLASS
  1
LONG_TRANSACTION
  2
AcDbLongTransaction
  3
AutoCAD 2000
 90
    32768
280
     0
281
     0
  0
CLASS
  1
LWPOLYLINE
  2
AcDbPolyline
  3
AutoCAD 2000
 90
    32768
280
     0
281
     1
  0
CLASS
  1
HATCH
  2
AcDbHatch
  3
AutoCAD 2000
 90
    32768
280
     0
281
     1
  0
CLASS
  1
XRECORD
  2
AcDbXrecord
  3
AutoCAD 2000
 90
    32768
280
     0
281
     0
  0
CLASS
  1
LONG_TRANSACTION
  2
AcDbLongTransaction
  3
AutoCAD 2000
 90
    32768
280
     0
281
     0
  0
CLASS
  1
LWPOLYLINE
  2
AcDbPolyline
  3
AutoCAD 2000
 90
    32768
280
     0
281
     1
  0
CLASS
  1
HATCH
  2
AcDbHatch
  3
AutoCAD 2000
 90
    32768
280
     0
281
     1
  0
CLASS
  1
XRECORD
  2
AcDbXrecord
  3
AutoCAD 2000
 90
    32768
280
     0
281
     0
  0
CLASS
  1
LONG_TRANSACTION
  2
AcDbLongTransaction
  3
AutoCAD 2000
 90
    32768
280
     0
281
     0
  0
CLASS
  1
LWPOLYLINE
  2
AcDbPolyline
  3
AutoCAD 2000
 90
    32768
280
     0
281
     1
  0
CLASS
  1
HATCH
  2
AcDbHatch
  3
AutoCAD 2000
 90
    32768
280
     0
281
     1
  0
CLASS
  1
XRECORD
  2
AcDbXrecord
  3
AutoCAD 2000
 90
    32768
280
     0
281
     0
  0
CLASS
  1
LONG_TRANSACTION
  2
AcDbLongTransaction
  3
AutoCAD 2000
 90
    32768
280
     0
281
     0
  0
CLASS
  1
LWPOLYLINE
  2
AcDbPolyline
  3
AutoCAD 2000
 90
    32768
280
     0
281
     1
  0
CLASS
  1
HATCH
  2
AcDbHatch
  3
AutoCAD 2000
 90
    32768
280
     0
281
     1
  0
CLASS
  1
XRECORD
  2
AcDbXrecord
  3
AutoCAD 2000
 90
    32768
280
     0
281
     0
  0
ENDSEC
  0
SECTION
  2
TABLES
  0
TABLE
  2
VPORT
  5
8
330
0
100
AcDbSymbolTable
 70
     2
  0
VPORT
  5
3701
330
8
100
AcDbSymbolTableRecord
100
AcDbViewportTableRecord
  2
*Active
 70
     0
 10
0.0
 20
0.0
 11
1.0
 21
1.0
 12
221.8595830959128
 22
145.4221672130834
 13
0.0
 23
0.0
 14
5.0
 24
5.0
 15
0.0
 25
0.0
 16
0.0
 26
0.0
 36
1.0
 17
0.0
 27
0.0
 37
0.0
 40
329.1702431544799
 41
1.553475935828877
 42
50.0
 43
0.0
 44
0.0
 50
0.0
 51
0.0
 71
     0
 72
   100
 73
     1
 74
     0
 75
     0
 76
     0
 77
     0
 78
     0
281
     0
 65
     1
110
0.0
120
0.0
130
0.0
111
1.0
121
0.0
131
0.0
112
0.0
122
1.0
132
0.0
 79
     0
146
0.0
  0
ENDTAB
  0
TABLE
  2
LTYPE
  5
5
330
0
100
AcDbSymbolTable
 70
     2
  0
LTYPE
  5
14
330
5
100
AcDbSymbolTableRecord
100
AcDbLinetypeTableRecord
  2
BYBLOCK
 70
     0
  3

 72
    65
 73
     0
 40
0.0
  0
LTYPE
  5
15
330
5
100
AcDbSymbolTableRecord
100
AcDbLinetypeTableRecord
  2
BYLAYER
 70
     0
  3

 72
    65
 73
     0
 40
0.0
  0
LTYPE
  5
16
330
5
100
AcDbSymbolTableRecord
100
AcDbLinetypeTableRecord
  2
CONTINUOUS
 70
     0
  3
Solid line
 72
    65
 73
     0
 40
0.0
  0
LTYPE
  5
120
330
5
100
AcDbSymbolTableRecord
100
AcDbLinetypeTableRecord
  2
CENTER
 70
     0
  3
____ _ ____ _ ____ _ ____ _ ____ _ ____ _ ____ 
 72
    65
 73
     4
 40
2.0
 49
1.25
 74
     0
 49
-0.25
 74
     0
 49
0.25
 74
     0
 49
-0.25
 74
     0
  0
ENDTAB
  0
TABLE
  2
LAYER
  5
2
102
{ACAD_XDICTIONARY
360
F94
102
}
330
0
100
AcDbSymbolTable
 70
     8
  0
LAYER
  5
F
330
2
100
AcDbSymbolTableRecord
100
AcDbLayerTableRecord
  2
0
 70
     0
 62
     7
  6
CONTINUOUS
370
    -3
390
623
  0
LAYER
  5
62
330
2
100
AcDbSymbolTableRecord
100
AcDbLayerTableRecord
  2
VIEWPORT
 70
     0
 62
     7
  6
CONTINUOUS
370
    -3
390
623
  0
LAYER
  5
6B
330
2
100
AcDbSymbolTableRecord
100
AcDbLayerTableRecord
  2
ZUWAKU
 70
     0
 62
     7
  6
CONTINUOUS
370
    -3
390
623
  0
LAYER
  5
1F2
330
2
100
AcDbSymbolTableRecord
100
AcDbLayerTableRecord
  2
SEIHIN
 70
     0
 62
     3
  6
CONTINUOUS
370
    -3
390
623
  0
LAYER
  5
1F3
330
2
100
AcDbSymbolTableRecord
100
AcDbLayerTableRecord
  2
SUNPOU
 70
     0
 62
     4
  6
CONTINUOUS
370
    -3
390
623
  0
LAYER
  5
1F4
330
2
100
AcDbSymbolTableRecord
100
AcDbLayerTableRecord
  2
CENTER L
 70
     0
 62
     1
  6
CENTER
370
    -3
390
623
  0
LAYER
  5
1F5
330
2
100
AcDbSymbolTableRecord
100
AcDbLayerTableRecord
  2
DEFPOINTS
 70
     0
 62
     7
  6
CONTINUOUS
290
     0
370
    -3
390
623
  0
LAYER
  5
A03
330
2
100
AcDbSymbolTableRecord
100
AcDbLayerTableRecord
  2
moji
 70
     0
 62
     2
  6
CONTINUOUS
370
    -3
390
623
  0
ENDTAB
  0
TABLE
  2
STYLE
  5
3
330
0
100
AcDbSymbolTable
 70
     2
  0
STYLE
  5
10
330
3
100
AcDbSymbolTableRecord
100
AcDbTextStyleTableRecord
  2
STANDARD
 70
     0
 40
0.0
 41
1.0
 50
0.0
 71
     0
 42
2.5
  3
TXT
  4
bigfont.shx
  0
STYLE
  5
A04
330
3
100
AcDbSymbolTableRecord
100
AcDbTextStyleTableRecord
  2
ｽﾀｲﾙ1
 70
     0
 40
0.0
 41
1.0
 50
0.0
 71
     0
 42
2.5
  3
MS PGothic.ttf
  4

1001
ACAD
1000
MS PGothic
1071
    32818
  0
ENDTAB
  0
TABLE
  2
VIEW
  5
6
330
0
100
AcDbSymbolTable
 70
     0
  0
ENDTAB
  0
TABLE
  2
UCS
  5
7
330
0
100
AcDbSymbolTable
 70
     0
  0
ENDTAB
  0
TABLE
  2
APPID
  5
9
330
0
100
AcDbSymbolTable
 70
     1
  0
APPID
  5
11
330
9
100
AcDbSymbolTableRecord
100
AcDbRegAppTableRecord
  2
ACAD
 70
     0
  0
ENDTAB
  0
TABLE
  2
DIMSTYLE
  5
A
330
0
100
AcDbSymbolTable
 70
     1
100
AcDbDimStyleTable
 71
     0
  0
DIMSTYLE
105
1D
102
{ACAD_REACTORS
330
356C
330
356B
330
3570
330
356E
330
356F
330
356D
102
}
330
A
100
AcDbSymbolTableRecord
100
AcDbDimStyleTableRecord
  2
STANDARD
 70
     0
340
10
  0
ENDTAB
  0
TABLE
  2
BLOCK_RECORD
  5
1
330
0
100
AcDbSymbolTable
 70
     8
  0
BLOCK_RECORD
  5
1A
102
{ACAD_XDICTIONARY
360
651
102
}
330
1
100
AcDbSymbolTableRecord
100
AcDbBlockTableRecord
  2
*MODEL_SPACE
340
626
  0
BLOCK_RECORD
  5
17
102
{ACAD_XDICTIONARY
360
64F
102
}
330
1
100
AcDbSymbolTableRecord
100
AcDbBlockTableRecord
  2
*PAPER_SPACE
340
627
  0
BLOCK_RECORD
  5
B2
330
1
100
AcDbSymbolTableRecord
100
AcDbBlockTableRecord
  2
_OPEN
340
0
102
{BLKREFS
331
3685
331
3686
331
368E
331
368F
331
367C
331
367D
331
3697
331
3698
331
36A2
331
36A3
331
36AB
331
36AC
102
}
  0
BLOCK_RECORD
  5
2D9C
330
1
100
AcDbSymbolTableRecord
100
AcDbBlockTableRecord
  2
*X1
340
0
102
{BLKREFS
331
13A6
102
}
  0
BLOCK_RECORD
  5
3571
330
1
100
AcDbSymbolTableRecord
100
AcDbBlockTableRecord
  2
*D2
340
0
  0
BLOCK_RECORD
  5
357D
330
1
100
AcDbSymbolTableRecord
100
AcDbBlockTableRecord
  2
*D3
340
0
  0
BLOCK_RECORD
  5
3589
330
1
100
AcDbSymbolTableRecord
100
AcDbBlockTableRecord
  2
*D4
340
0
  0
BLOCK_RECORD
  5
3595
330
1
100
AcDbSymbolTableRecord
100
AcDbBlockTableRecord
  2
*D5
340
0
  0
BLOCK_RECORD
  5
35A1
330
1
100
AcDbSymbolTableRecord
100
AcDbBlockTableRecord
  2
*D6
340
0
  0
BLOCK_RECORD
  5
35AF
330
1
100
AcDbSymbolTableRecord
100
AcDbBlockTableRecord
  2
*D7
340
0
  0
ENDTAB
  0
ENDSEC
  0
SECTION
  2
BLOCKS
  0
BLOCK
  5
1B
330
1A
100
AcDbEntity
  8
0
100
AcDbBlockBegin
  2
*MODEL_SPACE
 70
     0
 10
0.0
 20
0.0
 30
0.0
  3
*MODEL_SPACE
  1

  0
ENDBLK
  5
1C
330
1A
100
AcDbEntity
  8
0
100
AcDbBlockEnd
  0
BLOCK
  5
18
330
17
100
AcDbEntity
 67
     1
  8
0
100
AcDbBlockBegin
  2
*PAPER_SPACE
 70
     0
 10
0.0
 20
0.0
 30
0.0
  3
*PAPER_SPACE
  1

  0
ENDBLK
  5
19
330
17
100
AcDbEntity
 67
     1
  8
0
100
AcDbBlockEnd
  0
BLOCK
  5
B3
330
B2
100
AcDbEntity
  8
0
100
AcDbBlockBegin
  2
_OPEN
 70
     0
 10
0.0
 20
0.0
 30
0.0
  3
_OPEN
  1

  0
LINE
  5
B4
330
B2
100
AcDbEntity
  8
0
  6
ByBlock
 62
     0
100
AcDbLine
 10
-1.0
 20
0.1666666666666666
 30
0.0
 11
0.0
 21
0.0
 31
0.0
  0
LINE
  5
B5
330
B2
100
AcDbEntity
  8
0
  6
ByBlock
 62
     0
100
AcDbLine
 10
0.0
 20
0.0
 30
0.0
 11
-1.0
 21
-0.1666666666666666
 31
0.0
  0
LINE
  5
B6
330
B2
100
AcDbEntity
  8
0
  6
ByBlock
 62
     0
100
AcDbLine
 10
0.0
 20
0.0
 30
0.0
 11
-1.0
 21
0.0
 31
0.0
  0
ENDBLK
  5
B7
330
B2
100
AcDbEntity
  8
0
100
AcDbBlockEnd
  0
BLOCK
  5
2F30
330
2D9C
100
AcDbEntity
  8
0
100
AcDbBlockBegin
  2
*X1
 70
     1
 10
0.0
 20
0.0
 30
0.0
  3
*X1
  1

  0
LINE
  5
2D9D
330
2D9C
100
AcDbEntity
  8
0
 62
     0
100
AcDbLine
 10
35.12110559449155
 20
10.9020844964989
 30
0.0
 11
34.79819012963409
 21
11.22499996135638
 31
0.0
  0
LINE
  5
2D9E
330
2D9C
100
AcDbEntity
  8
0
 62
     0
100
AcDbLine
 10
35.12110559449155
 20
10.45307169044545
 30
0.0
 11
34.34917732358062
 21
11.22499996135638
 31
0.0
  0
LINE
  5
2D9F
330
2D9C
100
AcDbEntity
  8
0
 62
     0
100
AcDbLine
 10
35.12110559449152
 20
10.00405888439198
 30
0.0
 11
33.91053862148405
 21
11.21462585739945
 31
0.0
  0
LINE
  5
2DA0
330
2D9C
100
AcDbEntity
  8
0
 62
     0
100
AcDbLine
 10
35.12110559449155
 20
9.555046078338563
 30
0.0
 11
33.72110559449152
 21
10.95504607833856
 31
0.0
  0
LINE
  5
2DA1
330
2D9C
100
AcDbEntity
  8
0
 62
     0
100
AcDbLine
 10
35.12110559449155
 20
9.106033272285088
 30
0.0
 11
33.72110559449152
 21
10.50603327228512
 31
0.0
  0
LINE
  5
2DA2
330
2D9C
100
AcDbEntity
  8
0
 62
     0
100
AcDbLine
 10
35.12110559449152
 20
8.657020466231614
 30
0.0
 11
33.72110559449149
 21
10.05702046623164
 31
0.0
  0
LINE
  5
2DA3
330
2D9C
100
AcDbEntity
  8
0
 62
     0
100
AcDbLine
 10
32.6711055944915
 20
10.65800766017821
 30
0.0
 11
32.10411329331336
 21
11.22499996135638
 31
0.0
  0
LINE
  5
2DA4
330
2D9C
100
AcDbEntity
  8
0
 62
     0
100
AcDbLine
 10
35.12110559449155
 20
8.208007660178196
 30
0.0
 11
33.72110559449152
 21
9.60800766017823
 31
0.0
  0
LINE
  5
2DA5
330
2D9C
100
AcDbEntity
  8
0
 62
     0
100
AcDbLine
 10
32.6711055944915
 20
10.20899485412476
 30
0.0
 11
31.65510048725988
 21
11.22499996135636
 31
0.0
  0
LINE
  5
2DA6
330
2D9C
100
AcDbEntity
  8
0
 62
     0
100
AcDbLine
 10
35.12110559449152
 20
7.758994854124722
 30
0.0
 11
33.72110559449152
 21
9.158994854124756
 31
0.0
  0
LINE
  5
2DA7
330
2D9C
100
AcDbEntity
  8
0
 62
     0
100
AcDbLine
 10
32.6711055944915
 20
9.759982048071293
 30
0.0
 11
31.31835011192297
 21
11.11273753063983
 31
0.0
  0
LINE
  5
2DA8
330
2D9C
100
AcDbEntity
  8
0
 62
     0
100
AcDbLine
 10
35.12110559449152
 20
7.309982048071276
 30
0.0
 11
33.72110559449149
 21
8.709982048071282
 31
0.0
  0
LINE
  5
2DA9
330
2D9C
100
AcDbEntity
  8
0
 62
     0
100
AcDbLine
 10
32.67110559449156
 20
9.31096924201779
 30
0.0
 11
31.27110559449147
 21
10.71096924201785
 31
0.0
  0
LINE
  5
2DAA
330
2D9C
100
AcDbEntity
  8
0
 62
     0
100
AcDbLine
 10
35.12110559449155
 20
6.860969242017802
 30
0.0
 11
33.72110559449152
 21
8.260969242017836
 31
0.0
  0
LINE
  5
2DAB
330
2D9C
100
AcDbEntity
  8
0
 62
     0
100
AcDbLine
 10
32.67110559449153
 20
8.861956435964344
 30
0.0
 11
31.27110559449147
 21
10.26195643596443
 31
0.0
  0
LINE
  5
2DAC
330
2D9C
100
AcDbEntity
  8
0
 62
     0
100
AcDbLine
 10
35.12110559449152
 20
6.411956435964356
 30
0.0
 11
33.72110559449149
 21
7.81195643596439
 31
0.0
  0
LINE
  5
2DAD
330
2D9C
100
AcDbEntity
  8
0
 62
     0
100
AcDbLine
 10
32.67110559449153
 20
8.412943629910898
 30
0.0
 11
31.27110559449147
 21
9.812943629910961
 31
0.0
  0
LINE
  5
2DAE
330
2D9C
100
AcDbEntity
  8
0
 62
     0
100
AcDbLine
 10
35.12110559449152
 20
5.96294362991091
 30
0.0
 11
33.72110559449149
 21
7.362943629910944
 31
0.0
  0
LINE
  5
2DAF
330
2D9C
100
AcDbEntity
  8
0
 62
     0
100
AcDbLine
 10
32.6711055944915
 20
7.963930823857424
 30
0.0
 11
31.27110559449144
 21
9.363930823857486
 31
0.0
  0
LINE
  5
2DB0
330
2D9C
100
AcDbEntity
  8
0
 62
     0
100
AcDbLine
 10
35.12110559449149
 20
5.513930823857435
 30
0.0
 11
33.72110559449149
 21
6.913930823857469
 31
0.0
  0
LINE
  5
2DB1
330
2D9C
100
AcDbEntity
  8
0
 62
     0
100
AcDbLine
 10
32.67110559449153
 20
7.514918017804006
 30
0.0
 11
31.27110559449147
 21
8.914918017804069
 31
0.0
  0
LINE
  5
2DB2
330
2D9C
100
AcDbEntity
  8
0
 62
     0
100
AcDbLine
 10
29.5211055944915
 20
10.66491801780404
 30
0.0
 11
28.96102365093918
 21
11.22499996135636
 31
0.0
  0
LINE
  5
2DB3
330
2D9C
100
AcDbEntity
  8
0
 62
     0
100
AcDbLine
 10
35.12110559449152
 20
5.064918017804018
 30
0.0
 11
33.72110559449149
 21
6.464918017804023
 31
0.0
  0
LINE
  5
2DB4
330
2D9C
100
AcDbEntity
  8
0
 62
     0
100
AcDbLine
 10
32.67110559449153
 20
7.065905211750532
 30
0.0
 11
31.27110559449144
 21
8.465905211750595
 31
0.0
  0
LINE
  5
2DB5
330
2D9C
100
AcDbEntity
  8
0
 62
     0
100
AcDbLine
 10
29.52110559449147
 20
10.21590521175056
 30
0.0
 11
28.5120108448857
 21
11.22499996135636
 31
0.0
  0
LINE
  5
2DB6
330
2D9C
100
AcDbEntity
  8
0
 62
     0
100
AcDbLine
 10
35.12110559449152
 20
4.615905211750543
 30
0.0
 11
33.72110559449149
 21
6.015905211750578
 31
0.0
  0
LINE
  5
2DB7
330
2D9C
100
AcDbEntity
  8
0
 62
     0
100
AcDbLine
 10
32.6711055944915
 20
6.616892405697086
 30
0.0
 11
31.27110559449147
 21
8.016892405697092
 31
0.0
  0
LINE
  5
2DB8
330
2D9C
100
AcDbEntity
  8
0
 62
     0
100
AcDbLine
 10
29.52110559449147
 20
9.76689240569712
 30
0.0
 11
28.17122423282947
 21
11.11677376735912
 31
0.0
  0
LINE
  5
2DB9
330
2D9C
100
AcDbEntity
  8
0
 62
     0
100
AcDbLine
 10
35.12110559449149
 20
4.166892405697097
 30
0.0
 11
33.72110559449146
 21
5.566892405697103
 31
0.0
  0
LINE
  5
2DBA
330
2D9C
100
AcDbEntity
  8
0
 62
     0
100
AcDbLine
 10
32.67110559449153
 20
6.167879599643612
 30
0.0
 11
31.2711055944915
 21
7.567879599643646
 31
0.0
  0
LINE
  5
2DBB
330
2D9C
100
AcDbEntity
  8
0
 62
     0
100
AcDbLine
 10
29.5211055944915
 20
9.317879599643646
 30
0.0
 11
28.12110559449149
 21
10.71787959964365
 31
0.0
  0
LINE
  5
2DBC
330
2D9C
100
AcDbEntity
  8
0
 62
     0
100
AcDbLine
 10
35.12110559449152
 20
3.717879599643623
 30
0.0
 11
33.72110559449149
 21
5.117879599643657
 31
0.0
  0
LINE
  5
2DBD
330
2D9C
100
AcDbEntity
  8
0
 62
     0
100
AcDbLine
 10
32.6711055944915
 20
5.718866793590166
 30
0.0
 11
31.2711055944915
 21
7.1188667935902
 31
0.0
  0
LINE
  5
2DBE
330
2D9C
100
AcDbEntity
  8
0
 62
     0
100
AcDbLine
 10
29.52110559449153
 20
8.868866793590171
 30
0.0
 11
28.12110559449149
 21
10.2688667935902
 31
0.0
  0
LINE
  5
2DBF
330
2D9C
100
AcDbEntity
  8
0
 62
     0
100
AcDbLine
 10
35.08512291704664
 20
3.304849471035055
 30
0.0
 11
33.72110559449149
 21
4.668866793590211
 31
0.0
  0
LINE
  5
2DC0
330
2D9C
100
AcDbEntity
  8
0
 62
     0
100
AcDbLine
 10
32.67110559449153
 20
5.269853987536663
 30
0.0
 11
31.27110559449147
 21
6.669853987536725
 31
0.0
  0
LINE
  5
2DC1
330
2D9C
100
AcDbEntity
  8
0
 62
     0
100
AcDbLine
 10
29.5211055944915
 20
8.419853987536725
 30
0.0
 11
28.12110559449147
 21
9.819853987536731
 31
0.0
  0
LINE
  5
2DC2
330
2D9C
100
AcDbEntity
  8
0
 62
     0
100
AcDbLine
 10
34.76595962067188
 20
3.174999961356348
 30
0.0
 11
33.72110559449146
 21
4.219853987536765
 31
0.0
  0
LINE
  5
2DC3
330
2D9C
100
AcDbEntity
  8
0
 62
     0
100
AcDbLine
 10
29.5211055944915
 20
7.970841181483251
 30
0.0
 11
28.12110559449147
 21
9.370841181483285
 31
0.0
  0
LINE
  5
2DC4
330
2D9C
100
AcDbEntity
  8
0
 62
     0
100
AcDbLine
 10
32.67110559449153
 20
4.820841181483217
 30
0.0
 11
31.27110559449147
 21
6.22084118148328
 31
0.0
  0
LINE
  5
2DC5
330
2D9C
100
AcDbEntity
  8
0
 62
     0
100
AcDbLine
 10
26.80860559449149
 20
10.68334118148325
 30
0.0
 11
26.26694681461842
 21
11.2249999613563
 31
0.0
  0
LINE
  5
2DC6
330
2D9C
100
AcDbEntity
  8
0
 62
     0
100
AcDbLine
 10
34.31694681461843
 20
3.174999961356292
 30
0.0
 11
33.72110559449146
 21
3.770841181483291
 31
0.0
  0
LINE
  5
2DC7
330
2D9C
100
AcDbEntity
  8
0
 62
     0
100
AcDbLine
 10
29.5211055944915
 20
7.521828375429805
 30
0.0
 11
28.12110559449152
 21
8.921828375429811
 31
0.0
  0
LINE
  5
2DC8
330
2D9C
100
AcDbEntity
  8
0
 62
     0
100
AcDbLine
 10
26.80860559449149
 20
10.23432837542981
 30
0.0
 11
25.817934008565
 21
11.22499996135633
 31
0.0
  0
LINE
  5
2DC9
330
2D9C
100
AcDbEntity
  8
0
 62
     0
100
AcDbLine
 10
32.65812644416874
 20
4.384807525752592
 30
0.0
 11
31.27110559449147
 21
5.771828375429834
 31
0.0
  0
LINE
  5
2DCA
330
2D9C
100
AcDbEntity
  8
0
 62
     0
100
AcDbLine
 10
29.5211055944915
 20
7.072815569376359
 30
0.0
 11
28.12110559449152
 21
8.472815569376336
 31
0.0
  0
LINE
  5
2DCB
330
2D9C
100
AcDbEntity
  8
0
 62
     0
100
AcDbLine
 10
26.71081532143458
 20
9.88310584243328
 30
0.0
 11
25.3689212025115
 21
11.22499996135636
 31
0.0
  0
LINE
  5
2DCC
330
2D9C
100
AcDbEntity
  8
0
 62
     0
100
AcDbLine
 10
32.56163379654012
 20
4.032287367327711
 30
0.0
 11
31.27110559449147
 21
5.322815569376388
 31
0.0
  0
LINE
  5
2DCD
330
2D9C
100
AcDbEntity
  8
0
 62
     0
100
AcDbLine
 10
29.5211055944915
 20
6.623802763322885
 30
0.0
 11
28.12110559449149
 21
8.02380276332289
 31
0.0
  0
LINE
  5
2DCE
330
2D9C
100
AcDbEntity
  8
0
 62
     0
100
AcDbLine
 10
26.319908396458
 20
9.824999961356354
 30
0.0
 11
24.91990839645805
 21
11.2249999613563
 31
0.0
  0
LINE
  5
2DCF
330
2D9C
100
AcDbEntity
  8
0
 62
     0
100
AcDbLine
 10
32.39911785857833
 20
3.745790499236022
 30
0.0
 11
31.23534772491172
 21
4.909560632902667
 31
0.0
  0
LINE
  5
2DD0
330
2D9C
100
AcDbEntity
  8
0
 62
     0
100
AcDbLine
 10
29.5211055944915
 20
6.174789957269467
 30
0.0
 11
28.12110559449152
 21
7.574789957269445
 31
0.0
  0
LINE
  5
2DD1
330
2D9C
100
AcDbEntity
  8
0
 62
     0
100
AcDbLine
 10
25.87089559040459
 20
9.824999961356382
 30
0.0
 11
24.50211222581589
 21
11.19378332594507
 31
0.0
  0
LINE
  5
2DD2
330
2D9C
100
AcDbEntity
  8
0
 62
     0
100
AcDbLine
 10
32.18309695991581
 20
3.512798591845125
 30
0.0
 11
31.03455490567796
 21
4.661340646082976
 31
0.0
  0
LINE
  5
2DD3
330
2D9C
100
AcDbEntity
  8
0
 62
     0
100
AcDbLine
 10
29.5211055944915
 20
5.725777151215993
 30
0.0
 11
28.12110559449149
 21
7.12577715121597
 31
0.0
  0
LINE
  5
2DD4
330
2D9C
100
AcDbEntity
  8
0
 62
     0
100
AcDbLine
 10
25.42188278435111
 20
9.824999961356382
 30
0.0
 11
24.16979201354919
 21
11.07709073215826
 31
0.0
  0
LINE
  5
2DD5
330
2D9C
100
AcDbEntity
  8
0
 62
     0
100
AcDbLine
 10
31.9150157874528
 20
3.331866958254693
 30
0.0
 11
30.67188278435111
 21
4.574999961356354
 31
0.0
  0
LINE
  5
2DD6
330
2D9C
100
AcDbEntity
  8
0
 62
     0
100
AcDbLine
 10
29.52110559449147
 20
5.276764345162519
 30
0.0
 11
28.12110559449149
 21
6.676764345162524
 31
0.0
  0
LINE
  5
2DD7
330
2D9C
100
AcDbEntity
  8
0
 62
     0
100
AcDbLine
 10
24.98376489230671
 20
9.814105047347283
 30
0.0
 11
23.8984915449441
 21
10.89937839470988
 31
0.0
  0
LINE
  5
2DD8
330
2D9C
100
AcDbEntity
  8
0
 62
     0
100
AcDbLine
 10
31.58680950749715
 20
3.21106043215687
 30
0.0
 11
30.22286997829766
 21
4.574999961356354
 31
0.0
  0
LINE
  5
2DD9
330
2D9C
100
AcDbEntity
  8
0
 62
     0
100
AcDbLine
 10
24.79610559449153
 20
9.552751539108982
 30
0.0
 11
23.67943551542182
 21
10.66942161817868
 31
0.0
  0
LINE
  5
2DDA
330
2D9C
100
AcDbEntity
  8
0
 62
     0
100
AcDbLine
 10
31.17385717224422
 20
3.17499996135632
 30
0.0
 11
28.12110559449149
 21
6.22775153910905
 31
0.0
  0
LINE
  5
2DDB
330
2D9C
100
AcDbEntity
  8
0
 62
     0
100
AcDbLine
 10
24.79610559449156
 20
9.103738733055564
 30
0.0
 11
23.51355005924531
 21
10.38629426830181
 31
0.0
  0
LINE
  5
2DDC
330
2D9C
100
AcDbEntity
  8
0
 62
     0
100
AcDbLine
 10
30.72484436619077
 20
3.17499996135632
 30
0.0
 11
28.12110559449149
 21
5.778738733055632
 31
0.0
  0
LINE
  5
2DDD
330
2D9C
100
AcDbEntity
  8
0
 62
     0
100
AcDbLine
 10
24.89937773504343
 20
8.551453786450224
 30
0.0
 11
23.41246079956326
 21
10.03837072193036
 31
0.0
  0
LINE
  5
2DDE
330
2D9C
100
AcDbEntity
  8
0
 62
     0
100
AcDbLine
 10
30.27583156013733
 20
3.17499996135632
 30
0.0
 11
28.12110559449149
 21
5.329725927002158
 31
0.0
  0
LINE
  5
2DDF
330
2D9C
100
AcDbEntity
  8
0
 62
     0
100
AcDbLine
 10
27.00790744583722
 20
5.993911269602961
 30
0.0
 11
23.3961055944915
 21
9.605713120948649
 31
0.0
  0
LINE
  5
2DE0
330
2D9C
100
AcDbEntity
  8
0
 62
     0
100
AcDbLine
 10
22.34610559449146
 20
10.65571312094869
 30
0.0
 11
21.77681875408381
 21
11.22499996135636
 31
0.0
  0
LINE
  5
2DE1
330
2D9C
100
AcDbEntity
  8
0
 62
     0
100
AcDbLine
 10
29.82681875408386
 20
3.17499996135632
 30
0.0
 11
28.12110559449147
 21
4.880713120948684
 31
0.0
  0
LINE
  5
2DE2
330
2D9C
100
AcDbEntity
  8
0
 62
     0
100
AcDbLine
 10
27.07110559449154
 20
5.481700314895221
 30
0.0
 11
23.39610559449153
 21
9.156700314895232
 31
0.0
  0
LINE
  5
2DE3
330
2D9C
100
AcDbEntity
  8
0
 62
     0
100
AcDbLine
 10
22.34610559449151
 20
10.20670031489521
 30
0.0
 11
21.32780594803034
 21
11.22499996135641
 31
0.0
  0
LINE
  5
2DE4
330
2D9C
100
AcDbEntity
  8
0
 62
     0
100
AcDbLine
 10
29.36958200865797
 20
3.183223900728791
 30
0.0
 11
28.12932953386397
 21
4.423476375522795
 31
0.0
  0
LINE
  5
2DE5
330
2D9C
100
AcDbEntity
  8
0
 62
     0
100
AcDbLine
 10
22.34610559449151
 20
9.757687508841769
 30
0.0
 11
20.99241065060386
 21
11.1113824527294
 31
0.0
  0
LINE
  5
2DE6
330
2D9C
100
AcDbEntity
  8
0
 62
     0
100
AcDbLine
 10
27.07110559449151
 20
5.032687508841746
 30
0.0
 11
23.40781092843269
 21
8.695982174900592
 31
0.0
  0
LINE
  5
2DE7
330
2D9C
100
AcDbEntity
  8
0
 62
     0
100
AcDbLine
 10
22.34610559449151
 20
9.308674702788295
 30
0.0
 11
20.94610559449151
 21
10.70867470278827
 31
0.0
  0
LINE
  5
2DE8
330
2D9C
100
AcDbEntity
  8
0
 62
     0
100
AcDbLine
 10
27.07110559449145
 20
4.583674702788329
 30
0.0
 11
23.5668706373527
 21
8.087909659927106
 31
0.0
  0
LINE
  5
2DE9
330
2D9C
100
AcDbEntity
  8
0
 62
     0
100
AcDbLine
 10
22.34610559449151
 20
8.859661896734849
 30
0.0
 11
20.94610559449154
 21
10.25966189673482
 31
0.0
  0
LINE
  5
2DEA
330
2D9C
100
AcDbEntity
  8
0
 62
     0
100
AcDbLine
 10
27.01682468569697
 20
4.188942805529393
 30
0.0
 11
25.66900729117782
 21
5.536760200048547
 31
0.0
  0
LINE
  5
2DEB
330
2D9C
100
AcDbEntity
  8
0
 62
     0
100
AcDbLine
 10
22.34610559449151
 20
8.410649090681403
 30
0.0
 11
20.94610559449151
 21
9.81064909068138
 31
0.0
  0
LINE
  5
2DEC
330
2D9C
100
AcDbEntity
  8
0
 62
     0
100
AcDbLine
 10
19.800362144203
 20
10.95639254096988
 30
0.0
 11
19.53175472381656
 21
11.22499996135636
 31
0.0
  0
LINE
  5
2DED
330
2D9C
100
AcDbEntity
  8
0
 62
     0
100
AcDbLine
 10
26.88288683181619
 20
3.873867853356728
 30
0.0
 11
25.67110559449153
 21
5.085649090681386
 31
0.0
  0
LINE
  5
2DEE
330
2D9C
100
AcDbEntity
  8
0
 62
     0
100
AcDbLine
 10
22.34610559449149
 20
7.961636284627928
 30
0.0
 11
20.94610559449151
 21
9.361636284627934
 31
0.0
  0
LINE
  5
2DEF
330
2D9C
100
AcDbEntity
  8
0
 62
     0
100
AcDbLine
 10
19.7008983120767
 20
10.60684356704271
 30
0.0
 11
19.08274191776308
 21
11.22499996135636
 31
0.0
  0
LINE
  5
2DF0
330
2D9C
100
AcDbEntity
  8
0
 62
     0
100
AcDbLine
 10
26.69139343272854
 20
3.616348446390901
 30
0.0
 11
25.62246300304829
 21
4.685278876071151
 31
0.0
  0
LINE
  5
2DF1
330
2D9C
100
AcDbEntity
  8
0
 62
     0
100
AcDbLine
 10
22.34610559449149
 20
7.512623478574482
 30
0.0
 11
20.94610559449151
 21
8.91262347857446
 31
0.0
  0
LINE
  5
2DF2
330
2D9C
100
AcDbEntity
  8
0
 62
     0
100
AcDbLine
 10
19.59313523862391
 20
10.26559383444205
 30
0.0
 11
18.63852745688856
 21
11.2202016161774
 31
0.0
  0
LINE
  5
2DF3
330
2D9C
100
AcDbEntity
  8
0
 62
     0
100
AcDbLine
 10
26.44823395017073
 20
3.410495122895213
 30
0.0
 11
25.28372911170961
 21
4.574999961356354
 31
0.0
  0
LINE
  5
2DF4
330
2D9C
100
AcDbEntity
  8
0
 62
     0
100
AcDbLine
 10
22.34610559449151
 20
7.063610672521036
 30
0.0
 11
20.94610559449151
 21
8.463610672521014
 31
0.0
  0
LINE
  5
2DF5
330
2D9C
100
AcDbEntity
  8
0
 62
     0
100
AcDbLine
 10
19.48537216517109
 20
9.924344101841455
 30
0.0
 11
18.42137216517107
 21
10.98834410184147
 31
0.0
  0
LINE
  5
2DF6
330
2D9C
100
AcDbEntity
  8
0
 62
     0
100
AcDbLine
 10
26.15019197594054
 20
3.259524291071983
 30
0.0
 11
24.83471630565617
 21
4.574999961356382
 31
0.0
  0
LINE
  5
2DF7
330
2D9C
100
AcDbEntity
  8
0
 62
     0
100
AcDbLine
 10
22.34610559449149
 20
6.61459786646759
 30
0.0
 11
20.94610559449151
 21
8.014597866467568
 31
0.0
  0
LINE
  5
2DF8
330
2D9C
100
AcDbEntity
  8
0
 62
     0
100
AcDbLine
 10
19.37760909171817
 20
9.58309436924091
 30
0.0
 11
18.31360909171817
 21
10.6470943692409
 31
0.0
  0
LINE
  5
2DF9
330
2D9C
100
AcDbEntity
  8
0
 62
     0
100
AcDbLine
 10
25.78135565011681
 20
3.179347810842273
 30
0.0
 11
24.38570349960272
 21
4.574999961356354
 31
0.0
  0
LINE
  5
2DFA
330
2D9C
100
AcDbEntity
  8
0
 62
     0
100
AcDbLine
 10
22.34610559449149
 20
6.165585060414116
 30
0.0
 11
20.94610559449148
 21
7.565585060414093
 31
0.0
  0
LINE
  5
2DFB
330
2D9C
100
AcDbEntity
  8
0
 62
     0
100
AcDbLine
 10
19.26984601826538
 20
9.241844636640223
 30
0.0
 11
18.20584601826533
 21
10.30584463664024
 31
0.0
  0
LINE
  5
2DFC
330
2D9C
100
AcDbEntity
  8
0
 62
     0
100
AcDbLine
 10
25.33669069354928
 20
3.17499996135632
 30
0.0
 11
23.93669069354925
 21
4.574999961356354
 31
0.0
  0
LINE
  5
2DFD
330
2D9C
100
AcDbEntity
  8
0
 62
     0
100
AcDbLine
 10
22.34610559449149
 20
5.71657225436067
 30
0.0
 11
20.94610559449151
 21
7.116572254360676
 31
0.0
  0
LINE
  5
2DFE
330
2D9C
100
AcDbEntity
  8
0
 62
     0
100
AcDbLine
 10
19.16208294481259
 20
8.900594904039593
 30
0.0
 11
18.09808294481251
 21
9.964594904039643
 31
0.0
  0
LINE
  5
2DFF
330
2D9C
100
AcDbEntity
  8
0
 62
     0
100
AcDbLine
 10
24.88767788749584
 20
3.174999961356348
 30
0.0
 11
23.67087203884764
 21
4.391805810004541
 31
0.0
  0
LINE
  5
2E00
330
2D9C
100
AcDbEntity
  8
0
 62
     0
100
AcDbLine
 10
19.05431987135972
 20
8.559345171438991
 30
0.0
 11
17.9903198713597
 21
9.623345171439012
 31
0.0
  0
LINE
  5
2E01
330
2D9C
100
AcDbEntity
  8
0
 62
     0
100
AcDbLine
 10
22.34610559449149
 20
5.267559448307224
 30
0.0
 11
20.94610559449151
 21
6.667559448307201
 31
0.0
  0
LINE
  5
2E02
330
2D9C
100
AcDbEntity
  8
0
 62
     0
100
AcDbLine
 10
16.9211055944915
 20
10.6925594483072
 30
0.0
 11
16.38866508144235
 21
11.22499996135633
 31
0.0
  0
LINE
  5
2E03
330
2D9C
100
AcDbEntity
  8
0
 62
     0
100
AcDbLine
 10
24.43866508144239
 20
3.17499996135632
 30
0.0
 11
23.65860559449151
 21
3.955059448307196
 31
0.0
  0
LINE
  5
2E04
330
2D9C
100
AcDbEntity
  8
0
 62
     0
100
AcDbLine
 10
18.94655679790687
 20
8.218095438838361
 30
0.0
 11
17.88255679790688
 21
9.282095438838354
 31
0.0
  0
LINE
  5
2E05
330
2D9C
100
AcDbEntity
  8
0
 62
     0
100
AcDbLine
 10
22.34610559449149
 20
4.81854664225375
 30
0.0
 11
20.94610559449148
 21
6.218546642253755
 31
0.0
  0
LINE
  5
2E06
330
2D9C
100
AcDbEntity
  8
0
 62
     0
100
AcDbLine
 10
16.9211055944915
 20
10.24354664225373
 30
0.0
 11
15.9396522753889
 21
11.22499996135633
 31
0.0
  0
LINE
  5
2E07
330
2D9C
100
AcDbEntity
  8
0
 62
     0
100
AcDbLine
 10
23.98965227538889
 20
3.174999961356348
 30
0.0
 11
23.65860559449149
 21
3.506046642253721
 31
0.0
  0
LINE
  5
2E08
330
2D9C
100
AcDbEntity
  8
0
 62
     0
100
AcDbLine
 10
18.83879372445403
 20
7.87684570623773
 30
0.0
 11
17.77479372445401
 21
8.940845706237752
 31
0.0
  0
LINE
  5
2E09
330
2D9C
100
AcDbEntity
  8
0
 62
     0
100
AcDbLine
 10
16.92110559449147
 20
9.794533836200258
 30
0.0
 11
15.58338313004267
 21
11.13225630064909
 31
0.0
  0
LINE
  5
2E0A
330
2D9C
100
AcDbEntity
  8
0
 62
     0
100
AcDbLine
 10
22.34610559449146
 20
4.369533836200304
 30
0.0
 11
20.94610559449148
 21
5.769533836200281
 31
0.0
  0
LINE
  5
2E0B
330
2D9C
100
AcDbEntity
  8
0
 62
     0
100
AcDbLine
 10
18.73103065100122
 20
7.535595973637128
 30
0.0
 11
17.66703065100122
 21
8.599595973637121
 31
0.0
  0
LINE
  5
2E0C
330
2D9C
100
AcDbEntity
  8
0
 62
     0
100
AcDbLine
 10
16.9211055944915
 20
9.345521030146841
 30
0.0
 11
15.52110559449147
 21
10.74552103014684
 31
0.0
  0
LINE
  5
2E0D
330
2D9C
100
AcDbEntity
  8
0
 62
     0
100
AcDbLine
 10
22.34610559449149
 20
3.920521030146858
 30
0.0
 11
20.94610559449148
 21
5.320521030146835
 31
0.0
  0
LINE
  5
2E0E
330
2D9C
100
AcDbEntity
  8
0
 62
     0
100
AcDbLine
 10
18.62848639630527
 20
7.189127422279597
 30
0.0
 11
17.55926757754835
 21
8.25834624103652
 31
0.0
  0
LINE
  5
2E0F
330
2D9C
100
AcDbEntity
  8
0
 62
     0
100
AcDbLine
 10
16.9211055944915
 20
8.896508224093366
 30
0.0
 11
15.52110559449147
 21
10.2965082240934
 31
0.0
  0
LINE
  5
2E10
330
2D9C
100
AcDbEntity
  8
0
 62
     0
100
AcDbLine
 10
22.34610559449146
 20
3.471508224093383
 30
0.0
 11
20.94610559449148
 21
4.871508224093389
 31
0.0
  0
LINE
  5
2E11
330
2D9C
100
AcDbEntity
  8
0
 62
     0
100
AcDbLine
 10
18.83572307602227
 20
6.532877936509123
 30
0.0
 11
17.41399382970604
 21
7.954607182825355
 31
0.0
  0
LINE
  5
2E12
330
2D9C
100
AcDbEntity
  8
0
 62
     0
100
AcDbLine
 10
16.92110559449153
 20
8.447495418039864
 30
0.0
 11
15.52110559449144
 21
9.847495418039926
 31
0.0
  0
LINE
  5
2E13
330
2D9C
100
AcDbEntity
  8
0
 62
     0
100
AcDbLine
 10
22.17658309582535
 20
3.192017916706049
 30
0.0
 11
20.94610559449148
 21
4.422495418039915
 31
0.0
  0
LINE
  5
2E14
330
2D9C
100
AcDbEntity
  8
0
 62
     0
100
AcDbLine
 10
19.04295975573924
 20
5.876628450738706
 30
0.0
 11
15.52110559449147
 21
9.398482611986509
 31
0.0
  0
LINE
  5
2E15
330
2D9C
100
AcDbEntity
  8
0
 62
     0
100
AcDbLine
 10
14.29610559449153
 20
10.62348261198644
 30
0.0
 11
13.69458824512165
 21
11.22499996135633
 31
0.0
  0
LINE
  5
2E16
330
2D9C
100
AcDbEntity
  8
0
 62
     0
100
AcDbLine
 10
21.74458824512166
 20
3.17499996135632
 30
0.0
 11
20.94610559449154
 21
3.97348261198644
 31
0.0
  0
LINE
  5
2E17
330
2D9C
100
AcDbEntity
  8
0
 62
     0
100
AcDbLine
 10
19.25019643545624
 20
5.220378964968233
 30
0.0
 11
15.52110559449147
 21
8.949469805933034
 31
0.0
  0
LINE
  5
2E18
330
2D9C
100
AcDbEntity
  8
0
 62
     0
100
AcDbLine
 10
14.29610559449153
 20
10.17446980593297
 30
0.0
 11
13.24557543906814
 21
11.22499996135636
 31
0.0
  0
LINE
  5
2E19
330
2D9C
100
AcDbEntity
  8
0
 62
     0
100
AcDbLine
 10
21.29557543906818
 20
3.174999961356292
 30
0.0
 11
20.94610559449151
 21
3.524469805932994
 31
0.0
  0
LINE
  5
2E1A
330
2D9C
100
AcDbEntity
  8
0
 62
     0
100
AcDbLine
 10
14.16265224679648
 20
9.85891034757455
 30
0.0
 11
12.81254138769077
 21
11.20902120668023
 31
0.0
  0
LINE
  5
2E1B
330
2D9C
100
AcDbEntity
  8
0
 62
     0
100
AcDbLine
 10
19.45743311517321
 20
4.564129479197816
 30
0.0
 11
15.5211055944915
 21
8.500456999879531
 31
0.0
  0
LINE
  5
2E1C
330
2D9C
100
AcDbEntity
  8
0
 62
     0
100
AcDbLine
 10
17.08986005566231
 20
6.482689732655273
 30
0.0
 11
15.5211055944915
 21
8.051444193826085
 31
0.0
  0
LINE
  5
2E1D
330
2D9C
100
AcDbEntity
  8
0
 62
     0
100
AcDbLine
 10
13.74754982696126
 20
9.824999961356297
 30
0.0
 11
12.44351985289714
 21
11.12902993542044
 31
0.0
  0
LINE
  5
2E1E
330
2D9C
100
AcDbEntity
  8
0
 62
     0
100
AcDbLine
 10
19.66466979489021
 20
3.907879993427371
 30
0.0
 11
17.61851594873627
 21
5.954033839581285
 31
0.0
  0
LINE
  5
2E1F
330
2D9C
100
AcDbEntity
  8
0
 62
     0
100
AcDbLine
 10
16.92110559449153
 20
6.202431387772605
 30
0.0
 11
15.5211055944915
 21
7.602431387772639
 31
0.0
  0
LINE
  5
2E20
330
2D9C
100
AcDbEntity
  8
0
 62
     0
100
AcDbLine
 10
13.29853702090775
 20
9.824999961356354
 30
0.0
 11
12.12415914498177
 21
10.99937783728233
 31
0.0
  0
LINE
  5
2E21
330
2D9C
100
AcDbEntity
  8
0
 62
     0
100
AcDbLine
 10
19.78218922374551
 20
3.341347758518594
 30
0.0
 11
17.82575262845324
 21
5.297784353810897
 31
0.0
  0
LINE
  5
2E22
330
2D9C
100
AcDbEntity
  8
0
 62
     0
100
AcDbLine
 10
16.9211055944915
 20
5.753418581719159
 30
0.0
 11
15.52110559449147
 21
7.153418581719165
 31
0.0
  0
LINE
  5
2E23
330
2D9C
100
AcDbEntity
  8
0
 62
     0
100
AcDbLine
 10
12.87698026963599
 20
9.797543906574674
 30
0.0
 11
11.8447846573145
 21
10.82973951889616
 31
0.0
  0
LINE
  5
2E24
330
2D9C
100
AcDbEntity
  8
0
 62
     0
100
AcDbLine
 10
19.49952421485434
 20
3.17499996135632
 30
0.0
 11
18.03298930817016
 21
4.64153486804048
 31
0.0
  0
LINE
  5
2E25
330
2D9C
100
AcDbEntity
  8
0
 62
     0
100
AcDbLine
 10
16.9211055944915
 20
5.304405775665685
 30
0.0
 11
15.52110559449147
 21
6.704405775665719
 31
0.0
  0
LINE
  5
2E26
330
2D9C
100
AcDbEntity
  8
0
 62
     0
100
AcDbLine
 10
12.59105217321649
 20
9.634459196940696
 30
0.0
 11
11.60095705300861
 21
10.62455431714858
 31
0.0
  0
LINE
  5
2E27
330
2D9C
100
AcDbEntity
  8
0
 62
     0
100
AcDbLine
 10
19.05051140880087
 20
3.17499996135632
 30
0.0
 11
18.24022598788713
 21
3.985285382270063
 31
0.0
  0
LINE
  5
2E28
330
2D9C
100
AcDbEntity
  8
0
 62
     0
100
AcDbLine
 10
14.46382016089032
 20
7.312678403213425
 30
0.0
 11
13.70878403634861
 21
8.067714527755157
 31
0.0
  0
LINE
  5
2E29
330
2D9C
100
AcDbEntity
  8
0
 62
     0
100
AcDbLine
 10
16.9211055944915
 20
4.855392969612239
 30
0.0
 11
15.5211055944915
 21
6.255392969612273
 31
0.0
  0
LINE
  5
2E2A
330
2D9C
100
AcDbEntity
  8
0
 62
     0
100
AcDbLine
 10
12.41299138815202
 20
9.363507175951752
 30
0.0
 11
11.39127404000299
 21
10.38522452410077
 31
0.0
  0
LINE
  5
2E2B
330
2D9C
100
AcDbEntity
  8
0
 62
     0
100
AcDbLine
 10
18.57633210064511
 20
3.200166463458657
 30
0.0
 11
18.45115501484946
 21
3.325343549254313
 31
0.0
  0
LINE
  5
2E2C
330
2D9C
100
AcDbEntity
  8
0
 62
     0
100
AcDbLine
 10
14.42056333081942
 20
6.906922427230881
 30
0.0
 11
13.30302806036607
 21
8.024457697684226
 31
0.0
  0
LINE
  5
2E2D
330
2D9C
100
AcDbEntity
  8
0
 62
     0
100
AcDbLine
 10
12.37110559449155
 20
8.956380163558748
 30
0.0
 11
11.21680452952216
 21
10.11068122852813
 31
0.0
  0
LINE
  5
2E2E
330
2D9C
100
AcDbEntity
  8
0
 62
     0
100
AcDbLine
 10
16.92110559449153
 20
4.406380163558736
 30
0.0
 11
15.52110559449147
 21
5.806380163558827
 31
0.0
  0
LINE
  5
2E2F
330
2D9C
100
AcDbEntity
  8
0
 62
     0
100
AcDbLine
 10
14.25463555117045
 20
6.623837400826374
 30
0.0
 11
13.01994303396156
 21
7.858529918035259
 31
0.0
  0
LINE
  5
2E30
330
2D9C
100
AcDbEntity
  8
0
 62
     0
100
AcDbLine
 10
12.37110559449155
 20
8.507367357505273
 30
0.0
 11
11.08151467591707
 21
9.796958276079749
 31
0.0
  0
LINE
  5
2E31
330
2D9C
100
AcDbEntity
  8
0
 62
     0
100
AcDbLine
 10
16.92110559449153
 20
3.95736735750529
 30
0.0
 11
15.52110559449147
 21
5.357367357505353
 31
0.0
  0
LINE
  5
2E32
330
2D9C
100
AcDbEntity
  8
0
 62
     0
100
AcDbLine
 10
12.37110559449155
 20
8.058354551451827
 30
0.0
 11
10.99415773945415
 21
9.435302406489256
 31
0.0
  0
LINE
  5
2E33
330
2D9C
100
AcDbEntity
  8
0
 62
     0
100
AcDbLine
 10
14.00371883010222
 20
6.42574131584115
 30
0.0
 11
12.82184694897634
 21
7.607613196967065
 31
0.0
  0
LINE
  5
2E34
330
2D9C
100
AcDbEntity
  8
0
 62
     0
100
AcDbLine
 10
9.658605594491518
 20
10.77085455145189
 30
0.0
 11
9.20446018458702
 21
11.22499996135638
 31
0.0
  0
LINE
  5
2E35
330
2D9C
100
AcDbEntity
  8
0
 62
     0
100
AcDbLine
 10
16.92110559449156
 20
3.508354551451844
 30
0.0
 11
15.52110559449153
 21
4.908354551451878
 31
0.0
  0
LINE
  5
2E36
330
2D9C
100
AcDbEntity
  8
0
 62
     0
100
AcDbLine
 10
12.37110559449155
 20
7.609341745398381
 30
0.0
 11
10.97110559449151
 21
9.009341745398415
 31
0.0
  0
LINE
  5
2E37
330
2D9C
100
AcDbEntity
  8
0
 62
     0
100
AcDbLine
 10
13.65355910888854
 20
6.32688823100139
 30
0.0
 11
12.72299386413658
 21
7.257453475753351
 31
0.0
  0
LINE
  5
2E38
330
2D9C
100
AcDbEntity
  8
0
 62
     0
100
AcDbLine
 10
9.65860559449149
 20
10.32184174539841
 30
0.0
 11
8.755447378533546
 21
11.22499996135636
 31
0.0
  0
LINE
  5
2E39
330
2D9C
100
AcDbEntity
  8
0
 62
     0
100
AcDbLine
 10
16.7771536938562
 20
3.203293646033728
 30
0.0
 11
15.5211055944915
 21
4.459341745398404
 31
0.0
  0
LINE
  5
2E3A
330
2D9C
100
AcDbEntity
  8
0
 62
     0
100
AcDbLine
 10
12.37110559449155
 20
7.160328939344907
 30
0.0
 11
10.97110559449151
 21
8.560328939344941
 31
0.0
  0
LINE
  5
2E3B
330
2D9C
100
AcDbEntity
  8
0
 62
     0
100
AcDbLine
 10
9.604088609356324
 20
9.927345924480135
 30
0.0
 11
8.306434572480043
 21
11.22499996135638
 31
0.0
  0
LINE
  5
2E3C
330
2D9C
100
AcDbEntity
  8
0
 62
     0
100
AcDbLine
 10
16.35643457248011
 20
3.174999961356348
 30
0.0
 11
15.5211055944915
 21
4.010328939344958
 31
0.0
  0
LINE
  5
2E3D
330
2D9C
100
AcDbEntity
  8
0
 62
     0
100
AcDbLine
 10
12.37110559449152
 20
6.711316133291461
 30
0.0
 11
10.97110559449149
 21
8.111316133291467
 31
0.0
  0
LINE
  5
2E3E
330
2D9C
100
AcDbEntity
  8
0
 62
     0
100
AcDbLine
 10
9.257421766426659
 20
9.824999961356326
 30
0.0
 11
7.857421766426597
 21
11.22499996135638
 31
0.0
  0
LINE
  5
2E3F
330
2D9C
100
AcDbEntity
  8
0
 62
     0
100
AcDbLine
 10
15.90742176642663
 20
3.17499996135632
 30
0.0
 11
15.5211055944915
 21
3.561316133291484
 31
0.0
  0
LINE
  5
2E40
330
2D9C
100
AcDbEntity
  8
0
 62
     0
100
AcDbLine
 10
12.37110559449155
 20
6.262303327238015
 30
0.0
 11
10.97110559449151
 21
7.662303327238049
 31
0.0
  0
LINE
  5
2E41
330
2D9C
100
AcDbEntity
  8
0
 62
     0
100
AcDbLine
 10
8.808408960373213
 20
9.824999961356326
 30
0.0
 11
7.425844324320763
 21
11.2075645974088
 31
0.0
  0
LINE
  5
2E42
330
2D9C
100
AcDbEntity
  8
0
 62
     0
100
AcDbLine
 10
14.29480437007305
 20
4.338604551656487
 30
0.0
 11
14.05971018479169
 21
4.57369873693787
 31
0.0
  0
LINE
  5
2E43
330
2D9C
100
AcDbEntity
  8
0
 62
     0
100
AcDbLine
 10
12.37110559449152
 20
5.813290521184541
 30
0.0
 11
10.97110559449151
 21
7.213290521184575
 31
0.0
  0
LINE
  5
2E44
330
2D9C
100
AcDbEntity
  8
0
 62
     0
100
AcDbLine
 10
8.359396154319767
 20
9.824999961356326
 30
0.0
 11
7.079276920081525
 21
11.10511919559456
 31
0.0
  0
LINE
  5
2E45
330
2D9C
100
AcDbEntity
  8
0
 62
     0
100
AcDbLine
 10
14.29610559449156
 20
3.888290521184529
 30
0.0
 11
13.60939615431973
 21
4.574999961356354
 31
0.0
  0
LINE
  5
2E46
330
2D9C
100
AcDbEntity
  8
0
 62
     0
100
AcDbLine
 10
12.37110559449152
 20
5.364277715131095
 30
0.0
 11
10.97110559449154
 21
6.764277715131072
 31
0.0
  0
LINE
  5
2E47
330
2D9C
100
AcDbEntity
  8
0
 62
     0
100
AcDbLine
 10
7.910383348266293
 20
9.824999961356297
 30
0.0
 11
6.797153590157904
 21
10.93822971946468
 31
0.0
  0
LINE
  5
2E48
330
2D9C
100
AcDbEntity
  8
0
 62
     0
100
AcDbLine
 10
14.29610559449153
 20
3.439277715131055
 30
0.0
 11
13.16038334826629
 21
4.574999961356297
 31
0.0
  0
LINE
  5
2E49
330
2D9C
100
AcDbEntity
  8
0
 62
     0
100
AcDbLine
 10
7.655236934458997
 20
9.631133569110204
 30
0.0
 11
6.568107184037529
 21
10.71826331953167
 31
0.0
  0
LINE
  5
2E4A
330
2D9C
100
AcDbEntity
  8
0
 62
     0
100
AcDbLine
 10
14.10223920224535
 20
3.184131301323844
 30
0.0
 11
10.97110559449154
 21
6.315264909077654
 31
0.0
  0
LINE
  5
2E4B
330
2D9C
100
AcDbEntity
  8
0
 62
     0
100
AcDbLine
 10
7.64610559449153
 20
9.191252103024197
 30
0.0
 11
6.391366582802987
 21
10.44599111471274
 31
0.0
  0
LINE
  5
2E4C
330
2D9C
100
AcDbEntity
  8
0
 62
     0
100
AcDbLine
 10
13.6623577361594
 20
3.17499996135632
 30
0.0
 11
10.97110559449154
 21
5.86625210302418
 31
0.0
  0
LINE
  5
2E4D
330
2D9C
100
AcDbEntity
  8
0
 62
     0
100
AcDbLine
 10
7.677173448559216
 20
8.711171442903037
 30
0.0
 11
6.275926531656125
 21
10.11241835980612
 31
0.0
  0
LINE
  5
2E4E
330
2D9C
100
AcDbEntity
  8
0
 62
     0
100
AcDbLine
 10
13.2133449301059
 20
3.174999961356348
 30
0.0
 11
10.97110559449151
 21
5.417239296970706
 31
0.0
  0
LINE
  5
2E4F
330
2D9C
100
AcDbEntity
  8
0
 62
     0
100
AcDbLine
 10
9.82329364010286
 20
6.116038445305946
 30
0.0
 11
6.246105594491552
 21
9.693226490917254
 31
0.0
  0
LINE
  5
2E50
330
2D9C
100
AcDbEntity
  8
0
 62
     0
100
AcDbLine
 10
12.73769608052413
 20
3.201636004884676
 30
0.0
 11
10.99774163801984
 21
4.941590447388961
 31
0.0
  0
LINE
  5
2E51
330
2D9C
100
AcDbEntity
  8
0
 62
     0
100
AcDbLine
 10
9.919240897145471
 20
5.57107838220989
 30
0.0
 11
6.246105594491496
 21
9.244213684863865
 31
0.0
  0
LINE
  5
2E52
330
2D9C
100
AcDbEntity
  8
0
 62
     0
100
AcDbLine
 10
12.05079212422333
 20
3.439527155131997
 30
0.0
 11
11.23563278826714
 21
4.254686491088222
 31
0.0
  0
LINE
  5
2E53
330
2D9C
100
AcDbEntity
  8
0
 62
     0
100
AcDbLine
 10
9.921105594491564
 20
5.120200878810322
 30
0.0
 11
6.249887818202694
 21
8.791418655099164
 31
0.0
  0
LINE
  5
2E54
330
2D9C
100
AcDbEntity
  8
0
 62
     0
100
AcDbLine
 10
9.921105594491507
 20
4.671188072756905
 30
0.0
 11
6.361533197364622
 21
8.230760469883762
 31
0.0
  0
LINE
  5
2E55
330
2D9C
100
AcDbEntity
  8
0
 62
     0
100
AcDbLine
 10
9.884845596425549
 20
4.258435264769445
 30
0.0
 11
8.503149774616019
 21
5.640131086578975
 31
0.0
  0
LINE
  5
2E56
330
2D9C
100
AcDbEntity
  8
0
 62
     0
100
AcDbLine
 10
9.763876626911127
 20
3.930391428230393
 30
0.0
 11
8.521105594491501
 21
5.173162460650019
 31
0.0
  0
LINE
  5
2E57
330
2D9C
100
AcDbEntity
  8
0
 62
     0
100
AcDbLine
 10
9.582817003220242
 20
3.662438245867804
 30
0.0
 11
8.503156078341163
 21
4.742099170746882
 31
0.0
  0
LINE
  5
2E58
330
2D9C
100
AcDbEntity
  8
0
 62
     0
100
AcDbLine
 10
9.349703817086805
 20
3.446538625947795
 30
0.0
 11
8.221242481678245
 21
4.574999961356382
 31
0.0
  0
LINE
  5
2E59
330
2D9C
100
AcDbEntity
  8
0
 62
     0
100
AcDbLine
 10
9.063071593220399
 20
3.284158043760754
 30
0.0
 11
7.772229675624771
 21
4.574999961356354
 31
0.0
  0
LINE
  5
2E5A
330
2D9C
100
AcDbEntity
  8
0
 62
     0
100
AcDbLine
 10
8.71036529867743
 20
3.187851532250249
 30
0.0
 11
7.323216869571325
 21
4.574999961356354
 31
0.0
  0
LINE
  5
2E5B
330
2D9C
100
AcDbEntity
  8
0
 62
     0
100
AcDbLine
 10
8.274204063517856
 20
3.174999961356348
 30
0.0
 11
6.874204063517851
 21
4.574999961356354
 31
0.0
  0
LINE
  5
2E5C
330
2D9C
100
AcDbEntity
  8
0
 62
     0
100
AcDbLine
 10
7.825191257464439
 20
3.17499996135632
 30
0.0
 11
6.548529310055499
 21
4.451661908765288
 31
0.0
  0
LINE
  5
2E5D
330
2D9C
100
AcDbEntity
  8
0
 62
     0
100
AcDbLine
 10
7.376178451410936
 20
3.174999961356348
 30
0.0
 11
6.508605594491541
 21
4.042572818275743
 31
0.0
  0
LINE
  5
2E5E
330
2D9C
100
AcDbEntity
  8
0
 62
     0
100
AcDbLine
 10
6.927165645357518
 20
3.17499996135632
 30
0.0
 11
6.508605594491541
 21
3.593560012222297
 31
0.0
  0
LINE
  5
2E5F
330
2D9C
100
AcDbEntity
  8
0
 62
     0
100
AcDbLine
 10
34.91694923682499
 20
3.181565849915102
 30
0.0
 11
35.11453970593288
 21
3.379156319022996
 31
0.0
  0
LINE
  5
2E60
330
2D9C
100
AcDbEntity
  8
0
 62
     0
100
AcDbLine
 10
34.46137054221276
 20
3.174999961356292
 30
0.0
 11
35.12110559449161
 21
3.834735013635139
 31
0.0
  0
LINE
  5
2E61
330
2D9C
100
AcDbEntity
  8
0
 62
     0
100
AcDbLine
 10
34.01235773615931
 20
3.174999961356292
 30
0.0
 11
35.12110559449161
 21
4.283747819688585
 31
0.0
  0
LINE
  5
2E62
330
2D9C
100
AcDbEntity
  8
0
 62
     0
100
AcDbLine
 10
33.73670437611744
 20
3.348359407367894
 30
0.0
 11
35.12110559449158
 21
4.732760625742059
 31
0.0
  0
LINE
  5
2E63
330
2D9C
100
AcDbEntity
  8
0
 62
     0
100
AcDbLine
 10
33.72110559449154
 20
3.781773431795471
 30
0.0
 11
35.12110559449158
 21
5.181773431795477
 31
0.0
  0
LINE
  5
2E64
330
2D9C
100
AcDbEntity
  8
0
 62
     0
100
AcDbLine
 10
33.72110559449157
 20
4.230786237848917
 30
0.0
 11
35.12110559449158
 21
5.630786237848951
 31
0.0
  0
LINE
  5
2E65
330
2D9C
100
AcDbEntity
  8
0
 62
     0
100
AcDbLine
 10
33.72110559449154
 20
4.679799043902391
 30
0.0
 11
35.12110559449158
 21
6.079799043902426
 31
0.0
  0
LINE
  5
2E66
330
2D9C
100
AcDbEntity
  8
0
 62
     0
100
AcDbLine
 10
33.72110559449154
 20
5.128811849955837
 30
0.0
 11
35.12110559449161
 21
6.528811849955928
 31
0.0
  0
LINE
  5
2E67
330
2D9C
100
AcDbEntity
  8
0
 62
     0
100
AcDbLine
 10
31.93438802552418
 20
3.342094280988476
 30
0.0
 11
32.50401127485946
 21
3.911717530323784
 31
0.0
  0
LINE
  5
2E68
330
2D9C
100
AcDbEntity
  8
0
 62
     0
100
AcDbLine
 10
33.72110559449154
 20
5.577824656009283
 30
0.0
 11
35.12110559449164
 21
6.977824656009346
 31
0.0
  0
LINE
  5
2E69
330
2D9C
100
AcDbEntity
  8
0
 62
     0
100
AcDbLine
 10
31.31910394226278
 20
3.175823003780521
 30
0.0
 11
32.67028255206744
 21
4.527001613585156
 31
0.0
  0
LINE
  5
2E6A
330
2D9C
100
AcDbEntity
  8
0
 62
     0
100
AcDbLine
 10
33.72110559449154
 20
6.026837462062758
 30
0.0
 11
35.12110559449161
 21
7.42683746206282
 31
0.0
  0
LINE
  5
2E6B
330
2D9C
100
AcDbEntity
  8
0
 62
     0
100
AcDbLine
 10
30.86926809378508
 20
3.174999961356292
 30
0.0
 11
32.67110559449159
 21
4.976837462062775
 31
0.0
  0
LINE
  5
2E6C
330
2D9C
100
AcDbEntity
  8
0
 62
     0
100
AcDbLine
 10
33.72110559449157
 20
6.475850268116261
 30
0.0
 11
35.12110559449161
 21
7.875850268116266
 31
0.0
  0
LINE
  5
2E6D
330
2D9C
100
AcDbEntity
  8
0
 62
     0
100
AcDbLine
 10
30.42025528773163
 20
3.174999961356292
 30
0.0
 11
32.67110559449156
 21
5.425850268116249
 31
0.0
  0
LINE
  5
2E6E
330
2D9C
100
AcDbEntity
  8
0
 62
     0
100
AcDbLine
 10
33.7211055944916
 20
6.924863074169678
 30
0.0
 11
35.12110559449161
 21
8.324863074169712
 31
0.0
  0
LINE
  5
2E6F
330
2D9C
100
AcDbEntity
  8
0
 62
     0
100
AcDbLine
 10
29.97124248167821
 20
3.17499996135632
 30
0.0
 11
32.67110559449159
 21
5.874863074169695
 31
0.0
  0
LINE
  5
2E70
330
2D9C
100
AcDbEntity
  8
0
 62
     0
100
AcDbLine
 10
31.21880999345103
 20
4.871580279182609
 30
0.0
 11
32.67110559449159
 21
6.323875880223141
 31
0.0
  0
LINE
  5
2E71
330
2D9C
100
AcDbEntity
  8
0
 62
     0
100
AcDbLine
 10
33.72110559449157
 20
7.373875880223152
 30
0.0
 11
35.12110559449161
 21
8.773875880223187
 31
0.0
  0
LINE
  5
2E72
330
2D9C
100
AcDbEntity
  8
0
 62
     0
100
AcDbLine
 10
29.52222967562471
 20
3.174999961356292
 30
0.0
 11
30.97452527666527
 21
4.627295562396824
 31
0.0
  0
LINE
  5
2E73
330
2D9C
100
AcDbEntity
  8
0
 62
     0
100
AcDbLine
 10
31.27110559449153
 20
5.372888686276581
 30
0.0
 11
32.67110559449156
 21
6.772888686276615
 31
0.0
  0
LINE
  5
2E74
330
2D9C
100
AcDbEntity
  8
0
 62
     0
100
AcDbLine
 10
33.72110559449157
 20
7.822888686276598
 30
0.0
 11
35.12110559449161
 21
9.222888686276633
 31
0.0
  0
LINE
  5
2E75
330
2D9C
100
AcDbEntity
  8
0
 62
     0
100
AcDbLine
 10
29.12919174525987
 20
3.230974837044897
 30
0.0
 11
30.4732168695713
 21
4.574999961356326
 31
0.0
  0
LINE
  5
2E76
330
2D9C
100
AcDbEntity
  8
0
 62
     0
100
AcDbLine
 10
31.27110559449153
 20
5.821901492330056
 30
0.0
 11
32.67110559449156
 21
7.221901492330061
 31
0.0
  0
LINE
  5
2E77
330
2D9C
100
AcDbEntity
  8
0
 62
     0
100
AcDbLine
 10
33.72110559449154
 20
8.271901492330073
 30
0.0
 11
35.12110559449158
 21
9.671901492330107
 31
0.0
  0
LINE
  5
2E78
330
2D9C
100
AcDbEntity
  8
0
 62
     0
100
AcDbLine
 10
28.8151983116548
 20
3.365994209493322
 30
0.0
 11
30.02464295634001
 21
4.575438854178543
 31
0.0
  0
LINE
  5
2E79
330
2D9C
100
AcDbEntity
  8
0
 62
     0
100
AcDbLine
 10
31.27110559449159
 20
6.27091429838353
 30
0.0
 11
32.67110559449156
 21
7.670914298383507
 31
0.0
  0
LINE
  5
2E7A
330
2D9C
100
AcDbEntity
  8
0
 62
     0
100
AcDbLine
 10
33.72110559449157
 20
8.720914298383519
 30
0.0
 11
35.12110559449164
 21
10.12091429838358
 31
0.0
  0
LINE
  5
2E7B
330
2D9C
100
AcDbEntity
  8
0
 62
     0
100
AcDbLine
 10
28.55856837097221
 20
3.558377074864154
 30
0.0
 11
29.70290366198367
 21
4.702712365875612
 31
0.0
  0
LINE
  5
2E7C
330
2D9C
100
AcDbEntity
  8
0
 62
     0
100
AcDbLine
 10
31.27110559449159
 20
6.719927104436976
 30
0.0
 11
32.67110559449156
 21
8.119927104436982
 31
0.0
  0
LINE
  5
2E7D
330
2D9C
100
AcDbEntity
  8
0
 62
     0
100
AcDbLine
 10
33.72110559449157
 20
9.169927104436965
 30
0.0
 11
35.12110559449164
 21
10.56992710443702
 31
0.0
  0
LINE
  5
2E7E
330
2D9C
100
AcDbEntity
  8
0
 62
     0
100
AcDbLine
 10
28.3535862833597
 20
3.802407793305093
 30
0.0
 11
29.53428452277896
 21
4.983106032724379
 31
0.0
  0
LINE
  5
2E7F
330
2D9C
100
AcDbEntity
  8
0
 62
     0
100
AcDbLine
 10
31.27110559449155
 20
7.16893991049045
 30
0.0
 11
32.67110559449159
 21
8.568939910490485
 31
0.0
  0
LINE
  5
2E80
330
2D9C
100
AcDbEntity
  8
0
 62
     0
100
AcDbLine
 10
33.72110559449154
 20
9.618939910490439
 30
0.0
 11
35.11603101771632
 21
11.01386533371521
 31
0.0
  0
LINE
  5
2E81
330
2D9C
100
AcDbEntity
  8
0
 62
     0
100
AcDbLine
 10
28.2036238441427
 20
4.101458160141589
 30
0.0
 11
29.52110559449156
 21
5.418939910490422
 31
0.0
  0
LINE
  5
2E82
330
2D9C
100
AcDbEntity
  8
0
 62
     0
100
AcDbLine
 10
31.27110559449159
 20
7.617952716543868
 30
0.0
 11
32.67110559449162
 21
9.017952716543902
 31
0.0
  0
LINE
  5
2E83
330
2D9C
100
AcDbEntity
  8
0
 62
     0
100
AcDbLine
 10
33.7211055944916
 20
10.06795271654391
 30
0.0
 11
34.87747384517658
 21
11.22432096722889
 31
0.0
  0
LINE
  5
2E84
330
2D9C
100
AcDbEntity
  8
0
 62
     0
100
AcDbLine
 10
28.12491707666447
 20
4.471764198716783
 30
0.0
 11
29.52110559449156
 21
5.867952716543868
 31
0.0
  0
LINE
  5
2E85
330
2D9C
100
AcDbEntity
  8
0
 62
     0
100
AcDbLine
 10
31.27110559449155
 20
8.066965522597342
 30
0.0
 11
32.67110559449159
 21
9.466965522597377
 31
0.0
  0
LINE
  5
2E86
330
2D9C
100
AcDbEntity
  8
0
 62
     0
100
AcDbLine
 10
33.7211055944916
 20
10.51696552259736
 30
0.0
 11
34.42914003325054
 21
11.22499996135633
 31
0.0
  0
LINE
  5
2E87
330
2D9C
100
AcDbEntity
  8
0
 62
     0
100
AcDbLine
 10
28.12110559449158
 20
4.916965522597337
 30
0.0
 11
29.52110559449156
 21
6.316965522597342
 31
0.0
  0
LINE
  5
2E88
330
2D9C
100
AcDbEntity
  8
0
 62
     0
100
AcDbLine
 10
31.27110559449155
 20
8.515978328650817
 30
0.0
 11
32.67110559449159
 21
9.915978328650822
 31
0.0
  0
LINE
  5
2E89
330
2D9C
100
AcDbEntity
  8
0
 62
     0
100
AcDbLine
 10
28.12110559449155
 20
5.365978328650811
 30
0.0
 11
29.52110559449158
 21
6.765978328650845
 31
0.0
  0
LINE
  5
2E8A
330
2D9C
100
AcDbEntity
  8
0
 62
     0
100
AcDbLine
 10
33.72112895186527
 20
10.96600168602452
 30
0.0
 11
33.98010386982341
 21
11.22497660398263
 31
0.0
  0
LINE
  5
2E8B
330
2D9C
100
AcDbEntity
  8
0
 62
     0
100
AcDbLine
 10
25.96032777913555
 20
3.205200513294784
 30
0.0
 11
27.04090504255313
 21
4.285777776712393
 31
0.0
  0
LINE
  5
2E8C
330
2D9C
100
AcDbEntity
  8
0
 62
     0
100
AcDbLine
 10
28.12110559449155
 20
5.814991134704257
 30
0.0
 11
29.52110559449158
 21
7.214991134704291
 31
0.0
  0
LINE
  5
2E8D
330
2D9C
100
AcDbEntity
  8
0
 62
     0
100
AcDbLine
 10
31.27110559449155
 20
8.964991134704263
 30
0.0
 11
32.67110559449156
 21
10.36499113470429
 31
0.0
  0
LINE
  5
2E8E
330
2D9C
100
AcDbEntity
  8
0
 62
     0
100
AcDbLine
 10
25.48111442114361
 20
3.174999961356348
 30
0.0
 11
27.07110559449154
 21
4.764991134704274
 31
0.0
  0
LINE
  5
2E8F
330
2D9C
100
AcDbEntity
  8
0
 62
     0
100
AcDbLine
 10
28.12110559449155
 20
6.264003940757703
 30
0.0
 11
29.52110559449158
 21
7.664003940757737
 31
0.0
  0
LINE
  5
2E90
330
2D9C
100
AcDbEntity
  8
0
 62
     0
100
AcDbLine
 10
31.27110559449155
 20
9.414003940757709
 30
0.0
 11
32.67110559449159
 21
10.81400394075774
 31
0.0
  0
LINE
  5
2E91
330
2D9C
100
AcDbEntity
  8
0
 62
     0
100
AcDbLine
 10
25.03210161509016
 20
3.17499996135632
 30
0.0
 11
27.07110559449157
 21
5.214003940757692
 31
0.0
  0
LINE
  5
2E92
330
2D9C
100
AcDbEntity
  8
0
 62
     0
100
AcDbLine
 10
28.12110559449158
 20
6.713016746811206
 30
0.0
 11
29.52110559449158
 21
8.113016746811183
 31
0.0
  0
LINE
  5
2E93
330
2D9C
100
AcDbEntity
  8
0
 62
     0
100
AcDbLine
 10
31.27110559449155
 20
9.863016746811155
 30
0.0
 11
32.57423686707451
 21
11.16614801939414
 31
0.0
  0
LINE
  5
2E94
330
2D9C
100
AcDbEntity
  8
0
 62
     0
100
AcDbLine
 10
24.58308880903672
 20
3.174999961356348
 30
0.0
 11
27.06394629428507
 21
5.655857446604699
 31
0.0
  0
LINE
  5
2E95
330
2D9C
100
AcDbEntity
  8
0
 62
     0
100
AcDbLine
 10
28.12110559449158
 20
7.16202955286468
 30
0.0
 11
29.52110559449156
 21
8.562029552864657
 31
0.0
  0
LINE
  5
2E96
330
2D9C
100
AcDbEntity
  8
0
 62
     0
100
AcDbLine
 10
31.27110559449153
 20
10.31202955286462
 30
0.0
 11
32.18407600298323
 21
11.22499996135633
 31
0.0
  0
LINE
  5
2E97
330
2D9C
100
AcDbEntity
  8
0
 62
     0
100
AcDbLine
 10
24.13407600298325
 20
3.174999961356348
 30
0.0
 11
26.9964901089707
 21
6.037414067343775
 31
0.0
  0
LINE
  5
2E98
330
2D9C
100
AcDbEntity
  8
0
 62
     0
100
AcDbLine
 10
28.12110559449161
 20
7.611042358918098
 30
0.0
 11
29.52110559449158
 21
9.011042358918103
 31
0.0
  0
LINE
  5
2E99
330
2D9C
100
AcDbEntity
  8
0
 62
     0
100
AcDbLine
 10
25.67110559449162
 20
5.161042358918109
 30
0.0
 11
26.87619638051143
 21
6.366133144937919
 31
0.0
  0
LINE
  5
2E9A
330
2D9C
100
AcDbEntity
  8
0
 62
     0
100
AcDbLine
 10
31.27110559449155
 20
10.76104235891807
 30
0.0
 11
31.73506319692978
 21
11.2249999613563
 31
0.0
  0
LINE
  5
2E9B
330
2D9C
100
AcDbEntity
  8
0
 62
     0
100
AcDbLine
 10
23.74919087349536
 20
3.239127637921882
 30
0.0
 11
25.08506319692981
 21
4.574999961356326
 31
0.0
  0
LINE
  5
2E9C
330
2D9C
100
AcDbEntity
  8
0
 62
     0
100
AcDbLine
 10
25.66117030692791
 20
5.600119877407877
 30
0.0
 11
26.7144467280811
 21
6.653396298561091
 31
0.0
  0
LINE
  5
2E9D
330
2D9C
100
AcDbEntity
  8
0
 62
     0
100
AcDbLine
 10
28.12110559449158
 20
8.060055164971572
 30
0.0
 11
29.52110559449156
 21
9.460055164971549
 31
0.0
  0
LINE
  5
2E9E
330
2D9C
100
AcDbEntity
  8
0
 62
     0
100
AcDbLine
 10
23.65860559449157
 20
3.597555164971538
 30
0.0
 11
24.63605039087633
 21
4.574999961356326
 31
0.0
  0
LINE
  5
2E9F
330
2D9C
100
AcDbEntity
  8
0
 62
     0
100
AcDbLine
 10
25.52397788835847
 20
5.911940264891939
 30
0.0
 11
26.51651116911719
 21
6.90447354565066
 31
0.0
  0
LINE
  5
2EA0
330
2D9C
100
AcDbEntity
  8
0
 62
     0
100
AcDbLine
 10
28.12110559449158
 20
8.509067971025018
 30
0.0
 11
29.52110559449156
 21
9.909067971025024
 31
0.0
  0
LINE
  5
2EA1
330
2D9C
100
AcDbEntity
  8
0
 62
     0
100
AcDbLine
 10
23.65860559449154
 20
4.046567971025012
 30
0.0
 11
24.18703758482289
 21
4.574999961356354
 31
0.0
  0
LINE
  5
2EA2
330
2D9C
100
AcDbEntity
  8
0
 62
     0
100
AcDbLine
 10
28.12110559449158
 20
8.958080777078464
 30
0.0
 11
29.52110559449158
 21
10.35808077707844
 31
0.0
  0
LINE
  5
2EA3
330
2D9C
100
AcDbEntity
  8
0
 62
     0
100
AcDbLine
 10
25.30334043979994
 20
6.140315622386793
 30
0.0
 11
26.29328993346109
 21
7.130265116047951
 31
0.0
  0
LINE
  5
2EA4
330
2D9C
100
AcDbEntity
  8
0
 62
     0
100
AcDbLine
 10
25.0788340367732
 20
6.364822025413531
 30
0.0
 11
26.06878353043436
 21
7.354771519074688
 31
0.0
  0
LINE
  5
2EA5
330
2D9C
100
AcDbEntity
  8
0
 62
     0
100
AcDbLine
 10
28.12110559449158
 20
9.407093583131938
 30
0.0
 11
29.52110559449156
 21
10.80709358313191
 31
0.0
  0
LINE
  5
2EA6
330
2D9C
100
AcDbEntity
  8
0
 62
     0
100
AcDbLine
 10
21.88901197271596
 20
3.17499996135632
 30
0.0
 11
22.34610559449157
 21
3.632093583131933
 31
0.0
  0
LINE
  5
2EA7
330
2D9C
100
AcDbEntity
  8
0
 62
     0
100
AcDbLine
 10
24.85432763374646
 20
6.589328428440268
 30
0.0
 11
25.84427712740762
 21
7.579277922101425
 31
0.0
  0
LINE
  5
2EA8
330
2D9C
100
AcDbEntity
  8
0
 62
     0
100
AcDbLine
 10
28.12110559449155
 20
9.856106389185384
 30
0.0
 11
29.42801514044223
 21
11.16301593513603
 31
0.0
  0
LINE
  5
2EA9
330
2D9C
100
AcDbEntity
  8
0
 62
     0
100
AcDbLine
 10
21.43999916666249
 20
3.17499996135632
 30
0.0
 11
22.34610559449157
 21
4.081106389185379
 31
0.0
  0
LINE
  5
2EAA
330
2D9C
100
AcDbEntity
  8
0
 62
     0
100
AcDbLine
 10
24.62982123071972
 20
6.813834831467005
 30
0.0
 11
25.61977072438088
 21
7.803784325128162
 31
0.0
  0
LINE
  5
2EAB
330
2D9C
100
AcDbEntity
  8
0
 62
     0
100
AcDbLine
 10
28.12110559449155
 20
10.30511919523885
 30
0.0
 11
29.04098636060905
 21
11.22499996135636
 31
0.0
  0
LINE
  5
2EAC
330
2D9C
100
AcDbEntity
  8
0
 62
     0
100
AcDbLine
 10
21.04679192954003
 20
3.230805530287312
 30
0.0
 11
22.34610559449154
 21
4.530119195238853
 31
0.0
  0
LINE
  5
2EAD
330
2D9C
100
AcDbEntity
  8
0
 62
     0
100
AcDbLine
 10
24.40531482769304
 20
7.038341234493771
 30
0.0
 11
25.3952643213542
 21
8.028290728154928
 31
0.0
  0
LINE
  5
2EAE
330
2D9C
100
AcDbEntity
  8
0
 62
     0
100
AcDbLine
 10
28.12110559449161
 20
10.75413200129233
 30
0.0
 11
28.59197355455558
 21
11.2249999613563
 31
0.0
  0
LINE
  5
2EAF
330
2D9C
100
AcDbEntity
  8
0
 62
     0
100
AcDbLine
 10
20.94610559449157
 20
3.579132001292293
 30
0.0
 11
22.34610559449157
 21
4.979132001292271
 31
0.0
  0
LINE
  5
2EB0
330
2D9C
100
AcDbEntity
  8
0
 62
     0
100
AcDbLine
 10
24.18080842466628
 20
7.262847637520451
 30
0.0
 11
25.17075791832747
 21
8.252797131181665
 31
0.0
  0
LINE
  5
2EB1
330
2D9C
100
AcDbEntity
  8
0
 62
     0
100
AcDbLine
 10
20.94610559449157
 20
4.028144807345768
 30
0.0
 11
22.34610559449154
 21
5.428144807345745
 31
0.0
  0
LINE
  5
2EB2
330
2D9C
100
AcDbEntity
  8
0
 62
     0
100
AcDbLine
 10
23.95731647414561
 20
7.488368493053286
 30
0.0
 11
24.94930324083663
 21
8.480355259744271
 31
0.0
  0
LINE
  5
2EB3
330
2D9C
100
AcDbEntity
  8
0
 62
     0
100
AcDbLine
 10
20.94610559449157
 20
4.477157613399214
 30
0.0
 11
22.34610559449154
 21
5.877157613399219
 31
0.0
  0
LINE
  5
2EB4
330
2D9C
100
AcDbEntity
  8
0
 62
     0
100
AcDbLine
 10
26.29394794244865
 20
9.824999961356326
 30
0.0
 11
26.80860559449158
 21
10.33965761339922
 31
0.0
  0
LINE
  5
2EB5
330
2D9C
100
AcDbEntity
  8
0
 62
     0
100
AcDbLine
 10
19.69977748213645
 20
3.230829501044098
 30
0.0
 11
19.74460366286396
 21
3.275655681771638
 31
0.0
  0
LINE
  5
2EB6
330
2D9C
100
AcDbEntity
  8
0
 62
     0
100
AcDbLine
 10
23.75831538473462
 20
7.738380209695719
 30
0.0
 11
24.80813252344393
 21
8.78819734840502
 31
0.0
  0
LINE
  5
2EB7
330
2D9C
100
AcDbEntity
  8
0
 62
     0
100
AcDbLine
 10
20.94610559449157
 20
4.92617041945266
 30
0.0
 11
22.34610559449157
 21
6.326170419452637
 31
0.0
  0
LINE
  5
2EB8
330
2D9C
100
AcDbEntity
  8
0
 62
     0
100
AcDbLine
 10
25.84493513639523
 20
9.824999961356297
 30
0.0
 11
26.80860559449158
 21
10.78867041945267
 31
0.0
  0
LINE
  5
2EB9
330
2D9C
100
AcDbEntity
  8
0
 62
     0
100
AcDbLine
 10
19.19493513639523
 20
3.17499996135632
 30
0.0
 11
19.72782468454849
 21
3.707889509509584
 31
0.0
  0
LINE
  5
2EBA
330
2D9C
100
AcDbEntity
  8
0
 62
     0
100
AcDbLine
 10
23.59539825253628
 20
8.024475883550849
 30
0.0
 11
24.79610559449162
 21
9.225183225506185
 31
0.0
  0
LINE
  5
2EBB
330
2D9C
100
AcDbEntity
  8
0
 62
     0
100
AcDbLine
 10
20.94610559449157
 20
5.375183225506106
 30
0.0
 11
22.34610559449154
 21
6.775183225506111
 31
0.0
  0
LINE
  5
2EBC
330
2D9C
100
AcDbEntity
  8
0
 62
     0
100
AcDbLine
 10
25.39592233034176
 20
9.824999961356326
 30
0.0
 11
26.72527112859262
 21
11.15434875960718
 31
0.0
  0
LINE
  5
2EBD
330
2D9C
100
AcDbEntity
  8
0
 62
     0
100
AcDbLine
 10
18.74592233034172
 20
3.174999961356292
 30
0.0
 11
19.62006161109565
 21
4.049139242110214
 31
0.0
  0
LINE
  5
2EBE
330
2D9C
100
AcDbEntity
  8
0
 62
     0
100
AcDbLine
 10
20.94610559449154
 20
5.82419603155958
 30
0.0
 11
22.34610559449154
 21
7.224196031559557
 31
0.0
  0
LINE
  5
2EBF
330
2D9C
100
AcDbEntity
  8
0
 62
     0
100
AcDbLine
 10
23.47370722120123
 20
8.351797658269276
 30
0.0
 11
26.34690952428829
 21
11.22499996135633
 31
0.0
  0
LINE
  5
2EC0
330
2D9C
100
AcDbEntity
  8
0
 62
     0
100
AcDbLine
 10
18.44991517501424
 20
3.328005612082279
 30
0.0
 11
19.5122985376428
 21
4.390388974710845
 31
0.0
  0
LINE
  5
2EC1
330
2D9C
100
AcDbEntity
  8
0
 62
     0
100
AcDbLine
 10
20.94610559449154
 20
6.273208837613054
 30
0.0
 11
22.34610559449151
 21
7.673208837613032
 31
0.0
  0
LINE
  5
2EC2
330
2D9C
100
AcDbEntity
  8
0
 62
     0
100
AcDbLine
 10
23.40435379165839
 20
8.731457034779907
 30
0.0
 11
25.89789671823481
 21
11.22499996135633
 31
0.0
  0
LINE
  5
2EC3
330
2D9C
100
AcDbEntity
  8
0
 62
     0
100
AcDbLine
 10
18.34053546418991
 20
3.667638707311397
 30
0.0
 11
19.40453546418996
 21
4.731638707311475
 31
0.0
  0
LINE
  5
2EC4
330
2D9C
100
AcDbEntity
  8
0
 62
     0
100
AcDbLine
 10
20.94610559449157
 20
6.722221643666472
 30
0.0
 11
22.34610559449154
 21
8.122221643666478
 31
0.0
  0
LINE
  5
2EC5
330
2D9C
100
AcDbEntity
  8
0
 62
     0
100
AcDbLine
 10
23.39610559449158
 20
9.172221643666517
 30
0.0
 11
25.4488839121814
 21
11.2249999613563
 31
0.0
  0
LINE
  5
2EC6
330
2D9C
100
AcDbEntity
  8
0
 62
     0
100
AcDbLine
 10
18.23277239073712
 20
4.008888439912055
 30
0.0
 11
19.29677239073717
 21
5.072888439912077
 31
0.0
  0
LINE
  5
2EC7
330
2D9C
100
AcDbEntity
  8
0
 62
     0
100
AcDbLine
 10
20.94610559449159
 20
7.171234449719975
 30
0.0
 11
22.34610559449157
 21
8.57123444971998
 31
0.0
  0
LINE
  5
2EC8
330
2D9C
100
AcDbEntity
  8
0
 62
     0
100
AcDbLine
 10
23.39610559449158
 20
9.621234449719963
 30
0.0
 11
24.99987110612792
 21
11.22499996135633
 31
0.0
  0
LINE
  5
2EC9
330
2D9C
100
AcDbEntity
  8
0
 62
     0
100
AcDbLine
 10
18.12500931728425
 20
4.350138172512657
 30
0.0
 11
19.18900931728435
 21
5.414138172512764
 31
0.0
  0
LINE
  5
2ECA
330
2D9C
100
AcDbEntity
  8
0
 62
     0
100
AcDbLine
 10
20.94610559449157
 20
7.620247255773449
 30
0.0
 11
22.34610559449157
 21
9.020247255773426
 31
0.0
  0
LINE
  5
2ECB
330
2D9C
100
AcDbEntity
  8
0
 62
     0
100
AcDbLine
 10
18.01724624383143
 20
4.691387905113316
 30
0.0
 11
19.08124624383148
 21
5.755387905113337
 31
0.0
  0
LINE
  5
2ECC
330
2D9C
100
AcDbEntity
  8
0
 62
     0
100
AcDbLine
 10
23.42276392955216
 20
10.09690559083404
 30
0.0
 11
24.52419996501382
 21
11.1983416262957
 31
0.0
  0
LINE
  5
2ECD
330
2D9C
100
AcDbEntity
  8
0
 62
     0
100
AcDbLine
 10
16.50085830007444
 20
3.17499996135632
 30
0.0
 11
16.92110559449159
 21
3.595247255773443
 31
0.0
  0
LINE
  5
2ECE
330
2D9C
100
AcDbEntity
  8
0
 62
     0
100
AcDbLine
 10
17.90948317037867
 20
5.032637637713975
 30
0.0
 11
18.97348317037867
 21
6.096637637713968
 31
0.0
  0
LINE
  5
2ECF
330
2D9C
100
AcDbEntity
  8
0
 62
     0
100
AcDbLine
 10
20.94610559449159
 20
8.069260061826867
 30
0.0
 11
22.34610559449157
 21
9.469260061826872
 31
0.0
  0
LINE
  5
2ED0
330
2D9C
100
AcDbEntity
  8
0
 62
     0
100
AcDbLine
 10
16.05184549402102
 20
3.174999961356292
 30
0.0
 11
16.92110559449159
 21
4.044260061826889
 31
0.0
  0
LINE
  5
2ED1
330
2D9C
100
AcDbEntity
  8
0
 62
     0
100
AcDbLine
 10
17.8017200969258
 20
5.373887370314548
 30
0.0
 11
18.86572009692582
 21
6.437887370314598
 31
0.0
  0
LINE
  5
2ED2
330
2D9C
100
AcDbEntity
  8
0
 62
     0
100
AcDbLine
 10
20.94610559449157
 20
8.518272867880341
 30
0.0
 11
22.34610559449157
 21
9.918272867880318
 31
0.0
  0
LINE
  5
2ED3
330
2D9C
100
AcDbEntity
  8
0
 62
     0
100
AcDbLine
 10
15.64340756179319
 20
3.215574835181968
 30
0.0
 11
16.92110559449159
 21
4.493272867880364
 31
0.0
  0
LINE
  5
2ED4
330
2D9C
100
AcDbEntity
  8
0
 62
     0
100
AcDbLine
 10
17.69395702347296
 20
5.715137102915178
 30
0.0
 11
18.75795702347298
 21
6.779137102915228
 31
0.0
  0
LINE
  5
2ED5
330
2D9C
100
AcDbEntity
  8
0
 62
     0
100
AcDbLine
 10
20.94610559449157
 20
8.967285673933815
 30
0.0
 11
22.34610559449154
 21
10.36728567393379
 31
0.0
  0
LINE
  5
2ED6
330
2D9C
100
AcDbEntity
  8
0
 62
     0
100
AcDbLine
 10
15.52110559449156
 20
3.542285673933776
 30
0.0
 11
16.92110559449159
 21
4.94228567393381
 31
0.0
  0
LINE
  5
2ED7
330
2D9C
100
AcDbEntity
  8
0
 62
     0
100
AcDbLine
 10
17.58619395002014
 20
6.05638683551578
 30
0.0
 11
18.65019395002022
 21
7.120386835515859
 31
0.0
  0
LINE
  5
2ED8
330
2D9C
100
AcDbEntity
  8
0
 62
     0
100
AcDbLine
 10
20.94610559449159
 20
9.416298479987233
 30
0.0
 11
22.34610559449157
 21
10.81629847998723
 31
0.0
  0
LINE
  5
2ED9
330
2D9C
100
AcDbEntity
  8
0
 62
     0
100
AcDbLine
 10
15.52110559449156
 20
3.991298479987221
 30
0.0
 11
16.92110559449159
 21
5.391298479987256
 31
0.0
  0
LINE
  5
2EDA
330
2D9C
100
AcDbEntity
  8
0
 62
     0
100
AcDbLine
 10
17.46879455653427
 20
6.388000248083415
 30
0.0
 11
18.78394159049977
 21
7.703147282048888
 31
0.0
  0
LINE
  5
2EDB
330
2D9C
100
AcDbEntity
  8
0
 62
     0
100
AcDbLine
 10
20.94610559449157
 20
9.865311286040707
 30
0.0
 11
22.24796788324235
 21
11.16717357479146
 31
0.0
  0
LINE
  5
2EDC
330
2D9C
100
AcDbEntity
  8
0
 62
     0
100
AcDbLine
 10
15.52110559449156
 20
4.440311286040696
 30
0.0
 11
16.92110559449159
 21
5.840311286040702
 31
0.0
  0
LINE
  5
2EDD
330
2D9C
100
AcDbEntity
  8
0
 62
     0
100
AcDbLine
 10
17.12520187160058
 20
6.493420369203192
 30
0.0
 11
18.99117827021672
 21
8.359396767819333
 31
0.0
  0
LINE
  5
2EDE
330
2D9C
100
AcDbEntity
  8
0
 62
     0
100
AcDbLine
 10
15.52110559449156
 20
4.889324092094142
 30
0.0
 11
16.9276851866447
 21
6.295903684247292
 31
0.0
  0
LINE
  5
2EDF
330
2D9C
100
AcDbEntity
  8
0
 62
     0
100
AcDbLine
 10
20.94610559449157
 20
10.31432409209415
 30
0.0
 11
21.85678146375374
 21
11.22499996135636
 31
0.0
  0
LINE
  5
2EE0
330
2D9C
100
AcDbEntity
  8
0
 62
     0
100
AcDbLine
 10
13.80678146375373
 20
3.17499996135632
 30
0.0
 11
14.29610559449162
 21
3.664324092094204
 31
0.0
  0
LINE
  5
2EE1
330
2D9C
100
AcDbEntity
  8
0
 62
     0
100
AcDbLine
 10
15.52110559449153
 20
5.338336898147616
 30
0.0
 11
19.19841494993369
 21
9.015646253589778
 31
0.0
  0
LINE
  5
2EE2
330
2D9C
100
AcDbEntity
  8
0
 62
     0
100
AcDbLine
 10
20.94610559449154
 20
10.76333689814762
 30
0.0
 11
21.40776865770024
 21
11.22499996135633
 31
0.0
  0
LINE
  5
2EE3
330
2D9C
100
AcDbEntity
  8
0
 62
     0
100
AcDbLine
 10
13.35776865770026
 20
3.174999961356348
 30
0.0
 11
14.29610559449159
 21
4.113336898147679
 31
0.0
  0
LINE
  5
2EE4
330
2D9C
100
AcDbEntity
  8
0
 62
     0
100
AcDbLine
 10
15.52110559449156
 20
5.787349704201034
 30
0.0
 11
19.40565162965074
 21
9.671895739360252
 31
0.0
  0
LINE
  5
2EE5
330
2D9C
100
AcDbEntity
  8
0
 62
     0
100
AcDbLine
 10
12.91459616382186
 20
3.180840273531373
 30
0.0
 11
14.22543845268847
 21
4.491682562397954
 31
0.0
  0
LINE
  5
2EE6
330
2D9C
100
AcDbEntity
  8
0
 62
     0
100
AcDbLine
 10
15.52110559449153
 20
6.236362510254508
 30
0.0
 11
17.18474304559336
 21
7.899999961356343
 31
0.0
  0
LINE
  5
2EE7
330
2D9C
100
AcDbEntity
  8
0
 62
     0
100
AcDbLine
 10
17.5667344632138
 20
8.281991378976783
 30
0.0
 11
19.61288830936771
 21
10.32814522513069
 31
0.0
  0
LINE
  5
2EE8
330
2D9C
100
AcDbEntity
  8
0
 62
     0
100
AcDbLine
 10
12.53051590509838
 20
3.245772820861333
 30
0.0
 11
13.85974304559334
 21
4.574999961356326
 31
0.0
  0
LINE
  5
2EE9
330
2D9C
100
AcDbEntity
  8
0
 62
     0
100
AcDbLine
 10
15.52110559449153
 20
6.685375316307982
 30
0.0
 11
16.93010087984569
 21
8.09437060166212
 31
0.0
  0
LINE
  5
2EEA
330
2D9C
100
AcDbEntity
  8
0
 62
     0
100
AcDbLine
 10
17.77397114293077
 20
8.9382408647472
 30
0.0
 11
19.80042403526837
 21
10.96469375708483
 31
0.0
  0
LINE
  5
2EEB
330
2D9C
100
AcDbEntity
  8
0
 62
     0
100
AcDbLine
 10
12.19994877668517
 20
3.364218498501628
 30
0.0
 11
13.4107302395399
 21
4.574999961356326
 31
0.0
  0
LINE
  5
2EEC
330
2D9C
100
AcDbEntity
  8
0
 62
     0
100
AcDbLine
 10
15.52110559449156
 20
7.1343881223614
 30
0.0
 11
16.92110559449162
 21
8.534388122361463
 31
0.0
  0
LINE
  5
2EED
330
2D9C
100
AcDbEntity
  8
0
 62
     0
100
AcDbLine
 10
17.9812078226478
 20
9.594490350517645
 30
0.0
 11
19.60341809898378
 21
11.21670062685365
 31
0.0
  0
LINE
  5
2EEE
330
2D9C
100
AcDbEntity
  8
0
 62
     0
100
AcDbLine
 10
11.91114713460305
 20
3.524429662472925
 30
0.0
 11
12.96917806384945
 21
4.582460591719325
 31
0.0
  0
LINE
  5
2EEF
330
2D9C
100
AcDbEntity
  8
0
 62
     0
100
AcDbLine
 10
15.52110559449153
 20
7.583400928414874
 30
0.0
 11
16.92110559449159
 21
8.983400928414937
 31
0.0
  0
LINE
  5
2EF0
330
2D9C
100
AcDbEntity
  8
0
 62
     0
100
AcDbLine
 10
18.18844450236474
 20
10.25073983628809
 30
0.0
 11
19.16270462743298
 21
11.22499996135633
 31
0.0
  0
LINE
  5
2EF1
330
2D9C
100
AcDbEntity
  8
0
 62
     0
100
AcDbLine
 10
11.65866965141199
 20
3.720964985335314
 30
0.0
 11
12.6520199933403
 21
4.714315327263619
 31
0.0
  0
LINE
  5
2EF2
330
2D9C
100
AcDbEntity
  8
0
 62
     0
100
AcDbLine
 10
15.52110559449156
 20
8.032413734468377
 30
0.0
 11
16.92110559449159
 21
9.432413734468411
 31
0.0
  0
LINE
  5
2EF3
330
2D9C
100
AcDbEntity
  8
0
 62
     0
100
AcDbLine
 10
13.85192266037967
 20
6.363230800356461
 30
0.0
 11
14.43287475549138
 21
6.944182895468173
 31
0.0
  0
LINE
  5
2EF4
330
2D9C
100
AcDbEntity
  8
0
 62
     0
100
AcDbLine
 10
18.39568118208174
 20
10.90698932205856
 30
0.0
 11
18.71369182137951
 21
11.22499996135633
 31
0.0
  0
LINE
  5
2EF5
330
2D9C
100
AcDbEntity
  8
0
 62
     0
100
AcDbLine
 10
11.44045111474707
 20
3.951759254723896
 30
0.0
 11
12.44689451770421
 21
4.958202657681027
 31
0.0
  0
LINE
  5
2EF6
330
2D9C
100
AcDbEntity
  8
0
 62
     0
100
AcDbLine
 10
13.38943623956478
 20
6.34975718559508
 30
0.0
 11
14.44634837025276
 21
7.406669316283029
 31
0.0
  0
LINE
  5
2EF7
330
2D9C
100
AcDbEntity
  8
0
 62
     0
100
AcDbLine
 10
15.52110559449156
 20
8.481426540521823
 30
0.0
 11
16.92110559449159
 21
9.881426540521857
 31
0.0
  0
LINE
  5
2EF8
330
2D9C
100
AcDbEntity
  8
0
 62
     0
100
AcDbLine
 10
11.25694150227559
 20
4.217262448305859
 30
0.0
 11
12.37110559449155
 21
5.331426540521846
 31
0.0
  0
LINE
  5
2EF9
330
2D9C
100
AcDbEntity
  8
0
 62
     0
100
AcDbLine
 10
13.08236295485471
 20
6.491696706938427
 30
0.0
 11
14.30440884890941
 21
7.713742600993128
 31
0.0
  0
LINE
  5
2EFA
330
2D9C
100
AcDbEntity
  8
0
 62
     0
100
AcDbLine
 10
15.52110559449156
 20
8.930439346575269
 30
0.0
 11
16.92110559449159
 21
10.3304393465753
 31
0.0
  0
LINE
  5
2EFB
330
2D9C
100
AcDbEntity
  8
0
 62
     0
100
AcDbLine
 10
11.11128274731322
 20
4.520616499396936
 30
0.0
 11
12.37110559449155
 21
5.780439346575263
 31
0.0
  0
LINE
  5
2EFC
330
2D9C
100
AcDbEntity
  8
0
 62
     0
100
AcDbLine
 10
12.86338299135988
 20
6.721729549497069
 30
0.0
 11
14.07437600635077
 21
7.93272256448796
 31
0.0
  0
LINE
  5
2EFD
330
2D9C
100
AcDbEntity
  8
0
 62
     0
100
AcDbLine
 10
15.52110559449156
 20
9.379452152628743
 30
0.0
 11
16.92110559449159
 21
10.77945215262875
 31
0.0
  0
LINE
  5
2EFE
330
2D9C
100
AcDbEntity
  8
0
 62
     0
100
AcDbLine
 10
11.01071406522595
 20
4.869060623363111
 30
0.0
 11
12.37110559449155
 21
6.229452152628738
 31
0.0
  0
LINE
  5
2EFF
330
2D9C
100
AcDbEntity
  8
0
 62
     0
100
AcDbLine
 10
12.73535762515572
 20
7.042716989346359
 30
0.0
 11
13.75338856650148
 21
8.060747930692116
 31
0.0
  0
LINE
  5
2F00
330
2D9C
100
AcDbEntity
  8
0
 62
     0
100
AcDbLine
 10
10.97110559449151
 20
5.278464958682178
 30
0.0
 11
12.37110559449155
 21
6.678464958682184
 31
0.0
  0
LINE
  5
2F01
330
2D9C
100
AcDbEntity
  8
0
 62
     0
100
AcDbLine
 10
15.52110559449156
 20
9.828464958682189
 30
0.0
 11
16.84248054031399
 21
11.14983990450465
 31
0.0
  0
LINE
  5
2F02
330
2D9C
100
AcDbEntity
  8
0
 62
     0
100
AcDbLine
 10
8.928107215553723
 20
3.235466579744382
 30
0.0
 11
9.860638976103587
 21
4.167998340294246
 31
0.0
  0
LINE
  5
2F03
330
2D9C
100
AcDbEntity
  8
0
 62
     0
100
AcDbLine
 10
12.79456416689612
 20
7.5509363371402
 30
0.0
 11
13.24516921870764
 21
8.001541388951721
 31
0.0
  0
LINE
  5
2F04
330
2D9C
100
AcDbEntity
  8
0
 62
     0
100
AcDbLine
 10
10.97110559449151
 20
5.727477764735596
 30
0.0
 11
12.37110559449161
 21
7.127477764735658
 31
0.0
  0
LINE
  5
2F05
330
2D9C
100
AcDbEntity
  8
0
 62
     0
100
AcDbLine
 10
15.52110559449156
 20
10.27747776473563
 30
0.0
 11
16.46862779111225
 21
11.22499996135633
 31
0.0
  0
LINE
  5
2F06
330
2D9C
100
AcDbEntity
  8
0
 62
     0
100
AcDbLine
 10
8.418627791112243
 20
3.17499996135632
 30
0.0
 11
9.921105594491621
 21
4.67747776473567
 31
0.0
  0
LINE
  5
2F07
330
2D9C
100
AcDbEntity
  8
0
 62
     0
100
AcDbLine
 10
10.97110559449151
 20
6.17649057078907
 30
0.0
 11
12.37110559449158
 21
7.576490570789133
 31
0.0
  0
LINE
  5
2F08
330
2D9C
100
AcDbEntity
  8
0
 62
     0
100
AcDbLine
 10
15.52110559449156
 20
10.72649057078908
 30
0.0
 11
16.01961498505881
 21
11.22499996135636
 31
0.0
  0
LINE
  5
2F09
330
2D9C
100
AcDbEntity
  8
0
 62
     0
100
AcDbLine
 10
7.96961498505874
 20
3.174999961356292
 30
0.0
 11
9.921105594491592
 21
5.126490570789144
 31
0.0
  0
LINE
  5
2F0A
330
2D9C
100
AcDbEntity
  8
0
 62
     0
100
AcDbLine
 10
10.97110559449151
 20
6.625503376842516
 30
0.0
 11
12.37110559449158
 21
8.025503376842607
 31
0.0
  0
LINE
  5
2F0B
330
2D9C
100
AcDbEntity
  8
0
 62
     0
100
AcDbLine
 10
7.520602179005322
 20
3.174999961356348
 30
0.0
 11
9.919135918210969
 21
5.573533700561995
 31
0.0
  0
LINE
  5
2F0C
330
2D9C
100
AcDbEntity
  8
0
 62
     0
100
AcDbLine
 10
10.97110559449157
 20
7.074516182896019
 30
0.0
 11
12.37110559449158
 21
8.474516182896053
 31
0.0
  0
LINE
  5
2F0D
330
2D9C
100
AcDbEntity
  8
0
 62
     0
100
AcDbLine
 10
13.72158937295188
 20
9.824999961356354
 30
0.0
 11
14.29610559449162
 21
10.39951618289609
 31
0.0
  0
LINE
  5
2F0E
330
2D9C
100
AcDbEntity
  8
0
 62
     0
100
AcDbLine
 10
7.071589372951848
 20
3.17499996135632
 30
0.0
 11
9.864305000050279
 21
5.967715588454723
 31
0.0
  0
LINE
  5
2F0F
330
2D9C
100
AcDbEntity
  8
0
 62
     0
100
AcDbLine
 10
10.97110559449154
 20
7.523528988949465
 30
0.0
 11
12.37110559449158
 21
8.923528988949499
 31
0.0
  0
LINE
  5
2F10
330
2D9C
100
AcDbEntity
  8
0
 62
     0
100
AcDbLine
 10
8.521105594491558
 20
5.073528988949476
 30
0.0
 11
9.753135628028246
 21
6.305559022486164
 31
0.0
  0
LINE
  5
2F11
330
2D9C
100
AcDbEntity
  8
0
 62
     0
100
AcDbLine
 10
13.2725765668984
 20
9.824999961356326
 30
0.0
 11
14.29610559449162
 21
10.84852898894951
 31
0.0
  0
LINE
  5
2F12
330
2D9C
100
AcDbEntity
  8
0
 62
     0
100
AcDbLine
 10
6.651439504528383
 20
3.203862898986301
 30
0.0
 11
8.022576566898408
 21
4.574999961356326
 31
0.0
  0
LINE
  5
2F13
330
2D9C
100
AcDbEntity
  8
0
 62
     0
100
AcDbLine
 10
10.97110559449154
 20
7.972541795002939
 30
0.0
 11
12.45401294738138
 21
9.455449147892778
 31
0.0
  0
LINE
  5
2F14
330
2D9C
100
AcDbEntity
  8
0
 62
     0
100
AcDbLine
 10
8.520026048686929
 20
5.521462249198293
 30
0.0
 11
9.598919860692177
 21
6.600356061203569
 31
0.0
  0
LINE
  5
2F15
330
2D9C
100
AcDbEntity
  8
0
 62
     0
100
AcDbLine
 10
12.74065640795515
 20
9.742092608466549
 30
0.0
 11
14.17937188703166
 21
11.18080808754302
 31
0.0
  0
LINE
  5
2F16
330
2D9C
100
AcDbEntity
  8
0
 62
     0
100
AcDbLine
 10
6.508605594491569
 20
3.510041795002933
 30
0.0
 11
7.573563760844962
 21
4.574999961356326
 31
0.0
  0
LINE
  5
2F17
330
2D9C
100
AcDbEntity
  8
0
 62
     0
100
AcDbLine
 10
8.410224538936574
 20
5.860673545501441
 30
0.0
 11
9.407798878272785
 21
6.858247884837652
 31
0.0
  0
LINE
  5
2F18
330
2D9C
100
AcDbEntity
  8
0
 62
     0
100
AcDbLine
 10
10.97110559449151
 20
8.421554601056385
 30
0.0
 11
13.77455095479146
 21
11.22499996135633
 31
0.0
  0
LINE
  5
2F19
330
2D9C
100
AcDbEntity
  8
0
 62
     0
100
AcDbLine
 10
6.508605594491541
 20
3.959054601056408
 30
0.0
 11
7.124550954791487
 21
4.574999961356354
 31
0.0
  0
LINE
  5
2F1A
330
2D9C
100
AcDbEntity
  8
0
 62
     0
100
AcDbLine
 10
8.197097124784221
 20
6.096558937402505
 30
0.0
 11
9.187046618445407
 21
7.086508431063691
 31
0.0
  0
LINE
  5
2F1B
330
2D9C
100
AcDbEntity
  8
0
 62
     0
100
AcDbLine
 10
10.97110559449154
 20
8.870567407109831
 30
0.0
 11
13.32553814873804
 21
11.22499996135633
 31
0.0
  0
LINE
  5
2F1C
330
2D9C
100
AcDbEntity
  8
0
 62
     0
100
AcDbLine
 10
6.54308155550143
 20
4.442543368119714
 30
0.0
 11
6.641062187728238
 21
4.540524000346522
 31
0.0
  0
LINE
  5
2F1D
330
2D9C
100
AcDbEntity
  8
0
 62
     0
100
AcDbLine
 10
10.9810931515698
 20
9.329567770241538
 30
0.0
 11
12.86653778560631
 21
11.21501240427807
 31
0.0
  0
LINE
  5
2F1E
330
2D9C
100
AcDbEntity
  8
0
 62
     0
100
AcDbLine
 10
7.972590721757484
 20
6.321065340429242
 30
0.0
 11
8.96254021541867
 21
7.311014834090428
 31
0.0
  0
LINE
  5
2F1F
330
2D9C
100
AcDbEntity
  8
0
 62
     0
100
AcDbLine
 10
11.13082486770269
 20
9.928312292427932
 30
0.0
 11
12.26779326341994
 21
11.06528068814518
 31
0.0
  0
LINE
  5
2F20
330
2D9C
100
AcDbEntity
  8
0
 62
     0
100
AcDbLine
 10
7.748084318730747
 20
6.54557174345598
 30
0.0
 11
8.738033812391932
 21
7.535521237117166
 31
0.0
  0
LINE
  5
2F21
330
2D9C
100
AcDbEntity
  8
0
 62
     0
100
AcDbLine
 10
7.523577915704038
 20
6.770078146482688
 30
0.0
 11
8.513527409365195
 21
7.760027640143817
 31
0.0
  0
LINE
  5
2F22
330
2D9C
100
AcDbEntity
  8
0
 62
     0
100
AcDbLine
 10
7.299071512677301
 20
6.994584549509426
 30
0.0
 11
8.289021006338458
 21
7.984534043170555
 31
0.0
  0
LINE
  5
2F23
330
2D9C
100
AcDbEntity
  8
0
 62
     0
100
AcDbLine
 10
7.074565109650563
 20
7.219090952536163
 30
0.0
 11
8.064514603311721
 21
8.209040446197292
 31
0.0
  0
LINE
  5
2F24
330
2D9C
100
AcDbEntity
  8
0
 62
     0
100
AcDbLine
 10
9.23146131241728
 20
9.824999961356326
 30
0.0
 11
9.658605594491518
 21
10.25214424343059
 31
0.0
  0
LINE
  5
2F25
330
2D9C
100
AcDbEntity
  8
0
 62
     0
100
AcDbLine
 10
6.850100363637892
 20
7.443639012576966
 30
0.0
 11
7.840133185354119
 21
8.433671834293193
 31
0.0
  0
LINE
  5
2F26
330
2D9C
100
AcDbEntity
  8
0
 62
     0
100
AcDbLine
 10
8.782448506363834
 20
9.824999961356326
 30
0.0
 11
9.658605594491547
 21
10.70115704948403
 31
0.0
  0
LINE
  5
2F27
330
2D9C
100
AcDbEntity
  8
0
 62
     0
100
AcDbLine
 10
6.644366401362105
 20
7.686917856354568
 30
0.0
 11
7.675184744710151
 21
8.717736199702642
 31
0.0
  0
LINE
  5
2F28
330
2D9C
100
AcDbEntity
  8
0
 62
     0
100
AcDbLine
 10
8.33343570031036
 20
9.824999961356326
 30
0.0
 11
9.615326144610975
 21
11.10689040565694
 31
0.0
  0
LINE
  5
2F29
330
2D9C
100
AcDbEntity
  8
0
 62
     0
100
AcDbLine
 10
6.474136098230871
 20
7.965700359276809
 30
0.0
 11
7.646105594491586
 21
9.137669855537524
 31
0.0
  0
LINE
  5
2F2A
330
2D9C
100
AcDbEntity
  8
0
 62
     0
100
AcDbLine
 10
7.883189569671856
 20
9.823766636771267
 30
0.0
 11
9.284422894256891
 21
11.22499996135633
 31
0.0
  0
LINE
  5
2F2B
330
2D9C
100
AcDbEntity
  8
0
 62
     0
100
AcDbLine
 10
6.343789450364823
 20
8.284366517464235
 30
0.0
 11
7.647338919076617
 21
9.587915986176057
 31
0.0
  0
LINE
  5
2F2C
330
2D9C
100
AcDbEntity
  8
0
 62
     0
100
AcDbLine
 10
6.26288346924079
 20
8.652473342393648
 30
0.0
 11
8.835410088203474
 21
11.2249999613563
 31
0.0
  0
LINE
  5
2F2D
330
2D9C
100
AcDbEntity
  8
0
 62
     0
100
AcDbLine
 10
6.246105594491581
 20
9.084708273697913
 30
0.0
 11
8.386397282149999
 21
11.22499996135633
 31
0.0
  0
LINE
  5
2F2E
330
2D9C
100
AcDbEntity
  8
0
 62
     0
100
AcDbLine
 10
6.246105594491581
 20
9.533721079751359
 30
0.0
 11
7.937384476096525
 21
11.22499996135633
 31
0.0
  0
LINE
  5
2F2F
330
2D9C
100
AcDbEntity
  8
0
 62
     0
100
AcDbLine
 10
6.256201599710692
 20
9.992829891023944
 30
0.0
 11
7.478275664823996
 21
11.21490395613724
 31
0.0
  0
ENDBLK
  5
2F31
330
2D9C
100
AcDbEntity
  8
0
100
AcDbBlockEnd
  0
BLOCK
  5
357B
330
3571
100
AcDbEntity
  8
0
100
AcDbBlockBegin
  2
*D2
 70
     1
 10
0.0
 20
0.0
 30
0.0
  3
*D2
  1

  0
LINE
  5
3682
330
3571
100
AcDbEntity
  8
SUNPOU
 62
     4
370
    -2
100
AcDbLine
 10
101.3479188193176
 20
210.4810859346585
 30
0.0
 11
101.3479188193176
 21
249.7067864955008
 31
0.0
  0
LINE
  5
3683
330
3571
100
AcDbEntity
  8
SUNPOU
 62
     4
370
    -2
100
AcDbLine
 10
306.3479188193176
 20
210.4810859346585
 30
0.0
 11
306.3479188193176
 21
249.7067864955008
 31
0.0
  0
LINE
  5
3684
330
3571
100
AcDbEntity
  8
SUNPOU
 62
     4
370
    -2
100
AcDbLine
 10
104.3479188193176
 20
248.2067864955009
 30
0.0
 11
303.3479188193176
 21
248.2067864955009
 31
0.0
  0
INSERT
  5
3685
330
3571
100
AcDbEntity
  8
SUNPOU
 62
     4
370
    -2
100
AcDbBlockReference
  2
_OPEN
 10
101.3479188193176
 20
248.2067864955009
 30
0.0
 41
3.0
 42
3.0
 43
3.0
 50
180.0
  0
INSERT
  5
3686
330
3571
100
AcDbEntity
  8
SUNPOU
 62
     4
370
    -2
100
AcDbBlockReference
  2
_OPEN
 10
306.3479188193176
 20
248.2067864955009
 30
0.0
 41
3.0
 42
3.0
 43
3.0
  0
MTEXT
  5
3687
330
3571
100
AcDbEntity
  8
SUNPOU
 62
     4
100
AcDbMText
 10
203.8479188193176
 20
250.7067864955009
 30
0.0
 40
3.0
 41
0.0
 71
     5
 72
     5
  1
\A1;205
 73
     1
 44
1.0
1001
ACAD
1000
MTEXTBEGIN
1070
    73
1070
     1
1070
    44
1040
1.0
1070
    74
1070
     0
1000
MTEXTEND
  0
POINT
  5
3688
330
3571
100
AcDbEntity
  8
DEFPOINTS
 62
     0
100
AcDbPoint
 10
101.3479188193176
 20
207.4810859346584
 30
0.0
  0
POINT
  5
3689
330
3571
100
AcDbEntity
  8
DEFPOINTS
 62
     0
100
AcDbPoint
 10
306.3479188193176
 20
207.4810859346584
 30
0.0
  0
POINT
  5
368A
330
3571
100
AcDbEntity
  8
DEFPOINTS
 62
     0
100
AcDbPoint
 10
306.3479188193176
 20
248.2067864955009
 30
0.0
  0
ENDBLK
  5
357C
330
3571
100
AcDbEntity
  8
0
100
AcDbBlockEnd
  0
BLOCK
  5
3587
330
357D
100
AcDbEntity
  8
0
100
AcDbBlockBegin
  2
*D3
 70
     1
 10
0.0
 20
0.0
 30
0.0
  3
*D3
  1

  0
LINE
  5
368B
330
357D
100
AcDbEntity
  8
SUNPOU
 62
     4
370
    -2
100
AcDbLine
 10
111.3479188515126
 20
212.4810859346585
 30
0.0
 11
111.3479188515126
 21
240.4373220842385
 31
0.0
  0
LINE
  5
368C
330
357D
100
AcDbEntity
  8
SUNPOU
 62
     4
370
    -2
100
AcDbLine
 10
296.347918789732
 20
212.4810859346585
 30
0.0
 11
296.347918789732
 21
240.4373220842385
 31
0.0
  0
LINE
  5
368D
330
357D
100
AcDbEntity
  8
SUNPOU
 62
     4
370
    -2
100
AcDbLine
 10
114.3479188515126
 20
238.9373220842385
 30
0.0
 11
293.347918789732
 21
238.9373220842385
 31
0.0
  0
INSERT
  5
368E
330
357D
100
AcDbEntity
  8
SUNPOU
 62
     4
370
    -2
100
AcDbBlockReference
  2
_OPEN
 10
111.3479188515126
 20
238.9373220842385
 30
0.0
 41
3.0
 42
3.0
 43
3.0
 50
180.0
  0
INSERT
  5
368F
330
357D
100
AcDbEntity
  8
SUNPOU
 62
     4
370
    -2
100
AcDbBlockReference
  2
_OPEN
 10
296.347918789732
 20
238.9373220842385
 30
0.0
 41
3.0
 42
3.0
 43
3.0
  0
MTEXT
  5
3690
330
357D
100
AcDbEntity
  8
SUNPOU
 62
     4
100
AcDbMText
 10
203.8479188206223
 20
241.4373220842385
 30
0.0
 40
3.0
 41
0.0
 71
     5
 72
     5
  1
\A1;185
 73
     1
 44
1.0
1001
ACAD
1000
MTEXTBEGIN
1070
    73
1070
     1
1070
    44
1040
1.0
1070
    74
1070
     0
1000
MTEXTEND
  0
POINT
  5
3691
330
357D
100
AcDbEntity
  8
DEFPOINTS
 62
     0
100
AcDbPoint
 10
111.3479188515126
 20
209.4810859346585
 30
0.0
  0
POINT
  5
3692
330
357D
100
AcDbEntity
  8
DEFPOINTS
 62
     0
100
AcDbPoint
 10
296.347918789732
 20
209.4810859346585
 30
0.0
  0
POINT
  5
3693
330
357D
100
AcDbEntity
  8
DEFPOINTS
 62
     0
100
AcDbPoint
 10
296.347918789732
 20
238.9373220842385
 30
0.0
  0
ENDBLK
  5
3588
330
357D
100
AcDbEntity
  8
0
100
AcDbBlockEnd
  0
BLOCK
  5
3593
330
3589
100
AcDbEntity
  8
0
100
AcDbBlockBegin
  2
*D4
 70
     1
 10
0.0
 20
0.0
 30
0.0
  3
*D4
  1

  0
LINE
  5
3679
330
3589
100
AcDbEntity
  8
SUNPOU
 62
     4
370
    -2
100
AcDbLine
 10
128.8479187859239
 20
86.48108593465861
 30
0.0
 11
128.8479187859239
 21
60.2788864648019
 31
0.0
  0
LINE
  5
367A
330
3589
100
AcDbEntity
  8
SUNPOU
 62
     4
370
    -2
100
AcDbLine
 10
278.8479188063233
 20
86.48108593465858
 30
0.0
 11
278.8479188063233
 21
60.2788864648019
 31
0.0
  0
LINE
  5
367B
330
3589
100
AcDbEntity
  8
SUNPOU
 62
     4
370
    -2
100
AcDbLine
 10
131.8479187859239
 20
61.7788864648019
 30
0.0
 11
275.8479188063233
 21
61.7788864648019
 31
0.0
  0
INSERT
  5
367C
330
3589
100
AcDbEntity
  8
SUNPOU
 62
     4
370
    -2
100
AcDbBlockReference
  2
_OPEN
 10
128.8479187859239
 20
61.7788864648019
 30
0.0
 41
3.0
 42
3.0
 43
3.0
 50
180.0
  0
INSERT
  5
367D
330
3589
100
AcDbEntity
  8
SUNPOU
 62
     4
370
    -2
100
AcDbBlockReference
  2
_OPEN
 10
278.8479188063233
 20
61.7788864648019
 30
0.0
 41
3.0
 42
3.0
 43
3.0
  0
MTEXT
  5
367E
330
3589
100
AcDbEntity
  8
SUNPOU
 62
     4
100
AcDbMText
 10
203.8479187961236
 20
64.2788864648019
 30
0.0
 40
3.0
 41
0.0
 71
     5
 72
     5
  1
\A1;150
 73
     1
 44
1.0
1001
ACAD
1000
MTEXTBEGIN
1070
    73
1070
     1
1070
    44
1040
1.0
1070
    74
1070
     0
1000
MTEXTEND
  0
POINT
  5
367F
330
3589
100
AcDbEntity
  8
DEFPOINTS
 62
     0
100
AcDbPoint
 10
128.8479187859239
 20
89.4810859346586
 30
0.0
  0
POINT
  5
3680
330
3589
100
AcDbEntity
  8
DEFPOINTS
 62
     0
100
AcDbPoint
 10
278.8479188063233
 20
89.48108593465859
 30
0.0
  0
POINT
  5
3681
330
3589
100
AcDbEntity
  8
DEFPOINTS
 62
     0
100
AcDbPoint
 10
278.8479188063233
 20
61.7788864648019
 30
0.0
  0
ENDBLK
  5
3594
330
3589
100
AcDbEntity
  8
0
100
AcDbBlockEnd
  0
BLOCK
  5
359F
330
3595
100
AcDbEntity
  8
0
100
AcDbBlockBegin
  2
*D5
 70
     1
 10
0.0
 20
0.0
 30
0.0
  3
*D5
  1

  0
LINE
  5
3694
330
3595
100
AcDbEntity
  8
SUNPOU
 62
     4
370
    -2
100
AcDbLine
 10
307.3479188193176
 20
209.4810859346584
 30
0.0
 11
349.2636932849295
 21
209.4810859346584
 31
0.0
  0
LINE
  5
3695
330
3595
100
AcDbEntity
  8
SUNPOU
 62
     4
370
    -2
100
AcDbLine
 10
281.8479188063233
 20
89.48108593465859
 30
0.0
 11
349.2636932849295
 21
89.48108593465857
 31
0.0
  0
LINE
  5
3696
330
3595
100
AcDbEntity
  8
SUNPOU
 62
     4
370
    -2
100
AcDbLine
 10
347.7636932849295
 20
206.4810859346584
 30
0.0
 11
347.7636932849295
 21
92.48108593465856
 31
0.0
  0
INSERT
  5
3697
330
3595
100
AcDbEntity
  8
SUNPOU
 62
     4
370
    -2
100
AcDbBlockReference
  2
_OPEN
 10
347.7636932849295
 20
209.4810859346584
 30
0.0
 41
3.0
 42
3.0
 43
3.0
 50
90.0
  0
INSERT
  5
3698
330
3595
100
AcDbEntity
  8
SUNPOU
 62
     4
370
    -2
100
AcDbBlockReference
  2
_OPEN
 10
347.7636932849295
 20
89.48108593465857
 30
0.0
 41
3.0
 42
3.0
 43
3.0
 50
270.0
  0
MTEXT
  5
3699
330
3595
100
AcDbEntity
  8
SUNPOU
 62
     4
100
AcDbMText
 10
345.2636932849295
 20
149.4810859346585
 30
0.0
 40
3.0
 41
0.0
 71
     5
 72
     5
  1
\A1;120
 11
0.0000000000000001
 21
1.0
 31
0.0
 73
     1
 44
1.0
1001
ACAD
1000
MTEXTBEGIN
1070
    73
1070
     1
1070
    44
1040
1.0
1070
    74
1070
     0
1000
MTEXTEND
  0
POINT
  5
369A
330
3595
100
AcDbEntity
  8
DEFPOINTS
 62
     0
100
AcDbPoint
 10
304.3479188193176
 20
209.4810859346584
 30
0.0
  0
POINT
  5
369B
330
3595
100
AcDbEntity
  8
DEFPOINTS
 62
     0
100
AcDbPoint
 10
278.8479188063233
 20
89.48108593465859
 30
0.0
  0
POINT
  5
369C
330
3595
100
AcDbEntity
  8
DEFPOINTS
 62
     0
100
AcDbPoint
 10
347.7636932849295
 20
89.48108593465857
 30
0.0
  0
ENDBLK
  5
35A0
330
3595
100
AcDbEntity
  8
0
100
AcDbBlockEnd
  0
BLOCK
  5
35AD
330
35A1
100
AcDbEntity
  8
0
100
AcDbBlockBegin
  2
*D6
 70
     1
 10
0.0
 20
0.0
 30
0.0
  3
*D6
  1

  0
LINE
  5
369D
330
35A1
100
AcDbEntity
  8
SUNPOU
 62
     4
370
    -2
100
AcDbLine
 10
285.6103163194933
 20
142.0909196318513
 30
0.0
 11
286.5213203934245
 21
147.8084637651555
 31
0.0
  0
LINE
  5
369E
330
35A1
100
AcDbEntity
  8
SUNPOU
 62
     4
370
    -2
100
AcDbLine
 10
287.1903849630551
 20
141.8391596212917
 30
0.0
 11
288.1013890369862
 21
147.5567037545958
 31
0.0
  0
LINE
  5
369F
330
35A1
100
AcDbEntity
  8
SUNPOU
 62
     4
370
    -2
100
AcDbLine
 10
283.3226666901435
 20
146.7991994358111
 30
0.0
 11
280.360037995781
 21
147.271249453648
 31
0.0
  0
LINE
  5
36A0
330
35A1
100
AcDbEntity
  8
SUNPOU
 62
     4
370
    -2
100
AcDbLine
 10
290.8279927224303
 20
145.6033393895776
 30
0.0
 11
303.6660503980012
 21
143.5577893122843
 31
0.0
  0
LINE
  5
36A1
330
35A1
100
AcDbEntity
  8
SUNPOU
 62
     4
370
    -2
100
AcDbLine
 10
286.285295384506
 20
146.3271494179742
 30
0.0
 11
287.8653640280678
 21
146.0753894074145
 31
0.0
  0
INSERT
  5
36A2
330
35A1
100
AcDbEntity
  8
SUNPOU
 62
     4
370
    -2
100
AcDbBlockReference
  2
_OPEN
 10
286.285295384506
 20
146.3271494179742
 30
0.0
 41
3.0
 42
3.0
 43
3.0
 50
350.946885584769
  0
INSERT
  5
36A3
330
35A1
100
AcDbEntity
  8
SUNPOU
 62
     4
370
    -2
100
AcDbBlockReference
  2
_OPEN
 10
287.8653640280678
 20
146.0753894074145
 30
0.0
 41
3.0
 42
3.0
 43
3.0
 50
170.946885584769
  0
MTEXT
  5
36A4
330
35A1
100
AcDbEntity
  8
SUNPOU
 62
     4
100
AcDbMText
 10
299.1217109222611
 20
146.8133965873146
 30
0.0
 40
3.0
 41
0.0
 71
     5
 72
     5
  1
\A1;t1.6
 11
0.9875428981208392
 21
-0.157350005945644
 31
0.0
 73
     1
 44
1.0
1001
ACAD
1000
MTEXTBEGIN
1070
    73
1070
     1
1070
    44
1040
1.0
1070
    74
1070
     0
1000
MTEXTEND
  0
POINT
  5
36A5
330
35A1
100
AcDbEntity
  8
DEFPOINTS
 62
     0
100
AcDbPoint
 10
285.1382663016564
 20
139.1282909374888
 30
0.0
  0
POINT
  5
36A6
330
35A1
100
AcDbEntity
  8
DEFPOINTS
 62
     0
100
AcDbPoint
 10
286.7183349452182
 20
138.8765309269292
 30
0.0
  0
POINT
  5
36A7
330
35A1
100
AcDbEntity
  8
DEFPOINTS
 62
     0
100
AcDbPoint
 10
287.8653640280678
 20
146.0753894074145
 30
0.0
  0
ENDBLK
  5
35AE
330
35A1
100
AcDbEntity
  8
0
100
AcDbBlockEnd
  0
BLOCK
  5
35B9
330
35AF
100
AcDbEntity
  8
0
100
AcDbBlockBegin
  2
*D7
 70
     1
 10
0.0
 20
0.0
 30
0.0
  3
*D7
  1

  0
LINE
  5
36A8
330
35AF
100
AcDbEntity
  8
SUNPOU
 62
     4
370
    -2
100
AcDbLine
 10
307.3479188193176
 20
209.4810859346584
 30
0.0
 11
337.9559692992372
 21
209.4810859346584
 31
0.0
  0
LINE
  5
36A9
330
35AF
100
AcDbEntity
  8
SUNPOU
 62
     4
370
    -2
100
AcDbLine
 10
307.8479188105498
 20
185.4810859346585
 30
0.0
 11
337.9559692992372
 21
185.4810859346585
 31
0.0
  0
LINE
  5
36AA
330
35AF
100
AcDbEntity
  8
SUNPOU
 62
     4
370
    -2
100
AcDbLine
 10
336.4559692992372
 20
206.4810859346584
 30
0.0
 11
336.4559692992372
 21
188.4810859346585
 31
0.0
  0
INSERT
  5
36AB
330
35AF
100
AcDbEntity
  8
SUNPOU
 62
     4
370
    -2
100
AcDbBlockReference
  2
_OPEN
 10
336.4559692992372
 20
209.4810859346584
 30
0.0
 41
3.0
 42
3.0
 43
3.0
 50
90.0
  0
INSERT
  5
36AC
330
35AF
100
AcDbEntity
  8
SUNPOU
 62
     4
370
    -2
100
AcDbBlockReference
  2
_OPEN
 10
336.4559692992372
 20
185.4810859346585
 30
0.0
 41
3.0
 42
3.0
 43
3.0
 50
270.0
  0
MTEXT
  5
36AD
330
35AF
100
AcDbEntity
  8
SUNPOU
 62
     4
100
AcDbMText
 10
333.9559692992371
 20
197.4810859346585
 30
0.0
 40
3.0
 41
0.0
 71
     5
 72
     5
  1
\A1;24
 11
0.0000000000000001
 21
1.0
 31
0.0
 73
     1
 44
1.0
1001
ACAD
1000
MTEXTBEGIN
1070
    73
1070
     1
1070
    44
1040
1.0
1070
    74
1070
     0
1000
MTEXTEND
  0
POINT
  5
36AE
330
35AF
100
AcDbEntity
  8
DEFPOINTS
 62
     0
100
AcDbPoint
 10
304.3479188193176
 20
209.4810859346584
 30
0.0
  0
POINT
  5
36AF
330
35AF
100
AcDbEntity
  8
DEFPOINTS
 62
     0
100
AcDbPoint
 10
304.8479188105498
 20
185.4810859346585
 30
0.0
  0
POINT
  5
36B0
330
35AF
100
AcDbEntity
  8
DEFPOINTS
 62
     0
100
AcDbPoint
 10
336.4559692992372
 20
185.4810859346585
 30
0.0
  0
ENDBLK
  5
35BA
330
35AF
100
AcDbEntity
  8
0
100
AcDbBlockEnd
  0
ENDSEC
  0
SECTION
  2
ENTITIES
  0
LWPOLYLINE
  5
ABF
330
1A
100
AcDbEntity
  8
ZUWAKU
100
AcDbPolyline
 90
        4
 70
     1
 43
0.0
 10
7.399999517101036
 20
282.3999999613564
 10
7.399999517101036
 20
7.3999999613564
 10
405.399999517101
 20
7.3999999613564
 10
405.399999517101
 20
282.3999999613564
  0
LWPOLYLINE
  5
AC0
330
1A
100
AcDbEntity
  8
ZUWAKU
100
AcDbPolyline
 90
        4
 70
     1
 43
0.0
 10
7.199999517101048
 20
282.5999999613563
 10
7.199999517101048
 20
7.199999961356411
 10
405.5999995171011
 20
7.199999961356399
 10
405.5999995171011
 20
282.5999999613563
  0
LWPOLYLINE
  5
AC1
330
1A
100
AcDbEntity
  8
ZUWAKU
100
AcDbPolyline
 90
        4
 70
     1
 43
0.0
 10
6.999999517101059
 20
282.7999999613563
 10
6.999999517101059
 20
6.999999961356365
 10
405.7999995171011
 20
6.999999961356399
 10
405.7999995171011
 20
282.7999999613564
  0
LWPOLYLINE
  5
AC2
330
1A
100
AcDbEntity
  8
ZUWAKU
100
AcDbPolyline
 90
        4
 70
     1
 43
0.0
 10
7.299999517101014
 20
282.4999999613564
 10
7.299999517101014
 20
7.299999961356377
 10
405.4999995171011
 20
7.2999999613564
 10
405.499999517101
 20
282.4999999613564
  0
LWPOLYLINE
  5
AC3
330
1A
100
AcDbEntity
  8
ZUWAKU
100
AcDbPolyline
 90
        4
 70
     1
 43
0.0
 10
7.099999517101025
 20
282.6999999613564
 10
7.099999517101025
 20
7.099999961356388
 10
405.6999995171009
 20
7.0999999613564
 10
405.699999517101
 20
282.6999999613564
  0
LINE
  5
139C
330
1A
100
AcDbEntity
  8
ZUWAKU
100
AcDbLine
 10
6.999999517101059
 20
21.99999996135636
 30
0.0
 11
405.6999995171009
 21
21.99999996135636
 31
0.0
  0
LINE
  5
139D
330
1A
100
AcDbEntity
  8
ZUWAKU
100
AcDbLine
 10
6.999999517101059
 20
21.89999996135636
 30
0.0
 11
405.6999995171009
 21
21.89999996135636
 31
0.0
  0
LINE
  5
139E
330
1A
100
AcDbEntity
  8
ZUWAKU
100
AcDbLine
 10
6.999999517101059
 20
21.79999996135636
 30
0.0
 11
405.6999995171009
 21
21.79999996135636
 31
0.0
  0
LINE
  5
139F
330
1A
100
AcDbEntity
  8
ZUWAKU
100
AcDbLine
 10
6.999999517101059
 20
21.69999996135636
 30
0.0
 11
405.6999995171009
 21
21.69999996135636
 31
0.0
  0
LINE
  5
13A0
330
1A
100
AcDbEntity
  8
ZUWAKU
100
AcDbLine
 10
6.999999517101059
 20
21.59999996135636
 30
0.0
 11
405.6999995171009
 21
21.59999996135636
 31
0.0
  0
LINE
  5
13A1
330
1A
100
AcDbEntity
  8
ZUWAKU
100
AcDbLine
 10
111.9233001621349
 20
14.29999996135637
 30
0.0
 11
231.3121815025966
 21
14.29999996135637
 31
0.0
  0
LINE
  5
13A2
330
1A
100
AcDbEntity
  8
ZUWAKU
100
AcDbLine
 10
111.9233001621349
 20
14.39999996135637
 30
0.0
 11
231.3121815025966
 21
14.39999996135637
 31
0.0
  0
LINE
  5
13A3
330
1A
100
AcDbEntity
  8
ZUWAKU
100
AcDbLine
 10
111.9233001621349
 20
14.19999996135638
 30
0.0
 11
231.3121815025966
 21
14.19999996135638
 31
0.0
  0
LINE
  5
13A4
330
1A
100
AcDbEntity
  8
ZUWAKU
100
AcDbLine
 10
29.08360559449153
 20
18.22499996135636
 30
0.0
 11
28.20860559449153
 21
18.22499996135636
 31
0.0
  0
LINE
  5
13A5
330
1A
100
AcDbEntity
  8
ZUWAKU
100
AcDbLine
 10
28.20860559449153
 20
10.17499996135636
 30
0.0
 11
29.08360559449153
 21
10.17499996135636
 31
0.0
  0
INSERT
  5
13A6
330
1A
100
AcDbEntity
  8
ZUWAKU
  6
Continuous
100
AcDbBlockReference
  2
*X1
 10
7.0
 20
7.0
 30
0.0
1001
ACAD
1000
HATCH
1002
{
1070
    19
1000
ANSI37
1040
0.1
1040
0.0
1000
R14_HATCH_DATA
1000
13A6
1011
8.0
1021
7.0
1031
0.0
1011
7.0
1021
8.0
1031
0.0
1011
7.0
1021
7.0
1031
1.0
1040
0.0
1010
0.0
1020
0.0
1030
1.0
1000
ANSI37
1070
     0
1070
     0
1071
        8
1071
        7
1070
     1
1070
     1
1071
       24
1040
7.851130847660897
1040
8.422424201848144
1040
-0.1989123673796348
1040
7.64610559449153
1040
8.91739894867868
1040
0.0
1040
7.64610559449153
1040
9.562499961356365
1040
-0.4142135623730912
1040
7.908605594491518
1040
9.824999961356361
1040
0.0
1040
9.396105594491473
1040
9.824999961356361
1040
0.4142135623731546
1040
9.658605594491518
1040
10.08749996135635
1040
0.0
1040
9.658605594491518
1040
10.96249996135636
1040
0.4142135623731586
1040
9.396105594491473
1040
11.22499996135636
1040
0.0
1040
7.64610559449153
1040
11.22499996135636
1040
0.4142135623730928
1040
6.246105594491552
1040
9.824999961356375
1040
0.0
1040
6.246105594491552
1040
8.917398948678737
1040
0.1989123673796619
1040
6.861181353999768
1040
7.43247470818693
1040
0.0
1040
8.316080341322106
1040
5.977575720864606
1040
-0.1989123673796613
1040
8.52110559449153
1040
5.482600974034014
1040
0.0
1040
8.52110559449153
1040
4.837499961356357
1040
-0.4142135623730911
1040
8.258605594491541
1040
4.574999961356354
1040
0.0
1040
6.771105594491586
1040
4.574999961356354
1040
0.4142135623731526
1040
6.508605594491541
1040
4.312499961356365
1040
0.0
1040
6.508605594491541
1040
3.437499961356365
1040
0.4142135623731526
1040
6.771105594491586
1040
3.174999961356363
1040
0.0
1040
8.52110559449153
1040
3.174999961356363
1040
0.4142135623731044
1040
9.921105594491564
1040
4.574999961356354
1040
0.0
1040
9.921105594491564
1040
5.482600974033985
1040
0.1989123673796604
1040
9.306029834983291
1040
6.96752521452575
1040
0.0
1071
        0
1071
        7
1070
     1
1070
     1
1071
       16
1040
12.37110559449155
1040
9.124999961356365
1040
-0.4142135623730935
1040
13.07110559449154
1040
9.824999961356361
1040
0.0
1040
14.03360559449152
1040
9.824999961356361
1040
0.4142135623731546
1040
14.29610559449156
1040
10.08749996135635
1040
0.0
1040
14.29610559449156
1040
10.96249996135636
1040
0.4142135623730951
1040
14.03360559449157
1040
11.22499996135636
1040
0.0
1040
13.07110559449148
1040
11.22499996135634
1040
0.4142135623730892
1040
10.97110559449151
1040
9.124999961356337
1040
0.0
1040
10.97110559449151
1040
5.274999961356371
1040
0.4142135623730969
1040
13.07110559449154
1040
3.174999961356363
1040
0.0
1040
14.03360559449152
1040
3.174999961356363
1040
0.4142135623731526
1040
14.29610559449156
1040
3.437499961356365
1040
0.0
1040
14.29610559449156
1040
4.312499961356365
1040
0.4142135623730891
1040
14.03360559449157
1040
4.574999961356354
1040
0.0
1040
13.07110559449154
1040
4.574999961356354
1040
-0.4142135623730928
1040
12.37110559449155
1040
5.274999961356357
1040
0.0
1071
        0
1071
        7
1070
     1
1070
     1
1071
        2
1040
12.72110559449151
1040
7.199999961356354
1040
1.0
1040
14.47110559449152
1040
7.199999961356354
1040
1.0
1071
        0
1071
        7
1070
     1
1070
     1
1071
       26
1040
19.25742883558052
1040
9.202523558138068
1040
0.0
1040
19.78824865214943
1040
10.88345297727286
1040
0.5069206636600134
1040
19.53793320255175
1040
11.22499996135636
1040
0.0
1040
18.68848851274714
1040
11.22499996135636
1040
0.3272098845218764
1040
18.43817306314946
1040
11.04154694543984
1040
0.0
1040
17.50403812583357
1040
8.083452977272898
1040
-0.3272098845219541
1040
17.25372267623583
1040
7.899999961356357
1040
0.0
1040
17.18360559449161
1040
7.899999961356357
1040
-0.4142135623731526
1040
16.92110559449156
1040
8.16249996135636
1040
0.0
1040
16.92110559449156
1040
10.96249996135636
1040
0.4142135623730951
1040
16.65860559449157
1040
11.22499996135636
1040
0.0
1040
15.78360559449151
1040
11.22499996135636
1040
0.4142135623730871
1040
15.52110559449153
1040
10.96249996135637
1040
0.0
1040
15.52110559449153
1040
3.437499961356365
1040
0.4142135623730891
1040
15.78360559449151
1040
3.174999961356363
1040
0.0
1040
16.65860559449152
1040
3.174999961356363
1040
0.4142135623731526
1040
16.92110559449156
1040
3.437499961356365
1040
0.0
1040
16.92110559449156
1040
6.237499961356377
1040
-0.4142135623731526
1040
17.18360559449161
1040
6.499999961356365
1040
0.0
1040
17.25372267623589
1040
6.499999961356365
1040
-0.3272098845218915
1040
17.50403812583357
1040
6.316546945439824
1040
0.0
1040
18.43817306314946
1040
3.358452977272889
1040
0.3272098845218902
1040
18.68848851274714
1040
3.174999961356363
1040
0.0
1040
19.53793320255175
1040
3.174999961356363
1040
0.5069206636600335
1040
19.78824865214943
1040
3.51654694543987
1040
0.0
1040
18.6250529629126
1040
7.199999961356439
1040
0.0
1071
        0
1071
        7
1070
     1
1070
     1
1071
        8
1040
22.34610559449151
1040
10.96249996135637
1040
0.4142135623731546
1040
22.08360559449147
1040
11.22499996135636
1040
0.0
1040
21.20860559449158
1040
11.22499996135636
1040
0.4142135623731507
1040
20.94610559449154
1040
10.96249996135637
1040
0.0
1040
20.94610559449154
1040
3.437499961356365
1040
0.4142135623731526
1040
21.20860559449158
1040
3.174999961356363
1040
0.0
1040
22.08360559449147
1040
3.174999961356363
1040
0.4142135623731526
1040
22.34610559449151
1040
3.437499961356365
1040
0.0
1071
        0
1071
        7
1070
     1
1070
     1
1071
       24
1040
24.79610559449156
1040
9.562499961356365
1040
-0.4142135623731546
1040
25.0586055944916
1040
9.824999961356361
1040
0.0
1040
26.54610559449156
1040
9.824999961356361
1040
0.4142135623730911
1040
26.80860559449155
1040
10.08749996135635
1040
0.0
1040
26.80860559449155
1040
10.96249996135636
1040
0.4142135623730952
1040
26.54610559449156
1040
11.22499996135636
1040
0.0
1040
24.79610559449156
1040
11.22499996135636
1040
0.4142135623731048
1040
23.39610559449153
1040
9.824999961356375
1040
0.0
1040
23.39610559449153
1040
8.917398948678737
1040
0.1989123673796613
1040
24.0111813539998
1040
7.432474708186958
1040
0.0
1040
25.46608034132214
1040
5.977575720864635
1040
-0.1989123673796402
1040
25.67110559449156
1040
5.482600974034099
1040
0.0
1040
25.67110559449156
1040
4.837499961356357
1040
-0.4142135623730911
1040
25.40860559449157
1040
4.574999961356354
1040
0.0
1040
23.92110559449156
1040
4.574999961356354
1040
0.4142135623731526
1040
23.65860559449151
1040
4.312499961356365
1040
0.0
1040
23.65860559449151
1040
3.437499961356365
1040
0.4142135623730891
1040
23.9211055944915
1040
3.174999961356363
1040
0.0
1040
25.67110559449156
1040
3.174999961356363
1040
0.4142135623730925
1040
27.07110559449154
1040
4.574999961356354
1040
0.0
1040
27.07110559449154
1040
5.482600974033985
1040
0.1989123673796675
1040
26.45602983498327
1040
6.967525214525807
1040
0.0
1040
25.00113084766098
1040
8.422424201848073
1040
-0.1989123673796652
1040
24.79610559449156
1040
8.917398948678652
1040
0.0
1071
        0
1071
        7
1070
     1
1070
     1
1071
       16
1040
29.52110559449153
1040
10.96249996135635
1040
0.414213562373103
1040
29.25860559449154
1040
11.22499996135636
1040
0.0
1040
28.38360559449154
1040
11.22499996135636
1040
0.4142135623730871
1040
28.12110559449155
1040
10.96249996135637
1040
0.0
1040
28.12110559449155
1040
4.574999961356354
1040
0.4142135623730926
1040
29.52110559449153
1040
3.174999961356363
1040
0.0
1040
31.27110559449153
1040
3.174999961356363
1040
0.4142135623731044
1040
32.67110559449156
1040
4.574999961356354
1040
0.0
1040
32.67110559449156
1040
10.96249996135636
1040
0.4142135623730951
1040
32.40860559449157
1040
11.22499996135636
1040
0.0
1040
31.53360559449152
1040
11.22499996135636
1040
0.4142135623730871
1040
31.27110559449153
1040
10.96249996135637
1040
0.0
1040
31.27110559449153
1040
5.099999961356346
1040
-0.414213562373088
1040
30.74610559449155
1040
4.574999961356354
1040
0.0
1040
30.04610559449156
1040
4.574999961356354
1040
-0.4142135623731197
1040
29.52110559449153
1040
5.099999961356346
1040
0.0
1071
        0
1071
        7
1070
     1
1070
     1
1071
        8
1040
35.12110559449155
1040
10.96249996135637
1040
0.4142135623730871
1040
34.85860559449156
1040
11.22499996135636
1040
0.0
1040
33.98360559449156
1040
11.22499996135636
1040
0.4142135623731507
1040
33.72110559449152
1040
10.96249996135637
1040
0.0
1040
33.72110559449152
1040
3.437499961356365
1040
0.4142135623730891
1040
33.9836055944915
1040
3.174999961356363
1040
0.0
1040
34.85860559449156
1040
3.174999961356363
1040
0.4142135623730891
1040
35.12110559449155
1040
3.437499961356365
1040
0.0
1071
        0
1070
     0
1070
     1
1040
0.0
1040
0.1
1070
     0
1070
     2
1040
0.7853981633974483
1040
-449.8711526502384
1040
-7.000000038643605
1040
-0.2245064030267288
1040
0.2245064030267288
1070
     0
1040
2.356194490192344
1040
-449.8711526502384
1040
-7.000000038643605
1040
-0.2245064030267288
1040
-0.2245064030267288
1070
     0
1040
0.057451373970553
1071
        8
1040
8.639926998612622
1040
7.183586784299137
1040
0.0
1040
11.80225702032055
1040
9.022031052581866
1040
0.0
1040
13.18218345993079
1040
7.355940784391719
1040
0.0
1040
16.05702950791953
1040
7.700648784577111
1040
0.0
1040
21.51923552657933
1040
7.930454918347919
1040
0.0
1040
24.04909996466574
1040
9.309288119559965
1040
0.0
1040
28.87884250330114
1040
8.964578918903868
1040
0.0
1040
34.51353932691233
1040
9.194385052674675
1040
0.0
1002
}
  0
LINE
  5
13A7
330
1A
100
AcDbEntity
  8
ZUWAKU
100
AcDbLine
 10
20.07110559449154
 20
18.22499996135634
 30
0.0
 11
21.03360559449151
 21
18.22499996135636
 31
0.0
  0
LINE
  5
13A8
330
1A
100
AcDbEntity
  8
ZUWAKU
100
AcDbLine
 10
21.03360559449151
 20
16.82499996135636
 30
0.0
 11
20.07110559449154
 21
16.82499996135636
 31
0.0
  0
CIRCLE
  5
13A9
330
1A
100
AcDbEntity
  8
ZUWAKU
100
AcDbCircle
 10
20.59610559449152
 20
14.19999996135635
 30
0.0
 40
0.875
  0
LINE
  5
13AA
330
1A
100
AcDbEntity
  8
ZUWAKU
100
AcDbLine
 10
20.07110559449154
 20
11.57499996135635
 30
0.0
 11
21.03360559449151
 21
11.57499996135635
 31
0.0
  0
LINE
  5
13AB
330
1A
100
AcDbEntity
  8
ZUWAKU
100
AcDbLine
 10
21.03360559449151
 20
10.17499996135636
 30
0.0
 11
20.07110559449154
 21
10.17499996135636
 31
0.0
  0
LINE
  5
13AC
330
1A
100
AcDbEntity
  8
ZUWAKU
100
AcDbLine
 10
19.37110559449155
 20
16.12499996135636
 30
0.0
 11
19.37110559449155
 21
12.27499996135637
 31
0.0
  0
LINE
  5
13AD
330
1A
100
AcDbEntity
  8
ZUWAKU
100
AcDbLine
 10
13.86118135399976
 20
14.43247470818695
 30
0.0
 11
15.3160803413221
 21
12.97757572086462
 31
0.0
  0
LINE
  5
13AE
330
1A
100
AcDbEntity
  8
ZUWAKU
100
AcDbLine
 10
17.97110559449151
 20
12.27499996135637
 30
0.0
 11
17.97110559449151
 21
16.12499996135633
 31
0.0
  0
LINE
  5
13AF
330
1A
100
AcDbEntity
  8
ZUWAKU
100
AcDbLine
 10
16.30602983498329
 20
13.96752521452578
 30
0.0
 11
14.85113084766095
 21
15.42242420184811
 31
0.0
  0
ARC
  5
13B0
330
1A
100
AcDbEntity
  8
ZUWAKU
100
AcDbCircle
 10
15.52110559449153
 20
11.57499996135635
 30
0.0
 40
1.399999999999999
100
AcDbArc
 50
270.0
 51
0.0
  0
ARC
  5
13B1
330
1A
100
AcDbEntity
  8
ZUWAKU
100
AcDbCircle
 10
14.82110559449154
 20
12.48260097403402
 30
0.0
 40
0.7
100
AcDbArc
 50
0.0
 51
45.00000000000022
  0
ARC
  5
13B2
330
1A
100
AcDbEntity
  8
ZUWAKU
100
AcDbCircle
 10
15.25860559449154
 20
11.83749996135637
 30
0.0
 40
0.2625
100
AcDbArc
 50
270.0
 51
0.0
  0
LINE
  5
13B3
330
1A
100
AcDbEntity
  8
ZUWAKU
100
AcDbLine
 10
15.52110559449153
 20
11.83749996135637
 30
0.0
 11
15.52110559449153
 21
12.48260097403402
 31
0.0
  0
LINE
  5
13B4
330
1A
100
AcDbEntity
  8
ZUWAKU
100
AcDbLine
 10
13.50860559449154
 20
10.43749996135636
 30
0.0
 11
13.50860559449154
 21
11.31249996135636
 31
0.0
  0
ARC
  5
13B5
330
1A
100
AcDbEntity
  8
ZUWAKU
100
AcDbCircle
 10
13.77110559449153
 20
10.43749996135636
 30
0.0
 40
0.2625
100
AcDbArc
 50
180.0
 51
270.0
  0
ARC
  5
13B6
330
1A
100
AcDbEntity
  8
ZUWAKU
100
AcDbCircle
 10
13.77110559449153
 20
11.31249996135636
 30
0.0
 40
0.2625
100
AcDbArc
 50
90.0
 51
180.0
  0
LINE
  5
13B7
330
1A
100
AcDbEntity
  8
ZUWAKU
100
AcDbLine
 10
13.77110559449153
 20
10.17499996135636
 30
0.0
 11
15.52110559449153
 21
10.17499996135636
 31
0.0
  0
LINE
  5
13B8
330
1A
100
AcDbEntity
  8
ZUWAKU
100
AcDbLine
 10
13.77110559449153
 20
11.57499996135635
 30
0.0
 11
15.25860559449154
 21
11.57499996135635
 31
0.0
  0
ARC
  5
13B9
330
1A
100
AcDbEntity
  8
ZUWAKU
100
AcDbCircle
 10
20.07110559449154
 20
12.27499996135637
 30
0.0
 40
0.7
100
AcDbArc
 50
180.0
 51
270.0
  0
ARC
  5
13BA
330
1A
100
AcDbEntity
  8
ZUWAKU
100
AcDbCircle
 10
14.82110559449154
 20
12.48260097403401
 30
0.0
 40
2.099999999999999
100
AcDbArc
 50
0.0
 51
45.00000000000022
  0
LINE
  5
13BB
330
1A
100
AcDbEntity
  8
ZUWAKU
100
AcDbLine
 10
16.92110559449156
 20
11.57499996135635
 30
0.0
 11
16.92110559449156
 21
12.48260097403402
 31
0.0
  0
ARC
  5
13BC
330
1A
100
AcDbEntity
  8
ZUWAKU
100
AcDbCircle
 10
20.07110559449154
 20
12.27499996135637
 30
0.0
 40
2.099999999999999
100
AcDbArc
 50
180.0
 51
270.0
  0
LINE
  5
13BD
330
1A
100
AcDbEntity
  8
ZUWAKU
100
AcDbLine
 10
14.64610559449153
 20
18.22499996135636
 30
0.0
 11
16.39610559449153
 21
18.22499996135636
 31
0.0
  0
LINE
  5
13BE
330
1A
100
AcDbEntity
  8
ZUWAKU
100
AcDbLine
 10
16.39610559449153
 20
16.82499996135636
 30
0.0
 11
14.90860559449151
 21
16.82499996135636
 31
0.0
  0
ARC
  5
13BF
330
1A
100
AcDbEntity
  8
ZUWAKU
100
AcDbCircle
 10
15.34610559449151
 20
15.9173989486787
 30
0.0
 40
0.7
100
AcDbArc
 50
180.0000000000016
 51
224.999999999999
  0
ARC
  5
13C0
330
1A
100
AcDbEntity
  8
ZUWAKU
100
AcDbCircle
 10
14.90860559449151
 20
16.56249996135636
 30
0.0
 40
0.2625
100
AcDbArc
 50
90.0
 51
180.0
  0
LINE
  5
13C1
330
1A
100
AcDbEntity
  8
ZUWAKU
100
AcDbLine
 10
14.64610559449153
 20
16.56249996135636
 30
0.0
 11
14.64610559449153
 21
15.91739894867869
 31
0.0
  0
LINE
  5
13C2
330
1A
100
AcDbEntity
  8
ZUWAKU
100
AcDbLine
 10
13.24610559449155
 20
16.82499996135636
 30
0.0
 11
13.24610559449155
 21
15.91739894867869
 31
0.0
  0
ARC
  5
13C3
330
1A
100
AcDbEntity
  8
ZUWAKU
100
AcDbCircle
 10
14.64610559449153
 20
16.82499996135636
 30
0.0
 40
1.399999999999999
100
AcDbArc
 50
90.0
 51
180.0
  0
ARC
  5
13C4
330
1A
100
AcDbEntity
  8
ZUWAKU
100
AcDbCircle
 10
15.34610559449151
 20
15.9173989486787
 30
0.0
 40
2.099999999999999
100
AcDbArc
 50
180.0
 51
225.0000000000002
  0
ARC
  5
13C5
330
1A
100
AcDbEntity
  8
ZUWAKU
100
AcDbCircle
 10
20.07110559449154
 20
16.12499996135636
 30
0.0
 40
0.7
100
AcDbArc
 50
90.0
 51
180.0
  0
ARC
  5
13C6
330
1A
100
AcDbEntity
  8
ZUWAKU
100
AcDbCircle
 10
16.39610559449153
 20
17.08749996135635
 30
0.0
 40
0.2625
100
AcDbArc
 50
270.0
 51
0.0
  0
LINE
  5
13C7
330
1A
100
AcDbEntity
  8
ZUWAKU
100
AcDbLine
 10
16.65860559449152
 20
17.96249996135635
 30
0.0
 11
16.65860559449152
 21
17.08749996135635
 31
0.0
  0
ARC
  5
13C8
330
1A
100
AcDbEntity
  8
ZUWAKU
100
AcDbCircle
 10
16.39610559449153
 20
17.96249996135635
 30
0.0
 40
0.2625
100
AcDbArc
 50
0.0
 51
90.0
  0
ARC
  5
13C9
330
1A
100
AcDbEntity
  8
ZUWAKU
100
AcDbCircle
 10
20.07110559449154
 20
16.12499996135633
 30
0.0
 40
2.099999999999999
100
AcDbArc
 50
90.0
 51
180.0
  0
LINE
  5
13CA
330
1A
100
AcDbEntity
  8
ZUWAKU
100
AcDbLine
 10
27.94610559449154
 20
17.96249996135635
 30
0.0
 11
27.94610559449154
 21
10.43749996135636
 31
0.0
  0
LINE
  5
13CB
330
1A
100
AcDbEntity
  8
ZUWAKU
100
AcDbLine
 10
26.25742883558052
 20
16.20252355813806
 30
0.0
 11
25.6250529629126
 21
14.19999996135636
 31
0.0
  0
LINE
  5
13CC
330
1A
100
AcDbEntity
  8
ZUWAKU
100
AcDbLine
 10
22.52110559449153
 20
17.96249996135635
 30
0.0
 11
22.52110559449153
 21
10.43749996135636
 31
0.0
  0
ARC
  5
13CD
330
1A
100
AcDbEntity
  8
ZUWAKU
100
AcDbCircle
 10
24.25372267623589
 20
13.23749996135636
 30
0.0
 40
0.2625
100
AcDbArc
 50
17.52556837372319
 51
90.0
  0
ARC
  5
13CE
330
1A
100
AcDbEntity
  8
ZUWAKU
100
AcDbCircle
 10
24.18360559449155
 20
13.23749996135636
 30
0.0
 40
0.2625
100
AcDbArc
 50
90.0
 51
180.0
  0
LINE
  5
13CF
330
1A
100
AcDbEntity
  8
ZUWAKU
100
AcDbLine
 10
24.18360559449155
 20
13.49999996135636
 30
0.0
 11
24.25372267623589
 21
13.49999996135636
 31
0.0
  0
LINE
  5
13D0
330
1A
100
AcDbEntity
  8
ZUWAKU
100
AcDbLine
 10
22.78360559449152
 20
10.17499996135636
 30
0.0
 11
23.65860559449151
 21
10.17499996135636
 31
0.0
  0
ARC
  5
13D1
330
1A
100
AcDbEntity
  8
ZUWAKU
100
AcDbCircle
 10
22.78360559449152
 20
10.43749996135636
 30
0.0
 40
0.2625
100
AcDbArc
 50
180.0
 51
270.0
  0
ARC
  5
13D2
330
1A
100
AcDbEntity
  8
ZUWAKU
100
AcDbCircle
 10
23.65860559449151
 20
10.43749996135636
 30
0.0
 40
0.2625
100
AcDbArc
 50
270.0
 51
0.0
  0
LINE
  5
13D3
330
1A
100
AcDbEntity
  8
ZUWAKU
100
AcDbLine
 10
23.92110559449156
 20
10.43749996135636
 30
0.0
 11
23.92110559449156
 21
13.23749996135636
 31
0.0
  0
LINE
  5
13D4
330
1A
100
AcDbEntity
  8
ZUWAKU
100
AcDbLine
 10
21.29610559449156
 20
11.31249996135636
 30
0.0
 11
21.29610559449156
 21
10.43749996135636
 31
0.0
  0
ARC
  5
13D5
330
1A
100
AcDbEntity
  8
ZUWAKU
100
AcDbCircle
 10
21.03360559449151
 20
10.43749996135636
 30
0.0
 40
0.2625
100
AcDbArc
 50
270.0
 51
0.0
  0
ARC
  5
13D6
330
1A
100
AcDbEntity
  8
ZUWAKU
100
AcDbCircle
 10
21.03360559449151
 20
11.31249996135636
 30
0.0
 40
0.2625
100
AcDbArc
 50
0.0
 51
90.0
  0
ARC
  5
13D7
330
1A
100
AcDbEntity
  8
ZUWAKU
100
AcDbCircle
 10
28.20860559449153
 20
10.43749996135636
 30
0.0
 40
0.2625
100
AcDbArc
 50
180.0
 51
270.0
  0
ARC
  5
13D8
330
1A
100
AcDbEntity
  8
ZUWAKU
100
AcDbCircle
 10
26.5379332025517
 20
10.43749996135636
 30
0.0
 40
0.2625
100
AcDbArc
 50
270.0
 51
17.52556837372319
  0
ARC
  5
13D9
330
1A
100
AcDbEntity
  8
ZUWAKU
100
AcDbCircle
 10
25.6884885127472
 20
10.43749996135636
 30
0.0
 40
0.2625
100
AcDbArc
 50
197.5255683737231
 51
270.0
  0
LINE
  5
13DA
330
1A
100
AcDbEntity
  8
ZUWAKU
100
AcDbLine
 10
25.43817306314946
 20
10.35845297727287
 30
0.0
 11
24.50403812583357
 21
13.31654694543985
 31
0.0
  0
LINE
  5
13DB
330
1A
100
AcDbEntity
  8
ZUWAKU
100
AcDbLine
 10
25.6884885127472
 20
10.17499996135636
 30
0.0
 11
26.5379332025517
 21
10.17499996135636
 31
0.0
  0
LINE
  5
13DC
330
1A
100
AcDbEntity
  8
ZUWAKU
100
AcDbLine
 10
26.78824865214943
 20
10.51654694543984
 30
0.0
 11
25.6250529629126
 21
14.19999996135636
 31
0.0
  0
ARC
  5
13DD
330
1A
100
AcDbEntity
  8
ZUWAKU
100
AcDbCircle
 10
24.25372267623589
 20
15.16249996135636
 30
0.0
 40
0.2625
100
AcDbArc
 50
270.0
 51
342.4744316262768
  0
LINE
  5
13DE
330
1A
100
AcDbEntity
  8
ZUWAKU
100
AcDbLine
 10
23.65860559449151
 20
18.22499996135636
 30
0.0
 11
22.78360559449152
 21
18.22499996135636
 31
0.0
  0
ARC
  5
13DF
330
1A
100
AcDbEntity
  8
ZUWAKU
100
AcDbCircle
 10
22.78360559449152
 20
17.96249996135635
 30
0.0
 40
0.2625
100
AcDbArc
 50
90.0
 51
180.0
  0
ARC
  5
13E0
330
1A
100
AcDbEntity
  8
ZUWAKU
100
AcDbCircle
 10
23.65860559449151
 20
17.96249996135635
 30
0.0
 40
0.2625
100
AcDbArc
 50
0.0
 51
90.0
  0
ARC
  5
13E1
330
1A
100
AcDbEntity
  8
ZUWAKU
100
AcDbCircle
 10
21.03360559449151
 20
17.08749996135635
 30
0.0
 40
0.2625
100
AcDbArc
 50
270.0
 51
0.0
  0
LINE
  5
13E2
330
1A
100
AcDbEntity
  8
ZUWAKU
100
AcDbLine
 10
21.29610559449156
 20
17.96249996135635
 30
0.0
 11
21.29610559449156
 21
17.08749996135635
 31
0.0
  0
ARC
  5
13E3
330
1A
100
AcDbEntity
  8
ZUWAKU
100
AcDbCircle
 10
21.03360559449151
 20
17.96249996135635
 30
0.0
 40
0.2625
100
AcDbArc
 50
0.0
 51
90.0
  0
ARC
  5
13E4
330
1A
100
AcDbEntity
  8
ZUWAKU
100
AcDbCircle
 10
24.18360559449155
 20
15.16249996135636
 30
0.0
 40
0.2625
100
AcDbArc
 50
180.0
 51
270.0
  0
LINE
  5
13E5
330
1A
100
AcDbEntity
  8
ZUWAKU
100
AcDbLine
 10
24.25372267623589
 20
14.89999996135635
 30
0.0
 11
24.18360559449155
 21
14.89999996135635
 31
0.0
  0
LINE
  5
13E6
330
1A
100
AcDbEntity
  8
ZUWAKU
100
AcDbLine
 10
23.92110559449156
 20
15.16249996135636
 30
0.0
 11
23.92110559449156
 21
17.96249996135635
 31
0.0
  0
ARC
  5
13E7
330
1A
100
AcDbEntity
  8
ZUWAKU
100
AcDbCircle
 10
28.20860559449153
 20
17.96249996135635
 30
0.0
 40
0.2625
100
AcDbArc
 50
90.0
 51
180.0
  0
ARC
  5
13E8
330
1A
100
AcDbEntity
  8
ZUWAKU
100
AcDbCircle
 10
26.5379332025517
 20
17.96249996135635
 30
0.0
 40
0.2625
100
AcDbArc
 50
342.4744316262768
 51
90.0
  0
ARC
  5
13E9
330
1A
100
AcDbEntity
  8
ZUWAKU
100
AcDbCircle
 10
25.6884885127472
 20
17.96249996135635
 30
0.0
 40
0.2625
100
AcDbArc
 50
90.0
 51
162.4744316262768
  0
LINE
  5
13EA
330
1A
100
AcDbEntity
  8
ZUWAKU
100
AcDbLine
 10
25.43817306314946
 20
18.04154694543984
 30
0.0
 11
24.50403812583357
 21
15.08345297727288
 31
0.0
  0
LINE
  5
13EB
330
1A
100
AcDbEntity
  8
ZUWAKU
100
AcDbLine
 10
26.78824865214943
 20
17.88345297727288
 30
0.0
 11
26.25742883558052
 21
16.20252355813806
 31
0.0
  0
LINE
  5
13EC
330
1A
100
AcDbEntity
  8
ZUWAKU
100
AcDbLine
 10
25.6884885127472
 20
18.22499996135636
 30
0.0
 11
26.5379332025517
 21
18.22499996135636
 31
0.0
  0
TEXT
  5
13ED
330
1A
100
AcDbEntity
  8
moji
100
AcDbText
 10
54.07889431118554
 20
12.97058902649374
 30
0.0
 40
3.0
  1
大型のきとい
 41
0.9
  7
ｽﾀｲﾙ1
100
AcDbText
  0
LINE
  5
13EE
330
1A
100
AcDbEntity
  8
ZUWAKU
100
AcDbLine
 10
47.26331429109507
 20
21.59999996135636
 30
0.0
 11
47.26331429109518
 21
6.999999961356394
 31
0.0
  0
LINE
  5
13EF
330
1A
100
AcDbEntity
  8
ZUWAKU
100
AcDbLine
 10
47.36331429109509
 20
21.59999996135636
 30
0.0
 11
47.36331429109521
 21
6.999999961356394
 31
0.0
  0
LINE
  5
13F0
330
1A
100
AcDbEntity
  8
ZUWAKU
100
AcDbLine
 10
47.16331429109516
 20
21.59999996135636
 30
0.0
 11
47.16331429109516
 21
6.999999961356394
 31
0.0
  0
LINE
  5
13F1
330
1A
100
AcDbEntity
  8
ZUWAKU
100
AcDbLine
 10
36.52110559449153
 20
10.17499996135636
 30
0.0
 11
38.27110559449153
 21
10.17499996135636
 31
0.0
  0
ARC
  5
13F2
330
1A
100
AcDbEntity
  8
ZUWAKU
100
AcDbCircle
 10
37.04610559449156
 20
12.09999996135636
 30
0.0
 40
0.525
100
AcDbArc
 50
180.0
 51
270.0
  0
LINE
  5
13F3
330
1A
100
AcDbEntity
  8
ZUWAKU
100
AcDbLine
 10
35.12110559449155
 20
17.96249996135635
 30
0.0
 11
35.12110559449155
 21
11.57499996135635
 31
0.0
  0
LINE
  5
13F4
330
1A
100
AcDbEntity
  8
ZUWAKU
100
AcDbLine
 10
36.52110559449153
 20
12.09999996135636
 30
0.0
 11
36.52110559449153
 21
17.96249996135635
 31
0.0
  0
LINE
  5
13F5
330
1A
100
AcDbEntity
  8
ZUWAKU
100
AcDbLine
 10
31.0111813539998
 20
14.43247470818695
 30
0.0
 11
32.46608034132214
 21
12.97757572086462
 31
0.0
  0
LINE
  5
13F6
330
1A
100
AcDbEntity
  8
ZUWAKU
100
AcDbLine
 10
29.34610559449152
 20
10.43749996135636
 30
0.0
 11
29.34610559449152
 21
17.96249996135635
 31
0.0
  0
LINE
  5
13F7
330
1A
100
AcDbEntity
  8
ZUWAKU
100
AcDbLine
 10
33.45602983498332
 20
13.96752521452578
 30
0.0
 11
32.00113084766093
 21
15.42242420184811
 31
0.0
  0
ARC
  5
13F8
330
1A
100
AcDbEntity
  8
ZUWAKU
100
AcDbCircle
 10
31.97110559449152
 20
12.48260097403402
 30
0.0
 40
0.7
100
AcDbArc
 50
0.0
 51
45.00000000000022
  0
LINE
  5
13F9
330
1A
100
AcDbEntity
  8
ZUWAKU
100
AcDbLine
 10
30.92110559449156
 20
10.17499996135636
 30
0.0
 11
32.67110559449156
 21
10.17499996135636
 31
0.0
  0
ARC
  5
13FA
330
1A
100
AcDbEntity
  8
ZUWAKU
100
AcDbCircle
 10
32.40860559449151
 20
11.83749996135637
 30
0.0
 40
0.2625
100
AcDbArc
 50
270.0
 51
0.0
  0
LINE
  5
13FB
330
1A
100
AcDbEntity
  8
ZUWAKU
100
AcDbLine
 10
30.92110559449156
 20
11.57499996135635
 30
0.0
 11
32.40860559449151
 21
11.57499996135635
 31
0.0
  0
LINE
  5
13FC
330
1A
100
AcDbEntity
  8
ZUWAKU
100
AcDbLine
 10
30.65860559449152
 20
10.43749996135636
 30
0.0
 11
30.65860559449152
 21
11.31249996135636
 31
0.0
  0
ARC
  5
13FD
330
1A
100
AcDbEntity
  8
ZUWAKU
100
AcDbCircle
 10
30.92110559449156
 20
10.43749996135636
 30
0.0
 40
0.2625
100
AcDbArc
 50
180.0
 51
270.0
  0
ARC
  5
13FE
330
1A
100
AcDbEntity
  8
ZUWAKU
100
AcDbCircle
 10
30.92110559449156
 20
11.31249996135636
 30
0.0
 40
0.2625
100
AcDbArc
 50
90.0
 51
180.0
  0
ARC
  5
13FF
330
1A
100
AcDbEntity
  8
ZUWAKU
100
AcDbCircle
 10
29.08360559449153
 20
10.43749996135636
 30
0.0
 40
0.2625
100
AcDbArc
 50
270.0
 51
0.0
  0
ARC
  5
1400
330
1A
100
AcDbEntity
  8
ZUWAKU
100
AcDbCircle
 10
36.52110559449153
 20
11.57499996135635
 30
0.0
 40
1.399999999999999
100
AcDbArc
 50
180.0
 51
270.0
  0
ARC
  5
1401
330
1A
100
AcDbEntity
  8
ZUWAKU
100
AcDbCircle
 10
31.97110559449152
 20
12.48260097403401
 30
0.0
 40
2.099999999999999
100
AcDbArc
 50
0.0
 51
45.00000000000022
  0
ARC
  5
1402
330
1A
100
AcDbEntity
  8
ZUWAKU
100
AcDbCircle
 10
32.67110559449156
 20
11.57499996135635
 30
0.0
 40
1.399999999999999
100
AcDbArc
 50
270.0
 51
0.0
  0
LINE
  5
1403
330
1A
100
AcDbEntity
  8
ZUWAKU
100
AcDbLine
 10
32.67110559449156
 20
11.83749996135637
 30
0.0
 11
32.67110559449156
 21
12.48260097403402
 31
0.0
  0
LINE
  5
1404
330
1A
100
AcDbEntity
  8
ZUWAKU
100
AcDbLine
 10
34.07110559449154
 20
11.57499996135635
 30
0.0
 11
34.07110559449154
 21
12.48260097403402
 31
0.0
  0
LINE
  5
1405
330
1A
100
AcDbEntity
  8
ZUWAKU
100
AcDbLine
 10
31.79610559449156
 20
18.22499996135636
 30
0.0
 11
33.54610559449156
 21
18.22499996135636
 31
0.0
  0
LINE
  5
1406
330
1A
100
AcDbEntity
  8
ZUWAKU
100
AcDbLine
 10
33.54610559449156
 20
16.82499996135636
 30
0.0
 11
32.05860559449155
 21
16.82499996135636
 31
0.0
  0
ARC
  5
1407
330
1A
100
AcDbEntity
  8
ZUWAKU
100
AcDbCircle
 10
32.49610559449155
 20
15.9173989486787
 30
0.0
 40
0.7
100
AcDbArc
 50
180.0000000000016
 51
224.999999999999
  0
ARC
  5
1408
330
1A
100
AcDbEntity
  8
ZUWAKU
100
AcDbCircle
 10
32.05860559449155
 20
16.56249996135636
 30
0.0
 40
0.2625
100
AcDbArc
 50
90.0
 51
180.0
  0
LINE
  5
1409
330
1A
100
AcDbEntity
  8
ZUWAKU
100
AcDbLine
 10
31.79610559449156
 20
16.56249996135636
 30
0.0
 11
31.79610559449156
 21
15.91739894867869
 31
0.0
  0
LINE
  5
140A
330
1A
100
AcDbEntity
  8
ZUWAKU
100
AcDbLine
 10
30.39610559449153
 20
16.82499996135636
 30
0.0
 11
30.39610559449153
 21
15.91739894867869
 31
0.0
  0
ARC
  5
140B
330
1A
100
AcDbEntity
  8
ZUWAKU
100
AcDbCircle
 10
29.08360559449153
 20
17.96249996135635
 30
0.0
 40
0.2625
100
AcDbArc
 50
0.0
 51
90.0
  0
ARC
  5
140C
330
1A
100
AcDbEntity
  8
ZUWAKU
100
AcDbCircle
 10
31.79610559449156
 20
16.82499996135636
 30
0.0
 40
1.399999999999999
100
AcDbArc
 50
90.0
 51
180.0
  0
ARC
  5
140D
330
1A
100
AcDbEntity
  8
ZUWAKU
100
AcDbCircle
 10
32.49610559449155
 20
15.9173989486787
 30
0.0
 40
2.099999999999999
100
AcDbArc
 50
180.0
 51
225.0000000000002
  0
LINE
  5
140E
330
1A
100
AcDbEntity
  8
ZUWAKU
100
AcDbLine
 10
36.25860559449154
 20
18.22499996135636
 30
0.0
 11
35.38360559449154
 21
18.22499996135636
 31
0.0
  0
ARC
  5
140F
330
1A
100
AcDbEntity
  8
ZUWAKU
100
AcDbCircle
 10
36.25860559449154
 20
17.96249996135635
 30
0.0
 40
0.2625
100
AcDbArc
 50
0.0
 51
90.0
  0
ARC
  5
1410
330
1A
100
AcDbEntity
  8
ZUWAKU
100
AcDbCircle
 10
35.38360559449154
 20
17.96249996135635
 30
0.0
 40
0.2625
100
AcDbArc
 50
90.0
 51
180.0
  0
ARC
  5
1411
330
1A
100
AcDbEntity
  8
ZUWAKU
100
AcDbCircle
 10
33.54610559449156
 20
17.08749996135635
 30
0.0
 40
0.2625
100
AcDbArc
 50
270.0
 51
0.0
  0
LINE
  5
1412
330
1A
100
AcDbEntity
  8
ZUWAKU
100
AcDbLine
 10
33.80860559449155
 20
17.96249996135635
 30
0.0
 11
33.80860559449155
 21
17.08749996135635
 31
0.0
  0
ARC
  5
1413
330
1A
100
AcDbEntity
  8
ZUWAKU
100
AcDbCircle
 10
33.54610559449156
 20
17.96249996135635
 30
0.0
 40
0.2625
100
AcDbArc
 50
0.0
 51
90.0
  0
LINE
  5
1414
330
1A
100
AcDbEntity
  8
ZUWAKU
100
AcDbLine
 10
39.67110559449156
 20
11.57499996135635
 30
0.0
 11
39.67110559449156
 21
17.96249996135635
 31
0.0
  0
LINE
  5
1415
330
1A
100
AcDbEntity
  8
ZUWAKU
100
AcDbLine
 10
38.27110559449153
 20
17.96249996135635
 30
0.0
 11
38.27110559449153
 21
12.09999996135636
 31
0.0
  0
LINE
  5
1416
330
1A
100
AcDbEntity
  8
ZUWAKU
100
AcDbLine
 10
42.12110559449155
 20
10.43749996135636
 30
0.0
 11
42.12110559449155
 21
17.96249996135635
 31
0.0
  0
LINE
  5
1417
330
1A
100
AcDbEntity
  8
ZUWAKU
100
AcDbLine
 10
40.72110559449152
 20
17.96249996135635
 30
0.0
 11
40.72110559449152
 21
10.43749996135636
 31
0.0
  0
ARC
  5
1418
330
1A
100
AcDbEntity
  8
ZUWAKU
100
AcDbCircle
 10
40.98360559449156
 20
10.43749996135636
 30
0.0
 40
0.2625
100
AcDbArc
 50
180.0
 51
270.0
  0
LINE
  5
1419
330
1A
100
AcDbEntity
  8
ZUWAKU
100
AcDbLine
 10
37.74610559449155
 20
11.57499996135635
 30
0.0
 11
37.04610559449156
 21
11.57499996135635
 31
0.0
  0
ARC
  5
141A
330
1A
100
AcDbEntity
  8
ZUWAKU
100
AcDbCircle
 10
37.74610559449155
 20
12.09999996135636
 30
0.0
 40
0.525
100
AcDbArc
 50
270.0
 51
0.0
  0
ARC
  5
141B
330
1A
100
AcDbEntity
  8
ZUWAKU
100
AcDbCircle
 10
38.27110559449153
 20
11.57499996135635
 30
0.0
 40
1.399999999999999
100
AcDbArc
 50
270.0
 51
0.0
  0
LINE
  5
141C
330
1A
100
AcDbEntity
  8
ZUWAKU
100
AcDbLine
 10
40.98360559449156
 20
10.17499996135636
 30
0.0
 11
41.85860559449156
 21
10.17499996135636
 31
0.0
  0
ARC
  5
141D
330
1A
100
AcDbEntity
  8
ZUWAKU
100
AcDbCircle
 10
41.85860559449156
 20
10.43749996135636
 30
0.0
 40
0.2625
100
AcDbArc
 50
270.0
 51
0.0
  0
ARC
  5
141E
330
1A
100
AcDbEntity
  8
ZUWAKU
100
AcDbCircle
 10
40.98360559449156
 20
17.96249996135635
 30
0.0
 40
0.2625
100
AcDbArc
 50
90.0
 51
180.0
  0
ARC
  5
141F
330
1A
100
AcDbEntity
  8
ZUWAKU
100
AcDbCircle
 10
39.40860559449152
 20
17.96249996135635
 30
0.0
 40
0.2625
100
AcDbArc
 50
0.0
 51
90.0
  0
ARC
  5
1420
330
1A
100
AcDbEntity
  8
ZUWAKU
100
AcDbCircle
 10
38.53360559449152
 20
17.96249996135635
 30
0.0
 40
0.2625
100
AcDbArc
 50
90.0
 51
180.0
  0
LINE
  5
1421
330
1A
100
AcDbEntity
  8
ZUWAKU
100
AcDbLine
 10
39.40860559449152
 20
18.22499996135636
 30
0.0
 11
38.53360559449152
 21
18.22499996135636
 31
0.0
  0
LINE
  5
1422
330
1A
100
AcDbEntity
  8
ZUWAKU
100
AcDbLine
 10
41.85860559449156
 20
18.22499996135636
 30
0.0
 11
40.98360559449156
 21
18.22499996135636
 31
0.0
  0
ARC
  5
1423
330
1A
100
AcDbEntity
  8
ZUWAKU
100
AcDbCircle
 10
41.85860559449156
 20
17.96249996135635
 30
0.0
 40
0.2625
100
AcDbArc
 50
0.0
 51
90.0
  0
LINE
  5
1424
330
1A
100
AcDbEntity
  8
ZUWAKU
100
AcDbLine
 10
111.7233001621349
 20
21.59999996135636
 30
0.0
 11
111.7233001621349
 21
6.999999961356394
 31
0.0
  0
LINE
  5
1425
330
1A
100
AcDbEntity
  8
ZUWAKU
100
AcDbLine
 10
111.9233001621348
 20
21.59999996135636
 30
0.0
 11
111.9233001621349
 21
6.999999961356394
 31
0.0
  0
LINE
  5
1426
330
1A
100
AcDbEntity
  8
ZUWAKU
100
AcDbLine
 10
111.8233001621348
 20
21.59999996135636
 30
0.0
 11
111.8233001621349
 21
6.999999961356394
 31
0.0
  0
TEXT
  5
1427
330
1A
100
AcDbEntity
  8
ZUWAKU
100
AcDbText
 10
112.4620226732396
 20
18.62767823054915
 30
0.0
 40
2.0
  1
品名
 41
0.9
  7
ｽﾀｲﾙ1
100
AcDbText
  0
TEXT
  5
1428
330
1A
100
AcDbEntity
  8
ZUWAKU
100
AcDbText
 10
112.4620226732397
 20
11.42767823054916
 30
0.0
 40
2.0
  1
サイズ
 41
0.9
  7
ｽﾀｲﾙ1
100
AcDbText
  0
TEXT
  5
1429
330
1A
100
AcDbEntity
  8
moji
100
AcDbText
 10
127.4379069233667
 20
16.43469984397316
 30
0.0
 40
2.799999999999999
  1
角とい　超芯　Ｐ２５０
 41
0.9
  7
ｽﾀｲﾙ1
100
AcDbText
  0
TEXT
  5
142A
330
1A
100
AcDbEntity
  8
moji
100
AcDbText
 10
127.5136008575265
 20
9.488648516208542
 30
0.0
 40
2.799999999999999
  1
Ｐ２５０－４０００
 41
0.9
  7
ｽﾀｲﾙ1
100
AcDbText
  0
TEXT
  5
142C
330
1A
100
AcDbEntity
  8
ZUWAKU
100
AcDbText
 10
238.6298576500679
 20
7.907035416926106
 30
0.0
 40
1.5
  1
□には色品番が入ります
 41
0.9
  7
ｽﾀｲﾙ1
100
AcDbText
  0
TEXT
  5
142D
330
1A
100
AcDbEntity
  8
ZUWAKU
100
AcDbText
 10
232.2509040137014
 20
18.62767823054915
 30
0.0
 40
2.0
  1
品番
 41
0.9
  7
ｽﾀｲﾙ1
100
AcDbText
  0
LINE
  5
142E
330
1A
100
AcDbEntity
  8
ZUWAKU
100
AcDbLine
 10
231.3121815025966
 20
21.59999996135636
 30
0.0
 11
231.3121815025966
 21
6.999999961356394
 31
0.0
  0
LINE
  5
142F
330
1A
100
AcDbEntity
  8
ZUWAKU
100
AcDbLine
 10
231.5121815025966
 20
21.59999996135636
 30
0.0
 11
231.5121815025967
 21
6.999999961356394
 31
0.0
  0
LINE
  5
1430
330
1A
100
AcDbEntity
  8
ZUWAKU
100
AcDbLine
 10
231.4121815025965
 20
21.59999996135636
 30
0.0
 11
231.4121815025966
 21
6.999999961356394
 31
0.0
  0
TEXT
  5
1431
330
1A
100
AcDbEntity
  8
moji
100
AcDbText
 10
239.2232155126019
 20
12.57130882218635
 30
0.0
 40
2.799999999999999
  1
ＥＢ６１□
 41
0.9
  7
ｽﾀｲﾙ1
100
AcDbText
  0
LINE
  5
1432
330
1A
100
AcDbEntity
  8
ZUWAKU
100
AcDbLine
 10
283.963477400157
 20
21.59999996135636
 30
0.0
 11
283.9634774001572
 21
6.999999961356394
 31
0.0
  0
LINE
  5
1433
330
1A
100
AcDbEntity
  8
ZUWAKU
100
AcDbLine
 10
284.0634774001571
 20
21.59999996135636
 30
0.0
 11
284.0634774001572
 21
6.999999961356394
 31
0.0
  0
LINE
  5
1434
330
1A
100
AcDbEntity
  8
ZUWAKU
100
AcDbLine
 10
283.8634774001572
 20
21.59999996135636
 30
0.0
 11
283.8634774001572
 21
6.999999961356394
 31
0.0
  0
TEXT
  5
1435
330
1A
100
AcDbEntity
  8
ZUWAKU
100
AcDbText
 10
260.9383117772762
 20
18.62767823054915
 30
0.0
 40
2.0
  1
用紙
 41
0.9
  7
ｽﾀｲﾙ1
100
AcDbText
  0
LINE
  5
1436
330
1A
100
AcDbEntity
  8
ZUWAKU
100
AcDbLine
 10
259.9995892661715
 20
21.59999996135636
 30
0.0
 11
259.9995892661715
 21
6.999999961356394
 31
0.0
  0
LINE
  5
1437
330
1A
100
AcDbEntity
  8
ZUWAKU
100
AcDbLine
 10
260.1995892661714
 20
21.59999996135636
 30
0.0
 11
260.1995892661715
 21
6.999999961356394
 31
0.0
  0
LINE
  5
1438
330
1A
100
AcDbEntity
  8
ZUWAKU
100
AcDbLine
 10
260.0995892661714
 20
21.59999996135636
 30
0.0
 11
260.0995892661714
 21
6.999999961356394
 31
0.0
  0
TEXT
  5
1439
330
1A
100
AcDbEntity
  8
moji
100
AcDbText
 10
271.6204535032574
 20
16.59192055809652
 30
0.0
 40
2.799999999999999
  1
Ａ３
 41
0.9
  7
ｽﾀｲﾙ1
100
AcDbText
  0
TEXT
  5
143A
330
1A
100
AcDbEntity
  8
moji
100
AcDbText
 10
271.6204535032574
 20
9.191920558096541
 30
0.0
 40
2.799999999999999
  1
１/１
 41
0.9
  7
ｽﾀｲﾙ1
100
AcDbText
  0
LINE
  5
143B
330
1A
100
AcDbEntity
  8
ZUWAKU
100
AcDbLine
 10
260.1995892661714
 20
14.39999996135637
 30
0.0
 11
283.8634774001572
 21
14.39999996135637
 31
0.0
  0
LINE
  5
143C
330
1A
100
AcDbEntity
  8
ZUWAKU
100
AcDbLine
 10
260.1995892661714
 20
14.29999996135637
 30
0.0
 11
283.8634774001572
 21
14.29999996135637
 31
0.0
  0
LINE
  5
143D
330
1A
100
AcDbEntity
  8
ZUWAKU
100
AcDbLine
 10
260.1995892661714
 20
14.19999996135638
 30
0.0
 11
283.8634774001572
 21
14.19999996135638
 31
0.0
  0
TEXT
  5
143E
330
1A
100
AcDbEntity
  8
ZUWAKU
100
AcDbText
 10
260.9383117772763
 20
11.42767823054916
 30
0.0
 40
2.0
  1
縮尺
 41
0.9
  7
ｽﾀｲﾙ1
100
AcDbText
  0
LINE
  5
143F
330
1A
100
AcDbEntity
  8
ZUWAKU
100
AcDbLine
 10
356.2245047913715
 20
21.59999996135636
 30
0.0
 11
356.2245047913715
 21
6.999999961356394
 31
0.0
  0
LINE
  5
1440
330
1A
100
AcDbEntity
  8
ZUWAKU
100
AcDbLine
 10
356.3245047913716
 20
21.59999996135636
 30
0.0
 11
356.3245047913716
 21
6.999999961356394
 31
0.0
  0
LINE
  5
1441
330
1A
100
AcDbEntity
  8
ZUWAKU
100
AcDbLine
 10
356.4245047913715
 20
21.59999996135636
 30
0.0
 11
356.4245047913716
 21
6.999999961356394
 31
0.0
  0
LINE
  5
1442
330
1A
100
AcDbEntity
  8
ZUWAKU
100
AcDbLine
 10
356.5245047913715
 20
21.59999996135636
 30
0.0
 11
356.5245047913716
 21
6.999999961356394
 31
0.0
  0
TEXT
  5
1443
330
1A
100
AcDbEntity
  8
ZUWAKU
100
AcDbText
 10
332.7473232833079
 20
18.62767823054915
 30
0.0
 40
2.0
  1
DATE
 41
0.9
  7
ｽﾀｲﾙ1
100
AcDbText
  0
LINE
  5
1444
330
1A
100
AcDbEntity
  8
ZUWAKU
100
AcDbLine
 10
331.9086007722031
 20
21.59999996135636
 30
0.0
 11
331.9086007722032
 21
6.999999961356394
 31
0.0
  0
LINE
  5
1445
330
1A
100
AcDbEntity
  8
ZUWAKU
100
AcDbLine
 10
332.0086007722031
 20
21.59999996135636
 30
0.0
 11
332.0086007722033
 21
6.999999961356394
 31
0.0
  0
LINE
  5
1446
330
1A
100
AcDbEntity
  8
ZUWAKU
100
AcDbLine
 10
331.8086007722032
 20
21.59999996135636
 30
0.0
 11
331.8086007722032
 21
6.999999961356394
 31
0.0
  0
LINE
  5
1447
330
1A
100
AcDbEntity
  8
ZUWAKU
100
AcDbLine
 10
332.008600772203
 20
14.39999996135637
 30
0.0
 11
356.2245047913715
 21
14.39999996135637
 31
0.0
  0
LINE
  5
1448
330
1A
100
AcDbEntity
  8
ZUWAKU
100
AcDbLine
 10
332.0086007722031
 20
14.29999996135637
 30
0.0
 11
356.2245047913715
 21
14.29999996135637
 31
0.0
  0
LINE
  5
1449
330
1A
100
AcDbEntity
  8
ZUWAKU
100
AcDbLine
 10
332.008600772203
 20
14.19999996135638
 30
0.0
 11
356.2245047913715
 21
14.19999996135638
 31
0.0
  0
TEXT
  5
144A
330
1A
100
AcDbEntity
  8
ZUWAKU
100
AcDbText
 10
336.7019683607521
 20
15.60246049006005
 30
0.0
 40
2.799999999999999
  1
　　．　　．　　
 41
0.9
  7
ｽﾀｲﾙ1
100
AcDbText
  0
TEXT
  5
144B
330
1A
100
AcDbEntity
  8
ZUWAKU
100
AcDbText
 10
361.8640416132228
 20
15.37691962919976
 30
0.0
 40
3.0
  1
積水化学工業株式会社
 41
0.9
  7
ｽﾀｲﾙ1
100
AcDbText
  0
TEXT
  5
144C
330
1A
100
AcDbEntity
  8
ZUWAKU
100
AcDbText
 10
361.8640416132228
 20
9.924420118283393
 30
0.0
 40
3.0
  1
雨水システムＢＵ
 41
0.9
  7
ｽﾀｲﾙ1
100
AcDbText
  0
LINE
  5
31A6
330
1A
100
AcDbEntity
  8
SEIHIN
100
AcDbLine
 10
130.1278378679197
 20
89.48108593465873
 30
0.0
 11
277.5679997417155
 21
89.4810859346585
 31
0.0
  0
LINE
  5
31A7
330
1A
100
AcDbEntity
  8
SEIHIN
100
AcDbLine
 10
134.0529230651246
 20
91.08108593465862
 30
0.0
 11
273.6429145805108
 21
91.08108593465841
 31
0.0
  0
LINE
  5
31AD
330
1A
100
AcDbEntity
  8
SEIHIN
100
AcDbLine
 10
113.6189043188351
 20
185.0597609376875
 30
0.0
 11
128.6465235207656
 21
90.74506092557157
 31
0.0
  0
LINE
  5
31AE
330
1A
100
AcDbEntity
  8
SEIHIN
100
AcDbLine
 10
111.5493141338769
 20
208.2171109432845
 30
0.0
 11
129.608980023441
 21
94.87301090878053
 31
0.0
  0
ARC
  5
31B0
330
1A
100
AcDbEntity
  8
SEIHIN
100
AcDbCircle
 10
134.0529230651246
 20
95.58108593465863
 30
0.0
 40
4.5
100
AcDbArc
 50
189.0531144039197
 51
270.0
  0
ARC
  5
31B3
330
1A
100
AcDbEntity
  8
SEIHIN
100
AcDbCircle
 10
130.1278378679199
 20
90.98108593465871
 30
0.0
 40
1.5
100
AcDbArc
 50
189.0531144217553
 51
270.0
  0
LINE
  5
31BA
330
1A
100
AcDbEntity
  8
SEIHIN
100
AcDbLine
 10
112.1248877327824
 20
187.0810859346586
 30
0.0
 11
104.9479188193176
 21
187.0810859346586
 31
0.0
  0
LINE
  5
31BB
330
1A
100
AcDbEntity
  8
SEIHIN
100
AcDbLine
 10
110.1169353773624
 20
207.0384359381453
 30
0.0
 11
113.112430631295
 21
188.2384359381453
 31
0.0
  0
LINE
  5
31BC
330
1A
100
AcDbEntity
  8
SEIHIN
100
AcDbLine
 10
102.8479188193176
 20
185.4810859346585
 30
0.0
 11
113.1251328697836
 21
185.4810859346585
 31
0.0
  0
ARC
  5
31BD
330
1A
100
AcDbEntity
  8
SEIHIN
100
AcDbCircle
 10
110.067999786649
 20
207.9810859346585
 30
0.0
 40
1.5
100
AcDbArc
 50
9.05311440391978
 51
90.0
  0
ARC
  5
31BE
330
1A
100
AcDbEntity
  8
SEIHIN
100
AcDbCircle
 10
103.3479188193176
 20
207.4810859346584
 30
0.0
 40
2.0
100
AcDbArc
 50
90.0
 51
180.0
  0
LINE
  5
31BF
330
1A
100
AcDbEntity
  8
SEIHIN
100
AcDbLine
 10
104.9479188193176
 20
207.8810859346585
 30
0.0
 11
109.1293924788498
 21
207.8810859346585
 31
0.0
  0
LINE
  5
31C0
330
1A
100
AcDbEntity
  8
SEIHIN
100
AcDbLine
 10
103.3479188193176
 20
209.4810859346584
 30
0.0
 11
110.067999786649
 21
209.4810859346584
 31
0.0
  0
ARC
  5
31C1
330
1A
100
AcDbEntity
  8
SEIHIN
100
AcDbCircle
 10
104.9479188193176
 20
189.0810859346586
 30
0.0
 40
2.0
100
AcDbArc
 50
180.0
 51
270.0
  0
LINE
  5
31C2
330
1A
100
AcDbEntity
  8
SEIHIN
100
AcDbLine
 10
102.9479188193176
 20
189.0810859346586
 30
0.0
 11
102.9479188193176
 21
205.8810859346585
 31
0.0
  0
ARC
  5
31C3
330
1A
100
AcDbEntity
  8
SEIHIN
100
AcDbCircle
 10
104.9479188193176
 20
205.8810859346585
 30
0.0
 40
2.0
100
AcDbArc
 50
90.0
 51
180.0
  0
ARC
  5
31C4
330
1A
100
AcDbEntity
  8
SEIHIN
100
AcDbCircle
 10
102.8479188193176
 20
186.9810859346585
 30
0.0
 40
1.5
100
AcDbArc
 50
180.0
 51
270.0
  0
LINE
  5
31C5
330
1A
100
AcDbEntity
  8
SEIHIN
100
AcDbLine
 10
101.3479188193176
 20
207.4810859346584
 30
0.0
 11
101.3479188193176
 21
186.9810859346585
 31
0.0
  0
ARC
  5
31C6
330
1A
100
AcDbEntity
  8
SEIHIN
100
AcDbCircle
 10
109.1293924788498
 20
206.8810859346585
 30
0.0
 40
1.0
100
AcDbArc
 50
9.053114272568178
 51
90.0
  0
ARC
  5
31C8
330
1A
100
AcDbEntity
  8
SEIHIN
100
AcDbCircle
 10
112.1248877327824
 20
188.0810859346586
 30
0.0
 40
1.0
100
AcDbArc
 50
270.0
 51
9.053114272568178
  0
ARC
  5
31C9
330
1A
100
AcDbEntity
  8
SEIHIN
100
AcDbCircle
 10
113.1251328697836
 20
184.9810859346584
 30
0.0
 40
0.5
100
AcDbArc
 50
9.05311442175537
 51
90.0
  0
LINE
  5
31CC
330
1A
100
AcDbEntity
  8
SEIHIN
100
AcDbLine
 10
302.7479188193176
 20
187.0810859346586
 30
0.0
 11
295.5709498945525
 21
187.0810859346586
 31
0.0
  0
LINE
  5
31CD
330
1A
100
AcDbEntity
  8
SEIHIN
100
AcDbLine
 10
298.5664451907322
 20
207.8810859346585
 30
0.0
 11
302.7479188193177
 21
207.8810859346585
 31
0.0
  0
LINE
  5
31CE
330
1A
100
AcDbEntity
  8
SEIHIN
100
AcDbLine
 10
304.8479188193176
 20
185.4810859346587
 30
0.0
 11
294.5707047288518
 21
185.4810859346587
 31
0.0
  0
LINE
  5
31CF
330
1A
100
AcDbEntity
  8
SEIHIN
100
AcDbLine
 10
304.3479188193176
 20
209.4810859346584
 30
0.0
 11
297.6278378719864
 21
209.4810859346584
 31
0.0
  0
LINE
  5
31D4
330
1A
100
AcDbEntity
  8
SEIHIN
100
AcDbLine
 10
294.0769332797914
 20
185.0597609376313
 30
0.0
 11
279.0493140888968
 21
90.74506092574006
 31
0.0
  0
LINE
  5
31D5
330
1A
100
AcDbEntity
  8
SEIHIN
100
AcDbLine
 10
296.146523524785
 20
208.2171109434503
 30
0.0
 11
278.0868576221152
 21
94.87301090828328
 31
0.0
  0
ARC
  5
31D7
330
1A
100
AcDbEntity
  8
SEIHIN
100
AcDbCircle
 10
273.6429145805108
 20
95.5810859346584
 30
0.0
 40
4.5
100
AcDbArc
 50
270.0
 51
350.9468855896688
  0
ARC
  5
31DA
330
1A
100
AcDbEntity
  8
SEIHIN
100
AcDbCircle
 10
277.5679997417153
 20
90.9810859346585
 30
0.0
 40
1.5
100
AcDbArc
 50
270.0
 51
350.9468855847748
  0
ARC
  5
31DC
330
1A
100
AcDbEntity
  8
SEIHIN
100
AcDbCircle
 10
297.6278378719864
 20
207.9810859346585
 30
0.0
 40
1.5
100
AcDbArc
 50
90.0
 51
170.9468855896688
  0
ARC
  5
31DD
330
1A
100
AcDbEntity
  8
SEIHIN
100
AcDbCircle
 10
298.5664451907322
 20
206.8810859346585
 30
0.0
 40
1.0
100
AcDbArc
 50
90.0
 51
170.9468856018715
  0
ARC
  5
31E0
330
1A
100
AcDbEntity
  8
SEIHIN
100
AcDbCircle
 10
295.5709498945525
 20
188.0810859346586
 30
0.0
 40
1.0
100
AcDbArc
 50
170.9468856018715
 51
270.0
  0
LINE
  5
31E1
330
1A
100
AcDbEntity
  8
SEIHIN
100
AcDbLine
 10
294.5834069963847
 20
188.2384359403095
 30
0.0
 11
297.5789022925644
 21
207.0384359403094
 31
0.0
  0
ARC
  5
31E2
330
1A
100
AcDbEntity
  8
SEIHIN
100
AcDbCircle
 10
294.5707047288518
 20
184.9810859346587
 30
0.0
 40
0.5
100
AcDbArc
 50
90.0
 51
170.9468855847877
  0
ARC
  5
31E6
330
1A
100
AcDbEntity
  8
SEIHIN
100
AcDbCircle
 10
304.3479188193176
 20
207.4810859346584
 30
0.0
 40
2.0
100
AcDbArc
 50
0.0
 51
90.0
  0
ARC
  5
31E7
330
1A
100
AcDbEntity
  8
SEIHIN
100
AcDbCircle
 10
302.7479188193176
 20
189.0810859346586
 30
0.0
 40
2.0
100
AcDbArc
 50
270.0
 51
0.0
  0
LINE
  5
31E8
330
1A
100
AcDbEntity
  8
SEIHIN
100
AcDbLine
 10
304.7479188193177
 20
205.8810859346585
 30
0.0
 11
304.7479188193176
 21
189.0810859346586
 31
0.0
  0
ARC
  5
31E9
330
1A
100
AcDbEntity
  8
SEIHIN
100
AcDbCircle
 10
302.7479188193177
 20
205.8810859346585
 30
0.0
 40
2.0
100
AcDbArc
 50
0.0
 51
90.0
  0
ARC
  5
31EA
330
1A
100
AcDbEntity
  8
SEIHIN
100
AcDbCircle
 10
304.8479188193176
 20
186.9810859346587
 30
0.0
 40
1.5
100
AcDbArc
 50
270.0
 51
0.0
  0
LINE
  5
31EB
330
1A
100
AcDbEntity
  8
SEIHIN
100
AcDbLine
 10
306.3479188193176
 20
207.4810859346584
 30
0.0
 11
306.3479188193176
 21
186.9810859346587
 31
0.0
  0
DIMENSION
  5
356B
330
1A
100
AcDbEntity
  8
SUNPOU
100
AcDbDimension
  2
*D3
 10
296.347918789732
 20
238.9373220842385
 30
0.0
 11
203.8479188206223
 21
241.4373220842385
 31
0.0
 70
    32
 71
     5
 42
-1.0
  3
STANDARD
100
AcDbAlignedDimension
 13
111.3479188515126
 23
209.4810859346585
 33
0.0
 14
296.347918789732
 24
209.4810859346585
 34
0.0
100
AcDbRotatedDimension
1001
ACAD
1000
DSTYLE
1002
{
1070
    41
1040
3.0
1070
    42
1040
3.0
1070
    43
1040
7.0
1070
    44
1040
1.5
1070
    73
1070
     0
1070
    74
1070
     0
1070
    77
1070
     3
1070
   140
1040
3.0
1070
   141
1040
150.0
1070
   147
1040
1.0
1070
   172
1070
     1
1070
   173
1070
     1
1070
   176
1070
     4
1070
   177
1070
     4
1070
   178
1070
     4
1070
   271
1070
     0
1070
   272
1070
     0
1070
   341
1005
B2
1070
     6
1000
OPEN
1070
     7
1000
OPEN
1002
}
  0
DIMENSION
  5
356C
330
1A
100
AcDbEntity
  8
SUNPOU
100
AcDbDimension
  2
*D2
 10
306.3479188193176
 20
248.2067864955009
 30
0.0
 11
203.8479188193176
 21
250.7067864955009
 31
0.0
 70
    32
 71
     5
 42
-1.0
  3
STANDARD
100
AcDbAlignedDimension
 13
101.3479188193176
 23
207.4810859346584
 33
0.0
 14
306.3479188193176
 24
207.4810859346584
 34
0.0
100
AcDbRotatedDimension
1001
ACAD
1000
DSTYLE
1002
{
1070
    41
1040
3.0
1070
    42
1040
3.0
1070
    43
1040
7.0
1070
    44
1040
1.5
1070
    73
1070
     0
1070
    74
1070
     0
1070
    77
1070
     3
1070
   140
1040
3.0
1070
   141
1040
150.0
1070
   147
1040
1.0
1070
   172
1070
     1
1070
   173
1070
     1
1070
   176
1070
     4
1070
   177
1070
     4
1070
   178
1070
     4
1070
   271
1070
     0
1070
   272
1070
     0
1070
   341
1005
B2
1070
     6
1000
OPEN
1070
     7
1000
OPEN
1002
}
  0
DIMENSION
  5
356D
330
1A
100
AcDbEntity
  8
SUNPOU
100
AcDbDimension
  2
*D7
 10
336.4559692992372
 20
185.4810859346585
 30
0.0
 11
333.9559692992371
 21
197.4810859346585
 31
0.0
 70
    32
 71
     5
 42
-1.0
  3
STANDARD
100
AcDbAlignedDimension
 13
304.3479188193176
 23
209.4810859346584
 33
0.0
 14
304.8479188105498
 24
185.4810859346585
 34
0.0
 50
90.0
100
AcDbRotatedDimension
1001
ACAD
1000
DSTYLE
1002
{
1070
    41
1040
3.0
1070
    42
1040
3.0
1070
    43
1040
7.0
1070
    44
1040
1.5
1070
    73
1070
     0
1070
    74
1070
     0
1070
    77
1070
     3
1070
   140
1040
3.0
1070
   141
1040
150.0
1070
   147
1040
1.0
1070
   172
1070
     1
1070
   173
1070
     1
1070
   176
1070
     4
1070
   177
1070
     4
1070
   178
1070
     4
1070
   271
1070
     0
1070
   272
1070
     0
1070
   341
1005
B2
1070
     6
1000
OPEN
1070
     7
1000
OPEN
1002
}
  0
DIMENSION
  5
356E
330
1A
100
AcDbEntity
  8
SUNPOU
100
AcDbDimension
  2
*D5
 10
347.7636932849295
 20
89.48108593465857
 30
0.0
 11
345.2636932849295
 21
149.4810859346585
 31
0.0
 70
    32
 71
     5
 42
-1.0
  3
STANDARD
100
AcDbAlignedDimension
 13
304.3479188193176
 23
209.4810859346584
 33
0.0
 14
278.8479188063233
 24
89.48108593465859
 34
0.0
 50
90.0
100
AcDbRotatedDimension
1001
ACAD
1000
DSTYLE
1002
{
1070
    41
1040
3.0
1070
    42
1040
3.0
1070
    43
1040
7.0
1070
    44
1040
1.5
1070
    73
1070
     0
1070
    74
1070
     0
1070
    77
1070
     3
1070
   140
1040
3.0
1070
   141
1040
150.0
1070
   147
1040
1.0
1070
   172
1070
     1
1070
   173
1070
     1
1070
   176
1070
     4
1070
   177
1070
     4
1070
   178
1070
     4
1070
   271
1070
     0
1070
   272
1070
     0
1070
   341
1005
B2
1070
     6
1000
OPEN
1070
     7
1000
OPEN
1002
}
  0
DIMENSION
  5
356F
330
1A
100
AcDbEntity
  8
SUNPOU
100
AcDbDimension
  2
*D6
 10
287.8653640280678
 20
146.0753894074145
 30
0.0
 11
299.1217109222611
 21
146.8133965873146
 31
0.0
 70
    33
  1
t1.6
 71
     5
 42
-1.0
  3
STANDARD
100
AcDbAlignedDimension
 13
285.1382663016564
 23
139.1282909374888
 33
0.0
 14
286.7183349452182
 24
138.8765309269292
 34
0.0
1001
ACAD
1000
DSTYLE
1002
{
1070
    41
1040
3.0
1070
    42
1040
3.0
1070
    43
1040
7.0
1070
    44
1040
1.5
1070
    73
1070
     0
1070
    74
1070
     0
1070
    77
1070
     3
1070
   140
1040
3.0
1070
   141
1040
150.0
1070
   147
1040
1.0
1070
   172
1070
     1
1070
   173
1070
     1
1070
   176
1070
     4
1070
   177
1070
     4
1070
   178
1070
     4
1070
   271
1070
     1
1070
   272
1070
     0
1070
   341
1005
B2
1070
     6
1000
OPEN
1070
     7
1000
OPEN
1002
}
  0
DIMENSION
  5
3570
330
1A
100
AcDbEntity
  8
SUNPOU
100
AcDbDimension
  2
*D4
 10
278.8479188063233
 20
61.7788864648019
 30
0.0
 11
203.8479187961236
 21
64.2788864648019
 31
0.0
 70
    32
 71
     5
 42
-1.0
  3
STANDARD
100
AcDbAlignedDimension
 13
128.8479187859239
 23
89.4810859346586
 33
0.0
 14
278.8479188063233
 24
89.48108593465859
 34
0.0
100
AcDbRotatedDimension
1001
ACAD
1000
DSTYLE
1002
{
1070
    41
1040
3.0
1070
    42
1040
3.0
1070
    43
1040
7.0
1070
    44
1040
1.5
1070
    73
1070
     0
1070
    74
1070
     0
1070
    77
1070
     3
1070
   140
1040
3.0
1070
   141
1040
150.0
1070
   147
1040
1.0
1070
   172
1070
     1
1070
   173
1070
     1
1070
   176
1070
     4
1070
   177
1070
     4
1070
   178
1070
     4
1070
   271
1070
     0
1070
   272
1070
     2
1070
   341
1005
B2
1070
     6
1000
OPEN
1070
     7
1000
OPEN
1002
}
  0
LINE
  5
35F3
330
1A
100
AcDbEntity
  8
CENTER L
100
AcDbLine
 10
203.8477808347801
 20
101.0810859346586
 30
0.0
 11
203.8477808148129
 21
80.28108593465859
 31
0.0
  0
LINE
  5
3618
330
1A
100
AcDbEntity
  8
SEIHIN
100
AcDbLine
 10
293.4421102200575
 20
186.1597609375892
 30
0.0
 11
278.8768919406226
 21
94.74713090359434
 31
0.0
  0
ARC
  5
3619
330
1A
100
AcDbEntity
  8
SEIHIN
100
AcDbCircle
 10
273.6429145805108
 20
95.5810859346584
 30
0.0
 40
5.299999999999999
100
AcDbArc
 50
270.0
 51
350.9468855896688
  0
LINE
  5
361A
330
1A
100
AcDbEntity
  8
SEIHIN
100
AcDbLine
 10
134.0529230651246
 20
90.28108593465864
 30
0.0
 11
273.6429145805108
 21
90.28108593465841
 31
0.0
  0
ARC
  5
361B
330
1A
100
AcDbEntity
  8
SEIHIN
100
AcDbCircle
 10
134.0529230651246
 20
95.58108593465863
 30
0.0
 40
5.299999999999999
100
AcDbArc
 50
189.0531144039197
 51
270.0
  0
LINE
  5
361C
330
1A
100
AcDbEntity
  8
SEIHIN
100
AcDbLine
 10
114.2537274360713
 20
186.1597609375339
 30
0.0
 11
128.8189457049195
 21
94.74713090417999
 31
0.0
  0
LINE
  5
361D
330
1A
100
AcDbEntity
  8
SEIHIN
100
AcDbLine
 10
113.7599559869954
 20
186.5810859346586
 30
0.0
 11
104.9479188193176
 21
186.5810859346586
 31
0.0
  0
ARC
  5
361E
330
1A
100
AcDbEntity
  8
SEIHIN
100
AcDbCircle
 10
104.9479188193176
 20
189.0810859346586
 30
0.0
 40
2.5
100
AcDbArc
 50
180.0
 51
270.0
  0
LINE
  5
361F
330
1A
100
AcDbEntity
  8
SEIHIN
100
AcDbLine
 10
102.4479188193176
 20
189.0810859346586
 30
0.0
 11
102.4479188193176
 21
205.8810859346585
 31
0.0
  0
ARC
  5
3620
330
1A
100
AcDbEntity
  8
SEIHIN
100
AcDbCircle
 10
104.9479188193176
 20
205.8810859346585
 30
0.0
 40
2.5
100
AcDbArc
 50
90.0
 51
180.0
  0
LINE
  5
3621
330
1A
100
AcDbEntity
  8
SEIHIN
100
AcDbLine
 10
104.9479188193176
 20
208.3810859346586
 30
0.0
 11
109.1293924788498
 21
208.3810859346586
 31
0.0
  0
ARC
  5
3622
330
1A
100
AcDbEntity
  8
SEIHIN
100
AcDbCircle
 10
113.7599559869954
 20
186.0810859346586
 30
0.0
 40
0.5
100
AcDbArc
 50
9.053114403919598
 51
90.0
  0
LINE
  5
3623
330
1A
100
AcDbEntity
  8
SEIHIN
100
AcDbLine
 10
302.7479188193176
 20
186.5810859346586
 30
0.0
 11
293.9358816691246
 21
186.5810859346586
 31
0.0
  0
ARC
  5
3624
330
1A
100
AcDbEntity
  8
SEIHIN
100
AcDbCircle
 10
302.7479188193176
 20
189.0810859346586
 30
0.0
 40
2.5
100
AcDbArc
 50
270.0
 51
0.0
  0
LINE
  5
3625
330
1A
100
AcDbEntity
  8
SEIHIN
100
AcDbLine
 10
305.2479188193177
 20
205.8810859346585
 30
0.0
 11
305.2479188193176
 21
189.0810859346586
 31
0.0
  0
ARC
  5
3626
330
1A
100
AcDbEntity
  8
SEIHIN
100
AcDbCircle
 10
302.7479188193177
 20
205.8810859346585
 30
0.0
 40
2.5
100
AcDbArc
 50
0.0
 51
90.0
  0
LINE
  5
3627
330
1A
100
AcDbEntity
  8
SEIHIN
100
AcDbLine
 10
298.5664451907322
 20
208.3810859346586
 30
0.0
 11
302.7479188193177
 21
208.3810859346586
 31
0.0
  0
ARC
  5
3628
330
1A
100
AcDbEntity
  8
SEIHIN
100
AcDbCircle
 10
293.9358816691246
 20
186.0810859346586
 30
0.0
 40
0.5
100
AcDbArc
 50
90.0
 51
170.9468855896715
  0
VIEWPORT
  5
22
330
17
100
AcDbEntity
 67
     1
  8
0
100
AcDbViewport
 10
313.6808219178082
 20
148.5
 30
0.0
 40
627.3616438356165
 41
297.0
 68
     2
 69
     1
 12
313.6808219178082
 22
148.5
 13
0.0
 23
0.0
 14
1.0
 24
1.0
 15
10.0
 25
10.0
 16
0.0
 26
0.0
 36
1.0
 17
0.0
 27
0.0
 37
0.0
 42
50.0
 43
0.0
 44
0.0
 45
297.0
 50
0.0
 51
0.0
 72
   100
 90
    32768
  1

281
     0
 71
     1
 74
     0
110
0.0
120
0.0
130
0.0
111
1.0
121
0.0
131
0.0
112
0.0
122
1.0
132
0.0
 79
     0
146
0.0
  0
VIEWPORT
  5
64
330
17
100
AcDbEntity
 67
     1
  8
VIEWPORT
100
AcDbViewport
 10
210.0
 20
148.5
 30
0.0
 40
420.0
 41
297.0
 68
     1
 69
     2
 12
210.0
 22
148.5
 13
0.0
 23
0.0
 14
5.0
 24
5.0
 15
0.0
 25
0.0
 16
0.0
 26
0.0
 36
1.0
 17
0.0
 27
0.0
 37
0.0
 42
50.0
 43
0.0
 44
0.0
 45
302.9399999999998
 50
0.0
 51
0.0
 72
   100
 90
    32768
  1

281
     0
 71
     1
 74
     0
110
0.0
120
0.0
130
0.0
111
1.0
121
0.0
131
0.0
112
0.0
122
1.0
132
0.0
 79
     0
146
0.0
  0
ENDSEC
  0
SECTION
  2
OBJECTS
  0
DICTIONARY
  5
C
330
0
100
AcDbDictionary
281
     1
  3
ACAD_GROUP
350
D
  3
ACAD_LAYOUT
350
624
  3
ACAD_MLINESTYLE
350
E
  3
ACAD_PLOTSETTINGS
350
625
  3
ACAD_PLOTSTYLENAME
350
622
  0
DICTIONARY
  5
F94
330
2
100
AcDbDictionary
280
     1
281
     1
  3
ACAD_LAYERFILTERS
360
F95
  0
DICTIONARY
  5
651
330
1A
100
AcDbDictionary
280
     1
281
     1
  3
ACAD_LAYOUTSELFREF
360
36DA
  0
DICTIONARY
  5
64F
330
17
100
AcDbDictionary
280
     1
281
     1
  3
ACAD_LAYOUTSELFREF
360
36D9
  0
DICTIONARY
  5
D
102
{ACAD_REACTORS
330
C
102
}
330
C
100
AcDbDictionary
281
     1
  3
*A1
350
F5D
  3
*A2
350
FA1
  3
*A3
350
FBF
  0
DICTIONARY
  5
624
102
{ACAD_REACTORS
330
C
102
}
330
C
100
AcDbDictionary
281
     1
  3
Model
350
626
  3
ﾚｲｱｳﾄ1
350
627
  0
DICTIONARY
  5
E
102
{ACAD_REACTORS
330
C
102
}
330
C
100
AcDbDictionary
281
     1
  3
STANDARD
350
13
  0
DICTIONARY
  5
625
102
{ACAD_REACTORS
330
C
102
}
330
C
100
AcDbDictionary
281
     1
  0
ACDBDICTIONARYWDFLT
  5
622
102
{ACAD_REACTORS
330
C
102
}
330
C
100
AcDbDictionary
281
     1
  3
Normal
350
623
100
AcDbDictionaryWithDefault
340
623
1001
ACAD
1000
TREAT_AS_HARD
1070
     0
1000
TREAT_AS_HARD
1070
     0
1000
TREAT_AS_HARD
1070
     0
1000
TREAT_AS_HARD
1070
     0
1000
TREAT_AS_HARD
1070
     0
1000
TREAT_AS_HARD
1070
     0
1000
TREAT_AS_HARD
1070
     0
1000
TREAT_AS_HARD
1070
     0
1000
TREAT_AS_HARD
1070
     0
  0
DICTIONARY
  5
F95
102
{ACAD_REACTORS
330
F94
102
}
330
F94
100
AcDbDictionary
280
     1
281
     1
  3
50
360
F96
  0
XRECORD
  5
36DA
102
{ACAD_REACTORS
330
651
102
}
330
651
100
AcDbXrecord
280
     1
340
1A
  0
XRECORD
  5
36D9
102
{ACAD_REACTORS
330
64F
102
}
330
64F
100
AcDbXrecord
280
     1
340
17
  0
GROUP
  5
F5D
102
{ACAD_REACTORS
330
D
102
}
330
D
100
AcDbGroup
300

 70
     1
 71
     1
  0
GROUP
  5
FA1
102
{ACAD_REACTORS
330
D
102
}
330
D
100
AcDbGroup
300

 70
     1
 71
     1
  0
GROUP
  5
FBF
102
{ACAD_REACTORS
330
D
102
}
330
D
100
AcDbGroup
300

 70
     1
 71
     1
  0
LAYOUT
  5
626
102
{ACAD_REACTORS
330
624
102
}
330
624
100
AcDbPlotSettings
  1

  2
Acrobat Distiller
  4
A3
  6

 40
3.174999952316284
 41
3.174999952316284
 42
3.17498779296875
 43
3.17498779296875
 44
297.0318298339843
 45
420.1583251953125
 46
0.0
 47
0.0
 48
0.0
 49
0.0
140
0.0
141
0.0
142
1.0
143
1.0
 70
 11952
 72
     1
 73
     1
 74
     2
  7
print.ctb
 75
    16
147
1.0
148
0.0
149
0.0
100
AcDbLayout
  1
Model
 70
     1
 71
     0
 10
0.0
 20
0.0
 11
12.0
 21
9.0
 12
0.0
 22
0.0
 32
0.0
 14
0.0
 24
0.0
 34
0.0
 15
0.0
 25
0.0
 35
0.0
146
0.0
 13
0.0
 23
0.0
 33
0.0
 16
1.0
 26
0.0
 36
0.0
 17
0.0
 27
1.0
 37
0.0
 76
     0
330
1A
  0
LAYOUT
  5
627
102
{ACAD_REACTORS
330
624
102
}
330
624
100
AcDbPlotSettings
  1

  2
EPSON PM-2000C
  4

  6

 40
0.0
 41
0.0
 42
0.0
 43
0.0
 44
0.0
 45
0.0
 46
0.0
 47
0.0
 48
0.0
 49
0.0
140
0.0
141
0.0
142
1.0
143
1.0
 70
   688
 72
     0
 73
     0
 74
     5
  7
print.ctb
 75
    16
147
1.0
148
0.0
149
0.0
100
AcDbLayout
  1
ﾚｲｱｳﾄ1
 70
     1
 71
     1
 10
0.0
 20
0.0
 11
420.0
 21
297.0
 12
0.0
 22
0.0
 32
0.0
 14
0.0
 24
0.0
 34
0.0
 15
420.0
 25
297.0
 35
0.0
146
0.0
 13
0.0
 23
0.0
 33
0.0
 16
1.0
 26
0.0
 36
0.0
 17
0.0
 27
1.0
 37
0.0
 76
     0
330
17
331
64
  0
MLINESTYLE
  5
13
102
{ACAD_REACTORS
330
E
102
}
330
E
100
AcDbMlineStyle
  2
STANDARD
 70
     0
  3

 62
     0
 51
90.0
 52
90.0
 71
     2
 49
0.5
 62
   256
  6
BYLAYER
 49
-0.5
 62
   256
  6
BYLAYER
  0
ACDBPLACEHOLDER
  5
623
102
{ACAD_REACTORS
330
622
102
}
330
622
  0
XRECORD
  5
F96
102
{ACAD_REACTORS
330
F95
102
}
330
F95
100
AcDbXrecord
280
     1
  1
50
  1
*-50
  1
*
  1
*
 70
     0
  1
*
  1
*
  0
ENDSEC
  0
EOF
