  0
SECTION
  2
HEADER
  9
$ACADVER
  1
AC1015
  9
$ACADMAINTVER
 70
    20
  9
$DWGCODEPAGE
  3
ANSI_932
  9
$INSBASE
 10
0.0
 20
0.0
 30
0.0
  9
$EXTMIN
 10
-0.0513266502548504
 20
-0.2527200067052036
 30
-0.0015258207003583
  9
$EXTMAX
 10
1595.302677155126
 20
1103.586115865619
 30
0.0000000349246037
  9
$LIMMIN
 10
0.0
 20
0.0
  9
$LIMMAX
 10
1682.0
 20
1188.0
  9
$ORTHOMODE
 70
     0
  9
$REGENMODE
 70
     1
  9
$FILLMODE
 70
     1
  9
$QTEXTMODE
 70
     0
  9
$MIRRTEXT
 70
     1
  9
$LTSCALE
 40
5.657142857142857
  9
$ATTMODE
 70
     1
  9
$TEXTSIZE
 40
19.8
  9
$TRACEWID
 40
0.05
  9
$TEXTSTYLE
  7
STANDARD
  9
$CLAYER
  8
SEIHIN
  9
$CELTYPE
  6
BYLAYER
  9
$CECOLOR
 62
   256
  9
$CELTSCALE
 40
1.0
  9
$DISPSILH
 70
     0
  9
$DIMSCALE
 40
1.0
  9
$DIMASZ
 40
14.0
  9
$DIMEXO
 40
12.0
  9
$DIMDLI
 40
28.0
  9
$DIMRND
 40
0.0
  9
$DIMDLE
 40
0.0
  9
$DIMEXE
 40
6.0
  9
$DIMTP
 40
0.0
  9
$DIMTM
 40
0.0
  9
$DIMTXT
 40
12.0
  9
$DIMCEN
 40
150.0
  9
$DIMTSZ
 40
0.0
  9
$DIMTOL
 70
     0
  9
$DIMLIM
 70
     0
  9
$DIMTIH
 70
     0
  9
$DIMTOH
 70
     0
  9
$DIMSE1
 70
     0
  9
$DIMSE2
 70
     0
  9
$DIMTAD
 70
     3
  9
$DIMZIN
 70
     0
  9
$DIMBLK
  1

  9
$DIMASO
 70
     1
  9
$DIMSHO
 70
     1
  9
$DIMPOST
  1

  9
$DIMAPOST
  1

  9
$DIMALT
 70
     0
  9
$DIMALTD
 70
     2
  9
$DIMALTF
 40
0.03937
  9
$DIMLFAC
 40
1.0
  9
$DIMTOFL
 70
     1
  9
$DIMTVP
 40
0.0
  9
$DIMTIX
 70
     0
  9
$DIMSOXD
 70
     0
  9
$DIMSAH
 70
     1
  9
$DIMBLK1
  1
OPEN
  9
$DIMBLK2
  1
OPEN
  9
$DIMSTYLE
  2
STANDARD
  9
$DIMCLRD
 70
   256
  9
$DIMCLRE
 70
   256
  9
$DIMCLRT
 70
   256
  9
$DIMTFAC
 40
1.0
  9
$DIMGAP
 40
4.0
  9
$DIMJUST
 70
     0
  9
$DIMSD1
 70
     0
  9
$DIMSD2
 70
     0
  9
$DIMTOLJ
 70
     1
  9
$DIMTZIN
 70
     0
  9
$DIMALTZ
 70
     0
  9
$DIMALTTZ
 70
     0
  9
$DIMUPT
 70
     0
  9
$DIMDEC
 70
     0
  9
$DIMTDEC
 70
     0
  9
$DIMALTU
 70
     2
  9
$DIMALTTD
 70
     2
  9
$DIMTXSTY
  7
STANDARD
  9
$DIMAUNIT
 70
     0
  9
$DIMADEC
 70
     0
  9
$DIMALTRND
 40
0.0
  9
$DIMAZIN
 70
     0
  9
$DIMDSEP
 70
    46
  9
$DIMATFIT
 70
     3
  9
$DIMFRAC
 70
     0
  9
$DIMLDRBLK
  1
OPEN
  9
$DIMLUNIT
 70
     2
  9
$DIMLWD
 70
    -1
  9
$DIMLWE
 70
    -1
  9
$DIMTMOVE
 70
     0
  9
$LUNITS
 70
     2
  9
$LUPREC
 70
     4
  9
$SKETCHINC
 40
0.1
  9
$FILLETRAD
 40
0.0
  9
$AUNITS
 70
     0
  9
$AUPREC
 70
     0
  9
$MENU
  1
acad
  9
$ELEVATION
 40
0.0
  9
$PELEVATION
 40
0.0
  9
$THICKNESS
 40
0.0
  9
$LIMCHECK
 70
     0
  9
$CHAMFERA
 40
56.57142857142858
  9
$CHAMFERB
 40
56.57142857142858
  9
$CHAMFERC
 40
113.1428571428571
  9
$CHAMFERD
 40
0.0
  9
$SKPOLY
 70
     0
  9
$TDCREATE
 40
2450994.355304167
  9
$TDUCREATE
 40
2450993.980304167
  9
$TDUPDATE
 40
2456804.617205672
  9
$TDUUPDATE
 40
2456804.242205672
  9
$TDINDWG
 40
0.0752739931
  9
$TDUSRTIMER
 40
0.0752739931
  9
$USRTIMER
 70
     1
  9
$ANGBASE
 50
0.0
  9
$ANGDIR
 70
     0
  9
$PDMODE
 70
     1
  9
$PDSIZE
 40
0.0
  9
$PLINEWID
 40
0.0
  9
$SPLFRAME
 70
     0
  9
$SPLINETYPE
 70
     6
  9
$SPLINESEGS
 70
     8
  9
$HANDSEED
  5
103C
  9
$SURFTAB1
 70
     6
  9
$SURFTAB2
 70
     6
  9
$SURFTYPE
 70
     6
  9
$SURFU
 70
     6
  9
$SURFV
 70
     6
  9
$UCSBASE
  2

  9
$UCSNAME
  2

  9
$UCSORG
 10
0.0
 20
0.0
 30
0.0
  9
$UCSXDIR
 10
1.0
 20
0.0
 30
0.0
  9
$UCSYDIR
 10
0.0
 20
1.0
 30
0.0
  9
$UCSORTHOREF
  2

  9
$UCSORTHOVIEW
 70
     0
  9
$UCSORGTOP
 10
0.0
 20
0.0
 30
0.0
  9
$UCSORGBOTTOM
 10
0.0
 20
0.0
 30
0.0
  9
$UCSORGLEFT
 10
0.0
 20
0.0
 30
0.0
  9
$UCSORGRIGHT
 10
0.0
 20
0.0
 30
0.0
  9
$UCSORGFRONT
 10
0.0
 20
0.0
 30
0.0
  9
$UCSORGBACK
 10
0.0
 20
0.0
 30
0.0
  9
$PUCSBASE
  2

  9
$PUCSNAME
  2

  9
$PUCSORG
 10
0.0
 20
0.0
 30
0.0
  9
$PUCSXDIR
 10
1.0
 20
0.0
 30
0.0
  9
$PUCSYDIR
 10
0.0
 20
1.0
 30
0.0
  9
$PUCSORTHOREF
  2

  9
$PUCSORTHOVIEW
 70
     0
  9
$PUCSORGTOP
 10
0.0
 20
0.0
 30
0.0
  9
$PUCSORGBOTTOM
 10
0.0
 20
0.0
 30
0.0
  9
$PUCSORGLEFT
 10
0.0
 20
0.0
 30
0.0
  9
$PUCSORGRIGHT
 10
0.0
 20
0.0
 30
0.0
  9
$PUCSORGFRONT
 10
0.0
 20
0.0
 30
0.0
  9
$PUCSORGBACK
 10
0.0
 20
0.0
 30
0.0
  9
$USERI1
 70
     0
  9
$USERI2
 70
     0
  9
$USERI3
 70
     0
  9
$USERI4
 70
     0
  9
$USERI5
 70
     0
  9
$USERR1
 40
0.0
  9
$USERR2
 40
0.0
  9
$USERR3
 40
0.0
  9
$USERR4
 40
0.0
  9
$USERR5
 40
0.0
  9
$WORLDVIEW
 70
     1
  9
$SHADEDGE
 70
     3
  9
$SHADEDIF
 70
    70
  9
$TILEMODE
 70
     1
  9
$MAXACTVP
 70
    16
  9
$PINSBASE
 10
0.0
 20
0.0
 30
0.0
  9
$PLIMCHECK
 70
     0
  9
$PEXTMIN
 10
0.0
 20
0.0
 30
0.0
  9
$PEXTMAX
 10
420.0
 20
297.0
 30
0.0
  9
$PLIMMIN
 10
0.0
 20
0.0
  9
$PLIMMAX
 10
420.0
 20
297.0
  9
$UNITMODE
 70
     0
  9
$VISRETAIN
 70
     0
  9
$PLINEGEN
 70
     0
  9
$PSLTSCALE
 70
     1
  9
$TREEDEPTH
 70
  3020
  9
$CMLSTYLE
  2
STANDARD
  9
$CMLJUST
 70
     0
  9
$CMLSCALE
 40
20.0
  9
$PROXYGRAPHICS
 70
     1
  9
$MEASUREMENT
 70
     1
  9
$CELWEIGHT
370
    -1
  9
$ENDCAPS
280
     0
  9
$JOINSTYLE
280
     0
  9
$LWDISPLAY
290
     0
  9
$INSUNITS
 70
     0
  9
$HYPERLINKBASE
  1

  9
$STYLESHEET
  1
monochrome.ctb
  9
$XEDIT
290
     1
  9
$CEPSNTYPE
380
     0
  9
$PSTYLEMODE
290
     1
  9
$FINGERPRINTGUID
  2
{974F94A6-BABB-4CE0-A30F-CB38AEA12F3D}
  9
$VERSIONGUID
  2
{1192471E-AF37-4E16-AA5B-BA5963E8F672}
  9
$EXTNAMES
290
     1
  9
$PSVPSCALE
 40
0.0
  9
$OLESTARTUP
290
     0
  0
ENDSEC
  0
SECTION
  2
CLASSES
  0
CLASS
  1
ACDBDICTIONARYWDFLT
  2
AcDbDictionaryWithDefault
  3
ObjectDBX Classes
 90
        0
280
     0
281
     0
  0
CLASS
  1
ACDBPLACEHOLDER
  2
AcDbPlaceHolder
  3
ObjectDBX Classes
 90
        0
280
     0
281
     0
  0
CLASS
  1
LAYOUT
  2
AcDbLayout
  3
ObjectDBX Classes
 90
        0
280
     0
281
     0
  0
CLASS
  1
DICTIONARYVAR
  2
AcDbDictionaryVar
  3
ObjectDBX Classes
 90
        0
280
     0
281
     0
  0
ENDSEC
  0
SECTION
  2
TABLES
  0
TABLE
  2
VPORT
  5
8
330
0
100
AcDbSymbolTable
 70
     4
  0
VPORT
  5
1030
330
8
100
AcDbSymbolTableRecord
100
AcDbViewportTableRecord
  2
*Active
 70
     0
 10
0.0
 20
0.0
 11
1.0
 21
1.0
 12
1123.856749943633
 22
512.7369510350327
 13
0.0
 23
0.0
 14
10.0
 24
10.0
 15
10.0
 25
10.0
 16
0.0
 26
0.0
 36
1.0
 17
0.0
 27
0.0
 37
0.0
 40
2468.443713778273
 41
2.011264080100125
 42
50.0
 43
0.0
 44
0.0
 50
0.0
 51
0.0
 71
     0
 72
   100
 73
     1
 74
     0
 75
     0
 76
     0
 77
     0
 78
     0
281
     0
 65
     1
110
0.0
120
0.0
130
0.0
111
1.0
121
0.0
131
0.0
112
0.0
122
1.0
132
0.0
 79
     0
146
0.0
  0
ENDTAB
  0
TABLE
  2
LTYPE
  5
5
330
0
100
AcDbSymbolTable
 70
     2
  0
LTYPE
  5
13
330
5
100
AcDbSymbolTableRecord
100
AcDbLinetypeTableRecord
  2
BYBLOCK
 70
     0
  3

 72
    65
 73
     0
 40
0.0
  0
LTYPE
  5
14
330
5
100
AcDbSymbolTableRecord
100
AcDbLinetypeTableRecord
  2
BYLAYER
 70
     0
  3

 72
    65
 73
     0
 40
0.0
  0
LTYPE
  5
15
330
5
100
AcDbSymbolTableRecord
100
AcDbLinetypeTableRecord
  2
CONTINUOUS
 70
     0
  3
Solid line
 72
    65
 73
     0
 40
0.0
  0
LTYPE
  5
11C
330
5
100
AcDbSymbolTableRecord
100
AcDbLinetypeTableRecord
  2
CENTER
 70
     0
  3
____ _ ____ _ ____ _ ____ _ ____ _ ____ _ ____ 
 72
    65
 73
     4
 40
2.0
 49
1.25
 74
     0
 49
-0.25
 74
     0
 49
0.25
 74
     0
 49
-0.25
 74
     0
  0
ENDTAB
  0
TABLE
  2
LAYER
  5
2
330
0
100
AcDbSymbolTable
 70
     8
  0
LAYER
  5
F
330
2
100
AcDbSymbolTableRecord
100
AcDbLayerTableRecord
  2
0
 70
     0
 62
     7
  6
CONTINUOUS
370
    -3
390
27E
  0
LAYER
  5
23
330
2
100
AcDbSymbolTableRecord
100
AcDbLayerTableRecord
  2
VIEWPORT
 70
     0
 62
     7
  6
CONTINUOUS
370
    -3
390
27E
  0
LAYER
  5
2D
330
2
100
AcDbSymbolTableRecord
100
AcDbLayerTableRecord
  2
ZUWAKU
 70
     0
 62
     7
  6
CONTINUOUS
370
    -3
390
27E
  0
LAYER
  5
A6
330
2
100
AcDbSymbolTableRecord
100
AcDbLayerTableRecord
  2
DEFPOINTS
 70
     0
 62
     7
  6
CONTINUOUS
290
     0
370
    -3
390
27E
  0
LAYER
  5
1A3
330
2
100
AcDbSymbolTableRecord
100
AcDbLayerTableRecord
  2
SEIHIN
 70
     0
 62
     3
  6
CONTINUOUS
370
    -3
390
27E
  0
LAYER
  5
1A4
330
2
100
AcDbSymbolTableRecord
100
AcDbLayerTableRecord
  2
SUNPOU
 70
     0
 62
     4
  6
CONTINUOUS
370
    -3
390
27E
  0
LAYER
  5
1A5
330
2
100
AcDbSymbolTableRecord
100
AcDbLayerTableRecord
  2
CENTER L
 70
     0
 62
     1
  6
CENTER
370
    -3
390
27E
  0
LAYER
  5
4DA
330
2
100
AcDbSymbolTableRecord
100
AcDbLayerTableRecord
  2
moji
 70
     0
 62
     2
  6
CONTINUOUS
370
    -3
390
27E
  0
ENDTAB
  0
TABLE
  2
STYLE
  5
3
330
0
100
AcDbSymbolTable
 70
     2
  0
STYLE
  5
10
330
3
100
AcDbSymbolTableRecord
100
AcDbTextStyleTableRecord
  2
STANDARD
 70
     0
 40
0.0
 41
1.0
 50
0.0
 71
     0
 42
19.8
  3
txt
  4
bigfont.shx
  0
STYLE
  5
4DB
330
3
100
AcDbSymbolTableRecord
100
AcDbTextStyleTableRecord
  2
ｽﾀｲﾙ1
 70
     0
 40
0.0
 41
1.0
 50
0.0
 71
     0
 42
19.8
  3

  4

1001
ACAD
1000
MS Gothic
1071
    32817
  0
ENDTAB
  0
TABLE
  2
VIEW
  5
6
330
0
100
AcDbSymbolTable
 70
     0
  0
ENDTAB
  0
TABLE
  2
UCS
  5
7
330
0
100
AcDbSymbolTable
 70
     0
  0
ENDTAB
  0
TABLE
  2
APPID
  5
9
330
0
100
AcDbSymbolTable
 70
     1
  0
APPID
  5
11
330
9
100
AcDbSymbolTableRecord
100
AcDbRegAppTableRecord
  2
ACAD
 70
     0
  0
ENDTAB
  0
TABLE
  2
DIMSTYLE
  5
A
330
0
100
AcDbSymbolTable
 70
     1
100
AcDbDimStyleTable
 71
     1
340
1D
  0
DIMSTYLE
105
1D
102
{ACAD_REACTORS
330
1D3
330
1DA
330
1E4
330
1E8
330
F4E
102
}
330
A
100
AcDbSymbolTableRecord
100
AcDbDimStyleTableRecord
  2
STANDARD
 70
     0
340
10
  0
ENDTAB
  0
TABLE
  2
BLOCK_RECORD
  5
1
330
0
100
AcDbSymbolTable
 70
     9
  0
BLOCK_RECORD
  5
19
102
{ACAD_XDICTIONARY
360
2AE
102
}
330
1
100
AcDbSymbolTableRecord
100
AcDbBlockTableRecord
  2
*MODEL_SPACE
340
281
  0
BLOCK_RECORD
  5
16
102
{ACAD_XDICTIONARY
360
2AC
102
}
330
1
100
AcDbSymbolTableRecord
100
AcDbBlockTableRecord
  2
*PAPER_SPACE
340
282
  0
BLOCK_RECORD
  5
27
330
1
100
AcDbSymbolTableRecord
100
AcDbBlockTableRecord
  2
_OPEN
340
0
102
{BLKREFS
331
E70
331
F49
331
FF4
331
FF5
331
FFD
331
FFE
331
1006
331
1007
331
1011
331
1012
331
101A
331
101B
102
}
  0
BLOCK_RECORD
  5
1FC
330
1
100
AcDbSymbolTableRecord
100
AcDbBlockTableRecord
  2
*D1
340
0
  0
BLOCK_RECORD
  5
216
330
1
100
AcDbSymbolTableRecord
100
AcDbBlockTableRecord
  2
*D2
340
0
  0
BLOCK_RECORD
  5
224
330
1
100
AcDbSymbolTableRecord
100
AcDbBlockTableRecord
  2
*D3
340
0
  0
BLOCK_RECORD
  5
230
330
1
100
AcDbSymbolTableRecord
100
AcDbBlockTableRecord
  2
*D4
340
0
  0
BLOCK_RECORD
  5
342
330
1
100
AcDbSymbolTableRecord
100
AcDbBlockTableRecord
  2
*X5
340
0
102
{BLKREFS
331
7B1
102
}
  0
BLOCK_RECORD
  5
F4F
330
1
100
AcDbSymbolTableRecord
100
AcDbBlockTableRecord
  2
*D8
340
0
  0
ENDTAB
  0
ENDSEC
  0
SECTION
  2
BLOCKS
  0
BLOCK
  5
1A
330
19
100
AcDbEntity
  8
0
100
AcDbBlockBegin
  2
*MODEL_SPACE
 70
     0
 10
0.0
 20
0.0
 30
0.0
  3
*MODEL_SPACE
  1

  0
ENDBLK
  5
1B
330
19
100
AcDbEntity
  8
0
100
AcDbBlockEnd
  0
BLOCK
  5
17
330
16
100
AcDbEntity
 67
     1
  8
0
100
AcDbBlockBegin
  2
*PAPER_SPACE
 70
     0
 10
0.0
 20
0.0
 30
0.0
  3
*PAPER_SPACE
  1

  0
ENDBLK
  5
18
330
16
100
AcDbEntity
 67
     1
  8
0
100
AcDbBlockEnd
  0
BLOCK
  5
28
330
27
100
AcDbEntity
  8
0
100
AcDbBlockBegin
  2
_OPEN
 70
     0
 10
0.0
 20
0.0
 30
0.0
  3
_OPEN
  1

  0
LINE
  5
29
330
27
100
AcDbEntity
  8
0
  6
ByBlock
 62
     0
100
AcDbLine
 10
-1.0
 20
0.1666666666666666
 30
0.0
 11
0.0
 21
0.0
 31
0.0
  0
LINE
  5
2A
330
27
100
AcDbEntity
  8
0
  6
ByBlock
 62
     0
100
AcDbLine
 10
0.0
 20
0.0
 30
0.0
 11
-1.0
 21
-0.1666666666666666
 31
0.0
  0
LINE
  5
2B
330
27
100
AcDbEntity
  8
0
  6
ByBlock
 62
     0
100
AcDbLine
 10
0.0
 20
0.0
 30
0.0
 11
-1.0
 21
0.0
 31
0.0
  0
ENDBLK
  5
2C
330
27
100
AcDbEntity
  8
0
100
AcDbBlockEnd
  0
BLOCK
  5
23E
330
1FC
100
AcDbEntity
  8
0
100
AcDbBlockBegin
  2
*D1
 70
     1
 10
0.0
 20
0.0
 30
0.0
  3
*D1
  1

  0
LINE
  5
1017
330
1FC
100
AcDbEntity
  8
SUNPOU
  6
Continuous
 62
     4
370
    -2
100
AcDbLine
 10
1187.21869107372
 20
684.1732479031043
 30
0.0
 11
1187.21869107372
 21
764.8942816719572
 31
0.0
  0
LINE
  5
1018
330
1FC
100
AcDbEntity
  8
SUNPOU
  6
Continuous
 62
     4
370
    -2
100
AcDbLine
 10
187.2321301495307
 20
684.1722855238968
 30
0.0
 11
187.2321301495307
 21
764.8942816719572
 31
0.0
  0
LINE
  5
1019
330
1FC
100
AcDbEntity
  8
SUNPOU
  6
Continuous
 62
     4
370
    -2
100
AcDbLine
 10
1173.21869107372
 20
758.8942816719573
 30
0.0
 11
201.2321301495307
 21
758.8942816719573
 31
0.0
  0
INSERT
  5
101A
330
1FC
100
AcDbEntity
  8
SUNPOU
  6
Continuous
 62
     4
370
    -2
100
AcDbBlockReference
  2
_OPEN
 10
1187.21869107372
 20
758.8942816719573
 30
0.0
 41
14.0
 42
14.0
 43
14.0
  0
INSERT
  5
101B
330
1FC
100
AcDbEntity
  8
SUNPOU
  6
Continuous
 62
     4
370
    -2
100
AcDbBlockReference
  2
_OPEN
 10
187.2321301495307
 20
758.8942816719573
 30
0.0
 41
14.0
 42
14.0
 43
14.0
 50
180.0
  0
MTEXT
  5
101C
330
1FC
100
AcDbEntity
  8
SUNPOU
  6
Continuous
 62
     4
100
AcDbMText
 10
687.2254106116254
 20
768.8942816719572
 30
0.0
 40
12.0
 41
0.0
 71
     5
 72
     1
  1
\A1;1000
 73
     1
 44
1.0
1001
ACAD
1000
MTEXTBEGIN
1070
    73
1070
     1
1070
    44
1040
1.0
1070
    74
1070
     0
1000
MTEXTEND
  0
POINT
  5
101D
330
1FC
100
AcDbEntity
  8
DEFPOINTS
  6
Continuous
 62
     0
100
AcDbPoint
 10
1187.21869107372
 20
672.1732479031043
 30
0.0
  0
POINT
  5
101E
330
1FC
100
AcDbEntity
  8
DEFPOINTS
  6
Continuous
 62
     0
100
AcDbPoint
 10
187.2321301495307
 20
672.1722855238968
 30
0.0
  0
POINT
  5
101F
330
1FC
100
AcDbEntity
  8
DEFPOINTS
  6
Continuous
 62
     0
100
AcDbPoint
 10
187.2321301495307
 20
758.8942816719573
 30
0.0
  0
ENDBLK
  5
248
330
1FC
100
AcDbEntity
  8
0
100
AcDbBlockEnd
  0
BLOCK
  5
256
330
216
100
AcDbEntity
  8
0
100
AcDbBlockBegin
  2
*D2
 70
     1
 10
0.0
 20
0.0
 30
0.0
  3
*D2
  1

  0
LINE
  5
100C
330
216
100
AcDbEntity
  8
SUNPOU
  6
Continuous
 62
     4
370
    -2
100
AcDbLine
 10
699.2255445582874
 20
654.29326979093
 30
0.0
 11
1246.004457291182
 21
654.2932697909299
 31
0.0
  0
LINE
  5
100D
330
216
100
AcDbEntity
  8
SUNPOU
  6
Continuous
 62
     4
370
    -2
100
AcDbLine
 10
1199.21869107372
 20
672.1732479031041
 30
0.0
 11
1246.004457291182
 21
672.1732479031041
 31
0.0
  0
LINE
  5
100E
330
216
100
AcDbEntity
  8
SUNPOU
  6
Continuous
 62
     4
370
    -2
100
AcDbLine
 10
1240.004457291182
 20
640.2932697909299
 30
0.0
 11
1240.004457291182
 21
626.2932697909299
 31
0.0
  0
LINE
  5
100F
330
216
100
AcDbEntity
  8
SUNPOU
  6
Continuous
 62
     4
370
    -2
100
AcDbLine
 10
1240.004457291182
 20
686.1732479031042
 30
0.0
 11
1240.004457291182
 21
724.1732479031042
 31
0.0
  0
LINE
  5
1010
330
216
100
AcDbEntity
  8
SUNPOU
  6
Continuous
 62
     4
370
    -2
100
AcDbLine
 10
1240.004457291182
 20
654.2932697909299
 30
0.0
 11
1240.004457291182
 21
672.1732479031041
 31
0.0
  0
INSERT
  5
1011
330
216
100
AcDbEntity
  8
SUNPOU
  6
Continuous
 62
     4
370
    -2
100
AcDbBlockReference
  2
_OPEN
 10
1240.004457291182
 20
654.2932697909299
 30
0.0
 41
14.0
 42
14.0
 43
14.0
 50
90.0
  0
INSERT
  5
1012
330
216
100
AcDbEntity
  8
SUNPOU
  6
Continuous
 62
     4
370
    -2
100
AcDbBlockReference
  2
_OPEN
 10
1240.004457291182
 20
672.1732479031041
 30
0.0
 41
14.0
 42
14.0
 43
14.0
 50
270.0
  0
MTEXT
  5
1013
330
216
100
AcDbEntity
  8
SUNPOU
  6
Continuous
 62
     4
100
AcDbMText
 10
1230.004457291182
 20
712.1732479031043
 30
0.0
 40
12.0
 41
0.0
 71
     5
 72
     1
  1
\A1;18
 11
0.0000000000000001
 21
1.0
 31
0.0
 73
     1
 44
1.0
1001
ACAD
1000
MTEXTBEGIN
1070
    73
1070
     1
1070
    44
1040
1.0
1070
    74
1070
     0
1000
MTEXTEND
  0
POINT
  5
1014
330
216
100
AcDbEntity
  8
DEFPOINTS
  6
Continuous
 62
     0
100
AcDbPoint
 10
687.2255445582874
 20
654.29326979093
 30
0.0
  0
POINT
  5
1015
330
216
100
AcDbEntity
  8
DEFPOINTS
  6
Continuous
 62
     0
100
AcDbPoint
 10
1187.21869107372
 20
672.1732479031041
 30
0.0
  0
POINT
  5
1016
330
216
100
AcDbEntity
  8
DEFPOINTS
  6
Continuous
 62
     0
100
AcDbPoint
 10
1240.004457291182
 20
672.1732479031041
 30
0.0
  0
ENDBLK
  5
262
330
216
100
AcDbEntity
  8
0
100
AcDbBlockEnd
  0
BLOCK
  5
263
330
224
100
AcDbEntity
  8
0
100
AcDbBlockBegin
  2
*D3
 70
     1
 10
0.0
 20
0.0
 30
0.0
  3
*D3
  1

  0
LINE
  5
1003
330
224
100
AcDbEntity
  8
SUNPOU
  6
Continuous
 62
     4
370
    -2
100
AcDbLine
 10
1375.455067690821
 20
729.38513041996
 30
0.0
 11
1375.455067690821
 21
779.541048342516
 31
0.0
  0
LINE
  5
1004
330
224
100
AcDbEntity
  8
SUNPOU
  6
Continuous
 62
     4
370
    -2
100
AcDbLine
 10
1488.97890373361
 20
729.38513041996
 30
0.0
 11
1488.97890373361
 21
779.541048342516
 31
0.0
  0
LINE
  5
1005
330
224
100
AcDbEntity
  8
SUNPOU
  6
Continuous
 62
     4
370
    -2
100
AcDbLine
 10
1389.455067690821
 20
773.5410483425161
 30
0.0
 11
1474.97890373361
 21
773.5410483425161
 31
0.0
  0
INSERT
  5
1006
330
224
100
AcDbEntity
  8
SUNPOU
  6
Continuous
 62
     4
370
    -2
100
AcDbBlockReference
  2
_OPEN
 10
1375.455067690821
 20
773.5410483425161
 30
0.0
 41
14.0
 42
14.0
 43
14.0
 50
180.0
  0
INSERT
  5
1007
330
224
100
AcDbEntity
  8
SUNPOU
  6
Continuous
 62
     4
370
    -2
100
AcDbBlockReference
  2
_OPEN
 10
1488.97890373361
 20
773.5410483425161
 30
0.0
 41
14.0
 42
14.0
 43
14.0
  0
MTEXT
  5
1008
330
224
100
AcDbEntity
  8
SUNPOU
  6
Continuous
 62
     4
100
AcDbMText
 10
1432.216985712216
 20
783.541048342516
 30
0.0
 40
12.0
 41
0.0
 71
     5
 72
     1
  1
\A1;114
 73
     1
 44
1.0
1001
ACAD
1000
MTEXTBEGIN
1070
    73
1070
     1
1070
    44
1040
1.0
1070
    74
1070
     0
1000
MTEXTEND
  0
POINT
  5
1009
330
224
100
AcDbEntity
  8
DEFPOINTS
  6
Continuous
 62
     0
100
AcDbPoint
 10
1375.455067690821
 20
717.3851304199601
 30
0.0
  0
POINT
  5
100A
330
224
100
AcDbEntity
  8
DEFPOINTS
  6
Continuous
 62
     0
100
AcDbPoint
 10
1488.97890373361
 20
717.3851304199601
 30
0.0
  0
POINT
  5
100B
330
224
100
AcDbEntity
  8
DEFPOINTS
  6
Continuous
 62
     0
100
AcDbPoint
 10
1488.97890373361
 20
773.5410483425161
 30
0.0
  0
ENDBLK
  5
26D
330
224
100
AcDbEntity
  8
0
100
AcDbBlockEnd
  0
BLOCK
  5
26E
330
230
100
AcDbEntity
  8
0
100
AcDbBlockBegin
  2
*D4
 70
     1
 10
0.0
 20
0.0
 30
0.0
  3
*D4
  1

  0
LINE
  5
FFA
330
230
100
AcDbEntity
  8
SUNPOU
  6
Continuous
 62
     4
370
    -2
100
AcDbLine
 10
1420.217372633753
 20
672.0852269304491
 30
0.0
 11
1336.723021536539
 21
672.0852269304491
 31
0.0
  0
LINE
  5
FFB
330
230
100
AcDbEntity
  8
SUNPOU
  6
Continuous
 62
     4
370
    -2
100
AcDbLine
 10
1367.455918119446
 20
721.3854212762893
 30
0.0
 11
1336.723021536539
 21
721.3854212762893
 31
0.0
  0
LINE
  5
FFC
330
230
100
AcDbEntity
  8
SUNPOU
  6
Continuous
 62
     4
370
    -2
100
AcDbLine
 10
1342.723021536539
 20
686.0852269304491
 30
0.0
 11
1342.723021536539
 21
707.3854212762893
 31
0.0
  0
INSERT
  5
FFD
330
230
100
AcDbEntity
  8
SUNPOU
  6
Continuous
 62
     4
370
    -2
100
AcDbBlockReference
  2
_OPEN
 10
1342.723021536539
 20
672.0852269304491
 30
0.0
 41
14.0
 42
14.0
 43
14.0
 50
270.0
  0
INSERT
  5
FFE
330
230
100
AcDbEntity
  8
SUNPOU
  6
Continuous
 62
     4
370
    -2
100
AcDbBlockReference
  2
_OPEN
 10
1342.723021536539
 20
721.3854212762893
 30
0.0
 41
14.0
 42
14.0
 43
14.0
 50
90.0
  0
MTEXT
  5
FFF
330
230
100
AcDbEntity
  8
SUNPOU
  6
Continuous
 62
     4
100
AcDbMText
 10
1332.723021536539
 20
696.7353241033694
 30
0.0
 40
12.0
 41
0.0
 71
     5
 72
     1
  1
\A1;49
 11
0.0000000000000001
 21
1.0
 31
0.0
 73
     1
 44
1.0
1001
ACAD
1000
MTEXTBEGIN
1070
    73
1070
     1
1070
    44
1040
1.0
1070
    74
1070
     0
1000
MTEXTEND
  0
POINT
  5
1000
330
230
100
AcDbEntity
  8
DEFPOINTS
  6
Continuous
 62
     0
100
AcDbPoint
 10
1432.217372633753
 20
672.0852269304491
 30
0.0
  0
POINT
  5
1001
330
230
100
AcDbEntity
  8
DEFPOINTS
  6
Continuous
 62
     0
100
AcDbPoint
 10
1379.455918119445
 20
721.3854212762893
 30
0.0
  0
POINT
  5
1002
330
230
100
AcDbEntity
  8
DEFPOINTS
  6
Continuous
 62
     0
100
AcDbPoint
 10
1342.723021536539
 20
721.3854212762893
 30
0.0
  0
ENDBLK
  5
27A
330
230
100
AcDbEntity
  8
0
100
AcDbBlockEnd
  0
BLOCK
  5
4D6
330
342
100
AcDbEntity
  8
0
100
AcDbBlockBegin
  2
*X5
 70
     1
 10
0.0
 20
0.0
 30
0.0
  3
*X5
  1

  0
LINE
  5
343
330
342
100
AcDbEntity
  8
0
 62
     0
100
AcDbLine
 10
138.0844243231183
 20
45.20833800885884
 30
0.0
 11
136.7927624636885
 21
46.4999998682888
 31
0.0
  0
LINE
  5
344
330
342
100
AcDbEntity
  8
0
 62
     0
100
AcDbLine
 10
138.0844243231183
 20
43.41228678464505
 30
0.0
 11
134.9967112394746
 21
46.4999998682888
 31
0.0
  0
LINE
  5
345
330
342
100
AcDbEntity
  8
0
 62
     0
100
AcDbLine
 10
138.0844243231182
 20
41.61623556043116
 30
0.0
 11
133.2421564310883
 21
46.45850345246105
 31
0.0
  0
LINE
  5
346
330
342
100
AcDbEntity
  8
0
 62
     0
100
AcDbLine
 10
138.0844243231183
 20
39.8201843362175
 30
0.0
 11
132.4844243231182
 21
45.42018433621751
 31
0.0
  0
LINE
  5
347
330
342
100
AcDbEntity
  8
0
 62
     0
100
AcDbLine
 10
138.0844243231183
 20
38.0241331120036
 30
0.0
 11
132.4844243231182
 21
43.62413311200373
 31
0.0
  0
LINE
  5
348
330
342
100
AcDbEntity
  8
0
 62
     0
100
AcDbLine
 10
138.0844243231182
 20
36.2280818877897
 30
0.0
 11
132.4844243231181
 21
41.82808188778984
 31
0.0
  0
LINE
  5
349
330
342
100
AcDbEntity
  8
0
 62
     0
100
AcDbLine
 10
128.2844243231181
 20
44.2320306635761
 30
0.0
 11
126.0164551184056
 21
46.4999998682888
 31
0.0
  0
LINE
  5
34A
330
342
100
AcDbEntity
  8
0
 62
     0
100
AcDbLine
 10
138.0844243231183
 20
34.43203066357603
 30
0.0
 11
132.4844243231182
 21
40.03203066357616
 31
0.0
  0
LINE
  5
34B
330
342
100
AcDbEntity
  8
0
 62
     0
100
AcDbLine
 10
128.2844243231181
 20
42.43597943936231
 30
0.0
 11
124.2204038941917
 21
46.49999986828868
 31
0.0
  0
LINE
  5
34C
330
342
100
AcDbEntity
  8
0
 62
     0
100
AcDbLine
 10
138.0844243231182
 20
32.63597943936213
 30
0.0
 11
132.4844243231182
 21
38.23597943936227
 31
0.0
  0
LINE
  5
34D
330
342
100
AcDbEntity
  8
0
 62
     0
100
AcDbLine
 10
128.2844243231181
 20
40.63992821514841
 30
0.0
 11
122.873402392844
 21
46.05095014542257
 31
0.0
  0
LINE
  5
34E
330
342
100
AcDbEntity
  8
0
 62
     0
100
AcDbLine
 10
138.0844243231182
 20
30.83992821514835
 30
0.0
 11
132.4844243231181
 21
36.43992821514837
 31
0.0
  0
LINE
  5
34F
330
342
100
AcDbEntity
  8
0
 62
     0
100
AcDbLine
 10
128.2844243231184
 20
38.84387699093441
 30
0.0
 11
122.684424323118
 21
44.44387699093465
 31
0.0
  0
LINE
  5
350
330
342
100
AcDbEntity
  8
0
 62
     0
100
AcDbLine
 10
138.0844243231183
 20
29.04387699093445
 30
0.0
 11
132.4844243231182
 21
34.64387699093459
 31
0.0
  0
LINE
  5
351
330
342
100
AcDbEntity
  8
0
 62
     0
100
AcDbLine
 10
128.2844243231183
 20
37.04782576672062
 30
0.0
 11
122.684424323118
 21
42.64782576672098
 31
0.0
  0
LINE
  5
352
330
342
100
AcDbEntity
  8
0
 62
     0
100
AcDbLine
 10
138.0844243231182
 20
27.24782576672067
 30
0.0
 11
132.4844243231181
 21
32.84782576672081
 31
0.0
  0
LINE
  5
353
330
342
100
AcDbEntity
  8
0
 62
     0
100
AcDbLine
 10
128.2844243231183
 20
35.25177454250684
 30
0.0
 11
122.684424323118
 21
40.85177454250708
 31
0.0
  0
LINE
  5
354
330
342
100
AcDbEntity
  8
0
 62
     0
100
AcDbLine
 10
138.0844243231182
 20
25.45177454250688
 30
0.0
 11
132.4844243231181
 21
31.05177454250702
 31
0.0
  0
LINE
  5
355
330
342
100
AcDbEntity
  8
0
 62
     0
100
AcDbLine
 10
128.2844243231181
 20
33.45572331829294
 30
0.0
 11
122.6844243231179
 21
39.05572331829319
 31
0.0
  0
LINE
  5
356
330
342
100
AcDbEntity
  8
0
 62
     0
100
AcDbLine
 10
138.0844243231181
 20
23.65572331829298
 30
0.0
 11
132.4844243231181
 21
29.25572331829312
 31
0.0
  0
LINE
  5
357
330
342
100
AcDbEntity
  8
0
 62
     0
100
AcDbLine
 10
128.2844243231183
 20
31.65967209407927
 30
0.0
 11
122.684424323118
 21
37.25967209407952
 31
0.0
  0
LINE
  5
358
330
342
100
AcDbEntity
  8
0
 62
     0
100
AcDbLine
 10
115.6844243231181
 20
44.2596720940794
 30
0.0
 11
113.4440965489086
 21
46.4999998682888
 31
0.0
  0
LINE
  5
359
330
342
100
AcDbEntity
  8
0
 62
     0
100
AcDbLine
 10
138.0844243231182
 20
21.85967209407932
 30
0.0
 11
132.4844243231181
 21
27.45967209407934
 31
0.0
  0
LINE
  5
35A
330
342
100
AcDbEntity
  8
0
 62
     0
100
AcDbLine
 10
128.2844243231183
 20
29.86362086986537
 30
0.0
 11
122.6844243231179
 21
35.46362086986562
 31
0.0
  0
LINE
  5
35B
330
342
100
AcDbEntity
  8
0
 62
     0
100
AcDbLine
 10
115.6844243231182
 20
42.46362086986539
 30
0.0
 11
111.6480453246948
 21
46.4999998682888
 31
0.0
  0
LINE
  5
35C
330
342
100
AcDbEntity
  8
0
 62
     0
100
AcDbLine
 10
138.0844243231182
 20
20.06362086986542
 30
0.0
 11
132.4844243231181
 21
25.66362086986555
 31
0.0
  0
LINE
  5
35D
330
342
100
AcDbEntity
  8
0
 62
     0
100
AcDbLine
 10
128.2844243231181
 20
28.06756964565159
 30
0.0
 11
122.684424323118
 21
33.66756964565161
 31
0.0
  0
LINE
  5
35E
330
342
100
AcDbEntity
  8
0
 62
     0
100
AcDbLine
 10
115.6844243231181
 20
40.6675696456515
 30
0.0
 11
110.28489887647
 21
46.06709509229972
 31
0.0
  0
LINE
  5
35F
330
342
100
AcDbEntity
  8
0
 62
     0
100
AcDbLine
 10
138.0844243231181
 20
18.26756964565163
 30
0.0
 11
132.484424323118
 21
23.86756964565166
 31
0.0
  0
LINE
  5
360
330
342
100
AcDbEntity
  8
0
 62
     0
100
AcDbLine
 10
128.2844243231183
 20
26.27151842143769
 30
0.0
 11
122.6844243231181
 21
31.87151842143783
 31
0.0
  0
LINE
  5
361
330
342
100
AcDbEntity
  8
0
 62
     0
100
AcDbLine
 10
115.6844243231182
 20
38.87151842143771
 30
0.0
 11
110.0844243231181
 21
44.47151842143784
 31
0.0
  0
LINE
  5
362
330
342
100
AcDbEntity
  8
0
 62
     0
100
AcDbLine
 10
138.0844243231182
 20
16.47151842143773
 30
0.0
 11
132.4844243231181
 21
22.07151842143787
 31
0.0
  0
LINE
  5
363
330
342
100
AcDbEntity
  8
0
 62
     0
100
AcDbLine
 10
128.2844243231181
 20
24.47546719722391
 30
0.0
 11
122.6844243231181
 21
30.07546719722404
 31
0.0
  0
LINE
  5
364
330
342
100
AcDbEntity
  8
0
 62
     0
100
AcDbLine
 10
115.6844243231182
 20
37.07546719722393
 30
0.0
 11
110.0844243231182
 21
42.67546719722395
 31
0.0
  0
LINE
  5
365
330
342
100
AcDbEntity
  8
0
 62
     0
100
AcDbLine
 10
137.9404936133386
 20
14.81939790700358
 30
0.0
 11
132.4844243231181
 21
20.27546719722409
 31
0.0
  0
LINE
  5
366
330
342
100
AcDbEntity
  8
0
 62
     0
100
AcDbLine
 10
128.2844243231183
 20
22.67941597300989
 30
0.0
 11
122.684424323118
 21
28.27941597301015
 31
0.0
  0
LINE
  5
367
330
342
100
AcDbEntity
  8
0
 62
     0
100
AcDbLine
 10
115.6844243231181
 20
35.27941597301015
 30
0.0
 11
110.0844243231182
 21
40.87941597301005
 31
0.0
  0
LINE
  5
368
330
342
100
AcDbEntity
  8
0
 62
     0
100
AcDbLine
 10
136.6638404278396
 20
14.29999986828863
 30
0.0
 11
132.484424323118
 21
18.4794159730103
 31
0.0
  0
LINE
  5
369
330
342
100
AcDbEntity
  8
0
 62
     0
100
AcDbLine
 10
115.6844243231181
 20
33.48336474879625
 30
0.0
 11
110.0844243231181
 21
39.08336474879616
 31
0.0
  0
LINE
  5
36A
330
342
100
AcDbEntity
  8
0
 62
     0
100
AcDbLine
 10
128.2844243231183
 20
20.88336474879611
 30
0.0
 11
122.684424323118
 21
26.48336474879636
 31
0.0
  0
LINE
  5
36B
330
342
100
AcDbEntity
  8
0
 62
     0
100
AcDbLine
 10
104.8344243231181
 20
44.33336474879626
 30
0.0
 11
102.6677892036255
 21
46.4999998682888
 31
0.0
  0
LINE
  5
36C
330
342
100
AcDbEntity
  8
0
 62
     0
100
AcDbLine
 10
134.8677892036258
 20
14.29999986828841
 30
0.0
 11
132.484424323118
 21
16.6833647487964
 31
0.0
  0
LINE
  5
36D
330
342
100
AcDbEntity
  8
0
 62
     0
100
AcDbLine
 10
115.6844243231181
 20
31.68731352458247
 30
0.0
 11
110.0844243231182
 21
37.28731352458249
 31
0.0
  0
LINE
  5
36E
330
342
100
AcDbEntity
  8
0
 62
     0
100
AcDbLine
 10
104.8344243231181
 20
42.53731352458248
 30
0.0
 11
100.8717379794118
 21
46.4999998682889
 31
0.0
  0
LINE
  5
36F
330
342
100
AcDbEntity
  8
0
 62
     0
100
AcDbLine
 10
128.2325077218271
 20
19.13923012587361
 30
0.0
 11
122.684424323118
 21
24.68731352458258
 31
0.0
  0
LINE
  5
370
330
342
100
AcDbEntity
  8
0
 62
     0
100
AcDbLine
 10
115.6844243231182
 20
29.89126230036845
 30
0.0
 11
110.0844243231182
 21
35.49126230036859
 31
0.0
  0
LINE
  5
371
330
342
100
AcDbEntity
  8
0
 62
     0
100
AcDbLine
 10
104.4432632308904
 20
41.13242339259636
 30
0.0
 11
99.07568675519815
 21
46.49999986828868
 31
0.0
  0
LINE
  5
372
330
342
100
AcDbEntity
  8
0
 62
     0
100
AcDbLine
 10
127.8465371313126
 20
17.72914949217408
 30
0.0
 11
122.684424323118
 21
22.89126230036879
 31
0.0
  0
LINE
  5
373
330
342
100
AcDbEntity
  8
0
 62
     0
100
AcDbLine
 10
115.6844243231182
 20
28.09521107615467
 30
0.0
 11
110.0844243231181
 21
33.69521107615481
 31
0.0
  0
LINE
  5
374
330
342
100
AcDbEntity
  8
0
 62
     0
100
AcDbLine
 10
102.8796355309841
 20
40.89999986828866
 30
0.0
 11
97.27963553098414
 21
46.4999998682888
 31
0.0
  0
LINE
  5
375
330
342
100
AcDbEntity
  8
0
 62
     0
100
AcDbLine
 10
127.1964733794655
 20
16.58316201980733
 30
0.0
 11
122.541392844799
 21
21.23824255447392
 31
0.0
  0
LINE
  5
376
330
342
100
AcDbEntity
  8
0
 62
     0
100
AcDbLine
 10
115.6844243231184
 20
26.29915985194088
 30
0.0
 11
110.0844243231182
 21
31.89915985194102
 31
0.0
  0
LINE
  5
377
330
342
100
AcDbEntity
  8
0
 62
     0
100
AcDbLine
 10
101.0835843067705
 20
40.89999986828877
 30
0.0
 11
95.60845084841572
 21
46.37513332664354
 31
0.0
  0
LINE
  5
378
330
342
100
AcDbEntity
  8
0
 62
     0
100
AcDbLine
 10
126.3323897848154
 20
15.65119439024374
 30
0.0
 11
121.738221567864
 21
20.24536260719515
 31
0.0
  0
LINE
  5
379
330
342
100
AcDbEntity
  8
0
 62
     0
100
AcDbLine
 10
115.6844243231182
 20
24.5031086277271
 30
0.0
 11
110.0844243231181
 21
30.10310862772712
 31
0.0
  0
LINE
  5
37A
330
342
100
AcDbEntity
  8
0
 62
     0
100
AcDbLine
 10
99.28753308255659
 20
40.89999986828877
 30
0.0
 11
94.27916999934893
 21
45.90836295149631
 31
0.0
  0
LINE
  5
37B
330
342
100
AcDbEntity
  8
0
 62
     0
100
AcDbLine
 10
125.2600650949633
 20
14.92746785588201
 30
0.0
 11
120.2875330825566
 21
19.89999986828866
 31
0.0
  0
LINE
  5
37C
330
342
100
AcDbEntity
  8
0
 62
     0
100
AcDbLine
 10
115.6844243231182
 20
22.70705740351321
 30
0.0
 11
110.0844243231182
 21
28.30705740351311
 31
0.0
  0
LINE
  5
37D
330
342
100
AcDbEntity
  8
0
 62
     0
100
AcDbLine
 10
97.53506151437898
 20
40.85642021225237
 30
0.0
 11
93.19396812492858
 21
45.19751360170277
 31
0.0
  0
LINE
  5
37E
330
342
100
AcDbEntity
  8
0
 62
     0
100
AcDbLine
 10
123.9472399751407
 20
14.44424175149072
 30
0.0
 11
118.4914818583428
 21
19.89999986828866
 31
0.0
  0
LINE
  5
37F
330
342
100
AcDbEntity
  8
0
 62
     0
100
AcDbLine
 10
96.78442432311829
 20
39.81100617929917
 30
0.0
 11
92.31774400683946
 21
44.27768649557799
 31
0.0
  0
LINE
  5
380
330
342
100
AcDbEntity
  8
0
 62
     0
100
AcDbLine
 10
122.295430634129
 20
14.29999986828852
 30
0.0
 11
110.0844243231182
 21
26.51100617929933
 31
0.0
  0
LINE
  5
381
330
342
100
AcDbEntity
  8
0
 62
     0
100
AcDbLine
 10
96.7844243231184
 20
38.0149549550855
 30
0.0
 11
91.65420218213341
 21
43.14517709607048
 31
0.0
  0
LINE
  5
382
330
342
100
AcDbEntity
  8
0
 62
     0
100
AcDbLine
 10
120.4993794099152
 20
14.29999986828852
 30
0.0
 11
110.0844243231183
 21
24.71495495508555
 31
0.0
  0
LINE
  5
383
330
342
100
AcDbEntity
  8
0
 62
     0
100
AcDbLine
 10
97.19751288532586
 20
35.80581516866414
 30
0.0
 11
91.24984514340519
 21
41.75348291058469
 31
0.0
  0
LINE
  5
384
330
342
100
AcDbEntity
  8
0
 62
     0
100
AcDbLine
 10
118.7033281857012
 20
14.29999986828863
 30
0.0
 11
110.0844243231182
 21
22.91890373087176
 31
0.0
  0
LINE
  5
385
330
342
100
AcDbEntity
  8
0
 62
     0
100
AcDbLine
 10
105.6316317285009
 20
25.5756451012752
 30
0.0
 11
91.18442432311814
 21
40.02285250665784
 31
0.0
  0
LINE
  5
386
330
342
100
AcDbEntity
  8
0
 62
     0
100
AcDbLine
 10
86.98442432311798
 20
44.222852506658
 30
0.0
 11
84.70727696148742
 21
46.49999986828868
 31
0.0
  0
LINE
  5
387
330
342
100
AcDbEntity
  8
0
 62
     0
100
AcDbLine
 10
116.9072769614874
 20
14.29999986828863
 30
0.0
 11
110.0844243231182
 21
21.12285250665786
 31
0.0
  0
LINE
  5
388
330
342
100
AcDbEntity
  8
0
 62
     0
100
AcDbLine
 10
105.8844243231183
 20
23.52680128244413
 30
0.0
 11
91.18442432311827
 21
38.22680128244417
 31
0.0
  0
LINE
  5
389
330
342
100
AcDbEntity
  8
0
 62
     0
100
AcDbLine
 10
86.98442432311821
 20
42.4268012824441
 30
0.0
 11
82.91122573727353
 21
46.4999998682889
 31
0.0
  0
LINE
  5
38A
330
342
100
AcDbEntity
  8
0
 62
     0
100
AcDbLine
 10
115.078329979784
 20
14.3328956257784
 30
0.0
 11
110.117320080608
 21
19.29390552495442
 31
0.0
  0
LINE
  5
38B
330
342
100
AcDbEntity
  8
0
 62
     0
100
AcDbLine
 10
86.98442432311821
 20
40.63075005823032
 30
0.0
 11
81.56964454756758
 21
46.04552983378084
 31
0.0
  0
LINE
  5
38C
330
342
100
AcDbEntity
  8
0
 62
     0
100
AcDbLine
 10
105.8844243231182
 20
21.73075005823023
 30
0.0
 11
91.23124565888293
 21
36.38392872246561
 31
0.0
  0
LINE
  5
38D
330
342
100
AcDbEntity
  8
0
 62
     0
100
AcDbLine
 10
86.98442432311821
 20
38.83469883401642
 30
0.0
 11
81.38442432311819
 21
44.43469883401633
 31
0.0
  0
LINE
  5
38E
330
342
100
AcDbEntity
  8
0
 62
     0
100
AcDbLine
 10
105.8844243231179
 20
19.93469883401656
 30
0.0
 11
91.86748449456297
 21
33.95163866257167
 31
0.0
  0
LINE
  5
38F
330
342
100
AcDbEntity
  8
0
 62
     0
100
AcDbLine
 10
86.98442432311821
 20
37.03864760980264
 30
0.0
 11
81.38442432311832
 21
42.63864760980254
 31
0.0
  0
LINE
  5
390
330
342
100
AcDbEntity
  8
0
 62
     0
100
AcDbLine
 10
105.66730068794
 20
18.35577124498081
 30
0.0
 11
100.2760311098634
 21
23.74704082305743
 31
0.0
  0
LINE
  5
391
330
342
100
AcDbEntity
  8
0
 62
     0
100
AcDbLine
 10
86.98442432311821
 20
35.24259638558886
 30
0.0
 11
81.38442432311819
 21
40.84259638558876
 31
0.0
  0
LINE
  5
392
330
342
100
AcDbEntity
  8
0
 62
     0
100
AcDbLine
 10
76.80145052196417
 20
45.42557018674279
 30
0.0
 11
75.72702084041816
 21
46.4999998682889
 31
0.0
  0
LINE
  5
393
330
342
100
AcDbEntity
  8
0
 62
     0
100
AcDbLine
 10
105.1315492724169
 20
17.09547143629015
 30
0.0
 11
100.2844243231183
 21
21.94259638558879
 31
0.0
  0
LINE
  5
394
330
342
100
AcDbEntity
  8
0
 62
     0
100
AcDbLine
 10
86.98442432311811
 20
33.44654516137496
 30
0.0
 11
81.38442432311819
 21
39.04654516137498
 31
0.0
  0
LINE
  5
395
330
342
100
AcDbEntity
  8
0
 62
     0
100
AcDbLine
 10
76.40359519345896
 20
44.0273742910341
 30
0.0
 11
73.93096961620438
 21
46.4999998682888
 31
0.0
  0
LINE
  5
396
330
342
100
AcDbEntity
  8
0
 62
     0
100
AcDbLine
 10
104.3655756760663
 20
16.06539380842685
 30
0.0
 11
100.0898539573453
 21
20.34111552714785
 31
0.0
  0
LINE
  5
397
330
342
100
AcDbEntity
  8
0
 62
     0
100
AcDbLine
 10
86.98442432311811
 20
31.65049393716117
 30
0.0
 11
81.38442432311819
 21
37.25049393716108
 31
0.0
  0
LINE
  5
398
330
342
100
AcDbEntity
  8
0
 62
     0
100
AcDbLine
 10
75.97254289964758
 20
42.66237536063158
 30
0.0
 11
72.15411177270642
 21
46.48080648757286
 31
0.0
  0
LINE
  5
399
330
342
100
AcDbEntity
  8
0
 62
     0
100
AcDbLine
 10
103.392937745835
 20
15.24198051444409
 30
0.0
 11
98.73491839199061
 21
19.89999986828866
 31
0.0
  0
LINE
  5
39A
330
342
100
AcDbEntity
  8
0
 62
     0
100
AcDbLine
 10
86.98442432311834
 20
29.85444271294728
 30
0.0
 11
81.38442432311819
 21
35.4544427129473
 31
0.0
  0
LINE
  5
39B
330
342
100
AcDbEntity
  8
0
 62
     0
100
AcDbLine
 10
75.54149060583654
 20
41.29737643022906
 30
0.0
 11
71.28549060583646
 21
45.55337643022915
 31
0.0
  0
LINE
  5
39C
330
342
100
AcDbEntity
  8
0
 62
     0
100
AcDbLine
 10
102.2007698489143
 20
14.63809718715117
 30
0.0
 11
96.93886716777683
 21
19.89999986828877
 31
0.0
  0
LINE
  5
39D
330
342
100
AcDbEntity
  8
0
 62
     0
100
AcDbLine
 10
86.98442432311834
 20
28.05839148873338
 30
0.0
 11
81.38442432311819
 21
33.65839148873352
 31
0.0
  0
LINE
  5
39E
330
342
100
AcDbEntity
  8
0
 62
     0
100
AcDbLine
 10
75.11043831202482
 20
39.93237749982688
 30
0.0
 11
70.85443831202486
 21
44.18837749982685
 31
0.0
  0
LINE
  5
39F
330
342
100
AcDbEntity
  8
0
 62
     0
100
AcDbLine
 10
100.7254245456193
 20
14.31739126623233
 30
0.0
 11
95.14281594356305
 21
19.89999986828866
 31
0.0
  0
LINE
  5
3A0
330
342
100
AcDbEntity
  8
0
 62
     0
100
AcDbLine
 10
86.98442432311821
 20
26.26234026451959
 30
0.0
 11
81.38442432311808
 21
31.86234026451962
 31
0.0
  0
LINE
  5
3A1
330
342
100
AcDbEntity
  8
0
 62
     0
100
AcDbLine
 10
74.67938601821368
 20
38.56737856942414
 30
0.0
 11
70.42338601821348
 21
42.82337856942421
 31
0.0
  0
LINE
  5
3A2
330
342
100
AcDbEntity
  8
0
 62
     0
100
AcDbLine
 10
98.94676471934928
 20
14.29999986828852
 30
0.0
 11
93.34676471934916
 21
19.89999986828866
 31
0.0
  0
LINE
  5
3A3
330
342
100
AcDbEntity
  8
0
 62
     0
100
AcDbLine
 10
86.98442432311834
 20
24.46628904030581
 30
0.0
 11
81.38442432311819
 21
30.06628904030595
 31
0.0
  0
LINE
  5
3A4
330
342
100
AcDbEntity
  8
0
 62
     0
100
AcDbLine
 10
74.24833372440253
 20
37.20237963902162
 30
0.0
 11
69.99233372440222
 21
41.45837963902181
 31
0.0
  0
LINE
  5
3A5
330
342
100
AcDbEntity
  8
0
 62
     0
100
AcDbLine
 10
97.1507134951355
 20
14.29999986828863
 30
0.0
 11
92.28349010054273
 21
19.16722326288141
 31
0.0
  0
LINE
  5
3A6
330
342
100
AcDbEntity
  8
0
 62
     0
100
AcDbLine
 10
73.81728143059103
 20
35.83738070861921
 30
0.0
 11
69.56128143059095
 21
40.09338070861929
 31
0.0
  0
LINE
  5
3A7
330
342
100
AcDbEntity
  8
0
 62
     0
100
AcDbLine
 10
86.98442432311821
 20
22.67023781609191
 30
0.0
 11
81.38442432311819
 21
28.27023781609205
 31
0.0
  0
LINE
  5
3A8
330
342
100
AcDbEntity
  8
0
 62
     0
100
AcDbLine
 10
65.28442432311817
 20
44.37023781609207
 30
0.0
 11
63.15466227092156
 21
46.49999986828857
 31
0.0
  0
LINE
  5
3A9
330
342
100
AcDbEntity
  8
0
 62
     0
100
AcDbLine
 10
95.35466227092172
 20
14.29999986828852
 30
0.0
 11
92.23442432311822
 21
17.42023781609202
 31
0.0
  0
LINE
  5
3AA
330
342
100
AcDbEntity
  8
0
 62
     0
100
AcDbLine
 10
73.38622913677966
 20
34.47238177821669
 30
0.0
 11
69.13022913677969
 21
38.72838177821666
 31
0.0
  0
LINE
  5
3AB
330
342
100
AcDbEntity
  8
0
 62
     0
100
AcDbLine
 10
86.98442432311821
 20
20.87418659187813
 30
0.0
 11
81.38442432311808
 21
26.47418659187827
 31
0.0
  0
LINE
  5
3AC
330
342
100
AcDbEntity
  8
0
 62
     0
100
AcDbLine
 10
65.28442432311817
 20
42.57418659187817
 30
0.0
 11
61.35861104670778
 21
46.49999986828857
 31
0.0
  0
LINE
  5
3AD
330
342
100
AcDbEntity
  8
0
 62
     0
100
AcDbLine
 10
93.5586110467077
 20
14.29999986828863
 30
0.0
 11
92.23442432311811
 21
15.62418659187813
 31
0.0
  0
LINE
  5
3AE
330
342
100
AcDbEntity
  8
0
 62
     0
100
AcDbLine
 10
72.95517684296829
 20
33.10738284781417
 30
0.0
 11
68.6991768429682
 21
37.36338284781425
 31
0.0
  0
LINE
  5
3AF
330
342
100
AcDbEntity
  8
0
 62
     0
100
AcDbLine
 10
65.28442432311805
 20
40.77813536766427
 30
0.0
 11
59.93353446532285
 21
46.1290252254596
 31
0.0
  0
LINE
  5
3B0
330
342
100
AcDbEntity
  8
0
 62
     0
100
AcDbLine
 10
86.98442432311821
 20
19.07813536766423
 30
0.0
 11
81.38442432311808
 21
24.67813536766437
 31
0.0
  0
LINE
  5
3B1
330
342
100
AcDbEntity
  8
0
 62
     0
100
AcDbLine
 10
72.52412454915702
 20
31.74238391741176
 30
0.0
 11
68.26812454915705
 21
35.99838391741173
 31
0.0
  0
LINE
  5
3B2
330
342
100
AcDbEntity
  8
0
 62
     0
100
AcDbLine
 10
65.28442432311817
 20
38.98208414345061
 30
0.0
 11
59.68442432311826
 21
44.58208414345051
 31
0.0
  0
LINE
  5
3B3
330
342
100
AcDbEntity
  8
0
 62
     0
100
AcDbLine
 10
86.98442432311821
 20
17.28208414345056
 30
0.0
 11
81.38442432311808
 21
22.88208414345058
 31
0.0
  0
LINE
  5
3B4
330
342
100
AcDbEntity
  8
0
 62
     0
100
AcDbLine
 10
72.11394753037325
 20
30.35650971198163
 30
0.0
 11
67.83707225534556
 21
34.63338498700932
 31
0.0
  0
LINE
  5
3B5
330
342
100
AcDbEntity
  8
0
 62
     0
100
AcDbLine
 10
65.28442432311817
 20
37.18603291923671
 30
0.0
 11
59.68442432311815
 21
42.78603291923661
 31
0.0
  0
LINE
  5
3B6
330
342
100
AcDbEntity
  8
0
 62
     0
100
AcDbLine
 10
86.98442432311834
 20
15.48603291923655
 30
0.0
 11
81.38442432311808
 21
21.0860329192368
 31
0.0
  0
LINE
  5
3B7
330
342
100
AcDbEntity
  8
0
 62
     0
100
AcDbLine
 10
72.94289424924125
 20
27.73151176889974
 30
0.0
 11
67.25597726397632
 21
33.41842875416467
 31
0.0
  0
LINE
  5
3B8
330
342
100
AcDbEntity
  8
0
 62
     0
100
AcDbLine
 10
65.28442432311829
 20
35.3899816950227
 30
0.0
 11
59.68442432311815
 21
40.98998169502283
 31
0.0
  0
LINE
  5
3B9
330
342
100
AcDbEntity
  8
0
 62
     0
100
AcDbLine
 10
86.30633432845332
 20
14.36807168968755
 30
0.0
 11
81.38442432311819
 21
19.28998169502279
 31
0.0
  0
LINE
  5
3BA
330
342
100
AcDbEntity
  8
0
 62
     0
100
AcDbLine
 10
73.77184096810935
 20
25.10651382581796
 30
0.0
 11
59.68442432311815
 21
39.19393047080905
 31
0.0
  0
LINE
  5
3BB
330
342
100
AcDbEntity
  8
0
 62
     0
100
AcDbLine
 10
54.78442432311829
 20
44.09393047080903
 30
0.0
 11
52.37835492563852
 21
46.49999986828868
 31
0.0
  0
LINE
  5
3BC
330
342
100
AcDbEntity
  8
0
 62
     0
100
AcDbLine
 10
84.57835492563868
 20
14.29999986828863
 30
0.0
 11
81.38442432311832
 21
17.493930470809
 31
0.0
  0
LINE
  5
3BD
330
342
100
AcDbEntity
  8
0
 62
     0
100
AcDbLine
 10
74.60078768697712
 20
22.48151588273618
 30
0.0
 11
59.68442432311815
 21
37.39787924659527
 31
0.0
  0
LINE
  5
3BE
330
342
100
AcDbEntity
  8
0
 62
     0
100
AcDbLine
 10
54.78442432311829
 20
42.29787924659513
 30
0.0
 11
50.58230370142474
 21
46.49999986828868
 31
0.0
  0
LINE
  5
3BF
330
342
100
AcDbEntity
  8
0
 62
     0
100
AcDbLine
 10
82.78230370142466
 20
14.29999986828875
 30
0.0
 11
81.38442432311819
 21
15.69787924659522
 31
0.0
  0
LINE
  5
3C0
330
342
100
AcDbEntity
  8
0
 62
     0
100
AcDbLine
 10
54.25061093233807
 20
41.03564141316144
 30
0.0
 11
48.85016749591523
 21
46.43608484958417
 31
0.0
  0
LINE
  5
3C1
330
342
100
AcDbEntity
  8
0
 62
     0
100
AcDbLine
 10
75.42973440584501
 20
19.85651793965451
 30
0.0
 11
59.68442432311815
 21
35.60182802238137
 31
0.0
  0
LINE
  5
3C2
330
342
100
AcDbEntity
  8
0
 62
     0
100
AcDbLine
 10
65.95944216780139
 20
27.53075895348434
 30
0.0
 11
59.68442432311838
 21
33.80577679816736
 31
0.0
  0
LINE
  5
3C3
330
342
100
AcDbEntity
  8
0
 62
     0
100
AcDbLine
 10
52.59020125299707
 20
40.89999986828866
 30
0.0
 11
47.3740813567407
 21
46.11611976454503
 31
0.0
  0
LINE
  5
3C4
330
342
100
AcDbEntity
  8
0
 62
     0
100
AcDbLine
 10
76.25868112471301
 20
17.23151999657273
 30
0.0
 11
68.07406574009724
 21
25.41613538118838
 31
0.0
  0
LINE
  5
3C5
330
342
100
AcDbEntity
  8
0
 62
     0
100
AcDbLine
 10
65.28442432311829
 20
26.40972557395367
 30
0.0
 11
59.68442432311826
 21
32.00972557395369
 31
0.0
  0
LINE
  5
3C6
330
342
100
AcDbEntity
  8
0
 62
     0
100
AcDbLine
 10
50.79415002878318
 20
40.89999986828866
 30
0.0
 11
46.09663852507924
 21
45.59751137199259
 31
0.0
  0
LINE
  5
3C7
330
342
100
AcDbEntity
  8
0
 62
     0
100
AcDbLine
 10
76.72875884013421
 20
14.96539105693762
 30
0.0
 11
68.90301245896512
 21
22.79113743810683
 31
0.0
  0
LINE
  5
3C8
330
342
100
AcDbEntity
  8
0
 62
     0
100
AcDbLine
 10
65.28442432311817
 20
24.61367434973988
 30
0.0
 11
59.68442432311826
 21
30.21367434973979
 31
0.0
  0
LINE
  5
3C9
330
342
100
AcDbEntity
  8
0
 62
     0
100
AcDbLine
 10
49.10792302369611
 20
40.79017564916194
 30
0.0
 11
44.97914057441017
 21
44.91895809844788
 31
0.0
  0
LINE
  5
3CA
330
342
100
AcDbEntity
  8
0
 62
     0
100
AcDbLine
 10
75.59809880456953
 20
14.29999986828852
 30
0.0
 11
69.731959177833
 21
20.16613949502505
 31
0.0
  0
LINE
  5
3CB
330
342
100
AcDbEntity
  8
0
 62
     0
100
AcDbLine
 10
65.28442432311817
 20
22.81762312552598
 30
0.0
 11
59.68442432311815
 21
28.41762312552589
 31
0.0
  0
LINE
  5
3CC
330
342
100
AcDbEntity
  8
0
 62
     0
100
AcDbLine
 10
47.96421063801813
 20
40.13783681062602
 30
0.0
 11
44.00383015718659
 21
44.09821729145756
 31
0.0
  0
LINE
  5
3CD
330
342
100
AcDbEntity
  8
0
 62
     0
100
AcDbLine
 10
73.80204758035564
 20
14.29999986828852
 30
0.0
 11
70.56090589670112
 21
17.54114155194304
 31
0.0
  0
LINE
  5
3CE
330
342
100
AcDbEntity
  8
0
 62
     0
100
AcDbLine
 10
55.45528258871366
 20
30.85071363571683
 30
0.0
 11
52.43513809054616
 21
33.87085813388433
 31
0.0
  0
LINE
  5
3CF
330
342
100
AcDbEntity
  8
0
 62
     0
100
AcDbLine
 10
65.2844243231184
 20
21.02157190131209
 30
0.0
 11
59.68442432311826
 21
26.62157190131222
 31
0.0
  0
LINE
  5
3D0
330
342
100
AcDbEntity
  8
0
 62
     0
100
AcDbLine
 10
47.25196749776023
 20
39.05402872667025
 30
0.0
 11
43.16509810516413
 21
43.14089811926635
 31
0.0
  0
LINE
  5
3D1
330
342
100
AcDbEntity
  8
0
 62
     0
100
AcDbLine
 10
71.90533034773261
 20
14.40066587669787
 30
0.0
 11
71.40462200454999
 21
14.90137421988049
 31
0.0
  0
LINE
  5
3D2
330
342
100
AcDbEntity
  8
0
 62
     0
100
AcDbLine
 10
55.28225526842982
 20
29.22768973178677
 30
0.0
 11
50.81211418661609
 21
33.69783081360049
 31
0.0
  0
LINE
  5
3D3
330
342
100
AcDbEntity
  8
0
 62
     0
100
AcDbLine
 10
47.08442432311835
 20
37.42552067709823
 30
0.0
 11
42.4672200632408
 21
42.04272493697579
 31
0.0
  0
LINE
  5
3D4
330
342
100
AcDbEntity
  8
0
 62
     0
100
AcDbLine
 10
65.28442432311829
 20
19.22552067709819
 30
0.0
 11
59.68442432311826
 21
24.82552067709832
 31
0.0
  0
LINE
  5
3D5
330
342
100
AcDbEntity
  8
0
 62
     0
100
AcDbLine
 10
54.61854414983372
 20
28.09534962616885
 30
0.0
 11
49.67977408099819
 21
33.0341196950044
 31
0.0
  0
LINE
  5
3D6
330
342
100
AcDbEntity
  8
0
 62
     0
100
AcDbLine
 10
47.08442432311835
 20
35.62946945288434
 30
0.0
 11
41.92606064882045
 21
40.78783312718224
 31
0.0
  0
LINE
  5
3D7
330
342
100
AcDbEntity
  8
0
 62
     0
100
AcDbLine
 10
65.28442432311829
 20
17.4294694528844
 30
0.0
 11
59.68442432311815
 21
23.02946945288454
 31
0.0
  0
LINE
  5
3D8
330
342
100
AcDbEntity
  8
0
 62
     0
100
AcDbLine
 10
47.08442432311835
 20
33.83341822867055
 30
0.0
 11
41.57663290296875
 21
39.34120964882027
 31
0.0
  0
LINE
  5
3D9
330
342
100
AcDbEntity
  8
0
 62
     0
100
AcDbLine
 10
53.61487726556084
 20
27.30296528622819
 30
0.0
 11
48.88738974105752
 21
32.0304528107315
 31
0.0
  0
LINE
  5
3DA
330
342
100
AcDbEntity
  8
0
 62
     0
100
AcDbLine
 10
36.23442432311822
 20
44.6834182286708
 30
0.0
 11
34.41784268350023
 21
46.4999998682888
 31
0.0
  0
LINE
  5
3DB
330
342
100
AcDbEntity
  8
0
 62
     0
100
AcDbLine
 10
65.2844243231184
 20
15.63341822867062
 30
0.0
 11
59.68442432311826
 21
21.23341822867076
 31
0.0
  0
LINE
  5
3DC
330
342
100
AcDbEntity
  8
0
 62
     0
100
AcDbLine
 10
47.08442432311835
 20
32.03736700445677
 30
0.0
 11
41.48442432311822
 21
37.6373670044569
 31
0.0
  0
LINE
  5
3DD
330
342
100
AcDbEntity
  8
0
 62
     0
100
AcDbLine
 10
52.21423838070598
 20
26.90755294686915
 30
0.0
 11
48.49197740169848
 21
30.62981392587665
 31
0.0
  0
LINE
  5
3DE
330
342
100
AcDbEntity
  8
0
 62
     0
100
AcDbLine
 10
36.23442432311811
 20
42.8873670044569
 30
0.0
 11
32.62179145928633
 21
46.49999986828868
 31
0.0
  0
LINE
  5
3DF
330
342
100
AcDbEntity
  8
0
 62
     0
100
AcDbLine
 10
64.70861672057697
 20
14.41317460699815
 30
0.0
 11
59.68442432311815
 21
19.43736700445686
 31
0.0
  0
LINE
  5
3E0
330
342
100
AcDbEntity
  8
0
 62
     0
100
AcDbLine
 10
47.08442432311835
 20
30.24131578024287
 30
0.0
 11
41.48442432311822
 21
35.84131578024301
 31
0.0
  0
LINE
  5
3E1
330
342
100
AcDbEntity
  8
0
 62
     0
100
AcDbLine
 10
36.01635638257744
 20
41.30938372078378
 30
0.0
 11
30.82574023507232
 21
46.4999998682888
 31
0.0
  0
LINE
  5
3E2
330
342
100
AcDbEntity
  8
0
 62
     0
100
AcDbLine
 10
63.02574023507259
 20
14.29999986828863
 30
0.0
 11
59.68442432311815
 21
17.64131578024307
 31
0.0
  0
LINE
  5
3E3
330
342
100
AcDbEntity
  8
0
 62
     0
100
AcDbLine
 10
47.08442432311824
 20
28.44526455602909
 30
0.0
 11
41.4844243231181
 21
34.04526455602911
 31
0.0
  0
LINE
  5
3E4
330
342
100
AcDbEntity
  8
0
 62
     0
100
AcDbLine
 10
34.62968901085867
 20
40.89999986828866
 30
0.0
 11
29.02968901085854
 21
46.4999998682888
 31
0.0
  0
LINE
  5
3E5
330
342
100
AcDbEntity
  8
0
 62
     0
100
AcDbLine
 10
61.22968901085869
 20
14.29999986828852
 30
0.0
 11
59.68442432311815
 21
15.84526455602918
 31
0.0
  0
LINE
  5
3E6
330
342
100
AcDbEntity
  8
0
 62
     0
100
AcDbLine
 10
47.08442432311847
 20
26.64921333181519
 30
0.0
 11
41.48442432311822
 21
32.24921333181544
 31
0.0
  0
LINE
  5
3E7
330
342
100
AcDbEntity
  8
0
 62
     0
100
AcDbLine
 10
32.83363778664489
 20
40.89999986828877
 30
0.0
 11
27.3033792424352
 21
46.43025841249846
 31
0.0
  0
LINE
  5
3E8
330
342
100
AcDbEntity
  8
0
 62
     0
100
AcDbLine
 10
54.77921942544435
 20
18.95441822948919
 30
0.0
 11
53.83884268431893
 21
19.89479497061472
 31
0.0
  0
LINE
  5
3E9
330
342
100
AcDbEntity
  8
0
 62
     0
100
AcDbLine
 10
47.08442432311847
 20
24.85316210760129
 30
0.0
 11
41.48442432311822
 21
30.45316210760154
 31
0.0
  0
LINE
  5
3EA
330
342
100
AcDbEntity
  8
0
 62
     0
100
AcDbLine
 10
31.03758656243099
 20
40.89999986828866
 30
0.0
 11
25.91710962547825
 21
46.02047680524151
 31
0.0
  0
LINE
  5
3EB
330
342
100
AcDbEntity
  8
0
 62
     0
100
AcDbLine
 10
54.7844243231184
 20
17.15316210760136
 30
0.0
 11
52.0375865624311
 21
19.89999986828866
 31
0.0
  0
LINE
  5
3EC
330
342
100
AcDbEntity
  8
0
 62
     0
100
AcDbLine
 10
47.08442432311835
 20
23.05711088338739
 30
0.0
 11
41.48442432311833
 21
28.65711088338753
 31
0.0
  0
LINE
  5
3ED
330
342
100
AcDbEntity
  8
0
 62
     0
100
AcDbLine
 10
29.24153533821732
 20
40.89999986828843
 30
0.0
 11
24.78861630578376
 21
45.35291890072199
 31
0.0
  0
LINE
  5
3EE
330
342
100
AcDbEntity
  8
0
 62
     0
100
AcDbLine
 10
54.78442432311829
 20
15.35711088338746
 30
0.0
 11
50.24153533821709
 21
19.89999986828877
 31
0.0
  0
LINE
  5
3EF
330
342
100
AcDbEntity
  8
0
 62
     0
100
AcDbLine
 10
28.22094968298813
 20
40.12453429930405
 30
0.0
 11
23.87243068130226
 21
44.47305330098993
 31
0.0
  0
LINE
  5
3F0
330
342
100
AcDbEntity
  8
0
 62
     0
100
AcDbLine
 10
54.00895875413358
 20
14.33652522815862
 30
0.0
 11
41.48442432311833
 21
26.86105965917386
 31
0.0
  0
LINE
  5
3F1
330
342
100
AcDbEntity
  8
0
 62
     0
100
AcDbLine
 10
28.18442432311826
 20
38.36500843496003
 30
0.0
 11
23.16546827636409
 21
43.3839644817142
 31
0.0
  0
LINE
  5
3F2
330
342
100
AcDbEntity
  8
0
 62
     0
100
AcDbLine
 10
52.24943288978977
 20
14.29999986828852
 30
0.0
 11
41.48442432311833
 21
25.06500843495996
 31
0.0
  0
LINE
  5
3F3
330
342
100
AcDbEntity
  8
0
 62
     0
100
AcDbLine
 10
28.30869573938912
 20
36.44468579447516
 30
0.0
 11
22.70370807177664
 21
42.04967346208775
 31
0.0
  0
LINE
  5
3F4
330
342
100
AcDbEntity
  8
0
 62
     0
100
AcDbLine
 10
50.45338166557576
 20
14.29999986828863
 30
0.0
 11
41.48442432311822
 21
23.26895721074607
 31
0.0
  0
LINE
  5
3F5
330
342
100
AcDbEntity
  8
0
 62
     0
100
AcDbLine
 10
36.89317650556359
 20
26.06415380408703
 30
0.0
 11
22.58442432311836
 21
40.37290598653226
 31
0.0
  0
LINE
  5
3F6
330
342
100
AcDbEntity
  8
0
 62
     0
100
AcDbLine
 10
48.55078626724867
 20
14.40654404240194
 30
0.0
 11
41.59096849723153
 21
21.36636181241909
 31
0.0
  0
LINE
  5
3F7
330
342
100
AcDbEntity
  8
0
 62
     0
100
AcDbLine
 10
37.27696553373403
 20
23.8843135517028
 30
0.0
 11
22.58442432311813
 21
38.5768547623187
 31
0.0
  0
LINE
  5
3F8
330
342
100
AcDbEntity
  8
0
 62
     0
100
AcDbLine
 10
45.80317044204548
 20
15.35810864339123
 30
0.0
 11
42.5425330982207
 21
18.61874598721613
 31
0.0
  0
LINE
  5
3F9
330
342
100
AcDbEntity
  8
0
 62
     0
100
AcDbLine
 10
37.2844243231184
 20
22.08080353810453
 30
0.0
 11
22.59955321796292
 21
36.7656746432599
 31
0.0
  0
LINE
  5
3FA
330
342
100
AcDbEntity
  8
0
 62
     0
100
AcDbLine
 10
37.28442432311818
 20
20.28475231389086
 30
0.0
 11
23.04613473461063
 21
34.52304190239829
 31
0.0
  0
LINE
  5
3FB
330
342
100
AcDbEntity
  8
0
 62
     0
100
AcDbLine
 10
37.13938433085434
 20
18.63374108194102
 30
0.0
 11
31.61260104361622
 21
24.16052436917914
 31
0.0
  0
LINE
  5
3FC
330
342
100
AcDbEntity
  8
0
 62
     0
100
AcDbLine
 10
36.65550845279665
 20
17.32156573578481
 30
0.0
 11
31.68442432311826
 21
22.2926498654632
 31
0.0
  0
LINE
  5
3FD
330
342
100
AcDbEntity
  8
0
 62
     0
100
AcDbLine
 10
35.93126995803312
 20
16.24975300633446
 30
0.0
 11
31.6126262585168
 21
20.56839670585077
 31
0.0
  0
LINE
  5
3FE
330
342
100
AcDbEntity
  8
0
 62
     0
100
AcDbLine
 10
34.99881721349936
 20
15.38615452665442
 30
0.0
 11
30.48497187186513
 21
19.89999986828877
 31
0.0
  0
LINE
  5
3FF
330
342
100
AcDbEntity
  8
0
 62
     0
100
AcDbLine
 10
33.85228831803374
 20
14.73663219790626
 30
0.0
 11
28.68892064765123
 21
19.89999986828866
 31
0.0
  0
LINE
  5
400
330
342
100
AcDbEntity
  8
0
 62
     0
100
AcDbLine
 10
32.44146313986187
 20
14.35140615186424
 30
0.0
 11
26.89286942343745
 21
19.89999986828866
 31
0.0
  0
LINE
  5
401
330
342
100
AcDbEntity
  8
0
 62
     0
100
AcDbLine
 10
30.69681819922357
 20
14.29999986828863
 30
0.0
 11
25.09681819922355
 21
19.89999986828866
 31
0.0
  0
LINE
  5
402
330
342
100
AcDbEntity
  8
0
 62
     0
100
AcDbLine
 10
28.9007669750099
 20
14.29999986828852
 30
0.0
 11
23.79411918537414
 21
19.40664765792439
 31
0.0
  0
LINE
  5
403
330
342
100
AcDbEntity
  8
0
 62
     0
100
AcDbLine
 10
27.10471575079589
 20
14.29999986828863
 30
0.0
 11
23.63442432311831
 21
17.77029129596622
 31
0.0
  0
LINE
  5
404
330
342
100
AcDbEntity
  8
0
 62
     0
100
AcDbLine
 10
25.30866452658222
 20
14.29999986828852
 30
0.0
 11
23.63442432311831
 21
15.97424007175243
 31
0.0
  0
LINE
  5
405
330
342
100
AcDbEntity
  8
0
 62
     0
100
AcDbLine
 10
137.2677988924521
 20
14.32626342252365
 30
0.0
 11
138.0581607688837
 21
15.11662529895523
 31
0.0
  0
LINE
  5
406
330
342
100
AcDbEntity
  8
0
 62
     0
100
AcDbLine
 10
135.4454841140032
 20
14.29999986828841
 30
0.0
 11
138.0844243231186
 21
16.9389400774038
 31
0.0
  0
LINE
  5
407
330
342
100
AcDbEntity
  8
0
 62
     0
100
AcDbLine
 10
133.6494328897894
 20
14.29999986828841
 30
0.0
 11
138.0844243231186
 21
18.73499130161758
 31
0.0
  0
LINE
  5
408
330
342
100
AcDbEntity
  8
0
 62
     0
100
AcDbLine
 10
132.5468194496219
 20
14.99343765233482
 30
0.0
 11
138.0844243231184
 21
20.53104252583148
 31
0.0
  0
LINE
  5
409
330
342
100
AcDbEntity
  8
0
 62
     0
100
AcDbLine
 10
132.4844243231183
 20
16.72709375004513
 30
0.0
 11
138.0844243231184
 21
22.32709375004515
 31
0.0
  0
LINE
  5
40A
330
342
100
AcDbEntity
  8
0
 62
     0
100
AcDbLine
 10
132.4844243231184
 20
18.52314497425891
 30
0.0
 11
138.0844243231184
 21
24.12314497425905
 31
0.0
  0
LINE
  5
40B
330
342
100
AcDbEntity
  8
0
 62
     0
100
AcDbLine
 10
132.4844243231183
 20
20.31919619847281
 30
0.0
 11
138.0844243231184
 21
25.91919619847295
 31
0.0
  0
LINE
  5
40C
330
342
100
AcDbEntity
  8
0
 62
     0
100
AcDbLine
 10
132.4844243231183
 20
22.11524742268659
 30
0.0
 11
138.0844243231184
 21
27.71524742268673
 31
0.0
  0
LINE
  5
40D
330
342
100
AcDbEntity
  8
0
 62
     0
100
AcDbLine
 10
125.3375540472489
 20
14.96837714681715
 30
0.0
 11
127.61604704459
 21
17.24687014415838
 31
0.0
  0
LINE
  5
40E
330
342
100
AcDbEntity
  8
0
 62
     0
100
AcDbLine
 10
132.4844243231183
 20
23.91129864690038
 30
0.0
 11
138.0844243231184
 21
29.51129864690051
 31
0.0
  0
LINE
  5
40F
330
342
100
AcDbEntity
  8
0
 62
     0
100
AcDbLine
 10
122.8764177142033
 20
14.30329203798533
 30
0.0
 11
128.2811321534219
 21
19.70800647720387
 31
0.0
  0
LINE
  5
410
330
342
100
AcDbEntity
  8
0
 62
     0
100
AcDbLine
 10
132.4844243231183
 20
25.70734987111428
 30
0.0
 11
138.0844243231184
 21
31.3073498711143
 31
0.0
  0
LINE
  5
411
330
342
100
AcDbEntity
  8
0
 62
     0
100
AcDbLine
 10
121.0770743202924
 20
14.29999986828841
 30
0.0
 11
128.2844243231185
 21
21.50734987111434
 31
0.0
  0
LINE
  5
412
330
342
100
AcDbEntity
  8
0
 62
     0
100
AcDbLine
 10
132.4844243231183
 20
27.50340109532806
 30
0.0
 11
138.0844243231183
 21
33.1034010953282
 31
0.0
  0
LINE
  5
413
330
342
100
AcDbEntity
  8
0
 62
     0
100
AcDbLine
 10
119.2810230960787
 20
14.29999986828841
 30
0.0
 11
128.2844243231184
 21
23.30340109532824
 31
0.0
  0
LINE
  5
414
330
342
100
AcDbEntity
  8
0
 62
     0
100
AcDbLine
 10
132.4844243231183
 20
29.29945231954184
 30
0.0
 11
138.0844243231184
 21
34.89945231954198
 31
0.0
  0
LINE
  5
415
330
342
100
AcDbEntity
  8
0
 62
     0
100
AcDbLine
 10
117.484971871865
 20
14.29999986828852
 30
0.0
 11
128.2844243231185
 21
25.09945231954203
 31
0.0
  0
LINE
  5
416
330
342
100
AcDbEntity
  8
0
 62
     0
100
AcDbLine
 10
122.4752419189562
 20
21.08632113959368
 30
0.0
 11
128.2844243231185
 21
26.89550354375581
 31
0.0
  0
LINE
  5
417
330
342
100
AcDbEntity
  8
0
 62
     0
100
AcDbLine
 10
132.4844243231183
 20
31.09550354375563
 30
0.0
 11
138.0844243231184
 21
36.69550354375576
 31
0.0
  0
LINE
  5
418
330
342
100
AcDbEntity
  8
0
 62
     0
100
AcDbLine
 10
115.688920647651
 20
14.29999986828841
 30
0.0
 11
121.4981030518132
 21
20.10918227245054
 31
0.0
  0
LINE
  5
419
330
342
100
AcDbEntity
  8
0
 62
     0
100
AcDbLine
 10
122.6844243231182
 20
23.09155476796957
 30
0.0
 11
128.2844243231184
 21
28.69155476796971
 31
0.0
  0
LINE
  5
41A
330
342
100
AcDbEntity
  8
0
 62
     0
100
AcDbLine
 10
132.4844243231182
 20
32.89155476796953
 30
0.0
 11
138.0844243231183
 21
38.49155476796966
 31
0.0
  0
LINE
  5
41B
330
342
100
AcDbEntity
  8
0
 62
     0
100
AcDbLine
 10
114.1167689261916
 20
14.52389937104283
 30
0.0
 11
119.4928694234373
 21
19.89999986828854
 31
0.0
  0
LINE
  5
41C
330
342
100
AcDbEntity
  8
0
 62
     0
100
AcDbLine
 10
122.6844243231184
 20
24.88760599218358
 30
0.0
 11
128.2844243231184
 21
30.48760599218349
 31
0.0
  0
LINE
  5
41D
330
342
100
AcDbEntity
  8
0
 62
     0
100
AcDbLine
 10
132.4844243231182
 20
34.68760599218342
 30
0.0
 11
138.0844243231183
 21
40.28760599218344
 31
0.0
  0
LINE
  5
41E
330
342
100
AcDbEntity
  8
0
 62
     0
100
AcDbLine
 10
112.8607951917713
 20
15.06397686083653
 30
0.0
 11
117.6985737705122
 21
19.90175543957741
 31
0.0
  0
LINE
  5
41F
330
342
100
AcDbEntity
  8
0
 62
     0
100
AcDbLine
 10
122.6844243231185
 20
26.68365721639736
 30
0.0
 11
128.2844243231184
 21
32.28365721639728
 31
0.0
  0
LINE
  5
420
330
342
100
AcDbEntity
  8
0
 62
     0
100
AcDbLine
 10
132.4844243231183
 20
36.48365721639709
 30
0.0
 11
138.0844243231183
 21
42.08365721639722
 31
0.0
  0
LINE
  5
421
330
342
100
AcDbEntity
  8
0
 62
     0
100
AcDbLine
 10
111.8342754290412
 20
15.83350832231997
 30
0.0
 11
116.4116165930868
 21
20.41084948636569
 31
0.0
  0
LINE
  5
422
330
342
100
AcDbEntity
  8
0
 62
     0
100
AcDbLine
 10
122.6844243231185
 20
28.47970844061115
 30
0.0
 11
128.2844243231184
 21
34.07970844061117
 31
0.0
  0
LINE
  5
423
330
342
100
AcDbEntity
  8
0
 62
     0
100
AcDbLine
 10
132.4844243231182
 20
38.27970844061099
 30
0.0
 11
138.0844243231183
 21
43.87970844061112
 31
0.0
  0
LINE
  5
424
330
342
100
AcDbEntity
  8
0
 62
     0
100
AcDbLine
 10
111.0143470785909
 20
16.80963119608361
 30
0.0
 11
115.737140036268
 21
21.53242415376076
 31
0.0
  0
LINE
  5
425
330
342
100
AcDbEntity
  8
0
 62
     0
100
AcDbLine
 10
122.6844243231184
 20
30.27575966482505
 30
0.0
 11
128.2844243231185
 21
35.87575966482518
 31
0.0
  0
LINE
  5
426
330
342
100
AcDbEntity
  8
0
 62
     0
100
AcDbLine
 10
132.4844243231182
 20
40.07575966482477
 30
0.0
 11
138.0641260160174
 21
45.6554613577241
 31
0.0
  0
LINE
  5
427
330
342
100
AcDbEntity
  8
0
 62
     0
100
AcDbLine
 10
110.4144973217229
 20
18.0058326634296
 30
0.0
 11
115.6844243231184
 21
23.27575966482493
 31
0.0
  0
LINE
  5
428
330
342
100
AcDbEntity
  8
0
 62
     0
100
AcDbLine
 10
122.6844243231185
 20
32.07181088903872
 30
0.0
 11
128.2844243231186
 21
37.67181088903885
 31
0.0
  0
LINE
  5
429
330
342
100
AcDbEntity
  8
0
 62
     0
100
AcDbLine
 10
132.4844243231182
 20
41.87181088903855
 30
0.0
 11
137.1098973258584
 21
46.4972838917788
 31
0.0
  0
LINE
  5
42A
330
342
100
AcDbEntity
  8
0
 62
     0
100
AcDbLine
 10
110.09967025181
 20
19.48705681773038
 30
0.0
 11
115.6844243231184
 21
25.07181088903872
 31
0.0
  0
LINE
  5
42B
330
342
100
AcDbEntity
  8
0
 62
     0
100
AcDbLine
 10
122.6844243231184
 20
33.86786211325262
 30
0.0
 11
128.2844243231185
 21
39.46786211325275
 31
0.0
  0
LINE
  5
42C
330
342
100
AcDbEntity
  8
0
 62
     0
100
AcDbLine
 10
132.4844243231183
 20
43.66786211325257
 30
0.0
 11
135.3165620781543
 21
46.49999986828857
 31
0.0
  0
LINE
  5
42D
330
342
100
AcDbEntity
  8
0
 62
     0
100
AcDbLine
 10
110.0844243231184
 20
21.26786211325259
 30
0.0
 11
115.6844243231185
 21
26.86786211325273
 31
0.0
  0
LINE
  5
42E
330
342
100
AcDbEntity
  8
0
 62
     0
100
AcDbLine
 10
122.6844243231184
 20
35.66391333746651
 30
0.0
 11
128.2844243231185
 21
41.26391333746653
 31
0.0
  0
LINE
  5
42F
330
342
100
AcDbEntity
  8
0
 62
     0
100
AcDbLine
 10
110.0844243231183
 20
23.06391333746649
 30
0.0
 11
115.6844243231185
 21
28.66391333746662
 31
0.0
  0
LINE
  5
430
330
342
100
AcDbEntity
  8
0
 62
     0
100
AcDbLine
 10
132.4845177526132
 20
45.46400676696134
 30
0.0
 11
133.5204174244458
 21
46.49990643879379
 31
0.0
  0
LINE
  5
431
330
342
100
AcDbEntity
  8
0
 62
     0
100
AcDbLine
 10
101.4413130616943
 20
14.42080207604238
 30
0.0
 11
105.7636221153646
 21
18.74311112971281
 31
0.0
  0
LINE
  5
432
330
342
100
AcDbEntity
  8
0
 62
     0
100
AcDbLine
 10
110.0844243231183
 20
24.85996456168027
 30
0.0
 11
115.6844243231185
 21
30.45996456168041
 31
0.0
  0
LINE
  5
433
330
342
100
AcDbEntity
  8
0
 62
     0
100
AcDbLine
 10
122.6844243231184
 20
37.45996456168029
 30
0.0
 11
128.2844243231184
 21
43.05996456168043
 31
0.0
  0
LINE
  5
434
330
342
100
AcDbEntity
  8
0
 62
     0
100
AcDbLine
 10
99.5244596297266
 20
14.29999986828863
 30
0.0
 11
105.8844243231183
 21
20.65996456168034
 31
0.0
  0
LINE
  5
435
330
342
100
AcDbEntity
  8
0
 62
     0
100
AcDbLine
 10
110.0844243231183
 20
26.65601578589406
 30
0.0
 11
115.6844243231185
 21
32.25601578589419
 31
0.0
  0
LINE
  5
436
330
342
100
AcDbEntity
  8
0
 62
     0
100
AcDbLine
 10
122.6844243231184
 20
39.25601578589408
 30
0.0
 11
128.2844243231185
 21
44.85601578589421
 31
0.0
  0
LINE
  5
437
330
342
100
AcDbEntity
  8
0
 62
     0
100
AcDbLine
 10
97.72840840551282
 20
14.29999986828852
 30
0.0
 11
105.8844243231184
 21
22.45601578589401
 31
0.0
  0
LINE
  5
438
330
342
100
AcDbEntity
  8
0
 62
     0
100
AcDbLine
 10
110.0844243231183
 20
28.45206701010795
 30
0.0
 11
115.6844243231185
 21
34.05206701010798
 31
0.0
  0
LINE
  5
439
330
342
100
AcDbEntity
  8
0
 62
     0
100
AcDbLine
 10
122.6844243231184
 20
41.05206701010786
 30
0.0
 11
127.8969494134502
 21
46.26459210043981
 31
0.0
  0
LINE
  5
43A
330
342
100
AcDbEntity
  8
0
 62
     0
100
AcDbLine
 10
95.93235718129903
 20
14.29999986828863
 30
0.0
 11
105.8557871222924
 21
24.22342980928204
 31
0.0
  0
LINE
  5
43B
330
342
100
AcDbEntity
  8
0
 62
     0
100
AcDbLine
 10
110.0844243231183
 20
30.24811823432174
 30
0.0
 11
115.6844243231184
 21
35.84811823432187
 31
0.0
  0
LINE
  5
43C
330
342
100
AcDbEntity
  8
0
 62
     0
100
AcDbLine
 10
122.6844243231182
 20
42.84811823432176
 30
0.0
 11
126.3363059570852
 21
46.49999986828868
 31
0.0
  0
LINE
  5
43D
330
342
100
AcDbEntity
  8
0
 62
     0
100
AcDbLine
 10
94.13630595708514
 20
14.29999986828863
 30
0.0
 11
105.5859623810349
 21
25.74965629223834
 31
0.0
  0
LINE
  5
43E
330
342
100
AcDbEntity
  8
0
 62
     0
100
AcDbLine
 10
110.0844243231183
 20
32.04416945853552
 30
0.0
 11
115.6844243231185
 21
37.64416945853566
 31
0.0
  0
LINE
  5
43F
330
342
100
AcDbEntity
  8
0
 62
     0
100
AcDbLine
 10
100.2844243231186
 20
22.24416945853568
 30
0.0
 11
105.1047874671978
 21
27.06453260261492
 31
0.0
  0
LINE
  5
440
330
342
100
AcDbEntity
  8
0
 62
     0
100
AcDbLine
 10
122.6844243231184
 20
44.64416945853554
 30
0.0
 11
124.5402547328715
 21
46.49999986828868
 31
0.0
  0
LINE
  5
441
330
342
100
AcDbEntity
  8
0
 62
     0
100
AcDbLine
 10
92.59676543913361
 20
14.55651057455077
 30
0.0
 11
97.94025473287138
 21
19.89999986828854
 31
0.0
  0
LINE
  5
442
330
342
100
AcDbEntity
  8
0
 62
     0
100
AcDbLine
 10
100.2446831728638
 20
24.00047953249475
 30
0.0
 11
104.4577888574767
 21
28.21358521710772
 31
0.0
  0
LINE
  5
443
330
342
100
AcDbEntity
  8
0
 62
     0
100
AcDbLine
 10
110.0844243231183
 20
33.8402206827493
 30
0.0
 11
115.6844243231184
 21
39.44022068274944
 31
0.0
  0
LINE
  5
444
330
342
100
AcDbEntity
  8
0
 62
     0
100
AcDbLine
 10
92.23442432311845
 20
15.99022068274939
 30
0.0
 11
96.14420350865749
 21
19.89999986828854
 31
0.0
  0
LINE
  5
445
330
342
100
AcDbEntity
  8
0
 62
     0
100
AcDbLine
 10
99.69591349858603
 20
25.247761082431
 30
0.0
 11
103.6660466216211
 21
29.21789420546611
 31
0.0
  0
LINE
  5
446
330
342
100
AcDbEntity
  8
0
 62
     0
100
AcDbLine
 10
110.0844243231182
 20
35.6362719069632
 30
0.0
 11
115.6844243231184
 21
41.23627190696334
 31
0.0
  0
LINE
  5
447
330
342
100
AcDbEntity
  8
0
 62
     0
100
AcDbLine
 10
92.23442432311832
 20
17.78627190696329
 30
0.0
 11
94.34815228444369
 21
19.89999986828866
 31
0.0
  0
LINE
  5
448
330
342
100
AcDbEntity
  8
0
 62
     0
100
AcDbLine
 10
110.0844243231183
 20
37.43232313117699
 30
0.0
 11
115.6844243231185
 21
43.03232313117701
 31
0.0
  0
LINE
  5
449
330
342
100
AcDbEntity
  8
0
 62
     0
100
AcDbLine
 10
98.81336370435191
 20
26.16126251241042
 30
0.0
 11
102.7731616789965
 21
30.12106048705505
 31
0.0
  0
LINE
  5
44A
330
342
100
AcDbEntity
  8
0
 62
     0
100
AcDbLine
 10
97.91533809224496
 20
27.05928812451737
 30
0.0
 11
101.8751360668896
 21
31.019086099162
 31
0.0
  0
LINE
  5
44B
330
342
100
AcDbEntity
  8
0
 62
     0
100
AcDbLine
 10
110.0844243231182
 20
39.22837435539077
 30
0.0
 11
115.6844243231184
 21
44.8283743553909
 31
0.0
  0
LINE
  5
44C
330
342
100
AcDbEntity
  8
0
 62
     0
100
AcDbLine
 10
85.15604983601599
 20
14.29999986828852
 30
0.0
 11
86.98442432311834
 21
16.12837435539075
 31
0.0
  0
LINE
  5
44D
330
342
100
AcDbEntity
  8
0
 62
     0
100
AcDbLine
 10
97.017312480138
 20
27.95731373662432
 30
0.0
 11
100.9771104547826
 21
31.91711171126895
 31
0.0
  0
LINE
  5
44E
330
342
100
AcDbEntity
  8
0
 62
     0
100
AcDbLine
 10
110.0844243231182
 20
41.02442557960467
 30
0.0
 11
115.312062506921
 21
46.25206376340736
 31
0.0
  0
LINE
  5
44F
330
342
100
AcDbEntity
  8
0
 62
     0
100
AcDbLine
 10
83.3599986118021
 20
14.29999986828852
 30
0.0
 11
86.98442432311844
 21
17.92442557960476
 31
0.0
  0
LINE
  5
450
330
342
100
AcDbEntity
  8
0
 62
     0
100
AcDbLine
 10
96.11928686803105
 20
28.85533934873127
 30
0.0
 11
100.0790848426757
 21
32.8151373233759
 31
0.0
  0
LINE
  5
451
330
342
100
AcDbEntity
  8
0
 62
     0
100
AcDbLine
 10
110.0844243231182
 20
42.82047680381845
 30
0.0
 11
113.7639473875885
 21
46.4999998682888
 31
0.0
  0
LINE
  5
452
330
342
100
AcDbEntity
  8
0
 62
     0
100
AcDbLine
 10
81.78716966331228
 20
14.52322214401249
 30
0.0
 11
86.98442432311834
 21
19.72047680381865
 31
0.0
  0
LINE
  5
453
330
342
100
AcDbEntity
  8
0
 62
     0
100
AcDbLine
 10
95.22126125592421
 20
29.7533649608381
 30
0.0
 11
99.18105923056884
 21
33.71316293548273
 31
0.0
  0
LINE
  5
454
330
342
100
AcDbEntity
  8
0
 62
     0
100
AcDbLine
 10
110.0844243231182
 20
44.61652802803223
 30
0.0
 11
111.9678961633748
 21
46.49999986828868
 31
0.0
  0
LINE
  5
455
330
342
100
AcDbEntity
  8
0
 62
     0
100
AcDbLine
 10
81.38442432311842
 20
15.91652802803241
 30
0.0
 11
86.98442432311844
 21
21.51652802803233
 31
0.0
  0
LINE
  5
456
330
342
100
AcDbEntity
  8
0
 62
     0
100
AcDbLine
 10
94.32323564381727
 20
30.65139057294505
 30
0.0
 11
98.2830336184619
 21
34.61118854758968
 31
0.0
  0
LINE
  5
457
330
342
100
AcDbEntity
  8
0
 62
     0
100
AcDbLine
 10
81.38442432311842
 20
17.71257925224631
 30
0.0
 11
86.98442432311834
 21
23.31257925224623
 31
0.0
  0
LINE
  5
458
330
342
100
AcDbEntity
  8
0
 62
     0
100
AcDbLine
 10
93.4292678417346
 20
31.55347399507639
 30
0.0
 11
97.39721490849866
 21
35.52142106184033
 31
0.0
  0
LINE
  5
459
330
342
100
AcDbEntity
  8
0
 62
     0
100
AcDbLine
 10
81.38442432311842
 20
19.50863047646009
 30
0.0
 11
86.98442432311834
 21
25.10863047646012
 31
0.0
  0
LINE
  5
45A
330
342
100
AcDbEntity
  8
0
 62
     0
100
AcDbLine
 10
102.7757937149467
 20
40.89999986828854
 30
0.0
 11
104.8344243231184
 21
42.95863047646014
 31
0.0
  0
LINE
  5
45B
330
342
100
AcDbEntity
  8
0
 62
     0
100
AcDbLine
 10
76.39911187369796
 20
14.52331802703963
 30
0.0
 11
76.578416596608
 21
14.70262274994979
 31
0.0
  0
LINE
  5
45C
330
342
100
AcDbEntity
  8
0
 62
     0
100
AcDbLine
 10
92.63326348409066
 20
32.55352086164612
 30
0.0
 11
96.83253203892787
 21
36.75278941648333
 31
0.0
  0
LINE
  5
45D
330
342
100
AcDbEntity
  8
0
 62
     0
100
AcDbLine
 10
81.38442432311842
 20
21.30468170067388
 30
0.0
 11
86.98442432311844
 21
26.90468170067379
 31
0.0
  0
LINE
  5
45E
330
342
100
AcDbEntity
  8
0
 62
     0
100
AcDbLine
 10
100.9797424907332
 20
40.89999986828866
 30
0.0
 11
104.8344243231184
 21
44.75468170067393
 31
0.0
  0
LINE
  5
45F
330
342
100
AcDbEntity
  8
0
 62
     0
100
AcDbLine
 10
74.37974249073306
 20
14.29999986828852
 30
0.0
 11
76.51130068334612
 21
16.43155806090158
 31
0.0
  0
LINE
  5
460
330
342
100
AcDbEntity
  8
0
 62
     0
100
AcDbLine
 10
91.98159495529727
 20
33.69790355706664
 30
0.0
 11
96.78442432311863
 21
38.50073292488799
 31
0.0
  0
LINE
  5
461
330
342
100
AcDbEntity
  8
0
 62
     0
100
AcDbLine
 10
81.38442432311842
 20
23.10073292488767
 30
0.0
 11
86.98442432311834
 21
28.70073292488769
 31
0.0
  0
LINE
  5
462
330
342
100
AcDbEntity
  8
0
 62
     0
100
AcDbLine
 10
99.18369126651919
 20
40.89999986828854
 30
0.0
 11
104.5010864595226
 21
46.21739506129199
 31
0.0
  0
LINE
  5
463
330
342
100
AcDbEntity
  8
0
 62
     0
100
AcDbLine
 10
72.58369126651905
 20
14.29999986828841
 30
0.0
 11
76.08024838953475
 21
17.7965569913041
 31
0.0
  0
LINE
  5
464
330
342
100
AcDbEntity
  8
0
 62
     0
100
AcDbLine
 10
81.38442432311832
 20
24.89678414910156
 30
0.0
 11
86.98442432311834
 21
30.49678414910147
 31
0.0
  0
LINE
  5
465
330
342
100
AcDbEntity
  8
0
 62
     0
100
AcDbLine
 10
91.49483082995709
 20
35.00719065594035
 30
0.0
 11
102.9876400423054
 21
46.49999986828868
 31
0.0
  0
LINE
  5
466
330
342
100
AcDbEntity
  8
0
 62
     0
100
AcDbLine
 10
71.39966264520911
 20
14.91202247119236
 30
0.0
 11
75.64919609572337
 21
19.16155592170662
 31
0.0
  0
LINE
  5
467
330
342
100
AcDbEntity
  8
0
 62
     0
100
AcDbLine
 10
81.38442432311832
 20
26.69283537331546
 30
0.0
 11
86.98442432311821
 21
32.29283537331537
 31
0.0
  0
LINE
  5
468
330
342
100
AcDbEntity
  8
0
 62
     0
100
AcDbLine
 10
91.21741711178572
 20
36.52582816198287
 30
0.0
 11
101.1915888180916
 21
46.49999986828868
 31
0.0
  0
LINE
  5
469
330
342
100
AcDbEntity
  8
0
 62
     0
100
AcDbLine
 10
70.96214380191191
 20
16.27055485210906
 30
0.0
 11
75.21814380191199
 21
20.52655485210914
 31
0.0
  0
LINE
  5
46A
330
342
100
AcDbEntity
  8
0
 62
     0
100
AcDbLine
 10
81.38442432311842
 20
28.48888659752913
 30
0.0
 11
86.98442432311834
 21
34.08888659752915
 31
0.0
  0
LINE
  5
46B
330
342
100
AcDbEntity
  8
0
 62
     0
100
AcDbLine
 10
91.18442432311837
 20
38.28888659752909
 30
0.0
 11
99.39553759387786
 21
46.49999986828868
 31
0.0
  0
LINE
  5
46C
330
342
100
AcDbEntity
  8
0
 62
     0
100
AcDbLine
 10
70.53109150810064
 20
17.63555378251146
 30
0.0
 11
74.78709150810084
 21
21.89155378251155
 31
0.0
  0
LINE
  5
46D
330
342
100
AcDbEntity
  8
0
 62
     0
100
AcDbLine
 10
81.38442432311832
 20
30.28493782174303
 30
0.0
 11
86.98442432311834
 21
35.88493782174294
 31
0.0
  0
LINE
  5
46E
330
342
100
AcDbEntity
  8
0
 62
     0
100
AcDbLine
 10
91.1844243231185
 20
40.08493782174309
 30
0.0
 11
97.59948636966408
 21
46.49999986828868
 31
0.0
  0
LINE
  5
46F
330
342
100
AcDbEntity
  8
0
 62
     0
100
AcDbLine
 10
70.10003921428915
 20
19.00055271291387
 30
0.0
 11
74.35603921428958
 21
23.2565527129143
 31
0.0
  0
LINE
  5
470
330
342
100
AcDbEntity
  8
0
 62
     0
100
AcDbLine
 10
81.38442432311832
 20
32.08098904595682
 30
0.0
 11
86.98442432311844
 21
37.68098904595695
 31
0.0
  0
LINE
  5
471
330
342
100
AcDbEntity
  8
0
 62
     0
100
AcDbLine
 10
69.66898692047789
 20
20.36555164331651
 30
0.0
 11
73.92498692047809
 21
24.62155164331659
 31
0.0
  0
LINE
  5
472
330
342
100
AcDbEntity
  8
0
 62
     0
100
AcDbLine
 10
91.29105766336079
 20
41.98762238619941
 30
0.0
 11
95.69680180520743
 21
46.39336652804604
 31
0.0
  0
LINE
  5
473
330
342
100
AcDbEntity
  8
0
 62
     0
100
AcDbLine
 10
63.6034351454499
 20
14.29999986828852
 30
0.0
 11
65.28442432311829
 21
15.9809890459569
 31
0.0
  0
LINE
  5
474
330
342
100
AcDbEntity
  8
0
 62
     0
100
AcDbLine
 10
69.23793462666674
 20
21.73055057371891
 30
0.0
 11
73.49393462666682
 21
25.98655057371912
 31
0.0
  0
LINE
  5
475
330
342
100
AcDbEntity
  8
0
 62
     0
100
AcDbLine
 10
81.38442432311832
 20
33.8770402701706
 30
0.0
 11
86.98442432311844
 21
39.47704027017073
 31
0.0
  0
LINE
  5
476
330
342
100
AcDbEntity
  8
0
 62
     0
100
AcDbLine
 10
61.80738392123624
 20
14.29999986828841
 30
0.0
 11
65.2844243231184
 21
17.77704027017068
 31
0.0
  0
LINE
  5
477
330
342
100
AcDbEntity
  8
0
 62
     0
100
AcDbLine
 10
68.80688233285536
 20
23.09554950412143
 30
0.0
 11
73.06288233285545
 21
27.35154950412164
 31
0.0
  0
LINE
  5
478
330
342
100
AcDbEntity
  8
0
 62
     0
100
AcDbLine
 10
81.38442432311832
 20
35.67309149438449
 30
0.0
 11
86.98442432311844
 21
41.27309149438452
 31
0.0
  0
LINE
  5
479
330
342
100
AcDbEntity
  8
0
 62
     0
100
AcDbLine
 10
60.17363219232493
 20
14.46229936359111
 30
0.0
 11
65.2844243231184
 21
19.57309149438447
 31
0.0
  0
LINE
  5
47A
330
342
100
AcDbEntity
  8
0
 62
     0
100
AcDbLine
 10
68.37583003904398
 20
24.46054843452396
 30
0.0
 11
72.63183003904408
 21
28.71654843452416
 31
0.0
  0
LINE
  5
47B
330
342
100
AcDbEntity
  8
0
 62
     0
100
AcDbLine
 10
81.38442432311832
 20
37.46914271859828
 30
0.0
 11
86.98442432311834
 21
43.06914271859841
 31
0.0
  0
LINE
  5
47C
330
342
100
AcDbEntity
  8
0
 62
     0
100
AcDbLine
 10
59.68442432311838
 20
15.76914271859834
 30
0.0
 11
65.28442432311852
 21
21.36914271859848
 31
0.0
  0
LINE
  5
47D
330
342
100
AcDbEntity
  8
0
 62
     0
100
AcDbLine
 10
67.94477774523272
 20
25.82554736492637
 30
0.0
 11
72.20077774523304
 21
30.08154736492668
 31
0.0
  0
LINE
  5
47E
330
342
100
AcDbEntity
  8
0
 62
     0
100
AcDbLine
 10
81.38442432311832
 20
39.26519394281206
 30
0.0
 11
86.98442432311844
 21
44.86519394281219
 31
0.0
  0
LINE
  5
47F
330
342
100
AcDbEntity
  8
0
 62
     0
100
AcDbLine
 10
59.68442432311838
 20
17.56519394281213
 30
0.0
 11
65.28442432311852
 21
23.16519394281227
 31
0.0
  0
LINE
  5
480
330
342
100
AcDbEntity
  8
0
 62
     0
100
AcDbLine
 10
67.47518017128925
 20
27.1520010151969
 30
0.0
 11
72.73576830715104
 21
32.41258915105869
 31
0.0
  0
LINE
  5
481
330
342
100
AcDbEntity
  8
0
 62
     0
100
AcDbLine
 10
81.38442432311842
 20
41.06124516702607
 30
0.0
 11
86.59187347812155
 21
46.26869432202909
 31
0.0
  0
LINE
  5
482
330
342
100
AcDbEntity
  8
0
 62
     0
100
AcDbLine
 10
59.68442432311838
 20
19.36124516702603
 30
0.0
 11
65.28442432311852
 21
24.96124516702605
 31
0.0
  0
LINE
  5
483
330
342
100
AcDbEntity
  8
0
 62
     0
100
AcDbLine
 10
66.10080943155447
 20
27.57368149967601
 30
0.0
 11
73.56471502601903
 21
35.03758709414058
 31
0.0
  0
LINE
  5
484
330
342
100
AcDbEntity
  8
0
 62
     0
100
AcDbLine
 10
59.68442432311838
 20
21.15729639123981
 30
0.0
 11
65.31074269173098
 21
26.78361475985241
 31
0.0
  0
LINE
  5
485
330
342
100
AcDbEntity
  8
0
 62
     0
100
AcDbLine
 10
81.38442432311842
 20
42.85729639123985
 30
0.0
 11
85.02712780016713
 21
46.49999986828868
 31
0.0
  0
LINE
  5
486
330
342
100
AcDbEntity
  8
0
 62
     0
100
AcDbLine
 10
52.82712780016709
 20
14.29999986828852
 30
0.0
 11
54.7844243231184
 21
16.25729639123995
 31
0.0
  0
LINE
  5
487
330
342
100
AcDbEntity
  8
0
 62
     0
100
AcDbLine
 10
59.68442432311826
 20
22.95334761545371
 30
0.0
 11
74.39366174488691
 21
37.66258503722236
 31
0.0
  0
LINE
  5
488
330
342
100
AcDbEntity
  8
0
 62
     0
100
AcDbLine
 10
81.38442432311832
 20
44.65334761545375
 30
0.0
 11
83.23107657595324
 21
46.49999986828868
 31
0.0
  0
LINE
  5
489
330
342
100
AcDbEntity
  8
0
 62
     0
100
AcDbLine
 10
51.0310765759532
 20
14.29999986828863
 30
0.0
 11
54.78442432311851
 21
18.05334761545396
 31
0.0
  0
LINE
  5
48A
330
342
100
AcDbEntity
  8
0
 62
     0
100
AcDbLine
 10
59.68442432311838
 20
24.74939883966738
 30
0.0
 11
75.22260846375513
 21
40.28758298030425
 31
0.0
  0
LINE
  5
48B
330
342
100
AcDbEntity
  8
0
 62
     0
100
AcDbLine
 10
49.25838660043962
 20
14.32336111698873
 30
0.0
 11
54.50175575590606
 21
19.56673027245506
 31
0.0
  0
LINE
  5
48C
330
342
100
AcDbEntity
  8
0
 62
     0
100
AcDbLine
 10
59.68442432311826
 20
26.54545006388128
 30
0.0
 11
66.3389741275256
 21
33.19999986828861
 31
0.0
  0
LINE
  5
48D
330
342
100
AcDbEntity
  8
0
 62
     0
100
AcDbLine
 10
67.86693979800702
 20
34.72796553877004
 30
0.0
 11
76.05155518262302
 21
42.91258092338603
 31
0.0
  0
LINE
  5
48E
330
342
100
AcDbEntity
  8
0
 62
     0
100
AcDbLine
 10
47.72206556554567
 20
14.58309130630857
 30
0.0
 11
53.03897412752553
 21
19.89999986828854
 31
0.0
  0
LINE
  5
48F
330
342
100
AcDbEntity
  8
0
 62
     0
100
AcDbLine
 10
59.68442432311826
 20
28.34150128809517
 30
0.0
 11
65.32040546453493
 21
33.97748242951172
 31
0.0
  0
LINE
  5
490
330
342
100
AcDbEntity
  8
0
 62
     0
100
AcDbLine
 10
68.6958865168749
 20
37.3529634818517
 30
0.0
 11
76.80169808622565
 21
45.45877505120256
 31
0.0
  0
LINE
  5
491
330
342
100
AcDbEntity
  8
0
 62
     0
100
AcDbLine
 10
46.39979705189285
 20
15.05687401686975
 30
0.0
 11
51.24292290331175
 21
19.89999986828854
 31
0.0
  0
LINE
  5
492
330
342
100
AcDbEntity
  8
0
 62
     0
100
AcDbLine
 10
59.68442432311838
 20
30.13755251230885
 30
0.0
 11
65.2844243231184
 21
35.73755251230898
 31
0.0
  0
LINE
  5
493
330
342
100
AcDbEntity
  8
0
 62
     0
100
AcDbLine
 10
69.52483323574313
 20
39.97796142493371
 30
0.0
 11
76.01367434108727
 21
46.46680253027784
 31
0.0
  0
LINE
  5
494
330
342
100
AcDbEntity
  8
0
 62
     0
100
AcDbLine
 10
45.24459048356425
 20
15.69771867275472
 30
0.0
 11
49.47671420054996
 21
19.92984238974054
 31
0.0
  0
LINE
  5
495
330
342
100
AcDbEntity
  8
0
 62
     0
100
AcDbLine
 10
59.68442432311826
 20
31.93360373652274
 30
0.0
 11
65.2844243231184
 21
37.53360373652288
 31
0.0
  0
LINE
  5
496
330
342
100
AcDbEntity
  8
0
 62
     0
100
AcDbLine
 10
70.35377995461101
 20
42.60295936801537
 30
0.0
 11
74.25082045488409
 21
46.49999986828857
 31
0.0
  0
LINE
  5
497
330
342
100
AcDbEntity
  8
0
 62
     0
100
AcDbLine
 10
44.23468055080014
 20
16.4838599642045
 30
0.0
 11
48.20808191851336
 21
20.45726133191772
 31
0.0
  0
LINE
  5
498
330
342
100
AcDbEntity
  8
0
 62
     0
100
AcDbLine
 10
59.68442432311826
 20
33.72965496073653
 30
0.0
 11
65.2844243231184
 21
39.32965496073666
 31
0.0
  0
LINE
  5
499
330
342
100
AcDbEntity
  8
0
 62
     0
100
AcDbLine
 10
53.00769258667128
 20
27.05292322428966
 30
0.0
 11
55.33150096711745
 21
29.37673160473583
 31
0.0
  0
LINE
  5
49A
330
342
100
AcDbEntity
  8
0
 62
     0
100
AcDbLine
 10
71.18272667347878
 20
45.22795731109716
 30
0.0
 11
72.45476923067042
 21
46.4999998682888
 31
0.0
  0
LINE
  5
49B
330
342
100
AcDbEntity
  8
0
 62
     0
100
AcDbLine
 10
43.36180640414045
 20
17.40703704175883
 30
0.0
 11
47.38758001596898
 21
21.43281065358735
 31
0.0
  0
LINE
  5
49C
330
342
100
AcDbEntity
  8
0
 62
     0
100
AcDbLine
 10
51.15774690341163
 20
26.99902876524391
 30
0.0
 11
55.38539542616319
 21
31.22667728799536
 31
0.0
  0
LINE
  5
49D
330
342
100
AcDbEntity
  8
0
 62
     0
100
AcDbLine
 10
59.68442432311838
 20
35.52570618495054
 30
0.0
 11
65.28442432311852
 21
41.12570618495067
 31
0.0
  0
LINE
  5
49E
330
342
100
AcDbEntity
  8
0
 62
     0
100
AcDbLine
 10
42.62776795425452
 20
18.46904981608668
 30
0.0
 11
47.08442432311835
 21
22.92570618495063
 31
0.0
  0
LINE
  5
49F
330
342
100
AcDbEntity
  8
0
 62
     0
100
AcDbLine
 10
49.92945376457123
 20
27.56678685061706
 30
0.0
 11
54.81763734078993
 21
32.45497042683587
 31
0.0
  0
LINE
  5
4A0
330
342
100
AcDbEntity
  8
0
 62
     0
100
AcDbLine
 10
59.68442432311838
 20
37.32175740916432
 30
0.0
 11
65.28442432311852
 21
42.92175740916445
 31
0.0
  0
LINE
  5
4A1
330
342
100
AcDbEntity
  8
0
 62
     0
100
AcDbLine
 10
42.04513293440505
 20
19.68246602045099
 30
0.0
 11
47.08442432311835
 21
24.7217574091643
 31
0.0
  0
LINE
  5
4A2
330
342
100
AcDbEntity
  8
0
 62
     0
100
AcDbLine
 10
49.05353391059179
 20
28.48691822085164
 30
0.0
 11
53.89750597055547
 21
33.3308902808152
 31
0.0
  0
LINE
  5
4A3
330
342
100
AcDbEntity
  8
0
 62
     0
100
AcDbLine
 10
59.68442432311838
 20
39.11780863337822
 30
0.0
 11
65.28442432311852
 21
44.71780863337824
 31
0.0
  0
LINE
  5
4A4
330
342
100
AcDbEntity
  8
0
 62
     0
100
AcDbLine
 10
41.64285820605573
 20
21.07624251631557
 30
0.0
 11
47.08442432311835
 21
26.51780863337819
 31
0.0
  0
LINE
  5
4A5
330
342
100
AcDbEntity
  8
0
 62
     0
100
AcDbLine
 10
48.54143244577506
 20
29.77086798024868
 30
0.0
 11
52.61355621115831
 21
33.84299174563205
 31
0.0
  0
LINE
  5
4A6
330
342
100
AcDbEntity
  8
0
 62
     0
100
AcDbLine
 10
41.48442432311822
 20
22.71385985759196
 30
0.0
 11
47.08442432311835
 21
28.31385985759198
 31
0.0
  0
LINE
  5
4A7
330
342
100
AcDbEntity
  8
0
 62
     0
100
AcDbLine
 10
59.68442432311838
 20
40.913859857592
 30
0.0
 11
64.96992410640814
 21
46.19935964088187
 31
0.0
  0
LINE
  5
4A8
330
342
100
AcDbEntity
  8
0
 62
     0
100
AcDbLine
 10
33.31243080736704
 20
14.54186634184077
 30
0.0
 11
37.04255784956649
 21
18.27199338404023
 31
0.0
  0
LINE
  5
4A9
330
342
100
AcDbEntity
  8
0
 62
     0
100
AcDbLine
 10
48.77825861273663
 20
31.80374537142404
 30
0.0
 11
50.58067881998306
 21
33.60616557867047
 31
0.0
  0
LINE
  5
4AA
330
342
100
AcDbEntity
  8
0
 62
     0
100
AcDbLine
 10
41.48442432311822
 20
24.50991108180563
 30
0.0
 11
47.08442432311835
 21
30.10991108180576
 31
0.0
  0
LINE
  5
4AB
330
342
100
AcDbEntity
  8
0
 62
     0
100
AcDbLine
 10
59.68442432311838
 20
42.70991108180578
 30
0.0
 11
63.47451310960116
 21
46.49999986828857
 31
0.0
  0
LINE
  5
4AC
330
342
100
AcDbEntity
  8
0
 62
     0
100
AcDbLine
 10
31.27451310960112
 20
14.29999986828852
 30
0.0
 11
37.28442432311863
 21
20.30991108180592
 31
0.0
  0
LINE
  5
4AD
330
342
100
AcDbEntity
  8
0
 62
     0
100
AcDbLine
 10
41.48442432311822
 20
26.30596230601952
 30
0.0
 11
47.08442432311835
 21
31.90596230601966
 31
0.0
  0
LINE
  5
4AE
330
342
100
AcDbEntity
  8
0
 62
     0
100
AcDbLine
 10
59.68442432311838
 20
44.50596230601957
 30
0.0
 11
61.67846188538738
 21
46.49999986828868
 31
0.0
  0
LINE
  5
4AF
330
342
100
AcDbEntity
  8
0
 62
     0
100
AcDbLine
 10
29.47846188538711
 20
14.29999986828841
 30
0.0
 11
37.28442432311851
 21
22.10596230601982
 31
0.0
  0
LINE
  5
4B0
330
342
100
AcDbEntity
  8
0
 62
     0
100
AcDbLine
 10
41.48442432311822
 20
28.10201353023331
 30
0.0
 11
47.08442432311824
 21
33.70201353023345
 31
0.0
  0
LINE
  5
4B1
330
342
100
AcDbEntity
  8
0
 62
     0
100
AcDbLine
 10
27.68241066117344
 20
14.29999986828863
 30
0.0
 11
37.27654561799602
 21
23.89413482511122
 31
0.0
  0
LINE
  5
4B2
330
342
100
AcDbEntity
  8
0
 62
     0
100
AcDbLine
 10
41.48442432311822
 20
29.89806475444721
 30
0.0
 11
47.08442432311835
 21
35.49806475444734
 31
0.0
  0
LINE
  5
4B3
330
342
100
AcDbEntity
  8
0
 62
     0
100
AcDbLine
 10
52.48635943695979
 20
40.89999986828877
 30
0.0
 11
54.78442432311863
 21
43.19806475444761
 31
0.0
  0
LINE
  5
4B4
330
342
100
AcDbEntity
  8
0
 62
     0
100
AcDbLine
 10
25.88635943695954
 20
14.29999986828852
 30
0.0
 11
37.05722194535338
 21
25.47086237668236
 31
0.0
  0
LINE
  5
4B5
330
342
100
AcDbEntity
  8
0
 62
     0
100
AcDbLine
 10
41.48442432311822
 20
31.69411597866099
 30
0.0
 11
47.08442432311835
 21
37.29411597866101
 31
0.0
  0
LINE
  5
4B6
330
342
100
AcDbEntity
  8
0
 62
     0
100
AcDbLine
 10
31.68442432311838
 20
21.89411597866115
 30
0.0
 11
36.61254445726513
 21
26.8222361128079
 31
0.0
  0
LINE
  5
4B7
330
342
100
AcDbEntity
  8
0
 62
     0
100
AcDbLine
 10
50.69030821274577
 20
40.89999986828854
 30
0.0
 11
54.78442432311863
 21
44.99411597866128
 31
0.0
  0
LINE
  5
4B8
330
342
100
AcDbEntity
  8
0
 62
     0
100
AcDbLine
 10
24.20575996326568
 20
14.41545161880845
 30
0.0
 11
29.69030821274578
 21
19.89999986828854
 31
0.0
  0
LINE
  5
4B9
330
342
100
AcDbEntity
  8
0
 62
     0
100
AcDbLine
 10
41.4844243231181
 20
33.49016720287477
 30
0.0
 11
47.41605373467769
 21
39.42179661443436
 31
0.0
  0
LINE
  5
4BA
330
342
100
AcDbEntity
  8
0
 62
     0
100
AcDbLine
 10
31.68010613989987
 20
23.68584901965641
 30
0.0
 11
35.99568138792108
 21
28.00142426767775
 31
0.0
  0
LINE
  5
4BB
330
342
100
AcDbEntity
  8
0
 62
     0
100
AcDbLine
 10
48.56262757697277
 20
40.56837045672944
 30
0.0
 11
54.3174894932788
 21
46.32323237303535
 31
0.0
  0
LINE
  5
4BC
330
342
100
AcDbEntity
  8
0
 62
     0
100
AcDbLine
 10
23.63442432311842
 20
15.64016720287497
 30
0.0
 11
27.89425698853199
 21
19.89999986828854
 31
0.0
  0
LINE
  5
4BD
330
342
100
AcDbEntity
  8
0
 62
     0
100
AcDbLine
 10
31.24090010089844
 20
25.04269420486901
 30
0.0
 11
35.23119745824329
 21
29.03299156221385
 31
0.0
  0
LINE
  5
4BE
330
342
100
AcDbEntity
  8
0
 62
     0
100
AcDbLine
 10
41.4844243231181
 20
35.28621842708867
 30
0.0
 11
52.69820576431823
 21
46.4999998682888
 31
0.0
  0
LINE
  5
4BF
330
342
100
AcDbEntity
  8
0
 62
     0
100
AcDbLine
 10
23.63442432311831
 20
17.43621842708887
 30
0.0
 11
26.0982057643181
 21
19.89999986828866
 31
0.0
  0
LINE
  5
4C0
330
342
100
AcDbEntity
  8
0
 62
     0
100
AcDbLine
 10
30.38839044428903
 20
25.98623577247327
 30
0.0
 11
34.34818841893378
 21
29.94603374711801
 31
0.0
  0
LINE
  5
4C1
330
342
100
AcDbEntity
  8
0
 62
     0
100
AcDbLine
 10
41.48442432311822
 20
37.08226965130234
 30
0.0
 11
50.90215454010411
 21
46.49999986828833
 31
0.0
  0
LINE
  5
4C2
330
342
100
AcDbEntity
  8
0
 62
     0
100
AcDbLine
 10
23.77232816715787
 20
19.3701734953421
 30
0.0
 11
24.1642506960651
 21
19.76209602424933
 31
0.0
  0
LINE
  5
4C3
330
342
100
AcDbEntity
  8
0
 62
     0
100
AcDbLine
 10
41.52437455143138
 20
38.9182711038294
 30
0.0
 11
49.06615308757739
 21
46.46004963997552
 31
0.0
  0
LINE
  5
4C4
330
342
100
AcDbEntity
  8
0
 62
     0
100
AcDbLine
 10
29.49036483218208
 20
26.88426138458022
 30
0.0
 11
33.45016280682683
 21
30.84405935922496
 31
0.0
  0
LINE
  5
4C5
330
342
100
AcDbEntity
  8
0
 62
     0
100
AcDbLine
 10
42.12330141596294
 20
41.31324919257497
 30
0.0
 11
46.67117499883192
 21
45.86112277544396
 31
0.0
  0
LINE
  5
4C6
330
342
100
AcDbEntity
  8
0
 62
     0
100
AcDbLine
 10
28.59233922007513
 20
27.78228699668716
 30
0.0
 11
32.55213719471988
 21
31.74208497133191
 31
0.0
  0
LINE
  5
4C7
330
342
100
AcDbEntity
  8
0
 62
     0
100
AcDbLine
 10
27.6943136079683
 20
28.680312608794
 30
0.0
 11
31.65411158261293
 21
32.64011058343851
 31
0.0
  0
LINE
  5
4C8
330
342
100
AcDbEntity
  8
0
 62
     0
100
AcDbLine
 10
26.79628799586135
 20
29.57833822090094
 30
0.0
 11
30.75608597050598
 21
33.53813619554546
 31
0.0
  0
LINE
  5
4C9
330
342
100
AcDbEntity
  8
0
 62
     0
100
AcDbLine
 10
25.8982623837544
 20
30.4763638330079
 30
0.0
 11
29.85806035839903
 21
34.43616180765241
 31
0.0
  0
LINE
  5
4CA
330
342
100
AcDbEntity
  8
0
 62
     0
100
AcDbLine
 10
34.52584719482127
 20
40.89999986828854
 30
0.0
 11
36.23442432311811
 21
42.6085769965855
 31
0.0
  0
LINE
  5
4CB
330
342
100
AcDbEntity
  8
0
 62
     0
100
AcDbLine
 10
25.00040339970372
 20
31.37455607317111
 30
0.0
 11
28.96053468656862
 21
35.33468736003602
 31
0.0
  0
LINE
  5
4CC
330
342
100
AcDbEntity
  8
0
 62
     0
100
AcDbLine
 10
32.72979597060749
 20
40.89999986828854
 30
0.0
 11
36.23442432311833
 21
44.40462822079939
 31
0.0
  0
LINE
  5
4CD
330
342
100
AcDbEntity
  8
0
 62
     0
100
AcDbLine
 10
24.17746755060057
 20
32.34767144828152
 30
0.0
 11
28.30074092399275
 21
36.47094482167381
 31
0.0
  0
LINE
  5
4CE
330
342
100
AcDbEntity
  8
0
 62
     0
100
AcDbLine
 10
30.93374474639359
 20
40.89999986828854
 30
0.0
 11
36.06130652359605
 21
46.027561645491
 31
0.0
  0
LINE
  5
4CF
330
342
100
AcDbEntity
  8
0
 62
     0
100
AcDbLine
 10
23.49654633807563
 20
33.46280145997048
 30
0.0
 11
28.18442432311849
 21
38.15067944501334
 31
0.0
  0
LINE
  5
4D0
330
342
100
AcDbEntity
  8
0
 62
     0
100
AcDbLine
 10
29.13276022383957
 20
40.89506656994831
 30
0.0
 11
34.73769352217994
 21
46.49999986828868
 31
0.0
  0
LINE
  5
4D1
330
342
100
AcDbEntity
  8
0
 62
     0
100
AcDbLine
 10
22.97515974661144
 20
34.73746609272018
 30
0.0
 11
28.18935762145861
 21
39.95166396756747
 31
0.0
  0
LINE
  5
4D2
330
342
100
AcDbEntity
  8
0
 62
     0
100
AcDbLine
 10
22.65153582211531
 20
36.20989339243783
 30
0.0
 11
32.94164229796616
 21
46.49999986828868
 31
0.0
  0
LINE
  5
4D3
330
342
100
AcDbEntity
  8
0
 62
     0
100
AcDbLine
 10
22.58442432311847
 20
37.93883311765489
 30
0.0
 11
31.14559107375226
 21
46.49999986828868
 31
0.0
  0
LINE
  5
4D4
330
342
100
AcDbEntity
  8
0
 62
     0
100
AcDbLine
 10
22.58442432311847
 20
39.73488434186868
 30
0.0
 11
29.34953984953848
 21
46.49999986828868
 31
0.0
  0
LINE
  5
4D5
330
342
100
AcDbEntity
  8
0
 62
     0
100
AcDbLine
 10
22.62480834399491
 20
41.57131958695901
 30
0.0
 11
27.51310460444813
 21
46.45961584741224
 31
0.0
  0
ENDBLK
  5
4D7
330
342
100
AcDbEntity
  8
0
100
AcDbBlockEnd
  0
BLOCK
  5
F5B
330
F4F
100
AcDbEntity
  8
0
100
AcDbBlockBegin
  2
*D8
 70
     1
 10
0.0
 20
0.0
 30
0.0
  3
*D8
  1

  0
LINE
  5
FEF
330
F4F
100
AcDbEntity
  8
SUNPOU
100
AcDbLine
 10
205.2925675170268
 20
460.1143164220457
 30
0.0
 11
794.3151394322994
 21
460.1143164220455
 31
0.0
  0
LINE
  5
FF0
330
F4F
100
AcDbEntity
  8
SUNPOU
100
AcDbLine
 10
699.2251750813797
 20
444.6298946757551
 30
0.0
 11
794.3151394322994
 21
444.6298946757551
 31
0.0
  0
LINE
  5
FF1
330
F4F
100
AcDbEntity
  8
SUNPOU
100
AcDbLine
 10
788.3151394322994
 20
430.6298946757551
 30
0.0
 11
788.3151394322994
 21
416.6298946757551
 31
0.0
  0
LINE
  5
FF2
330
F4F
100
AcDbEntity
  8
SUNPOU
100
AcDbLine
 10
788.3151394322994
 20
474.1143164220455
 30
0.0
 11
788.3151394322994
 21
520.135913003927
 31
0.0
  0
LINE
  5
FF3
330
F4F
100
AcDbEntity
  8
SUNPOU
100
AcDbLine
 10
788.3151394322994
 20
444.6298946757551
 30
0.0
 11
788.3151394322994
 21
460.1143164220455
 31
0.0
  0
INSERT
  5
FF4
330
F4F
100
AcDbEntity
  8
SUNPOU
100
AcDbBlockReference
  2
_OPEN
 10
788.3151394322994
 20
444.6298946757551
 30
0.0
 41
14.0
 42
14.0
 43
14.0
 50
90.0
  0
INSERT
  5
FF5
330
F4F
100
AcDbEntity
  8
SUNPOU
100
AcDbBlockReference
  2
_OPEN
 10
788.3151394322994
 20
460.1143164220455
 30
0.0
 41
14.0
 42
14.0
 43
14.0
 50
270.0
  0
MTEXT
  5
FF6
330
F4F
100
AcDbEntity
  8
SUNPOU
100
AcDbMText
 10
778.3151394322993
 20
508.1359130039272
 30
0.0
 40
12.0
 41
0.0
 71
     5
 72
     1
  1
\A1;16
 11
0.0000000000000001
 21
1.0
 31
0.0
 73
     1
 44
1.0
1001
ACAD
1000
MTEXTBEGIN
1070
    73
1070
     1
1070
    44
1040
1.0
1070
    74
1070
     0
1000
MTEXTEND
  0
POINT
  5
FF7
330
F4F
100
AcDbEntity
  8
DEFPOINTS
 62
     0
100
AcDbPoint
 10
193.2925675170268
 20
460.1143164220457
 30
0.0
  0
POINT
  5
FF8
330
F4F
100
AcDbEntity
  8
DEFPOINTS
 62
     0
100
AcDbPoint
 10
687.2251750813797
 20
444.6298946757551
 30
0.0
  0
POINT
  5
FF9
330
F4F
100
AcDbEntity
  8
DEFPOINTS
 62
     0
100
AcDbPoint
 10
788.3151394322994
 20
444.6298946757551
 30
0.0
  0
ENDBLK
  5
F5C
330
F4F
100
AcDbEntity
  8
0
100
AcDbBlockEnd
  0
ENDSEC
  0
SECTION
  2
ENTITIES
  0
DIMENSION
  5
1D3
330
19
100
AcDbEntity
  8
SUNPOU
  6
Continuous
100
AcDbDimension
  2
*D1
 10
187.2321301495307
 20
758.8942816719573
 30
0.0
 11
687.2254106116254
 21
758.8942816719573
 31
0.0
 70
   160
 71
     5
 42
999.9865609241892
  3
STANDARD
100
AcDbAlignedDimension
 13
1187.21869107372
 23
672.1732479031043
 33
0.0
 14
187.2321301495307
 24
672.1722855238968
 34
0.0
100
AcDbRotatedDimension
1001
ACAD
1000
DSTYLE
1002
{
1070
   140
1040
12.0
1070
    74
1070
     0
1070
   172
1070
     1
1070
    73
1070
     0
1070
   272
1070
     2
1070
    77
1070
     3
1070
   173
1070
     1
1070
   147
1040
4.0
1070
    42
1040
12.0
1070
    44
1040
6.0
1070
    43
1040
28.0
1070
   271
1070
     0
1070
   178
1070
     4
1070
   177
1070
     4
1070
   176
1070
     4
1070
   141
1040
150.0
1070
     7
1000
_OPEN
1070
     6
1000
_OPEN
1070
    41
1040
14.0
1070
   143
1040
0.03937
1002
}
  0
DIMENSION
  5
1DA
330
19
100
AcDbEntity
  8
SUNPOU
  6
Continuous
100
AcDbDimension
  2
*D2
 10
1240.004457291182
 20
672.1732479031041
 30
0.0
 11
1230.004457291182
 21
712.1732479031043
 31
0.0
 70
    32
 71
     5
 42
17.87997811217428
  3
STANDARD
100
AcDbAlignedDimension
 13
687.2255445582874
 23
654.29326979093
 33
0.0
 14
1187.21869107372
 24
672.1732479031041
 34
0.0
 50
90.0
100
AcDbRotatedDimension
1001
ACAD
1000
DSTYLE
1002
{
1070
   140
1040
12.0
1070
    74
1070
     0
1070
   172
1070
     1
1070
    73
1070
     0
1070
   272
1070
     2
1070
    77
1070
     3
1070
   173
1070
     1
1070
   147
1040
4.0
1070
    42
1040
12.0
1070
    44
1040
6.0
1070
    43
1040
28.0
1070
   271
1070
     0
1070
   178
1070
     4
1070
   177
1070
     4
1070
   176
1070
     4
1070
   141
1040
150.0
1070
     7
1000
_OPEN
1070
     6
1000
_OPEN
1070
    41
1040
14.0
1070
   143
1040
0.03937
1002
}
  0
LINE
  5
1DE
330
19
100
AcDbEntity
  8
CENTER L
  6
CENTER
 62
     1
 48
3.5
100
AcDbLine
 10
687.2255087690412
 20
718.4554909142816
 30
0.0
 11
687.2254314070282
 21
626.2918814857723
 31
0.0
  0
DIMENSION
  5
1E4
330
19
100
AcDbEntity
  8
SUNPOU
  6
Continuous
100
AcDbDimension
  2
*D3
 10
1488.97890373361
 20
773.5410483425161
 30
0.0
 11
1432.216985712216
 21
783.541048342516
 31
0.0
 70
    32
 71
     5
 42
113.5238360427891
  3
STANDARD
100
AcDbAlignedDimension
 13
1375.455067690821
 23
717.3851304199601
 33
0.0
 14
1488.97890373361
 24
717.3851304199601
 34
0.0
100
AcDbRotatedDimension
1001
ACAD
1000
DSTYLE
1002
{
1070
   140
1040
12.0
1070
    74
1070
     0
1070
   172
1070
     1
1070
    73
1070
     0
1070
   272
1070
     2
1070
    77
1070
     3
1070
   173
1070
     1
1070
   147
1040
4.0
1070
    42
1040
12.0
1070
    44
1040
6.0
1070
    43
1040
28.0
1070
   271
1070
     0
1070
   178
1070
     4
1070
   177
1070
     4
1070
   176
1070
     4
1070
   141
1040
150.0
1070
     7
1000
_OPEN
1070
     6
1000
_OPEN
1070
    41
1040
14.0
1070
   143
1040
0.03937
1002
}
  0
ARC
  5
1E6
330
19
100
AcDbEntity
  8
SEIHIN
  6
Continuous
 62
     3
 48
32.0
100
AcDbCircle
 10
1432.217422857768
 20
722.3851304199333
 30
0.0
 40
49.00005596297584
100
AcDbArc
 50
185.4134922262535
 51
354.5863903198354
  0
ARC
  5
1E7
330
19
100
AcDbEntity
  8
SEIHIN
  6
Continuous
 62
     3
 48
32.0
100
AcDbCircle
 10
1432.216918536516
 20
722.3851304208511
 30
0.0
 40
50.29990349245178
100
AcDbArc
 50
188.9534813231258
 51
351.2913627029296
  0
DIMENSION
  5
1E8
330
19
100
AcDbEntity
  8
SUNPOU
  6
Continuous
100
AcDbDimension
  2
*D4
 10
1342.723021536539
 20
721.3854212762893
 30
0.0
 11
1332.723021536539
 21
696.7353241033694
 31
0.0
 70
    32
 71
     5
 42
49.30019434584017
  3
STANDARD
100
AcDbAlignedDimension
 13
1432.217372633753
 23
672.0852269304491
 33
0.0
 14
1379.455918119445
 24
721.3854212762893
 34
0.0
 50
90.0
100
AcDbRotatedDimension
1001
ACAD
1000
DSTYLE
1002
{
1070
   140
1040
12.0
1070
    74
1070
     0
1070
   172
1070
     1
1070
    73
1070
     0
1070
   272
1070
     2
1070
    77
1070
     3
1070
   173
1070
     1
1070
   147
1040
4.0
1070
    42
1040
12.0
1070
    44
1040
6.0
1070
    43
1040
28.0
1070
   271
1070
     0
1070
   178
1070
     4
1070
   177
1070
     4
1070
   176
1070
     4
1070
   141
1040
150.0
1070
     7
1000
_OPEN
1070
     6
1000
_OPEN
1070
    41
1040
14.0
1070
   143
1040
0.03937
1002
}
  0
LINE
  5
1EB
330
19
100
AcDbEntity
  8
CENTER L
100
AcDbLine
 10
1432.217372633753
 20
665.0852269302003
 30
0.0
 11
1432.217372633753
 21
680.3850744569873
 31
0.0
  0
LINE
  5
1EC
330
19
100
AcDbEntity
  8
SEIHIN
  6
Continuous
 62
     3
 48
32.0
100
AcDbLine
 10
1382.529918119445
 20
714.5567304199602
 30
0.0
 11
1369.719001301497
 21
696.982158464284
 31
0.0
  0
ARC
  5
1ED
330
19
100
AcDbEntity
  8
SEIHIN
  6
Continuous
 62
     3
 48
32.0
100
AcDbCircle
 10
1379.455339089139
 20
717.3853148757524
 30
0.0
 40
4.000271402569784
100
AcDbArc
 50
185.4147561863415
 51
319.2524902302544
  0
ARC
  5
1EE
330
19
100
AcDbEntity
  8
SEIHIN
  6
Continuous
 62
     3
 48
32.0
100
AcDbCircle
 10
1379.455427263923
 20
717.3850839103964
 30
0.0
 40
4.000337396007714
100
AcDbArc
 50
5.414120662776326
 51
185.4113437183063
  0
ARC
  5
1EF
330
19
100
AcDbEntity
  8
SEIHIN
  6
Continuous
 62
     3
 48
32.0
100
AcDbCircle
 10
1379.455918119445
 20
717.3851304199601
 30
0.0
 40
2.700000000000045
100
AcDbArc
 50
180.0
 51
0.0
  0
ARC
  5
1F0
330
19
100
AcDbEntity
  8
SEIHIN
  6
Continuous
 62
     3
 48
32.0
100
AcDbCircle
 10
1379.455918119445
 20
717.3851304199601
 30
0.0
 40
2.700000000000045
100
AcDbArc
 50
0.0
 51
180.0
  0
LINE
  5
1F3
330
19
100
AcDbEntity
  8
SEIHIN
  6
Continuous
 62
     3
 48
32.0
100
AcDbLine
 10
1481.873918119444
 20
719.9074304199601
 30
0.0
 11
1469.256316794778
 21
702.2880751232531
 31
0.0
  0
ARC
  5
1F5
330
19
100
AcDbEntity
  8
SEIHIN
  6
Continuous
 62
     3
 48
32.0
100
AcDbCircle
 10
1484.979019954298
 20
717.3851945727538
 30
0.0
 40
3.9999302378369
100
AcDbArc
 50
121.7884626320063
 51
174.5883576665707
  0
ARC
  5
1F6
330
19
100
AcDbEntity
  8
SEIHIN
  6
Continuous
 62
     3
 48
32.0
100
AcDbCircle
 10
1484.978926030281
 20
717.385080524254
 30
0.0
 40
3.999977703640429
100
AcDbArc
 50
220.270057854811
 51
121.7864584961302
  0
ARC
  5
1F7
330
19
100
AcDbEntity
  8
SEIHIN
  6
Continuous
 62
     3
 48
32.0
100
AcDbCircle
 10
1484.978918119445
 20
717.3850304199601
 30
0.0
 40
2.700000000000045
100
AcDbArc
 50
0.0
 51
180.0
  0
ARC
  5
1F8
330
19
100
AcDbEntity
  8
SEIHIN
  6
Continuous
 62
     3
 48
32.0
100
AcDbCircle
 10
1484.978918119445
 20
717.3850304199601
 30
0.0
 40
2.700000000000045
100
AcDbArc
 50
180.0
 51
0.0
  0
LINE
  5
78E
330
19
100
AcDbEntity
  8
ZUWAKU
100
AcDbLine
 10
417.293202580136
 20
30.40000000000008
 30
0.0
 11
894.8487279419827
 21
30.40000000000006
 31
0.0
  0
LINE
  5
78F
330
19
100
AcDbEntity
  8
ZUWAKU
100
AcDbLine
 10
417.293202580136
 20
31.20000000000007
 30
0.0
 11
894.8487279419827
 21
31.20000000000008
 31
0.0
  0
LINE
  5
790
330
19
100
AcDbEntity
  8
ZUWAKU
100
AcDbLine
 10
417.293202580136
 20
30.80000000000007
 30
0.0
 11
894.8487279419827
 21
30.80000000000007
 31
0.0
  0
LINE
  5
791
330
19
100
AcDbEntity
  8
ZUWAKU
100
AcDbLine
 10
0.0
 20
61.60000000000002
 30
0.0
 11
1594.8
 21
61.60000000000002
 31
0.0
  0
LINE
  5
792
330
19
100
AcDbEntity
  8
ZUWAKU
100
AcDbLine
 10
0.0
 20
61.20000000000001
 30
0.0
 11
1594.8
 21
61.20000000000001
 31
0.0
  0
LINE
  5
793
330
19
100
AcDbEntity
  8
ZUWAKU
100
AcDbLine
 10
0.0
 20
60.80000000000001
 30
0.0
 11
1594.8
 21
60.80000000000001
 31
0.0
  0
LINE
  5
794
330
19
100
AcDbEntity
  8
ZUWAKU
100
AcDbLine
 10
0.0
 20
60.4
 30
0.0
 11
1594.8
 21
60.4
 31
0.0
  0
LINE
  5
795
330
19
100
AcDbEntity
  8
ZUWAKU
100
AcDbLine
 10
0.0
 20
60.0
 30
0.0
 11
1594.8
 21
60.0
 31
0.0
  0
LWPOLYLINE
  5
796
330
19
100
AcDbEntity
  8
ZUWAKU
100
AcDbPolyline
 90
        4
 70
     1
 43
0.0
 10
0.3999999999998636
 20
1102.8
 10
0.3999999999998636
 20
0.400000000000091
 10
1594.8
 20
0.4000000000001372
 10
1594.8
 20
1102.8
  0
LWPOLYLINE
  5
797
330
19
100
AcDbEntity
  8
ZUWAKU
100
AcDbPolyline
 90
        4
 70
     1
 43
0.0
 10
1.199999999999818
 20
1102.0
 10
1.199999999999818
 20
1.200000000000045
 10
1594.0
 20
1.200000000000137
 10
1594.0
 20
1102.0
  0
LWPOLYLINE
  5
798
330
19
100
AcDbEntity
  8
ZUWAKU
100
AcDbPolyline
 90
        4
 70
     1
 43
0.0
 10
0.0
 20
1103.2
 10
0.0
 20
0.0
 10
1595.2
 20
0.000000000000135
 10
1595.2
 20
1103.2
  0
LWPOLYLINE
  5
799
330
19
100
AcDbEntity
  8
ZUWAKU
100
AcDbPolyline
 90
        4
 70
     1
 43
0.0
 10
0.7999999999999546
 20
1102.4
 10
0.7999999999999546
 20
0.8000000000001818
 10
1594.4
 20
0.8000000000001357
 10
1594.4
 20
1102.4
  0
LWPOLYLINE
  5
79A
330
19
100
AcDbEntity
  8
ZUWAKU
100
AcDbPolyline
 90
        4
 70
     1
 43
0.0
 10
1.599999999999909
 20
1101.6
 10
1.599999999999909
 20
1.600000000000136
 10
1593.6
 20
1.600000000000136
 10
1593.6
 20
1101.6
  0
INSERT
  5
7B1
330
19
100
AcDbEntity
  8
ZUWAKU
  6
Continuous
100
AcDbBlockReference
  2
*X5
 10
-0.0000000135560185
 20
0.0000001317113174
 30
0.0
1001
ACAD
1000
HATCH
1002
{
1070
    19
1000
ANSI37
1040
0.4
1040
0.0
1000
R14_HATCH_DATA
1000
15D7
1011
0.9999999864439814
1021
0.0000001317113174
1031
0.0
1011
-0.0000000135560185
1021
1.000000131711317
1031
0.0
1011
-0.0000000135560185
1021
0.0000001317113174
1031
1.0
1040
0.0
1010
0.0
1020
0.0
1030
1.0
1000
ANSI37
1070
     0
1070
     0
1071
        8
1071
        7
1070
     1
1070
     1
1071
       24
1040
29.00452533579573
1040
35.28969683025585
1040
-0.1989123673796348
1040
28.18442432311826
1040
37.26959581757795
1040
0.0
1040
28.18442432311826
1040
39.84999986828871
1040
-0.4142135623730912
1040
29.23442432311822
1040
40.89999986828869
1040
0.0
1040
35.18442432311804
1040
40.89999986828869
1040
0.4142135623731546
1040
36.23442432311822
1040
41.94999986828867
1040
0.0
1040
36.23442432311822
1040
45.44999986828869
1040
0.4142135623731586
1040
35.18442432311804
1040
46.49999986828869
1040
0.0
1040
28.18442432311826
1040
46.49999986828869
1040
0.4142135623730928
1040
22.58442432311836
1040
40.89999986828874
1040
0.0
1040
22.58442432311836
1040
37.26959581757821
1040
0.1989123673796619
1040
25.04472736115122
1040
31.32989885561099
1040
0.0
1040
30.86432331044057
1040
25.51030290632168
1040
-0.1989123673796613
1040
31.68442432311826
1040
23.53040391899931
1040
0.0
1040
31.68442432311826
1040
20.94999986828867
1040
-0.4142135623730911
1040
30.63442432311831
1040
19.89999986828869
1040
0.0
1040
24.68442432311849
1040
19.89999986828869
1040
0.4142135623731526
1040
23.63442432311831
1040
18.84999986828871
1040
0.0
1040
23.63442432311831
1040
15.34999986828867
1040
0.4142135623731526
1040
24.68442432311849
1040
14.29999986828869
1040
0.0
1040
31.68442432311826
1040
14.29999986828869
1040
0.4142135623731044
1040
37.2844243231184
1040
19.89999986828864
1040
0.0
1040
37.2844243231184
1040
23.53040391899919
1040
0.1989123673796604
1040
34.82412128508531
1040
29.47010088096627
1040
0.0
1071
        0
1071
        7
1070
     1
1070
     1
1071
       16
1040
47.08442432311835
1040
38.0999998682887
1040
-0.4142135623730935
1040
49.88442432311831
1040
40.89999986828869
1040
0.0
1040
53.73442432311822
1040
40.89999986828869
1040
0.4142135623731546
1040
54.7844243231184
1040
41.94999986828867
1040
0.0
1040
54.7844243231184
1040
45.44999986828869
1040
0.4142135623730951
1040
53.73442432311844
1040
46.49999986828869
1040
0.0
1040
49.88442432311808
1040
46.49999986828861
1040
0.4142135623730892
1040
41.48442432311822
1040
38.09999986828856
1040
0.0
1040
41.48442432311822
1040
22.69999986828874
1040
0.4142135623730969
1040
49.88442432311831
1040
14.29999986828869
1040
0.0
1040
53.73442432311822
1040
14.29999986828869
1040
0.4142135623731526
1040
54.7844243231184
1040
15.34999986828867
1040
0.0
1040
54.7844243231184
1040
18.84999986828871
1040
0.4142135623730891
1040
53.73442432311844
1040
19.89999986828869
1040
0.0
1040
49.88442432311831
1040
19.89999986828869
1040
-0.4142135623730928
1040
47.08442432311835
1040
22.69999986828866
1040
0.0
1071
        0
1071
        7
1070
     1
1070
     1
1071
        2
1040
48.48442432311822
1040
30.39999986828869
1040
1.0
1040
55.48442432311822
1040
30.39999986828869
1040
1.0
1071
        0
1071
        7
1070
     1
1070
     1
1071
       26
1040
74.62971728747425
1040
38.41009425541555
1040
0.0
1040
76.75299655374988
1040
45.13381193195472
1040
0.5069206636600134
1040
75.75173475535916
1040
46.49999986828869
1040
0.0
1040
72.35395599614071
1040
46.49999986828869
1040
0.3272098845218764
1040
71.35269419774999
1040
45.76618780462263
1040
0.0
1040
67.61615444848644
1040
33.93381193195485
1040
-0.3272098845219541
1040
66.61489265009549
1040
33.19999986828868
1040
0.0
1040
66.33442432311858
1040
33.19999986828868
1040
-0.4142135623731526
1040
65.2844243231184
1040
34.24999986828866
1040
0.0
1040
65.2844243231184
1040
45.44999986828869
1040
0.4142135623730951
1040
64.23442432311844
1040
46.49999986828869
1040
0.0
1040
60.73442432311821
1040
46.49999986828869
1040
0.4142135623730871
1040
59.68442432311826
1040
45.44999986828872
1040
0.0
1040
59.68442432311826
1040
15.34999986828867
1040
0.4142135623730891
1040
60.73442432311821
1040
14.29999986828869
1040
0.0
1040
64.23442432311822
1040
14.29999986828869
1040
0.4142135623731526
1040
65.2844243231184
1040
15.34999986828867
1040
0.0
1040
65.2844243231184
1040
26.54999986828872
1040
-0.4142135623731526
1040
66.33442432311858
1040
27.59999986828869
1040
0.0
1040
66.61489265009572
1040
27.59999986828869
1040
-0.3272098845218915
1040
67.61615444848644
1040
26.86618780462254
1040
0.0
1040
71.35269419774999
1040
15.03381193195483
1040
0.3272098845218902
1040
72.35395599614071
1040
14.29999986828869
1040
0.0
1040
75.75173475535916
1040
14.29999986828869
1040
0.5069206636600335
1040
76.75299655374988
1040
15.66618780462271
1040
0.0
1040
72.10021379680256
1040
30.39999986828897
1040
0.0
1071
        0
1071
        7
1070
     1
1070
     1
1071
        8
1040
86.98442432311821
1040
45.44999986828871
1040
0.4142135623731546
1040
85.93442432311803
1040
46.49999986828869
1040
0.0
1040
82.4344243231185
1040
46.49999986828869
1040
0.4142135623731507
1040
81.38442432311832
1040
45.44999986828872
1040
0.0
1040
81.38442432311832
1040
15.34999986828867
1040
0.4142135623731526
1040
82.4344243231185
1040
14.29999986828869
1040
0.0
1040
85.93442432311803
1040
14.29999986828869
1040
0.4142135623731526
1040
86.98442432311821
1040
15.34999986828867
1040
0.0
1071
        0
1071
        7
1070
     1
1070
     1
1071
       24
1040
96.7844243231184
1040
39.84999986828871
1040
-0.4142135623731546
1040
97.83442432311858
1040
40.89999986828869
1040
0.0
1040
103.7844243231184
1040
40.89999986828869
1040
0.4142135623730911
1040
104.8344243231183
1040
41.94999986828867
1040
0.0
1040
104.8344243231183
1040
45.44999986828869
1040
0.4142135623730952
1040
103.7844243231184
1040
46.49999986828869
1040
0.0
1040
96.7844243231184
1040
46.49999986828869
1040
0.4142135623731048
1040
91.18442432311827
1040
40.89999986828874
1040
0.0
1040
91.18442432311827
1040
37.26959581757821
1040
0.1989123673796613
1040
93.64472736115136
1040
31.32989885561111
1040
0.0
1040
99.46432331044071
1040
25.51030290632177
1040
-0.1989123673796402
1040
100.2844243231184
1040
23.53040391899963
1040
0.0
1040
100.2844243231184
1040
20.94999986828867
1040
-0.4142135623730911
1040
99.23442432311844
1040
19.89999986828869
1040
0.0
1040
93.2844243231184
1040
19.89999986828869
1040
0.4142135623731526
1040
92.23442432311822
1040
18.84999986828871
1040
0.0
1040
92.23442432311822
1040
15.34999986828867
1040
0.4142135623730891
1040
93.28442432311817
1040
14.29999986828869
1040
0.0
1040
100.2844243231184
1040
14.29999986828869
1040
0.4142135623730925
1040
105.8844243231183
1040
19.89999986828864
1040
0.0
1040
105.8844243231183
1040
23.53040391899919
1040
0.1989123673796675
1040
103.4241212850852
1040
29.4701008809665
1040
0.0
1040
97.60452533579609
1040
35.28969683025553
1040
-0.1989123673796652
1040
96.7844243231184
1040
37.26959581757787
1040
0.0
1071
        0
1071
        7
1070
     1
1070
     1
1071
       16
1040
115.6844243231182
1040
45.44999986828867
1040
0.414213562373103
1040
114.6344243231183
1040
46.49999986828869
1040
0.0
1040
111.1344243231183
1040
46.49999986828869
1040
0.4142135623730871
1040
110.0844243231183
1040
45.44999986828872
1040
0.0
1040
110.0844243231183
1040
19.89999986828864
1040
0.4142135623730926
1040
115.6844243231182
1040
14.29999986828869
1040
0.0
1040
122.6844243231182
1040
14.29999986828869
1040
0.4142135623731044
1040
128.2844243231184
1040
19.89999986828864
1040
0.0
1040
128.2844243231184
1040
45.44999986828869
1040
0.4142135623730951
1040
127.2344243231184
1040
46.49999986828869
1040
0.0
1040
123.7344243231182
1040
46.49999986828869
1040
0.4142135623730871
1040
122.6844243231182
1040
45.44999986828872
1040
0.0
1040
122.6844243231182
1040
21.99999986828864
1040
-0.414213562373088
1040
120.5844243231183
1040
19.89999986828869
1040
0.0
1040
117.7844243231184
1040
19.89999986828869
1040
-0.4142135623731197
1040
115.6844243231182
1040
21.99999986828864
1040
0.0
1071
        0
1071
        7
1070
     1
1070
     1
1071
        8
1040
138.0844243231183
1040
45.44999986828872
1040
0.4142135623730871
1040
137.0344243231184
1040
46.49999986828869
1040
0.0
1040
133.5344243231184
1040
46.49999986828869
1040
0.4142135623731507
1040
132.4844243231182
1040
45.44999986828872
1040
0.0
1040
132.4844243231182
1040
15.34999986828867
1040
0.4142135623730891
1040
133.5344243231181
1040
14.29999986828869
1040
0.0
1040
137.0344243231184
1040
14.29999986828869
1040
0.4142135623730891
1040
138.0844243231183
1040
15.34999986828867
1040
0.0
1071
        0
1070
     0
1070
     1
1040
0.0
1040
0.4
1070
     0
1070
     2
1040
0.7853981633974483
1040
-1801.884608655802
1040
-26.40000013171118
1040
-0.8980256121069151
1040
0.8980256121069153
1070
     0
1040
2.356194490192344
1040
-1801.884608655802
1040
-26.40000013171118
1040
-0.8980256121069153
1040
-0.8980256121069151
1070
     0
1040
0.057451373970553
1071
        8
1040
32.15970993960264
1040
30.3343471600598
1040
0.0
1040
44.80903002643436
1040
37.68812423319071
1040
0.0
1040
50.32873578487533
1040
31.02376316043012
1040
0.0
1040
61.82811997683029
1040
32.40259516117169
1040
0.0
1040
83.67694405146949
1040
33.32181969625492
1040
0.0
1040
93.79640180381512
1040
38.83715250110311
1040
0.0
1040
113.1153719583567
1040
37.45831569847871
1040
0.0
1040
135.6541592528015
1040
38.37754023356195
1040
0.0
1002
}
  0
LINE
  5
7B2
330
19
100
AcDbEntity
  8
ZUWAKU
100
AcDbLine
 10
49.88442430956229
 20
46.49999999999993
 30
0.0
 11
53.7344243095622
 21
46.50000000000001
 31
0.0
  0
LINE
  5
7B3
330
19
100
AcDbEntity
  8
ZUWAKU
100
AcDbLine
 10
53.7344243095622
 20
40.9
 30
0.0
 11
49.88442430956229
 21
40.9
 31
0.0
  0
LINE
  5
7B4
330
19
100
AcDbEntity
  8
ZUWAKU
100
AcDbLine
 10
49.88442430956229
 20
19.9
 30
0.0
 11
53.7344243095622
 21
19.9
 31
0.0
  0
LINE
  5
7B5
330
19
100
AcDbEntity
  8
ZUWAKU
100
AcDbLine
 10
53.7344243095622
 20
14.30000000000001
 30
0.0
 11
49.88442430956229
 21
14.30000000000001
 31
0.0
  0
CIRCLE
  5
7B6
330
19
100
AcDbEntity
  8
ZUWAKU
100
AcDbCircle
 10
51.9844243095622
 20
30.40000000000001
 30
0.0
 40
3.5
  0
ARC
  5
7B7
330
19
100
AcDbEntity
  8
ZUWAKU
100
AcDbCircle
 10
30.9844243095622
 20
37.26959594928941
 30
0.0
 40
2.799999999999999
100
AcDbArc
 50
180.0000000000016
 51
224.9999999999925
  0
LINE
  5
7B8
330
19
100
AcDbEntity
  8
ZUWAKU
100
AcDbLine
 10
47.08442430956234
 20
38.10000000000001
 30
0.0
 11
47.08442430956234
 21
22.70000000000002
 31
0.0
  0
LINE
  5
7B9
330
19
100
AcDbEntity
  8
ZUWAKU
100
AcDbLine
 10
41.4844243095622
 20
22.70000000000002
 30
0.0
 11
41.4844243095622
 21
38.09999999999993
 31
0.0
  0
ARC
  5
7BA
330
19
100
AcDbEntity
  8
ZUWAKU
100
AcDbCircle
 10
30.9844243095622
 20
37.26959594928941
 30
0.0
 40
8.399999999999998
100
AcDbArc
 50
180.0
 51
225.0000000000067
  0
ARC
  5
7BB
330
19
100
AcDbEntity
  8
ZUWAKU
100
AcDbCircle
 10
31.68442430956225
 20
19.9
 30
0.0
 40
5.599999999999999
100
AcDbArc
 50
270.0
 51
0.0
  0
ARC
  5
7BC
330
19
100
AcDbEntity
  8
ZUWAKU
100
AcDbCircle
 10
49.88442430956229
 20
22.70000000000002
 30
0.0
 40
8.399999999999998
100
AcDbArc
 50
180.0
 51
270.0
  0
ARC
  5
7BD
330
19
100
AcDbEntity
  8
ZUWAKU
100
AcDbCircle
 10
28.88442430956229
 20
23.53040405071062
 30
0.0
 40
8.399999999999998
100
AcDbArc
 50
0.0
 51
45.00000000000662
  0
LINE
  5
7BE
330
19
100
AcDbEntity
  8
ZUWAKU
100
AcDbLine
 10
34.8241212715293
 20
29.47010101267766
 30
0.0
 11
29.00452532223994
 21
35.28969696196701
 31
0.0
  0
LINE
  5
7BF
330
19
100
AcDbEntity
  8
ZUWAKU
100
AcDbLine
 10
31.68442430956225
 20
20.95000000000002
 30
0.0
 11
31.68442430956225
 21
23.5304040507107
 31
0.0
  0
ARC
  5
7C0
330
19
100
AcDbEntity
  8
ZUWAKU
100
AcDbCircle
 10
30.63442430956229
 20
20.95000000000002
 30
0.0
 40
1.049999999999999
100
AcDbArc
 50
270.0
 51
0.0
  0
ARC
  5
7C1
330
19
100
AcDbEntity
  8
ZUWAKU
100
AcDbCircle
 10
28.88442430956229
 20
23.5304040507107
 30
0.0
 40
2.799999999999999
100
AcDbArc
 50
0.0
 51
45.00000000000662
  0
LINE
  5
7C2
330
19
100
AcDbEntity
  8
ZUWAKU
100
AcDbLine
 10
23.63442430956229
 20
15.35000000000001
 30
0.0
 11
23.63442430956229
 21
18.85000000000001
 31
0.0
  0
ARC
  5
7C3
330
19
100
AcDbEntity
  8
ZUWAKU
100
AcDbCircle
 10
24.68442430956225
 20
15.35000000000001
 30
0.0
 40
1.049999999999999
100
AcDbArc
 50
180.0
 51
270.0
  0
ARC
  5
7C4
330
19
100
AcDbEntity
  8
ZUWAKU
100
AcDbCircle
 10
24.68442430956225
 20
18.85000000000001
 30
0.0
 40
1.049999999999999
100
AcDbArc
 50
90.0
 51
180.0
  0
LINE
  5
7C5
330
19
100
AcDbEntity
  8
ZUWAKU
100
AcDbLine
 10
24.68442430956225
 20
14.30000000000001
 30
0.0
 11
31.68442430956225
 21
14.30000000000001
 31
0.0
  0
LINE
  5
7C6
330
19
100
AcDbEntity
  8
ZUWAKU
100
AcDbLine
 10
24.68442430956225
 20
19.9
 30
0.0
 11
30.63442430956229
 21
19.9
 31
0.0
  0
LINE
  5
7C7
330
19
100
AcDbEntity
  8
ZUWAKU
100
AcDbLine
 10
25.0447273475952
 20
31.32989898732237
 30
0.0
 11
30.86432329688455
 21
25.51030303803305
 31
0.0
  0
LINE
  5
7C8
330
19
100
AcDbEntity
  8
ZUWAKU
100
AcDbLine
 10
37.28442430956238
 20
19.9
 30
0.0
 11
37.28442430956238
 21
23.5304040507107
 31
0.0
  0
ARC
  5
7C9
330
19
100
AcDbEntity
  8
ZUWAKU
100
AcDbCircle
 10
49.88442430956229
 20
22.70000000000002
 30
0.0
 40
2.799999999999999
100
AcDbArc
 50
180.0
 51
270.0
  0
ARC
  5
7CA
330
19
100
AcDbEntity
  8
ZUWAKU
100
AcDbCircle
 10
35.18442430956225
 20
45.45
 30
0.0
 40
1.049999999999999
100
AcDbArc
 50
0.0
 51
90.0
  0
ARC
  5
7CB
330
19
100
AcDbEntity
  8
ZUWAKU
100
AcDbCircle
 10
35.18442430956225
 20
41.95
 30
0.0
 40
1.049999999999999
100
AcDbArc
 50
270.0
 51
0.0
  0
LINE
  5
7CC
330
19
100
AcDbEntity
  8
ZUWAKU
100
AcDbLine
 10
28.18442430956224
 20
46.50000000000001
 30
0.0
 11
35.18442430956225
 21
46.50000000000001
 31
0.0
  0
ARC
  5
7CD
330
19
100
AcDbEntity
  8
ZUWAKU
100
AcDbCircle
 10
29.2344243095622
 20
39.85000000000001
 30
0.0
 40
1.049999999999999
100
AcDbArc
 50
90.0
 51
180.0
  0
LINE
  5
7CE
330
19
100
AcDbEntity
  8
ZUWAKU
100
AcDbLine
 10
28.18442430956224
 20
39.85000000000001
 30
0.0
 11
28.18442430956224
 21
37.26959594928933
 31
0.0
  0
LINE
  5
7CF
330
19
100
AcDbEntity
  8
ZUWAKU
100
AcDbLine
 10
35.18442430956225
 20
40.9
 30
0.0
 11
29.2344243095622
 21
40.9
 31
0.0
  0
LINE
  5
7D0
330
19
100
AcDbEntity
  8
ZUWAKU
100
AcDbLine
 10
22.58442430956234
 20
40.9
 30
0.0
 11
22.58442430956234
 21
37.26959594928933
 31
0.0
  0
ARC
  5
7D1
330
19
100
AcDbEntity
  8
ZUWAKU
100
AcDbCircle
 10
28.18442430956224
 20
40.9
 30
0.0
 40
5.599999999999999
100
AcDbArc
 50
90.0
 51
180.0
  0
LINE
  5
7D2
330
19
100
AcDbEntity
  8
ZUWAKU
100
AcDbLine
 10
36.2344243095622
 20
45.45
 30
0.0
 11
36.2344243095622
 21
41.95
 31
0.0
  0
ARC
  5
7D3
330
19
100
AcDbEntity
  8
ZUWAKU
100
AcDbCircle
 10
49.88442430956229
 20
38.10000000000001
 30
0.0
 40
2.799999999999999
100
AcDbArc
 50
90.0
 51
180.0
  0
ARC
  5
7D4
330
19
100
AcDbEntity
  8
ZUWAKU
100
AcDbCircle
 10
49.88442430956229
 20
38.09999999999993
 30
0.0
 40
8.399999999999998
100
AcDbArc
 50
90.0
 51
180.0
  0
LINE
  5
7D5
330
19
100
AcDbEntity
  8
ZUWAKU
100
AcDbLine
 10
158.6532590959764
 20
60.0
 30
0.0
 11
158.6532590959768
 21
1.600000000000136
 31
0.0
  0
LINE
  5
7D6
330
19
100
AcDbEntity
  8
ZUWAKU
100
AcDbLine
 10
159.0532590959765
 20
60.0
 30
0.0
 11
159.0532590959769
 21
1.600000000000136
 31
0.0
  0
LINE
  5
7D7
330
19
100
AcDbEntity
  8
ZUWAKU
100
AcDbLine
 10
158.2532590959768
 20
60.0
 30
0.0
 11
158.2532590959768
 21
1.600000000000136
 31
0.0
  0
LINE
  5
7D8
330
19
100
AcDbEntity
  8
ZUWAKU
100
AcDbLine
 10
128.2844243095624
 20
19.9
 30
0.0
 11
128.2844243095624
 21
45.45
 31
0.0
  0
LINE
  5
7D9
330
19
100
AcDbEntity
  8
ZUWAKU
100
AcDbLine
 10
122.6844243095622
 20
45.45
 30
0.0
 11
122.6844243095622
 21
22.0
 31
0.0
  0
LINE
  5
7DA
330
19
100
AcDbEntity
  8
ZUWAKU
100
AcDbLine
 10
138.0844243095623
 20
15.35000000000001
 30
0.0
 11
138.0844243095623
 21
45.45
 31
0.0
  0
LINE
  5
7DB
330
19
100
AcDbEntity
  8
ZUWAKU
100
AcDbLine
 10
132.4844243095622
 20
45.45
 30
0.0
 11
132.4844243095622
 21
15.35000000000001
 31
0.0
  0
ARC
  5
7DC
330
19
100
AcDbEntity
  8
ZUWAKU
100
AcDbCircle
 10
99.58442430956234
 20
37.26959594928941
 30
0.0
 40
2.799999999999999
100
AcDbArc
 50
180.0000000000016
 51
224.9999999999925
  0
ARC
  5
7DD
330
19
100
AcDbEntity
  8
ZUWAKU
100
AcDbCircle
 10
99.58442430956234
 20
37.26959594928941
 30
0.0
 40
8.399999999999998
100
AcDbArc
 50
180.0
 51
225.0000000000067
  0
LINE
  5
7DE
330
19
100
AcDbEntity
  8
ZUWAKU
100
AcDbLine
 10
74.62971727391823
 20
38.41009438712686
 30
0.0
 11
72.10021378324654
 21
30.40000000000005
 31
0.0
  0
LINE
  5
7DF
330
19
100
AcDbEntity
  8
ZUWAKU
100
AcDbLine
 10
81.3844243095623
 20
45.45
 30
0.0
 11
81.3844243095623
 21
15.35000000000001
 31
0.0
  0
LINE
  5
7E0
330
19
100
AcDbEntity
  8
ZUWAKU
100
AcDbLine
 10
86.9844243095622
 20
15.35000000000001
 30
0.0
 11
86.9844243095622
 21
45.45
 31
0.0
  0
LINE
  5
7E1
330
19
100
AcDbEntity
  8
ZUWAKU
100
AcDbLine
 10
110.0844243095623
 20
45.45
 30
0.0
 11
110.0844243095623
 21
19.9
 31
0.0
  0
LINE
  5
7E2
330
19
100
AcDbEntity
  8
ZUWAKU
100
AcDbLine
 10
115.6844243095622
 20
22.0
 30
0.0
 11
115.6844243095622
 21
45.45
 31
0.0
  0
LINE
  5
7E3
330
19
100
AcDbEntity
  8
ZUWAKU
100
AcDbLine
 10
65.28442430956238
 20
34.25000000000002
 30
0.0
 11
65.28442430956238
 21
45.45
 31
0.0
  0
LINE
  5
7E4
330
19
100
AcDbEntity
  8
ZUWAKU
100
AcDbLine
 10
59.68442430956224
 20
45.45
 30
0.0
 11
59.68442430956224
 21
15.35000000000001
 31
0.0
  0
LINE
  5
7E5
330
19
100
AcDbEntity
  8
ZUWAKU
100
AcDbLine
 10
71.35269418419397
 20
45.76618793633395
 30
0.0
 11
67.61615443493042
 21
33.93381206366607
 31
0.0
  0
TEXT
  5
7E6
330
19
100
AcDbEntity
  8
moji
100
AcDbText
 10
185.9155791763383
 20
25.48235626054952
 30
0.0
 40
12.0
  1
丸トップのきとい・半丸といＨ型
 41
0.9
  7
ｽﾀｲﾙ1
100
AcDbText
  0
LINE
  5
7E7
330
19
100
AcDbEntity
  8
ZUWAKU
100
AcDbLine
 10
120.5844243095623
 20
19.9
 30
0.0
 11
117.7844243095623
 21
19.9
 31
0.0
  0
LINE
  5
7E8
330
19
100
AcDbEntity
  8
ZUWAKU
100
AcDbLine
 10
115.6844243095622
 20
14.30000000000001
 30
0.0
 11
122.6844243095622
 21
14.30000000000001
 31
0.0
  0
LINE
  5
7E9
330
19
100
AcDbEntity
  8
ZUWAKU
100
AcDbLine
 10
82.43442430956225
 20
14.30000000000001
 30
0.0
 11
85.93442430956224
 21
14.30000000000001
 31
0.0
  0
LINE
  5
7EA
330
19
100
AcDbEntity
  8
ZUWAKU
100
AcDbLine
 10
71.35269418419397
 20
15.03381206366606
 30
0.0
 11
67.61615443493042
 21
26.86618793633395
 31
0.0
  0
ARC
  5
7EB
330
19
100
AcDbEntity
  8
ZUWAKU
100
AcDbCircle
 10
66.61489263653971
 20
34.25000000000002
 30
0.0
 40
1.049999999999999
100
AcDbArc
 50
270.0
 51
342.4744316262735
  0
LINE
  5
7EC
330
19
100
AcDbEntity
  8
ZUWAKU
100
AcDbLine
 10
66.61489263653971
 20
33.2
 30
0.0
 11
66.33442430956233
 21
33.2
 31
0.0
  0
LINE
  5
7ED
330
19
100
AcDbEntity
  8
ZUWAKU
100
AcDbLine
 10
66.33442430956233
 20
27.60000000000001
 30
0.0
 11
66.61489263653971
 21
27.60000000000001
 31
0.0
  0
ARC
  5
7EE
330
19
100
AcDbEntity
  8
ZUWAKU
100
AcDbCircle
 10
66.33442430956233
 20
34.25000000000002
 30
0.0
 40
1.049999999999999
100
AcDbArc
 50
180.0
 51
270.0
  0
LINE
  5
7EF
330
19
100
AcDbEntity
  8
ZUWAKU
100
AcDbLine
 10
60.7344243095622
 20
14.30000000000001
 30
0.0
 11
64.2344243095622
 21
14.30000000000001
 31
0.0
  0
ARC
  5
7F0
330
19
100
AcDbEntity
  8
ZUWAKU
100
AcDbCircle
 10
64.2344243095622
 20
15.35000000000001
 30
0.0
 40
1.049999999999999
100
AcDbArc
 50
270.0
 51
0.0
  0
LINE
  5
7F1
330
19
100
AcDbEntity
  8
ZUWAKU
100
AcDbLine
 10
65.28442430956238
 20
15.35000000000001
 30
0.0
 11
65.28442430956238
 21
26.55000000000001
 31
0.0
  0
LINE
  5
7F2
330
19
100
AcDbEntity
  8
ZUWAKU
100
AcDbLine
 10
54.78442430956238
 20
18.85000000000001
 30
0.0
 11
54.78442430956238
 21
15.35000000000001
 31
0.0
  0
ARC
  5
7F3
330
19
100
AcDbEntity
  8
ZUWAKU
100
AcDbCircle
 10
53.7344243095622
 20
15.35000000000001
 30
0.0
 40
1.049999999999999
100
AcDbArc
 50
270.0
 51
0.0
  0
ARC
  5
7F4
330
19
100
AcDbEntity
  8
ZUWAKU
100
AcDbCircle
 10
53.7344243095622
 20
18.85000000000001
 30
0.0
 40
1.049999999999999
100
AcDbArc
 50
0.0
 51
90.0
  0
ARC
  5
7F5
330
19
100
AcDbEntity
  8
ZUWAKU
100
AcDbCircle
 10
60.7344243095622
 20
15.35000000000001
 30
0.0
 40
1.049999999999999
100
AcDbArc
 50
180.0
 51
270.0
  0
ARC
  5
7F6
330
19
100
AcDbEntity
  8
ZUWAKU
100
AcDbCircle
 10
66.61489263653971
 20
26.55000000000001
 30
0.0
 40
1.049999999999999
100
AcDbArc
 50
17.52556837372635
 51
90.0
  0
ARC
  5
7F7
330
19
100
AcDbEntity
  8
ZUWAKU
100
AcDbCircle
 10
66.33442430956233
 20
26.55000000000001
 30
0.0
 40
1.049999999999999
100
AcDbArc
 50
90.0
 51
180.0
  0
ARC
  5
7F8
330
19
100
AcDbEntity
  8
ZUWAKU
100
AcDbCircle
 10
82.43442430956225
 20
15.35000000000001
 30
0.0
 40
1.049999999999999
100
AcDbArc
 50
180.0
 51
270.0
  0
LINE
  5
7F9
330
19
100
AcDbEntity
  8
ZUWAKU
100
AcDbLine
 10
72.35395598258492
 20
14.30000000000001
 30
0.0
 11
75.75173474180292
 21
14.30000000000001
 31
0.0
  0
ARC
  5
7FA
330
19
100
AcDbEntity
  8
ZUWAKU
100
AcDbCircle
 10
75.75173474180292
 20
15.35000000000001
 30
0.0
 40
1.049999999999999
100
AcDbArc
 50
270.0
 51
17.52556837372635
  0
LINE
  5
7FB
330
19
100
AcDbEntity
  8
ZUWAKU
100
AcDbLine
 10
76.75299654019386
 20
15.66618793633395
 30
0.0
 11
72.10021378324654
 21
30.40000000000005
 31
0.0
  0
ARC
  5
7FC
330
19
100
AcDbEntity
  8
ZUWAKU
100
AcDbCircle
 10
72.35395598258492
 20
15.35000000000001
 30
0.0
 40
1.049999999999999
100
AcDbArc
 50
197.5255683737263
 51
270.0
  0
ARC
  5
7FD
330
19
100
AcDbEntity
  8
ZUWAKU
100
AcDbCircle
 10
115.6844243095622
 20
19.9
 30
0.0
 40
5.599999999999999
100
AcDbArc
 50
180.0
 51
270.0
  0
ARC
  5
7FE
330
19
100
AcDbEntity
  8
ZUWAKU
100
AcDbCircle
 10
100.2844243095624
 20
19.9
 30
0.0
 40
5.599999999999999
100
AcDbArc
 50
270.0
 51
0.0
  0
LINE
  5
7FF
330
19
100
AcDbEntity
  8
ZUWAKU
100
AcDbLine
 10
103.4241212715294
 20
29.47010101267766
 30
0.0
 11
97.60452532223986
 21
35.28969696196701
 31
0.0
  0
LINE
  5
800
330
19
100
AcDbEntity
  8
ZUWAKU
100
AcDbLine
 10
100.2844243095624
 20
20.95000000000002
 30
0.0
 11
100.2844243095624
 21
23.5304040507107
 31
0.0
  0
ARC
  5
801
330
19
100
AcDbEntity
  8
ZUWAKU
100
AcDbCircle
 10
97.4844243095622
 20
23.5304040507107
 30
0.0
 40
2.799999999999999
100
AcDbArc
 50
0.0
 51
45.00000000000662
  0
ARC
  5
802
330
19
100
AcDbEntity
  8
ZUWAKU
100
AcDbCircle
 10
99.23442430956221
 20
20.95000000000002
 30
0.0
 40
1.049999999999999
100
AcDbArc
 50
270.0
 51
0.0
  0
LINE
  5
803
330
19
100
AcDbEntity
  8
ZUWAKU
100
AcDbLine
 10
92.2344243095622
 20
15.35000000000001
 30
0.0
 11
92.2344243095622
 21
18.85000000000001
 31
0.0
  0
ARC
  5
804
330
19
100
AcDbEntity
  8
ZUWAKU
100
AcDbCircle
 10
93.28442430956238
 20
15.35000000000001
 30
0.0
 40
1.049999999999999
100
AcDbArc
 50
180.0
 51
270.0
  0
ARC
  5
805
330
19
100
AcDbEntity
  8
ZUWAKU
100
AcDbCircle
 10
85.93442430956224
 20
15.35000000000001
 30
0.0
 40
1.049999999999999
100
AcDbArc
 50
270.0
 51
0.0
  0
ARC
  5
806
330
19
100
AcDbEntity
  8
ZUWAKU
100
AcDbCircle
 10
93.28442430956238
 20
18.85000000000001
 30
0.0
 40
1.049999999999999
100
AcDbArc
 50
90.0
 51
180.0
  0
LINE
  5
807
330
19
100
AcDbEntity
  8
ZUWAKU
100
AcDbLine
 10
93.28442430956238
 20
19.9
 30
0.0
 11
99.23442430956221
 21
19.9
 31
0.0
  0
LINE
  5
808
330
19
100
AcDbEntity
  8
ZUWAKU
100
AcDbLine
 10
93.28442430956238
 20
14.30000000000001
 30
0.0
 11
100.2844243095624
 21
14.30000000000001
 31
0.0
  0
LINE
  5
809
330
19
100
AcDbEntity
  8
ZUWAKU
100
AcDbLine
 10
93.64472734759534
 20
31.32989898732237
 30
0.0
 11
99.4643232968847
 21
25.51030303803305
 31
0.0
  0
LINE
  5
80A
330
19
100
AcDbEntity
  8
ZUWAKU
100
AcDbLine
 10
105.8844243095623
 20
19.9
 30
0.0
 11
105.8844243095623
 21
23.5304040507107
 31
0.0
  0
ARC
  5
80B
330
19
100
AcDbEntity
  8
ZUWAKU
100
AcDbCircle
 10
97.4844243095622
 20
23.53040405071062
 30
0.0
 40
8.399999999999998
100
AcDbArc
 50
0.0
 51
45.00000000000662
  0
ARC
  5
80C
330
19
100
AcDbEntity
  8
ZUWAKU
100
AcDbCircle
 10
117.7844243095623
 20
22.0
 30
0.0
 40
2.099999999999999
100
AcDbArc
 50
180.0
 51
270.0
  0
ARC
  5
80D
330
19
100
AcDbEntity
  8
ZUWAKU
100
AcDbCircle
 10
122.6844243095622
 20
19.9
 30
0.0
 40
5.599999999999999
100
AcDbArc
 50
270.0
 51
0.0
  0
LINE
  5
80E
330
19
100
AcDbEntity
  8
ZUWAKU
100
AcDbLine
 10
133.5344243095624
 20
14.30000000000001
 30
0.0
 11
137.0344243095624
 21
14.30000000000001
 31
0.0
  0
ARC
  5
80F
330
19
100
AcDbEntity
  8
ZUWAKU
100
AcDbCircle
 10
133.5344243095624
 20
15.35000000000001
 30
0.0
 40
1.049999999999999
100
AcDbArc
 50
180.0
 51
270.0
  0
ARC
  5
810
330
19
100
AcDbEntity
  8
ZUWAKU
100
AcDbCircle
 10
120.5844243095623
 20
22.0
 30
0.0
 40
2.099999999999999
100
AcDbArc
 50
270.0
 51
0.0
  0
ARC
  5
811
330
19
100
AcDbEntity
  8
ZUWAKU
100
AcDbCircle
 10
137.0344243095624
 20
15.35000000000001
 30
0.0
 40
1.049999999999999
100
AcDbArc
 50
270.0
 51
0.0
  0
LINE
  5
812
330
19
100
AcDbEntity
  8
ZUWAKU
100
AcDbLine
 10
85.93442430956224
 20
46.50000000000001
 30
0.0
 11
82.43442430956225
 21
46.50000000000001
 31
0.0
  0
ARC
  5
813
330
19
100
AcDbEntity
  8
ZUWAKU
100
AcDbCircle
 10
64.2344243095622
 20
45.45
 30
0.0
 40
1.049999999999999
100
AcDbArc
 50
0.0
 51
90.0
  0
LINE
  5
814
330
19
100
AcDbEntity
  8
ZUWAKU
100
AcDbLine
 10
64.2344243095622
 20
46.50000000000001
 30
0.0
 11
60.7344243095622
 21
46.50000000000001
 31
0.0
  0
ARC
  5
815
330
19
100
AcDbEntity
  8
ZUWAKU
100
AcDbCircle
 10
53.7344243095622
 20
45.45
 30
0.0
 40
1.049999999999999
100
AcDbArc
 50
0.0
 51
90.0
  0
ARC
  5
816
330
19
100
AcDbEntity
  8
ZUWAKU
100
AcDbCircle
 10
60.7344243095622
 20
45.45
 30
0.0
 40
1.049999999999999
100
AcDbArc
 50
90.0
 51
180.0
  0
ARC
  5
817
330
19
100
AcDbEntity
  8
ZUWAKU
100
AcDbCircle
 10
53.7344243095622
 20
41.95
 30
0.0
 40
1.049999999999999
100
AcDbArc
 50
270.0
 51
0.0
  0
LINE
  5
818
330
19
100
AcDbEntity
  8
ZUWAKU
100
AcDbLine
 10
54.78442430956238
 20
45.45
 30
0.0
 11
54.78442430956238
 21
41.95
 31
0.0
  0
ARC
  5
819
330
19
100
AcDbEntity
  8
ZUWAKU
100
AcDbCircle
 10
82.43442430956225
 20
45.45
 30
0.0
 40
1.049999999999999
100
AcDbArc
 50
90.0
 51
180.0
  0
LINE
  5
81A
330
19
100
AcDbEntity
  8
ZUWAKU
100
AcDbLine
 10
72.35395598258492
 20
46.50000000000001
 30
0.0
 11
75.75173474180292
 21
46.50000000000001
 31
0.0
  0
ARC
  5
81B
330
19
100
AcDbEntity
  8
ZUWAKU
100
AcDbCircle
 10
75.75173474180292
 20
45.45
 30
0.0
 40
1.049999999999999
100
AcDbArc
 50
342.4744316262735
 51
90.0
  0
LINE
  5
81C
330
19
100
AcDbEntity
  8
ZUWAKU
100
AcDbLine
 10
76.75299654019386
 20
45.13381206366607
 30
0.0
 11
74.62971727391823
 21
38.41009438712686
 31
0.0
  0
ARC
  5
81D
330
19
100
AcDbEntity
  8
ZUWAKU
100
AcDbCircle
 10
72.35395598258492
 20
45.45
 30
0.0
 40
1.049999999999999
100
AcDbArc
 50
90.0
 51
162.4744316262734
  0
LINE
  5
81E
330
19
100
AcDbEntity
  8
ZUWAKU
100
AcDbLine
 10
96.78442430956238
 20
46.50000000000001
 30
0.0
 11
103.7844243095624
 21
46.50000000000001
 31
0.0
  0
LINE
  5
81F
330
19
100
AcDbEntity
  8
ZUWAKU
100
AcDbLine
 10
103.7844243095624
 20
40.9
 30
0.0
 11
97.83442430956235
 21
40.9
 31
0.0
  0
ARC
  5
820
330
19
100
AcDbEntity
  8
ZUWAKU
100
AcDbCircle
 10
97.83442430956235
 20
39.85000000000001
 30
0.0
 40
1.049999999999999
100
AcDbArc
 50
90.0
 51
180.0
  0
LINE
  5
821
330
19
100
AcDbEntity
  8
ZUWAKU
100
AcDbLine
 10
96.78442430956238
 20
39.85000000000001
 30
0.0
 11
96.78442430956238
 21
37.26959594928933
 31
0.0
  0
ARC
  5
822
330
19
100
AcDbEntity
  8
ZUWAKU
100
AcDbCircle
 10
85.93442430956224
 20
45.45
 30
0.0
 40
1.049999999999999
100
AcDbArc
 50
0.0
 51
90.0
  0
LINE
  5
823
330
19
100
AcDbEntity
  8
ZUWAKU
100
AcDbLine
 10
91.18442430956225
 20
40.9
 30
0.0
 11
91.18442430956225
 21
37.26959594928933
 31
0.0
  0
ARC
  5
824
330
19
100
AcDbEntity
  8
ZUWAKU
100
AcDbCircle
 10
96.78442430956238
 20
40.9
 30
0.0
 40
5.599999999999999
100
AcDbArc
 50
90.0
 51
180.0
  0
ARC
  5
825
330
19
100
AcDbEntity
  8
ZUWAKU
100
AcDbCircle
 10
114.6344243095623
 20
45.45
 30
0.0
 40
1.049999999999999
100
AcDbArc
 50
0.0
 51
90.0
  0
ARC
  5
826
330
19
100
AcDbEntity
  8
ZUWAKU
100
AcDbCircle
 10
111.1344243095623
 20
45.45
 30
0.0
 40
1.049999999999999
100
AcDbArc
 50
90.0
 51
180.0
  0
LINE
  5
827
330
19
100
AcDbEntity
  8
ZUWAKU
100
AcDbLine
 10
114.6344243095623
 20
46.50000000000001
 30
0.0
 11
111.1344243095623
 21
46.50000000000001
 31
0.0
  0
ARC
  5
828
330
19
100
AcDbEntity
  8
ZUWAKU
100
AcDbCircle
 10
103.7844243095624
 20
45.45
 30
0.0
 40
1.049999999999999
100
AcDbArc
 50
0.0
 51
90.0
  0
ARC
  5
829
330
19
100
AcDbEntity
  8
ZUWAKU
100
AcDbCircle
 10
103.7844243095624
 20
41.95
 30
0.0
 40
1.049999999999999
100
AcDbArc
 50
270.0
 51
0.0
  0
LINE
  5
82A
330
19
100
AcDbEntity
  8
ZUWAKU
100
AcDbLine
 10
104.8344243095623
 20
45.45
 30
0.0
 11
104.8344243095623
 21
41.95
 31
0.0
  0
LINE
  5
82B
330
19
100
AcDbEntity
  8
ZUWAKU
100
AcDbLine
 10
137.0344243095624
 20
46.50000000000001
 30
0.0
 11
133.5344243095624
 21
46.50000000000001
 31
0.0
  0
ARC
  5
82C
330
19
100
AcDbEntity
  8
ZUWAKU
100
AcDbCircle
 10
133.5344243095624
 20
45.45
 30
0.0
 40
1.049999999999999
100
AcDbArc
 50
90.0
 51
180.0
  0
ARC
  5
82D
330
19
100
AcDbEntity
  8
ZUWAKU
100
AcDbCircle
 10
127.2344243095622
 20
45.45
 30
0.0
 40
1.049999999999999
100
AcDbArc
 50
0.0
 51
90.0
  0
LINE
  5
82E
330
19
100
AcDbEntity
  8
ZUWAKU
100
AcDbLine
 10
127.2344243095622
 20
46.50000000000001
 30
0.0
 11
123.7344243095622
 21
46.50000000000001
 31
0.0
  0
ARC
  5
82F
330
19
100
AcDbEntity
  8
ZUWAKU
100
AcDbCircle
 10
123.7344243095622
 20
45.45
 30
0.0
 40
1.049999999999999
100
AcDbArc
 50
90.0
 51
180.0
  0
ARC
  5
830
330
19
100
AcDbEntity
  8
ZUWAKU
100
AcDbCircle
 10
137.0344243095624
 20
45.45
 30
0.0
 40
1.049999999999999
100
AcDbArc
 50
0.0
 51
90.0
  0
LINE
  5
832
330
19
100
AcDbEntity
  8
ZUWAKU
100
AcDbLine
 10
416.4932025801358
 20
60.0
 30
0.0
 11
416.4932025801358
 21
1.600000000000136
 31
0.0
  0
LINE
  5
833
330
19
100
AcDbEntity
  8
ZUWAKU
100
AcDbLine
 10
417.2932025801356
 20
60.0
 30
0.0
 11
417.293202580136
 21
1.600000000000136
 31
0.0
  0
LINE
  5
834
330
19
100
AcDbEntity
  8
ZUWAKU
100
AcDbLine
 10
416.8932025801354
 20
60.0
 30
0.0
 11
416.8932025801359
 21
1.600000000000136
 31
0.0
  0
TEXT
  5
835
330
19
100
AcDbEntity
  8
ZUWAKU
100
AcDbText
 10
419.448092624555
 20
19.31071307677123
 30
0.0
 40
8.0
  1
サイズ
 41
0.9
  7
ｽﾀｲﾙ1
100
AcDbText
  0
TEXT
  5
836
330
19
100
AcDbEntity
  8
moji
100
AcDbText
 10
479.8105477316953
 20
6.954553968678396
 30
0.0
 40
11.2
  1
１０５（Ｈ－５０）－Ｌ１０００
 41
0.9
  7
ｽﾀｲﾙ1
100
AcDbText
  0
TEXT
  5
837
330
19
100
AcDbEntity
  8
ZUWAKU
100
AcDbText
 10
419.4480926245546
 20
48.11071307677116
 30
0.0
 40
8.0
  1
品名
 41
0.9
  7
ｽﾀｲﾙ1
100
AcDbText
  0
LINE
  5
9A0
330
19
100
AcDbEntity
  8
ZUWAKU
100
AcDbLine
 10
1297.634405020408
 20
30.40000000000006
 30
0.0
 11
1394.498021097082
 21
30.40000000000007
 31
0.0
  0
LINE
  5
9A1
330
19
100
AcDbEntity
  8
ZUWAKU
100
AcDbLine
 10
1297.634405020409
 20
30.80000000000008
 30
0.0
 11
1394.498021097082
 21
30.80000000000007
 31
0.0
  0
LINE
  5
9A2
330
19
100
AcDbEntity
  8
ZUWAKU
100
AcDbLine
 10
1297.634405020408
 20
31.20000000000007
 30
0.0
 11
1394.498021097082
 21
31.20000000000007
 31
0.0
  0
TEXT
  5
9A3
330
19
100
AcDbEntity
  8
ZUWAKU
100
AcDbText
 10
1316.407875374605
 20
36.00984211481478
 30
0.0
 40
11.2
  1
　　．　　．　　
 41
0.9
  7
ｽﾀｲﾙ1
100
AcDbText
  0
LINE
  5
9A6
330
19
100
AcDbEntity
  8
ZUWAKU
100
AcDbLine
 10
1010.398358996281
 20
30.40000000000008
 30
0.0
 11
1105.053911532225
 21
30.40000000000008
 31
0.0
  0
LINE
  5
9A7
330
19
100
AcDbEntity
  8
ZUWAKU
100
AcDbLine
 10
1010.398358996281
 20
30.80000000000007
 30
0.0
 11
1105.053911532225
 21
30.80000000000007
 31
0.0
  0
LINE
  5
9A8
330
19
100
AcDbEntity
  8
ZUWAKU
100
AcDbLine
 10
1010.398358996281
 20
31.20000000000007
 30
0.0
 11
1105.053911532225
 21
31.20000000000007
 31
0.0
  0
LINE
  5
9A9
330
19
100
AcDbEntity
  8
ZUWAKU
100
AcDbLine
 10
895.2487279419825
 20
60.0
 30
0.0
 11
895.2487279419829
 21
1.600000000000136
 31
0.0
  0
LINE
  5
9AA
330
19
100
AcDbEntity
  8
ZUWAKU
100
AcDbLine
 10
895.6487279419825
 20
60.0
 30
0.0
 11
895.648727941983
 21
1.600000000000136
 31
0.0
  0
LINE
  5
9AB
330
19
100
AcDbEntity
  8
ZUWAKU
100
AcDbLine
 10
894.8487279419827
 20
60.0
 30
0.0
 11
894.8487279419827
 21
1.600000000000136
 31
0.0
  0
TEXT
  5
9AC
330
19
100
AcDbEntity
  8
moji
100
AcDbText
 10
1056.081815944626
 20
36.00984211481478
 30
0.0
 40
11.2
  1
Ａ３
 41
0.9
  7
ｽﾀｲﾙ1
100
AcDbText
  0
LINE
  5
9AD
330
19
100
AcDbEntity
  8
ZUWAKU
100
AcDbLine
 10
1009.998358996281
 20
60.0
 30
0.0
 11
1009.998358996282
 21
1.600000000000136
 31
0.0
  0
LINE
  5
9AE
330
19
100
AcDbEntity
  8
ZUWAKU
100
AcDbLine
 10
1010.398358996281
 20
60.0
 30
0.0
 11
1010.398358996282
 21
1.600000000000136
 31
0.0
  0
LINE
  5
9AF
330
19
100
AcDbEntity
  8
ZUWAKU
100
AcDbLine
 10
1009.598358996282
 20
60.0
 30
0.0
 11
1009.598358996282
 21
1.600000000000136
 31
0.0
  0
TEXT
  5
9B0
330
19
100
AcDbEntity
  8
moji
100
AcDbText
 10
926.4928639820041
 20
23.88523544331997
 30
0.0
 40
11.2
  1
ＧＡ５３□
 41
0.9
  7
ｽﾀｲﾙ1
100
AcDbText
  0
TEXT
  5
9B1
330
19
100
AcDbEntity
  8
ZUWAKU
100
AcDbText
 10
928.2362869200955
 20
5.228141822278985
 30
0.0
 40
6.0
  1
□には色品番が入ります
 41
0.9
  7
ｽﾀｲﾙ1
100
AcDbText
  0
TEXT
  5
9B2
330
19
100
AcDbEntity
  8
ZUWAKU
100
AcDbText
 10
1013.353249040701
 20
19.31071307677123
 30
0.0
 40
8.0
  1
縮尺
 41
0.9
  7
ｽﾀｲﾙ1
100
AcDbText
  0
TEXT
  5
9B3
330
19
100
AcDbEntity
  8
moji
100
AcDbText
 10
1056.081815944626
 20
6.409842114814843
 30
0.0
 40
11.2
  1
１/４
 41
0.9
  7
ｽﾀｲﾙ1
100
AcDbText
  0
TEXT
  5
9B4
330
19
100
AcDbEntity
  8
ZUWAKU
100
AcDbText
 10
898.6036179864017
 20
48.11071307677116
 30
0.0
 40
8.0
  1
品番
 41
0.9
  7
ｽﾀｲﾙ1
100
AcDbText
  0
TEXT
  5
9B5
330
19
100
AcDbEntity
  8
ZUWAKU
100
AcDbText
 10
1013.353249040701
 20
48.11071307677116
 30
0.0
 40
8.0
  1
用紙
 41
0.9
  7
ｽﾀｲﾙ1
100
AcDbText
  0
LINE
  5
9B6
330
19
100
AcDbEntity
  8
ZUWAKU
100
AcDbLine
 10
1297.234405020408
 20
60.0
 30
0.0
 11
1297.234405020409
 21
1.600000000000136
 31
0.0
  0
LINE
  5
9B7
330
19
100
AcDbEntity
  8
ZUWAKU
100
AcDbLine
 10
1297.634405020409
 20
60.0
 30
0.0
 11
1297.634405020409
 21
1.600000000000136
 31
0.0
  0
LINE
  5
9B8
330
19
100
AcDbEntity
  8
ZUWAKU
100
AcDbLine
 10
1296.834405020409
 20
60.0
 30
0.0
 11
1296.834405020409
 21
1.600000000000136
 31
0.0
  0
LINE
  5
9B9
330
19
100
AcDbEntity
  8
ZUWAKU
100
AcDbLine
 10
1105.453911532224
 20
60.0
 30
0.0
 11
1105.453911532225
 21
1.600000000000136
 31
0.0
  0
LINE
  5
9BA
330
19
100
AcDbEntity
  8
ZUWAKU
100
AcDbLine
 10
1105.853911532224
 20
60.0
 30
0.0
 11
1105.853911532225
 21
1.600000000000136
 31
0.0
  0
LINE
  5
9BB
330
19
100
AcDbEntity
  8
ZUWAKU
100
AcDbLine
 10
1105.053911532225
 20
60.0
 30
0.0
 11
1105.053911532225
 21
1.600000000000136
 31
0.0
  0
TEXT
  5
9BC
330
19
100
AcDbEntity
  8
ZUWAKU
100
AcDbText
 10
1300.589295064828
 20
48.11071307677116
 30
0.0
 40
8.0
  1
DATE
 41
0.9
  7
ｽﾀｲﾙ1
100
AcDbText
  0
LINE
  5
9FB
330
19
100
AcDbEntity
  8
ZUWAKU
100
AcDbLine
 10
1394.498021097082
 20
60.0
 30
0.0
 11
1394.498021097082
 21
1.600000000000136
 31
0.0
  0
LINE
  5
9FC
330
19
100
AcDbEntity
  8
ZUWAKU
100
AcDbLine
 10
1394.898021097082
 20
60.0
 30
0.0
 11
1394.898021097082
 21
1.600000000000136
 31
0.0
  0
LINE
  5
9FD
330
19
100
AcDbEntity
  8
ZUWAKU
100
AcDbLine
 10
1395.298021097082
 20
60.0
 30
0.0
 11
1395.298021097082
 21
1.600000000000136
 31
0.0
  0
LINE
  5
9FE
330
19
100
AcDbEntity
  8
ZUWAKU
100
AcDbLine
 10
1395.698021097082
 20
60.0
 30
0.0
 11
1395.698021097083
 21
1.600000000000136
 31
0.0
  0
TEXT
  5
9FF
330
19
100
AcDbEntity
  8
ZUWAKU
100
AcDbText
 10
1417.056168384488
 20
24.70767867137361
 30
0.0
 40
12.0
  1
積水化学工業株式会社
 41
0.9
  7
ｽﾀｲﾙ1
100
AcDbText
  0
TEXT
  5
C5C
330
19
100
AcDbEntity
  8
moji
100
AcDbText
 10
479.9095280991436
 20
37.65861417743554
 30
0.0
 40
11.2
  1
テリとい　Ⅰ型
 41
0.9
  7
ｽﾀｲﾙ1
100
AcDbText
  0
ARC
  5
D7F
330
19
100
AcDbEntity
  8
SEIHIN
100
AcDbCircle
 10
687.2186910737213
 20
7654.293269787576
 30
0.0
 40
7000.0
100
AcDbArc
 50
265.9040665238636
 51
274.0960437581524
  0
ARC
  5
E17
330
19
100
AcDbEntity
  8
SEIHIN
100
AcDbCircle
 10
687.2186910737213
 20
7654.293269787576
 30
0.0
 40
6958.7
100
AcDbArc
 50
265.9039562418477
 51
274.097999841207
  0
ARC
  5
E18
330
19
100
AcDbEntity
  8
SEIHIN
100
AcDbCircle
 10
687.2186910737213
 20
7654.293269787576
 30
0.0
 40
6950.700000000001
100
AcDbArc
 50
265.9017303154968
 51
274.0983814310208
  0
LINE
  5
E19
330
19
100
AcDbEntity
  8
SEIHIN
100
AcDbLine
 10
1183.98012689646
 20
721.3675839115658
 30
0.0
 11
1187.21869107372
 21
672.1732479031041
 31
0.0
  0
LINE
  5
E38
330
19
100
AcDbEntity
  8
SEIHIN
100
AcDbLine
 10
190.4707768465195
 20
721.3666150687377
 30
0.0
 11
187.2321301495308
 21
672.1722855238957
 31
0.0
  0
LINE
  5
E7B
330
19
100
AcDbEntity
  8
CENTER L
  6
CENTER
 62
     1
 48
3.5
100
AcDbLine
 10
687.2251869831252
 20
451.6528410235107
 30
0.0
 11
687.2249708706206
 21
324.1298946757536
 31
0.0
  0
ARC
  5
EFD
330
19
100
AcDbEntity
  8
SEIHIN
100
AcDbCircle
 10
687.2520978541151
 20
8331.129894629802
 30
0.0
 40
7992.0
100
AcDbArc
 50
266.4160060423165
 51
269.9998057050573
  0
ARC
  5
EFE
330
19
100
AcDbEntity
  8
SEIHIN
100
AcDbCircle
 10
687.2520978541151
 20
8331.129894629802
 30
0.0
 40
8000.0
100
AcDbArc
 50
266.416529252742
 51
269.9998058022534
  0
ARC
  5
F00
330
19
100
AcDbEntity
  8
SEIHIN
100
AcDbCircle
 10
687.2520978541151
 20
8331.129894629802
 30
0.0
 40
7894.5
100
AcDbArc
 50
266.4095441960963
 51
269.9998045046498
  0
ARC
  5
F01
330
19
100
AcDbEntity
  8
SEIHIN
100
AcDbCircle
 10
687.2520978541151
 20
8331.129894629802
 30
0.0
 40
7886.499999999999
100
AcDbArc
 50
266.4090069003508
 51
269.9998044048373
  0
ARC
  5
F36
330
19
100
AcDbEntity
  8
SEIHIN
  6
Continuous
 62
     3
 48
32.0
100
AcDbCircle
 10
1366.688510445976
 20
699.5930119547199
 30
0.0
 40
4.000337396008884
100
AcDbArc
 50
148.5353908968203
 51
185.4113437182981
  0
ARC
  5
F37
330
19
100
AcDbEntity
  8
SEIHIN
  6
Continuous
 62
     3
 48
32.0
100
AcDbCircle
 10
1366.68842227119
 20
699.5932429200763
 30
0.0
 40
4.000271402569784
100
AcDbArc
 50
185.4147561863415
 51
319.2524902302544
  0
ARC
  5
F3A
330
19
100
AcDbEntity
  8
SEIHIN
  6
Continuous
 62
     3
 48
32.0
100
AcDbCircle
 10
1419.450001718568
 20
704.5930584651751
 30
0.0
 40
50.29990349245178
100
AcDbArc
 50
188.6895016979074
 51
336.911079567193
  0
ARC
  5
F3B
330
19
100
AcDbEntity
  8
SEIHIN
  6
Continuous
 62
     3
 48
32.0
100
AcDbCircle
 10
1472.212103136349
 20
699.5931226170778
 30
0.0
 40
3.9999302378369
100
AcDbArc
 50
137.6428539320692
 51
174.5883576665707
  0
LINE
  5
F40
330
19
100
AcDbEntity
  8
CENTER L
100
AcDbLine
 10
1419.557475790969
 20
649.7502894462447
 30
0.0
 11
1419.557475790969
 21
665.0501369730318
 31
0.0
  0
LINE
  5
F41
330
19
100
AcDbEntity
  8
SEIHIN
  6
Continuous
 62
     3
 48
32.0
100
AcDbLine
 10
1376.065179332491
 20
719.2691769625165
 30
0.0
 11
1363.276371689351
 21
701.6810752649308
 31
0.0
  0
LINE
  5
F42
330
19
100
AcDbEntity
  8
SEIHIN
  6
Continuous
 62
     3
 48
32.0
100
AcDbLine
 10
1488.378133245837
 20
715.2496213223691
 30
0.0
 11
1476.774320925154
 21
699.04593198288
 31
0.0
  0
ARC
  5
F43
330
19
100
AcDbEntity
  8
SEIHIN
  6
Continuous
 62
     3
 48
32.0
100
AcDbCircle
 10
1419.450506039819
 20
704.5930584642571
 30
0.0
 40
49.00005596297584
100
AcDbArc
 50
337.2502904926632
 51
354.5863903198354
  0
DIMENSION
  5
F4E
330
19
100
AcDbEntity
  8
SUNPOU
100
AcDbDimension
  2
*D8
 10
788.3151394322994
 20
444.6298946757551
 30
0.0
 11
788.3151394322993
 21
508.1359130039272
 31
0.0
 70
   160
  1
16
 71
     5
 42
15.48442174629042
  3
STANDARD
100
AcDbAlignedDimension
 13
193.2925675170268
 23
460.1143164220457
 33
0.0
 14
687.2251750813797
 24
444.6298946757551
 34
0.0
 50
90.0
100
AcDbRotatedDimension
1001
ACAD
1000
DSTYLE
1002
{
1070
    41
1040
14.0
1070
    42
1040
12.0
1070
    43
1040
28.0
1070
    44
1040
6.0
1070
    73
1070
     0
1070
    74
1070
     0
1070
    77
1070
     3
1070
   140
1040
12.0
1070
   141
1040
150.0
1070
   143
1040
0.03937
1070
   147
1040
4.0
1070
   172
1070
     1
1070
   173
1070
     1
1070
   176
1070
   256
1070
   177
1070
   256
1070
   178
1070
   256
1070
   271
1070
     1
1070
   272
1070
     0
1070
   341
1005
27
1070
   343
1005
27
1070
   344
1005
27
1070
   371
1070
    -1
1070
   372
1070
    -1
1002
}
  0
ARC
  5
F90
330
19
100
AcDbEntity
  8
CENTER L
  6
CENTER
 62
     1
 48
3.5
100
AcDbCircle
 10
687.2249827334928
 20
8331.129894675752
 30
0.0
 40
7943.0
100
AcDbArc
 50
266.366650166119
 51
273.6439189276911
  0
LINE
  5
FA8
330
19
100
AcDbEntity
  8
SEIHIN
100
AcDbLine
 10
193.2919836444785
 20
460.1143530640247
 30
0.0
 11
187.2313274058276
 21
346.7714840171912
 31
0.0
  0
LINE
  5
FE0
330
19
100
AcDbEntity
  8
SEIHIN
100
AcDbLine
 10
1181.158418998299
 20
460.1126789316768
 30
0.0
 11
1187.21869107372
 21
346.7697893435661
 31
0.0
  0
ARC
  5
FE1
330
19
100
AcDbEntity
  8
SEIHIN
100
AcDbCircle
 10
687.2249827334926
 20
8331.129894675752
 30
0.0
 40
8000.0
100
AcDbArc
 50
270.0
 51
273.5832765495114
  0
ARC
  5
FE2
330
19
100
AcDbEntity
  8
SEIHIN
100
AcDbCircle
 10
687.2249827334926
 20
8331.129894675752
 30
0.0
 40
7992.0
100
AcDbArc
 50
270.000000097196
 51
273.5837997599368
  0
ARC
  5
FE3
330
19
100
AcDbEntity
  8
SEIHIN
100
AcDbCircle
 10
687.2249827334926
 20
8331.129894675752
 30
0.0
 40
7886.499999999999
100
AcDbArc
 50
270.000001397416
 51
273.5907989019024
  0
ARC
  5
FE4
330
19
100
AcDbEntity
  8
SEIHIN
100
AcDbCircle
 10
687.2249827334926
 20
8331.129894675752
 30
0.0
 40
7894.5
100
AcDbArc
 50
270.0000012976035
 51
273.5902616061571
  0
VIEWPORT
  5
22
102
{ACAD_XDICTIONARY
360
1034
102
}
330
16
100
AcDbEntity
 67
     1
  8
0
100
AcDbViewport
 10
313.6808219178083
 20
148.5
 30
0.0
 40
627.3616438356165
 41
297.0
 68
     2
 69
     1
 12
313.6808219178083
 22
148.5
 13
0.0
 23
0.0
 14
10.0
 24
10.0
 15
10.0
 25
10.0
 16
0.0
 26
0.0
 36
1.0
 17
0.0
 27
0.0
 37
0.0
 42
50.0
 43
0.0
 44
0.0
 45
297.0
 50
0.0
 51
0.0
 72
   100
 90
    32768
  1

281
     0
 71
     1
 74
     0
110
0.0
120
0.0
130
0.0
111
1.0
121
0.0
131
0.0
112
0.0
122
1.0
132
0.0
 79
     0
146
0.0
  0
VIEWPORT
  5
25
102
{ACAD_XDICTIONARY
360
1036
102
}
330
16
100
AcDbEntity
 67
     1
  8
VIEWPORT
100
AcDbViewport
 10
210.0
 20
148.5
 30
0.0
 40
420.0
 41
297.0
 68
     1
 69
     2
 12
841.0
 22
594.0
 13
0.0
 23
0.0
 14
57.0
 24
57.0
 15
57.0
 25
57.0
 16
0.0
 26
0.0
 36
1.0
 17
0.0
 27
0.0
 37
0.0
 42
50.0
 43
0.0
 44
0.0
 45
1212.607689320388
 50
0.0
 51
0.0
 72
   100
 90
    32768
  1

281
     0
 71
     1
 74
     0
110
0.0
120
0.0
130
0.0
111
1.0
121
0.0
131
0.0
112
0.0
122
1.0
132
0.0
 79
     0
146
0.0
  0
ENDSEC
  0
SECTION
  2
OBJECTS
  0
DICTIONARY
  5
C
330
0
100
AcDbDictionary
281
     1
  3
ACAD_COLOR
350
D1E
  3
ACAD_GROUP
350
D
  3
ACAD_LAYOUT
350
27F
  3
ACAD_MATERIAL
350
D1D
  3
ACAD_MLINESTYLE
350
E
  3
ACAD_PLOTSETTINGS
350
280
  3
ACAD_PLOTSTYLENAME
350
27D
  3
ACDBHEADERROUNDTRIPXREC
350
1031
  3
AcDbVariableDictionary
350
1021
  0
DICTIONARY
  5
2AE
330
19
100
AcDbDictionary
280
     1
281
     1
  3
ACAD_LAYOUTSELFREF
360
CFA
  0
DICTIONARY
  5
2AC
330
16
100
AcDbDictionary
280
     1
281
     1
  3
ACAD_LAYOUTSELFREF
360
CF9
  0
DICTIONARY
  5
1034
330
22
100
AcDbDictionary
280
     1
281
     1
  3
ACAD_XREC_ROUNDTRIP
360
1035
  0
DICTIONARY
  5
1036
330
25
100
AcDbDictionary
280
     1
281
     1
  3
ACAD_XREC_ROUNDTRIP
360
1037
  0
DICTIONARY
  5
D1E
102
{ACAD_REACTORS
330
C
102
}
330
C
100
AcDbDictionary
281
     1
  0
DICTIONARY
  5
D
102
{ACAD_REACTORS
330
C
102
}
330
C
100
AcDbDictionary
281
     1
  3
*A1
350
F34
  0
DICTIONARY
  5
27F
102
{ACAD_REACTORS
330
C
102
}
330
C
100
AcDbDictionary
281
     1
  3
Model
350
281
  3
ﾚｲｱｳﾄ1
350
282
  0
DICTIONARY
  5
D1D
102
{ACAD_REACTORS
330
C
102
}
330
C
100
AcDbDictionary
281
     1
  0
DICTIONARY
  5
E
102
{ACAD_REACTORS
330
C
102
}
330
C
100
AcDbDictionary
281
     1
  3
STANDARD
350
1C
  0
DICTIONARY
  5
280
102
{ACAD_REACTORS
330
C
102
}
330
C
100
AcDbDictionary
281
     1
  0
ACDBDICTIONARYWDFLT
  5
27D
102
{ACAD_REACTORS
330
C
102
}
330
C
100
AcDbDictionary
281
     1
  3
Normal
350
27E
100
AcDbDictionaryWithDefault
340
27E
1001
ACAD
1000
TREAT_AS_HARD
1070
     0
1000
TREAT_AS_HARD
1070
     0
1000
TREAT_AS_HARD
1070
     0
  0
DICTIONARY
  5
1031
102
{ACAD_REACTORS
330
C
102
}
330
C
100
AcDbDictionary
281
     1
  3
COLORDICT
350
1033
  3
MATERIALDICT
350
1032
  0
DICTIONARY
  5
1021
102
{ACAD_REACTORS
330
C
102
}
330
C
100
AcDbDictionary
281
     1
  3
DIMASSOC
350
1022
  3
PROJECTNAME
350
1023
  0
XRECORD
  5
CFA
102
{ACAD_REACTORS
330
2AE
102
}
330
2AE
100
AcDbXrecord
280
     1
340
19
  0
XRECORD
  5
CF9
102
{ACAD_REACTORS
330
2AC
102
}
330
2AC
100
AcDbXrecord
280
     1
340
16
  0
XRECORD
  5
1035
102
{ACAD_REACTORS
330
1034
102
}
330
1034
100
AcDbXrecord
280
     1
102
SHADEPLOT
 70
     0
  0
XRECORD
  5
1037
102
{ACAD_REACTORS
330
1036
102
}
330
1036
100
AcDbXrecord
280
     1
102
SHADEPLOT
 70
     0
  0
GROUP
  5
F34
102
{ACAD_REACTORS
330
D
102
}
330
D
100
AcDbGroup
300

 70
     1
 71
     1
  0
LAYOUT
  5
281
102
{ACAD_XDICTIONARY
360
1038
102
}
102
{ACAD_REACTORS
330
27F
102
}
330
27F
100
AcDbPlotSettings
  1

  2
CubePDF
  4
A3
  6

 40
3.174999952316284
 41
3.174999952316284
 42
3.17498779296875
 43
3.17498779296875
 44
297.0530090332031
 45
420.1583251953125
 46
7.37
 47
7.48
 48
0.0
 49
0.0
140
0.0
141
0.0
142
1.0
143
4.0
 70
 11956
 72
     1
 73
     1
 74
     1
  7
monochrome.ctb
 75
    18
147
0.25
148
0.0513266502548504
149
0.2527200067052036
100
AcDbLayout
  1
Model
 70
     1
 71
     0
 10
0.0
 20
0.0
 11
12.0
 21
9.0
 12
0.0
 22
0.0
 32
0.0
 14
0.0
 24
0.0
 34
0.0
 15
0.0
 25
0.0
 35
0.0
146
0.0
 13
0.0
 23
0.0
 33
0.0
 16
1.0
 26
0.0
 36
0.0
 17
0.0
 27
1.0
 37
0.0
 76
     0
330
19
  0
LAYOUT
  5
282
102
{ACAD_XDICTIONARY
360
103A
102
}
102
{ACAD_REACTORS
330
27F
102
}
330
27F
100
AcDbPlotSettings
  1

  2
Canon LBP-730 LIPS4
  4

  6

 40
0.0
 41
0.0
 42
0.0
 43
0.0
 44
0.0
 45
0.0
 46
0.0
 47
0.0
 48
0.0
 49
0.0
140
0.0
141
0.0
142
1.0
143
1.0
 70
   688
 72
     0
 73
     0
 74
     5
  7
monochrome.ctb
 75
    16
147
1.0
148
0.0
149
0.0
100
AcDbLayout
  1
ﾚｲｱｳﾄ1
 70
     1
 71
     1
 10
0.0
 20
0.0
 11
420.0
 21
297.0
 12
0.0
 22
0.0
 32
0.0
 14
0.0
 24
0.0
 34
0.0
 15
420.0
 25
297.0
 35
0.0
146
0.0
 13
0.0
 23
0.0
 33
0.0
 16
1.0
 26
0.0
 36
0.0
 17
0.0
 27
1.0
 37
0.0
 76
     0
330
16
331
25
  0
MLINESTYLE
  5
1C
102
{ACAD_REACTORS
330
E
102
}
330
E
100
AcDbMlineStyle
  2
STANDARD
 70
     0
  3

 62
     0
 51
90.0
 52
90.0
 71
     2
 49
0.5
 62
   256
  6
BYLAYER
 49
-0.5
 62
   256
  6
BYLAYER
  0
ACDBPLACEHOLDER
  5
27E
102
{ACAD_REACTORS
330
27D
102
}
330
27D
  0
XRECORD
  5
1033
102
{ACAD_REACTORS
330
1031
102
}
330
1031
100
AcDbXrecord
280
     1
340
D1E
  0
XRECORD
  5
1032
102
{ACAD_REACTORS
330
1031
102
}
330
1031
100
AcDbXrecord
280
     1
340
D1D
  0
DICTIONARYVAR
  5
1022
102
{ACAD_REACTORS
330
1021
102
}
330
1021
100
DictionaryVariables
280
     0
  1
1
  0
DICTIONARYVAR
  5
1023
102
{ACAD_REACTORS
330
1021
102
}
330
1021
100
DictionaryVariables
280
     0
  1

  0
DICTIONARY
  5
1038
330
281
100
AcDbDictionary
280
     1
281
     1
  3
ACAD_XREC_ROUNDTRIP
360
1039
  0
DICTIONARY
  5
103A
330
282
100
AcDbDictionary
280
     1
281
     1
  3
ACAD_XREC_ROUNDTRIP
360
103B
  0
XRECORD
  5
1039
102
{ACAD_REACTORS
330
1038
102
}
330
1038
100
AcDbXrecord
280
     1
102
SHADEPLOT
 70
     0
102
SHADEPLOTRESLEVEL
 70
     2
102
SHADEPLOTCUSTOMDPI
 70
   300
  0
XRECORD
  5
103B
102
{ACAD_REACTORS
330
103A
102
}
330
103A
100
AcDbXrecord
280
     1
102
SHADEPLOT
 70
     0
102
SHADEPLOTRESLEVEL
 70
     2
102
SHADEPLOTCUSTOMDPI
 70
   300
  0
ENDSEC
  0
EOF
