  0
SECTION
  2
HEADER
  9
$ACADVER
  1
AC1014
  9
$ACADMAINTVER
 70
     9
  9
$DWGCODEPAGE
  3
ANSI_932
  9
$INSBASE
 10
0.0
 20
0.0
 30
0.0
  9
$EXTMIN
 10
4.985962897755712
 20
2.438141563486055
 30
-0.0000000100021362
  9
$EXTMAX
 10
403.0297861143829
 20
282.0086066310859
 30
0.0000000100021363
  9
$LIMMIN
 10
0.0
 20
0.0
  9
$LIMMAX
 10
420.0
 20
297.0
  9
$ORTHOMODE
 70
     0
  9
$REGENMODE
 70
     1
  9
$FILLMODE
 70
     1
  9
$QTEXTMODE
 70
     0
  9
$MIRRTEXT
 70
     1
  9
$DRAGMODE
 70
     2
  9
$LTSCALE
 40
1.0
  9
$OSMODE
 70
    37
  9
$ATTMODE
 70
     1
  9
$TEXTSIZE
 40
2.5
  9
$TRACEWID
 40
1.0
  9
$TEXTSTYLE
  7
STANDARD
  9
$CLAYER
  8
CENTER_L
  9
$CELTYPE
  6
BYLAYER
  9
$CECOLOR
 62
   256
  9
$CELTSCALE
 40
1.0
  9
$DELOBJ
 70
     1
  9
$DISPSILH
 70
     0
  9
$DIMSCALE
 40
1.0
  9
$DIMASZ
 40
3.0
  9
$DIMEXO
 40
3.0
  9
$DIMDLI
 40
7.0
  9
$DIMRND
 40
0.0
  9
$DIMDLE
 40
0.0
  9
$DIMEXE
 40
1.5
  9
$DIMTP
 40
0.0
  9
$DIMTM
 40
0.0
  9
$DIMTXT
 40
3.0
  9
$DIMCEN
 40
150.0
  9
$DIMTSZ
 40
0.0
  9
$DIMTOL
 70
     0
  9
$DIMLIM
 70
     0
  9
$DIMTIH
 70
     0
  9
$DIMTOH
 70
     0
  9
$DIMSE1
 70
     0
  9
$DIMSE2
 70
     0
  9
$DIMTAD
 70
     3
  9
$DIMZIN
 70
     0
  9
$DIMBLK
  1

  9
$DIMASO
 70
     1
  9
$DIMSHO
 70
     1
  9
$DIMPOST
  1

  9
$DIMAPOST
  1

  9
$DIMALT
 70
     0
  9
$DIMALTD
 70
     2
  9
$DIMALTF
 40
25.4
  9
$DIMLFAC
 40
1.0
  9
$DIMTOFL
 70
     1
  9
$DIMTVP
 40
0.0
  9
$DIMTIX
 70
     0
  9
$DIMSOXD
 70
     0
  9
$DIMSAH
 70
     1
  9
$DIMBLK1
  1
OPEN
  9
$DIMBLK2
  1
OPEN
  9
$DIMSTYLE
  2
STANDARD
  9
$DIMCLRD
 70
   256
  9
$DIMCLRE
 70
   256
  9
$DIMCLRT
 70
   256
  9
$DIMTFAC
 40
1.0
  9
$DIMGAP
 40
1.0
  9
$DIMJUST
 70
     0
  9
$DIMSD1
 70
     0
  9
$DIMSD2
 70
     0
  9
$DIMTOLJ
 70
     1
  9
$DIMTZIN
 70
     0
  9
$DIMALTZ
 70
     0
  9
$DIMALTTZ
 70
     0
  9
$DIMFIT
 70
     3
  9
$DIMUPT
 70
     0
  9
$DIMUNIT
 70
     2
  9
$DIMDEC
 70
     0
  9
$DIMTDEC
 70
     0
  9
$DIMALTU
 70
     2
  9
$DIMALTTD
 70
     2
  9
$DIMTXSTY
  7
STANDARD
  9
$DIMAUNIT
 70
     0
  9
$LUNITS
 70
     2
  9
$LUPREC
 70
     4
  9
$SKETCHINC
 40
1.0
  9
$FILLETRAD
 40
10.0
  9
$AUNITS
 70
     0
  9
$AUPREC
 70
     0
  9
$MENU
  1
.
  9
$ELEVATION
 40
0.0
  9
$PELEVATION
 40
0.0
  9
$THICKNESS
 40
0.0
  9
$LIMCHECK
 70
     0
  9
$BLIPMODE
 70
     0
  9
$CHAMFERA
 40
10.0
  9
$CHAMFERB
 40
10.0
  9
$CHAMFERC
 40
20.0
  9
$CHAMFERD
 40
0.0
  9
$SKPOLY
 70
     0
  9
$TDCREATE
 40
2451074.915846296
  9
$TDUPDATE
 40
2454484.384853356
  9
$TDINDWG
 40
0.0089514699
  9
$TDUSRTIMER
 40
0.0089514699
  9
$USRTIMER
 70
     1
  9
$ANGBASE
 50
0.0
  9
$ANGDIR
 70
     0
  9
$PDMODE
 70
     0
  9
$PDSIZE
 40
0.0
  9
$PLINEWID
 40
0.0
  9
$COORDS
 70
     1
  9
$SPLFRAME
 70
     0
  9
$SPLINETYPE
 70
     6
  9
$SPLINESEGS
 70
     8
  9
$ATTDIA
 70
     0
  9
$ATTREQ
 70
     1
  9
$HANDLING
 70
 10241
  9
$HANDSEED
  5
4D7
  9
$SURFTAB1
 70
     6
  9
$SURFTAB2
 70
     6
  9
$SURFTYPE
 70
     6
  9
$SURFU
 70
     6
  9
$SURFV
 70
     6
  9
$UCSNAME
  2

  9
$UCSORG
 10
0.0
 20
0.0
 30
0.0
  9
$UCSXDIR
 10
1.0
 20
0.0
 30
0.0
  9
$UCSYDIR
 10
0.0
 20
1.0
 30
0.0
  9
$PUCSNAME
  2

  9
$PUCSORG
 10
0.0
 20
0.0
 30
0.0
  9
$PUCSXDIR
 10
1.0
 20
0.0
 30
0.0
  9
$PUCSYDIR
 10
0.0
 20
1.0
 30
0.0
  9
$USERI1
 70
     0
  9
$USERI2
 70
     0
  9
$USERI3
 70
     0
  9
$USERI4
 70
     0
  9
$USERI5
 70
     0
  9
$USERR1
 40
0.0
  9
$USERR2
 40
0.0
  9
$USERR3
 40
0.0
  9
$USERR4
 40
0.0
  9
$USERR5
 40
0.0
  9
$WORLDVIEW
 70
     1
  9
$SHADEDGE
 70
     3
  9
$SHADEDIF
 70
    70
  9
$TILEMODE
 70
     1
  9
$MAXACTVP
 70
    16
  9
$PINSBASE
 10
0.0
 20
0.0
 30
0.0
  9
$PLIMCHECK
 70
     0
  9
$PEXTMIN
 10
0.0
 20
0.0
 30
0.0
  9
$PEXTMAX
 10
420.0
 20
297.0
 30
0.0
  9
$PLIMMIN
 10
0.0
 20
0.0
  9
$PLIMMAX
 10
420.0
 20
297.0
  9
$UNITMODE
 70
     0
  9
$VISRETAIN
 70
     0
  9
$PLINEGEN
 70
     0
  9
$PSLTSCALE
 70
     1
  9
$TREEDEPTH
 70
  3020
  9
$PICKSTYLE
 70
     1
  9
$CMLSTYLE
  2
STANDARD
  9
$CMLJUST
 70
     0
  9
$CMLSCALE
 40
1.0
  9
$PROXYGRAPHICS
 70
     1
  9
$MEASUREMENT
 70
     1
  0
ENDSEC
  0
SECTION
  2
CLASSES
  0
CLASS
  1
ACDBDICTIONARYWDFLT
  2
AcDbDictionaryWithDefault
  3
AutoCAD 2000
 90
        0
280
     0
281
     0
  0
CLASS
  1
ACDBPLACEHOLDER
  2
AcDbPlaceHolder
  3
AutoCAD 2000
 90
        0
280
     0
281
     0
  0
CLASS
  1
LAYOUT
  2
AcDbLayout
  3
AutoCAD 2000
 90
        0
280
     0
281
     0
  0
CLASS
  1
LONG_TRANSACTION
  2
AcDbLongTransaction
  3
AutoCAD 2000
 90
        0
280
     0
281
     0
  0
CLASS
  1
LWPOLYLINE
  2
AcDbPolyline
  3
AutoCAD 2000
 90
        0
280
     0
281
     1
  0
CLASS
  1
HATCH
  2
AcDbHatch
  3
AutoCAD 2000
 90
        0
280
     0
281
     1
  0
CLASS
  1
XRECORD
  2
AcDbXrecord
  3
AutoCAD 2000
 90
        0
280
     0
281
     0
  0
CLASS
  1
LONG_TRANSACTION
  2
AcDbLongTransaction
  3
AutoCAD 2000
 90
        0
280
     0
281
     0
  0
CLASS
  1
LWPOLYLINE
  2
AcDbPolyline
  3
AutoCAD 2000
 90
        0
280
     0
281
     1
  0
CLASS
  1
HATCH
  2
AcDbHatch
  3
AutoCAD 2000
 90
        0
280
     0
281
     1
  0
CLASS
  1
XRECORD
  2
AcDbXrecord
  3
AutoCAD 2000
 90
        0
280
     0
281
     0
  0
CLASS
  1
LONG_TRANSACTION
  2
AcDbLongTransaction
  3
AutoCAD 2000
 90
        0
280
     0
281
     0
  0
CLASS
  1
LWPOLYLINE
  2
AcDbPolyline
  3
AutoCAD 2000
 90
        0
280
     0
281
     1
  0
CLASS
  1
HATCH
  2
AcDbHatch
  3
AutoCAD 2000
 90
        0
280
     0
281
     1
  0
CLASS
  1
XRECORD
  2
AcDbXrecord
  3
AutoCAD 2000
 90
        0
280
     0
281
     0
  0
ENDSEC
  0
SECTION
  2
TABLES
  0
TABLE
  2
VPORT
  5
8
330
0
100
AcDbSymbolTable
 70
     2
  0
VPORT
  5
4A8
330
8
100
AcDbSymbolTableRecord
100
AcDbViewportTableRecord
  2
*ACTIVE
 70
     0
 10
0.0
 20
0.0
 11
1.0
 21
1.0
 12
201.0153439982258
 22
156.8252521229494
 13
0.0
 23
0.0
 14
5.0
 24
5.0
 15
0.0
 25
0.0
 16
0.0
 26
0.0
 36
1.0
 17
0.0
 27
0.0
 37
0.0
 40
352.1985389272999
 41
1.570153061224489
 42
50.0
 43
0.0
 44
0.0
 50
0.0
 51
0.0
 71
     0
 72
   100
 73
     1
 74
     0
 75
     0
 76
     0
 77
     0
 78
     0
  0
ENDTAB
  0
TABLE
  2
LTYPE
  5
5
330
0
100
AcDbSymbolTable
 70
     2
  0
LTYPE
  5
14
330
5
100
AcDbSymbolTableRecord
100
AcDbLinetypeTableRecord
  2
BYBLOCK
 70
     0
  3

 72
    65
 73
     0
 40
0.0
  0
LTYPE
  5
15
330
5
100
AcDbSymbolTableRecord
100
AcDbLinetypeTableRecord
  2
BYLAYER
 70
     0
  3

 72
    65
 73
     0
 40
0.0
  0
LTYPE
  5
16
330
5
100
AcDbSymbolTableRecord
100
AcDbLinetypeTableRecord
  2
CONTINUOUS
 70
     0
  3
Solid line
 72
    65
 73
     0
 40
0.0
  0
LTYPE
  5
120
330
5
100
AcDbSymbolTableRecord
100
AcDbLinetypeTableRecord
  2
CENTER
 70
     0
  3
____ _ ____ _ ____ _ ____ _ ____ _ ____ _ ____ 
 72
    65
 73
     4
 40
2.0
 49
1.25
 74
     0
 49
-0.25
 74
     0
 49
0.25
 74
     0
 49
-0.25
 74
     0
  0
ENDTAB
  0
TABLE
  2
LAYER
  5
2
330
0
100
AcDbSymbolTable
 70
     7
  0
LAYER
  5
F
330
2
100
AcDbSymbolTableRecord
100
AcDbLayerTableRecord
  2
0
 70
     0
 62
     7
  6
CONTINUOUS
  0
LAYER
  5
62
330
2
100
AcDbSymbolTableRecord
100
AcDbLayerTableRecord
  2
VIEWPORT
 70
     0
 62
     7
  6
CONTINUOUS
  0
LAYER
  5
6B
330
2
100
AcDbSymbolTableRecord
100
AcDbLayerTableRecord
  2
ZUWAKU
 70
     0
 62
     7
  6
CONTINUOUS
  0
LAYER
  5
134
330
2
100
AcDbSymbolTableRecord
100
AcDbLayerTableRecord
  2
SUNPOU
 70
     0
 62
     4
  6
CONTINUOUS
  0
LAYER
  5
135
330
2
100
AcDbSymbolTableRecord
100
AcDbLayerTableRecord
  2
CENTER_L
 70
     0
 62
     1
  6
CENTER
  0
LAYER
  5
136
330
2
100
AcDbSymbolTableRecord
100
AcDbLayerTableRecord
  2
SEIHIN
 70
     0
 62
     3
  6
CONTINUOUS
  0
LAYER
  5
177
330
2
100
AcDbSymbolTableRecord
100
AcDbLayerTableRecord
  2
DEFPOINTS
 70
     0
 62
     7
  6
CONTINUOUS
  0
ENDTAB
  0
TABLE
  2
STYLE
  5
3
330
0
100
AcDbSymbolTable
 70
     1
  0
STYLE
  5
10
330
3
100
AcDbSymbolTableRecord
100
AcDbTextStyleTableRecord
  2
STANDARD
 70
     0
 40
0.0
 41
1.0
 50
0.0
 71
     0
 42
2.5
  3
TXT
  4
bigfont.shx
  0
ENDTAB
  0
TABLE
  2
VIEW
  5
6
330
0
100
AcDbSymbolTable
 70
     0
  0
ENDTAB
  0
TABLE
  2
UCS
  5
7
330
0
100
AcDbSymbolTable
 70
     0
  0
ENDTAB
  0
TABLE
  2
APPID
  5
9
330
0
100
AcDbSymbolTable
 70
     1
  0
APPID
  5
11
330
9
100
AcDbSymbolTableRecord
100
AcDbRegAppTableRecord
  2
ACAD
 70
     0
  0
ENDTAB
  0
TABLE
  2
DIMSTYLE
  5
A
330
0
100
AcDbSymbolTable
 70
     1
  0
DIMSTYLE
105
1D
102
{ACAD_REACTORS
330
1A8
330
1A9
330
1BD
330
24C
330
259
330
266
330
273
102
}
330
A
100
AcDbSymbolTableRecord
100
AcDbDimStyleTableRecord
  2
STANDARD
 70
     0
  3

  4

  5

  6

  7

 40
1.0
 41
0.18
 42
0.0625
 43
0.38
 44
0.18
 45
0.0
 46
0.0
 47
0.0
 48
0.0
140
0.18
141
0.09
142
0.0
143
25.4
144
1.0
145
0.0
146
1.0
147
0.09
 71
     0
 72
     0
 73
     1
 74
     1
 75
     0
 76
     0
 77
     0
 78
     0
170
     0
171
     2
172
     0
173
     0
174
     0
175
     0
176
     0
177
     0
178
     0
270
     2
271
     4
272
     4
273
     2
274
     2
340
10
275
     0
280
     0
281
     0
282
     0
283
     1
284
     0
285
     0
286
     0
287
     3
288
     0
  0
ENDTAB
  0
TABLE
  2
BLOCK_RECORD
  5
1
330
0
100
AcDbSymbolTable
 70
     8
  0
BLOCK_RECORD
  5
1A
102
{ACAD_XDICTIONARY
360
450
102
}
330
1
100
AcDbSymbolTableRecord
100
AcDbBlockTableRecord
  2
*MODEL_SPACE
  0
BLOCK_RECORD
  5
17
102
{ACAD_XDICTIONARY
360
44E
102
}
330
1
100
AcDbSymbolTableRecord
100
AcDbBlockTableRecord
  2
*PAPER_SPACE
  0
BLOCK_RECORD
  5
B2
330
1
100
AcDbSymbolTableRecord
100
AcDbBlockTableRecord
  2
_OPEN
  0
BLOCK_RECORD
  5
1C6
330
1
100
AcDbSymbolTableRecord
100
AcDbBlockTableRecord
  2
*D1
  0
BLOCK_RECORD
  5
1D2
330
1
100
AcDbSymbolTableRecord
100
AcDbBlockTableRecord
  2
*D2
  0
BLOCK_RECORD
  5
1F6
330
1
100
AcDbSymbolTableRecord
100
AcDbBlockTableRecord
  2
*D3
  0
BLOCK_RECORD
  5
240
330
1
100
AcDbSymbolTableRecord
100
AcDbBlockTableRecord
  2
*D4
  0
BLOCK_RECORD
  5
24D
330
1
100
AcDbSymbolTableRecord
100
AcDbBlockTableRecord
  2
*D5
  0
BLOCK_RECORD
  5
25A
330
1
100
AcDbSymbolTableRecord
100
AcDbBlockTableRecord
  2
*D6
  0
BLOCK_RECORD
  5
267
330
1
100
AcDbSymbolTableRecord
100
AcDbBlockTableRecord
  2
*D7
  0
ENDTAB
  0
ENDSEC
  0
SECTION
  2
BLOCKS
  0
BLOCK
  5
1B
330
1A
100
AcDbEntity
  8
0
100
AcDbBlockBegin
  2
*MODEL_SPACE
 70
     0
 10
0.0
 20
0.0
 30
0.0
  3
*MODEL_SPACE
  1

  0
ENDBLK
  5
1C
330
1A
100
AcDbEntity
  8
0
100
AcDbBlockEnd
  0
BLOCK
  5
18
330
17
100
AcDbEntity
 67
     1
  8
0
100
AcDbBlockBegin
  2
*PAPER_SPACE
 70
     0
 10
0.0
 20
0.0
 30
0.0
  3
*PAPER_SPACE
  1

  0
ENDBLK
  5
19
330
17
100
AcDbEntity
 67
     1
  8
0
100
AcDbBlockEnd
  0
BLOCK
  5
B3
330
B2
100
AcDbEntity
  8
0
100
AcDbBlockBegin
  2
_OPEN
 70
     0
 10
0.0
 20
0.0
 30
0.0
  3
_OPEN
  1

  0
LINE
  5
B4
330
B2
100
AcDbEntity
  8
0
  6
BYBLOCK
 62
     0
100
AcDbLine
 10
-1.0
 20
0.1666666666666666
 30
0.0
 11
0.0
 21
0.0
 31
0.0
  0
LINE
  5
B5
330
B2
100
AcDbEntity
  8
0
  6
BYBLOCK
 62
     0
100
AcDbLine
 10
0.0
 20
0.0
 30
0.0
 11
-1.0
 21
-0.1666666666666666
 31
0.0
  0
LINE
  5
B6
330
B2
100
AcDbEntity
  8
0
  6
BYBLOCK
 62
     0
100
AcDbLine
 10
0.0
 20
0.0
 30
0.0
 11
-1.0
 21
0.0
 31
0.0
  0
ENDBLK
  5
B7
330
B2
100
AcDbEntity
  8
0
100
AcDbBlockEnd
  0
BLOCK
  5
202
330
1C6
100
AcDbEntity
  8
0
100
AcDbBlockBegin
  2
*D1
 70
     1
 10
0.0
 20
0.0
 30
0.0
  3
*D1
  1

  0
ARC
  5
4CC
330
1C6
100
AcDbEntity
  8
SUNPOU
 62
     4
100
AcDbCircle
 10
143.5844491637184
 20
153.8497783994852
 30
0.0
 40
13.20992938190357
100
AcDbArc
 50
243.919788054939
 51
256.9598940274695
  0
ARC
  5
4CD
330
1C6
100
AcDbEntity
  8
SUNPOU
 62
     4
100
AcDbCircle
 10
143.5844491637184
 20
153.8497783994852
 30
0.0
 40
13.20992938190357
100
AcDbArc
 50
353.0400942559777
 51
6.080200228508196
  0
ARC
  5
4CE
330
1C6
100
AcDbEntity
  8
SUNPOU
 62
     4
100
AcDbCircle
 10
143.5844491637184
 20
153.8497783994852
 30
0.0
 40
13.20992938190357
100
AcDbArc
 50
270.0
 51
339.9999882834472
  0
INSERT
  5
4CF
330
1C6
100
AcDbEntity
  8
SUNPOU
 62
     4
100
AcDbBlockReference
  2
_OPEN
 10
143.5844491637184
 20
140.6398490175817
 30
0.0
 41
3.0
 42
3.0
 43
3.0
 50
353.4799470137347
  0
INSERT
  5
4D0
330
1C6
100
AcDbEntity
  8
SUNPOU
 62
     4
100
AcDbBlockReference
  2
_OPEN
 10
155.9977214010865
 20
149.3317139205444
 30
0.0
 41
3.0
 42
3.0
 43
3.0
 50
256.5200412697125
  0
MTEXT
  5
4D1
330
1C6
100
AcDbEntity
  8
SUNPOU
 62
     4
100
AcDbMText
 10
149.7274113951498
 20
145.0767172240135
 30
0.0
 40
3.0
 41
0.0
 71
     5
 72
     1
  1
\A1;70°
 11
0.8191521029350045
 21
0.5735763525958509
 31
0.0
  0
POINT
  5
4D2
330
1C6
100
AcDbEntity
  8
DEFPOINTS
 62
     0
100
AcDbPoint
 10
148.8166340758949
 20
141.720208113623
 30
0.0
  0
POINT
  5
4D3
330
1C6
100
AcDbEntity
  8
DEFPOINTS
 62
     0
100
AcDbPoint
 10
183.4983491637186
 20
139.3222976226492
 30
0.0
  0
POINT
  5
4D4
330
1C6
100
AcDbEntity
  8
DEFPOINTS
 62
     0
100
AcDbPoint
 10
143.5844491637184
 20
132.0728976226491
 30
0.0
  0
POINT
  5
4D5
330
1C6
100
AcDbEntity
  8
DEFPOINTS
 62
     0
100
AcDbPoint
 10
143.5844491637184
 20
196.5139976226491
 30
0.0
  0
POINT
  5
4D6
330
1C6
100
AcDbEntity
  8
DEFPOINTS
 62
     0
100
AcDbPoint
 10
138.4386491637184
 20
155.7226976226491
 30
0.0
  0
ENDBLK
  5
20C
330
1C6
100
AcDbEntity
  8
0
100
AcDbBlockEnd
  0
BLOCK
  5
2F5
330
1D2
100
AcDbEntity
  8
0
100
AcDbBlockBegin
  2
*D2
 70
     1
 10
0.0
 20
0.0
 30
0.0
  3
*D2
  1

  0
LINE
  5
39A
330
1D2
100
AcDbEntity
  8
SUNPOU
 62
     4
100
AcDbLine
 10
188.0989278843924
 20
162.1238395508797
 30
0.0
 11
210.3598471100776
 21
154.0215486538532
 31
0.0
  0
LINE
  5
39B
330
1D2
100
AcDbEntity
  8
SUNPOU
 62
     4
100
AcDbLine
 10
172.3660278843926
 20
118.8979395508799
 30
0.0
 11
194.6269471100778
 21
110.7956486538534
 31
0.0
  0
LINE
  5
39C
330
1D2
100
AcDbEntity
  8
SUNPOU
 62
     4
100
AcDbLine
 10
207.9242496779713
 20
151.7154989690638
 30
0.0
 11
194.24346582151
 21
114.127756410412
 31
0.0
  0
INSERT
  5
39D
330
1D2
100
AcDbEntity
  8
SUNPOU
 62
     4
100
AcDbBlockReference
  2
_OPEN
 10
208.9503077497405
 20
154.5345776897378
 30
0.0
 41
3.0
 42
3.0
 43
3.0
 50
70.00004792890995
  0
INSERT
  5
39E
330
1D2
100
AcDbEntity
  8
SUNPOU
 62
     4
100
AcDbBlockReference
  2
_OPEN
 10
193.2174077497408
 20
111.308677689738
 30
0.0
 41
3.0
 42
3.0
 43
3.0
 50
250.0000479289099
  0
MTEXT
  5
39F
330
1D2
100
AcDbEntity
  8
SUNPOU
 62
     4
100
AcDbMText
 10
198.7346254825123
 20
133.776676082879
 30
0.0
 40
3.0
 41
0.0
 71
     5
 72
     5
  1
\A1;{φ46}
 11
0.3420193572564282
 21
0.9396929068913417
 31
0.0
1001
ACAD
1000
MTEXTBEGIN
1070
    73
1070
     1
1070
    44
1040
1.0
1070
    74
1070
     0
1000
MTEXTEND
1000
MTEXTBEGIN
1070
    73
1070
     1
1070
    44
1040
1.0
1070
    74
1070
     0
1000
MTEXTEND
1000
MTEXTBEGIN
1070
    73
1070
     1
1070
    44
1040
1.0
1070
    74
1070
     0
1000
MTEXTEND
  0
POINT
  5
3A0
330
1D2
100
AcDbEntity
  8
DEFPOINTS
 62
     0
100
AcDbPoint
 10
185.2798491637184
 20
163.149897622649
 30
0.0
  0
POINT
  5
3A1
330
1D2
100
AcDbEntity
  8
DEFPOINTS
 62
     0
100
AcDbPoint
 10
169.5469491637186
 20
119.9239976226492
 30
0.0
  0
POINT
  5
3A2
330
1D2
100
AcDbEntity
  8
DEFPOINTS
 62
     0
100
AcDbPoint
 10
193.2174077497408
 20
111.308677689738
 30
0.0
  0
ENDBLK
  5
2FF
330
1D2
100
AcDbEntity
  8
0
100
AcDbBlockEnd
  0
BLOCK
  5
2BE
330
1F6
100
AcDbEntity
  8
0
100
AcDbBlockBegin
  2
*D3
 70
     1
 10
0.0
 20
0.0
 30
0.0
  3
*D3
  1

  0
LINE
  5
3C0
330
1F6
100
AcDbEntity
  8
SUNPOU
 62
     4
100
AcDbLine
 10
166.5844491637184
 20
192.8497976226491
 30
0.0
 11
166.5844491637184
 21
212.6854712007688
 31
0.0
  0
LINE
  5
3C1
330
1F6
100
AcDbEntity
  8
SUNPOU
 62
     4
100
AcDbLine
 10
120.5844491637185
 20
192.8497976226491
 30
0.0
 11
120.5844491637185
 21
212.6854712007688
 31
0.0
  0
LINE
  5
3C2
330
1F6
100
AcDbEntity
  8
SUNPOU
 62
     4
100
AcDbLine
 10
163.5844491637184
 20
211.1854712007688
 30
0.0
 11
123.5844491637185
 21
211.1854712007688
 31
0.0
  0
INSERT
  5
3C3
330
1F6
100
AcDbEntity
  8
SUNPOU
 62
     4
100
AcDbBlockReference
  2
_OPEN
 10
166.5844491637184
 20
211.1854712007688
 30
0.0
 41
3.0
 42
3.0
 43
3.0
  0
INSERT
  5
3C4
330
1F6
100
AcDbEntity
  8
SUNPOU
 62
     4
100
AcDbBlockReference
  2
_OPEN
 10
120.5844491637185
 20
211.1854712007688
 30
0.0
 41
3.0
 42
3.0
 43
3.0
 50
180.0
  0
MTEXT
  5
3C5
330
1F6
100
AcDbEntity
  8
SUNPOU
 62
     4
100
AcDbMText
 10
143.5844491637185
 20
213.6854712007688
 30
0.0
 40
3.0
 41
0.0
 71
     5
 72
     5
  1
\A1;{φ46}
1001
ACAD
1000
MTEXTBEGIN
1070
    73
1070
     1
1070
    44
1040
1.0
1070
    74
1070
     0
1000
MTEXTEND
1000
MTEXTBEGIN
1070
    73
1070
     1
1070
    44
1040
1.0
1070
    74
1070
     0
1000
MTEXTEND
1000
MTEXTBEGIN
1070
    73
1070
     1
1070
    44
1040
1.0
1070
    74
1070
     0
1000
MTEXTEND
  0
POINT
  5
3C6
330
1F6
100
AcDbEntity
  8
DEFPOINTS
 62
     0
100
AcDbPoint
 10
166.5844491637184
 20
189.8497976226492
 30
0.0
  0
POINT
  5
3C7
330
1F6
100
AcDbEntity
  8
DEFPOINTS
 62
     0
100
AcDbPoint
 10
120.5844491637185
 20
189.8497976226492
 30
0.0
  0
POINT
  5
3C8
330
1F6
100
AcDbEntity
  8
DEFPOINTS
 62
     0
100
AcDbPoint
 10
120.5844491637185
 20
211.1854712007688
 30
0.0
  0
ENDBLK
  5
2C8
330
1F6
100
AcDbEntity
  8
0
100
AcDbBlockEnd
  0
BLOCK
  5
2D4
330
240
100
AcDbEntity
  8
0
100
AcDbBlockBegin
  2
*D4
 70
     1
 10
0.0
 20
0.0
 30
0.0
  3
*D4
  1

  0
LINE
  5
3C9
330
240
100
AcDbEntity
  8
SUNPOU
 62
     4
100
AcDbLine
 10
117.5844491637185
 20
189.8496976226492
 30
0.0
 11
98.55258130124163
 21
189.8496976226492
 31
0.0
  0
LINE
  5
3CA
330
240
100
AcDbEntity
  8
SUNPOU
 62
     4
100
AcDbLine
 10
117.5844491637185
 20
164.8496976226492
 30
0.0
 11
98.55258130124163
 21
164.8496976226492
 31
0.0
  0
LINE
  5
3CB
330
240
100
AcDbEntity
  8
SUNPOU
 62
     4
100
AcDbLine
 10
100.0525813012416
 20
186.8496976226492
 30
0.0
 11
100.0525813012416
 21
167.8496976226492
 31
0.0
  0
INSERT
  5
3CC
330
240
100
AcDbEntity
  8
SUNPOU
 62
     4
100
AcDbBlockReference
  2
_OPEN
 10
100.0525813012416
 20
189.8496976226492
 30
0.0
 41
3.0
 42
3.0
 43
3.0
 50
90.0
  0
INSERT
  5
3CD
330
240
100
AcDbEntity
  8
SUNPOU
 62
     4
100
AcDbBlockReference
  2
_OPEN
 10
100.0525813012416
 20
164.8496976226492
 30
0.0
 41
3.0
 42
3.0
 43
3.0
 50
270.0
  0
MTEXT
  5
3CE
330
240
100
AcDbEntity
  8
SUNPOU
 62
     4
100
AcDbMText
 10
97.55258130124161
 20
177.3496976226492
 30
0.0
 40
3.0
 41
0.0
 71
     5
 72
     5
  1
\A1;※ 25
 11
0.0000000000000001
 21
1.0
 31
0.0
1001
ACAD
1000
MTEXTBEGIN
1070
    73
1070
     1
1070
    44
1040
1.0
1070
    74
1070
     0
1000
MTEXTEND
1000
MTEXTBEGIN
1070
    73
1070
     1
1070
    44
1040
1.0
1070
    74
1070
     0
1000
MTEXTEND
1000
MTEXTBEGIN
1070
    73
1070
     1
1070
    44
1040
1.0
1070
    74
1070
     0
1000
MTEXTEND
  0
POINT
  5
3CF
330
240
100
AcDbEntity
  8
DEFPOINTS
 62
     0
100
AcDbPoint
 10
120.5844491637185
 20
189.8496976226492
 30
0.0
  0
POINT
  5
3D0
330
240
100
AcDbEntity
  8
DEFPOINTS
 62
     0
100
AcDbPoint
 10
120.5844491637185
 20
164.8496976226492
 30
0.0
  0
POINT
  5
3D1
330
240
100
AcDbEntity
  8
DEFPOINTS
 62
     0
100
AcDbPoint
 10
100.0525813012416
 20
164.8496976226492
 30
0.0
  0
ENDBLK
  5
2DE
330
240
100
AcDbEntity
  8
0
100
AcDbBlockEnd
  0
BLOCK
  5
2C9
330
24D
100
AcDbEntity
  8
0
100
AcDbBlockBegin
  2
*D5
 70
     1
 10
0.0
 20
0.0
 30
0.0
  3
*D5
  1

  0
LINE
  5
3D2
330
24D
100
AcDbEntity
  8
SUNPOU
 62
     4
100
AcDbLine
 10
117.5844491637185
 20
189.8496976226492
 30
0.0
 11
89.74115661066413
 21
189.8496976226492
 31
0.0
  0
LINE
  5
3D3
330
24D
100
AcDbEntity
  8
SUNPOU
 62
     4
100
AcDbLine
 10
140.5844491637184
 20
153.8497783994852
 30
0.0
 11
89.74115661066411
 21
153.8497783994852
 31
0.0
  0
LINE
  5
3D4
330
24D
100
AcDbEntity
  8
SUNPOU
 62
     4
100
AcDbLine
 10
91.24115661066413
 20
186.8496976226492
 30
0.0
 11
91.24115661066412
 21
156.8497783994852
 31
0.0
  0
INSERT
  5
3D5
330
24D
100
AcDbEntity
  8
SUNPOU
 62
     4
100
AcDbBlockReference
  2
_OPEN
 10
91.24115661066413
 20
189.8496976226492
 30
0.0
 41
3.0
 42
3.0
 43
3.0
 50
90.0
  0
INSERT
  5
3D6
330
24D
100
AcDbEntity
  8
SUNPOU
 62
     4
100
AcDbBlockReference
  2
_OPEN
 10
91.24115661066412
 20
153.8497783994852
 30
0.0
 41
3.0
 42
3.0
 43
3.0
 50
270.0
  0
MTEXT
  5
3D7
330
24D
100
AcDbEntity
  8
SUNPOU
 62
     4
100
AcDbMText
 10
88.7411566106641
 20
171.8497380110672
 30
0.0
 40
3.0
 41
0.0
 71
     5
 72
     5
  1
\A1;36
 11
0.0000000000000001
 21
1.0
 31
0.0
1001
ACAD
1000
MTEXTBEGIN
1070
    73
1070
     1
1070
    44
1040
1.0
1070
    74
1070
     0
1000
MTEXTEND
1000
MTEXTBEGIN
1070
    73
1070
     1
1070
    44
1040
1.0
1070
    74
1070
     0
1000
MTEXTEND
1000
MTEXTBEGIN
1070
    73
1070
     1
1070
    44
1040
1.0
1070
    74
1070
     0
1000
MTEXTEND
  0
POINT
  5
3D8
330
24D
100
AcDbEntity
  8
DEFPOINTS
 62
     0
100
AcDbPoint
 10
120.5844491637185
 20
189.8496976226492
 30
0.0
  0
POINT
  5
3D9
330
24D
100
AcDbEntity
  8
DEFPOINTS
 62
     0
100
AcDbPoint
 10
143.5844491637184
 20
153.8497783994852
 30
0.0
  0
POINT
  5
3DA
330
24D
100
AcDbEntity
  8
DEFPOINTS
 62
     0
100
AcDbPoint
 10
91.24115661066412
 20
153.8497783994852
 30
0.0
  0
ENDBLK
  5
2D3
330
24D
100
AcDbEntity
  8
0
100
AcDbBlockEnd
  0
BLOCK
  5
2EA
330
25A
100
AcDbEntity
  8
0
100
AcDbBlockBegin
  2
*D6
 70
     1
 10
0.0
 20
0.0
 30
0.0
  3
*D6
  1

  0
LINE
  5
3B7
330
25A
100
AcDbEntity
  8
SUNPOU
 62
     4
100
AcDbLine
 10
168.520794317107
 20
117.1049177281188
 30
0.0
 11
160.6354104434486
 21
95.43987008247276
 31
0.0
  0
LINE
  5
3B8
330
25A
100
AcDbEntity
  8
SUNPOU
 62
     4
100
AcDbLine
 10
144.7571748933033
 20
125.7541145565354
 30
0.0
 11
136.871791019645
 21
104.0890669108893
 31
0.0
  0
LINE
  5
3B9
330
25A
100
AcDbEntity
  8
SUNPOU
 62
     4
100
AcDbLine
 10
158.329357972224
 20
97.87546487634941
 30
0.0
 11
140.203898337481
 21
104.4725520115429
 31
0.0
  0
INSERT
  5
3BA
330
25A
100
AcDbEntity
  8
SUNPOU
 62
     4
100
AcDbBlockReference
  2
_OPEN
 10
161.1484378667543
 20
96.84941002973793
 30
0.0
 41
3.0
 42
3.0
 43
3.0
 50
340.0001134779457
  0
INSERT
  5
3BB
330
25A
100
AcDbEntity
  8
SUNPOU
 62
     4
100
AcDbBlockReference
  2
_OPEN
 10
137.3848184429507
 20
105.4986068581544
 30
0.0
 41
3.0
 42
3.0
 43
3.0
 50
160.0001134779456
  0
MTEXT
  5
3BC
330
25A
100
AcDbEntity
  8
SUNPOU
 62
     4
100
AcDbMText
 10
150.1216738603621
 20
103.5232416893881
 30
0.0
 40
3.0
 41
0.0
 71
     5
 72
     5
  1
\A1;※ 25
 11
0.9396932981767736
 21
-0.342018282203828
 31
0.0
1001
ACAD
1000
MTEXTBEGIN
1070
    73
1070
     1
1070
    44
1040
1.0
1070
    74
1070
     0
1000
MTEXTEND
1000
MTEXTBEGIN
1070
    73
1070
     1
1070
    44
1040
1.0
1070
    74
1070
     0
1000
MTEXTEND
1000
MTEXTBEGIN
1070
    73
1070
     1
1070
    44
1040
1.0
1070
    74
1070
     0
1000
MTEXTEND
  0
POINT
  5
3BD
330
25A
100
AcDbEntity
  8
DEFPOINTS
 62
     0
100
AcDbPoint
 10
169.5468491637184
 20
119.9239976226492
 30
0.0
  0
POINT
  5
3BE
330
25A
100
AcDbEntity
  8
DEFPOINTS
 62
     0
100
AcDbPoint
 10
145.7832297399148
 20
128.5731944510657
 30
0.0
  0
POINT
  5
3BF
330
25A
100
AcDbEntity
  8
DEFPOINTS
 62
     0
100
AcDbPoint
 10
137.3848184429507
 20
105.4986068581544
 30
0.0
  0
ENDBLK
  5
2F4
330
25A
100
AcDbEntity
  8
0
100
AcDbBlockEnd
  0
BLOCK
  5
2DF
330
267
100
AcDbEntity
  8
0
100
AcDbBlockBegin
  2
*D7
 70
     1
 10
0.0
 20
0.0
 30
0.0
  3
*D7
  1

  0
LINE
  5
3A3
330
267
100
AcDbEntity
  8
SUNPOU
 62
     4
100
AcDbLine
 10
142.5583881572614
 20
151.0307007469492
 30
0.0
 11
123.8552017580822
 21
99.64415113894562
 31
0.0
  0
LINE
  5
3A4
330
267
100
AcDbEntity
  8
SUNPOU
 62
     4
100
AcDbLine
 10
176.3873236021921
 20
138.7179673538942
 30
0.0
 11
157.6841372030128
 21
87.3314177458907
 31
0.0
  0
LINE
  5
3A5
330
267
100
AcDbEntity
  8
SUNPOU
 62
     4
100
AcDbLine
 10
127.1873099138468
 20
100.0276289587566
 30
0.0
 11
155.3780900537053
 21
89.76701757861576
 31
0.0
  0
INSERT
  5
3A6
330
267
100
AcDbEntity
  8
SUNPOU
 62
     4
100
AcDbBlockReference
  2
_OPEN
 10
124.3682322613107
 20
101.0536899652136
 30
0.0
 41
3.0
 42
3.0
 43
3.0
 50
159.9999882834473
  0
INSERT
  5
3A7
330
267
100
AcDbEntity
  8
SUNPOU
 62
     4
100
AcDbBlockReference
  2
_OPEN
 10
158.1971677062414
 20
88.74095657215873
 30
0.0
 41
3.0
 42
3.0
 43
3.0
 50
339.9999882834472
  0
MTEXT
  5
3A8
330
267
100
AcDbEntity
  8
SUNPOU
 62
     4
100
AcDbMText
 10
142.1377508224902
 20
97.2465546457996
 30
0.0
 40
3.0
 41
0.0
 71
     5
 72
     5
  1
\A1;36
 11
0.9396925508453614
 21
-0.3420203354856813
 31
0.0
1001
ACAD
1000
MTEXTBEGIN
1070
    73
1070
     1
1070
    44
1040
1.0
1070
    74
1070
     0
1000
MTEXTEND
1000
MTEXTBEGIN
1070
    73
1070
     1
1070
    44
1040
1.0
1070
    74
1070
     0
1000
MTEXTEND
1000
MTEXTBEGIN
1070
    73
1070
     1
1070
    44
1040
1.0
1070
    74
1070
     0
1000
MTEXTEND
  0
POINT
  5
3A9
330
267
100
AcDbEntity
  8
DEFPOINTS
 62
     0
100
AcDbPoint
 10
143.5844491637184
 20
153.8497783994853
 30
0.0
  0
POINT
  5
3AA
330
267
100
AcDbEntity
  8
DEFPOINTS
 62
     0
100
AcDbPoint
 10
177.4133846086491
 20
141.5370450064303
 30
0.0
  0
POINT
  5
3AB
330
267
100
AcDbEntity
  8
DEFPOINTS
 62
     0
100
AcDbPoint
 10
158.1971677062414
 20
88.74095657215873
 30
0.0
  0
ENDBLK
  5
2E9
330
267
100
AcDbEntity
  8
0
100
AcDbBlockEnd
  0
ENDSEC
  0
SECTION
  2
ENTITIES
  0
LINE
  5
6C
330
1A
100
AcDbEntity
  8
ZUWAKU
  6
CONTINUOUS
 62
     7
100
AcDbLine
 10
403.0
 20
7.0
 30
0.0
 11
5.0
 21
7.0
 31
0.0
  0
LINE
  5
6D
330
1A
100
AcDbEntity
  8
ZUWAKU
  6
CONTINUOUS
 62
     7
100
AcDbLine
 10
5.0
 20
282.0
 30
0.0
 11
5.0
 21
7.0
 31
0.0
  0
LINE
  5
6E
330
1A
100
AcDbEntity
  8
ZUWAKU
  6
CONTINUOUS
 62
     7
100
AcDbLine
 10
403.0
 20
282.0
 30
0.0
 11
403.0
 21
7.0
 31
0.0
  0
LINE
  5
6F
330
1A
100
AcDbEntity
  8
ZUWAKU
  6
CONTINUOUS
 62
     7
100
AcDbLine
 10
403.0
 20
282.0
 30
0.0
 11
5.0
 21
282.0
 31
0.0
  0
LINE
  5
8E
330
1A
100
AcDbEntity
  8
ZUWAKU
 62
     7
 48
10.0
100
AcDbLine
 10
5.0
 20
13.0
 30
0.0
 11
403.0
 21
12.99999999999994
 31
0.0
  0
TEXT
  5
93
330
1A
100
AcDbEntity
  8
ZUWAKU
 62
     7
100
AcDbText
 10
8.003143713074223
 20
7.870178177610682
 30
0.0
 40
4.0
  1
品 種
100
AcDbText
  0
TEXT
  5
97
330
1A
100
AcDbEntity
  8
ZUWAKU
 62
     7
100
AcDbText
 10
107.7028028167073
 20
8.200497435100942
 30
0.0
 40
4.0
  1
品名・ｻ ｲ ｽﾞ
100
AcDbText
  0
LINE
  5
9A
330
1A
100
AcDbEntity
  8
ZUWAKU
 62
     7
 48
10.0
100
AcDbLine
 10
324.3551403257206
 20
6.999999999999836
 30
0.0
 11
324.3551403257206
 21
12.99999999999995
 31
0.0
  0
LINE
  5
9B
330
1A
100
AcDbEntity
  8
ZUWAKU
 62
     7
 48
10.0
100
AcDbLine
 10
307.142312366876
 20
6.999999999999836
 30
0.0
 11
307.142312366876
 21
12.99999999999995
 31
0.0
  0
TEXT
  5
9C
330
1A
100
AcDbEntity
  8
ZUWAKU
 62
     7
100
AcDbText
 10
310.1429253763237
 20
7.934661405801826
 30
0.0
 40
4.0
  1
品 番
100
AcDbText
  0
TEXT
  5
9E
330
1A
100
AcDbEntity
  8
ZUWAKU
 62
     7
 48
10.0
100
AcDbText
 10
322.9513761015196
 20
2.449000558492457
 30
0.0
 40
4.0
  1
積水化学工業株式会社  建材
100
AcDbText
  0
TEXT
  5
A1
330
1A
100
AcDbEntity
  8
ZUWAKU
 62
     7
100
AcDbText
 10
389.843492473331
 20
7.886151458996323
 30
0.0
 40
4.0
  1
1/1
100
AcDbText
  0
TEXT
  5
A2
330
1A
100
AcDbEntity
  8
ZUWAKU
 62
     7
100
AcDbText
 10
369.8225424558458
 20
7.729845637642938
 30
0.0
 40
4.0
  1
尺 度
100
AcDbText
  0
LINE
  5
A3
330
1A
100
AcDbEntity
  8
ZUWAKU
 62
     7
 48
10.0
100
AcDbLine
 10
366.8807110760169
 20
6.999999999999886
 30
0.0
 11
366.8807110760169
 21
12.99999999999994
 31
0.0
  0
TEXT
  5
A6
330
1A
100
AcDbEntity
  8
ZUWAKU
 62
     7
 48
10.0
100
AcDbText
 10
396.1622424237184
 20
2.480970960763784
 30
0.0
 40
4.0
  1
A3
100
AcDbText
  0
LINE
  5
F5
330
1A
100
AcDbEntity
  8
ZUWAKU
 62
     7
 48
10.0
100
AcDbLine
 10
22.25374857290876
 20
7.0
 30
0.0
 11
22.25374857290876
 21
13.0
 31
0.0
  0
LINE
  5
F6
330
1A
100
AcDbEntity
  8
ZUWAKU
 62
     7
 48
10.0
100
AcDbLine
 10
104.7316872784438
 20
7.0
 30
0.0
 11
104.7316872784438
 21
12.99999999999998
 31
0.0
  0
LINE
  5
F8
330
1A
100
AcDbEntity
  8
ZUWAKU
 62
     7
 48
10.0
100
AcDbLine
 10
138.0261803105822
 20
7.0
 30
0.0
 11
138.0261803105822
 21
12.99999999999998
 31
0.0
  0
LINE
  5
100
330
1A
100
AcDbEntity
  8
ZUWAKU
 62
     7
 48
10.0
100
AcDbLine
 10
384.3363149538092
 20
6.999999999999862
 30
0.0
 11
384.3363149538092
 21
12.99999999999994
 31
0.0
  0
LINE
  5
1A1
330
1A
100
AcDbEntity
  8
CENTER_L
 48
5.0
100
AcDbLine
 10
241.4107491637185
 20
141.5369976226492
 30
0.0
 11
297.7283491637186
 21
141.5369976226492
 31
0.0
  0
LINE
  5
1A3
330
1A
100
AcDbEntity
  8
CENTER_L
 48
5.0
100
AcDbLine
 10
143.5844491637184
 20
132.0728976226491
 30
0.0
 11
143.5844491637184
 21
196.5139976226491
 31
0.0
  0
LINE
  5
1A4
330
1A
100
AcDbEntity
  8
CENTER_L
 48
5.0
100
AcDbLine
 10
270.9782491637186
 20
105.6727976226492
 30
0.0
 11
270.9783453300145
 21
196.8496976226491
 31
0.0
  0
ELLIPSE
  5
1A5
330
1A
100
AcDbEntity
  8
SEIHIN
100
AcDbEllipse
 10
270.9782869905347
 20
141.5370450064303
 30
0.0
 11
-22.99883782690136
 21
0.0000242573837032
 31
0.0
210
0.0
220
0.0
230
1.0
 40
0.9397367283897521
 41
0.0000000000000002
 42
6.283185307179586
  0
ELLIPSE
  5
1A6
330
1A
100
AcDbEntity
  8
SEIHIN
100
AcDbEllipse
 10
270.9782869905347
 20
141.5370450064303
 30
0.0
 11
-20.99999999998832
 21
0.0000221491651601
 31
0.0
210
0.0
220
0.0
230
0.9999999999999998
 40
0.9396889863294552
 41
-0.0000000000000022
 42
6.283185307179583
  0
ELLIPSE
  5
1A7
330
1A
100
AcDbEntity
  8
SEIHIN
100
AcDbEllipse
 10
270.9782999770181
 20
153.8497507722
 30
0.0
 11
-22.99887629878822
 21
0.0
 31
0.0
210
0.0
220
0.0
230
1.0
 40
0.7029925501562192
 41
3.141592653589793
 42
6.283185307179783
  0
DIMENSION
  5
1A8
330
1A
100
AcDbEntity
  8
SUNPOU
100
AcDbDimension
  2
*D1
 10
138.4386491637184
 20
155.7226976226491
 30
0.0
 11
149.7274113951498
 21
145.0767172240135
 31
0.0
 70
    34
  3
STANDARD
100
AcDb2LineAngularDimension
 13
143.5844491637184
 23
132.0728976226491
 33
0.0
 14
143.5844491637184
 24
196.5139976226491
 34
0.0
 15
183.4983491637186
 25
139.3222976226492
 35
0.0
 16
148.8166340758949
 26
141.720208113623
 36
0.0
1001
ACAD
1000
DSTYLE
1002
{
1070
   271
1070
     0
1070
   271
1070
     0
1070
   271
1070
     0
1070
   140
1040
3.0
1070
    74
1070
     0
1070
   172
1070
     1
1070
    73
1070
     0
1070
   272
1070
     2
1070
    77
1070
     3
1070
   173
1070
     1
1070
   147
1040
1.0
1070
    42
1040
3.0
1070
    44
1040
1.5
1070
    43
1040
7.0
1070
   271
1070
     0
1070
   178
1070
     4
1070
   177
1070
     4
1070
   176
1070
     4
1070
   141
1040
150.0
1070
     7
1000
_OPEN
1070
     6
1000
_OPEN
1070
    41
1040
3.0
1002
}
  0
DIMENSION
  5
1A9
330
1A
100
AcDbEntity
  8
SUNPOU
100
AcDbDimension
  2
*D2
 10
193.2174077497408
 20
111.308677689738
 30
0.0
 11
198.7346254825123
 21
133.776676082879
 31
0.0
 70
    33
  1
{φ<>}
  3
STANDARD
100
AcDbAlignedDimension
 13
185.2798491637184
 23
163.149897622649
 33
0.0
 14
169.5469491637186
 24
119.9239976226492
 34
0.0
1001
ACAD
1000
DSTYLE
1002
{
1070
   140
1040
3.0
1070
    74
1070
     0
1070
   172
1070
     1
1070
    73
1070
     0
1070
   272
1070
     2
1070
    77
1070
     3
1070
   173
1070
     1
1070
   147
1040
1.0
1070
    42
1040
3.0
1070
    44
1040
1.5
1070
    43
1040
7.0
1070
   271
1070
     0
1070
   178
1070
     4
1070
   177
1070
     4
1070
   176
1070
     4
1070
   141
1040
150.0
1070
     7
1000
_OPEN
1070
     6
1000
_OPEN
1070
    41
1040
3.0
1002
}
  0
LINE
  5
1AB
330
1A
100
AcDbEntity
  8
SEIHIN
100
AcDbLine
 10
247.9794491637186
 20
141.5369976226492
 30
0.0
 11
247.9793491637185
 21
189.8497976226492
 31
0.0
  0
LINE
  5
1AC
330
1A
100
AcDbEntity
  8
SEIHIN
100
AcDbLine
 10
293.9794491637186
 20
141.5369976226492
 30
0.0
 11
293.9793491637185
 21
189.8498976226492
 31
0.0
  0
LINE
  5
1AD
330
1A
100
AcDbEntity
  8
SEIHIN
100
AcDbLine
 10
143.5844491637184
 20
153.8496976226492
 30
0.0
 11
166.6748491637184
 21
170.017797622649
 31
0.0
  0
LINE
  5
1AE
330
1A
100
AcDbEntity
  8
SEIHIN
100
AcDbLine
 10
185.2798491637184
 20
163.149897622649
 30
0.0
 11
169.5468491637184
 21
119.9239976226492
 31
0.0
  0
ARC
  5
1AF
330
1A
100
AcDbEntity
  8
SEIHIN
100
AcDbCircle
 10
163.5844331979517
 20
167.8538204242707
 30
0.0
 40
42.99998403430247
100
AcDbArc
 50
179.9998971362113
 51
249.9998251184871
  0
TEXT
  5
1B4
330
1A
100
AcDbEntity
  8
ZUWAKU
 62
     7
100
AcDbText
 10
25.15073007242387
 20
8.160237806787449
 30
0.0
 40
4.0
  1
丸トップ　たてとい
100
AcDbText
  0
TEXT
  5
1B6
330
1A
100
AcDbEntity
  8
ZUWAKU
 62
     7
100
AcDbText
 10
141.1313324528735
 20
7.9299153608506
 30
0.0
 40
4.0
  1
エルボ（受々）　ＵＴ４２－７０°
100
AcDbText
  0
LINE
  5
1B9
330
1A
100
AcDbEntity
  8
CENTER_L
 48
5.0
100
AcDbLine
 10
183.4983491637186
 20
139.3222976226492
 30
0.0
 11
138.4386491637184
 21
155.7226976226492
 31
0.0
  0
LINE
  5
1BA
330
1A
100
AcDbEntity
  8
SEIHIN
100
AcDbLine
 10
169.5469491637186
 20
119.9239976226492
 30
0.0
 11
148.8775491637186
 21
127.4469976226491
 31
0.0
  0
ELLIPSE
  5
1BB
330
1A
100
AcDbEntity
  8
SEIHIN
100
AcDbEllipse
 10
270.9782960088657
 20
150.087477915738
 30
0.0
 11
-0.0000207093605695
 21
-19.63489686832827
 31
0.0
210
0.0
220
0.0
230
1.0
 40
0.9890766636404192
 41
-1.520550493219742
 42
1.52055049321974
  0
ELLIPSE
  5
1BC
330
1A
100
AcDbEntity
  8
SEIHIN
100
AcDbEllipse
 10
270.9782941306008
 20
148.3066631639733
 30
0.0
 11
-20.99999999998832
 21
0.0000221491651601
 31
0.0
210
0.0
220
0.0
230
0.9999999999999998
 40
0.9396889863294552
 41
0.1723787321215945
 42
2.969213921468218
  0
DIMENSION
  5
1BD
330
1A
100
AcDbEntity
  8
SUNPOU
100
AcDbDimension
  2
*D3
 10
120.5844491637185
 20
211.1854712007688
 30
0.0
 11
143.5844491637185
 21
213.6854712007688
 31
0.0
 70
    32
  1
{φ<>}
  3
STANDARD
100
AcDbAlignedDimension
 13
166.5844491637184
 23
189.8497976226492
 33
0.0
 14
120.5844491637185
 24
189.8497976226492
 34
0.0
100
AcDbRotatedDimension
1001
ACAD
1000
DSTYLE
1002
{
1070
   140
1040
3.0
1070
    74
1070
     0
1070
   172
1070
     1
1070
    73
1070
     0
1070
   272
1070
     2
1070
    77
1070
     3
1070
   173
1070
     1
1070
   147
1040
1.0
1070
    42
1040
3.0
1070
    44
1040
1.5
1070
    43
1040
7.0
1070
   271
1070
     0
1070
   178
1070
     4
1070
   177
1070
     4
1070
   176
1070
     4
1070
   141
1040
150.0
1070
     7
1000
_OPEN
1070
     6
1000
_OPEN
1070
    41
1040
3.0
1002
}
  0
LINE
  5
1BE
330
1A
100
AcDbEntity
  8
SEIHIN
100
AcDbLine
 10
166.5844491637184
 20
189.8496976226492
 30
0.0
 11
120.5844491637185
 21
189.8496976226492
 31
0.0
  0
LINE
  5
1BF
330
1A
100
AcDbEntity
  8
SEIHIN
100
AcDbLine
 10
120.5844491637185
 20
189.8497976226492
 30
0.0
 11
120.5844491637185
 21
167.8537976226492
 31
0.0
  0
LINE
  5
1C0
330
1A
100
AcDbEntity
  8
SEIHIN
100
AcDbLine
 10
166.5844491637184
 20
189.8497976226492
 30
0.0
 11
166.5844491637184
 21
170.3045976226492
 31
0.0
  0
LINE
  5
1C1
330
1A
100
AcDbEntity
  8
SEIHIN
100
AcDbLine
 10
185.2798491637184
 20
163.149897622649
 30
0.0
 11
166.9133491637186
 21
169.8347976226492
 31
0.0
  0
ARC
  5
1C2
330
1A
100
AcDbEntity
  8
SEIHIN
100
AcDbCircle
 10
167.0844897704208
 20
170.3045396221051
 30
0.0
 40
0.5000406100661462
100
AcDbArc
 50
179.9933541669931
 51
249.9857760752018
  0
LINE
  5
1C3
330
1A
100
AcDbEntity
  8
SEIHIN
100
AcDbLine
 10
247.9794491637186
 20
189.8496976226492
 30
0.0
 11
293.9794491637186
 21
189.8496976226492
 31
0.0
  0
TEXT
  5
1C4
330
1A
100
AcDbEntity
  8
ZUWAKU
 62
     7
100
AcDbText
 10
327.1013476411085
 20
8.060146781246267
 30
0.0
 40
4.0
  1
ＧＡ８１
100
AcDbText
  0
DIMENSION
  5
24C
330
1A
100
AcDbEntity
  8
SUNPOU
100
AcDbDimension
  2
*D4
 10
100.0525813012416
 20
164.8496976226492
 30
0.0
 11
97.55258130124161
 21
177.3496976226492
 31
0.0
 70
    32
  1
※ <>
  3
STANDARD
100
AcDbAlignedDimension
 13
120.5844491637185
 23
189.8496976226492
 33
0.0
 14
120.5844491637185
 24
164.8496976226492
 34
0.0
 50
90.0
100
AcDbRotatedDimension
1001
ACAD
1000
DSTYLE
1002
{
1070
   140
1040
3.0
1070
    74
1070
     0
1070
   172
1070
     1
1070
    73
1070
     0
1070
   272
1070
     2
1070
    77
1070
     3
1070
   173
1070
     1
1070
   147
1040
1.0
1070
    42
1040
3.0
1070
    44
1040
1.5
1070
    43
1040
7.0
1070
   271
1070
     0
1070
   178
1070
     4
1070
   177
1070
     4
1070
   176
1070
     4
1070
   141
1040
150.0
1070
     7
1000
_OPEN
1070
     6
1000
_OPEN
1070
    41
1040
3.0
1002
}
  0
DIMENSION
  5
259
330
1A
100
AcDbEntity
  8
SUNPOU
100
AcDbDimension
  2
*D5
 10
91.24115661066412
 20
153.8497783994852
 30
0.0
 11
88.7411566106641
 21
171.8497380110672
 31
0.0
 70
    32
  3
STANDARD
100
AcDbAlignedDimension
 13
120.5844491637185
 23
189.8496976226492
 33
0.0
 14
143.5844491637184
 24
153.8497783994852
 34
0.0
 50
90.0
100
AcDbRotatedDimension
1001
ACAD
1000
DSTYLE
1002
{
1070
   140
1040
3.0
1070
    74
1070
     0
1070
   172
1070
     1
1070
    73
1070
     0
1070
   272
1070
     2
1070
    77
1070
     3
1070
   173
1070
     1
1070
   147
1040
1.0
1070
    42
1040
3.0
1070
    44
1040
1.5
1070
    43
1040
7.0
1070
   271
1070
     0
1070
   178
1070
     4
1070
   177
1070
     4
1070
   176
1070
     4
1070
   141
1040
150.0
1070
     7
1000
_OPEN
1070
     6
1000
_OPEN
1070
    41
1040
3.0
1002
}
  0
DIMENSION
  5
266
330
1A
100
AcDbEntity
  8
SUNPOU
100
AcDbDimension
  2
*D6
 10
137.3848184429507
 20
105.4986068581544
 30
0.0
 11
150.1216738603621
 21
103.5232416893881
 31
0.0
 70
    33
  1
※ <>
  3
STANDARD
100
AcDbAlignedDimension
 13
169.5468491637184
 23
119.9239976226492
 33
0.0
 14
145.7832297399148
 24
128.5731944510657
 34
0.0
1001
ACAD
1000
DSTYLE
1002
{
1070
   140
1040
3.0
1070
    74
1070
     0
1070
   172
1070
     1
1070
    73
1070
     0
1070
   272
1070
     2
1070
    77
1070
     3
1070
   173
1070
     1
1070
   147
1040
1.0
1070
    42
1040
3.0
1070
    44
1040
1.5
1070
    43
1040
7.0
1070
   271
1070
     0
1070
   178
1070
     4
1070
   177
1070
     4
1070
   176
1070
     4
1070
   141
1040
150.0
1070
     7
1000
_OPEN
1070
     6
1000
_OPEN
1070
    41
1040
3.0
1002
}
  0
DIMENSION
  5
273
330
1A
100
AcDbEntity
  8
SUNPOU
100
AcDbDimension
  2
*D7
 10
158.1971677062414
 20
88.74095657215873
 30
0.0
 11
142.1377508224902
 21
97.2465546457996
 31
0.0
 70
    33
  3
STANDARD
100
AcDbAlignedDimension
 13
143.5844491637184
 23
153.8497783994852
 33
0.0
 14
177.4133846086491
 24
141.5370450064303
 34
0.0
1001
ACAD
1000
DSTYLE
1002
{
1070
   140
1040
3.0
1070
    74
1070
     0
1070
   172
1070
     1
1070
    73
1070
     0
1070
   272
1070
     2
1070
    77
1070
     3
1070
   173
1070
     1
1070
   147
1040
1.0
1070
    42
1040
3.0
1070
    44
1040
1.5
1070
    43
1040
7.0
1070
   271
1070
     0
1070
   178
1070
     4
1070
   177
1070
     4
1070
   176
1070
     4
1070
   141
1040
150.0
1070
     7
1000
_OPEN
1070
     6
1000
_OPEN
1070
    41
1040
3.0
1002
}
  0
TEXT
  5
2B6
330
1A
100
AcDbEntity
  8
SUNPOU
  6
CONTINUOUS
 62
     4
100
AcDbText
 10
278.1100009831448
 20
34.72795509915244
 30
0.0
 40
4.0
  1
※　たてといの差込み寸法を示す。
100
AcDbText
  0
VIEWPORT
  5
22
330
17
100
AcDbEntity
 67
     1
  8
0
100
AcDbViewport
 10
313.6808219178082
 20
148.5
 30
0.0
 40
627.3616438356165
 41
297.0
 68
     2
 69
     1
1001
ACAD
1000
MVIEW
1002
{
1070
    16
1010
0.0
1020
0.0
1030
0.0
1010
0.0
1020
0.0
1030
1.0
1040
0.0
1040
297.0
1040
313.6808219178082
1040
148.5
1040
50.0
1040
0.0
1040
0.0
1070
     0
1070
   100
1070
     1
1070
     0
1070
     0
1070
     0
1070
     0
1070
     0
1040
0.0
1040
0.0
1040
0.0
1040
1.0
1040
1.0
1040
10.0
1040
10.0
1070
     0
1002
{
1002
}
1002
}
  0
VIEWPORT
  5
64
330
17
100
AcDbEntity
 67
     1
  8
VIEWPORT
100
AcDbViewport
 10
210.0
 20
148.5
 30
0.0
 40
420.0
 41
297.0
 68
     1
 69
     2
1001
ACAD
1000
MVIEW
1002
{
1070
    16
1010
0.0
1020
0.0
1030
0.0
1010
0.0
1020
0.0
1030
1.0
1040
0.0
1040
302.9399999999998
1040
210.0
1040
148.5
1040
50.0
1040
0.0
1040
0.0
1070
     0
1070
   100
1070
     1
1070
     0
1070
     0
1070
     0
1070
     0
1070
     0
1040
0.0
1040
0.0
1040
0.0
1040
5.0
1040
5.0
1040
0.0
1040
0.0
1070
     0
1002
{
1002
}
1002
}
  0
ENDSEC
  0
SECTION
  2
OBJECTS
  0
DICTIONARY
  5
C
330
0
100
AcDbDictionary
  3
ACAD_GROUP
350
D
  3
ACAD_LAYOUT
350
311
  3
ACAD_MLINESTYLE
350
E
  3
ACAD_PLOTSETTINGS
350
312
  3
ACAD_PLOTSTYLENAME
350
30F
  3
ACDBHEADERROUNDTRIPXREC
350
4A9
  0
DICTIONARY
  5
450
330
1A
100
AcDbDictionary
280
     1
  3
ACAD_LAYOUTSELFREF
360
4CB
  0
DICTIONARY
  5
44E
330
17
100
AcDbDictionary
280
     1
  3
ACAD_LAYOUTSELFREF
360
4CA
  0
DICTIONARY
  5
D
102
{ACAD_REACTORS
330
C
102
}
330
C
100
AcDbDictionary
  0
DICTIONARY
  5
311
102
{ACAD_REACTORS
330
C
102
}
330
C
100
AcDbDictionary
  0
DICTIONARY
  5
E
102
{ACAD_REACTORS
330
C
102
}
330
C
100
AcDbDictionary
  3
STANDARD
350
13
  0
DICTIONARY
  5
312
102
{ACAD_REACTORS
330
C
102
}
330
C
100
AcDbDictionary
  0
ACDBDICTIONARYWDFLT
  5
30F
102
{ACAD_REACTORS
330
C
102
}
330
C
100
AcDbDictionary
281
     1
  3
Normal
350
310
100
AcDbDictionaryWithDefault
340
310
1001
ACAD
1000
TREAT_AS_HARD
1070
     0
1000
TREAT_AS_HARD
1070
     0
  0
DICTIONARY
  5
4A9
102
{ACAD_REACTORS
330
C
102
}
330
C
100
AcDbDictionary
  3
TSTACKALIGN
350
4AA
  3
TSTACKSIZE
350
4AB
  3
HYPERLINKBASE
350
4AC
  3
STYLESHEET
350
4AD
  3
LAYOUTDICT
350
4AE
  3
PLOTSETDICT
350
4AF
  3
PLOTSTYLNAMDICT
350
4B0
  3
LWETCUNION
350
4B1
  3
INSUNITS
350
4B2
  3
CEPSNTYPE
350
4B3
  3
FINGERPRINTGUID
350
4B4
  3
VERSIONGUID
350
4B5
  3
PSVPSCALE
350
4B6
  3
DIMSTYLEDATA
350
4B7
  3
PUCSORTHOREF
350
4B8
  3
PUCSORTHOVIEW
350
4B9
  3
PUCSBASE
350
4BA
  3
PUCSORGTOP
350
4BB
  3
PUCSORGBOTTOM
350
4BC
  3
PUCSORGLEFT
350
4BD
  3
PUCSORGRIGHT
350
4BE
  3
PUCSORGFRONT
350
4BF
  3
PUCSORGBACK
350
4C0
  3
UCSORTHOREF
350
4C1
  3
UCSORTHOVIEW
350
4C2
  3
UCSBASE
350
4C3
  3
UCSORGTOP
350
4C4
  3
UCSORGBOTTOM
350
4C5
  3
UCSORGLEFT
350
4C6
  3
UCSORGRIGHT
350
4C7
  3
UCSORGFRONT
350
4C8
  3
UCSORGBACK
350
4C9
  0
XRECORD
  5
4CB
102
{ACAD_REACTORS
330
450
102
}
330
450
100
AcDbXrecord
340
1A
  0
XRECORD
  5
4CA
102
{ACAD_REACTORS
330
44E
102
}
330
44E
100
AcDbXrecord
340
17
  0
MLINESTYLE
  5
13
102
{ACAD_REACTORS
330
E
102
}
330
E
100
AcDbMlineStyle
  2
STANDARD
 70
     0
  3

 62
     0
 51
90.0
 52
90.0
 71
     2
 49
0.5
 62
   256
  6
BYLAYER
 49
-0.5
 62
   256
  6
BYLAYER
  0
ACDBPLACEHOLDER
  5
310
102
{ACAD_REACTORS
330
30F
102
}
330
30F
100
AcDbPlaceHolder
280
     0
  0
XRECORD
  5
4AA
102
{ACAD_REACTORS
330
4A9
102
}
330
4A9
100
AcDbXrecord
 90
        1
  0
XRECORD
  5
4AB
102
{ACAD_REACTORS
330
4A9
102
}
330
4A9
100
AcDbXrecord
 90
       70
  0
XRECORD
  5
4AC
102
{ACAD_REACTORS
330
4A9
102
}
330
4A9
100
AcDbXrecord
  1

  0
XRECORD
  5
4AD
102
{ACAD_REACTORS
330
4A9
102
}
330
4A9
100
AcDbXrecord
  1
systemprinter.ctb
  0
XRECORD
  5
4AE
102
{ACAD_REACTORS
330
4A9
102
}
330
4A9
100
AcDbXrecord
340
311
  0
XRECORD
  5
4AF
102
{ACAD_REACTORS
330
4A9
102
}
330
4A9
100
AcDbXrecord
340
312
  0
XRECORD
  5
4B0
102
{ACAD_REACTORS
330
4A9
102
}
330
4A9
100
AcDbXrecord
340
30F
  0
XRECORD
  5
4B1
102
{ACAD_REACTORS
330
4A9
102
}
330
4A9
100
AcDbXrecord
 90
    10781
  0
XRECORD
  5
4B2
102
{ACAD_REACTORS
330
4A9
102
}
330
4A9
100
AcDbXrecord
 90
        0
  0
XRECORD
  5
4B3
102
{ACAD_REACTORS
330
4A9
102
}
330
4A9
100
AcDbXrecord
 90
        0
  0
XRECORD
  5
4B4
102
{ACAD_REACTORS
330
4A9
102
}
330
4A9
100
AcDbXrecord
  1
{A2212E5E-C173-4F3E-B5FF-10808C8FA051}
  0
XRECORD
  5
4B5
102
{ACAD_REACTORS
330
4A9
102
}
330
4A9
100
AcDbXrecord
  1
{23EBD6D4-9F32-4BC1-BE78-9E814538825A}
  0
XRECORD
  5
4B6
102
{ACAD_REACTORS
330
4A9
102
}
330
4A9
100
AcDbXrecord
 40
0.0
  0
XRECORD
  5
4B7
102
{ACAD_REACTORS
330
4A9
102
}
330
4A9
100
AcDbXrecord
1000
DSTYLE
1002
{
1070
   341
340
B2
1070
   343
340
B2
1070
   344
340
B2
1070
   371
 70
    -1
1070
   372
 70
    -1
1002
}
  0
XRECORD
  5
4B8
102
{ACAD_REACTORS
330
4A9
102
}
330
4A9
100
AcDbXrecord
340
0
  0
XRECORD
  5
4B9
102
{ACAD_REACTORS
330
4A9
102
}
330
4A9
100
AcDbXrecord
 70
     0
  0
XRECORD
  5
4BA
102
{ACAD_REACTORS
330
4A9
102
}
330
4A9
100
AcDbXrecord
340
0
  0
XRECORD
  5
4BB
102
{ACAD_REACTORS
330
4A9
102
}
330
4A9
100
AcDbXrecord
 10
0.0
 20
0.0
 30
0.0
  0
XRECORD
  5
4BC
102
{ACAD_REACTORS
330
4A9
102
}
330
4A9
100
AcDbXrecord
 10
0.0
 20
0.0
 30
0.0
  0
XRECORD
  5
4BD
102
{ACAD_REACTORS
330
4A9
102
}
330
4A9
100
AcDbXrecord
 10
0.0
 20
0.0
 30
0.0
  0
XRECORD
  5
4BE
102
{ACAD_REACTORS
330
4A9
102
}
330
4A9
100
AcDbXrecord
 10
0.0
 20
0.0
 30
0.0
  0
XRECORD
  5
4BF
102
{ACAD_REACTORS
330
4A9
102
}
330
4A9
100
AcDbXrecord
 10
0.0
 20
0.0
 30
0.0
  0
XRECORD
  5
4C0
102
{ACAD_REACTORS
330
4A9
102
}
330
4A9
100
AcDbXrecord
 10
0.0
 20
0.0
 30
0.0
  0
XRECORD
  5
4C1
102
{ACAD_REACTORS
330
4A9
102
}
330
4A9
100
AcDbXrecord
340
0
  0
XRECORD
  5
4C2
102
{ACAD_REACTORS
330
4A9
102
}
330
4A9
100
AcDbXrecord
 70
     0
  0
XRECORD
  5
4C3
102
{ACAD_REACTORS
330
4A9
102
}
330
4A9
100
AcDbXrecord
340
0
  0
XRECORD
  5
4C4
102
{ACAD_REACTORS
330
4A9
102
}
330
4A9
100
AcDbXrecord
 10
0.0
 20
0.0
 30
0.0
  0
XRECORD
  5
4C5
102
{ACAD_REACTORS
330
4A9
102
}
330
4A9
100
AcDbXrecord
 10
0.0
 20
0.0
 30
0.0
  0
XRECORD
  5
4C6
102
{ACAD_REACTORS
330
4A9
102
}
330
4A9
100
AcDbXrecord
 10
0.0
 20
0.0
 30
0.0
  0
XRECORD
  5
4C7
102
{ACAD_REACTORS
330
4A9
102
}
330
4A9
100
AcDbXrecord
 10
0.0
 20
0.0
 30
0.0
  0
XRECORD
  5
4C8
102
{ACAD_REACTORS
330
4A9
102
}
330
4A9
100
AcDbXrecord
 10
0.0
 20
0.0
 30
0.0
  0
XRECORD
  5
4C9
102
{ACAD_REACTORS
330
4A9
102
}
330
4A9
100
AcDbXrecord
 10
0.0
 20
0.0
 30
0.0
  0
ENDSEC
  0
EOF
