  0
SECTION
  2
HEADER
  9
$ACADVER
  1
AC1012
  9
$DWGCODEPAGE
  3
dos932
  9
$INSBASE
 10
0.0
 20
0.0
 30
0.0
  9
$EXTMIN
 10
5.0
 20
2.449000558492456
 30
-0.00000001
  9
$EXTMAX
 10
403.0
 20
282.0
 30
0.00000001
  9
$LIMMIN
 10
0.0
 20
0.0
  9
$LIMMAX
 10
420.0
 20
297.0
  9
$ORTHOMODE
 70
     0
  9
$REGENMODE
 70
     1
  9
$FILLMODE
 70
     1
  9
$QTEXTMODE
 70
     0
  9
$MIRRTEXT
 70
     1
  9
$DRAGMODE
 70
     2
  9
$LTSCALE
 40
1.0
  9
$OSMODE
 70
    37
  9
$ATTMODE
 70
     1
  9
$TEXTSIZE
 40
2.5
  9
$TRACEWID
 40
1.0
  9
$TEXTSTYLE
  7
STANDARD
  9
$CLAYER
  8
SUNPOU
  9
$CELTYPE
  6
BYLAYER
  9
$CECOLOR
 62
   256
  9
$CELTSCALE
 40
1.0
  9
$DELOBJ
 70
     1
  9
$DISPSILH
 70
     0
  9
$DIMSCALE
 40
1.0
  9
$DIMASZ
 40
3.0
  9
$DIMEXO
 40
3.0
  9
$DIMDLI
 40
7.0
  9
$DIMRND
 40
0.0
  9
$DIMDLE
 40
0.0
  9
$DIMEXE
 40
1.5
  9
$DIMTP
 40
0.0
  9
$DIMTM
 40
0.0
  9
$DIMTXT
 40
3.0
  9
$DIMCEN
 40
150.0
  9
$DIMTSZ
 40
0.0
  9
$DIMTOL
 70
     0
  9
$DIMLIM
 70
     0
  9
$DIMTIH
 70
     0
  9
$DIMTOH
 70
     0
  9
$DIMSE1
 70
     0
  9
$DIMSE2
 70
     0
  9
$DIMTAD
 70
     3
  9
$DIMZIN
 70
     0
  9
$DIMBLK
  1

  9
$DIMASO
 70
     1
  9
$DIMSHO
 70
     1
  9
$DIMPOST
  1

  9
$DIMAPOST
  1

  9
$DIMALT
 70
     0
  9
$DIMALTD
 70
     2
  9
$DIMALTF
 40
25.4
  9
$DIMLFAC
 40
1.0
  9
$DIMTOFL
 70
     1
  9
$DIMTVP
 40
0.0
  9
$DIMTIX
 70
     0
  9
$DIMSOXD
 70
     0
  9
$DIMSAH
 70
     1
  9
$DIMBLK1
  1
OPEN
  9
$DIMBLK2
  1
OPEN
  9
$DIMSTYLE
  2
STANDARD
  9
$DIMCLRD
 70
   256
  9
$DIMCLRE
 70
   256
  9
$DIMCLRT
 70
   256
  9
$DIMTFAC
 40
1.0
  9
$DIMGAP
 40
1.0
  9
$DIMJUST
 70
     0
  9
$DIMSD1
 70
     0
  9
$DIMSD2
 70
     0
  9
$DIMTOLJ
 70
     1
  9
$DIMTZIN
 70
     0
  9
$DIMALTZ
 70
     0
  9
$DIMALTTZ
 70
     0
  9
$DIMFIT
 70
     3
  9
$DIMUPT
 70
     0
  9
$DIMUNIT
 70
     2
  9
$DIMDEC
 70
     0
  9
$DIMTDEC
 70
     0
  9
$DIMALTU
 70
     2
  9
$DIMALTTD
 70
     2
  9
$DIMTXSTY
  7
STANDARD
  9
$DIMAUNIT
 70
     0
  9
$LUNITS
 70
     2
  9
$LUPREC
 70
     4
  9
$SKETCHINC
 40
1.0
  9
$FILLETRAD
 40
10.0
  9
$AUNITS
 70
     0
  9
$AUPREC
 70
     0
  9
$MENU
  1
.
  9
$ELEVATION
 40
0.0
  9
$PELEVATION
 40
0.0
  9
$THICKNESS
 40
0.0
  9
$LIMCHECK
 70
     0
  9
$BLIPMODE
 70
     0
  9
$CHAMFERA
 40
10.0
  9
$CHAMFERB
 40
10.0
  9
$CHAMFERC
 40
20.0
  9
$CHAMFERD
 40
0.0
  9
$SKPOLY
 70
     0
  9
$TDCREATE
 40
2451202.909885879
  9
$TDUPDATE
 40
2452395.862340648
  9
$TDINDWG
 40
0.0069053704
  9
$TDUSRTIMER
 40
0.0069053704
  9
$USRTIMER
 70
     1
  9
$ANGBASE
 50
0.0
  9
$ANGDIR
 70
     0
  9
$PDMODE
 70
     0
  9
$PDSIZE
 40
0.0
  9
$PLINEWID
 40
0.0
  9
$COORDS
 70
     1
  9
$SPLFRAME
 70
     0
  9
$SPLINETYPE
 70
     6
  9
$SPLINESEGS
 70
     8
  9
$ATTDIA
 70
     0
  9
$ATTREQ
 70
     1
  9
$HANDLING
 70
 10241
  9
$HANDSEED
  5
3B5
  9
$SURFTAB1
 70
     6
  9
$SURFTAB2
 70
     6
  9
$SURFTYPE
 70
     6
  9
$SURFU
 70
     6
  9
$SURFV
 70
     6
  9
$UCSNAME
  2

  9
$UCSORG
 10
0.0
 20
0.0
 30
0.0
  9
$UCSXDIR
 10
1.0
 20
0.0
 30
0.0
  9
$UCSYDIR
 10
0.0
 20
1.0
 30
0.0
  9
$PUCSNAME
  2

  9
$PUCSORG
 10
0.0
 20
0.0
 30
0.0
  9
$PUCSXDIR
 10
1.0
 20
0.0
 30
0.0
  9
$PUCSYDIR
 10
0.0
 20
1.0
 30
0.0
  9
$USERI1
 70
     0
  9
$USERI2
 70
     0
  9
$USERI3
 70
     0
  9
$USERI4
 70
     0
  9
$USERI5
 70
     0
  9
$USERR1
 40
0.0
  9
$USERR2
 40
0.0
  9
$USERR3
 40
0.0
  9
$USERR4
 40
0.0
  9
$USERR5
 40
0.0
  9
$WORLDVIEW
 70
     1
  9
$SHADEDGE
 70
     3
  9
$SHADEDIF
 70
    70
  9
$TILEMODE
 70
     1
  9
$MAXACTVP
 70
    16
  9
$PINSBASE
 10
0.0
 20
0.0
 30
0.0
  9
$PLIMCHECK
 70
     0
  9
$PEXTMIN
 10
0.0
 20
0.0
 30
0.0
  9
$PEXTMAX
 10
420.0
 20
297.0
 30
0.0
  9
$PLIMMIN
 10
0.0
 20
0.0
  9
$PLIMMAX
 10
420.0
 20
297.0
  9
$UNITMODE
 70
     0
  9
$VISRETAIN
 70
     0
  9
$PLINEGEN
 70
     0
  9
$PSLTSCALE
 70
     1
  9
$TREEDEPTH
 70
  3020
  9
$PICKSTYLE
 70
     1
  9
$CMLSTYLE
  2
STANDARD
  9
$CMLJUST
 70
     0
  9
$CMLSCALE
 40
1.0
  9
$SAVEIMAGES
 70
     1
  0
ENDSEC
  0
SECTION
  2
CLASSES
  0
CLASS
  1
ACDBDICTIONARYWDFLT
  2
AcDbDictionaryWithDefault
  3
AutoCAD 2000
 90
    32768
280
     0
281
     0
  0
CLASS
  1
ACDBPLACEHOLDER
  2
AcDbPlaceHolder
  3
AutoCAD 2000
 90
    32768
280
     0
281
     0
  0
CLASS
  1
LAYOUT
  2
AcDbLayout
  3
AutoCAD 2000
 90
    32768
280
     0
281
     0
  0
CLASS
  1
LONG_TRANSACTION
  2
AcDbLongTransaction
  3
AutoCAD 2000
 90
    32768
280
     0
281
     0
  0
CLASS
  1
LWPOLYLINE
  2
AcDbPolyline
  3
AutoCAD 2000
 90
    32768
280
     0
281
     1
  0
CLASS
  1
HATCH
  2
AcDbHatch
  3
AutoCAD 2000
 90
    32768
280
     0
281
     1
  0
CLASS
  1
XRECORD
  2
AcDbXrecord
  3
AutoCAD 2000
 90
    32768
280
     0
281
     0
  0
CLASS
  1
LONG_TRANSACTION
  2
AcDbLongTransaction
  3
AutoCAD 2000
 90
    32768
280
     0
281
     0
  0
CLASS
  1
LWPOLYLINE
  2
AcDbPolyline
  3
AutoCAD 2000
 90
    32768
280
     0
281
     1
  0
CLASS
  1
HATCH
  2
AcDbHatch
  3
AutoCAD 2000
 90
    32768
280
     0
281
     1
  0
CLASS
  1
XRECORD
  2
AcDbXrecord
  3
AutoCAD 2000
 90
    32768
280
     0
281
     0
  0
CLASS
  1
LONG_TRANSACTION
  2
AcDbLongTransaction
  3
AutoCAD 2000
 90
    32768
280
     0
281
     0
  0
CLASS
  1
LWPOLYLINE
  2
AcDbPolyline
  3
AutoCAD 2000
 90
    32768
280
     0
281
     1
  0
CLASS
  1
HATCH
  2
AcDbHatch
  3
AutoCAD 2000
 90
    32768
280
     0
281
     1
  0
CLASS
  1
XRECORD
  2
AcDbXrecord
  3
AutoCAD 2000
 90
    32768
280
     0
281
     0
  0
CLASS
  1
LONG_TRANSACTION
  2
AcDbLongTransaction
  3
AutoCAD 2000
 90
    32768
280
     0
281
     0
  0
CLASS
  1
LWPOLYLINE
  2
AcDbPolyline
  3
AutoCAD 2000
 90
    32768
280
     0
281
     1
  0
CLASS
  1
HATCH
  2
AcDbHatch
  3
AutoCAD 2000
 90
    32768
280
     0
281
     1
  0
CLASS
  1
XRECORD
  2
AcDbXrecord
  3
AutoCAD 2000
 90
    32768
280
     0
281
     0
  0
ENDSEC
  0
SECTION
  2
TABLES
  0
TABLE
  2
VPORT
  5
8
330
0
100
AcDbSymbolTable
 70
     2
  0
VPORT
  5
3A8
330
8
100
AcDbSymbolTableRecord
100
AcDbViewportTableRecord
  2
*ACTIVE
 70
     0
 10
0.0
 20
0.0
 11
1.0
 21
1.0
 12
272.8395832509978
 22
148.5
 13
0.0
 23
0.0
 14
5.0
 24
5.0
 15
0.0
 25
0.0
 16
0.0
 26
0.0
 36
1.0
 17
0.0
 27
0.0
 37
0.0
 40
300.2817679558011
 41
2.169459962756052
 42
50.0
 43
0.0
 44
0.0
 50
0.0
 51
0.0
 71
     0
 72
   100
 73
     1
 74
     0
 75
     0
 76
     0
 77
     0
 78
     0
  0
ENDTAB
  0
TABLE
  2
LTYPE
  5
5
330
0
100
AcDbSymbolTable
 70
     2
  0
LTYPE
  5
14
330
5
100
AcDbSymbolTableRecord
100
AcDbLinetypeTableRecord
  2
BYBLOCK
 70
     0
  3

 72
    65
 73
     0
 40
0.0
  0
LTYPE
  5
15
330
5
100
AcDbSymbolTableRecord
100
AcDbLinetypeTableRecord
  2
BYLAYER
 70
     0
  3

 72
    65
 73
     0
 40
0.0
  0
LTYPE
  5
16
330
5
100
AcDbSymbolTableRecord
100
AcDbLinetypeTableRecord
  2
CONTINUOUS
 70
     0
  3
Solid line
 72
    65
 73
     0
 40
0.0
  0
LTYPE
  5
120
330
5
100
AcDbSymbolTableRecord
100
AcDbLinetypeTableRecord
  2
CENTER
 70
     0
  3
____ _ ____ _ ____ _ ____ _ ____ _ ____ _ ____ 
 72
    65
 73
     4
 40
2.0
 49
1.25
 74
     0
 49
-0.25
 74
     0
 49
0.25
 74
     0
 49
-0.25
 74
     0
  0
ENDTAB
  0
TABLE
  2
LAYER
  5
2
330
0
100
AcDbSymbolTable
 70
     7
  0
LAYER
  5
F
330
2
100
AcDbSymbolTableRecord
100
AcDbLayerTableRecord
  2
0
 70
     0
 62
     7
  6
CONTINUOUS
  0
LAYER
  5
62
330
2
100
AcDbSymbolTableRecord
100
AcDbLayerTableRecord
  2
VIEWPORT
 70
     0
 62
     7
  6
CONTINUOUS
  0
LAYER
  5
6B
330
2
100
AcDbSymbolTableRecord
100
AcDbLayerTableRecord
  2
ZUWAKU
 70
     0
 62
     7
  6
CONTINUOUS
  0
LAYER
  5
134
330
2
100
AcDbSymbolTableRecord
100
AcDbLayerTableRecord
  2
SUNPOU
 70
     0
 62
     4
  6
CONTINUOUS
  0
LAYER
  5
135
330
2
100
AcDbSymbolTableRecord
100
AcDbLayerTableRecord
  2
CENTER_L
 70
     0
 62
     1
  6
CENTER
  0
LAYER
  5
136
330
2
100
AcDbSymbolTableRecord
100
AcDbLayerTableRecord
  2
SEIHIN
 70
     0
 62
     3
  6
CONTINUOUS
  0
LAYER
  5
1A7
330
2
100
AcDbSymbolTableRecord
100
AcDbLayerTableRecord
  2
DEFPOINTS
 70
     0
 62
     7
  6
CONTINUOUS
  0
ENDTAB
  0
TABLE
  2
STYLE
  5
3
330
0
100
AcDbSymbolTable
 70
     1
  0
STYLE
  5
10
330
3
100
AcDbSymbolTableRecord
100
AcDbTextStyleTableRecord
  2
STANDARD
 70
     0
 40
0.0
 41
1.0
 50
0.0
 71
     0
 42
2.5
  3
TXT
  4
bigfont.shx
  0
ENDTAB
  0
TABLE
  2
VIEW
  5
6
330
0
100
AcDbSymbolTable
 70
     0
  0
ENDTAB
  0
TABLE
  2
UCS
  5
7
330
0
100
AcDbSymbolTable
 70
     0
  0
ENDTAB
  0
TABLE
  2
APPID
  5
9
330
0
100
AcDbSymbolTable
 70
     1
  0
APPID
  5
11
330
9
100
AcDbSymbolTableRecord
100
AcDbRegAppTableRecord
  2
ACAD
 70
     0
  0
ENDTAB
  0
TABLE
  2
DIMSTYLE
  5
A
330
0
100
AcDbSymbolTable
 70
     1
  0
DIMSTYLE
105
1D
102
{ACAD_REACTORS
330
1E9
330
1EA
330
1EB
330
1EC
330
1ED
330
1EE
330
1FB
330
1FD
102
}
330
A
100
AcDbSymbolTableRecord
100
AcDbDimStyleTableRecord
  2
STANDARD
 70
     0
  3

  4

  5

  6

  7

 40
1.0
 41
0.18
 42
0.0625
 43
0.38
 44
0.18
 45
0.0
 46
0.0
 47
0.0
 48
0.0
140
0.18
141
0.09
142
0.0
143
25.4
144
1.0
145
0.0
146
1.0
147
0.09
 71
     0
 72
     0
 73
     1
 74
     1
 75
     0
 76
     0
 77
     0
 78
     0
170
     0
171
     2
172
     0
173
     0
174
     0
175
     0
176
     0
177
     0
178
     0
270
     2
271
     4
272
     4
273
     2
274
     2
340
10
275
     0
280
     0
281
     0
282
     0
283
     1
284
     0
285
     0
286
     0
287
     3
288
     0
  0
ENDTAB
  0
TABLE
  2
BLOCK_RECORD
  5
1
330
0
100
AcDbSymbolTable
 70
     9
  0
BLOCK_RECORD
  5
1A
102
{ACAD_XDICTIONARY
360
314
102
}
330
1
100
AcDbSymbolTableRecord
100
AcDbBlockTableRecord
  2
*MODEL_SPACE
  0
BLOCK_RECORD
  5
17
102
{ACAD_XDICTIONARY
360
312
102
}
330
1
100
AcDbSymbolTableRecord
100
AcDbBlockTableRecord
  2
*PAPER_SPACE
  0
BLOCK_RECORD
  5
B2
330
1
100
AcDbSymbolTableRecord
100
AcDbBlockTableRecord
  2
_OPEN
  0
BLOCK_RECORD
  5
212
330
1
100
AcDbSymbolTableRecord
100
AcDbBlockTableRecord
  2
*D1
  0
BLOCK_RECORD
  5
21E
330
1
100
AcDbSymbolTableRecord
100
AcDbBlockTableRecord
  2
*D2
  0
BLOCK_RECORD
  5
22B
330
1
100
AcDbSymbolTableRecord
100
AcDbBlockTableRecord
  2
*D3
  0
BLOCK_RECORD
  5
237
330
1
100
AcDbSymbolTableRecord
100
AcDbBlockTableRecord
  2
*D4
  0
BLOCK_RECORD
  5
243
330
1
100
AcDbSymbolTableRecord
100
AcDbBlockTableRecord
  2
*D5
  0
BLOCK_RECORD
  5
24F
330
1
100
AcDbSymbolTableRecord
100
AcDbBlockTableRecord
  2
*D6
  0
BLOCK_RECORD
  5
25B
330
1
100
AcDbSymbolTableRecord
100
AcDbBlockTableRecord
  2
*D7
  0
BLOCK_RECORD
  5
267
330
1
100
AcDbSymbolTableRecord
100
AcDbBlockTableRecord
  2
*D8
  0
ENDTAB
  0
ENDSEC
  0
SECTION
  2
BLOCKS
  0
BLOCK
  5
1B
330
1A
100
AcDbEntity
  8
0
100
AcDbBlockBegin
  2
*MODEL_SPACE
 70
     0
 10
0.0
 20
0.0
 30
0.0
  3
*MODEL_SPACE
  1

  0
ENDBLK
  5
1C
330
1A
100
AcDbEntity
  8
0
100
AcDbBlockEnd
  0
BLOCK
  5
18
330
17
100
AcDbEntity
 67
     1
  8
0
100
AcDbBlockBegin
  2
*PAPER_SPACE
 70
     0
 10
0.0
 20
0.0
 30
0.0
  3
*PAPER_SPACE
  1

  0
ENDBLK
  5
19
330
17
100
AcDbEntity
 67
     1
  8
0
100
AcDbBlockEnd
  0
BLOCK
  5
B3
330
B2
100
AcDbEntity
  8
0
100
AcDbBlockBegin
  2
_OPEN
 70
     0
 10
0.0
 20
0.0
 30
0.0
  3
_OPEN
  1

  0
LINE
  5
B4
330
B2
100
AcDbEntity
  8
0
  6
BYBLOCK
 62
     0
100
AcDbLine
 10
-1.0
 20
0.1666666666666666
 30
0.0
 11
0.0
 21
0.0
 31
0.0
  0
LINE
  5
B5
330
B2
100
AcDbEntity
  8
0
  6
BYBLOCK
 62
     0
100
AcDbLine
 10
0.0
 20
0.0
 30
0.0
 11
-1.0
 21
-0.1666666666666666
 31
0.0
  0
LINE
  5
B6
330
B2
100
AcDbEntity
  8
0
  6
BYBLOCK
 62
     0
100
AcDbLine
 10
0.0
 20
0.0
 30
0.0
 11
-1.0
 21
0.0
 31
0.0
  0
ENDBLK
  5
B7
330
B2
100
AcDbEntity
  8
0
100
AcDbBlockEnd
  0
BLOCK
  5
273
330
212
100
AcDbEntity
  8
0
100
AcDbBlockBegin
  2
*D1
 70
     1
 10
0.0
 20
0.0
 30
0.0
  3
*D1
  1

  0
LINE
  5
274
330
212
100
AcDbEntity
  8
0
  6
BYBLOCK
 62
     4
100
AcDbLine
 10
122.4328376922539
 20
160.5869091159871
 30
0.0
 11
122.4328376922539
 21
176.2416443305546
 31
0.0
  0
LINE
  5
275
330
212
100
AcDbEntity
  8
0
  6
BYBLOCK
 62
     4
100
AcDbLine
 10
155.3221382661948
 20
148.6161765518191
 30
0.0
 11
155.3221382661948
 21
176.2416443305546
 31
0.0
  0
LINE
  5
276
330
212
100
AcDbEntity
  8
0
  6
BYBLOCK
 62
     4
100
AcDbLine
 10
125.4328376922539
 20
174.7416443305547
 30
0.0
 11
152.3221382661948
 21
174.7416443305547
 31
0.0
  0
INSERT
  5
277
330
212
100
AcDbEntity
  8
0
  6
BYBLOCK
 62
     4
100
AcDbBlockReference
  2
_OPEN
 10
122.4328376922539
 20
174.7416443305547
 30
0.0
 41
3.0
 42
3.0
 43
3.0
 50
180.0
  0
INSERT
  5
278
330
212
100
AcDbEntity
  8
0
  6
BYBLOCK
 62
     4
100
AcDbBlockReference
  2
_OPEN
 10
155.3221382661948
 20
174.7416443305547
 30
0.0
 41
3.0
 42
3.0
 43
3.0
  0
MTEXT
  5
279
330
212
100
AcDbEntity
  8
0
  6
BYBLOCK
 62
     4
100
AcDbMText
 10
138.8774879792244
 20
177.2416443305546
 30
0.0
 40
3.0
 41
0.0
 71
     5
 72
     1
  1
\A1;33
1001
ACAD
1000
MTEXTBEGIN
1070
    73
1070
     1
1070
    44
1040
1.0
1070
    74
1070
     0
1000
MTEXTEND
1000
MTEXTBEGIN
1070
    73
1070
     1
1070
    44
1040
1.0
1070
    74
1070
     0
1000
MTEXTEND
1000
MTEXTBEGIN
1070
    73
1070
     1
1070
    44
1040
1.0
1070
    74
1070
     0
1000
MTEXTEND
1000
MTEXTBEGIN
1070
    73
1070
     1
1070
    44
1040
1.0
1070
    74
1070
     0
1000
MTEXTEND
  0
POINT
  5
27A
330
212
100
AcDbEntity
  8
DEFPOINTS
  6
BYBLOCK
 62
     0
100
AcDbPoint
 10
122.4328376922539
 20
157.5869091159871
 30
0.0
  0
POINT
  5
27B
330
212
100
AcDbEntity
  8
DEFPOINTS
  6
BYBLOCK
 62
     0
100
AcDbPoint
 10
155.3221382661948
 20
145.6161765518191
 30
0.0
  0
POINT
  5
27C
330
212
100
AcDbEntity
  8
DEFPOINTS
  6
BYBLOCK
 62
     0
100
AcDbPoint
 10
155.3221382661948
 20
174.7416443305547
 30
0.0
  0
ENDBLK
  5
27D
330
212
100
AcDbEntity
  8
0
100
AcDbBlockEnd
  0
BLOCK
  5
27E
330
21E
100
AcDbEntity
  8
0
100
AcDbBlockBegin
  2
*D2
 70
     1
 10
0.0
 20
0.0
 30
0.0
  3
*D2
  1

  0
LINE
  5
3AB
330
21E
100
AcDbEntity
  8
SUNPOU
  6
CONTINUOUS
 62
     4
100
AcDbLine
 10
122.4328376922539
 20
147.5869091159871
 30
0.0
 11
122.4328376922539
 21
128.2974797102448
 31
0.0
  0
ARC
  5
3AC
330
21E
100
AcDbEntity
  8
SUNPOU
  6
CONTINUOUS
 62
     4
100
AcDbCircle
 10
122.4328376922539
 20
157.586909115987
 30
0.0
 40
27.7894294057422
100
AcDbArc
 50
276.1883571937424
 51
333.8116333774033
  0
INSERT
  5
3AD
330
21E
100
AcDbEntity
  8
SUNPOU
  6
CONTINUOUS
 62
     4
100
AcDbBlockReference
  2
_OPEN
 10
122.4328376922539
 20
129.7974797102448
 30
0.0
 41
3.0
 42
3.0
 43
3.0
 50
183.0941785968712
  0
INSERT
  5
3AE
330
21E
100
AcDbEntity
  8
SUNPOU
  6
CONTINUOUS
 62
     4
100
AcDbBlockReference
  2
_OPEN
 10
148.5463578765694
 20
148.0823601903367
 30
0.0
 41
3.0
 42
3.0
 43
3.0
 50
66.90581197427455
  0
MTEXT
  5
3AF
330
21E
100
AcDbEntity
  8
SUNPOU
  6
CONTINUOUS
 62
     4
100
AcDbMText
 10
136.9382567836004
 20
136.8710201258322
 30
0.0
 40
3.0
 41
0.0
 71
     5
 72
     1
  1
\A1;70°
 11
0.8191520914841637
 21
0.5735763689493498
 31
0.0
  0
POINT
  5
3B0
330
21E
100
AcDbEntity
  8
DEFPOINTS
  6
CONTINUOUS
 62
     0
100
AcDbPoint
 10
133.4396669899271
 20
132.0702068308442
 30
0.0
  0
POINT
  5
3B1
330
21E
100
AcDbEntity
  8
DEFPOINTS
  6
CONTINUOUS
 62
     0
100
AcDbPoint
 10
201.6995376922539
 20
128.7361749749285
 30
0.0
  0
POINT
  5
3B2
330
21E
100
AcDbEntity
  8
DEFPOINTS
  6
CONTINUOUS
 62
     0
100
AcDbPoint
 10
122.4328376922539
 20
150.5869091159871
 30
0.0
  0
POINT
  5
3B3
330
21E
100
AcDbEntity
  8
DEFPOINTS
  6
CONTINUOUS
 62
     0
100
AcDbPoint
 10
122.4328376922539
 20
236.5868749749285
 30
0.0
  0
POINT
  5
3B4
330
21E
100
AcDbEntity
  8
DEFPOINTS
  6
CONTINUOUS
 62
     0
100
AcDbPoint
 10
115.8549897407434
 20
159.9810512017473
 30
0.0
  0
ENDBLK
  5
289
330
21E
100
AcDbEntity
  8
0
100
AcDbBlockEnd
  0
BLOCK
  5
28A
330
22B
100
AcDbEntity
  8
0
100
AcDbBlockBegin
  2
*D3
 70
     1
 10
0.0
 20
0.0
 30
0.0
  3
*D3
  1

  0
LINE
  5
28B
330
22B
100
AcDbEntity
  8
0
  6
BYBLOCK
 62
     4
100
AcDbLine
 10
209.8253154919264
 20
172.5625143727246
 30
0.0
 11
231.2917943103672
 21
164.7493535631132
 31
0.0
  0
LINE
  5
28C
330
22B
100
AcDbEntity
  8
0
  6
BYBLOCK
 62
     4
100
AcDbLine
 10
179.7532154919263
 20
89.9401143727246
 30
0.0
 11
201.2196943103671
 21
82.12695356311323
 31
0.0
  0
LINE
  5
28D
330
22B
100
AcDbEntity
  8
0
  6
BYBLOCK
 62
     4
100
AcDbLine
 10
228.8561948083272
 20
162.4433060645428
 30
0.0
 11
200.8362160127348
 21
85.45906166388745
 31
0.0
  0
INSERT
  5
28E
330
22B
100
AcDbEntity
  8
0
  6
BYBLOCK
 62
     4
100
AcDbBlockReference
  2
_OPEN
 10
229.882255410531
 20
165.2623838642151
 30
0.0
 41
3.0
 42
3.0
 43
3.0
 50
69.99999649961082
  0
INSERT
  5
28F
330
22B
100
AcDbEntity
  8
0
  6
BYBLOCK
 62
     4
100
AcDbBlockReference
  2
_OPEN
 10
199.810155410531
 20
82.63998386421514
 30
0.0
 41
3.0
 42
3.0
 43
3.0
 50
249.9999964996108
  0
MTEXT
  5
290
330
22B
100
AcDbEntity
  8
0
  6
BYBLOCK
 62
     4
100
AcDbMText
 10
212.4969739108041
 20
124.8062343660516
 30
0.0
 40
3.0
 41
0.0
 71
     5
 72
     1
  1
\A1;φ 88
 11
0.342020200734607
 21
0.9396925998907617
 31
0.0
1001
ACAD
1000
MTEXTBEGIN
1070
    73
1070
     1
1070
    44
1040
1.0
1070
    74
1070
     0
1000
MTEXTEND
1000
MTEXTBEGIN
1070
    73
1070
     1
1070
    44
1040
1.0
1070
    74
1070
     0
1000
MTEXTEND
1000
MTEXTBEGIN
1070
    73
1070
     1
1070
    44
1040
1.0
1070
    74
1070
     0
1000
MTEXTEND
1000
MTEXTBEGIN
1070
    73
1070
     1
1070
    44
1040
1.0
1070
    74
1070
     0
1000
MTEXTEND
  0
POINT
  5
291
330
22B
100
AcDbEntity
  8
DEFPOINTS
  6
BYBLOCK
 62
     0
100
AcDbPoint
 10
207.0062376922541
 20
173.5885749749284
 30
0.0
  0
POINT
  5
292
330
22B
100
AcDbEntity
  8
DEFPOINTS
  6
BYBLOCK
 62
     0
100
AcDbPoint
 10
176.9341376922541
 20
90.96617497492841
 30
0.0
  0
POINT
  5
293
330
22B
100
AcDbEntity
  8
DEFPOINTS
  6
BYBLOCK
 62
     0
100
AcDbPoint
 10
199.810155410531
 20
82.63998386421514
 30
0.0
  0
ENDBLK
  5
294
330
22B
100
AcDbEntity
  8
0
100
AcDbBlockEnd
  0
BLOCK
  5
295
330
237
100
AcDbEntity
  8
0
100
AcDbBlockBegin
  2
*D4
 70
     1
 10
0.0
 20
0.0
 30
0.0
  3
*D4
  1

  0
LINE
  5
296
330
237
100
AcDbEntity
  8
0
  6
BYBLOCK
 62
     4
100
AcDbLine
 10
71.73283769225406
 20
226.5868749749285
 30
0.0
 11
44.40131088576197
 21
226.5868749749285
 31
0.0
  0
LINE
  5
297
330
237
100
AcDbEntity
  8
0
  6
BYBLOCK
 62
     4
100
AcDbLine
 10
119.4328376922539
 20
157.5869091159871
 30
0.0
 11
44.40131088576197
 21
157.5869091159871
 31
0.0
  0
LINE
  5
298
330
237
100
AcDbEntity
  8
0
  6
BYBLOCK
 62
     4
100
AcDbLine
 10
45.90131088576196
 20
223.5868749749285
 30
0.0
 11
45.90131088576196
 21
160.5869091159871
 31
0.0
  0
INSERT
  5
299
330
237
100
AcDbEntity
  8
0
  6
BYBLOCK
 62
     4
100
AcDbBlockReference
  2
_OPEN
 10
45.90131088576196
 20
226.5868749749285
 30
0.0
 41
3.0
 42
3.0
 43
3.0
 50
90.0
  0
INSERT
  5
29A
330
237
100
AcDbEntity
  8
0
  6
BYBLOCK
 62
     4
100
AcDbBlockReference
  2
_OPEN
 10
45.90131088576196
 20
157.5869091159871
 30
0.0
 41
3.0
 42
3.0
 43
3.0
 50
270.0
  0
MTEXT
  5
29B
330
237
100
AcDbEntity
  8
0
  6
BYBLOCK
 62
     4
100
AcDbMText
 10
43.40131088576196
 20
192.0868920454578
 30
0.0
 40
3.0
 41
0.0
 71
     5
 72
     1
  1
\A1;69
 11
0.0
 21
1.0
 31
0.0
1001
ACAD
1000
MTEXTBEGIN
1070
    73
1070
     1
1070
    44
1040
1.0
1070
    74
1070
     0
1000
MTEXTEND
1000
MTEXTBEGIN
1070
    73
1070
     1
1070
    44
1040
1.0
1070
    74
1070
     0
1000
MTEXTEND
1000
MTEXTBEGIN
1070
    73
1070
     1
1070
    44
1040
1.0
1070
    74
1070
     0
1000
MTEXTEND
1000
MTEXTBEGIN
1070
    73
1070
     1
1070
    44
1040
1.0
1070
    74
1070
     0
1000
MTEXTEND
  0
POINT
  5
29C
330
237
100
AcDbEntity
  8
DEFPOINTS
  6
BYBLOCK
 62
     0
100
AcDbPoint
 10
74.73283769225407
 20
226.5868749749285
 30
0.0
  0
POINT
  5
29D
330
237
100
AcDbEntity
  8
DEFPOINTS
  6
BYBLOCK
 62
     0
100
AcDbPoint
 10
122.4328376922539
 20
157.5869091159871
 30
0.0
  0
POINT
  5
29E
330
237
100
AcDbEntity
  8
DEFPOINTS
  6
BYBLOCK
 62
     0
100
AcDbPoint
 10
45.90131088576196
 20
157.5869091159871
 30
0.0
  0
ENDBLK
  5
29F
330
237
100
AcDbEntity
  8
0
100
AcDbBlockEnd
  0
BLOCK
  5
2A0
330
243
100
AcDbEntity
  8
0
100
AcDbBlockBegin
  2
*D5
 70
     1
 10
0.0
 20
0.0
 30
0.0
  3
*D5
  1

  0
LINE
  5
2A1
330
243
100
AcDbEntity
  8
0
  6
BYBLOCK
 62
     4
100
AcDbLine
 10
121.4067767983567
 20
154.7678314224826
 30
0.0
 11
93.04783991286916
 21
76.85233258525279
 31
0.0
  0
LINE
  5
2A2
330
243
100
AcDbEntity
  8
0
  6
BYBLOCK
 62
     4
100
AcDbLine
 10
191.8837738435279
 20
129.1162891631176
 30
0.0
 11
163.5248369580404
 21
51.20079032588782
 31
0.0
  0
LINE
  5
2A3
330
243
100
AcDbEntity
  8
0
  6
BYBLOCK
 62
     4
100
AcDbLine
 10
96.37994805332233
 20
77.23581053810779
 30
0.0
 11
161.2187897114845
 21
53.63639006653735
 31
0.0
  0
INSERT
  5
2A4
330
243
100
AcDbEntity
  8
0
  6
BYBLOCK
 62
     4
100
AcDbBlockReference
  2
_OPEN
 10
93.56087035981781
 20
78.26187143200505
 30
0.0
 41
3.0
 42
3.0
 43
3.0
 50
159.9999905711457
  0
INSERT
  5
2A5
330
243
100
AcDbEntity
  8
0
  6
BYBLOCK
 62
     4
100
AcDbBlockReference
  2
_OPEN
 10
164.037867404989
 20
52.61032917264008
 30
0.0
 41
3.0
 42
3.0
 43
3.0
 50
339.9999905711457
  0
MTEXT
  5
2A6
330
243
100
AcDbEntity
  8
0
  6
BYBLOCK
 62
     4
100
AcDbMText
 10
129.6544196273177
 20
67.78533171357633
 30
0.0
 40
3.0
 41
0.0
 71
     5
 72
     1
  1
\A1;75
 11
0.939692564501504
 21
-0.342020297965759
 31
0.0
1001
ACAD
1000
MTEXTBEGIN
1070
    73
1070
     1
1070
    44
1040
1.0
1070
    74
1070
     0
1000
MTEXTEND
1000
MTEXTBEGIN
1070
    73
1070
     1
1070
    44
1040
1.0
1070
    74
1070
     0
1000
MTEXTEND
1000
MTEXTBEGIN
1070
    73
1070
     1
1070
    44
1040
1.0
1070
    74
1070
     0
1000
MTEXTEND
1000
MTEXTBEGIN
1070
    73
1070
     1
1070
    44
1040
1.0
1070
    74
1070
     0
1000
MTEXTEND
  0
POINT
  5
2A7
330
243
100
AcDbEntity
  8
DEFPOINTS
  6
BYBLOCK
 62
     0
100
AcDbPoint
 10
122.4328376922539
 20
157.5869091159871
 30
0.0
  0
POINT
  5
2A8
330
243
100
AcDbEntity
  8
DEFPOINTS
  6
BYBLOCK
 62
     0
100
AcDbPoint
 10
192.9098347374251
 20
131.9353668566221
 30
0.0
  0
POINT
  5
2A9
330
243
100
AcDbEntity
  8
DEFPOINTS
  6
BYBLOCK
 62
     0
100
AcDbPoint
 10
164.037867404989
 20
52.61032917264008
 30
0.0
  0
ENDBLK
  5
2AA
330
243
100
AcDbEntity
  8
0
100
AcDbBlockEnd
  0
BLOCK
  5
2AB
330
24F
100
AcDbEntity
  8
0
100
AcDbBlockBegin
  2
*D6
 70
     1
 10
0.0
 20
0.0
 30
0.0
  3
*D6
  1

  0
LINE
  5
2AC
330
24F
100
AcDbEntity
  8
0
  6
BYBLOCK
 62
     4
100
AcDbLine
 10
121.4067767983567
 20
154.7678314224826
 30
0.0
 11
97.0893891867176
 21
87.9563922691085
 31
0.0
  0
LINE
  5
2AD
330
24F
100
AcDbEntity
  8
0
  6
BYBLOCK
 62
     4
100
AcDbLine
 10
154.2960773722975
 20
142.7970988583146
 30
0.0
 11
129.9786897606584
 21
75.9856597049405
 31
0.0
  0
LINE
  5
2AE
330
24F
100
AcDbEntity
  8
0
  6
BYBLOCK
 62
     4
100
AcDbLine
 10
100.4214973271707
 20
88.33987022196348
 30
0.0
 11
127.6726425141025
 21
78.42125944559004
 31
0.0
  0
INSERT
  5
2AF
330
24F
100
AcDbEntity
  8
0
  6
BYBLOCK
 62
     4
100
AcDbBlockReference
  2
_OPEN
 10
97.60241963366624
 20
89.36593111586075
 30
0.0
 41
3.0
 42
3.0
 43
3.0
 50
159.9999905711456
  0
INSERT
  5
2B0
330
24F
100
AcDbEntity
  8
0
  6
BYBLOCK
 62
     4
100
AcDbBlockReference
  2
_OPEN
 10
130.491720207607
 20
77.39519855169277
 30
0.0
 41
3.0
 42
3.0
 43
3.0
 50
339.9999905711456
  0
MTEXT
  5
2B1
330
24F
100
AcDbEntity
  8
0
  6
BYBLOCK
 62
     4
100
AcDbMText
 10
114.902120665551
 20
85.72979624503052
 30
0.0
 40
3.0
 41
0.0
 71
     5
 72
     1
  1
\A1;35
 11
0.9396925645015038
 21
-0.3420202979657599
 31
0.0
1001
ACAD
1000
MTEXTBEGIN
1070
    73
1070
     1
1070
    44
1040
1.0
1070
    74
1070
     0
1000
MTEXTEND
1000
MTEXTBEGIN
1070
    73
1070
     1
1070
    44
1040
1.0
1070
    74
1070
     0
1000
MTEXTEND
1000
MTEXTBEGIN
1070
    73
1070
     1
1070
    44
1040
1.0
1070
    74
1070
     0
1000
MTEXTEND
1000
MTEXTBEGIN
1070
    73
1070
     1
1070
    44
1040
1.0
1070
    74
1070
     0
1000
MTEXTEND
  0
POINT
  5
2B2
330
24F
100
AcDbEntity
  8
DEFPOINTS
  6
BYBLOCK
 62
     0
100
AcDbPoint
 10
122.4328376922539
 20
157.5869091159871
 30
0.0
  0
POINT
  5
2B3
330
24F
100
AcDbEntity
  8
DEFPOINTS
  6
BYBLOCK
 62
     0
100
AcDbPoint
 10
155.3221382661948
 20
145.6161765518191
 30
0.0
  0
POINT
  5
2B4
330
24F
100
AcDbEntity
  8
DEFPOINTS
  6
BYBLOCK
 62
     0
100
AcDbPoint
 10
130.491720207607
 20
77.39519855169277
 30
0.0
  0
ENDBLK
  5
2B5
330
24F
100
AcDbEntity
  8
0
100
AcDbBlockEnd
  0
BLOCK
  5
2B6
330
25B
100
AcDbEntity
  8
0
100
AcDbBlockBegin
  2
*D7
 70
     1
 10
0.0
 20
0.0
 30
0.0
  3
*D7
  1

  0
LINE
  5
2B7
330
25B
100
AcDbEntity
  8
0
  6
BYBLOCK
 62
     4
100
AcDbLine
 10
74.73283769225407
 20
229.5869749749283
 30
0.0
 11
74.73283769225407
 21
252.8329375784115
 31
0.0
  0
LINE
  5
2B8
330
25B
100
AcDbEntity
  8
0
  6
BYBLOCK
 62
     4
100
AcDbLine
 10
170.1233954568387
 20
228.6329104285799
 30
0.0
 11
170.1233954568387
 21
252.8329375784115
 31
0.0
  0
LINE
  5
2B9
330
25B
100
AcDbEntity
  8
0
  6
BYBLOCK
 62
     4
100
AcDbLine
 10
77.73283769225407
 20
251.3329375784115
 30
0.0
 11
167.1233954568387
 21
251.3329375784115
 31
0.0
  0
INSERT
  5
2BA
330
25B
100
AcDbEntity
  8
0
  6
BYBLOCK
 62
     4
100
AcDbBlockReference
  2
_OPEN
 10
74.73283769225407
 20
251.3329375784115
 30
0.0
 41
3.0
 42
3.0
 43
3.0
 50
180.0
  0
INSERT
  5
2BB
330
25B
100
AcDbEntity
  8
0
  6
BYBLOCK
 62
     4
100
AcDbBlockReference
  2
_OPEN
 10
170.1233954568387
 20
251.3329375784115
 30
0.0
 41
3.0
 42
3.0
 43
3.0
  0
MTEXT
  5
2BC
330
25B
100
AcDbEntity
  8
0
  6
BYBLOCK
 62
     4
100
AcDbMText
 10
122.4281165745463
 20
253.8329375784114
 30
0.0
 40
3.0
 41
0.0
 71
     5
 72
     1
  1
\A1;φ 95
1001
ACAD
1000
MTEXTBEGIN
1070
    73
1070
     1
1070
    44
1040
1.0
1070
    74
1070
     0
1000
MTEXTEND
1000
MTEXTBEGIN
1070
    73
1070
     1
1070
    44
1040
1.0
1070
    74
1070
     0
1000
MTEXTEND
1000
MTEXTBEGIN
1070
    73
1070
     1
1070
    44
1040
1.0
1070
    74
1070
     0
1000
MTEXTEND
1000
MTEXTBEGIN
1070
    73
1070
     1
1070
    44
1040
1.0
1070
    74
1070
     0
1000
MTEXTEND
  0
POINT
  5
2BD
330
25B
100
AcDbEntity
  8
DEFPOINTS
  6
BYBLOCK
 62
     0
100
AcDbPoint
 10
74.73283769225407
 20
226.5869749749283
 30
0.0
  0
POINT
  5
2BE
330
25B
100
AcDbEntity
  8
DEFPOINTS
  6
BYBLOCK
 62
     0
100
AcDbPoint
 10
170.1233954568387
 20
225.6329104285799
 30
0.0
  0
POINT
  5
2BF
330
25B
100
AcDbEntity
  8
DEFPOINTS
  6
BYBLOCK
 62
     0
100
AcDbPoint
 10
170.1233954568387
 20
251.3329375784115
 30
0.0
  0
ENDBLK
  5
2C0
330
25B
100
AcDbEntity
  8
0
100
AcDbBlockEnd
  0
BLOCK
  5
2C1
330
267
100
AcDbEntity
  8
0
100
AcDbBlockBegin
  2
*D8
 70
     1
 10
0.0
 20
0.0
 30
0.0
  3
*D8
  1

  0
LINE
  5
2C2
330
267
100
AcDbEntity
  8
0
  6
BYBLOCK
 62
     4
100
AcDbLine
 10
71.73283769225406
 20
226.5868749749285
 30
0.0
 11
54.75974955000367
 21
226.5868749749285
 31
0.0
  0
LINE
  5
2C3
330
267
100
AcDbEntity
  8
0
  6
BYBLOCK
 62
     4
100
AcDbLine
 10
72.13284786259271
 20
186.5868749749285
 30
0.0
 11
54.75974955000367
 21
186.5868749749285
 31
0.0
  0
LINE
  5
2C4
330
267
100
AcDbEntity
  8
0
  6
BYBLOCK
 62
     4
100
AcDbLine
 10
56.25974955000367
 20
223.5868749749285
 30
0.0
 11
56.25974955000367
 21
189.5868749749285
 31
0.0
  0
INSERT
  5
2C5
330
267
100
AcDbEntity
  8
0
  6
BYBLOCK
 62
     4
100
AcDbBlockReference
  2
_OPEN
 10
56.25974955000367
 20
226.5868749749285
 30
0.0
 41
3.0
 42
3.0
 43
3.0
 50
90.0
  0
INSERT
  5
2C6
330
267
100
AcDbEntity
  8
0
  6
BYBLOCK
 62
     4
100
AcDbBlockReference
  2
_OPEN
 10
56.25974955000367
 20
186.5868749749285
 30
0.0
 41
3.0
 42
3.0
 43
3.0
 50
270.0
  0
MTEXT
  5
2C7
330
267
100
AcDbEntity
  8
0
  6
BYBLOCK
 62
     4
100
AcDbMText
 10
53.75974955000367
 20
206.5868749749285
 30
0.0
 40
3.0
 41
0.0
 71
     5
 72
     1
  1
\A1;※ 40
 11
0.0
 21
1.0
 31
0.0
1001
ACAD
1000
MTEXTBEGIN
1070
    73
1070
     1
1070
    44
1040
1.0
1070
    74
1070
     0
1000
MTEXTEND
1000
MTEXTBEGIN
1070
    73
1070
     1
1070
    44
1040
1.0
1070
    74
1070
     0
1000
MTEXTEND
1000
MTEXTBEGIN
1070
    73
1070
     1
1070
    44
1040
1.0
1070
    74
1070
     0
1000
MTEXTEND
1000
MTEXTBEGIN
1070
    73
1070
     1
1070
    44
1040
1.0
1070
    74
1070
     0
1000
MTEXTEND
  0
POINT
  5
2C8
330
267
100
AcDbEntity
  8
DEFPOINTS
  6
BYBLOCK
 62
     0
100
AcDbPoint
 10
74.73283769225407
 20
226.5868749749285
 30
0.0
  0
POINT
  5
2C9
330
267
100
AcDbEntity
  8
DEFPOINTS
  6
BYBLOCK
 62
     0
100
AcDbPoint
 10
75.13284786259271
 20
186.5868749749285
 30
0.0
  0
POINT
  5
2CA
330
267
100
AcDbEntity
  8
DEFPOINTS
  6
BYBLOCK
 62
     0
100
AcDbPoint
 10
56.25974955000367
 20
186.5868749749285
 30
0.0
  0
ENDBLK
  5
2CB
330
267
100
AcDbEntity
  8
0
100
AcDbBlockEnd
  0
ENDSEC
  0
SECTION
  2
ENTITIES
  0
LINE
  5
6C
330
1A
100
AcDbEntity
  8
ZUWAKU
  6
CONTINUOUS
 62
     7
100
AcDbLine
 10
403.0
 20
7.0
 30
0.0
 11
5.0
 21
7.0
 31
0.0
  0
LINE
  5
6D
330
1A
100
AcDbEntity
  8
ZUWAKU
  6
CONTINUOUS
 62
     7
100
AcDbLine
 10
5.0
 20
282.0
 30
0.0
 11
5.0
 21
7.0
 31
0.0
  0
LINE
  5
6E
330
1A
100
AcDbEntity
  8
ZUWAKU
  6
CONTINUOUS
 62
     7
100
AcDbLine
 10
403.0
 20
282.0
 30
0.0
 11
403.0
 21
7.0
 31
0.0
  0
LINE
  5
6F
330
1A
100
AcDbEntity
  8
ZUWAKU
  6
CONTINUOUS
 62
     7
100
AcDbLine
 10
403.0
 20
282.0
 30
0.0
 11
5.0
 21
282.0
 31
0.0
  0
LINE
  5
8E
330
1A
100
AcDbEntity
  8
ZUWAKU
 62
     7
 48
10.0
100
AcDbLine
 10
5.0
 20
13.0
 30
0.0
 11
403.0
 21
12.99999999999994
 31
0.0
  0
TEXT
  5
93
330
1A
100
AcDbEntity
  8
ZUWAKU
 62
     7
100
AcDbText
 10
8.003143713074223
 20
7.870178177610682
 30
0.0
 40
4.0
  1
品 種
100
AcDbText
  0
TEXT
  5
97
330
1A
100
AcDbEntity
  8
ZUWAKU
 62
     7
100
AcDbText
 10
107.7028028167073
 20
8.200497435100942
 30
0.0
 40
4.0
  1
品名・ｻ ｲ ｽﾞ
100
AcDbText
  0
LINE
  5
9A
330
1A
100
AcDbEntity
  8
ZUWAKU
 62
     7
 48
10.0
100
AcDbLine
 10
324.3551403257206
 20
6.999999999999836
 30
0.0
 11
324.3551403257206
 21
12.99999999999995
 31
0.0
  0
LINE
  5
9B
330
1A
100
AcDbEntity
  8
ZUWAKU
 62
     7
 48
10.0
100
AcDbLine
 10
307.142312366876
 20
6.999999999999836
 30
0.0
 11
307.142312366876
 21
12.99999999999995
 31
0.0
  0
TEXT
  5
9C
330
1A
100
AcDbEntity
  8
ZUWAKU
 62
     7
100
AcDbText
 10
310.1429253763237
 20
7.934661405801826
 30
0.0
 40
4.0
  1
品 番
100
AcDbText
  0
TEXT
  5
9E
330
1A
100
AcDbEntity
  8
ZUWAKU
 62
     7
 48
10.0
100
AcDbText
 10
322.9513761015196
 20
2.449000558492457
 30
0.0
 40
4.0
  1
積水化学工業株式会社  建材
100
AcDbText
  0
TEXT
  5
A1
330
1A
100
AcDbEntity
  8
ZUWAKU
 62
     7
100
AcDbText
 10
389.843492473331
 20
7.886151458996323
 30
0.0
 40
4.0
  1
1/1
100
AcDbText
  0
TEXT
  5
A2
330
1A
100
AcDbEntity
  8
ZUWAKU
 62
     7
100
AcDbText
 10
369.8225424558458
 20
7.729845637642938
 30
0.0
 40
4.0
  1
尺 度
100
AcDbText
  0
LINE
  5
A3
330
1A
100
AcDbEntity
  8
ZUWAKU
 62
     7
 48
10.0
100
AcDbLine
 10
366.8807110760169
 20
6.999999999999886
 30
0.0
 11
366.8807110760169
 21
12.99999999999994
 31
0.0
  0
TEXT
  5
A6
330
1A
100
AcDbEntity
  8
ZUWAKU
 62
     7
 48
10.0
100
AcDbText
 10
396.1622424237184
 20
2.480970960763784
 30
0.0
 40
4.0
  1
A3
100
AcDbText
  0
LINE
  5
F5
330
1A
100
AcDbEntity
  8
ZUWAKU
 62
     7
 48
10.0
100
AcDbLine
 10
22.25374857290876
 20
7.0
 30
0.0
 11
22.25374857290876
 21
13.0
 31
0.0
  0
LINE
  5
F6
330
1A
100
AcDbEntity
  8
ZUWAKU
 62
     7
 48
10.0
100
AcDbLine
 10
104.7316872784438
 20
7.0
 30
0.0
 11
104.7316872784438
 21
12.99999999999998
 31
0.0
  0
LINE
  5
F8
330
1A
100
AcDbEntity
  8
ZUWAKU
 62
     7
 48
10.0
100
AcDbLine
 10
138.0261803105822
 20
7.0
 30
0.0
 11
138.0261803105822
 21
12.99999999999998
 31
0.0
  0
LINE
  5
100
330
1A
100
AcDbEntity
  8
ZUWAKU
 62
     7
 48
10.0
100
AcDbLine
 10
384.3363149538092
 20
6.999999999999862
 30
0.0
 11
384.3363149538092
 21
12.99999999999994
 31
0.0
  0
LINE
  5
1DF
330
1A
100
AcDbEntity
  8
CENTER_L
  6
CENTER
 62
     1
 48
5.0
100
AcDbLine
 10
257.7491901909756
 20
131.9353749749284
 30
0.0
 11
356.4067901909755
 21
131.9353749749284
 31
0.0
  0
LINE
  5
1E0
330
1A
100
AcDbEntity
  8
SEIHIN
  6
CONTINUOUS
 62
     3
100
AcDbLine
 10
260.6877901909756
 20
186.5868749749285
 30
0.0
 11
262.8888901909756
 21
146.0270749749285
 31
0.0
  0
LINE
  5
1E1
330
1A
100
AcDbEntity
  8
SEIHIN
  6
CONTINUOUS
 62
     3
100
AcDbLine
 10
260.6877901909756
 20
226.5868749749285
 30
0.0
 11
308.3877901909756
 21
226.5868749749285
 31
0.0
  0
LINE
  5
1E2
330
1A
100
AcDbEntity
  8
CENTER_L
  6
CENTER
 62
     1
 48
5.0
100
AcDbLine
 10
201.6995376922539
 20
128.7361749749285
 30
0.0
 11
115.8549897407434
 21
159.9810512017474
 31
0.0
  0
LINE
  5
1E3
330
1A
100
AcDbEntity
  8
CENTER_L
  6
CENTER
 62
     1
 48
5.0
100
AcDbLine
 10
122.4328376922539
 20
150.5869091159871
 30
0.0
 11
122.4328376922539
 21
236.5868749749285
 31
0.0
  0
LINE
  5
1E4
330
1A
100
AcDbEntity
  8
SEIHIN
  6
CONTINUOUS
 62
     3
100
AcDbLine
 10
207.0062376922541
 20
173.5885749749285
 30
0.0
 11
191.9701376922541
 21
132.2773749749285
 31
0.0
  0
LINE
  5
1E5
330
1A
100
AcDbEntity
  8
SEIHIN
  6
CONTINUOUS
 62
     3
100
AcDbLine
 10
207.5996376922541
 20
172.2951749749285
 30
0.0
 11
192.9098376922539
 21
131.9353749749285
 31
0.0
  0
ARC
  5
1E6
330
1A
100
AcDbEntity
  8
SEIHIN
  6
CONTINUOUS
 62
     3
100
AcDbCircle
 10
157.1650662924587
 20
183.7879345610749
 30
0.0
 40
82.00002729725685
100
AcDbArc
 50
180.5728690380072
 51
249.999875443307
  0
LINE
  5
1E7
330
1A
100
AcDbEntity
  8
SEIHIN
  6
CONTINUOUS
 62
     3
100
AcDbLine
 10
170.884037692254
 20
188.3721749749286
 30
0.0
 11
139.760237692254
 21
102.8601749749285
 31
0.0
  0
LINE
  5
1E8
330
1A
100
AcDbEntity
  8
SEIHIN
  6
CONTINUOUS
 62
     3
100
AcDbLine
 10
122.4328376922539
 20
157.5869749749284
 30
0.0
 11
169.7548376922541
 21
188.7831749749285
 31
0.0
  0
DIMENSION
  5
1E9
330
1A
100
AcDbEntity
  8
SUNPOU
  6
CONTINUOUS
 62
     4
100
AcDbDimension
  2
*D1
 10
155.3221382661948
 20
174.7416443305547
 30
0.0
 11
138.8774879792244
 21
177.2416443305546
 31
0.0
 70
    32
  3
STANDARD
100
AcDbAlignedDimension
 13
122.4328376922539
 23
157.5869091159871
 33
0.0
 14
155.3221382661948
 24
145.6161765518191
 34
0.0
100
AcDbRotatedDimension
1001
ACAD
1000
DSTYLE
1002
{
1070
   140
1040
3.0
1070
    74
1070
     0
1070
   172
1070
     1
1070
    73
1070
     0
1070
   272
1070
     2
1070
    77
1070
     3
1070
   173
1070
     1
1070
   147
1040
1.0
1070
    42
1040
3.0
1070
    44
1040
1.5
1070
    43
1040
7.0
1070
   271
1070
     0
1070
   178
1070
     4
1070
   177
1070
     4
1070
   176
1070
     4
1070
   141
1040
150.0
1070
     7
1000
_OPEN
1070
     6
1000
_OPEN
1070
    41
1040
3.0
1002
}
  0
DIMENSION
  5
1EA
330
1A
100
AcDbEntity
  8
SUNPOU
  6
CONTINUOUS
 62
     4
100
AcDbDimension
  2
*D2
 10
115.8549897407434
 20
159.9810512017473
 30
0.0
 11
136.9382567836005
 21
136.8710201258322
 31
0.0
 70
    34
  3
STANDARD
100
AcDb2LineAngularDimension
 13
122.4328376922539
 23
150.5869091159871
 33
0.0
 14
122.4328376922539
 24
236.5868749749285
 34
0.0
 15
201.6995376922539
 25
128.7361749749285
 35
0.0
 16
133.4396669899271
 26
132.0702068308442
 36
0.0
1001
ACAD
1000
DSTYLE
1002
{
1070
   271
1070
     0
1070
   271
1070
     0
1070
   271
1070
     0
1070
   271
1070
     0
1070
   140
1040
3.0
1070
    74
1070
     0
1070
   172
1070
     1
1070
    73
1070
     0
1070
   272
1070
     2
1070
    77
1070
     3
1070
   173
1070
     1
1070
   147
1040
1.0
1070
    42
1040
3.0
1070
    44
1040
1.5
1070
    43
1040
7.0
1070
   271
1070
     0
1070
   178
1070
     4
1070
   177
1070
     4
1070
   176
1070
     4
1070
   141
1040
150.0
1070
     7
1000
_OPEN
1070
     6
1000
_OPEN
1070
    41
1040
3.0
1002
}
  0
DIMENSION
  5
1EB
330
1A
100
AcDbEntity
  8
SUNPOU
  6
CONTINUOUS
 62
     4
100
AcDbDimension
  2
*D3
 10
199.810155410531
 20
82.63998386421514
 30
0.0
 11
212.4969739108041
 21
124.8062343660516
 31
0.0
 70
    33
  1
φ <>
  3
STANDARD
100
AcDbAlignedDimension
 13
207.0062376922541
 23
173.5885749749284
 33
0.0
 14
176.9341376922541
 24
90.96617497492843
 34
0.0
1001
ACAD
1000
DSTYLE
1002
{
1070
   140
1040
3.0
1070
    74
1070
     0
1070
   172
1070
     1
1070
    73
1070
     0
1070
   272
1070
     2
1070
    77
1070
     3
1070
   173
1070
     1
1070
   147
1040
1.0
1070
    42
1040
3.0
1070
    44
1040
1.5
1070
    43
1040
7.0
1070
   271
1070
     0
1070
   178
1070
     4
1070
   177
1070
     4
1070
   176
1070
     4
1070
   141
1040
150.0
1070
     7
1000
_OPEN
1070
     6
1000
_OPEN
1070
    41
1040
3.0
1002
}
  0
DIMENSION
  5
1EC
330
1A
100
AcDbEntity
  8
SUNPOU
  6
CONTINUOUS
 62
     4
100
AcDbDimension
  2
*D4
 10
45.90131088576196
 20
157.5869091159871
 30
0.0
 11
43.40131088576196
 21
192.0868920454578
 31
0.0
 70
    32
  3
STANDARD
100
AcDbAlignedDimension
 13
74.73283769225407
 23
226.5868749749285
 33
0.0
 14
122.4328376922539
 24
157.5869091159871
 34
0.0
 50
90.0
100
AcDbRotatedDimension
1001
ACAD
1000
DSTYLE
1002
{
1070
   140
1040
3.0
1070
    74
1070
     0
1070
   172
1070
     1
1070
    73
1070
     0
1070
   272
1070
     2
1070
    77
1070
     3
1070
   173
1070
     1
1070
   147
1040
1.0
1070
    42
1040
3.0
1070
    44
1040
1.5
1070
    43
1040
7.0
1070
   271
1070
     0
1070
   178
1070
     4
1070
   177
1070
     4
1070
   176
1070
     4
1070
   141
1040
150.0
1070
     7
1000
_OPEN
1070
     6
1000
_OPEN
1070
    41
1040
3.0
1002
}
  0
DIMENSION
  5
1ED
330
1A
100
AcDbEntity
  8
SUNPOU
  6
CONTINUOUS
 62
     4
100
AcDbDimension
  2
*D5
 10
164.037867404989
 20
52.61032917264008
 30
0.0
 11
129.6544196273177
 21
67.78533171357633
 31
0.0
 70
    33
  3
STANDARD
100
AcDbAlignedDimension
 13
122.4328376922539
 23
157.5869091159871
 33
0.0
 14
192.9098347374252
 24
131.9353668566221
 34
0.0
1001
ACAD
1000
DSTYLE
1002
{
1070
   140
1040
3.0
1070
    74
1070
     0
1070
   172
1070
     1
1070
    73
1070
     0
1070
   272
1070
     2
1070
    77
1070
     3
1070
   173
1070
     1
1070
   147
1040
1.0
1070
    42
1040
3.0
1070
    44
1040
1.5
1070
    43
1040
7.0
1070
   271
1070
     0
1070
   178
1070
     4
1070
   177
1070
     4
1070
   176
1070
     4
1070
   141
1040
150.0
1070
     7
1000
_OPEN
1070
     6
1000
_OPEN
1070
    41
1040
3.0
1002
}
  0
DIMENSION
  5
1EE
330
1A
100
AcDbEntity
  8
SUNPOU
  6
CONTINUOUS
 62
     4
100
AcDbDimension
  2
*D6
 10
130.491720207607
 20
77.39519855169277
 30
0.0
 11
114.902120665551
 21
85.72979624503052
 31
0.0
 70
    33
  3
STANDARD
100
AcDbAlignedDimension
 13
122.4328376922539
 23
157.5869091159871
 33
0.0
 14
155.3221382661948
 24
145.6161765518191
 34
0.0
1001
ACAD
1000
DSTYLE
1002
{
1070
   140
1040
3.0
1070
    74
1070
     0
1070
   172
1070
     1
1070
    73
1070
     0
1070
   272
1070
     2
1070
    77
1070
     3
1070
   173
1070
     1
1070
   147
1040
1.0
1070
    42
1040
3.0
1070
    44
1040
1.5
1070
    43
1040
7.0
1070
   271
1070
     0
1070
   178
1070
     4
1070
   177
1070
     4
1070
   176
1070
     4
1070
   141
1040
150.0
1070
     7
1000
_OPEN
1070
     6
1000
_OPEN
1070
    41
1040
3.0
1002
}
  0
TEXT
  5
1EF
330
1A
100
AcDbEntity
  8
ZUWAKU
 62
     7
100
AcDbText
 10
25.15073007242387
 20
8.160237806787449
 30
0.0
 40
4.0
  1
丸トップ　たてとい
100
AcDbText
  0
TEXT
  5
1F1
330
1A
100
AcDbEntity
  8
ZUWAKU
 62
     7
100
AcDbText
 10
141.1313324528735
 20
7.9299153608506
 30
0.0
 40
4.0
  1
エルボ　ＵＴ９０－７０°
100
AcDbText
  0
LINE
  5
1F5
330
1A
100
AcDbEntity
  8
SEIHIN
  6
CONTINUOUS
 62
     3
100
AcDbLine
 10
178.2200376922541
 20
91.57557497492854
 30
0.0
 11
192.9099376922541
 21
131.9353749749285
 31
0.0
  0
LINE
  5
1F6
330
1A
100
AcDbEntity
  8
SEIHIN
  6
CONTINUOUS
 62
     3
100
AcDbLine
 10
176.934037692254
 20
90.96617497492847
 30
0.0
 11
191.9701376922541
 21
132.2773749749285
 31
0.0
  0
LINE
  5
1F7
330
1A
100
AcDbEntity
  8
SEIHIN
  6
CONTINUOUS
 62
     3
100
AcDbLine
 10
139.7601376922541
 20
102.8601749749285
 30
0.0
 11
129.1193376922541
 21
106.7331749749285
 31
0.0
  0
LINE
  5
1F8
330
1A
100
AcDbEntity
  8
SEIHIN
  6
CONTINUOUS
 62
     3
100
AcDbLine
 10
176.9341376922541
 20
90.96617497492847
 30
0.0
 11
140.1192376922541
 21
103.8468749749284
 31
0.0
  0
LINE
  5
1F9
330
1A
100
AcDbEntity
  8
SEIHIN
  6
CONTINUOUS
 62
     3
100
AcDbLine
 10
176.9341376922541
 20
90.96617497492847
 30
0.0
 11
178.2200376922541
 21
91.57557497492854
 31
0.0
  0
LINE
  5
1FA
330
1A
100
AcDbEntity
  8
SEIHIN
  6
CONTINUOUS
 62
     3
100
AcDbLine
 10
170.1329376922541
 20
226.5868749749285
 30
0.0
 11
74.73283769225407
 21
226.5868749749285
 31
0.0
  0
DIMENSION
  5
1FB
330
1A
100
AcDbEntity
  8
SUNPOU
  6
CONTINUOUS
 62
     4
100
AcDbDimension
  2
*D7
 10
170.1233954568387
 20
251.3329375784115
 30
0.0
 11
122.4281165745463
 21
253.8329375784114
 31
0.0
 70
    32
  1
φ <>
  3
STANDARD
100
AcDbAlignedDimension
 13
74.73283769225407
 23
226.5869749749283
 33
0.0
 14
170.1233954568387
 24
225.6329104285799
 34
0.0
100
AcDbRotatedDimension
1001
ACAD
1000
DSTYLE
1002
{
1070
   140
1040
3.0
1070
    74
1070
     0
1070
   172
1070
     1
1070
    73
1070
     0
1070
   272
1070
     2
1070
    77
1070
     3
1070
   173
1070
     1
1070
   147
1040
1.0
1070
    42
1040
3.0
1070
    44
1040
1.5
1070
    43
1040
7.0
1070
   271
1070
     0
1070
   178
1070
     4
1070
   177
1070
     4
1070
   176
1070
     4
1070
   141
1040
150.0
1070
     7
1000
_OPEN
1070
     6
1000
_OPEN
1070
    41
1040
3.0
1002
}
  0
LINE
  5
1FC
330
1A
100
AcDbEntity
  8
SEIHIN
  6
CONTINUOUS
 62
     3
100
AcDbLine
 10
75.16903769225411
 20
182.9679749749285
 30
0.0
 11
74.73283769225407
 21
226.5869749749283
 31
0.0
  0
DIMENSION
  5
1FD
330
1A
100
AcDbEntity
  8
SUNPOU
  6
CONTINUOUS
 62
     4
100
AcDbDimension
  2
*D8
 10
56.25974955000367
 20
186.5868749749285
 30
0.0
 11
53.75974955000367
 21
206.5868749749285
 31
0.0
 70
    32
  1
※ <>
  3
STANDARD
100
AcDbAlignedDimension
 13
74.73283769225407
 23
226.5868749749285
 33
0.0
 14
75.13284786259271
 24
186.5868749749285
 34
0.0
 50
90.0
100
AcDbRotatedDimension
1001
ACAD
1000
DSTYLE
1002
{
1070
   140
1040
3.0
1070
    74
1070
     0
1070
   172
1070
     1
1070
    73
1070
     0
1070
   272
1070
     2
1070
    77
1070
     3
1070
   173
1070
     1
1070
   147
1040
1.0
1070
    42
1040
3.0
1070
    44
1040
1.5
1070
    43
1040
7.0
1070
   271
1070
     0
1070
   178
1070
     4
1070
   177
1070
     4
1070
   176
1070
     4
1070
   141
1040
150.0
1070
     7
1000
_OPEN
1070
     6
1000
_OPEN
1070
    41
1040
3.0
1002
}
  0
LINE
  5
1FE
330
1A
100
AcDbEntity
  8
SEIHIN
  6
CONTINUOUS
 62
     3
100
AcDbLine
 10
207.0062376922541
 20
173.5885749749285
 30
0.0
 11
170.5249376922541
 21
187.3854749749284
 31
0.0
  0
LINE
  5
1FF
330
1A
100
AcDbEntity
  8
SEIHIN
  6
CONTINUOUS
 62
     3
100
AcDbLine
 10
169.7548376922541
 20
188.7832749749284
 30
0.0
 11
170.1329376922541
 21
226.5869749749283
 31
0.0
  0
LINE
  5
200
330
1A
100
AcDbEntity
  8
SEIHIN
  6
CONTINUOUS
 62
     3
100
AcDbLine
 10
170.884037692254
 20
188.3721749749286
 30
0.0
 11
169.7548376922541
 21
188.7831749749285
 31
0.0
  0
LINE
  5
201
330
1A
100
AcDbEntity
  8
SEIHIN
  6
CONTINUOUS
 62
     3
100
AcDbLine
 10
260.6877901909756
 20
186.5868749749285
 30
0.0
 11
260.6877901909756
 21
226.5869749749283
 31
0.0
  0
LINE
  5
202
330
1A
100
AcDbEntity
  8
SEIHIN
  6
CONTINUOUS
 62
     3
100
AcDbLine
 10
207.0062376922541
 20
173.5885749749285
 30
0.0
 11
207.5996376922541
 21
172.2951749749285
 31
0.0
  0
LINE
  5
203
330
1A
100
AcDbEntity
  8
CENTER_L
  6
CENTER
 62
     1
 48
5.0
100
AcDbLine
 10
308.3877901909756
 20
73.04157497492844
 30
0.0
 11
308.3878901909755
 21
237.4205749749283
 31
0.0
  0
ELLIPSE
  5
204
330
1A
100
AcDbEntity
  8
SEIHIN
  6
CONTINUOUS
 62
     3
100
AcDbEllipse
 10
308.3878343417491
 20
145.6161749749284
 30
0.0
 11
-45.49999999999161
 21
0.0000276799347398
 31
0.0
210
0.0
220
0.0
230
1.0
 40
0.9396923076924819
 41
2.976050620544166
 42
6.389481563412163
  0
ELLIPSE
  5
205
330
1A
100
AcDbEntity
  8
SEIHIN
  6
CONTINUOUS
 62
     3
100
AcDbEllipse
 10
308.387834341752
 20
145.6161798232022
 30
0.0
 11
-44.49999999999176
 21
0.0000270715845175
 31
0.0
210
0.0
220
0.0
230
0.9999999999999998
 40
0.9386360640063257
 41
2.942398898908063
 42
6.482379061861475
  0
ELLIPSE
  5
206
330
1A
100
AcDbEntity
  8
SEIHIN
  6
CONTINUOUS
 62
     3
100
AcDbEllipse
 10
308.3878260190293
 20
131.9353712719085
 30
0.0
 11
-43.99999999999185
 21
0.0000267674094666
 31
0.0
210
0.0
220
0.0
230
0.9999999999999998
 40
0.9386237094564366
 41
-0.0000000000000003
 42
6.283185307179586
  0
ELLIPSE
  5
207
330
1A
100
AcDbEntity
  8
SEIHIN
  6
CONTINUOUS
 62
     3
100
AcDbEllipse
 10
308.3878260190292
 20
131.9353712719085
 30
0.0
 11
-41.99999999999222
 21
0.0000255507089957
 31
0.0
210
0.0
220
0.0
230
0.9999999999999996
 40
0.9357010289543536
 41
0.0000000000000003
 42
6.283185307179586
  0
LINE
  5
208
330
1A
100
AcDbEntity
  8
SEIHIN
  6
CONTINUOUS
 62
     3
100
AcDbLine
 10
356.0878901909755
 20
186.5868749749285
 30
0.0
 11
353.8867901909755
 21
146.0270749749285
 31
0.0
  0
TEXT
  5
209
330
1A
100
AcDbEntity
  8
ZUWAKU
 62
     7
100
AcDbText
 10
327.1013476411085
 20
8.06014678124626
 30
0.0
 40
4.0
  1
ＧＡ９０
100
AcDbText
  0
LINE
  5
20D
330
1A
100
AcDbEntity
  8
SEIHIN
  6
CONTINUOUS
 62
     3
100
AcDbLine
 10
264.888082141837
 20
125.7253813222183
 30
0.0
 11
263.1446394822167
 21
141.0799534741366
 31
0.0
  0
LINE
  5
20E
330
1A
100
AcDbEntity
  8
SEIHIN
  6
CONTINUOUS
 62
     3
100
AcDbLine
 10
353.265807757119
 20
138.5705156342922
 30
0.0
 11
352.1875470362165
 21
127.999361875846
 31
0.0
  0
LINE
  5
20F
330
1A
100
AcDbEntity
  8
SEIHIN
  6
CONTINUOUS
 62
     3
100
AcDbLine
 10
356.0879901909755
 20
226.5868749749285
 30
0.0
 11
308.3878901909755
 21
226.5869749749283
 31
0.0
  0
LINE
  5
210
330
1A
100
AcDbEntity
  8
SEIHIN
  6
CONTINUOUS
 62
     3
100
AcDbLine
 10
356.0878901909755
 20
186.5868749749285
 30
0.0
 11
356.0879901909755
 21
226.5868749749285
 31
0.0
  0
TEXT
  5
211
330
1A
100
AcDbEntity
  8
SUNPOU
  6
CONTINUOUS
 62
     4
100
AcDbText
 10
308.8486365069933
 20
36.91915363648091
 30
0.0
 40
4.0
  1
※　たてといの差込み寸法を示す。
100
AcDbText
  0
SPLINE
  5
2CE
330
1A
100
AcDbEntity
  8
SEIHIN
100
AcDbSpline
210
0.0
220
0.0
230
1.0
 70
    11
 71
     3
 72
    62
 73
    58
 74
     0
 42
0.0000000001
 43
0.0000000001
 40
-0.0000000000000003
 40
-0.0000000000000003
 40
-0.0000000000000003
 40
-0.0000000000000003
 40
0.2617993877991497
 40
0.2617993877991497
 40
0.5235987755982999
 40
0.5235987755982999
 40
0.7853981633974499
 40
0.7853981633974499
 40
1.047197551196599
 40
1.047197551196599
 40
1.308996938995749
 40
1.308996938995749
 40
1.439896632895324
 40
1.439896632895324
 40
1.570796326794899
 40
1.570796326794899
 40
1.701696020694474
 40
1.701696020694474
 40
1.832595714594049
 40
1.832595714594049
 40
2.094395102393199
 40
2.094395102393199
 40
2.356194490192349
 40
2.356194490192349
 40
2.617993877991499
 40
2.617993877991499
 40
2.879793265790649
 40
2.879793265790649
 40
3.141592653589799
 40
3.141592653589799
 40
3.40339204138895
 40
3.40339204138895
 40
3.6651914291881
 40
3.6651914291881
 40
3.92699081698725
 40
3.92699081698725
 40
4.1887902047864
 40
4.1887902047864
 40
4.45058959258555
 40
4.45058959258555
 40
4.581489286485124
 40
4.581489286485124
 40
4.7123889803847
 40
4.7123889803847
 40
4.843288674284275
 40
4.843288674284275
 40
4.97418836818385
 40
4.97418836818385
 40
5.235987755983
 40
5.235987755983
 40
5.49778714378215
 40
5.49778714378215
 40
5.7595865315813
 40
5.7595865315813
 40
6.02138591938045
 40
6.02138591938045
 40
6.2831853071796
 40
6.2831853071796
 40
6.2831853071796
 40
6.2831853071796
 10
265.3258260190373
 20
131.9353974686855
 30
0.0
 10
265.3258240928329
 20
128.7691219749003
 30
0.0
 10
265.7270311093179
 20
125.4455990506633
 30
0.0
 10
267.5215454492467
 20
118.752581968128
 30
0.0
 10
268.9225733372857
 20
115.385160214427
 30
0.0
 10
272.7046945756713
 20
109.0533504112544
 30
0.0
 10
275.1143895950237
 20
106.0468480976193
 30
0.0
 10
280.7197223888899
 20
100.7855434236297
 30
0.0
 10
283.9125904997654
 20
98.52779107386904
 30
0.0
 10
290.7010045813817
 20
94.95539015238191
 30
0.0
 10
294.3340485434025
 20
93.63172290931151
 30
0.0
 10
299.6306861295913
 20
92.38056958181308
 30
0.0
 10
301.454986089827
 20
92.06650931624325
 30
0.0
 10
304.9410149684145
 20
91.66979531127385
 30
0.0
 10
306.6012276134591
 20
91.57392914269539
 30
0.0
 10
310.174375316814
 20
91.57392696897023
 30
0.0
 10
311.8345880784977
 20
91.66979111756711
 30
0.0
 10
315.3206174397648
 20
92.06650088108341
 30
0.0
 10
317.1449177821165
 20
92.3805589270265
 30
0.0
 10
322.4415568905802
 20
93.63170581010276
 30
0.0
 10
326.0746024631048
 20
94.95536863284604
 30
0.0
 10
332.8630208912577
 20
98.52776129486422
 30
0.0
 10
336.0558917491393
 20
100.7855097598592
 30
0.0
 10
341.6612309444329
 20
106.046807613834
 30
0.0
 10
344.070929621796
 20
109.05330699559
 30
0.0
 10
347.8530585640946
 20
115.3851121970494
 30
0.0
 10
349.2540905492761
 20
118.7525322461165
 30
0.0
 10
351.0486130326004
 20
125.4455471452606
 30
0.0
 10
351.449824092817
 20
128.7690695813463
 30
0.0
 10
351.4498279452257
 20
135.1016205689167
 30
0.0
 10
351.0486209287407
 20
138.4251434931537
 30
0.0
 10
349.2541065888118
 20
145.1181605756891
 30
0.0
 10
347.8530787007729
 20
148.48558232939
 30
0.0
 10
344.0709574623871
 20
154.8173921325626
 30
0.0
 10
341.6612624430348
 20
157.8238944461977
 30
0.0
 10
336.0559296491687
 20
163.0851991201873
 30
0.0
 10
332.863061538293
 20
165.342951469948
 30
0.0
 10
326.0746474566768
 20
168.9153523914352
 30
0.0
 10
322.441603494656
 20
170.2390196345055
 30
0.0
 10
317.1449659084672
 20
171.490172962004
 30
0.0
 10
315.3206659482315
 20
171.8042332275738
 30
0.0
 10
311.8346370696439
 20
172.2009472325432
 30
0.0
 10
310.1744244245993
 20
172.2968134011217
 30
0.0
 10
306.6012767212446
 20
172.2968155748469
 30
0.0
 10
304.9410639595608
 20
172.2009514262499
 30
0.0
 10
301.4550345982937
 20
171.8042416627336
 30
0.0
 10
299.6307342559421
 20
171.4901836167906
 30
0.0
 10
294.3340951474784
 20
170.2390367337143
 30
0.0
 10
290.7010495749538
 20
168.9153739109711
 30
0.0
 10
283.9126311468009
 20
165.3429812489529
 30
0.0
 10
280.7197602889193
 20
163.0852327839579
 30
0.0
 10
275.1144210936256
 20
157.8239349299829
 30
0.0
 10
272.7047224162625
 20
154.817435548227
 30
0.0
 10
268.9225934739639
 20
148.4856303467677
 30
0.0
 10
267.5215614887824
 20
145.1182102977005
 30
0.0
 10
265.7270390054581
 20
138.4251953985564
 30
0.0
 10
265.3258279452417
 20
135.1016729624706
 30
0.0
 10
265.3258260190373
 20
131.9353974686855
 30
0.0
  0
VIEWPORT
  5
22
330
17
100
AcDbEntity
 67
     1
  8
0
100
AcDbViewport
 10
313.6808219178082
 20
148.5
 30
0.0
 40
627.3616438356165
 41
297.0
 68
     2
 69
     1
1001
ACAD
1000
MVIEW
1002
{
1070
    16
1010
0.0
1020
0.0
1030
0.0
1010
0.0
1020
0.0
1030
1.0
1040
0.0
1040
297.0
1040
313.6808219178082
1040
148.5
1040
50.0
1040
0.0
1040
0.0
1070
     0
1070
   100
1070
     1
1070
     0
1070
     0
1070
     0
1070
     0
1070
     0
1040
0.0
1040
0.0
1040
0.0
1040
1.0
1040
1.0
1040
10.0
1040
10.0
1070
     0
1002
{
1002
}
1002
}
  0
VIEWPORT
  5
64
330
17
100
AcDbEntity
 67
     1
  8
VIEWPORT
100
AcDbViewport
 10
210.0
 20
148.5
 30
0.0
 40
420.0
 41
297.0
 68
     1
 69
     2
1001
ACAD
1000
MVIEW
1002
{
1070
    16
1010
0.0
1020
0.0
1030
0.0
1010
0.0
1020
0.0
1030
1.0
1040
0.0
1040
302.9399999999998
1040
210.0
1040
148.5
1040
50.0
1040
0.0
1040
0.0
1070
     0
1070
   100
1070
     1
1070
     0
1070
     0
1070
     0
1070
     0
1070
     0
1040
0.0
1040
0.0
1040
0.0
1040
5.0
1040
5.0
1040
0.0
1040
0.0
1070
     0
1002
{
1002
}
1002
}
  0
ENDSEC
  0
SECTION
  2
OBJECTS
  0
DICTIONARY
  5
C
330
0
100
AcDbDictionary
  3
ACAD_GROUP
350
D
  3
ACAD_LAYOUT
350
2E5
  3
ACAD_MLINESTYLE
350
E
  3
ACAD_PLOTSETTINGS
350
2E6
1001
ACAD
1000
TREAT_AS_HARD
1070
     0
  0
DICTIONARY
  5
314
330
1A
100
AcDbDictionary
  3
ACAD_LAYOUTSELFREF
350
3AA
1001
ACAD
1000
TREAT_AS_HARD
1070
     1
  0
DICTIONARY
  5
312
330
17
100
AcDbDictionary
  3
ACAD_LAYOUTSELFREF
350
3A9
1001
ACAD
1000
TREAT_AS_HARD
1070
     1
  0
DICTIONARY
  5
D
102
{ACAD_REACTORS
330
C
102
}
330
C
100
AcDbDictionary
1001
ACAD
1000
TREAT_AS_HARD
1070
     0
  0
DICTIONARY
  5
2E5
102
{ACAD_REACTORS
330
C
102
}
330
C
100
AcDbDictionary
1001
ACAD
1000
TREAT_AS_HARD
1070
     0
  0
DICTIONARY
  5
E
102
{ACAD_REACTORS
330
C
102
}
330
C
100
AcDbDictionary
  3
STANDARD
350
13
1001
ACAD
1000
TREAT_AS_HARD
1070
     0
  0
DICTIONARY
  5
2E6
102
{ACAD_REACTORS
330
C
102
}
330
C
100
AcDbDictionary
1001
ACAD
1000
TREAT_AS_HARD
1070
     0
  0
XRECORD
  5
3AA
102
{ACAD_REACTORS
330
314
102
}
330
314
100
AcDbXrecord
340
1A
  0
XRECORD
  5
3A9
102
{ACAD_REACTORS
330
312
102
}
330
312
100
AcDbXrecord
340
17
  0
MLINESTYLE
  5
13
102
{ACAD_REACTORS
330
E
102
}
330
E
100
AcDbMlineStyle
  2
STANDARD
 70
     0
  3

 62
     0
 51
90.0
 52
90.0
 71
     2
 49
0.5
 62
   256
  6
BYLAYER
 49
-0.5
 62
   256
  6
BYLAYER
  0
ENDSEC
  0
EOF
