  0
SECTION
  2
HEADER
  9
$ACADVER
  1
AC1012
  9
$DWGCODEPAGE
  3
dos932
  9
$INSBASE
 10
0.0
 20
0.0
 30
0.0
  9
$EXTMIN
 10
10.05047808566086
 20
4.949376903717846
 30
0.0
  9
$EXTMAX
 10
806.2246110975902
 20
563.7825862828226
 30
0.0
  9
$LIMMIN
 10
0.0
 20
0.0
  9
$LIMMAX
 10
840.0
 20
594.0
  9
$ORTHOMODE
 70
     0
  9
$REGENMODE
 70
     1
  9
$FILLMODE
 70
     1
  9
$QTEXTMODE
 70
     0
  9
$MIRRTEXT
 70
     1
  9
$DRAGMODE
 70
     2
  9
$LTSCALE
 40
2.0
  9
$OSMODE
 70
    37
  9
$ATTMODE
 70
     1
  9
$TEXTSIZE
 40
5.0
  9
$TRACEWID
 40
1.0
  9
$TEXTSTYLE
  7
STANDARD
  9
$CLAYER
  8
ZUWAKU
  9
$CELTYPE
  6
BYLAYER
  9
$CECOLOR
 62
   256
  9
$CELTSCALE
 40
1.0
  9
$DELOBJ
 70
     1
  9
$DISPSILH
 70
     0
  9
$DIMSCALE
 40
1.0
  9
$DIMASZ
 40
7.0
  9
$DIMEXO
 40
6.0
  9
$DIMDLI
 40
14.0
  9
$DIMRND
 40
0.0
  9
$DIMDLE
 40
0.0
  9
$DIMEXE
 40
3.0
  9
$DIMTP
 40
0.0
  9
$DIMTM
 40
0.0
  9
$DIMTXT
 40
6.0
  9
$DIMCEN
 40
150.0
  9
$DIMTSZ
 40
0.0
  9
$DIMTOL
 70
     0
  9
$DIMLIM
 70
     0
  9
$DIMTIH
 70
     0
  9
$DIMTOH
 70
     0
  9
$DIMSE1
 70
     0
  9
$DIMSE2
 70
     0
  9
$DIMTAD
 70
     3
  9
$DIMZIN
 70
     0
  9
$DIMBLK
  1

  9
$DIMASO
 70
     1
  9
$DIMSHO
 70
     1
  9
$DIMPOST
  1

  9
$DIMAPOST
  1

  9
$DIMALT
 70
     0
  9
$DIMALTD
 70
     2
  9
$DIMALTF
 40
25.4
  9
$DIMLFAC
 40
1.0
  9
$DIMTOFL
 70
     1
  9
$DIMTVP
 40
0.0
  9
$DIMTIX
 70
     0
  9
$DIMSOXD
 70
     0
  9
$DIMSAH
 70
     1
  9
$DIMBLK1
  1
OPEN
  9
$DIMBLK2
  1
OPEN
  9
$DIMSTYLE
  2
STANDARD
  9
$DIMCLRD
 70
   256
  9
$DIMCLRE
 70
   256
  9
$DIMCLRT
 70
   256
  9
$DIMTFAC
 40
1.0
  9
$DIMGAP
 40
2.0
  9
$DIMJUST
 70
     0
  9
$DIMSD1
 70
     0
  9
$DIMSD2
 70
     0
  9
$DIMTOLJ
 70
     1
  9
$DIMTZIN
 70
     0
  9
$DIMALTZ
 70
     0
  9
$DIMALTTZ
 70
     0
  9
$DIMFIT
 70
     3
  9
$DIMUPT
 70
     0
  9
$DIMUNIT
 70
     2
  9
$DIMDEC
 70
     0
  9
$DIMTDEC
 70
     0
  9
$DIMALTU
 70
     2
  9
$DIMALTTD
 70
     2
  9
$DIMTXSTY
  7
STANDARD
  9
$DIMAUNIT
 70
     0
  9
$LUNITS
 70
     2
  9
$LUPREC
 70
     4
  9
$SKETCHINC
 40
1.0
  9
$FILLETRAD
 40
20.0
  9
$AUNITS
 70
     0
  9
$AUPREC
 70
     0
  9
$MENU
  1
.
  9
$ELEVATION
 40
0.0
  9
$PELEVATION
 40
0.0
  9
$THICKNESS
 40
0.0
  9
$LIMCHECK
 70
     0
  9
$BLIPMODE
 70
     0
  9
$CHAMFERA
 40
20.0
  9
$CHAMFERB
 40
20.0
  9
$CHAMFERC
 40
40.0
  9
$CHAMFERD
 40
0.0
  9
$SKPOLY
 70
     0
  9
$TDCREATE
 40
2450994.354346065
  9
$TDUPDATE
 40
2452395.856650405
  9
$TDINDWG
 40
0.0064407176
  9
$TDUSRTIMER
 40
0.0064407176
  9
$USRTIMER
 70
     1
  9
$ANGBASE
 50
0.0
  9
$ANGDIR
 70
     0
  9
$PDMODE
 70
     1
  9
$PDSIZE
 40
0.0
  9
$PLINEWID
 40
0.0
  9
$COORDS
 70
     1
  9
$SPLFRAME
 70
     0
  9
$SPLINETYPE
 70
     6
  9
$SPLINESEGS
 70
     8
  9
$ATTDIA
 70
     0
  9
$ATTREQ
 70
     1
  9
$HANDLING
 70
 10241
  9
$HANDSEED
  5
52B
  9
$SURFTAB1
 70
     6
  9
$SURFTAB2
 70
     6
  9
$SURFTYPE
 70
     6
  9
$SURFU
 70
     6
  9
$SURFV
 70
     6
  9
$UCSNAME
  2

  9
$UCSORG
 10
0.0
 20
0.0
 30
0.0
  9
$UCSXDIR
 10
1.0
 20
0.0
 30
0.0
  9
$UCSYDIR
 10
0.0
 20
1.0
 30
0.0
  9
$PUCSNAME
  2

  9
$PUCSORG
 10
0.0
 20
0.0
 30
0.0
  9
$PUCSXDIR
 10
1.0
 20
0.0
 30
0.0
  9
$PUCSYDIR
 10
0.0
 20
1.0
 30
0.0
  9
$USERI1
 70
     0
  9
$USERI2
 70
     0
  9
$USERI3
 70
     0
  9
$USERI4
 70
     0
  9
$USERI5
 70
     0
  9
$USERR1
 40
0.0
  9
$USERR2
 40
0.0
  9
$USERR3
 40
0.0
  9
$USERR4
 40
0.0
  9
$USERR5
 40
0.0
  9
$WORLDVIEW
 70
     1
  9
$SHADEDGE
 70
     3
  9
$SHADEDIF
 70
    70
  9
$TILEMODE
 70
     1
  9
$MAXACTVP
 70
    16
  9
$PINSBASE
 10
0.0
 20
0.0
 30
0.0
  9
$PLIMCHECK
 70
     0
  9
$PEXTMIN
 10
0.0
 20
0.0
 30
0.0
  9
$PEXTMAX
 10
420.0
 20
297.0
 30
0.0
  9
$PLIMMIN
 10
0.0
 20
0.0
  9
$PLIMMAX
 10
420.0
 20
297.0
  9
$UNITMODE
 70
     0
  9
$VISRETAIN
 70
     0
  9
$PLINEGEN
 70
     0
  9
$PSLTSCALE
 70
     1
  9
$TREEDEPTH
 70
  3020
  9
$PICKSTYLE
 70
     1
  9
$CMLSTYLE
  2
STANDARD
  9
$CMLJUST
 70
     0
  9
$CMLSCALE
 40
1.0
  9
$SAVEIMAGES
 70
     1
  0
ENDSEC
  0
SECTION
  2
CLASSES
  0
CLASS
  1
ACDBDICTIONARYWDFLT
  2
AcDbDictionaryWithDefault
  3
AutoCAD 2000
 90
    32768
280
     0
281
     0
  0
CLASS
  1
ACDBPLACEHOLDER
  2
AcDbPlaceHolder
  3
AutoCAD 2000
 90
    32768
280
     0
281
     0
  0
CLASS
  1
LAYOUT
  2
AcDbLayout
  3
AutoCAD 2000
 90
    32768
280
     0
281
     0
  0
CLASS
  1
LONG_TRANSACTION
  2
AcDbLongTransaction
  3
AutoCAD 2000
 90
    32768
280
     0
281
     0
  0
CLASS
  1
LWPOLYLINE
  2
AcDbPolyline
  3
AutoCAD 2000
 90
    32768
280
     0
281
     1
  0
CLASS
  1
HATCH
  2
AcDbHatch
  3
AutoCAD 2000
 90
    32768
280
     0
281
     1
  0
CLASS
  1
XRECORD
  2
AcDbXrecord
  3
AutoCAD 2000
 90
    32768
280
     0
281
     0
  0
CLASS
  1
LONG_TRANSACTION
  2
AcDbLongTransaction
  3
AutoCAD 2000
 90
    32768
280
     0
281
     0
  0
CLASS
  1
LWPOLYLINE
  2
AcDbPolyline
  3
AutoCAD 2000
 90
    32768
280
     0
281
     1
  0
CLASS
  1
HATCH
  2
AcDbHatch
  3
AutoCAD 2000
 90
    32768
280
     0
281
     1
  0
CLASS
  1
XRECORD
  2
AcDbXrecord
  3
AutoCAD 2000
 90
    32768
280
     0
281
     0
  0
CLASS
  1
LONG_TRANSACTION
  2
AcDbLongTransaction
  3
AutoCAD 2000
 90
    32768
280
     0
281
     0
  0
CLASS
  1
LWPOLYLINE
  2
AcDbPolyline
  3
AutoCAD 2000
 90
    32768
280
     0
281
     1
  0
CLASS
  1
HATCH
  2
AcDbHatch
  3
AutoCAD 2000
 90
    32768
280
     0
281
     1
  0
CLASS
  1
XRECORD
  2
AcDbXrecord
  3
AutoCAD 2000
 90
    32768
280
     0
281
     0
  0
ENDSEC
  0
SECTION
  2
TABLES
  0
TABLE
  2
VPORT
  5
8
330
0
100
AcDbSymbolTable
 70
     2
  0
VPORT
  5
528
330
8
100
AcDbSymbolTableRecord
100
AcDbViewportTableRecord
  2
*ACTIVE
 70
     0
 10
0.0
 20
0.0
 11
1.0
 21
1.0
 12
517.490288742039
 22
288.506658432231
 13
0.0
 23
0.0
 14
5.0
 24
5.0
 15
0.0
 25
0.0
 16
0.0
 26
0.0
 36
1.0
 17
0.0
 27
0.0
 37
0.0
 40
588.8809714006525
 41
2.169459962756052
 42
50.0
 43
0.0
 44
0.0
 50
0.0
 51
0.0
 71
     0
 72
   100
 73
     1
 74
     0
 75
     0
 76
     0
 77
     0
 78
     0
  0
ENDTAB
  0
TABLE
  2
LTYPE
  5
5
330
0
100
AcDbSymbolTable
 70
     2
  0
LTYPE
  5
14
330
5
100
AcDbSymbolTableRecord
100
AcDbLinetypeTableRecord
  2
BYBLOCK
 70
     0
  3

 72
    65
 73
     0
 40
0.0
  0
LTYPE
  5
15
330
5
100
AcDbSymbolTableRecord
100
AcDbLinetypeTableRecord
  2
BYLAYER
 70
     0
  3

 72
    65
 73
     0
 40
0.0
  0
LTYPE
  5
16
330
5
100
AcDbSymbolTableRecord
100
AcDbLinetypeTableRecord
  2
CONTINUOUS
 70
     0
  3
Solid line
 72
    65
 73
     0
 40
0.0
  0
LTYPE
  5
135
330
5
100
AcDbSymbolTableRecord
100
AcDbLinetypeTableRecord
  2
CENTER
 70
     0
  3
____ _ ____ _ ____ _ ____ _ ____ _ ____ _ ____ 
 72
    65
 73
     4
 40
2.0
 49
1.25
 74
     0
 49
-0.25
 74
     0
 49
0.25
 74
     0
 49
-0.25
 74
     0
  0
ENDTAB
  0
TABLE
  2
LAYER
  5
2
330
0
100
AcDbSymbolTable
 70
     7
  0
LAYER
  5
F
330
2
100
AcDbSymbolTableRecord
100
AcDbLayerTableRecord
  2
0
 70
     0
 62
     7
  6
CONTINUOUS
  0
LAYER
  5
62
330
2
100
AcDbSymbolTableRecord
100
AcDbLayerTableRecord
  2
VIEWPORT
 70
     0
 62
     7
  6
CONTINUOUS
  0
LAYER
  5
65
330
2
100
AcDbSymbolTableRecord
100
AcDbLayerTableRecord
  2
ZUWAKU
 70
     0
 62
     7
  6
CONTINUOUS
  0
LAYER
  5
1D2
330
2
100
AcDbSymbolTableRecord
100
AcDbLayerTableRecord
  2
SEIHIN
 70
     0
 62
     3
  6
CONTINUOUS
  0
LAYER
  5
1D3
330
2
100
AcDbSymbolTableRecord
100
AcDbLayerTableRecord
  2
SUNPOU
 70
     0
 62
     4
  6
CONTINUOUS
  0
LAYER
  5
1D4
330
2
100
AcDbSymbolTableRecord
100
AcDbLayerTableRecord
  2
CENTER_L
 70
     0
 62
     1
  6
CENTER
  0
LAYER
  5
1D5
330
2
100
AcDbSymbolTableRecord
100
AcDbLayerTableRecord
  2
DEFPOINTS
 70
     0
 62
     7
  6
CONTINUOUS
  0
ENDTAB
  0
TABLE
  2
STYLE
  5
3
330
0
100
AcDbSymbolTable
 70
     1
  0
STYLE
  5
10
330
3
100
AcDbSymbolTableRecord
100
AcDbTextStyleTableRecord
  2
STANDARD
 70
     0
 40
0.0
 41
1.0
 50
0.0
 71
     0
 42
5.0
  3
TXT
  4
bigfont.shx
  0
ENDTAB
  0
TABLE
  2
VIEW
  5
6
330
0
100
AcDbSymbolTable
 70
     0
  0
ENDTAB
  0
TABLE
  2
UCS
  5
7
330
0
100
AcDbSymbolTable
 70
     0
  0
ENDTAB
  0
TABLE
  2
APPID
  5
9
330
0
100
AcDbSymbolTable
 70
     1
  0
APPID
  5
11
330
9
100
AcDbSymbolTableRecord
100
AcDbRegAppTableRecord
  2
ACAD
 70
     0
  0
ENDTAB
  0
TABLE
  2
DIMSTYLE
  5
A
330
0
100
AcDbSymbolTable
 70
     1
  0
DIMSTYLE
105
1D
102
{ACAD_REACTORS
330
287
330
288
330
289
330
28A
330
28B
330
28C
330
292
330
293
330
2C8
330
32D
102
}
330
A
100
AcDbSymbolTableRecord
100
AcDbDimStyleTableRecord
  2
STANDARD
 70
     0
  3

  4

  5

  6

  7

 40
1.0
 41
0.18
 42
0.0625
 43
0.38
 44
0.18
 45
0.0
 46
0.0
 47
0.0
 48
0.0
140
0.18
141
0.09
142
0.0
143
25.4
144
1.0
145
0.0
146
1.0
147
0.09
 71
     0
 72
     0
 73
     1
 74
     1
 75
     0
 76
     0
 77
     0
 78
     0
170
     0
171
     2
172
     0
173
     0
174
     0
175
     0
176
     0
177
     0
178
     0
270
     2
271
     4
272
     4
273
     2
274
     2
340
10
275
     0
280
     0
281
     0
282
     0
283
     1
284
     0
285
     0
286
     0
287
     3
288
     0
  0
ENDTAB
  0
TABLE
  2
BLOCK_RECORD
  5
1
330
0
100
AcDbSymbolTable
 70
    11
  0
BLOCK_RECORD
  5
1A
102
{ACAD_XDICTIONARY
360
4E6
102
}
330
1
100
AcDbSymbolTableRecord
100
AcDbBlockTableRecord
  2
*MODEL_SPACE
  0
BLOCK_RECORD
  5
17
102
{ACAD_XDICTIONARY
360
4E4
102
}
330
1
100
AcDbSymbolTableRecord
100
AcDbBlockTableRecord
  2
*PAPER_SPACE
  0
BLOCK_RECORD
  5
6D
330
1
100
AcDbSymbolTableRecord
100
AcDbBlockTableRecord
  2
_OPEN
  0
BLOCK_RECORD
  5
334
330
1
100
AcDbSymbolTableRecord
100
AcDbBlockTableRecord
  2
*D1
  0
BLOCK_RECORD
  5
340
330
1
100
AcDbSymbolTableRecord
100
AcDbBlockTableRecord
  2
*D2
  0
BLOCK_RECORD
  5
34E
330
1
100
AcDbSymbolTableRecord
100
AcDbBlockTableRecord
  2
*D3
  0
BLOCK_RECORD
  5
35A
330
1
100
AcDbSymbolTableRecord
100
AcDbBlockTableRecord
  2
*D4
  0
BLOCK_RECORD
  5
366
330
1
100
AcDbSymbolTableRecord
100
AcDbBlockTableRecord
  2
*D5
  0
BLOCK_RECORD
  5
372
330
1
100
AcDbSymbolTableRecord
100
AcDbBlockTableRecord
  2
*D6
  0
BLOCK_RECORD
  5
37E
330
1
100
AcDbSymbolTableRecord
100
AcDbBlockTableRecord
  2
*D7
  0
BLOCK_RECORD
  5
38A
330
1
100
AcDbSymbolTableRecord
100
AcDbBlockTableRecord
  2
*D8
  0
BLOCK_RECORD
  5
396
330
1
100
AcDbSymbolTableRecord
100
AcDbBlockTableRecord
  2
*D9
  0
BLOCK_RECORD
  5
3A2
330
1
100
AcDbSymbolTableRecord
100
AcDbBlockTableRecord
  2
*D10
  0
ENDTAB
  0
ENDSEC
  0
SECTION
  2
BLOCKS
  0
BLOCK
  5
1B
330
1A
100
AcDbEntity
  8
0
100
AcDbBlockBegin
  2
*MODEL_SPACE
 70
     0
 10
0.0
 20
0.0
 30
0.0
  3
*MODEL_SPACE
  1

  0
ENDBLK
  5
1C
330
1A
100
AcDbEntity
  8
0
100
AcDbBlockEnd
  0
BLOCK
  5
18
330
17
100
AcDbEntity
 67
     1
  8
0
100
AcDbBlockBegin
  2
*PAPER_SPACE
 70
     0
 10
0.0
 20
0.0
 30
0.0
  3
*PAPER_SPACE
  1

  0
ENDBLK
  5
19
330
17
100
AcDbEntity
 67
     1
  8
0
100
AcDbBlockEnd
  0
BLOCK
  5
6E
330
6D
100
AcDbEntity
  8
0
100
AcDbBlockBegin
  2
_OPEN
 70
     0
 10
0.0
 20
0.0
 30
0.0
  3
_OPEN
  1

  0
LINE
  5
6F
330
6D
100
AcDbEntity
  8
0
  6
BYBLOCK
 62
     0
100
AcDbLine
 10
-1.0
 20
0.1666666666666666
 30
0.0
 11
0.0
 21
0.0
 31
0.0
  0
LINE
  5
70
330
6D
100
AcDbEntity
  8
0
  6
BYBLOCK
 62
     0
100
AcDbLine
 10
0.0
 20
0.0
 30
0.0
 11
-1.0
 21
-0.1666666666666666
 31
0.0
  0
LINE
  5
71
330
6D
100
AcDbEntity
  8
0
  6
BYBLOCK
 62
     0
100
AcDbLine
 10
0.0
 20
0.0
 30
0.0
 11
-1.0
 21
0.0
 31
0.0
  0
ENDBLK
  5
72
330
6D
100
AcDbEntity
  8
0
100
AcDbBlockEnd
  0
BLOCK
  5
3AE
330
334
100
AcDbEntity
  8
0
100
AcDbBlockBegin
  2
*D1
 70
     1
 10
0.0
 20
0.0
 30
0.0
  3
*D1
  1

  0
LINE
  5
3AF
330
334
100
AcDbEntity
  8
0
  6
BYBLOCK
 62
     4
100
AcDbLine
 10
370.6568746582754
 20
320.3158811387814
 30
0.0
 11
422.276182188148
 21
320.3158811387814
 31
0.0
  0
LINE
  5
3B0
330
334
100
AcDbEntity
  8
0
  6
BYBLOCK
 62
     4
100
AcDbLine
 10
369.6568746582754
 20
260.3158442891715
 30
0.0
 11
422.276182188148
 21
260.3158442891715
 31
0.0
  0
LINE
  5
3B1
330
334
100
AcDbEntity
  8
0
  6
BYBLOCK
 62
     4
100
AcDbLine
 10
419.276182188148
 20
313.3158811387815
 30
0.0
 11
419.276182188148
 21
267.3158442891715
 31
0.0
  0
INSERT
  5
3B2
330
334
100
AcDbEntity
  8
0
  6
BYBLOCK
 62
     4
100
AcDbBlockReference
  2
_OPEN
 10
419.276182188148
 20
320.3158811387814
 30
0.0
 41
7.0
 42
7.0
 43
7.0
 50
90.0
  0
INSERT
  5
3B3
330
334
100
AcDbEntity
  8
0
  6
BYBLOCK
 62
     4
100
AcDbBlockReference
  2
_OPEN
 10
419.276182188148
 20
260.3158442891715
 30
0.0
 41
7.0
 42
7.0
 43
7.0
 50
270.0
  0
MTEXT
  5
3B4
330
334
100
AcDbEntity
  8
0
  6
BYBLOCK
 62
     4
100
AcDbMText
 10
414.276182188148
 20
290.3158627139765
 30
0.0
 40
6.0
 41
0.0
 71
     5
 72
     1
  1
\A1;60
 11
0.0
 21
1.0
 31
0.0
1001
ACAD
1000
MTEXTBEGIN
1070
    73
1070
     1
1070
    44
1040
1.0
1070
    74
1070
     0
1000
MTEXTEND
1000
MTEXTBEGIN
1070
    73
1070
     1
1070
    44
1040
1.0
1070
    74
1070
     0
1000
MTEXTEND
1000
MTEXTBEGIN
1070
    73
1070
     1
1070
    44
1040
1.0
1070
    74
1070
     0
1000
MTEXTEND
  0
POINT
  5
3B5
330
334
100
AcDbEntity
  8
DEFPOINTS
  6
BYBLOCK
 62
     0
100
AcDbPoint
 10
364.6568746582754
 20
320.3158811387814
 30
0.0
  0
POINT
  5
3B6
330
334
100
AcDbEntity
  8
DEFPOINTS
  6
BYBLOCK
 62
     0
100
AcDbPoint
 10
363.6568746582754
 20
260.3158442891715
 30
0.0
  0
POINT
  5
3B7
330
334
100
AcDbEntity
  8
DEFPOINTS
  6
BYBLOCK
 62
     0
100
AcDbPoint
 10
419.276182188148
 20
260.3158442891715
 30
0.0
  0
ENDBLK
  5
3B8
330
334
100
AcDbEntity
  8
0
100
AcDbBlockEnd
  0
BLOCK
  5
3B9
330
340
100
AcDbEntity
  8
0
100
AcDbBlockBegin
  2
*D2
 70
     1
 10
0.0
 20
0.0
 30
0.0
  3
*D2
  1

  0
LINE
  5
3BA
330
340
100
AcDbEntity
  8
0
  6
BYBLOCK
 62
     4
100
AcDbLine
 10
291.1568146582753
 20
340.3158811387815
 30
0.0
 11
422.276182188148
 21
340.3158811387815
 31
0.0
  0
LINE
  5
3BB
330
340
100
AcDbEntity
  8
0
  6
BYBLOCK
 62
     4
100
AcDbLine
 10
370.6568746582754
 20
320.3158811387814
 30
0.0
 11
422.276182188148
 21
320.3158811387814
 31
0.0
  0
LINE
  5
3BC
330
340
100
AcDbEntity
  8
0
  6
BYBLOCK
 62
     4
100
AcDbLine
 10
419.276182188148
 20
347.3158811387814
 30
0.0
 11
419.276182188148
 21
354.3158811387815
 31
0.0
  0
LINE
  5
3BD
330
340
100
AcDbEntity
  8
0
  6
BYBLOCK
 62
     4
100
AcDbLine
 10
419.276182188148
 20
313.3158811387815
 30
0.0
 11
419.276182188148
 21
306.3158811387815
 31
0.0
  0
LINE
  5
3BE
330
340
100
AcDbEntity
  8
0
  6
BYBLOCK
 62
     4
100
AcDbLine
 10
419.276182188148
 20
340.3158811387815
 30
0.0
 11
419.276182188148
 21
320.3158811387814
 31
0.0
  0
INSERT
  5
3BF
330
340
100
AcDbEntity
  8
0
  6
BYBLOCK
 62
     4
100
AcDbBlockReference
  2
_OPEN
 10
419.276182188148
 20
340.3158811387815
 30
0.0
 41
7.0
 42
7.0
 43
7.0
 50
270.0
  0
INSERT
  5
3C0
330
340
100
AcDbEntity
  8
0
  6
BYBLOCK
 62
     4
100
AcDbBlockReference
  2
_OPEN
 10
419.276182188148
 20
320.3158811387814
 30
0.0
 41
7.0
 42
7.0
 43
7.0
 50
90.0
  0
MTEXT
  5
3C1
330
340
100
AcDbEntity
  8
0
  6
BYBLOCK
 62
     4
100
AcDbMText
 10
414.276182188148
 20
330.3158811387814
 30
0.0
 40
6.0
 41
0.0
 71
     5
 72
     1
  1
\A1;20
 11
0.0
 21
1.0
 31
0.0
1001
ACAD
1000
MTEXTBEGIN
1070
    73
1070
     1
1070
    44
1040
1.0
1070
    74
1070
     0
1000
MTEXTEND
1000
MTEXTBEGIN
1070
    73
1070
     1
1070
    44
1040
1.0
1070
    74
1070
     0
1000
MTEXTEND
1000
MTEXTBEGIN
1070
    73
1070
     1
1070
    44
1040
1.0
1070
    74
1070
     0
1000
MTEXTEND
  0
POINT
  5
3C2
330
340
100
AcDbEntity
  8
DEFPOINTS
  6
BYBLOCK
 62
     0
100
AcDbPoint
 10
285.1568146582753
 20
340.3158811387815
 30
0.0
  0
POINT
  5
3C3
330
340
100
AcDbEntity
  8
DEFPOINTS
  6
BYBLOCK
 62
     0
100
AcDbPoint
 10
364.6568746582754
 20
320.3158811387814
 30
0.0
  0
POINT
  5
3C4
330
340
100
AcDbEntity
  8
DEFPOINTS
  6
BYBLOCK
 62
     0
100
AcDbPoint
 10
419.276182188148
 20
320.3158811387814
 30
0.0
  0
ENDBLK
  5
3C5
330
340
100
AcDbEntity
  8
0
100
AcDbBlockEnd
  0
BLOCK
  5
3C6
330
34E
100
AcDbEntity
  8
0
100
AcDbBlockBegin
  2
*D3
 70
     1
 10
0.0
 20
0.0
 30
0.0
  3
*D3
  1

  0
LINE
  5
3C7
330
34E
100
AcDbEntity
  8
0
  6
BYBLOCK
 62
     4
100
AcDbLine
 10
370.6568746582754
 20
320.3158811387814
 30
0.0
 11
403.8952315429745
 21
320.3158811387814
 31
0.0
  0
LINE
  5
3C8
330
34E
100
AcDbEntity
  8
0
  6
BYBLOCK
 62
     4
100
AcDbLine
 10
370.6568746582754
 20
280.3158811387815
 30
0.0
 11
403.8952315429745
 21
280.3158811387815
 31
0.0
  0
LINE
  5
3C9
330
34E
100
AcDbEntity
  8
0
  6
BYBLOCK
 62
     4
100
AcDbLine
 10
400.8952315429745
 20
313.3158811387815
 30
0.0
 11
400.8952315429745
 21
287.3158811387814
 31
0.0
  0
INSERT
  5
3CA
330
34E
100
AcDbEntity
  8
0
  6
BYBLOCK
 62
     4
100
AcDbBlockReference
  2
_OPEN
 10
400.8952315429745
 20
320.3158811387814
 30
0.0
 41
7.0
 42
7.0
 43
7.0
 50
90.0
  0
INSERT
  5
3CB
330
34E
100
AcDbEntity
  8
0
  6
BYBLOCK
 62
     4
100
AcDbBlockReference
  2
_OPEN
 10
400.8952315429745
 20
280.3158811387815
 30
0.0
 41
7.0
 42
7.0
 43
7.0
 50
270.0
  0
MTEXT
  5
3CC
330
34E
100
AcDbEntity
  8
0
  6
BYBLOCK
 62
     4
100
AcDbMText
 10
395.8952315429745
 20
300.3158811387815
 30
0.0
 40
6.0
 41
0.0
 71
     5
 72
     1
  1
\A1;40
 11
0.0
 21
1.0
 31
0.0
1001
ACAD
1000
MTEXTBEGIN
1070
    73
1070
     1
1070
    44
1040
1.0
1070
    74
1070
     0
1000
MTEXTEND
1000
MTEXTBEGIN
1070
    73
1070
     1
1070
    44
1040
1.0
1070
    74
1070
     0
1000
MTEXTEND
1000
MTEXTBEGIN
1070
    73
1070
     1
1070
    44
1040
1.0
1070
    74
1070
     0
1000
MTEXTEND
  0
POINT
  5
3CD
330
34E
100
AcDbEntity
  8
DEFPOINTS
  6
BYBLOCK
 62
     0
100
AcDbPoint
 10
364.6568746582754
 20
320.3158811387814
 30
0.0
  0
POINT
  5
3CE
330
34E
100
AcDbEntity
  8
DEFPOINTS
  6
BYBLOCK
 62
     0
100
AcDbPoint
 10
364.6568746582754
 20
280.3158811387815
 30
0.0
  0
POINT
  5
3CF
330
34E
100
AcDbEntity
  8
DEFPOINTS
  6
BYBLOCK
 62
     0
100
AcDbPoint
 10
400.8952315429745
 20
280.3158811387815
 30
0.0
  0
ENDBLK
  5
3D0
330
34E
100
AcDbEntity
  8
0
100
AcDbBlockEnd
  0
BLOCK
  5
3D1
330
35A
100
AcDbEntity
  8
0
100
AcDbBlockBegin
  2
*D4
 70
     1
 10
0.0
 20
0.0
 30
0.0
  3
*D4
  1

  0
LINE
  5
3D2
330
35A
100
AcDbEntity
  8
0
  6
BYBLOCK
 62
     4
100
AcDbLine
 10
203.6568746582753
 20
340.3158811387815
 30
0.0
 11
178.7408346080636
 21
340.3158811387815
 31
0.0
  0
LINE
  5
3D3
330
35A
100
AcDbEntity
  8
0
  6
BYBLOCK
 62
     4
100
AcDbLine
 10
205.807484182085
 20
220.3158811387814
 30
0.0
 11
178.7408346080636
 21
220.3158811387814
 31
0.0
  0
LINE
  5
3D4
330
35A
100
AcDbEntity
  8
0
  6
BYBLOCK
 62
     4
100
AcDbLine
 10
181.7408346080636
 20
333.3158811387814
 30
0.0
 11
181.7408346080636
 21
227.3158811387815
 31
0.0
  0
INSERT
  5
3D5
330
35A
100
AcDbEntity
  8
0
  6
BYBLOCK
 62
     4
100
AcDbBlockReference
  2
_OPEN
 10
181.7408346080636
 20
340.3158811387815
 30
0.0
 41
7.0
 42
7.0
 43
7.0
 50
90.0
  0
INSERT
  5
3D6
330
35A
100
AcDbEntity
  8
0
  6
BYBLOCK
 62
     4
100
AcDbBlockReference
  2
_OPEN
 10
181.7408346080636
 20
220.3158811387814
 30
0.0
 41
7.0
 42
7.0
 43
7.0
 50
270.0
  0
MTEXT
  5
3D7
330
35A
100
AcDbEntity
  8
0
  6
BYBLOCK
 62
     4
100
AcDbMText
 10
176.7408346080636
 20
280.3158811387815
 30
0.0
 40
6.0
 41
0.0
 71
     5
 72
     1
  1
\A1;120
 11
0.0
 21
1.0
 31
0.0
1001
ACAD
1000
MTEXTBEGIN
1070
    73
1070
     1
1070
    44
1040
1.0
1070
    74
1070
     0
1000
MTEXTEND
1000
MTEXTBEGIN
1070
    73
1070
     1
1070
    44
1040
1.0
1070
    74
1070
     0
1000
MTEXTEND
1000
MTEXTBEGIN
1070
    73
1070
     1
1070
    44
1040
1.0
1070
    74
1070
     0
1000
MTEXTEND
  0
POINT
  5
3D8
330
35A
100
AcDbEntity
  8
DEFPOINTS
  6
BYBLOCK
 62
     0
100
AcDbPoint
 10
209.6568746582753
 20
340.3158811387815
 30
0.0
  0
POINT
  5
3D9
330
35A
100
AcDbEntity
  8
DEFPOINTS
  6
BYBLOCK
 62
     0
100
AcDbPoint
 10
211.807484182085
 20
220.3158811387814
 30
0.0
  0
POINT
  5
3DA
330
35A
100
AcDbEntity
  8
DEFPOINTS
  6
BYBLOCK
 62
     0
100
AcDbPoint
 10
181.7408346080636
 20
220.3158811387814
 30
0.0
  0
ENDBLK
  5
3DB
330
35A
100
AcDbEntity
  8
0
100
AcDbBlockEnd
  0
BLOCK
  5
3DC
330
366
100
AcDbEntity
  8
0
100
AcDbBlockBegin
  2
*D5
 70
     1
 10
0.0
 20
0.0
 30
0.0
  3
*D5
  1

  0
LINE
  5
3DD
330
366
100
AcDbEntity
  8
0
  6
BYBLOCK
 62
     4
100
AcDbLine
 10
203.6568746582753
 20
340.3158811387815
 30
0.0
 11
158.3566184808349
 21
340.3158811387815
 31
0.0
  0
LINE
  5
3DE
330
366
100
AcDbEntity
  8
0
  6
BYBLOCK
 62
     4
100
AcDbLine
 10
215.5565746582754
 20
165.3158811387815
 30
0.0
 11
158.3566184808349
 21
165.3158811387815
 31
0.0
  0
LINE
  5
3DF
330
366
100
AcDbEntity
  8
0
  6
BYBLOCK
 62
     4
100
AcDbLine
 10
161.3566184808349
 20
333.3158811387814
 30
0.0
 11
161.3566184808349
 21
172.3158811387814
 31
0.0
  0
INSERT
  5
3E0
330
366
100
AcDbEntity
  8
0
  6
BYBLOCK
 62
     4
100
AcDbBlockReference
  2
_OPEN
 10
161.3566184808349
 20
340.3158811387815
 30
0.0
 41
7.0
 42
7.0
 43
7.0
 50
90.0
  0
INSERT
  5
3E1
330
366
100
AcDbEntity
  8
0
  6
BYBLOCK
 62
     4
100
AcDbBlockReference
  2
_OPEN
 10
161.3566184808349
 20
165.3158811387815
 30
0.0
 41
7.0
 42
7.0
 43
7.0
 50
270.0
  0
MTEXT
  5
3E2
330
366
100
AcDbEntity
  8
0
  6
BYBLOCK
 62
     4
100
AcDbMText
 10
156.3566184808349
 20
252.0473390268402
 30
0.0
 40
6.0
 41
0.0
 71
     5
 72
     1
  1
\A1;175
 11
0.0
 21
1.0
 31
0.0
1001
ACAD
1000
MTEXTBEGIN
1070
    73
1070
     1
1070
    44
1040
1.0
1070
    74
1070
     0
1000
MTEXTEND
1000
MTEXTBEGIN
1070
    73
1070
     1
1070
    44
1040
1.0
1070
    74
1070
     0
1000
MTEXTEND
1000
MTEXTBEGIN
1070
    73
1070
     1
1070
    44
1040
1.0
1070
    74
1070
     0
1000
MTEXTEND
  0
POINT
  5
3E3
330
366
100
AcDbEntity
  8
DEFPOINTS
  6
BYBLOCK
 62
     0
100
AcDbPoint
 10
209.6568746582753
 20
340.3158811387815
 30
0.0
  0
POINT
  5
3E4
330
366
100
AcDbEntity
  8
DEFPOINTS
  6
BYBLOCK
 62
     0
100
AcDbPoint
 10
221.5565746582754
 20
165.3158811387815
 30
0.0
  0
POINT
  5
3E5
330
366
100
AcDbEntity
  8
DEFPOINTS
  6
BYBLOCK
 62
     0
100
AcDbPoint
 10
161.3566184808349
 20
165.3158811387815
 30
0.0
  0
ENDBLK
  5
3E6
330
366
100
AcDbEntity
  8
0
100
AcDbBlockEnd
  0
BLOCK
  5
3E7
330
372
100
AcDbEntity
  8
0
100
AcDbBlockBegin
  2
*D6
 70
     1
 10
0.0
 20
0.0
 30
0.0
  3
*D6
  1

  0
LINE
  5
3E8
330
372
100
AcDbEntity
  8
0
  6
BYBLOCK
 62
     4
100
AcDbLine
 10
364.6568746582754
 20
326.3158811387814
 30
0.0
 11
364.6568746582754
 21
387.9433081590817
 31
0.0
  0
LINE
  5
3E9
330
372
100
AcDbEntity
  8
0
  6
BYBLOCK
 62
     4
100
AcDbLine
 10
209.6568746582753
 20
346.3158811387815
 30
0.0
 11
209.6568746582753
 21
387.9433081590817
 31
0.0
  0
LINE
  5
3EA
330
372
100
AcDbEntity
  8
0
  6
BYBLOCK
 62
     4
100
AcDbLine
 10
357.6568746582754
 20
384.9433081590817
 30
0.0
 11
216.6568746582753
 21
384.9433081590817
 31
0.0
  0
INSERT
  5
3EB
330
372
100
AcDbEntity
  8
0
  6
BYBLOCK
 62
     4
100
AcDbBlockReference
  2
_OPEN
 10
364.6568746582754
 20
384.9433081590817
 30
0.0
 41
7.0
 42
7.0
 43
7.0
  0
INSERT
  5
3EC
330
372
100
AcDbEntity
  8
0
  6
BYBLOCK
 62
     4
100
AcDbBlockReference
  2
_OPEN
 10
209.6568746582753
 20
384.9433081590817
 30
0.0
 41
7.0
 42
7.0
 43
7.0
 50
180.0
  0
MTEXT
  5
3ED
330
372
100
AcDbEntity
  8
0
  6
BYBLOCK
 62
     4
100
AcDbMText
 10
287.1568746582754
 20
389.9433081590817
 30
0.0
 40
6.0
 41
0.0
 71
     5
 72
     1
  1
\A1;155
1001
ACAD
1000
MTEXTBEGIN
1070
    73
1070
     1
1070
    44
1040
1.0
1070
    74
1070
     0
1000
MTEXTEND
1000
MTEXTBEGIN
1070
    73
1070
     1
1070
    44
1040
1.0
1070
    74
1070
     0
1000
MTEXTEND
1000
MTEXTBEGIN
1070
    73
1070
     1
1070
    44
1040
1.0
1070
    74
1070
     0
1000
MTEXTEND
  0
POINT
  5
3EE
330
372
100
AcDbEntity
  8
DEFPOINTS
  6
BYBLOCK
 62
     0
100
AcDbPoint
 10
364.6568746582754
 20
320.3158811387814
 30
0.0
  0
POINT
  5
3EF
330
372
100
AcDbEntity
  8
DEFPOINTS
  6
BYBLOCK
 62
     0
100
AcDbPoint
 10
209.6568746582753
 20
340.3158811387815
 30
0.0
  0
POINT
  5
3F0
330
372
100
AcDbEntity
  8
DEFPOINTS
  6
BYBLOCK
 62
     0
100
AcDbPoint
 10
209.6568746582753
 20
384.9433081590817
 30
0.0
  0
ENDBLK
  5
3F1
330
372
100
AcDbEntity
  8
0
100
AcDbBlockEnd
  0
BLOCK
  5
455
330
37E
100
AcDbEntity
  8
0
100
AcDbBlockBegin
  2
*D7
 70
     1
 10
0.0
 20
0.0
 30
0.0
  3
*D7
  1

  0
LINE
  5
456
330
37E
100
AcDbEntity
  8
0
  6
BYBLOCK
 62
     4
100
AcDbLine
 10
268.2002850346095
 20
137.7183932239621
 30
0.0
 11
268.2002850346095
 21
108.6343792246106
 31
0.0
  0
LINE
  5
457
330
37E
100
AcDbEntity
  8
0
  6
BYBLOCK
 62
     4
100
AcDbLine
 10
324.9002850346095
 20
137.7183932239621
 30
0.0
 11
324.9002850346095
 21
108.6343792246106
 31
0.0
  0
LINE
  5
458
330
37E
100
AcDbEntity
  8
0
  6
BYBLOCK
 62
     4
100
AcDbLine
 10
275.2002850346095
 20
111.6343792246105
 30
0.0
 11
317.9002850346094
 21
111.6343792246105
 31
0.0
  0
INSERT
  5
459
330
37E
100
AcDbEntity
  8
0
  6
BYBLOCK
 62
     4
100
AcDbBlockReference
  2
_OPEN
 10
268.2002850346095
 20
111.6343792246105
 30
0.0
 41
7.0
 42
7.0
 43
7.0
 50
180.0
  0
INSERT
  5
45A
330
37E
100
AcDbEntity
  8
0
  6
BYBLOCK
 62
     4
100
AcDbBlockReference
  2
_OPEN
 10
324.9002850346095
 20
111.6343792246105
 30
0.0
 41
7.0
 42
7.0
 43
7.0
  0
MTEXT
  5
45B
330
37E
100
AcDbEntity
  8
0
  6
BYBLOCK
 62
     4
100
AcDbMText
 10
296.5502850346095
 20
116.6343792246105
 30
0.0
 40
6.0
 41
0.0
 71
     5
 72
     1
  1
\A1;φ57
1001
ACAD
1000
MTEXTBEGIN
1070
    73
1070
     1
1070
    44
1040
1.0
1070
    74
1070
     0
1000
MTEXTEND
1000
MTEXTBEGIN
1070
    73
1070
     1
1070
    44
1040
1.0
1070
    74
1070
     0
1000
MTEXTEND
1000
MTEXTBEGIN
1070
    73
1070
     1
1070
    44
1040
1.0
1070
    74
1070
     0
1000
MTEXTEND
  0
POINT
  5
45C
330
37E
100
AcDbEntity
  8
DEFPOINTS
  6
BYBLOCK
 62
     0
100
AcDbPoint
 10
268.2002850346095
 20
143.7183932239621
 30
0.0
  0
POINT
  5
45D
330
37E
100
AcDbEntity
  8
DEFPOINTS
  6
BYBLOCK
 62
     0
100
AcDbPoint
 10
324.9002850346095
 20
143.7183932239621
 30
0.0
  0
POINT
  5
45E
330
37E
100
AcDbEntity
  8
DEFPOINTS
  6
BYBLOCK
 62
     0
100
AcDbPoint
 10
324.9002850346095
 20
111.6343792246105
 30
0.0
  0
ENDBLK
  5
45F
330
37E
100
AcDbEntity
  8
0
100
AcDbBlockEnd
  0
BLOCK
  5
476
330
38A
100
AcDbEntity
  8
0
100
AcDbBlockBegin
  2
*D8
 70
     1
 10
0.0
 20
0.0
 30
0.0
  3
*D8
  1

  0
LINE
  5
477
330
38A
100
AcDbEntity
  8
0
  6
BYBLOCK
 62
     4
100
AcDbLine
 10
261.2003850346096
 20
162.7183932239621
 30
0.0
 11
261.2003850346096
 21
89.43215289909096
 31
0.0
  0
LINE
  5
478
330
38A
100
AcDbEntity
  8
0
  6
BYBLOCK
 62
     4
100
AcDbLine
 10
331.9002850346096
 20
162.7183932239621
 30
0.0
 11
331.9002850346096
 21
89.43215289909096
 31
0.0
  0
LINE
  5
479
330
38A
100
AcDbEntity
  8
0
  6
BYBLOCK
 62
     4
100
AcDbLine
 10
268.2003850346096
 20
92.43215289909095
 30
0.0
 11
324.9002850346096
 21
92.43215289909095
 31
0.0
  0
INSERT
  5
47A
330
38A
100
AcDbEntity
  8
0
  6
BYBLOCK
 62
     4
100
AcDbBlockReference
  2
_OPEN
 10
261.2003850346096
 20
92.43215289909095
 30
0.0
 41
7.0
 42
7.0
 43
7.0
 50
180.0
  0
INSERT
  5
47B
330
38A
100
AcDbEntity
  8
0
  6
BYBLOCK
 62
     4
100
AcDbBlockReference
  2
_OPEN
 10
331.9002850346096
 20
92.43215289909095
 30
0.0
 41
7.0
 42
7.0
 43
7.0
  0
MTEXT
  5
47C
330
38A
100
AcDbEntity
  8
0
  6
BYBLOCK
 62
     4
100
AcDbMText
 10
296.5503350346096
 20
97.43215289909095
 30
0.0
 40
6.0
 41
0.0
 71
     5
 72
     1
  1
\A1;φ71
1001
ACAD
1000
MTEXTBEGIN
1070
    73
1070
     1
1070
    44
1040
1.0
1070
    74
1070
     0
1000
MTEXTEND
1000
MTEXTBEGIN
1070
    73
1070
     1
1070
    44
1040
1.0
1070
    74
1070
     0
1000
MTEXTEND
1000
MTEXTBEGIN
1070
    73
1070
     1
1070
    44
1040
1.0
1070
    74
1070
     0
1000
MTEXTEND
  0
POINT
  5
47D
330
38A
100
AcDbEntity
  8
DEFPOINTS
  6
BYBLOCK
 62
     0
100
AcDbPoint
 10
261.2003850346096
 20
168.7183932239621
 30
0.0
  0
POINT
  5
47E
330
38A
100
AcDbEntity
  8
DEFPOINTS
  6
BYBLOCK
 62
     0
100
AcDbPoint
 10
331.9002850346096
 20
168.7183932239621
 30
0.0
  0
POINT
  5
47F
330
38A
100
AcDbEntity
  8
DEFPOINTS
  6
BYBLOCK
 62
     0
100
AcDbPoint
 10
331.9002850346096
 20
92.43215289909095
 30
0.0
  0
ENDBLK
  5
480
330
38A
100
AcDbEntity
  8
0
100
AcDbBlockEnd
  0
BLOCK
  5
408
330
396
100
AcDbEntity
  8
0
100
AcDbBlockBegin
  2
*D9
 70
     1
 10
0.0
 20
0.0
 30
0.0
  3
*D9
  1

  0
LINE
  5
409
330
396
100
AcDbEntity
  8
0
  6
BYBLOCK
 62
     4
100
AcDbLine
 10
249.9068729231618
 20
353.3158811387814
 30
0.0
 11
249.9068729231618
 21
371.4634588801769
 31
0.0
  0
LINE
  5
40A
330
396
100
AcDbEntity
  8
0
  6
BYBLOCK
 62
     4
100
AcDbLine
 10
324.4068746582754
 20
333.3158811387814
 30
0.0
 11
324.4068746582754
 21
371.4634588801769
 31
0.0
  0
LINE
  5
40B
330
396
100
AcDbEntity
  8
0
  6
BYBLOCK
 62
     4
100
AcDbLine
 10
256.9068729231618
 20
368.4634588801769
 30
0.0
 11
317.4068746582754
 21
368.4634588801769
 31
0.0
  0
INSERT
  5
40C
330
396
100
AcDbEntity
  8
0
  6
BYBLOCK
 62
     4
100
AcDbBlockReference
  2
_OPEN
 10
249.9068729231618
 20
368.4634588801769
 30
0.0
 41
7.0
 42
7.0
 43
7.0
 50
180.0
  0
INSERT
  5
40D
330
396
100
AcDbEntity
  8
0
  6
BYBLOCK
 62
     4
100
AcDbBlockReference
  2
_OPEN
 10
324.4068746582754
 20
368.4634588801769
 30
0.0
 41
7.0
 42
7.0
 43
7.0
  0
MTEXT
  5
40E
330
396
100
AcDbEntity
  8
0
  6
BYBLOCK
 62
     4
100
AcDbMText
 10
287.1568737907186
 20
373.4634588801769
 30
0.0
 40
6.0
 41
0.0
 71
     5
 72
     1
  1
\A1;75
1001
ACAD
1000
MTEXTBEGIN
1070
    73
1070
     1
1070
    44
1040
1.0
1070
    74
1070
     0
1000
MTEXTEND
1000
MTEXTBEGIN
1070
    73
1070
     1
1070
    44
1040
1.0
1070
    74
1070
     0
1000
MTEXTEND
1000
MTEXTBEGIN
1070
    73
1070
     1
1070
    44
1040
1.0
1070
    74
1070
     0
1000
MTEXTEND
  0
POINT
  5
40F
330
396
100
AcDbEntity
  8
DEFPOINTS
  6
BYBLOCK
 62
     0
100
AcDbPoint
 10
249.9068729231618
 20
347.3158811387814
 30
0.0
  0
POINT
  5
410
330
396
100
AcDbEntity
  8
DEFPOINTS
  6
BYBLOCK
 62
     0
100
AcDbPoint
 10
324.4068746582754
 20
327.3158811387815
 30
0.0
  0
POINT
  5
411
330
396
100
AcDbEntity
  8
DEFPOINTS
  6
BYBLOCK
 62
     0
100
AcDbPoint
 10
324.4068746582754
 20
368.4634588801769
 30
0.0
  0
ENDBLK
  5
412
330
396
100
AcDbEntity
  8
0
100
AcDbBlockEnd
  0
BLOCK
  5
413
330
3A2
100
AcDbEntity
  8
0
100
AcDbBlockBegin
  2
*D10
 70
     1
 10
0.0
 20
0.0
 30
0.0
  3
*D10
  1

  0
LINE
  5
414
330
3A2
100
AcDbEntity
  8
0
  6
BYBLOCK
 62
     4
100
AcDbLine
 10
590.1569746582755
 20
346.3156811387813
 30
0.0
 11
590.1569746582755
 21
371.4634588801769
 31
0.0
  0
LINE
  5
415
330
3A2
100
AcDbEntity
  8
0
  6
BYBLOCK
 62
     4
100
AcDbLine
 10
509.6647989185448
 20
345.5171316786308
 30
0.0
 11
509.6647989185448
 21
371.4634588801769
 31
0.0
  0
LINE
  5
416
330
3A2
100
AcDbEntity
  8
0
  6
BYBLOCK
 62
     4
100
AcDbLine
 10
583.1569746582755
 20
368.4634588801769
 30
0.0
 11
516.6647989185447
 21
368.4634588801769
 31
0.0
  0
INSERT
  5
417
330
3A2
100
AcDbEntity
  8
0
  6
BYBLOCK
 62
     4
100
AcDbBlockReference
  2
_OPEN
 10
590.1569746582755
 20
368.4634588801769
 30
0.0
 41
7.0
 42
7.0
 43
7.0
  0
INSERT
  5
418
330
3A2
100
AcDbEntity
  8
0
  6
BYBLOCK
 62
     4
100
AcDbBlockReference
  2
_OPEN
 10
509.6647989185448
 20
368.4634588801769
 30
0.0
 41
7.0
 42
7.0
 43
7.0
 50
180.0
  0
MTEXT
  5
419
330
3A2
100
AcDbEntity
  8
0
  6
BYBLOCK
 62
     4
100
AcDbMText
 10
549.9108867884102
 20
373.4634588801769
 30
0.0
 40
6.0
 41
0.0
 71
     5
 72
     1
  1
\A1;80
1001
ACAD
1000
MTEXTBEGIN
1070
    73
1070
     1
1070
    44
1040
1.0
1070
    74
1070
     0
1000
MTEXTEND
1000
MTEXTBEGIN
1070
    73
1070
     1
1070
    44
1040
1.0
1070
    74
1070
     0
1000
MTEXTEND
1000
MTEXTBEGIN
1070
    73
1070
     1
1070
    44
1040
1.0
1070
    74
1070
     0
1000
MTEXTEND
  0
POINT
  5
41A
330
3A2
100
AcDbEntity
  8
DEFPOINTS
  6
BYBLOCK
 62
     0
100
AcDbPoint
 10
590.1569746582755
 20
340.3156811387813
 30
0.0
  0
POINT
  5
41B
330
3A2
100
AcDbEntity
  8
DEFPOINTS
  6
BYBLOCK
 62
     0
100
AcDbPoint
 10
509.6647989185448
 20
339.5171316786308
 30
0.0
  0
POINT
  5
41C
330
3A2
100
AcDbEntity
  8
DEFPOINTS
  6
BYBLOCK
 62
     0
100
AcDbPoint
 10
509.6647989185448
 20
368.4634588801769
 30
0.0
  0
ENDBLK
  5
41D
330
3A2
100
AcDbEntity
  8
0
100
AcDbBlockEnd
  0
ENDSEC
  0
SECTION
  2
ENTITIES
  0
TEXT
  5
11A
330
1A
100
AcDbEntity
  8
ZUWAKU
 62
     7
 48
10.0
100
AcDbText
 10
795.5579444309237
 20
4.974918402528146
 30
0.0
 40
8.0
  1
A1
100
AcDbText
  0
LINE
  5
11B
330
1A
100
AcDbEntity
  8
ZUWAKU
 62
     7
 48
10.0
100
AcDbLine
 10
10.05047808566086
 20
25.78258628282265
 30
0.0
 11
806.0504780856609
 21
25.78258628282253
 31
0.0
  0
LINE
  5
11C
330
1A
100
AcDbEntity
  8
ZUWAKU
  6
CONTINUOUS
 62
     7
100
AcDbLine
 10
806.0504780856609
 20
563.7825862828226
 30
0.0
 11
10.05047808566086
 21
563.7825862828226
 31
0.0
  0
LINE
  5
11D
330
1A
100
AcDbEntity
  8
ZUWAKU
  6
CONTINUOUS
 62
     7
100
AcDbLine
 10
806.0504780856609
 20
13.78258628282265
 30
0.0
 11
10.05047808566086
 21
13.78258628282265
 31
0.0
  0
LINE
  5
11E
330
1A
100
AcDbEntity
  8
ZUWAKU
  6
CONTINUOUS
 62
     7
100
AcDbLine
 10
10.05047808566086
 20
563.7825862828226
 30
0.0
 11
10.05047808566086
 21
13.78258628282265
 31
0.0
  0
LINE
  5
11F
330
1A
100
AcDbEntity
  8
ZUWAKU
 62
     7
 48
10.0
100
AcDbLine
 10
44.55797523147839
 20
13.78258628282265
 30
0.0
 11
44.5579752314784
 21
25.78258628282265
 31
0.0
  0
TEXT
  5
120
330
1A
100
AcDbEntity
  8
ZUWAKU
 62
     7
100
AcDbText
 10
16.05676551180931
 20
15.52294263804401
 30
0.0
 40
8.0
  1
品 種
100
AcDbText
  0
LINE
  5
121
330
1A
100
AcDbEntity
  8
ZUWAKU
 62
     7
 48
10.0
100
AcDbLine
 10
276.1028387068254
 20
13.78258628282265
 30
0.0
 11
276.1028387068254
 21
25.78258628282261
 31
0.0
  0
LINE
  5
122
330
1A
100
AcDbEntity
  8
ZUWAKU
 62
     7
 48
10.0
100
AcDbLine
 10
209.5138526425484
 20
13.78258628282265
 30
0.0
 11
209.5138526425485
 21
25.78258628282263
 31
0.0
  0
TEXT
  5
123
330
1A
100
AcDbEntity
  8
ZUWAKU
 62
     7
100
AcDbText
 10
282.3131429914078
 20
15.64241700452384
 30
0.0
 40
8.0
  1
合せマス　型　ＵＴ７５－ＵＴ７５－ＵＴ６０
100
AcDbText
  0
TEXT
  5
124
330
1A
100
AcDbEntity
  8
ZUWAKU
 62
     7
100
AcDbText
 10
215.4560837190756
 20
16.18358115302453
 30
0.0
 40
8.0
  1
品名・ｻ ｲ ｽﾞ
100
AcDbText
  0
TEXT
  5
125
330
1A
100
AcDbEntity
  8
ZUWAKU
 62
     7
100
AcDbText
 10
50.3519382305086
 20
16.10306189639755
 30
0.0
 40
8.0
  1
丸トップ　たてとい
100
AcDbText
  0
LINE
  5
126
330
1A
100
AcDbEntity
  8
ZUWAKU
 62
     7
 48
10.0
100
AcDbLine
 10
768.7231079932794
 20
13.78258628282237
 30
0.0
 11
768.7231079932794
 21
25.78258628282254
 31
0.0
  0
LINE
  5
127
330
1A
100
AcDbEntity
  8
ZUWAKU
 62
     7
 48
10.0
100
AcDbLine
 10
733.8119002376948
 20
13.78258628282242
 30
0.0
 11
733.8119002376946
 21
25.78258628282254
 31
0.0
  0
TEXT
  5
128
330
1A
100
AcDbEntity
  8
ZUWAKU
 62
     7
100
AcDbText
 10
739.6955629973526
 20
15.24227755810852
 30
0.0
 40
8.0
  1
尺 度
100
AcDbText
  0
TEXT
  5
129
330
1A
100
AcDbEntity
  8
ZUWAKU
 62
     7
100
AcDbText
 10
779.7374630323229
 20
15.55488920081529
 30
0.0
 40
8.0
  1
1/2
100
AcDbText
  0
TEXT
  5
12A
330
1A
100
AcDbEntity
  8
ZUWAKU
 62
     7
100
AcDbText
 10
654.2531733678779
 20
15.90287984531518
 30
0.0
 40
8.0
  1
ＧＢ２０
100
AcDbText
  0
TEXT
  5
12B
330
1A
100
AcDbEntity
  8
ZUWAKU
 62
     7
100
AcDbText
 10
620.3363288383084
 20
15.6519090944263
 30
0.0
 40
8.0
  1
品 番
100
AcDbText
  0
LINE
  5
12C
330
1A
100
AcDbEntity
  8
ZUWAKU
 62
     7
 48
10.0
100
AcDbLine
 10
614.3351028194128
 20
13.78258628282232
 30
0.0
 11
614.3351028194128
 21
25.78258628282256
 31
0.0
  0
LINE
  5
12D
330
1A
100
AcDbEntity
  8
ZUWAKU
 62
     7
 48
10.0
100
AcDbLine
 10
648.7607587371021
 20
13.78258628282232
 30
0.0
 11
648.7607587371021
 21
25.78258628282255
 31
0.0
  0
TEXT
  5
12E
330
1A
100
AcDbEntity
  8
ZUWAKU
 62
     7
 48
10.0
100
AcDbText
 10
646.2758615931216
 20
4.949376903717848
 30
0.0
 40
8.0
  1
積水化学工業株式会社  建材
100
AcDbText
  0
LINE
  5
12F
330
1A
100
AcDbEntity
  8
ZUWAKU
  6
CONTINUOUS
 62
     7
100
AcDbLine
 10
806.0504780856609
 20
563.7825862828226
 30
0.0
 11
806.0504780856609
 21
13.78258628282265
 31
0.0
  0
DIMENSION
  5
287
330
1A
100
AcDbEntity
  8
SUNPOU
100
AcDbDimension
  2
*D1
 10
465.9198925644822
 20
238.7183563743521
 30
0.0
 11
460.9198925644822
 21
268.7183747991571
 31
0.0
 12
46.64371037633418
 22
-21.59748791481934
 32
0.0
 70
    32
  3
STANDARD
100
AcDbAlignedDimension
 13
411.3005850346096
 23
298.7183932239621
 33
0.0
 14
410.3005850346096
 24
238.7183563743521
 34
0.0
 50
90.0
100
AcDbRotatedDimension
1001
ACAD
1000
DSTYLE
1002
{
1070
   140
1040
6.0
1070
    74
1070
     0
1070
   172
1070
     1
1070
    73
1070
     0
1070
   272
1070
     2
1070
    77
1070
     3
1070
   173
1070
     1
1070
   147
1040
2.0
1070
    42
1040
6.0
1070
    44
1040
3.0
1070
    43
1040
14.0
1070
   271
1070
     0
1070
   178
1070
     4
1070
   177
1070
     4
1070
   176
1070
     4
1070
   141
1040
150.0
1070
     7
1000
_OPEN
1070
     6
1000
_OPEN
1070
    41
1040
7.0
1002
}
  0
DIMENSION
  5
288
330
1A
100
AcDbEntity
  8
SUNPOU
100
AcDbDimension
  2
*D2
 10
465.9198925644822
 20
298.7183932239621
 30
0.0
 11
460.9198925644822
 21
308.7183932239621
 31
0.0
 12
46.64371037633418
 22
-21.59748791481934
 32
0.0
 70
    32
  3
STANDARD
100
AcDbAlignedDimension
 13
331.8005250346095
 23
318.7183932239621
 33
0.0
 14
411.3005850346096
 24
298.7183932239621
 34
0.0
 50
90.0
100
AcDbRotatedDimension
1001
ACAD
1000
DSTYLE
1002
{
1070
   140
1040
6.0
1070
    74
1070
     0
1070
   172
1070
     1
1070
    73
1070
     0
1070
   272
1070
     2
1070
    77
1070
     3
1070
   173
1070
     1
1070
   147
1040
2.0
1070
    42
1040
6.0
1070
    44
1040
3.0
1070
    43
1040
14.0
1070
   271
1070
     0
1070
   178
1070
     4
1070
   177
1070
     4
1070
   176
1070
     4
1070
   141
1040
150.0
1070
     7
1000
_OPEN
1070
     6
1000
_OPEN
1070
    41
1040
7.0
1002
}
  0
DIMENSION
  5
289
330
1A
100
AcDbEntity
  8
SUNPOU
100
AcDbDimension
  2
*D3
 10
447.5389419193087
 20
258.7183932239621
 30
0.0
 11
442.5389419193087
 21
278.7183932239621
 31
0.0
 12
46.64371037633418
 22
-21.59748791481934
 32
0.0
 70
    32
  3
STANDARD
100
AcDbAlignedDimension
 13
411.3005850346096
 23
298.7183932239621
 33
0.0
 14
411.3005850346096
 24
258.7183932239621
 34
0.0
 50
90.0
100
AcDbRotatedDimension
1001
ACAD
1000
DSTYLE
1002
{
1070
   140
1040
6.0
1070
    74
1070
     0
1070
   172
1070
     1
1070
    73
1070
     0
1070
   272
1070
     2
1070
    77
1070
     3
1070
   173
1070
     1
1070
   147
1040
2.0
1070
    42
1040
6.0
1070
    44
1040
3.0
1070
    43
1040
14.0
1070
   271
1070
     0
1070
   178
1070
     4
1070
   177
1070
     4
1070
   176
1070
     4
1070
   141
1040
150.0
1070
     7
1000
_OPEN
1070
     6
1000
_OPEN
1070
    41
1040
7.0
1002
}
  0
DIMENSION
  5
28A
330
1A
100
AcDbEntity
  8
SUNPOU
100
AcDbDimension
  2
*D4
 10
228.3845449843978
 20
198.7183932239621
 30
0.0
 11
223.3845449843978
 21
258.7183932239621
 31
0.0
 12
46.64371037633418
 22
-21.59748791481934
 32
0.0
 70
    32
  3
STANDARD
100
AcDbAlignedDimension
 13
256.3005850346095
 23
318.7183932239621
 33
0.0
 14
258.4511945584192
 24
198.7183932239621
 34
0.0
 50
90.0
100
AcDbRotatedDimension
1001
ACAD
1000
DSTYLE
1002
{
1070
   140
1040
6.0
1070
    74
1070
     0
1070
   172
1070
     1
1070
    73
1070
     0
1070
   272
1070
     2
1070
    77
1070
     3
1070
   173
1070
     1
1070
   147
1040
2.0
1070
    42
1040
6.0
1070
    44
1040
3.0
1070
    43
1040
14.0
1070
   271
1070
     0
1070
   178
1070
     4
1070
   177
1070
     4
1070
   176
1070
     4
1070
   141
1040
150.0
1070
     7
1000
_OPEN
1070
     6
1000
_OPEN
1070
    41
1040
7.0
1002
}
  0
DIMENSION
  5
28B
330
1A
100
AcDbEntity
  8
SUNPOU
100
AcDbDimension
  2
*D5
 10
208.0003288571691
 20
143.7183932239621
 30
0.0
 11
208.0003288571691
 21
230.4498511120208
 31
0.0
 12
46.64371037633418
 22
-21.59748791481934
 32
0.0
 70
   160
  3
STANDARD
100
AcDbAlignedDimension
 13
256.3005850346095
 23
318.7183932239621
 33
0.0
 14
268.2002850346095
 24
143.7183932239621
 34
0.0
 50
90.0
100
AcDbRotatedDimension
1001
ACAD
1000
DSTYLE
1002
{
1070
   140
1040
6.0
1070
    74
1070
     0
1070
   172
1070
     1
1070
    73
1070
     0
1070
   272
1070
     2
1070
    77
1070
     3
1070
   173
1070
     1
1070
   147
1040
2.0
1070
    42
1040
6.0
1070
    44
1040
3.0
1070
    43
1040
14.0
1070
   271
1070
     0
1070
   178
1070
     4
1070
   177
1070
     4
1070
   176
1070
     4
1070
   141
1040
150.0
1070
     7
1000
_OPEN
1070
     6
1000
_OPEN
1070
    41
1040
7.0
1002
}
  0
DIMENSION
  5
28C
330
1A
100
AcDbEntity
  8
SUNPOU
100
AcDbDimension
  2
*D6
 10
256.3005850346095
 20
363.3458202442624
 30
0.0
 11
333.8005850346096
 21
368.3458202442624
 31
0.0
 12
46.64371037633418
 22
-21.59748791481934
 32
0.0
 70
    32
  3
STANDARD
100
AcDbAlignedDimension
 13
411.3005850346096
 23
298.7183932239621
 33
0.0
 14
256.3005850346095
 24
318.7183932239621
 34
0.0
100
AcDbRotatedDimension
1001
ACAD
1000
DSTYLE
1002
{
1070
   140
1040
6.0
1070
    74
1070
     0
1070
   172
1070
     1
1070
    73
1070
     0
1070
   272
1070
     2
1070
    77
1070
     3
1070
   173
1070
     1
1070
   147
1040
2.0
1070
    42
1040
6.0
1070
    44
1040
3.0
1070
    43
1040
14.0
1070
   271
1070
     0
1070
   178
1070
     4
1070
   177
1070
     4
1070
   176
1070
     4
1070
   141
1040
150.0
1070
     7
1000
_OPEN
1070
     6
1000
_OPEN
1070
    41
1040
7.0
1002
}
  0
LINE
  5
28D
330
1A
100
AcDbEntity
  8
SEIHIN
  6
CONTINUOUS
 62
     3
100
AcDbLine
 10
332.1220850346095
 20
317.1105932239621
 30
0.0
 11
335.4789850346095
 21
300.326093223962
 31
0.0
  0
LINE
  5
28E
330
1A
100
AcDbEntity
  8
CENTER_L
  6
CENTER
 62
     1
 48
5.0
100
AcDbLine
 10
371.0505850346096
 20
287.7183932239621
 30
0.0
 11
371.0505850346096
 21
305.7183932239621
 31
0.0
  0
LINE
  5
28F
330
1A
100
AcDbEntity
  8
SEIHIN
  6
CONTINUOUS
 62
     3
100
AcDbLine
 10
258.5503850346096
 20
188.7183932239621
 30
0.0
 11
257.3005850346096
 21
314.7183932239621
 31
0.0
  0
LINE
  5
290
330
1A
100
AcDbEntity
  8
CENTER_L
  6
CENTER
 62
     1
 48
5.0
100
AcDbLine
 10
296.5504850346096
 20
132.7183932239621
 30
0.0
 11
296.550583299496
 21
325.7183932239621
 31
0.0
  0
LINE
  5
291
330
1A
100
AcDbEntity
  8
SEIHIN
  6
CONTINUOUS
 62
     3
100
AcDbLine
 10
328.8428850346095
 20
313.1105932239621
 30
0.0
 11
332.1997850346094
 21
296.326093223962
 31
0.0
  0
DIMENSION
  5
292
330
1A
100
AcDbEntity
  8
SUNPOU
  6
CONTINUOUS
 62
     4
100
AcDbDimension
  2
*D7
 10
324.9002850346095
 20
111.6343792246105
 30
0.0
 11
296.5502850346095
 21
116.6343792246105
 31
0.0
 70
    32
  1
φ<>
  3
STANDARD
100
AcDbAlignedDimension
 13
268.2002850346095
 23
143.7183932239621
 33
0.0
 14
324.9002850346095
 24
143.7183932239621
 34
0.0
100
AcDbRotatedDimension
1001
ACAD
1000
DSTYLE
1002
{
1070
   140
1040
6.0
1070
    74
1070
     0
1070
   172
1070
     1
1070
    73
1070
     0
1070
   272
1070
     2
1070
    77
1070
     3
1070
   173
1070
     1
1070
   147
1040
2.0
1070
    42
1040
6.0
1070
    44
1040
3.0
1070
    43
1040
14.0
1070
   271
1070
     0
1070
   178
1070
     4
1070
   177
1070
     4
1070
   176
1070
     4
1070
   141
1040
150.0
1070
     7
1000
_OPEN
1070
     6
1000
_OPEN
1070
    41
1040
7.0
1002
}
  0
DIMENSION
  5
293
330
1A
100
AcDbEntity
  8
SUNPOU
  6
CONTINUOUS
 62
     4
100
AcDbDimension
  2
*D8
 10
331.9002850346096
 20
92.43215289909095
 30
0.0
 11
296.5503350346096
 21
97.43215289909095
 31
0.0
 70
    32
  1
φ<>
  3
STANDARD
100
AcDbAlignedDimension
 13
261.2003850346096
 23
168.7183932239621
 33
0.0
 14
331.9002850346096
 24
168.7183932239621
 34
0.0
100
AcDbRotatedDimension
1001
ACAD
1000
DSTYLE
1002
{
1070
   140
1040
6.0
1070
    74
1070
     0
1070
   172
1070
     1
1070
    73
1070
     0
1070
   272
1070
     2
1070
    77
1070
     3
1070
   173
1070
     1
1070
   147
1040
2.0
1070
    42
1040
6.0
1070
    44
1040
3.0
1070
    43
1040
14.0
1070
   271
1070
     0
1070
   178
1070
     4
1070
   177
1070
     4
1070
   176
1070
     4
1070
   141
1040
150.0
1070
     7
1000
_OPEN
1070
     6
1000
_OPEN
1070
    41
1040
7.0
1002
}
  0
LINE
  5
294
330
1A
100
AcDbEntity
  8
SEIHIN
  6
CONTINUOUS
 62
     3
100
AcDbLine
 10
334.5503850346096
 20
188.7183932239621
 30
0.0
 11
258.5503850346096
 21
188.7183932239621
 31
0.0
  0
LINE
  5
295
330
1A
100
AcDbEntity
  8
SEIHIN
  6
CONTINUOUS
 62
     3
100
AcDbLine
 10
331.9002850346096
 20
168.7183932239621
 30
0.0
 11
261.2003850346096
 21
168.7183932239621
 31
0.0
  0
LINE
  5
296
330
1A
100
AcDbEntity
  8
SEIHIN
  6
CONTINUOUS
 62
     3
100
AcDbLine
 10
325.6752850346096
 20
163.7183932239621
 30
0.0
 11
267.4253850346095
 21
163.7183932239621
 31
0.0
  0
LINE
  5
297
330
1A
100
AcDbEntity
  8
SEIHIN
  6
CONTINUOUS
 62
     3
100
AcDbLine
 10
324.9002850346095
 20
143.7183932239621
 30
0.0
 11
268.2002850346095
 21
143.7183932239621
 31
0.0
  0
LINE
  5
298
330
1A
100
AcDbEntity
  8
SEIHIN
  6
CONTINUOUS
 62
     3
100
AcDbLine
 10
261.2003850346096
 20
168.7183932239621
 30
0.0
 11
267.4252850346096
 21
163.7183932239621
 31
0.0
  0
LINE
  5
299
330
1A
100
AcDbEntity
  8
SEIHIN
  6
CONTINUOUS
 62
     3
100
AcDbLine
 10
267.4252850346096
 20
163.7183932239621
 30
0.0
 11
268.1502850346096
 21
148.718393223962
 31
0.0
  0
LINE
  5
29A
330
1A
100
AcDbEntity
  8
SEIHIN
  6
CONTINUOUS
 62
     3
100
AcDbLine
 10
268.2002850346095
 20
143.7183932239621
 30
0.0
 11
268.1502850346096
 21
148.718393223962
 31
0.0
  0
LINE
  5
29B
330
1A
100
AcDbEntity
  8
SEIHIN
  6
CONTINUOUS
 62
     3
100
AcDbLine
 10
260.4253850346095
 20
188.7183932239621
 30
0.0
 11
261.1252850346095
 21
173.718393223962
 31
0.0
  0
LINE
  5
29C
330
1A
100
AcDbEntity
  8
SEIHIN
  6
CONTINUOUS
 62
     3
100
AcDbLine
 10
261.1252850346095
 20
173.718393223962
 30
0.0
 11
261.2003850346096
 21
168.7183932239621
 31
0.0
  0
LINE
  5
29D
330
1A
100
AcDbEntity
  8
SEIHIN
  6
CONTINUOUS
 62
     3
100
AcDbLine
 10
336.0500850346096
 20
194.580393223962
 30
0.0
 11
405.4103850346096
 21
235.8113932239621
 31
0.0
  0
INSERT
  5
29E
330
1A
100
AcDbEntity
  8
SUNPOU
  6
CONTINUOUS
 62
     4
100
AcDbBlockReference
  2
_OPEN
 10
370.0917260872264
 20
163.7183932239621
 30
0.0
 41
7.0
 42
7.0
 43
7.0
 50
90.0
  0
INSERT
  5
29F
330
1A
100
AcDbEntity
  8
SUNPOU
  6
CONTINUOUS
 62
     4
100
AcDbBlockReference
  2
_OPEN
 10
370.0917260872264
 20
143.7183932239621
 30
0.0
 41
7.0
 42
7.0
 43
7.0
 50
270.0
  0
LINE
  5
2A0
330
1A
100
AcDbEntity
  8
SUNPOU
  6
CONTINUOUS
 62
     4
100
AcDbLine
 10
331.6752850346095
 20
163.7183932239621
 30
0.0
 11
373.0917260872264
 21
163.7183932239621
 31
0.0
  0
LINE
  5
2A1
330
1A
100
AcDbEntity
  8
SUNPOU
  6
CONTINUOUS
 62
     4
100
AcDbLine
 10
330.9002850346095
 20
143.7183932239621
 30
0.0
 11
373.0917260872264
 21
143.7183932239621
 31
0.0
  0
INSERT
  5
2A2
330
1A
100
AcDbEntity
  8
SUNPOU
  6
CONTINUOUS
 62
     4
100
AcDbBlockReference
  2
_OPEN
 10
370.0917260872264
 20
168.7183932239621
 30
0.0
 41
7.0
 42
7.0
 43
7.0
 50
270.0
  0
INSERT
  5
2A3
330
1A
100
AcDbEntity
  8
SUNPOU
  6
CONTINUOUS
 62
     4
100
AcDbBlockReference
  2
_OPEN
 10
370.0917260872264
 20
188.7183932239621
 30
0.0
 41
7.0
 42
7.0
 43
7.0
 50
90.0
  0
LINE
  5
2A4
330
1A
100
AcDbEntity
  8
SUNPOU
  6
CONTINUOUS
 62
     4
100
AcDbLine
 10
337.9002850346096
 20
168.7183932239621
 30
0.0
 11
373.0917260872264
 21
168.7183932239621
 31
0.0
  0
LINE
  5
2A5
330
1A
100
AcDbEntity
  8
SUNPOU
  6
CONTINUOUS
 62
     4
100
AcDbLine
 10
340.5503850346097
 20
188.7183932239621
 30
0.0
 11
373.0917260872264
 21
188.7183932239621
 31
0.0
  0
LINE
  5
2A6
330
1A
100
AcDbEntity
  8
SEIHIN
  6
CONTINUOUS
 62
     3
100
AcDbLine
 10
331.9002850346096
 20
168.7183932239621
 30
0.0
 11
325.6752850346096
 21
163.7183932239621
 31
0.0
  0
LINE
  5
2A7
330
1A
100
AcDbEntity
  8
SEIHIN
  6
CONTINUOUS
 62
     3
100
AcDbLine
 10
325.6752850346096
 20
163.7183932239621
 30
0.0
 11
324.9502850346097
 21
148.718393223962
 31
0.0
  0
POINT
  5
2A8
330
1A
100
AcDbEntity
  8
SUNPOU
  6
CONTINUOUS
 62
     4
100
AcDbPoint
 10
278.2565746582753
 20
165.3158811387815
 30
0.0
  0
LINE
  5
2A9
330
1A
100
AcDbEntity
  8
SEIHIN
  6
CONTINUOUS
 62
     3
100
AcDbLine
 10
324.9002850346095
 20
143.7183932239621
 30
0.0
 11
324.9502850346097
 21
148.718393223962
 31
0.0
  0
POINT
  5
2AA
330
1A
100
AcDbEntity
  8
SUNPOU
  6
CONTINUOUS
 62
     4
100
AcDbPoint
 10
279.0315746582754
 20
185.3158811387815
 30
0.0
  0
MTEXT
  5
2AB
330
1A
100
AcDbEntity
  8
SUNPOU
  6
CONTINUOUS
 62
     4
100
AcDbMText
 10
365.0917260872264
 20
142.9343575177135
 30
0.0
 40
6.0
 41
0.0
 71
     5
 72
     1
  1
\A1;※b 20
 11
0.0
 21
1.0
 31
0.0
1001
ACAD
1000
MTEXTBEGIN
1070
    73
1070
     1
1070
    44
1040
1.0
1070
    74
1070
     0
1000
MTEXTEND
1000
MTEXTBEGIN
1070
    73
1070
     1
1070
    44
1040
1.0
1070
    74
1070
     0
1000
MTEXTEND
1000
MTEXTBEGIN
1070
    73
1070
     1
1070
    44
1040
1.0
1070
    74
1070
     0
1000
MTEXTEND
  0
LINE
  5
2AC
330
1A
100
AcDbEntity
  8
SEIHIN
  6
CONTINUOUS
 62
     3
100
AcDbLine
 10
332.6753850346097
 20
188.7183932239621
 30
0.0
 11
331.9752850346095
 21
173.718393223962
 31
0.0
  0
POINT
  5
2AD
330
1A
100
AcDbEntity
  8
SUNPOU
  6
CONTINUOUS
 62
     4
100
AcDbPoint
 10
285.2565746582754
 20
190.3158811387815
 30
0.0
  0
LINE
  5
2AE
330
1A
100
AcDbEntity
  8
SEIHIN
  6
CONTINUOUS
 62
     3
100
AcDbLine
 10
331.9752850346095
 20
173.718393223962
 30
0.0
 11
331.9002850346096
 21
168.7183932239621
 31
0.0
  0
POINT
  5
2AF
330
1A
100
AcDbEntity
  8
SUNPOU
  6
CONTINUOUS
 62
     4
100
AcDbPoint
 10
287.9066746582754
 20
210.3158811387814
 30
0.0
  0
ARC
  5
2B0
330
1A
100
AcDbEntity
  8
SEIHIN
  6
CONTINUOUS
 62
     3
100
AcDbCircle
 10
337.583059916692
 20
192.0015495786051
 30
0.0
 40
3.000023325128821
100
AcDbArc
 50
120.7274175352198
 51
179.4300233891408
  0
LINE
  5
2B1
330
1A
100
AcDbEntity
  8
SEIHIN
  6
CONTINUOUS
 62
     3
100
AcDbLine
 10
334.5503850346096
 20
188.718293223962
 30
0.0
 11
334.5832850346096
 21
192.0313932239621
 31
0.0
  0
MTEXT
  5
2B2
330
1A
100
AcDbEntity
  8
SUNPOU
  6
CONTINUOUS
 62
     4
100
AcDbMText
 10
365.0917260872264
 20
187.0265168203451
 30
0.0
 40
6.0
 41
0.0
 71
     5
 72
     1
  1
\A1;※a 20
 11
0.0
 21
1.0
 31
0.0
1001
ACAD
1000
MTEXTBEGIN
1070
    73
1070
     1
1070
    44
1040
1.0
1070
    74
1070
     0
1000
MTEXTEND
1000
MTEXTBEGIN
1070
    73
1070
     1
1070
    44
1040
1.0
1070
    74
1070
     0
1000
MTEXTEND
1000
MTEXTBEGIN
1070
    73
1070
     1
1070
    44
1040
1.0
1070
    74
1070
     0
1000
MTEXTEND
  0
LINE
  5
2B3
330
1A
100
AcDbEntity
  8
SUNPOU
  6
CONTINUOUS
 62
     4
100
AcDbLine
 10
370.0917260872264
 20
163.7183932239621
 30
0.0
 11
370.0917260872264
 21
200.5183932239621
 31
0.0
  0
LINE
  5
2B4
330
1A
100
AcDbEntity
  8
SUNPOU
  6
CONTINUOUS
 62
     4
100
AcDbLine
 10
370.0917260872264
 20
168.7183932239621
 30
0.0
 11
370.0917260872264
 21
137.9183932239621
 31
0.0
  0
LINE
  5
2B5
330
1A
100
AcDbEntity
  8
SUNPOU
  6
CONTINUOUS
 62
     4
100
AcDbLine
 10
370.0917260872264
 20
150.7183932239621
 30
0.0
 11
370.0917260872264
 21
156.7183932239621
 31
0.0
  0
POINT
  5
2B6
330
1A
100
AcDbEntity
  8
SUNPOU
  6
CONTINUOUS
 62
     4
100
AcDbPoint
 10
323.4480157108922
 20
185.3158811387815
 30
0.0
  0
LINE
  5
2B7
330
1A
100
AcDbEntity
  8
SUNPOU
  6
CONTINUOUS
 62
     4
100
AcDbLine
 10
370.0917260872264
 20
181.7183932239621
 30
0.0
 11
370.0917260872264
 21
175.7183932239621
 31
0.0
  0
POINT
  5
2B8
330
1A
100
AcDbEntity
  8
SUNPOU
  6
CONTINUOUS
 62
     4
100
AcDbPoint
 10
323.4480157108922
 20
190.3158811387815
 30
0.0
  0
LINE
  5
2B9
330
1A
100
AcDbEntity
  8
SEIHIN
  6
CONTINUOUS
 62
     3
100
AcDbLine
 10
334.1609850346096
 20
294.7183932239621
 30
0.0
 11
411.3005850346096
 21
294.7183932239621
 31
0.0
  0
LINE
  5
2BA
330
1A
100
AcDbEntity
  8
SEIHIN
  6
CONTINUOUS
 62
     3
100
AcDbLine
 10
337.4400850346096
 20
298.7183932239621
 30
0.0
 11
411.3005850346096
 21
298.7183932239621
 31
0.0
  0
ARC
  5
2BB
330
1A
100
AcDbEntity
  8
SEIHIN
  6
CONTINUOUS
 62
     3
100
AcDbCircle
 10
337.4401136252421
 20
300.7183697861875
 30
0.0
 40
1.999976562429729
100
AcDbArc
 50
191.3113607811765
 51
269.999180929114
  0
ARC
  5
2BC
330
1A
100
AcDbEntity
  8
SEIHIN
  6
CONTINUOUS
 62
     3
100
AcDbCircle
 10
334.1609538177658
 20
296.7184188148847
 30
0.0
 40
2.000025591166196
100
AcDbArc
 50
191.3125122101719
 51
270.0008942852572
  0
LINE
  5
2BD
330
1A
100
AcDbEntity
  8
SEIHIN
  6
CONTINUOUS
 62
     3
100
AcDbLine
 10
410.3005850346096
 20
244.407293223962
 30
0.0
 11
410.3005850346096
 21
294.7183932239621
 31
0.0
  0
ARC
  5
2BE
330
1A
100
AcDbEntity
  8
SEIHIN
  6
CONTINUOUS
 62
     3
100
AcDbCircle
 10
400.3005962133722
 20
244.4073128738668
 30
0.0
 40
9.999988821256755
100
AcDbArc
 50
300.7290926827347
 51
359.9998874142132
  0
LINE
  5
2BF
330
1A
100
AcDbEntity
  8
SEIHIN
  6
CONTINUOUS
 62
     3
100
AcDbLine
 10
411.3006850346095
 20
294.718293223962
 30
0.0
 11
411.3006850346095
 21
298.7182932239619
 31
0.0
  0
ARC
  5
2C0
330
1A
100
AcDbEntity
  8
SEIHIN
  6
CONTINUOUS
 62
     3
100
AcDbCircle
 10
371.0506350344854
 20
448.9771432238378
 30
0.0
 40
40.24995000015529
100
AcDbArc
 50
0.0000711751467048
 51
90.00007117479293
  0
ARC
  5
2C1
330
1A
100
AcDbEntity
  8
SEIHIN
  6
CONTINUOUS
 62
     3
100
AcDbCircle
 10
371.0507003215286
 20
448.9770822917683
 30
0.0
 40
37.24998471308258
100
AcDbArc
 50
0.0000168152703879
 51
108.8603294263511
  0
LINE
  5
2C2
330
1A
100
AcDbEntity
  8
CENTER_L
  6
CENTER
 62
     1
 48
5.0
100
AcDbLine
 10
371.0506850346096
 20
398.7270932239621
 30
0.0
 11
371.0506850346096
 21
499.2269932239621
 31
0.0
  0
LINE
  5
2C3
330
1A
100
AcDbEntity
  8
CENTER_L
  6
CENTER
 62
     1
 48
5.0
100
AcDbLine
 10
296.5505850346095
 20
398.7270932239621
 30
0.0
 11
296.5506850346096
 21
499.227093223962
 31
0.0
  0
ARC
  5
2C4
330
1A
100
AcDbEntity
  8
SEIHIN
  6
CONTINUOUS
 62
     3
100
AcDbCircle
 10
296.5506603279954
 20
448.9770676722799
 30
0.0
 40
35.99997529339489
100
AcDbArc
 50
91.92657730282956
 51
179.9999593332068
  0
ARC
  5
2C5
330
1A
100
AcDbEntity
  8
SEIHIN
  6
CONTINUOUS
 62
     3
100
AcDbCircle
 10
296.5506850346096
 20
448.9770932239621
 30
0.0
 40
40.24999999999994
100
AcDbArc
 50
90.00000000000005
 51
180.0
  0
ARC
  5
2C6
330
1A
100
AcDbEntity
  8
SEIHIN
  6
CONTINUOUS
 62
     3
100
AcDbCircle
 10
296.5506697476905
 20
448.9770822917683
 30
0.0
 40
37.24998471308258
100
AcDbArc
 50
71.13967057364881
 51
179.9999831847296
  0
ARC
  5
2C7
330
1A
100
AcDbEntity
  8
SEIHIN
  6
CONTINUOUS
 62
     3
100
AcDbCircle
 10
296.5507097412237
 20
448.9770676722799
 30
0.0
 40
35.99997529339482
100
AcDbArc
 50
0.0000406667930824
 51
88.07342269717031
  0
DIMENSION
  5
2C8
330
1A
100
AcDbEntity
  8
SUNPOU
100
AcDbDimension
  2
*D9
 10
371.0505850346096
 20
346.8659709653576
 30
0.0
 11
333.8005841670528
 21
351.8659709653576
 31
0.0
 12
46.64371037633418
 22
-21.59748791481934
 32
0.0
 70
    32
  3
STANDARD
100
AcDbAlignedDimension
 13
296.550583299496
 23
325.7183932239621
 33
0.0
 14
371.0505850346096
 24
305.7183932239621
 34
0.0
100
AcDbRotatedDimension
1001
ACAD
1000
DSTYLE
1002
{
1070
   140
1040
6.0
1070
    74
1070
     0
1070
   172
1070
     1
1070
    73
1070
     0
1070
   272
1070
     2
1070
    77
1070
     3
1070
   173
1070
     1
1070
   147
1040
2.0
1070
    42
1040
6.0
1070
    44
1040
3.0
1070
    43
1040
14.0
1070
   271
1070
     0
1070
   178
1070
     4
1070
   177
1070
     4
1070
   176
1070
     4
1070
   141
1040
150.0
1070
     7
1000
_OPEN
1070
     6
1000
_OPEN
1070
    41
1040
7.0
1002
}
  0
LINE
  5
2C9
330
1A
100
AcDbEntity
  8
SEIHIN
  6
CONTINUOUS
 62
     3
100
AcDbLine
 10
296.5506850346096
 20
489.2270932239621
 30
0.0
 11
333.8005850346096
 21
489.2270932239621
 31
0.0
  0
LINE
  5
2CA
330
1A
100
AcDbEntity
  8
SEIHIN
  6
CONTINUOUS
 62
     3
100
AcDbLine
 10
296.5506850346096
 20
408.7271932239621
 30
0.0
 11
333.8005850346096
 21
408.7271932239621
 31
0.0
  0
ARC
  5
2CB
330
1A
100
AcDbEntity
  8
SEIHIN
  6
CONTINUOUS
 62
     3
100
AcDbCircle
 10
296.550664938372
 20
448.977072437645
 30
0.0
 40
34.12492009624392
100
AcDbArc
 50
271.9341066459586
 51
0.0000349002500047
  0
ARC
  5
2CC
330
1A
100
AcDbEntity
  8
SEIHIN
  6
CONTINUOUS
 62
     3
100
AcDbCircle
 10
296.5507026428648
 20
448.9771114379317
 30
0.0
 40
33.34998239174982
100
AcDbArc
 50
271.9374011621944
 51
359.9999687081218
  0
ARC
  5
2CD
330
1A
100
AcDbEntity
  8
SEIHIN
  6
CONTINUOUS
 62
     3
100
AcDbCircle
 10
296.5507097413641
 20
448.9771187757184
 30
0.0
 40
35.99997529346435
100
AcDbArc
 50
271.9265773026025
 51
359.9998001780367
  0
LINE
  5
2CE
330
1A
100
AcDbEntity
  8
CENTER_L
  6
CENTER
 62
     1
 48
5.0
100
AcDbLine
 10
245.7512850346096
 20
448.9770932239621
 30
0.0
 11
418.8421850346095
 21
448.9770932239621
 31
0.0
  0
ARC
  5
2CF
330
1A
100
AcDbEntity
  8
SEIHIN
  6
CONTINUOUS
 62
     3
100
AcDbCircle
 10
296.5506697476527
 20
448.9771041562139
 30
0.0
 40
37.2499847131497
100
AcDbArc
 50
179.9998630011232
 51
288.8603294263773
  0
ARC
  5
2D0
330
1A
100
AcDbEntity
  8
SEIHIN
  6
CONTINUOUS
 62
     3
100
AcDbCircle
 10
296.5506350346096
 20
448.9770932239621
 30
0.0
 40
27.12495000000001
100
AcDbArc
 50
180.0
 51
0.0
  0
ARC
  5
2D1
330
1A
100
AcDbEntity
  8
SEIHIN
  6
CONTINUOUS
 62
     3
100
AcDbCircle
 10
296.5506850346096
 20
448.9770932239621
 30
0.0
 40
26.35000000000005
100
AcDbArc
 50
180.0
 51
0.0
  0
LINE
  5
2D2
330
1A
100
AcDbEntity
  8
SEIHIN
  6
CONTINUOUS
 62
     3
100
AcDbLine
 10
326.8816850346096
 20
314.7183932239621
 30
0.0
 11
256.3005850346095
 21
314.7183932239621
 31
0.0
  0
LINE
  5
2D3
330
1A
100
AcDbEntity
  8
SEIHIN
  6
CONTINUOUS
 62
     3
100
AcDbLine
 10
256.3005850346095
 20
318.7183932239621
 30
0.0
 11
330.1609850346096
 21
318.7183932239621
 31
0.0
  0
ARC
  5
2D4
330
1A
100
AcDbEntity
  8
SEIHIN
  6
CONTINUOUS
 62
     3
100
AcDbCircle
 10
296.5506350346096
 20
448.9770932239621
 30
0.0
 40
27.12495000000001
100
AcDbArc
 50
0.0
 51
180.0
  0
ARC
  5
2D5
330
1A
100
AcDbEntity
  8
SEIHIN
  6
CONTINUOUS
 62
     3
100
AcDbCircle
 10
296.5506850346096
 20
448.9770932239621
 30
0.0
 40
26.35000000000005
100
AcDbArc
 50
0.0
 51
180.0
  0
ARC
  5
2D6
330
1A
100
AcDbEntity
  8
SEIHIN
  6
CONTINUOUS
 62
     3
100
AcDbCircle
 10
296.5506632508233
 20
448.9771157558423
 30
0.0
 40
34.12492178379367
100
AcDbArc
 50
359.9999621689495
 51
88.06572261889195
  0
ARC
  5
2D7
330
1A
100
AcDbEntity
  8
SEIHIN
  6
CONTINUOUS
 62
     3
100
AcDbCircle
 10
296.5507009523832
 20
448.9770767585762
 30
0.0
 40
33.34998408223038
100
AcDbArc
 50
0.0000282877831672
 51
88.06242413032059
  0
LINE
  5
2D8
330
1A
100
AcDbEntity
  8
SEIHIN
  6
CONTINUOUS
 62
     3
100
AcDbLine
 10
256.3005850346095
 20
314.7183932239621
 30
0.0
 11
256.3005850346095
 21
318.7183932239621
 31
0.0
  0
LINE
  5
2D9
330
1A
100
AcDbEntity
  8
SEIHIN
  6
CONTINUOUS
 62
     3
100
AcDbLine
 10
296.5505850346095
 20
318.7183932239621
 30
0.0
 11
297.5505850346096
 21
318.7183932239621
 31
0.0
  0
ARC
  5
2DA
330
1A
100
AcDbEntity
  8
SEIHIN
  6
CONTINUOUS
 62
     3
100
AcDbCircle
 10
296.5506691168102
 20
448.9771096894237
 30
0.0
 40
33.34998408230525
100
AcDbArc
 50
179.9998564863934
 51
268.0624241303687
  0
ARC
  5
2DB
330
1A
100
AcDbEntity
  8
SEIHIN
  6
CONTINUOUS
 62
     3
100
AcDbCircle
 10
296.550656818408
 20
448.9771224092439
 30
0.0
 40
34.12497178387194
100
AcDbArc
 50
179.9998811021877
 51
268.0658094518503
  0
ARC
  5
2DC
330
1A
100
AcDbEntity
  8
SEIHIN
  6
CONTINUOUS
 62
     3
100
AcDbCircle
 10
296.5506620090361
 20
448.9771170372375
 30
0.0
 40
35.99997697450714
100
AcDbArc
 50
179.9998787449841
 51
268.0732608651274
  0
ARC
  5
2DD
330
1A
100
AcDbEntity
  8
SEIHIN
  6
CONTINUOUS
 62
     3
100
AcDbCircle
 10
296.5506350347337
 20
448.9771432240863
 30
0.0
 40
40.24995000015522
100
AcDbArc
 50
179.9999288252069
 51
269.9999288248533
  0
LINE
  5
2DE
330
1A
100
AcDbEntity
  8
SEIHIN
  6
CONTINUOUS
 62
     3
100
AcDbLine
 10
295.5506850346096
 20
419.7270932239619
 30
0.0
 11
297.5506850346096
 21
419.7270932239619
 31
0.0
  0
LINE
  5
2DF
330
1A
100
AcDbEntity
  8
SEIHIN
  6
CONTINUOUS
 62
     3
100
AcDbLine
 10
297.5506850346096
 20
419.7270932239619
 30
0.0
 11
297.8006850346096
 21
411.7270932239621
 31
0.0
  0
LINE
  5
2E0
330
1A
100
AcDbEntity
  8
SEIHIN
  6
CONTINUOUS
 62
     3
100
AcDbLine
 10
295.3006850346096
 20
411.7270932239621
 30
0.0
 11
295.5506850346096
 21
419.7270932239619
 31
0.0
  0
ARC
  5
2E1
330
1A
100
AcDbEntity
  8
SEIHIN
  6
CONTINUOUS
 62
     3
100
AcDbCircle
 10
296.5506691168357
 20
448.9770767585763
 30
0.0
 40
33.3499840822303
100
AcDbArc
 50
91.9375758696796
 51
179.999971712217
  0
ARC
  5
2E2
330
1A
100
AcDbEntity
  8
SEIHIN
  6
CONTINUOUS
 62
     3
100
AcDbCircle
 10
296.5506568183957
 20
448.9770640387533
 30
0.0
 40
34.12497178379867
100
AcDbArc
 50
91.93419054813324
 51
179.9999509980755
  0
LINE
  5
2E3
330
1A
100
AcDbEntity
  8
SEIHIN
  6
CONTINUOUS
 62
     3
100
AcDbLine
 10
297.5506850346096
 20
478.2270932239619
 30
0.0
 11
297.8006850346096
 21
486.2270932239619
 31
0.0
  0
LINE
  5
2E4
330
1A
100
AcDbEntity
  8
SEIHIN
  6
CONTINUOUS
 62
     3
100
AcDbLine
 10
295.3006850346096
 20
486.2270932239619
 30
0.0
 11
295.5506850346096
 21
478.2270932239619
 31
0.0
  0
LINE
  5
2E5
330
1A
100
AcDbEntity
  8
SEIHIN
  6
CONTINUOUS
 62
     3
100
AcDbLine
 10
295.5506850346096
 20
478.2270932239619
 30
0.0
 11
297.5506850346096
 21
478.2270932239619
 31
0.0
  0
ARC
  5
2E6
330
1A
100
AcDbEntity
  8
SEIHIN
  6
CONTINUOUS
 62
     3
100
AcDbCircle
 10
326.8817042886771
 20
312.7183774390868
 30
0.0
 40
2.00001578496801
100
AcDbArc
 50
11.30936041312244
 51
90.00055158404922
  0
ARC
  5
2E7
330
1A
100
AcDbEntity
  8
SEIHIN
  6
CONTINUOUS
 62
     3
100
AcDbCircle
 10
330.160944483485
 20
316.7184264682648
 30
0.0
 40
1.999966756108439
100
AcDbArc
 50
11.3082089005433
 51
89.99883827654322
  0
LINE
  5
2E8
330
1A
100
AcDbEntity
  8
SEIHIN
  6
CONTINUOUS
 62
     3
100
AcDbLine
 10
371.0506850346096
 20
489.2270932239621
 30
0.0
 11
333.8006850346096
 21
489.2270932239621
 31
0.0
  0
ARC
  5
2E9
330
1A
100
AcDbEntity
  8
SEIHIN
  6
CONTINUOUS
 62
     3
100
AcDbCircle
 10
371.0506841584334
 20
448.9770925973823
 30
0.0
 40
37.25000087630872
100
AcDbArc
 50
251.1395427968846
 51
359.9998471495989
  0
LINE
  5
2EA
330
1A
100
AcDbEntity
  8
SEIHIN
  6
CONTINUOUS
 62
     3
100
AcDbLine
 10
371.0505850346096
 20
408.7270932239619
 30
0.0
 11
333.8006850346096
 21
408.7270932239619
 31
0.0
  0
LINE
  5
2EB
330
1A
100
AcDbEntity
  8
SEIHIN
  6
CONTINUOUS
 62
     3
100
AcDbLine
 10
357.0090850346094
 20
411.7270932239621
 30
0.0
 11
333.8006850346096
 21
411.7270932239621
 31
0.0
  0
LINE
  5
2EC
330
1A
100
AcDbEntity
  8
SEIHIN
  6
CONTINUOUS
 62
     3
100
AcDbLine
 10
310.5921850346095
 20
411.7270932239621
 30
0.0
 11
333.8005850346096
 21
411.7270932239621
 31
0.0
  0
LINE
  5
2ED
330
1A
100
AcDbEntity
  8
SEIHIN
  6
CONTINUOUS
 62
     3
100
AcDbLine
 10
308.5921850346095
 20
413.7270932239621
 30
0.0
 11
312.5921850346095
 21
413.7270932239621
 31
0.0
  0
LINE
  5
2EE
330
1A
100
AcDbEntity
  8
SEIHIN
  6
CONTINUOUS
 62
     3
100
AcDbLine
 10
310.5921850346095
 20
413.7270932239621
 30
0.0
 11
310.5921850346095
 21
411.7270932239621
 31
0.0
  0
LINE
  5
2EF
330
1A
100
AcDbEntity
  8
SEIHIN
  6
CONTINUOUS
 62
     3
100
AcDbLine
 10
312.5921850346095
 20
413.7270932239621
 30
0.0
 11
312.5921850346095
 21
411.7270932239621
 31
0.0
  0
LINE
  5
2F0
330
1A
100
AcDbEntity
  8
SEIHIN
  6
CONTINUOUS
 62
     3
100
AcDbLine
 10
335.8005850346096
 20
408.7270932239619
 30
0.0
 11
335.8005850346096
 21
411.7270932239621
 31
0.0
  0
LINE
  5
2F1
330
1A
100
AcDbEntity
  8
SEIHIN
  6
CONTINUOUS
 62
     3
100
AcDbLine
 10
331.8005850346096
 20
408.7270932239619
 30
0.0
 11
331.8005850346096
 21
411.7270932239621
 31
0.0
  0
LINE
  5
2F2
330
1A
100
AcDbEntity
  8
SEIHIN
  6
CONTINUOUS
 62
     3
100
AcDbLine
 10
357.0090850346094
 20
413.7270932239621
 30
0.0
 11
357.0090850346094
 21
411.7270932239621
 31
0.0
  0
LINE
  5
2F3
330
1A
100
AcDbEntity
  8
SEIHIN
  6
CONTINUOUS
 62
     3
100
AcDbLine
 10
355.0090850346094
 20
413.7270932239621
 30
0.0
 11
355.0090850346094
 21
411.7270932239621
 31
0.0
  0
LINE
  5
2F4
330
1A
100
AcDbEntity
  8
SEIHIN
  6
CONTINUOUS
 62
     3
100
AcDbLine
 10
359.0090850346096
 20
413.7270932239621
 30
0.0
 11
355.0090850346094
 21
413.7270932239621
 31
0.0
  0
LINE
  5
2F5
330
1A
100
AcDbEntity
  8
SEIHIN
  6
CONTINUOUS
 62
     3
100
AcDbLine
 10
357.0090850346094
 20
486.2270932239619
 30
0.0
 11
333.8006850346096
 21
486.2270932239619
 31
0.0
  0
LINE
  5
2F6
330
1A
100
AcDbEntity
  8
SEIHIN
  6
CONTINUOUS
 62
     3
100
AcDbLine
 10
310.5921850346095
 20
486.2270932239619
 30
0.0
 11
333.8005850346096
 21
486.2270932239619
 31
0.0
  0
LINE
  5
2F7
330
1A
100
AcDbEntity
  8
SEIHIN
  6
CONTINUOUS
 62
     3
100
AcDbLine
 10
308.5921850346095
 20
484.2270932239621
 30
0.0
 11
312.5921850346095
 21
484.2270932239621
 31
0.0
  0
LINE
  5
2F8
330
1A
100
AcDbEntity
  8
SEIHIN
  6
CONTINUOUS
 62
     3
100
AcDbLine
 10
310.5921850346095
 20
484.2270932239621
 30
0.0
 11
310.5921850346095
 21
486.2270932239619
 31
0.0
  0
LINE
  5
2F9
330
1A
100
AcDbEntity
  8
SEIHIN
  6
CONTINUOUS
 62
     3
100
AcDbLine
 10
312.5921850346095
 20
484.2270932239621
 30
0.0
 11
312.5921850346095
 21
486.2270932239619
 31
0.0
  0
LINE
  5
2FA
330
1A
100
AcDbEntity
  8
SEIHIN
  6
CONTINUOUS
 62
     3
100
AcDbLine
 10
335.8006850346096
 20
486.2270932239619
 30
0.0
 11
335.8006850346096
 21
489.2270932239621
 31
0.0
  0
LINE
  5
2FB
330
1A
100
AcDbEntity
  8
SEIHIN
  6
CONTINUOUS
 62
     3
100
AcDbLine
 10
331.8005850346096
 20
486.2270932239619
 30
0.0
 11
331.8005850346096
 21
489.2270932239621
 31
0.0
  0
LINE
  5
2FC
330
1A
100
AcDbEntity
  8
SEIHIN
  6
CONTINUOUS
 62
     3
100
AcDbLine
 10
359.0090850346096
 20
484.2270932239621
 30
0.0
 11
355.0090850346094
 21
484.2270932239621
 31
0.0
  0
LINE
  5
2FD
330
1A
100
AcDbEntity
  8
SEIHIN
  6
CONTINUOUS
 62
     3
100
AcDbLine
 10
355.0090850346094
 20
484.2270932239621
 30
0.0
 11
355.0090850346094
 21
486.2270932239619
 31
0.0
  0
LINE
  5
2FE
330
1A
100
AcDbEntity
  8
SEIHIN
  6
CONTINUOUS
 62
     3
100
AcDbLine
 10
357.0090850346094
 20
484.2270932239621
 30
0.0
 11
357.0090850346094
 21
486.2270932239619
 31
0.0
  0
ARC
  5
2FF
330
1A
100
AcDbEntity
  8
SEIHIN
  6
CONTINUOUS
 62
     3
100
AcDbCircle
 10
371.0506350344853
 20
448.9770432240862
 30
0.0
 40
40.24995000015539
100
AcDbArc
 50
269.9999288252071
 51
359.9999288248535
  0
LINE
  5
300
330
1A
100
AcDbEntity
  8
SEIHIN
  6
CONTINUOUS
 62
     3
100
AcDbLine
 10
372.0505850346096
 20
419.7270932239619
 30
0.0
 11
370.0505850346096
 21
419.7270932239619
 31
0.0
  0
LINE
  5
301
330
1A
100
AcDbEntity
  8
SEIHIN
  6
CONTINUOUS
 62
     3
100
AcDbLine
 10
370.0505850346096
 20
419.7270932239619
 30
0.0
 11
369.8005850346096
 21
411.7270932239621
 31
0.0
  0
LINE
  5
302
330
1A
100
AcDbEntity
  8
SEIHIN
  6
CONTINUOUS
 62
     3
100
AcDbLine
 10
372.3005850346096
 20
411.7270932239621
 30
0.0
 11
372.0505850346096
 21
419.7270932239619
 31
0.0
  0
LINE
  5
303
330
1A
100
AcDbEntity
  8
SEIHIN
  6
CONTINUOUS
 62
     3
100
AcDbLine
 10
370.0506850346095
 20
478.2270932239619
 30
0.0
 11
369.8006850346095
 21
486.2269932239621
 31
0.0
  0
LINE
  5
304
330
1A
100
AcDbEntity
  8
SEIHIN
  6
CONTINUOUS
 62
     3
100
AcDbLine
 10
372.3006850346096
 20
486.2269932239621
 30
0.0
 11
372.0506850346095
 21
478.2270932239619
 31
0.0
  0
LINE
  5
305
330
1A
100
AcDbEntity
  8
SEIHIN
  6
CONTINUOUS
 62
     3
100
AcDbLine
 10
372.0506850346095
 20
478.2270932239619
 30
0.0
 11
370.0506850346095
 21
478.2270932239619
 31
0.0
  0
LINE
  5
306
330
1A
100
AcDbEntity
  8
CENTER_L
  6
CENTER
 62
     1
 48
5.0
100
AcDbLine
 10
596.5505850346097
 20
332.2242848841912
 30
0.0
 11
596.5502850346096
 21
135.963993223962
 31
0.0
  0
LINE
  5
307
330
1A
100
AcDbEntity
  8
SEIHIN
  6
CONTINUOUS
 62
     3
100
AcDbLine
 10
559.3003850346096
 20
318.7480932239621
 30
0.0
 11
559.4990850346097
 21
298.7183932239621
 31
0.0
  0
LINE
  5
308
330
1A
100
AcDbEntity
  8
SEIHIN
  6
CONTINUOUS
 62
     3
100
AcDbLine
 10
556.5386850346095
 20
294.7183932239621
 30
0.0
 11
556.3005850346097
 21
318.7183932239621
 31
0.0
  0
LINE
  5
309
330
1A
100
AcDbEntity
  8
SEIHIN
  6
CONTINUOUS
 62
     3
100
AcDbLine
 10
636.5624850346097
 20
294.718293223962
 30
0.0
 11
636.8006850346097
 21
318.718193223962
 31
0.0
  0
LINE
  5
30A
330
1A
100
AcDbEntity
  8
SEIHIN
  6
CONTINUOUS
 62
     3
100
AcDbLine
 10
633.8007850346096
 20
318.7479932239619
 30
0.0
 11
633.6020850346095
 21
298.7181932239621
 31
0.0
  0
TEXT
  5
30B
330
1A
100
AcDbEntity
  8
SUNPOU
  6
CONTINUOUS
 62
     4
100
AcDbText
 10
575.9848670756495
 20
57.05304896055372
 30
0.0
 40
8.0
  1
※b　ＵＴ６０たてといの差込み寸法を示す。
100
AcDbText
  0
TEXT
  5
30C
330
1A
100
AcDbEntity
  8
SUNPOU
  6
CONTINUOUS
 62
     4
100
AcDbText
 10
575.9848670756495
 20
68.81900357098515
 30
0.0
 40
8.0
  1
※a　ＵＴ７５たてといの差込み寸法を示す。
100
AcDbText
  0
LINE
  5
30D
330
1A
100
AcDbEntity
  8
SEIHIN
  6
CONTINUOUS
 62
     3
100
AcDbLine
 10
556.5386850346095
 20
294.7183932239621
 30
0.0
 11
596.5505850346097
 21
294.7183932239621
 31
0.0
  0
LINE
  5
30E
330
1A
100
AcDbEntity
  8
SEIHIN
  6
CONTINUOUS
 62
     3
100
AcDbLine
 10
556.4989850346097
 20
298.7183932239621
 30
0.0
 11
596.5505850346097
 21
298.7183932239621
 31
0.0
  0
ARC
  5
30F
330
1A
100
AcDbEntity
  8
SEIHIN
  6
CONTINUOUS
 62
     3
100
AcDbCircle
 10
596.5504601343237
 20
298.7181010769607
 30
0.0
 40
60.00000785325408
100
AcDbArc
 50
234.9919740749683
 51
269.9998327921115
  0
LINE
  5
310
330
1A
100
AcDbEntity
  8
SEIHIN
  6
CONTINUOUS
 62
     3
100
AcDbLine
 10
561.2003850346097
 20
168.7183932239621
 30
0.0
 11
567.4252850346095
 21
163.7183932239621
 31
0.0
  0
LINE
  5
311
330
1A
100
AcDbEntity
  8
SEIHIN
  6
CONTINUOUS
 62
     3
100
AcDbLine
 10
596.5505850346097
 20
168.7183932239621
 30
0.0
 11
561.2003850346097
 21
168.7183932239621
 31
0.0
  0
ARC
  5
312
330
1A
100
AcDbEntity
  8
SEIHIN
  6
CONTINUOUS
 62
     3
100
AcDbCircle
 10
596.5504619077663
 20
254.5799694323632
 30
0.0
 40
59.99997620903986
100
AcDbArc
 50
235.60639967391
 51
269.9997356055061
  0
LINE
  5
313
330
1A
100
AcDbEntity
  8
SEIHIN
  6
CONTINUOUS
 62
     3
100
AcDbLine
 10
596.5505850346097
 20
188.7183932239621
 30
0.0
 11
558.5503850346095
 21
188.7183932239621
 31
0.0
  0
LINE
  5
314
330
1A
100
AcDbEntity
  8
SEIHIN
  6
CONTINUOUS
 62
     3
100
AcDbLine
 10
558.5502850346095
 20
188.718493223962
 30
0.0
 11
557.4989850346097
 21
294.7183932239621
 31
0.0
  0
ARC
  5
315
330
1A
100
AcDbEntity
  8
SEIHIN
  6
CONTINUOUS
 62
     3
100
AcDbCircle
 10
568.3067767113739
 20
213.3211088205937
 30
0.0
 40
9.999982884744182
100
AcDbArc
 50
180.5679008076788
 51
235.6060319511974
  0
LINE
  5
316
330
1A
100
AcDbEntity
  8
SEIHIN
  6
CONTINUOUS
 62
     3
100
AcDbLine
 10
560.4253850346095
 20
188.7183932239621
 30
0.0
 11
561.1252850346096
 21
173.718393223962
 31
0.0
  0
LINE
  5
317
330
1A
100
AcDbEntity
  8
SEIHIN
  6
CONTINUOUS
 62
     3
100
AcDbLine
 10
561.1252850346096
 20
173.718393223962
 30
0.0
 11
561.2003850346097
 21
168.7183932239621
 31
0.0
  0
ARC
  5
318
330
1A
100
AcDbEntity
  8
SEIHIN
  6
CONTINUOUS
 62
     3
100
AcDbCircle
 10
567.865979098642
 20
257.76440449211
 30
0.0
 40
9.999985228993836
100
AcDbArc
 50
180.5678758729047
 51
234.9920386247339
  0
LINE
  5
319
330
1A
100
AcDbEntity
  8
SEIHIN
  6
CONTINUOUS
 62
     3
100
AcDbLine
 10
634.5503850346095
 20
188.7181932239621
 30
0.0
 11
635.6022850346097
 21
294.718293223962
 31
0.0
  0
ARC
  5
31A
330
1A
100
AcDbEntity
  8
SEIHIN
  6
CONTINUOUS
 62
     3
100
AcDbCircle
 10
624.7940811065767
 20
213.3210858636534
 30
0.0
 40
9.999996891751489
100
AcDbArc
 50
304.3933038302236
 51
359.4310855555609
  0
LINE
  5
31B
330
1A
100
AcDbEntity
  8
SEIHIN
  6
CONTINUOUS
 62
     3
100
AcDbLine
 10
631.9003850346097
 20
168.718293223962
 30
0.0
 11
625.6753850346095
 21
163.718293223962
 31
0.0
  0
LINE
  5
31C
330
1A
100
AcDbEntity
  8
SEIHIN
  6
CONTINUOUS
 62
     3
100
AcDbLine
 10
596.5500850346096
 20
168.7183932239621
 30
0.0
 11
631.9003850346097
 21
168.7181932239621
 31
0.0
  0
LINE
  5
31D
330
1A
100
AcDbEntity
  8
SEIHIN
  6
CONTINUOUS
 62
     3
100
AcDbLine
 10
596.5501850346096
 20
188.7183932239621
 30
0.0
 11
634.5504850346097
 21
188.7181932239621
 31
0.0
  0
LINE
  5
31E
330
1A
100
AcDbEntity
  8
SEIHIN
  6
CONTINUOUS
 62
     3
100
AcDbLine
 10
596.5500850346096
 20
163.7183932239621
 30
0.0
 11
625.6753850346095
 21
163.718293223962
 31
0.0
  0
LINE
  5
31F
330
1A
100
AcDbEntity
  8
SEIHIN
  6
CONTINUOUS
 62
     3
100
AcDbLine
 10
596.5500850346096
 20
143.7183932239621
 30
0.0
 11
624.9004850346095
 21
143.718293223962
 31
0.0
  0
LINE
  5
320
330
1A
100
AcDbEntity
  8
SEIHIN
  6
CONTINUOUS
 62
     3
100
AcDbLine
 10
596.5505850346097
 20
163.7183932239621
 30
0.0
 11
567.4253850346095
 21
163.7183932239621
 31
0.0
  0
LINE
  5
321
330
1A
100
AcDbEntity
  8
SEIHIN
  6
CONTINUOUS
 62
     3
100
AcDbLine
 10
596.5505850346097
 20
143.7183932239621
 30
0.0
 11
568.2002850346094
 21
143.7183932239621
 31
0.0
  0
LINE
  5
322
330
1A
100
AcDbEntity
  8
SEIHIN
  6
CONTINUOUS
 62
     3
100
AcDbLine
 10
567.4252850346095
 20
163.7183932239621
 30
0.0
 11
568.1502850346097
 21
148.718393223962
 31
0.0
  0
LINE
  5
323
330
1A
100
AcDbEntity
  8
SEIHIN
  6
CONTINUOUS
 62
     3
100
AcDbLine
 10
568.2002850346094
 20
143.7183932239621
 30
0.0
 11
568.1502850346097
 21
148.718393223962
 31
0.0
  0
LINE
  5
324
330
1A
100
AcDbEntity
  8
SEIHIN
  6
CONTINUOUS
 62
     3
100
AcDbLine
 10
625.6753850346095
 20
163.718293223962
 30
0.0
 11
624.9503850346096
 21
148.718293223962
 31
0.0
  0
LINE
  5
325
330
1A
100
AcDbEntity
  8
SEIHIN
  6
CONTINUOUS
 62
     3
100
AcDbLine
 10
624.9004850346095
 20
143.718293223962
 30
0.0
 11
624.9503850346096
 21
148.718293223962
 31
0.0
  0
ARC
  5
326
330
1A
100
AcDbEntity
  8
SEIHIN
  6
CONTINUOUS
 62
     3
100
AcDbCircle
 10
596.550350215767
 20
254.5799824479929
 30
0.0
 40
59.99998922425813
100
AcDbArc
 50
269.9998422635853
 51
304.3934274268948
  0
LINE
  5
327
330
1A
100
AcDbEntity
  8
SEIHIN
  6
CONTINUOUS
 62
     3
100
AcDbLine
 10
632.6754850346097
 20
188.718293223962
 30
0.0
 11
631.9754850346097
 21
173.718293223962
 31
0.0
  0
LINE
  5
328
330
1A
100
AcDbEntity
  8
SEIHIN
  6
CONTINUOUS
 62
     3
100
AcDbLine
 10
631.9754850346097
 20
173.718293223962
 30
0.0
 11
631.9003850346097
 21
168.718293223962
 31
0.0
  0
ARC
  5
329
330
1A
100
AcDbEntity
  8
SEIHIN
  6
CONTINUOUS
 62
     3
100
AcDbCircle
 10
625.2350914759814
 20
257.7645054513622
 30
0.0
 40
9.999985724745354
100
AcDbArc
 50
305.0079558503617
 51
359.4315456720755
  0
ARC
  5
32A
330
1A
100
AcDbEntity
  8
SEIHIN
  6
CONTINUOUS
 62
     3
100
AcDbCircle
 10
596.5505488377447
 20
298.7181133457429
 30
0.0
 40
60.00002012236066
100
AcDbArc
 50
269.9997480866465
 51
305.0078557766758
  0
LINE
  5
32B
330
1A
100
AcDbEntity
  8
SEIHIN
  6
CONTINUOUS
 62
     3
100
AcDbLine
 10
636.5624850346097
 20
294.718293223962
 30
0.0
 11
596.5505850346097
 21
294.7183932239621
 31
0.0
  0
LINE
  5
32C
330
1A
100
AcDbEntity
  8
SEIHIN
  6
CONTINUOUS
 62
     3
100
AcDbLine
 10
636.6022850346097
 20
298.7181932239621
 30
0.0
 11
596.5505850346097
 21
298.7182932239619
 31
0.0
  0
DIMENSION
  5
32D
330
1A
100
AcDbEntity
  8
SUNPOU
100
AcDbDimension
  2
*D10
 10
556.3085092948789
 20
346.8659709653576
 30
0.0
 11
596.5545971647443
 21
351.8659709653576
 31
0.0
 12
46.64371037633418
 22
-21.59748791481934
 32
0.0
 70
    32
  3
STANDARD
100
AcDbAlignedDimension
 13
636.8006850346097
 23
318.718193223962
 33
0.0
 14
556.3085092948789
 24
317.9196437638115
 34
0.0
100
AcDbRotatedDimension
1001
ACAD
1000
DSTYLE
1002
{
1070
   140
1040
6.0
1070
    74
1070
     0
1070
   172
1070
     1
1070
    73
1070
     0
1070
   272
1070
     2
1070
    77
1070
     3
1070
   173
1070
     1
1070
   147
1040
2.0
1070
    42
1040
6.0
1070
    44
1040
3.0
1070
    43
1040
14.0
1070
   271
1070
     0
1070
   178
1070
     4
1070
   177
1070
     4
1070
   176
1070
     4
1070
   141
1040
150.0
1070
     7
1000
_OPEN
1070
     6
1000
_OPEN
1070
    41
1040
7.0
1002
}
  0
LINE
  5
32E
330
1A
100
AcDbEntity
  8
SEIHIN
  6
CONTINUOUS
 62
     3
100
AcDbLine
 10
556.3005850346097
 20
318.7183932239621
 30
0.0
 11
596.5505850346097
 21
318.7183932239621
 31
0.0
  0
LINE
  5
32F
330
1A
100
AcDbEntity
  8
SEIHIN
  6
CONTINUOUS
 62
     3
100
AcDbLine
 10
636.8005850346097
 20
318.718193223962
 30
0.0
 11
596.5505850346097
 21
318.7183932239621
 31
0.0
  0
LINE
  5
330
330
1A
100
AcDbEntity
  8
ZUWAKU
  6
CONTINUOUS
 62
     7
100
AcDbLine
 10
326.5208760564586
 20
23.08558239724818
 30
0.0
 11
326.5208760564586
 21
15.88142536011838
 31
0.0
  0
LINE
  5
331
330
1A
100
AcDbEntity
  8
ZUWAKU
  6
CONTINUOUS
 62
     7
100
AcDbLine
 10
323.5166547702228
 20
23.08558239724816
 30
0.0
 11
323.5166547702228
 21
15.88142536011837
 31
0.0
  0
LINE
  5
332
330
1A
100
AcDbEntity
  8
ZUWAKU
  6
CONTINUOUS
 62
     7
100
AcDbLine
 10
321.9544605848354
 20
15.88142536011837
 30
0.0
 11
328.0830677878033
 21
15.88142536011839
 31
0.0
  0
LINE
  5
333
330
1A
100
AcDbEntity
  8
ZUWAKU
  6
CONTINUOUS
 62
     7
100
AcDbLine
 10
321.9544605848353
 20
23.08558239724816
 30
0.0
 11
328.0830677878034
 21
23.08558239724818
 31
0.0
  0
VIEWPORT
  5
22
330
17
100
AcDbEntity
 67
     1
  8
0
100
AcDbViewport
 10
313.6808219178082
 20
148.5
 30
0.0
 40
627.3616438356165
 41
297.0
 68
     2
 69
     1
1001
ACAD
1000
MVIEW
1002
{
1070
    16
1010
0.0
1020
0.0
1030
0.0
1010
0.0
1020
0.0
1030
1.0
1040
0.0
1040
297.0
1040
313.6808219178082
1040
148.5
1040
50.0
1040
0.0
1040
0.0
1070
     0
1070
   100
1070
     1
1070
     0
1070
     0
1070
     0
1070
     0
1070
     0
1040
0.0
1040
0.0
1040
0.0
1040
1.0
1040
1.0
1040
10.0
1040
10.0
1070
     0
1002
{
1002
}
1002
}
  0
VIEWPORT
  5
64
330
17
100
AcDbEntity
 67
     1
  8
VIEWPORT
100
AcDbViewport
 10
210.0
 20
148.5
 30
0.0
 40
420.0
 41
297.0
 68
     1
 69
     2
1001
ACAD
1000
MVIEW
1002
{
1070
    16
1010
0.0
1020
0.0
1030
0.0
1010
0.0
1020
0.0
1030
1.0
1040
0.0
1040
605.8799999999998
1040
420.0
1040
297.0
1040
50.0
1040
0.0
1040
0.0
1070
     0
1070
   100
1070
     1
1070
     0
1070
     0
1070
     0
1070
     0
1070
     0
1040
0.0
1040
0.0
1040
0.0
1040
10.0
1040
10.0
1040
0.0
1040
0.0
1070
     0
1002
{
1002
}
1002
}
  0
ENDSEC
  0
SECTION
  2
OBJECTS
  0
DICTIONARY
  5
C
330
0
100
AcDbDictionary
  3
ACAD_GROUP
350
D
  3
ACAD_LAYOUT
350
485
  3
ACAD_MLINESTYLE
350
E
  3
ACAD_PLOTSETTINGS
350
486
1001
ACAD
1000
TREAT_AS_HARD
1070
     0
  0
DICTIONARY
  5
4E6
330
1A
100
AcDbDictionary
  3
ACAD_LAYOUTSELFREF
350
52A
1001
ACAD
1000
TREAT_AS_HARD
1070
     1
  0
DICTIONARY
  5
4E4
330
17
100
AcDbDictionary
  3
ACAD_LAYOUTSELFREF
350
529
1001
ACAD
1000
TREAT_AS_HARD
1070
     1
  0
DICTIONARY
  5
D
102
{ACAD_REACTORS
330
C
102
}
330
C
100
AcDbDictionary
1001
ACAD
1000
TREAT_AS_HARD
1070
     0
  0
DICTIONARY
  5
485
102
{ACAD_REACTORS
330
C
102
}
330
C
100
AcDbDictionary
1001
ACAD
1000
TREAT_AS_HARD
1070
     0
  0
DICTIONARY
  5
E
102
{ACAD_REACTORS
330
C
102
}
330
C
100
AcDbDictionary
  3
STANDARD
350
13
1001
ACAD
1000
TREAT_AS_HARD
1070
     0
  0
DICTIONARY
  5
486
102
{ACAD_REACTORS
330
C
102
}
330
C
100
AcDbDictionary
1001
ACAD
1000
TREAT_AS_HARD
1070
     0
  0
XRECORD
  5
52A
102
{ACAD_REACTORS
330
4E6
102
}
330
4E6
100
AcDbXrecord
340
1A
  0
XRECORD
  5
529
102
{ACAD_REACTORS
330
4E4
102
}
330
4E4
100
AcDbXrecord
340
17
  0
MLINESTYLE
  5
13
102
{ACAD_REACTORS
330
E
102
}
330
E
100
AcDbMlineStyle
  2
STANDARD
 70
     0
  3

 62
     0
 51
90.0
 52
90.0
 71
     2
 49
0.5
 62
   256
  6
BYLAYER
 49
-0.5
 62
   256
  6
BYLAYER
  0
ENDSEC
  0
EOF
