  0
SECTION
  2
HEADER
  9
$ACADVER
  1
AC1012
  9
$DWGCODEPAGE
  3
dos932
  9
$INSBASE
 10
0.0
 20
0.0
 30
0.0
  9
$EXTMIN
 10
19.90074647074652
 20
5.798621502208327
 30
0.0
  9
$EXTMAX
 10
1611.900746470746
 20
1124.166900699545
 30
0.0
  9
$LIMMIN
 10
0.0
 20
0.0
  9
$LIMMAX
 10
1682.0
 20
1188.0
  9
$ORTHOMODE
 70
     0
  9
$REGENMODE
 70
     1
  9
$FILLMODE
 70
     1
  9
$QTEXTMODE
 70
     0
  9
$MIRRTEXT
 70
     1
  9
$DRAGMODE
 70
     2
  9
$LTSCALE
 40
5.657142857142857
  9
$OSMODE
 70
    37
  9
$ATTMODE
 70
     1
  9
$TEXTSIZE
 40
19.8
  9
$TRACEWID
 40
0.05
  9
$TEXTSTYLE
  7
STANDARD
  9
$CLAYER
  8
SUNPOU
  9
$CELTYPE
  6
BYLAYER
  9
$CECOLOR
 62
   256
  9
$CELTSCALE
 40
1.0
  9
$DELOBJ
 70
     1
  9
$DISPSILH
 70
     0
  9
$DIMSCALE
 40
1.0
  9
$DIMASZ
 40
14.0
  9
$DIMEXO
 40
12.0
  9
$DIMDLI
 40
28.0
  9
$DIMRND
 40
0.0
  9
$DIMDLE
 40
0.0
  9
$DIMEXE
 40
6.0
  9
$DIMTP
 40
0.0
  9
$DIMTM
 40
0.0
  9
$DIMTXT
 40
12.0
  9
$DIMCEN
 40
150.0
  9
$DIMTSZ
 40
0.0
  9
$DIMTOL
 70
     0
  9
$DIMLIM
 70
     0
  9
$DIMTIH
 70
     0
  9
$DIMTOH
 70
     0
  9
$DIMSE1
 70
     0
  9
$DIMSE2
 70
     0
  9
$DIMTAD
 70
     3
  9
$DIMZIN
 70
     0
  9
$DIMBLK
  1

  9
$DIMASO
 70
     1
  9
$DIMSHO
 70
     1
  9
$DIMPOST
  1

  9
$DIMAPOST
  1

  9
$DIMALT
 70
     0
  9
$DIMALTD
 70
     2
  9
$DIMALTF
 40
0.03937
  9
$DIMLFAC
 40
1.0
  9
$DIMTOFL
 70
     1
  9
$DIMTVP
 40
0.0
  9
$DIMTIX
 70
     0
  9
$DIMSOXD
 70
     0
  9
$DIMSAH
 70
     1
  9
$DIMBLK1
  1
OPEN
  9
$DIMBLK2
  1
OPEN
  9
$DIMSTYLE
  2
STANDARD
  9
$DIMCLRD
 70
   256
  9
$DIMCLRE
 70
   256
  9
$DIMCLRT
 70
   256
  9
$DIMTFAC
 40
1.0
  9
$DIMGAP
 40
4.0
  9
$DIMJUST
 70
     0
  9
$DIMSD1
 70
     0
  9
$DIMSD2
 70
     0
  9
$DIMTOLJ
 70
     1
  9
$DIMTZIN
 70
     0
  9
$DIMALTZ
 70
     0
  9
$DIMALTTZ
 70
     0
  9
$DIMFIT
 70
     3
  9
$DIMUPT
 70
     0
  9
$DIMUNIT
 70
     2
  9
$DIMDEC
 70
     0
  9
$DIMTDEC
 70
     0
  9
$DIMALTU
 70
     2
  9
$DIMALTTD
 70
     2
  9
$DIMTXSTY
  7
STANDARD
  9
$DIMAUNIT
 70
     0
  9
$LUNITS
 70
     2
  9
$LUPREC
 70
     4
  9
$SKETCHINC
 40
0.1
  9
$FILLETRAD
 40
0.5
  9
$AUNITS
 70
     0
  9
$AUPREC
 70
     0
  9
$MENU
  1
acad
  9
$ELEVATION
 40
0.0
  9
$PELEVATION
 40
0.0
  9
$THICKNESS
 40
0.0
  9
$LIMCHECK
 70
     0
  9
$BLIPMODE
 70
     0
  9
$CHAMFERA
 40
56.57142857142858
  9
$CHAMFERB
 40
56.57142857142858
  9
$CHAMFERC
 40
113.1428571428571
  9
$CHAMFERD
 40
0.0
  9
$SKPOLY
 70
     0
  9
$TDCREATE
 40
2450994.355304167
  9
$TDUPDATE
 40
2452395.854504259
  9
$TDINDWG
 40
0.0508333102
  9
$TDUSRTIMER
 40
0.0508333102
  9
$USRTIMER
 70
     1
  9
$ANGBASE
 50
0.0
  9
$ANGDIR
 70
     0
  9
$PDMODE
 70
     1
  9
$PDSIZE
 40
0.0
  9
$PLINEWID
 40
0.0
  9
$COORDS
 70
     1
  9
$SPLFRAME
 70
     0
  9
$SPLINETYPE
 70
     6
  9
$SPLINESEGS
 70
     8
  9
$ATTDIA
 70
     0
  9
$ATTREQ
 70
     1
  9
$HANDLING
 70
 10241
  9
$HANDSEED
  5
777
  9
$SURFTAB1
 70
     6
  9
$SURFTAB2
 70
     6
  9
$SURFTYPE
 70
     6
  9
$SURFU
 70
     6
  9
$SURFV
 70
     6
  9
$UCSNAME
  2

  9
$UCSORG
 10
0.0
 20
0.0
 30
0.0
  9
$UCSXDIR
 10
1.0
 20
0.0
 30
0.0
  9
$UCSYDIR
 10
0.0
 20
1.0
 30
0.0
  9
$PUCSNAME
  2

  9
$PUCSORG
 10
0.0
 20
0.0
 30
0.0
  9
$PUCSXDIR
 10
1.0
 20
0.0
 30
0.0
  9
$PUCSYDIR
 10
0.0
 20
1.0
 30
0.0
  9
$USERI1
 70
     0
  9
$USERI2
 70
     0
  9
$USERI3
 70
     0
  9
$USERI4
 70
     0
  9
$USERI5
 70
     0
  9
$USERR1
 40
0.0
  9
$USERR2
 40
0.0
  9
$USERR3
 40
0.0
  9
$USERR4
 40
0.0
  9
$USERR5
 40
0.0
  9
$WORLDVIEW
 70
     1
  9
$SHADEDGE
 70
     3
  9
$SHADEDIF
 70
    70
  9
$TILEMODE
 70
     1
  9
$MAXACTVP
 70
    16
  9
$PINSBASE
 10
0.0
 20
0.0
 30
0.0
  9
$PLIMCHECK
 70
     0
  9
$PEXTMIN
 10
0.0
 20
0.0
 30
0.0
  9
$PEXTMAX
 10
420.0
 20
297.0
 30
0.0
  9
$PLIMMIN
 10
0.0
 20
0.0
  9
$PLIMMAX
 10
420.0
 20
297.0
  9
$UNITMODE
 70
     0
  9
$VISRETAIN
 70
     0
  9
$PLINEGEN
 70
     0
  9
$PSLTSCALE
 70
     1
  9
$TREEDEPTH
 70
  3020
  9
$PICKSTYLE
 70
     1
  9
$CMLSTYLE
  2
STANDARD
  9
$CMLJUST
 70
     0
  9
$CMLSCALE
 40
20.0
  9
$SAVEIMAGES
 70
     1
  0
ENDSEC
  0
SECTION
  2
CLASSES
  0
CLASS
  1
ACDBDICTIONARYWDFLT
  2
AcDbDictionaryWithDefault
  3
AutoCAD 2000
 90
    32768
280
     0
281
     0
  0
CLASS
  1
ACDBPLACEHOLDER
  2
AcDbPlaceHolder
  3
AutoCAD 2000
 90
    32768
280
     0
281
     0
  0
CLASS
  1
LAYOUT
  2
AcDbLayout
  3
AutoCAD 2000
 90
    32768
280
     0
281
     0
  0
CLASS
  1
LONG_TRANSACTION
  2
AcDbLongTransaction
  3
AutoCAD 2000
 90
    32768
280
     0
281
     0
  0
CLASS
  1
LWPOLYLINE
  2
AcDbPolyline
  3
AutoCAD 2000
 90
    32768
280
     0
281
     1
  0
CLASS
  1
HATCH
  2
AcDbHatch
  3
AutoCAD 2000
 90
    32768
280
     0
281
     1
  0
CLASS
  1
XRECORD
  2
AcDbXrecord
  3
AutoCAD 2000
 90
    32768
280
     0
281
     0
  0
CLASS
  1
LONG_TRANSACTION
  2
AcDbLongTransaction
  3
AutoCAD 2000
 90
    32768
280
     0
281
     0
  0
CLASS
  1
LWPOLYLINE
  2
AcDbPolyline
  3
AutoCAD 2000
 90
    32768
280
     0
281
     1
  0
CLASS
  1
HATCH
  2
AcDbHatch
  3
AutoCAD 2000
 90
    32768
280
     0
281
     1
  0
CLASS
  1
XRECORD
  2
AcDbXrecord
  3
AutoCAD 2000
 90
    32768
280
     0
281
     0
  0
CLASS
  1
LONG_TRANSACTION
  2
AcDbLongTransaction
  3
AutoCAD 2000
 90
    32768
280
     0
281
     0
  0
CLASS
  1
LWPOLYLINE
  2
AcDbPolyline
  3
AutoCAD 2000
 90
    32768
280
     0
281
     1
  0
CLASS
  1
HATCH
  2
AcDbHatch
  3
AutoCAD 2000
 90
    32768
280
     0
281
     1
  0
CLASS
  1
XRECORD
  2
AcDbXrecord
  3
AutoCAD 2000
 90
    32768
280
     0
281
     0
  0
ENDSEC
  0
SECTION
  2
TABLES
  0
TABLE
  2
VPORT
  5
8
330
0
100
AcDbSymbolTable
 70
     2
  0
VPORT
  5
774
330
8
100
AcDbSymbolTableRecord
100
AcDbViewportTableRecord
  2
*ACTIVE
 70
     0
 10
0.0
 20
0.0
 11
1.0
 21
1.0
 12
1014.358775807531
 22
570.6866994993886
 13
0.0
 23
0.0
 14
10.0
 24
10.0
 15
10.0
 25
10.0
 16
0.0
 26
0.0
 36
1.0
 17
0.0
 27
0.0
 37
0.0
 40
1153.843852473178
 41
2.169459962756052
 42
50.0
 43
0.0
 44
0.0
 50
0.0
 51
0.0
 71
     0
 72
   100
 73
     1
 74
     0
 75
     0
 76
     0
 77
     0
 78
     0
  0
ENDTAB
  0
TABLE
  2
LTYPE
  5
5
330
0
100
AcDbSymbolTable
 70
     2
  0
LTYPE
  5
13
330
5
100
AcDbSymbolTableRecord
100
AcDbLinetypeTableRecord
  2
BYBLOCK
 70
     0
  3

 72
    65
 73
     0
 40
0.0
  0
LTYPE
  5
14
330
5
100
AcDbSymbolTableRecord
100
AcDbLinetypeTableRecord
  2
BYLAYER
 70
     0
  3

 72
    65
 73
     0
 40
0.0
  0
LTYPE
  5
15
330
5
100
AcDbSymbolTableRecord
100
AcDbLinetypeTableRecord
  2
CONTINUOUS
 70
     0
  3
Solid line
 72
    65
 73
     0
 40
0.0
  0
LTYPE
  5
11C
330
5
100
AcDbSymbolTableRecord
100
AcDbLinetypeTableRecord
  2
CENTER
 70
     0
  3
____ _ ____ _ ____ _ ____ _ ____ _ ____ _ ____ 
 72
    65
 73
     4
 40
2.0
 49
1.25
 74
     0
 49
-0.25
 74
     0
 49
0.25
 74
     0
 49
-0.25
 74
     0
  0
ENDTAB
  0
TABLE
  2
LAYER
  5
2
330
0
100
AcDbSymbolTable
 70
     7
  0
LAYER
  5
F
330
2
100
AcDbSymbolTableRecord
100
AcDbLayerTableRecord
  2
0
 70
     0
 62
     7
  6
CONTINUOUS
  0
LAYER
  5
23
330
2
100
AcDbSymbolTableRecord
100
AcDbLayerTableRecord
  2
VIEWPORT
 70
     0
 62
     7
  6
CONTINUOUS
  0
LAYER
  5
2D
330
2
100
AcDbSymbolTableRecord
100
AcDbLayerTableRecord
  2
ZUWAKU
 70
     0
 62
     7
  6
CONTINUOUS
  0
LAYER
  5
A6
330
2
100
AcDbSymbolTableRecord
100
AcDbLayerTableRecord
  2
DEFPOINTS
 70
     0
 62
     7
  6
CONTINUOUS
  0
LAYER
  5
1DC
330
2
100
AcDbSymbolTableRecord
100
AcDbLayerTableRecord
  2
SEIHIN
 70
     0
 62
     3
  6
CONTINUOUS
  0
LAYER
  5
1DD
330
2
100
AcDbSymbolTableRecord
100
AcDbLayerTableRecord
  2
SUNPOU
 70
     0
 62
     4
  6
CONTINUOUS
  0
LAYER
  5
1DE
330
2
100
AcDbSymbolTableRecord
100
AcDbLayerTableRecord
  2
CENTER_L
 70
     0
 62
     1
  6
CENTER
  0
ENDTAB
  0
TABLE
  2
STYLE
  5
3
330
0
100
AcDbSymbolTable
 70
     1
  0
STYLE
  5
10
330
3
100
AcDbSymbolTableRecord
100
AcDbTextStyleTableRecord
  2
STANDARD
 70
     0
 40
0.0
 41
1.0
 50
0.0
 71
     0
 42
19.8
  3
txt
  4
bigfont.shx
  0
ENDTAB
  0
TABLE
  2
VIEW
  5
6
330
0
100
AcDbSymbolTable
 70
     0
  0
ENDTAB
  0
TABLE
  2
UCS
  5
7
330
0
100
AcDbSymbolTable
 70
     0
  0
ENDTAB
  0
TABLE
  2
APPID
  5
9
330
0
100
AcDbSymbolTable
 70
     1
  0
APPID
  5
11
330
9
100
AcDbSymbolTableRecord
100
AcDbRegAppTableRecord
  2
ACAD
 70
     0
  0
ENDTAB
  0
TABLE
  2
DIMSTYLE
  5
A
330
0
100
AcDbSymbolTable
 70
     1
  0
DIMSTYLE
105
1D
102
{ACAD_REACTORS
330
553
330
562
330
571
330
57E
330
58B
330
598
330
5A5
330
5B2
330
605
330
612
330
62C
330
66C
330
679
330
686
330
695
330
6CB
330
6E1
330
6FD
102
}
330
A
100
AcDbSymbolTableRecord
100
AcDbDimStyleTableRecord
  2
STANDARD
 70
     0
  3

  4

  5

  6

  7

 40
1.0
 41
0.18
 42
0.0625
 43
0.38
 44
0.18
 45
0.0
 46
0.0
 47
0.0
 48
0.0
140
0.18
141
0.09
142
0.0
143
25.4
144
1.0
145
0.0
146
1.0
147
0.09
 71
     0
 72
     0
 73
     1
 74
     1
 75
     0
 76
     0
 77
     0
 78
     0
170
     0
171
     2
172
     0
173
     0
174
     0
175
     0
176
     0
177
     0
178
     0
270
     2
271
     4
272
     4
273
     2
274
     2
340
10
275
     0
280
     0
281
     0
282
     0
283
     1
284
     0
285
     0
286
     0
287
     3
288
     0
  0
ENDTAB
  0
TABLE
  2
BLOCK_RECORD
  5
1
330
0
100
AcDbSymbolTable
 70
    19
  0
BLOCK_RECORD
  5
19
102
{ACAD_XDICTIONARY
360
732
102
}
330
1
100
AcDbSymbolTableRecord
100
AcDbBlockTableRecord
  2
*MODEL_SPACE
  0
BLOCK_RECORD
  5
16
102
{ACAD_XDICTIONARY
360
730
102
}
330
1
100
AcDbSymbolTableRecord
100
AcDbBlockTableRecord
  2
*PAPER_SPACE
  0
BLOCK_RECORD
  5
27
330
1
100
AcDbSymbolTableRecord
100
AcDbBlockTableRecord
  2
_OPEN
  0
BLOCK_RECORD
  5
545
330
1
100
AcDbSymbolTableRecord
100
AcDbBlockTableRecord
  2
*D1
  0
BLOCK_RECORD
  5
554
330
1
100
AcDbSymbolTableRecord
100
AcDbBlockTableRecord
  2
*D2
  0
BLOCK_RECORD
  5
563
330
1
100
AcDbSymbolTableRecord
100
AcDbBlockTableRecord
  2
*D3
  0
BLOCK_RECORD
  5
572
330
1
100
AcDbSymbolTableRecord
100
AcDbBlockTableRecord
  2
*D4
  0
BLOCK_RECORD
  5
57F
330
1
100
AcDbSymbolTableRecord
100
AcDbBlockTableRecord
  2
*D5
  0
BLOCK_RECORD
  5
58C
330
1
100
AcDbSymbolTableRecord
100
AcDbBlockTableRecord
  2
*D6
  0
BLOCK_RECORD
  5
599
330
1
100
AcDbSymbolTableRecord
100
AcDbBlockTableRecord
  2
*D7
  0
BLOCK_RECORD
  5
5A6
330
1
100
AcDbSymbolTableRecord
100
AcDbBlockTableRecord
  2
*D8
  0
BLOCK_RECORD
  5
5F9
330
1
100
AcDbSymbolTableRecord
100
AcDbBlockTableRecord
  2
*D9
  0
BLOCK_RECORD
  5
606
330
1
100
AcDbSymbolTableRecord
100
AcDbBlockTableRecord
  2
*D10
  0
BLOCK_RECORD
  5
620
330
1
100
AcDbSymbolTableRecord
100
AcDbBlockTableRecord
  2
*D11
  0
BLOCK_RECORD
  5
660
330
1
100
AcDbSymbolTableRecord
100
AcDbBlockTableRecord
  2
*D12
  0
BLOCK_RECORD
  5
66D
330
1
100
AcDbSymbolTableRecord
100
AcDbBlockTableRecord
  2
*D13
  0
BLOCK_RECORD
  5
67A
330
1
100
AcDbSymbolTableRecord
100
AcDbBlockTableRecord
  2
*D14
  0
BLOCK_RECORD
  5
687
330
1
100
AcDbSymbolTableRecord
100
AcDbBlockTableRecord
  2
*D15
  0
BLOCK_RECORD
  5
6BE
330
1
100
AcDbSymbolTableRecord
100
AcDbBlockTableRecord
  2
*D16
  0
BLOCK_RECORD
  5
6D5
330
1
100
AcDbSymbolTableRecord
100
AcDbBlockTableRecord
  2
*D17
  0
BLOCK_RECORD
  5
6F1
330
1
100
AcDbSymbolTableRecord
100
AcDbBlockTableRecord
  2
*D18
  0
ENDTAB
  0
ENDSEC
  0
SECTION
  2
BLOCKS
  0
BLOCK
  5
1A
330
19
100
AcDbEntity
  8
0
100
AcDbBlockBegin
  2
*MODEL_SPACE
 70
     0
 10
0.0
 20
0.0
 30
0.0
  3
*MODEL_SPACE
  1

  0
ENDBLK
  5
1B
330
19
100
AcDbEntity
  8
0
100
AcDbBlockEnd
  0
BLOCK
  5
17
330
16
100
AcDbEntity
 67
     1
  8
0
100
AcDbBlockBegin
  2
*PAPER_SPACE
 70
     0
 10
0.0
 20
0.0
 30
0.0
  3
*PAPER_SPACE
  1

  0
ENDBLK
  5
18
330
16
100
AcDbEntity
 67
     1
  8
0
100
AcDbBlockEnd
  0
BLOCK
  5
28
330
27
100
AcDbEntity
  8
0
100
AcDbBlockBegin
  2
_OPEN
 70
     0
 10
0.0
 20
0.0
 30
0.0
  3
_OPEN
  1

  0
LINE
  5
29
330
27
100
AcDbEntity
  8
0
  6
BYBLOCK
 62
     0
100
AcDbLine
 10
-1.0
 20
0.1666666666666666
 30
0.0
 11
0.0
 21
0.0
 31
0.0
  0
LINE
  5
2A
330
27
100
AcDbEntity
  8
0
  6
BYBLOCK
 62
     0
100
AcDbLine
 10
0.0
 20
0.0
 30
0.0
 11
-1.0
 21
-0.1666666666666666
 31
0.0
  0
LINE
  5
2B
330
27
100
AcDbEntity
  8
0
  6
BYBLOCK
 62
     0
100
AcDbLine
 10
0.0
 20
0.0
 30
0.0
 11
-1.0
 21
0.0
 31
0.0
  0
ENDBLK
  5
2C
330
27
100
AcDbEntity
  8
0
100
AcDbBlockEnd
  0
BLOCK
  5
546
330
545
100
AcDbEntity
  8
0
100
AcDbBlockBegin
  2
*D1
 70
     1
 10
0.0
 20
0.0
 30
0.0
  3
*D1
  1

  0
LINE
  5
547
330
545
100
AcDbEntity
  8
0
  6
BYBLOCK
 62
     4
100
AcDbLine
 10
793.6092604958184
 20
543.0328067609707
 30
0.0
 11
829.324990824014
 21
543.0328067609707
 31
0.0
  0
LINE
  5
548
330
545
100
AcDbEntity
  8
0
  6
BYBLOCK
 62
     4
100
AcDbLine
 10
771.8771962816219
 20
503.0328067609707
 30
0.0
 11
829.324990824014
 21
503.0328067609707
 31
0.0
  0
LINE
  5
549
330
545
100
AcDbEntity
  8
0
  6
BYBLOCK
 62
     4
100
AcDbLine
 10
823.3249908240141
 20
557.0328067609707
 30
0.0
 11
823.3249908240141
 21
571.0328067609707
 31
0.0
  0
LINE
  5
54A
330
545
100
AcDbEntity
  8
0
  6
BYBLOCK
 62
     4
100
AcDbLine
 10
823.3249908240141
 20
489.0328067609707
 30
0.0
 11
823.3249908240141
 21
475.0328067609707
 31
0.0
  0
LINE
  5
54B
330
545
100
AcDbEntity
  8
0
  6
BYBLOCK
 62
     4
100
AcDbLine
 10
823.3249908240141
 20
543.0328067609707
 30
0.0
 11
823.3249908240141
 21
503.0328067609707
 31
0.0
  0
INSERT
  5
54C
330
545
100
AcDbEntity
  8
0
  6
BYBLOCK
 62
     4
100
AcDbBlockReference
  2
_OPEN
 10
823.3249908240141
 20
543.0328067609707
 30
0.0
 41
14.0
 42
14.0
 43
14.0
 50
270.0
  0
INSERT
  5
54D
330
545
100
AcDbEntity
  8
0
  6
BYBLOCK
 62
     4
100
AcDbBlockReference
  2
_OPEN
 10
823.3249908240141
 20
503.0328067609707
 30
0.0
 41
14.0
 42
14.0
 43
14.0
 50
90.0
  0
MTEXT
  5
54E
330
545
100
AcDbEntity
  8
0
  6
BYBLOCK
 62
     4
100
AcDbMText
 10
813.3249908240141
 20
523.0328067609707
 30
0.0
 40
12.0
 41
0.0
 71
     5
 72
     1
  1
\A1;40
 11
0.0
 21
1.0
 31
0.0
1001
ACAD
1000
MTEXTBEGIN
1070
    73
1070
     1
1070
    44
1040
1.0
1070
    74
1070
     0
1000
MTEXTEND
1000
MTEXTBEGIN
1070
    73
1070
     1
1070
    44
1040
1.0
1070
    74
1070
     0
1000
MTEXTEND
1000
MTEXTBEGIN
1070
    73
1070
     1
1070
    44
1040
1.0
1070
    74
1070
     0
1000
MTEXTEND
  0
POINT
  5
54F
330
545
100
AcDbEntity
  8
DEFPOINTS
  6
BYBLOCK
 62
     0
100
AcDbPoint
 10
781.6092604958184
 20
543.0328067609707
 30
0.0
  0
POINT
  5
550
330
545
100
AcDbEntity
  8
DEFPOINTS
  6
BYBLOCK
 62
     0
100
AcDbPoint
 10
759.8771962816219
 20
503.0328067609707
 30
0.0
  0
POINT
  5
551
330
545
100
AcDbEntity
  8
DEFPOINTS
  6
BYBLOCK
 62
     0
100
AcDbPoint
 10
823.3249908240141
 20
503.0328067609707
 30
0.0
  0
ENDBLK
  5
552
330
545
100
AcDbEntity
  8
0
100
AcDbBlockEnd
  0
BLOCK
  5
555
330
554
100
AcDbEntity
  8
0
100
AcDbBlockBegin
  2
*D2
 70
     1
 10
0.0
 20
0.0
 30
0.0
  3
*D2
  1

  0
LINE
  5
556
330
554
100
AcDbEntity
  8
0
  6
BYBLOCK
 62
     4
100
AcDbLine
 10
711.7307204957589
 20
348.0328067609706
 30
0.0
 11
829.324990824014
 21
348.0328067609706
 31
0.0
  0
LINE
  5
557
330
554
100
AcDbEntity
  8
0
  6
BYBLOCK
 62
     4
100
AcDbLine
 10
704.7337204957589
 20
323.0328067609706
 30
0.0
 11
829.324990824014
 21
323.0328067609706
 31
0.0
  0
LINE
  5
558
330
554
100
AcDbEntity
  8
0
  6
BYBLOCK
 62
     4
100
AcDbLine
 10
823.3249908240141
 20
362.0328067609706
 30
0.0
 11
823.3249908240141
 21
376.0328067609706
 31
0.0
  0
LINE
  5
559
330
554
100
AcDbEntity
  8
0
  6
BYBLOCK
 62
     4
100
AcDbLine
 10
823.3249908240141
 20
309.0328067609706
 30
0.0
 11
823.3249908240141
 21
267.0328067609706
 31
0.0
  0
LINE
  5
55A
330
554
100
AcDbEntity
  8
0
  6
BYBLOCK
 62
     4
100
AcDbLine
 10
823.3249908240141
 20
348.0328067609706
 30
0.0
 11
823.3249908240141
 21
323.0328067609706
 31
0.0
  0
INSERT
  5
55B
330
554
100
AcDbEntity
  8
0
  6
BYBLOCK
 62
     4
100
AcDbBlockReference
  2
_OPEN
 10
823.3249908240141
 20
348.0328067609706
 30
0.0
 41
14.0
 42
14.0
 43
14.0
 50
270.0
  0
INSERT
  5
55C
330
554
100
AcDbEntity
  8
0
  6
BYBLOCK
 62
     4
100
AcDbBlockReference
  2
_OPEN
 10
823.3249908240141
 20
323.0328067609706
 30
0.0
 41
14.0
 42
14.0
 43
14.0
 50
90.0
  0
MTEXT
  5
55D
330
554
100
AcDbEntity
  8
0
  6
BYBLOCK
 62
     4
100
AcDbMText
 10
813.3249908240141
 20
281.0328067609706
 30
0.0
 40
12.0
 41
0.0
 71
     5
 72
     1
  1
\A1;25
 11
0.0
 21
1.0
 31
0.0
1001
ACAD
1000
MTEXTBEGIN
1070
    73
1070
     1
1070
    44
1040
1.0
1070
    74
1070
     0
1000
MTEXTEND
1000
MTEXTBEGIN
1070
    73
1070
     1
1070
    44
1040
1.0
1070
    74
1070
     0
1000
MTEXTEND
1000
MTEXTBEGIN
1070
    73
1070
     1
1070
    44
1040
1.0
1070
    74
1070
     0
1000
MTEXTEND
  0
POINT
  5
55E
330
554
100
AcDbEntity
  8
DEFPOINTS
  6
BYBLOCK
 62
     0
100
AcDbPoint
 10
699.7307204957589
 20
348.0328067609706
 30
0.0
  0
POINT
  5
55F
330
554
100
AcDbEntity
  8
DEFPOINTS
  6
BYBLOCK
 62
     0
100
AcDbPoint
 10
692.7337204957589
 20
323.0328067609706
 30
0.0
  0
POINT
  5
560
330
554
100
AcDbEntity
  8
DEFPOINTS
  6
BYBLOCK
 62
     0
100
AcDbPoint
 10
823.3249908240141
 20
323.0328067609706
 30
0.0
  0
ENDBLK
  5
561
330
554
100
AcDbEntity
  8
0
100
AcDbBlockEnd
  0
BLOCK
  5
564
330
563
100
AcDbEntity
  8
0
100
AcDbBlockBegin
  2
*D3
 70
     1
 10
0.0
 20
0.0
 30
0.0
  3
*D3
  1

  0
LINE
  5
565
330
563
100
AcDbEntity
  8
0
  6
BYBLOCK
 62
     4
100
AcDbLine
 10
704.7337204957589
 20
323.0328067609706
 30
0.0
 11
782.2736951123106
 21
323.0328067609706
 31
0.0
  0
LINE
  5
566
330
563
100
AcDbEntity
  8
0
  6
BYBLOCK
 62
     4
100
AcDbLine
 10
703.0337204957589
 20
303.0328067609706
 30
0.0
 11
782.2736951123106
 21
303.0328067609706
 31
0.0
  0
LINE
  5
567
330
563
100
AcDbEntity
  8
0
  6
BYBLOCK
 62
     4
100
AcDbLine
 10
776.2736951123106
 20
337.0328067609706
 30
0.0
 11
776.2736951123106
 21
351.0328067609706
 31
0.0
  0
LINE
  5
568
330
563
100
AcDbEntity
  8
0
  6
BYBLOCK
 62
     4
100
AcDbLine
 10
776.2736951123106
 20
289.0328067609706
 30
0.0
 11
776.2736951123106
 21
249.0328067609706
 31
0.0
  0
LINE
  5
569
330
563
100
AcDbEntity
  8
0
  6
BYBLOCK
 62
     4
100
AcDbLine
 10
776.2736951123106
 20
323.0328067609706
 30
0.0
 11
776.2736951123106
 21
303.0328067609706
 31
0.0
  0
INSERT
  5
56A
330
563
100
AcDbEntity
  8
0
  6
BYBLOCK
 62
     4
100
AcDbBlockReference
  2
_OPEN
 10
776.2736951123106
 20
323.0328067609706
 30
0.0
 41
14.0
 42
14.0
 43
14.0
 50
270.0
  0
INSERT
  5
56B
330
563
100
AcDbEntity
  8
0
  6
BYBLOCK
 62
     4
100
AcDbBlockReference
  2
_OPEN
 10
776.2736951123106
 20
303.0328067609706
 30
0.0
 41
14.0
 42
14.0
 43
14.0
 50
90.0
  0
MTEXT
  5
56C
330
563
100
AcDbEntity
  8
0
  6
BYBLOCK
 62
     4
100
AcDbMText
 10
766.2736951123106
 20
262.0328067609706
 30
0.0
 40
12.0
 41
0.0
 71
     5
 72
     1
  1
\A1;20
 11
0.0
 21
1.0
 31
0.0
1001
ACAD
1000
MTEXTBEGIN
1070
    73
1070
     1
1070
    44
1040
1.0
1070
    74
1070
     0
1000
MTEXTEND
1000
MTEXTBEGIN
1070
    73
1070
     1
1070
    44
1040
1.0
1070
    74
1070
     0
1000
MTEXTEND
1000
MTEXTBEGIN
1070
    73
1070
     1
1070
    44
1040
1.0
1070
    74
1070
     0
1000
MTEXTEND
  0
POINT
  5
56D
330
563
100
AcDbEntity
  8
DEFPOINTS
  6
BYBLOCK
 62
     0
100
AcDbPoint
 10
692.7337204957589
 20
323.0328067609706
 30
0.0
  0
POINT
  5
56E
330
563
100
AcDbEntity
  8
DEFPOINTS
  6
BYBLOCK
 62
     0
100
AcDbPoint
 10
691.0337204957589
 20
303.0328067609706
 30
0.0
  0
POINT
  5
56F
330
563
100
AcDbEntity
  8
DEFPOINTS
  6
BYBLOCK
 62
     0
100
AcDbPoint
 10
776.2736951123106
 20
303.0328067609706
 30
0.0
  0
ENDBLK
  5
570
330
563
100
AcDbEntity
  8
0
100
AcDbBlockEnd
  0
BLOCK
  5
573
330
572
100
AcDbEntity
  8
0
100
AcDbBlockBegin
  2
*D4
 70
     1
 10
0.0
 20
0.0
 30
0.0
  3
*D4
  1

  0
LINE
  5
574
330
572
100
AcDbEntity
  8
0
  6
BYBLOCK
 62
     4
100
AcDbLine
 10
793.6092604958184
 20
543.0328067609707
 30
0.0
 11
866.6217549862066
 21
543.0328067609707
 31
0.0
  0
LINE
  5
575
330
572
100
AcDbEntity
  8
0
  6
BYBLOCK
 62
     4
100
AcDbLine
 10
711.7307204957589
 20
348.0328067609706
 30
0.0
 11
866.6217549862066
 21
348.0328067609706
 31
0.0
  0
LINE
  5
576
330
572
100
AcDbEntity
  8
0
  6
BYBLOCK
 62
     4
100
AcDbLine
 10
860.6217549862067
 20
529.0328067609707
 30
0.0
 11
860.6217549862067
 21
362.0328067609706
 31
0.0
  0
INSERT
  5
577
330
572
100
AcDbEntity
  8
0
  6
BYBLOCK
 62
     4
100
AcDbBlockReference
  2
_OPEN
 10
860.6217549862067
 20
543.0328067609707
 30
0.0
 41
14.0
 42
14.0
 43
14.0
 50
90.0
  0
INSERT
  5
578
330
572
100
AcDbEntity
  8
0
  6
BYBLOCK
 62
     4
100
AcDbBlockReference
  2
_OPEN
 10
860.6217549862067
 20
348.0328067609706
 30
0.0
 41
14.0
 42
14.0
 43
14.0
 50
270.0
  0
MTEXT
  5
579
330
572
100
AcDbEntity
  8
0
  6
BYBLOCK
 62
     4
100
AcDbMText
 10
850.6217549862068
 20
445.5328067609706
 30
0.0
 40
12.0
 41
0.0
 71
     5
 72
     1
  1
\A1;195
 11
0.0
 21
1.0
 31
0.0
1001
ACAD
1000
MTEXTBEGIN
1070
    73
1070
     1
1070
    44
1040
1.0
1070
    74
1070
     0
1000
MTEXTEND
1000
MTEXTBEGIN
1070
    73
1070
     1
1070
    44
1040
1.0
1070
    74
1070
     0
1000
MTEXTEND
1000
MTEXTBEGIN
1070
    73
1070
     1
1070
    44
1040
1.0
1070
    74
1070
     0
1000
MTEXTEND
  0
POINT
  5
57A
330
572
100
AcDbEntity
  8
DEFPOINTS
  6
BYBLOCK
 62
     0
100
AcDbPoint
 10
781.6092604958184
 20
543.0328067609707
 30
0.0
  0
POINT
  5
57B
330
572
100
AcDbEntity
  8
DEFPOINTS
  6
BYBLOCK
 62
     0
100
AcDbPoint
 10
699.7307204957589
 20
348.0328067609706
 30
0.0
  0
POINT
  5
57C
330
572
100
AcDbEntity
  8
DEFPOINTS
  6
BYBLOCK
 62
     0
100
AcDbPoint
 10
860.6217549862067
 20
348.0328067609706
 30
0.0
  0
ENDBLK
  5
57D
330
572
100
AcDbEntity
  8
0
100
AcDbBlockEnd
  0
BLOCK
  5
580
330
57F
100
AcDbEntity
  8
0
100
AcDbBlockBegin
  2
*D5
 70
     1
 10
0.0
 20
0.0
 30
0.0
  3
*D5
  1

  0
LINE
  5
581
330
57F
100
AcDbEntity
  8
0
  6
BYBLOCK
 62
     4
100
AcDbLine
 10
793.6092604958184
 20
543.0328067609707
 30
0.0
 11
906.213701650754
 21
543.0328067609707
 31
0.0
  0
LINE
  5
582
330
57F
100
AcDbEntity
  8
0
  6
BYBLOCK
 62
     4
100
AcDbLine
 10
703.0337204957589
 20
303.0328067609706
 30
0.0
 11
906.213701650754
 21
303.0328067609706
 31
0.0
  0
LINE
  5
583
330
57F
100
AcDbEntity
  8
0
  6
BYBLOCK
 62
     4
100
AcDbLine
 10
900.2137016507541
 20
529.0328067609707
 30
0.0
 11
900.2137016507541
 21
317.0328067609706
 31
0.0
  0
INSERT
  5
584
330
57F
100
AcDbEntity
  8
0
  6
BYBLOCK
 62
     4
100
AcDbBlockReference
  2
_OPEN
 10
900.2137016507541
 20
543.0328067609707
 30
0.0
 41
14.0
 42
14.0
 43
14.0
 50
90.0
  0
INSERT
  5
585
330
57F
100
AcDbEntity
  8
0
  6
BYBLOCK
 62
     4
100
AcDbBlockReference
  2
_OPEN
 10
900.2137016507541
 20
303.0328067609706
 30
0.0
 41
14.0
 42
14.0
 43
14.0
 50
270.0
  0
MTEXT
  5
586
330
57F
100
AcDbEntity
  8
0
  6
BYBLOCK
 62
     4
100
AcDbMText
 10
890.2137016507539
 20
423.0328067609707
 30
0.0
 40
12.0
 41
0.0
 71
     5
 72
     1
  1
\A1;240
 11
0.0
 21
1.0
 31
0.0
1001
ACAD
1000
MTEXTBEGIN
1070
    73
1070
     1
1070
    44
1040
1.0
1070
    74
1070
     0
1000
MTEXTEND
1000
MTEXTBEGIN
1070
    73
1070
     1
1070
    44
1040
1.0
1070
    74
1070
     0
1000
MTEXTEND
1000
MTEXTBEGIN
1070
    73
1070
     1
1070
    44
1040
1.0
1070
    74
1070
     0
1000
MTEXTEND
  0
POINT
  5
587
330
57F
100
AcDbEntity
  8
DEFPOINTS
  6
BYBLOCK
 62
     0
100
AcDbPoint
 10
781.6092604958184
 20
543.0328067609707
 30
0.0
  0
POINT
  5
588
330
57F
100
AcDbEntity
  8
DEFPOINTS
  6
BYBLOCK
 62
     0
100
AcDbPoint
 10
691.0337204957589
 20
303.0328067609706
 30
0.0
  0
POINT
  5
589
330
57F
100
AcDbEntity
  8
DEFPOINTS
  6
BYBLOCK
 62
     0
100
AcDbPoint
 10
900.2137016507541
 20
303.0328067609706
 30
0.0
  0
ENDBLK
  5
58A
330
57F
100
AcDbEntity
  8
0
100
AcDbBlockEnd
  0
BLOCK
  5
5CB
330
58C
100
AcDbEntity
  8
0
100
AcDbBlockBegin
  2
*D6
 70
     1
 10
0.0
 20
0.0
 30
0.0
  3
*D6
  1

  0
LINE
  5
5CC
330
58C
100
AcDbEntity
  8
0
  6
BYBLOCK
 62
     4
100
AcDbLine
 10
692.0687204957589
 20
292.0322067609706
 30
0.0
 11
692.0687204957589
 21
249.2440988888288
 31
0.0
  0
LINE
  5
5CD
330
58C
100
AcDbEntity
  8
0
  6
BYBLOCK
 62
     4
100
AcDbLine
 10
635.148820495759
 20
292.0322067609706
 30
0.0
 11
635.148820495759
 21
249.2440988888288
 31
0.0
  0
LINE
  5
5CE
330
58C
100
AcDbEntity
  8
0
  6
BYBLOCK
 62
     4
100
AcDbLine
 10
706.0687204957589
 20
255.2440988888288
 30
0.0
 11
720.0687204957589
 21
255.2440988888288
 31
0.0
  0
LINE
  5
5CF
330
58C
100
AcDbEntity
  8
0
  6
BYBLOCK
 62
     4
100
AcDbLine
 10
621.1488204957589
 20
255.2440988888288
 30
0.0
 11
607.148820495759
 21
255.2440988888288
 31
0.0
  0
LINE
  5
5D0
330
58C
100
AcDbEntity
  8
0
  6
BYBLOCK
 62
     4
100
AcDbLine
 10
692.0687204957589
 20
255.2440988888288
 30
0.0
 11
635.148820495759
 21
255.2440988888288
 31
0.0
  0
INSERT
  5
5D1
330
58C
100
AcDbEntity
  8
0
  6
BYBLOCK
 62
     4
100
AcDbBlockReference
  2
_OPEN
 10
692.0687204957589
 20
255.2440988888288
 30
0.0
 41
14.0
 42
14.0
 43
14.0
 50
180.0
  0
INSERT
  5
5D2
330
58C
100
AcDbEntity
  8
0
  6
BYBLOCK
 62
     4
100
AcDbBlockReference
  2
_OPEN
 10
635.148820495759
 20
255.2440988888288
 30
0.0
 41
14.0
 42
14.0
 43
14.0
  0
MTEXT
  5
5D3
330
58C
100
AcDbEntity
  8
0
  6
BYBLOCK
 62
     4
100
AcDbMText
 10
663.6087704957589
 20
265.2440988888288
 30
0.0
 40
12.0
 41
0.0
 71
     5
 72
     1
  1
\A1;φ57
1001
ACAD
1000
MTEXTBEGIN
1070
    73
1070
     1
1070
    44
1040
1.0
1070
    74
1070
     0
1000
MTEXTEND
1000
MTEXTBEGIN
1070
    73
1070
     1
1070
    44
1040
1.0
1070
    74
1070
     0
1000
MTEXTEND
1000
MTEXTBEGIN
1070
    73
1070
     1
1070
    44
1040
1.0
1070
    74
1070
     0
1000
MTEXTEND
  0
POINT
  5
5D4
330
58C
100
AcDbEntity
  8
DEFPOINTS
  6
BYBLOCK
 62
     0
100
AcDbPoint
 10
692.0687204957589
 20
304.0322067609706
 30
0.0
  0
POINT
  5
5D5
330
58C
100
AcDbEntity
  8
DEFPOINTS
  6
BYBLOCK
 62
     0
100
AcDbPoint
 10
635.148820495759
 20
304.0322067609706
 30
0.0
  0
POINT
  5
5D6
330
58C
100
AcDbEntity
  8
DEFPOINTS
  6
BYBLOCK
 62
     0
100
AcDbPoint
 10
635.148820495759
 20
255.2440988888288
 30
0.0
  0
ENDBLK
  5
5D7
330
58C
100
AcDbEntity
  8
0
100
AcDbBlockEnd
  0
BLOCK
  5
5EE
330
599
100
AcDbEntity
  8
0
100
AcDbBlockBegin
  2
*D7
 70
     1
 10
0.0
 20
0.0
 30
0.0
  3
*D7
  1

  0
LINE
  5
5EF
330
599
100
AcDbEntity
  8
0
  6
BYBLOCK
 62
     4
100
AcDbLine
 10
698.9763204957589
 20
316.4883067609706
 30
0.0
 11
698.9763204957589
 21
209.7940819425648
 31
0.0
  0
LINE
  5
5F0
330
599
100
AcDbEntity
  8
0
  6
BYBLOCK
 62
     4
100
AcDbLine
 10
628.241120495759
 20
316.4883067609706
 30
0.0
 11
628.241120495759
 21
209.7940819425648
 31
0.0
  0
LINE
  5
5F1
330
599
100
AcDbEntity
  8
0
  6
BYBLOCK
 62
     4
100
AcDbLine
 10
684.9763204957589
 20
215.7940819425648
 30
0.0
 11
642.2411204957589
 21
215.7940819425648
 31
0.0
  0
INSERT
  5
5F2
330
599
100
AcDbEntity
  8
0
  6
BYBLOCK
 62
     4
100
AcDbBlockReference
  2
_OPEN
 10
698.9763204957589
 20
215.7940819425648
 30
0.0
 41
14.0
 42
14.0
 43
14.0
  0
INSERT
  5
5F3
330
599
100
AcDbEntity
  8
0
  6
BYBLOCK
 62
     4
100
AcDbBlockReference
  2
_OPEN
 10
628.241120495759
 20
215.7940819425648
 30
0.0
 41
14.0
 42
14.0
 43
14.0
 50
180.0
  0
MTEXT
  5
5F4
330
599
100
AcDbEntity
  8
0
  6
BYBLOCK
 62
     4
100
AcDbMText
 10
663.6087204957589
 20
225.7940819425648
 30
0.0
 40
12.0
 41
0.0
 71
     5
 72
     1
  1
\A1;φ71
1001
ACAD
1000
MTEXTBEGIN
1070
    73
1070
     1
1070
    44
1040
1.0
1070
    74
1070
     0
1000
MTEXTEND
1000
MTEXTBEGIN
1070
    73
1070
     1
1070
    44
1040
1.0
1070
    74
1070
     0
1000
MTEXTEND
1000
MTEXTBEGIN
1070
    73
1070
     1
1070
    44
1040
1.0
1070
    74
1070
     0
1000
MTEXTEND
  0
POINT
  5
5F5
330
599
100
AcDbEntity
  8
DEFPOINTS
  6
BYBLOCK
 62
     0
100
AcDbPoint
 10
698.9763204957589
 20
328.4883067609706
 30
0.0
  0
POINT
  5
5F6
330
599
100
AcDbEntity
  8
DEFPOINTS
  6
BYBLOCK
 62
     0
100
AcDbPoint
 10
628.241120495759
 20
328.4883067609706
 30
0.0
  0
POINT
  5
5F7
330
599
100
AcDbEntity
  8
DEFPOINTS
  6
BYBLOCK
 62
     0
100
AcDbPoint
 10
628.241120495759
 20
215.7940819425648
 30
0.0
  0
ENDBLK
  5
5F8
330
599
100
AcDbEntity
  8
0
100
AcDbBlockEnd
  0
BLOCK
  5
5A7
330
5A6
100
AcDbEntity
  8
0
100
AcDbBlockBegin
  2
*D8
 70
     1
 10
0.0
 20
0.0
 30
0.0
  3
*D8
  1

  0
LINE
  5
5A8
330
5A6
100
AcDbEntity
  8
0
  6
BYBLOCK
 62
     4
100
AcDbLine
 10
733.6086995033402
 20
346.0327949826609
 30
0.0
 11
733.6086995033402
 21
168.1010855366853
 31
0.0
  0
LINE
  5
5A9
330
5A6
100
AcDbEntity
  8
0
  6
BYBLOCK
 62
     4
100
AcDbLine
 10
593.6088445094756
 20
346.0327729732347
 30
0.0
 11
593.6088445094756
 21
168.1010855366853
 31
0.0
  0
LINE
  5
5AA
330
5A6
100
AcDbEntity
  8
0
  6
BYBLOCK
 62
     4
100
AcDbLine
 10
719.6086995033401
 20
174.1010855366853
 30
0.0
 11
607.6088445094756
 21
174.1010855366853
 31
0.0
  0
INSERT
  5
5AB
330
5A6
100
AcDbEntity
  8
0
  6
BYBLOCK
 62
     4
100
AcDbBlockReference
  2
_OPEN
 10
733.6086995033402
 20
174.1010855366853
 30
0.0
 41
14.0
 42
14.0
 43
14.0
  0
INSERT
  5
5AC
330
5A6
100
AcDbEntity
  8
0
  6
BYBLOCK
 62
     4
100
AcDbBlockReference
  2
_OPEN
 10
593.6088445094756
 20
174.1010855366853
 30
0.0
 41
14.0
 42
14.0
 43
14.0
 50
180.0
  0
MTEXT
  5
5AD
330
5A6
100
AcDbEntity
  8
0
  6
BYBLOCK
 62
     4
100
AcDbMText
 10
663.6087720064079
 20
184.1010855366853
 30
0.0
 40
12.0
 41
0.0
 71
     5
 72
     1
  1
\A1;140
1001
ACAD
1000
MTEXTBEGIN
1070
    73
1070
     1
1070
    44
1040
1.0
1070
    74
1070
     0
1000
MTEXTEND
1000
MTEXTBEGIN
1070
    73
1070
     1
1070
    44
1040
1.0
1070
    74
1070
     0
1000
MTEXTEND
1000
MTEXTBEGIN
1070
    73
1070
     1
1070
    44
1040
1.0
1070
    74
1070
     0
1000
MTEXTEND
  0
POINT
  5
5AE
330
5A6
100
AcDbEntity
  8
DEFPOINTS
  6
BYBLOCK
 62
     0
100
AcDbPoint
 10
733.6086995033402
 20
358.0327949826609
 30
0.0
  0
POINT
  5
5AF
330
5A6
100
AcDbEntity
  8
DEFPOINTS
  6
BYBLOCK
 62
     0
100
AcDbPoint
 10
593.6088445094756
 20
358.0327729732347
 30
0.0
  0
POINT
  5
5B0
330
5A6
100
AcDbEntity
  8
DEFPOINTS
  6
BYBLOCK
 62
     0
100
AcDbPoint
 10
593.6088445094756
 20
174.1010855366853
 30
0.0
  0
ENDBLK
  5
5B1
330
5A6
100
AcDbEntity
  8
0
100
AcDbBlockEnd
  0
BLOCK
  5
5FA
330
5F9
100
AcDbEntity
  8
0
100
AcDbBlockBegin
  2
*D9
 70
     1
 10
0.0
 20
0.0
 30
0.0
  3
*D9
  1

  0
LINE
  5
5FB
330
5F9
100
AcDbEntity
  8
0
  6
BYBLOCK
 62
     4
100
AcDbLine
 10
755.1091204957589
 20
519.8008825468337
 30
0.0
 11
755.1091204957589
 21
582.7706199567114
 31
0.0
  0
LINE
  5
5FC
330
5F9
100
AcDbEntity
  8
0
  6
BYBLOCK
 62
     4
100
AcDbLine
 10
572.1083204957588
 20
519.8008825468337
 30
0.0
 11
572.1083204957588
 21
582.7706199567114
 31
0.0
  0
LINE
  5
5FD
330
5F9
100
AcDbEntity
  8
0
  6
BYBLOCK
 62
     4
100
AcDbLine
 10
741.1091204957589
 20
576.7706199567114
 30
0.0
 11
586.1083204957589
 21
576.7706199567114
 31
0.0
  0
INSERT
  5
5FE
330
5F9
100
AcDbEntity
  8
0
  6
BYBLOCK
 62
     4
100
AcDbBlockReference
  2
_OPEN
 10
755.1091204957589
 20
576.7706199567114
 30
0.0
 41
14.0
 42
14.0
 43
14.0
  0
INSERT
  5
5FF
330
5F9
100
AcDbEntity
  8
0
  6
BYBLOCK
 62
     4
100
AcDbBlockReference
  2
_OPEN
 10
572.1083204957588
 20
576.7706199567114
 30
0.0
 41
14.0
 42
14.0
 43
14.0
 50
180.0
  0
MTEXT
  5
600
330
5F9
100
AcDbEntity
  8
0
  6
BYBLOCK
 62
     4
100
AcDbMText
 10
663.6087204957589
 20
586.7706199567114
 30
0.0
 40
12.0
 41
0.0
 71
     5
 72
     1
  1
\A1;183
1001
ACAD
1000
MTEXTBEGIN
1070
    73
1070
     1
1070
    44
1040
1.0
1070
    74
1070
     0
1000
MTEXTEND
1000
MTEXTBEGIN
1070
    73
1070
     1
1070
    44
1040
1.0
1070
    74
1070
     0
1000
MTEXTEND
1000
MTEXTBEGIN
1070
    73
1070
     1
1070
    44
1040
1.0
1070
    74
1070
     0
1000
MTEXTEND
  0
POINT
  5
601
330
5F9
100
AcDbEntity
  8
DEFPOINTS
  6
BYBLOCK
 62
     0
100
AcDbPoint
 10
755.1091204957589
 20
507.8008825468337
 30
0.0
  0
POINT
  5
602
330
5F9
100
AcDbEntity
  8
DEFPOINTS
  6
BYBLOCK
 62
     0
100
AcDbPoint
 10
572.1083204957588
 20
507.8008825468337
 30
0.0
  0
POINT
  5
603
330
5F9
100
AcDbEntity
  8
DEFPOINTS
  6
BYBLOCK
 62
     0
100
AcDbPoint
 10
572.1083204957588
 20
576.7706199567114
 30
0.0
  0
ENDBLK
  5
604
330
5F9
100
AcDbEntity
  8
0
100
AcDbBlockEnd
  0
BLOCK
  5
607
330
606
100
AcDbEntity
  8
0
100
AcDbBlockBegin
  2
*D10
 70
     1
 10
0.0
 20
0.0
 30
0.0
  3
*D10
  1

  0
LINE
  5
608
330
606
100
AcDbEntity
  8
0
  6
BYBLOCK
 62
     4
100
AcDbLine
 10
766.6091204957589
 20
555.0328067609707
 30
0.0
 11
766.6091204957589
 21
620.517651849942
 31
0.0
  0
LINE
  5
609
330
606
100
AcDbEntity
  8
0
  6
BYBLOCK
 62
     4
100
AcDbLine
 10
560.6083204957589
 20
555.0328067609707
 30
0.0
 11
560.6083204957589
 21
620.517651849942
 31
0.0
  0
LINE
  5
60A
330
606
100
AcDbEntity
  8
0
  6
BYBLOCK
 62
     4
100
AcDbLine
 10
752.6091204957589
 20
614.517651849942
 30
0.0
 11
574.6083204957589
 21
614.517651849942
 31
0.0
  0
INSERT
  5
60B
330
606
100
AcDbEntity
  8
0
  6
BYBLOCK
 62
     4
100
AcDbBlockReference
  2
_OPEN
 10
766.6091204957589
 20
614.517651849942
 30
0.0
 41
14.0
 42
14.0
 43
14.0
  0
INSERT
  5
60C
330
606
100
AcDbEntity
  8
0
  6
BYBLOCK
 62
     4
100
AcDbBlockReference
  2
_OPEN
 10
560.6083204957589
 20
614.517651849942
 30
0.0
 41
14.0
 42
14.0
 43
14.0
 50
180.0
  0
MTEXT
  5
60D
330
606
100
AcDbEntity
  8
0
  6
BYBLOCK
 62
     4
100
AcDbMText
 10
663.6087204957589
 20
624.517651849942
 30
0.0
 40
12.0
 41
0.0
 71
     5
 72
     1
  1
\A1;206
1001
ACAD
1000
MTEXTBEGIN
1070
    73
1070
     1
1070
    44
1040
1.0
1070
    74
1070
     0
1000
MTEXTEND
1000
MTEXTBEGIN
1070
    73
1070
     1
1070
    44
1040
1.0
1070
    74
1070
     0
1000
MTEXTEND
1000
MTEXTBEGIN
1070
    73
1070
     1
1070
    44
1040
1.0
1070
    74
1070
     0
1000
MTEXTEND
  0
POINT
  5
60E
330
606
100
AcDbEntity
  8
DEFPOINTS
  6
BYBLOCK
 62
     0
100
AcDbPoint
 10
766.6091204957589
 20
543.0328067609707
 30
0.0
  0
POINT
  5
60F
330
606
100
AcDbEntity
  8
DEFPOINTS
  6
BYBLOCK
 62
     0
100
AcDbPoint
 10
560.6083204957589
 20
543.0328067609707
 30
0.0
  0
POINT
  5
610
330
606
100
AcDbEntity
  8
DEFPOINTS
  6
BYBLOCK
 62
     0
100
AcDbPoint
 10
560.6083204957589
 20
614.517651849942
 30
0.0
  0
ENDBLK
  5
611
330
606
100
AcDbEntity
  8
0
100
AcDbBlockEnd
  0
BLOCK
  5
6A1
330
620
100
AcDbEntity
  8
0
100
AcDbBlockBegin
  2
*D11
 70
     1
 10
0.0
 20
0.0
 30
0.0
  3
*D11
  1

  0
LINE
  5
6A2
330
620
100
AcDbEntity
  8
0
  6
BYBLOCK
 62
     4
100
AcDbLine
 10
783.8802928945969
 20
555.0328067609707
 30
0.0
 11
783.8802928945969
 21
657.7718321663187
 31
0.0
  0
LINE
  5
6A3
330
620
100
AcDbEntity
  8
0
  6
BYBLOCK
 62
     4
100
AcDbLine
 10
547.8794971008936
 20
555.0328067609707
 30
0.0
 11
547.8794971008936
 21
657.7718321663187
 31
0.0
  0
LINE
  5
6A4
330
620
100
AcDbEntity
  8
0
  6
BYBLOCK
 62
     4
100
AcDbLine
 10
769.8802928945968
 20
651.7718321663187
 30
0.0
 11
561.8794971008936
 21
651.7718321663187
 31
0.0
  0
INSERT
  5
6A5
330
620
100
AcDbEntity
  8
0
  6
BYBLOCK
 62
     4
100
AcDbBlockReference
  2
_OPEN
 10
783.8802928945969
 20
651.7718321663187
 30
0.0
 41
14.0
 42
14.0
 43
14.0
  0
INSERT
  5
6A6
330
620
100
AcDbEntity
  8
0
  6
BYBLOCK
 62
     4
100
AcDbBlockReference
  2
_OPEN
 10
547.8794971008936
 20
651.7718321663187
 30
0.0
 41
14.0
 42
14.0
 43
14.0
 50
180.0
  0
MTEXT
  5
6A7
330
620
100
AcDbEntity
  8
0
  6
BYBLOCK
 62
     4
100
AcDbMText
 10
665.8798949977453
 20
661.7718321663187
 30
0.0
 40
12.0
 41
0.0
 71
     5
 72
     1
  1
\A1;236
1001
ACAD
1000
MTEXTBEGIN
1070
    73
1070
     1
1070
    44
1040
1.0
1070
    74
1070
     0
1000
MTEXTEND
1000
MTEXTBEGIN
1070
    73
1070
     1
1070
    44
1040
1.0
1070
    74
1070
     0
1000
MTEXTEND
1000
MTEXTBEGIN
1070
    73
1070
     1
1070
    44
1040
1.0
1070
    74
1070
     0
1000
MTEXTEND
  0
POINT
  5
6A8
330
620
100
AcDbEntity
  8
DEFPOINTS
  6
BYBLOCK
 62
     0
100
AcDbPoint
 10
783.8802928945969
 20
543.0328067609707
 30
0.0
  0
POINT
  5
6A9
330
620
100
AcDbEntity
  8
DEFPOINTS
  6
BYBLOCK
 62
     0
100
AcDbPoint
 10
547.8794971008936
 20
543.0328067609707
 30
0.0
  0
POINT
  5
6AA
330
620
100
AcDbEntity
  8
DEFPOINTS
  6
BYBLOCK
 62
     0
100
AcDbPoint
 10
547.8794971008936
 20
651.7718321663187
 30
0.0
  0
ENDBLK
  5
6AB
330
620
100
AcDbEntity
  8
0
100
AcDbBlockEnd
  0
BLOCK
  5
6AC
330
660
100
AcDbEntity
  8
0
100
AcDbBlockBegin
  2
*D12
 70
     1
 10
0.0
 20
0.0
 30
0.0
  3
*D12
  1

  0
LINE
  5
6AD
330
660
100
AcDbEntity
  8
0
  6
BYBLOCK
 62
     4
100
AcDbLine
 10
1177.819152894537
 20
555.0328067609707
 30
0.0
 11
1177.819152894537
 21
583.0090271082886
 31
0.0
  0
LINE
  5
6AE
330
660
100
AcDbEntity
  8
0
  6
BYBLOCK
 62
     4
100
AcDbLine
 10
991.8192528945375
 20
555.0328067609707
 30
0.0
 11
991.8192528945375
 21
583.0090271082886
 31
0.0
  0
LINE
  5
6AF
330
660
100
AcDbEntity
  8
0
  6
BYBLOCK
 62
     4
100
AcDbLine
 10
1163.819152894537
 20
577.0090271082885
 30
0.0
 11
1005.819252894537
 21
577.0090271082885
 31
0.0
  0
INSERT
  5
6B0
330
660
100
AcDbEntity
  8
0
  6
BYBLOCK
 62
     4
100
AcDbBlockReference
  2
_OPEN
 10
1177.819152894537
 20
577.0090271082885
 30
0.0
 41
14.0
 42
14.0
 43
14.0
  0
INSERT
  5
6B1
330
660
100
AcDbEntity
  8
0
  6
BYBLOCK
 62
     4
100
AcDbBlockReference
  2
_OPEN
 10
991.8192528945375
 20
577.0090271082885
 30
0.0
 41
14.0
 42
14.0
 43
14.0
 50
180.0
  0
MTEXT
  5
6B2
330
660
100
AcDbEntity
  8
0
  6
BYBLOCK
 62
     4
100
AcDbMText
 10
1084.819202894537
 20
587.0090271082886
 30
0.0
 40
12.0
 41
0.0
 71
     5
 72
     1
  1
\A1;186
1001
ACAD
1000
MTEXTBEGIN
1070
    73
1070
     1
1070
    44
1040
1.0
1070
    74
1070
     0
1000
MTEXTEND
1000
MTEXTBEGIN
1070
    73
1070
     1
1070
    44
1040
1.0
1070
    74
1070
     0
1000
MTEXTEND
1000
MTEXTBEGIN
1070
    73
1070
     1
1070
    44
1040
1.0
1070
    74
1070
     0
1000
MTEXTEND
  0
POINT
  5
6B3
330
660
100
AcDbEntity
  8
DEFPOINTS
  6
BYBLOCK
 62
     0
100
AcDbPoint
 10
1177.819152894537
 20
543.0328067609707
 30
0.0
  0
POINT
  5
6B4
330
660
100
AcDbEntity
  8
DEFPOINTS
  6
BYBLOCK
 62
     0
100
AcDbPoint
 10
991.8192528945375
 20
543.0328067609707
 30
0.0
  0
POINT
  5
6B5
330
660
100
AcDbEntity
  8
DEFPOINTS
  6
BYBLOCK
 62
     0
100
AcDbPoint
 10
991.8192528945375
 20
577.0090271082885
 30
0.0
  0
ENDBLK
  5
6B6
330
660
100
AcDbEntity
  8
0
100
AcDbBlockEnd
  0
BLOCK
  5
66E
330
66D
100
AcDbEntity
  8
0
100
AcDbBlockBegin
  2
*D13
 70
     1
 10
0.0
 20
0.0
 30
0.0
  3
*D13
  1

  0
LINE
  5
66F
330
66D
100
AcDbEntity
  8
0
  6
BYBLOCK
 62
     4
100
AcDbLine
 10
1144.560920495758
 20
348.3704067609707
 30
0.0
 11
1144.560920495758
 21
249.3595073062574
 31
0.0
  0
LINE
  5
670
330
66D
100
AcDbEntity
  8
0
  6
BYBLOCK
 62
     4
100
AcDbLine
 10
1080.548120495758
 20
272.7223067609707
 30
0.0
 11
1080.548120495758
 21
249.3595073062574
 31
0.0
  0
LINE
  5
671
330
66D
100
AcDbEntity
  8
0
  6
BYBLOCK
 62
     4
100
AcDbLine
 10
1130.560920495758
 20
255.3595073062574
 30
0.0
 11
1094.548120495758
 21
255.3595073062574
 31
0.0
  0
INSERT
  5
672
330
66D
100
AcDbEntity
  8
0
  6
BYBLOCK
 62
     4
100
AcDbBlockReference
  2
_OPEN
 10
1144.560920495758
 20
255.3595073062574
 30
0.0
 41
14.0
 42
14.0
 43
14.0
  0
INSERT
  5
673
330
66D
100
AcDbEntity
  8
0
  6
BYBLOCK
 62
     4
100
AcDbBlockReference
  2
_OPEN
 10
1080.548120495758
 20
255.3595073062574
 30
0.0
 41
14.0
 42
14.0
 43
14.0
 50
180.0
  0
MTEXT
  5
674
330
66D
100
AcDbEntity
  8
0
  6
BYBLOCK
 62
     4
100
AcDbMText
 10
1112.554520495758
 20
265.3595073062574
 30
0.0
 40
12.0
 41
0.0
 71
     5
 72
     1
  1
\A1;64
1001
ACAD
1000
MTEXTBEGIN
1070
    73
1070
     1
1070
    44
1040
1.0
1070
    74
1070
     0
1000
MTEXTEND
1000
MTEXTBEGIN
1070
    73
1070
     1
1070
    44
1040
1.0
1070
    74
1070
     0
1000
MTEXTEND
1000
MTEXTBEGIN
1070
    73
1070
     1
1070
    44
1040
1.0
1070
    74
1070
     0
1000
MTEXTEND
  0
POINT
  5
675
330
66D
100
AcDbEntity
  8
DEFPOINTS
  6
BYBLOCK
 62
     0
100
AcDbPoint
 10
1144.560920495758
 20
360.3704067609707
 30
0.0
  0
POINT
  5
676
330
66D
100
AcDbEntity
  8
DEFPOINTS
  6
BYBLOCK
 62
     0
100
AcDbPoint
 10
1080.548120495758
 20
284.7223067609707
 30
0.0
  0
POINT
  5
677
330
66D
100
AcDbEntity
  8
DEFPOINTS
  6
BYBLOCK
 62
     0
100
AcDbPoint
 10
1080.548120495758
 20
255.3595073062574
 30
0.0
  0
ENDBLK
  5
678
330
66D
100
AcDbEntity
  8
0
100
AcDbBlockEnd
  0
BLOCK
  5
67B
330
67A
100
AcDbEntity
  8
0
100
AcDbBlockBegin
  2
*D14
 70
     1
 10
0.0
 20
0.0
 30
0.0
  3
*D14
  1

  0
LINE
  5
67C
330
67A
100
AcDbEntity
  8
0
  6
BYBLOCK
 62
     4
100
AcDbLine
 10
1144.548286953718
 20
346.0328124441843
 30
0.0
 11
1144.548286953718
 21
209.5610459229892
 31
0.0
  0
LINE
  5
67D
330
67A
100
AcDbEntity
  8
0
  6
BYBLOCK
 62
     4
100
AcDbLine
 10
999.5482110696309
 20
346.0329658073623
 30
0.0
 11
999.5482110696309
 21
209.5610459229892
 31
0.0
  0
LINE
  5
67E
330
67A
100
AcDbEntity
  8
0
  6
BYBLOCK
 62
     4
100
AcDbLine
 10
1130.548286953718
 20
215.5610459229892
 30
0.0
 11
1013.54821106963
 21
215.5610459229892
 31
0.0
  0
INSERT
  5
67F
330
67A
100
AcDbEntity
  8
0
  6
BYBLOCK
 62
     4
100
AcDbBlockReference
  2
_OPEN
 10
1144.548286953718
 20
215.5610459229892
 30
0.0
 41
14.0
 42
14.0
 43
14.0
  0
INSERT
  5
680
330
67A
100
AcDbEntity
  8
0
  6
BYBLOCK
 62
     4
100
AcDbBlockReference
  2
_OPEN
 10
999.5482110696309
 20
215.5610459229892
 30
0.0
 41
14.0
 42
14.0
 43
14.0
 50
180.0
  0
MTEXT
  5
681
330
67A
100
AcDbEntity
  8
0
  6
BYBLOCK
 62
     4
100
AcDbMText
 10
1072.048249011674
 20
225.5610459229892
 30
0.0
 40
12.0
 41
0.0
 71
     5
 72
     1
  1
\A1;145
1001
ACAD
1000
MTEXTBEGIN
1070
    73
1070
     1
1070
    44
1040
1.0
1070
    74
1070
     0
1000
MTEXTEND
1000
MTEXTBEGIN
1070
    73
1070
     1
1070
    44
1040
1.0
1070
    74
1070
     0
1000
MTEXTEND
1000
MTEXTBEGIN
1070
    73
1070
     1
1070
    44
1040
1.0
1070
    74
1070
     0
1000
MTEXTEND
  0
POINT
  5
682
330
67A
100
AcDbEntity
  8
DEFPOINTS
  6
BYBLOCK
 62
     0
100
AcDbPoint
 10
1144.548286953718
 20
358.0328124441843
 30
0.0
  0
POINT
  5
683
330
67A
100
AcDbEntity
  8
DEFPOINTS
  6
BYBLOCK
 62
     0
100
AcDbPoint
 10
999.5482110696309
 20
358.0329658073623
 30
0.0
  0
POINT
  5
684
330
67A
100
AcDbEntity
  8
DEFPOINTS
  6
BYBLOCK
 62
     0
100
AcDbPoint
 10
999.5482110696309
 20
215.5610459229892
 30
0.0
  0
ENDBLK
  5
685
330
67A
100
AcDbEntity
  8
0
100
AcDbBlockEnd
  0
BLOCK
  5
688
330
687
100
AcDbEntity
  8
0
100
AcDbBlockBegin
  2
*D15
 70
     1
 10
0.0
 20
0.0
 30
0.0
  3
*D15
  1

  0
LINE
  5
689
330
687
100
AcDbEntity
  8
0
  6
BYBLOCK
 62
     4
100
AcDbLine
 10
791.2919847859988
 20
876.2658910783361
 30
0.0
 11
829.1524718337168
 21
876.2658910783361
 31
0.0
  0
LINE
  5
68A
330
687
100
AcDbEntity
  8
0
  6
BYBLOCK
 62
     4
100
AcDbLine
 10
791.2919736749
 20
856.2658910783373
 30
0.0
 11
829.1524718337168
 21
856.2658910783373
 31
0.0
  0
LINE
  5
68B
330
687
100
AcDbEntity
  8
0
  6
BYBLOCK
 62
     4
100
AcDbLine
 10
823.1524718337167
 20
890.2658910783362
 30
0.0
 11
823.1524718337167
 21
904.2658910783361
 31
0.0
  0
LINE
  5
68C
330
687
100
AcDbEntity
  8
0
  6
BYBLOCK
 62
     4
100
AcDbLine
 10
823.1524718337167
 20
842.2658910783372
 30
0.0
 11
823.1524718337167
 21
802.2658910783373
 31
0.0
  0
LINE
  5
68D
330
687
100
AcDbEntity
  8
0
  6
BYBLOCK
 62
     4
100
AcDbLine
 10
823.1524718337167
 20
876.2658910783361
 30
0.0
 11
823.1524718337167
 21
856.2658910783373
 31
0.0
  0
INSERT
  5
68E
330
687
100
AcDbEntity
  8
0
  6
BYBLOCK
 62
     4
100
AcDbBlockReference
  2
_OPEN
 10
823.1524718337167
 20
876.2658910783361
 30
0.0
 41
14.0
 42
14.0
 43
14.0
 50
270.0
  0
INSERT
  5
68F
330
687
100
AcDbEntity
  8
0
  6
BYBLOCK
 62
     4
100
AcDbBlockReference
  2
_OPEN
 10
823.1524718337167
 20
856.2658910783373
 30
0.0
 41
14.0
 42
14.0
 43
14.0
 50
90.0
  0
MTEXT
  5
690
330
687
100
AcDbEntity
  8
0
  6
BYBLOCK
 62
     4
100
AcDbMText
 10
813.1524718337168
 20
815.2658910783372
 30
0.0
 40
12.0
 41
0.0
 71
     5
 72
     1
  1
\A1;20
 11
0.0
 21
1.0
 31
0.0
1001
ACAD
1000
MTEXTBEGIN
1070
    73
1070
     1
1070
    44
1040
1.0
1070
    74
1070
     0
1000
MTEXTEND
1000
MTEXTBEGIN
1070
    73
1070
     1
1070
    44
1040
1.0
1070
    74
1070
     0
1000
MTEXTEND
1000
MTEXTBEGIN
1070
    73
1070
     1
1070
    44
1040
1.0
1070
    74
1070
     0
1000
MTEXTEND
  0
POINT
  5
691
330
687
100
AcDbEntity
  8
DEFPOINTS
  6
BYBLOCK
 62
     0
100
AcDbPoint
 10
779.2919847859987
 20
876.2658910783361
 30
0.0
  0
POINT
  5
692
330
687
100
AcDbEntity
  8
DEFPOINTS
  6
BYBLOCK
 62
     0
100
AcDbPoint
 10
779.2919736748999
 20
856.2658910783373
 30
0.0
  0
POINT
  5
693
330
687
100
AcDbEntity
  8
DEFPOINTS
  6
BYBLOCK
 62
     0
100
AcDbPoint
 10
823.1524718337167
 20
856.2658910783373
 30
0.0
  0
ENDBLK
  5
694
330
687
100
AcDbEntity
  8
0
100
AcDbBlockEnd
  0
BLOCK
  5
6BF
330
6BE
100
AcDbEntity
  8
0
100
AcDbBlockBegin
  2
*D16
 70
     1
 10
0.0
 20
0.0
 30
0.0
  3
*D16
  1

  0
LINE
  5
6C0
330
6BE
100
AcDbEntity
  8
0
  6
BYBLOCK
 62
     4
100
AcDbLine
 10
793.8803148945651
 20
886.2658907610454
 30
0.0
 11
866.4895203587503
 21
886.2658907610454
 31
0.0
  0
LINE
  5
6C1
330
6BE
100
AcDbEntity
  8
0
  6
BYBLOCK
 62
     4
100
AcDbLine
 10
793.8802908946072
 20
846.265890761049
 30
0.0
 11
866.4895203587503
 21
846.265890761049
 31
0.0
  0
LINE
  5
6C2
330
6BE
100
AcDbEntity
  8
0
  6
BYBLOCK
 62
     4
100
AcDbLine
 10
860.4895203587503
 20
872.2658907610453
 30
0.0
 11
860.4895203587503
 21
860.2658907610489
 31
0.0
  0
LINE
  5
6C3
330
6BE
100
AcDbEntity
  8
0
  6
BYBLOCK
 62
     4
100
AcDbLine
 10
860.4895203587503
 20
846.265890761049
 30
0.0
 11
860.4895203587503
 21
798.2042046004275
 31
0.0
  0
INSERT
  5
6C4
330
6BE
100
AcDbEntity
  8
0
  6
BYBLOCK
 62
     4
100
AcDbBlockReference
  2
_OPEN
 10
860.4895203587503
 20
886.2658907610454
 30
0.0
 41
14.0
 42
14.0
 43
14.0
 50
90.0
  0
INSERT
  5
6C5
330
6BE
100
AcDbEntity
  8
0
  6
BYBLOCK
 62
     4
100
AcDbBlockReference
  2
_OPEN
 10
860.4895203587503
 20
846.265890761049
 30
0.0
 41
14.0
 42
14.0
 43
14.0
 50
270.0
  0
MTEXT
  5
6C6
330
6BE
100
AcDbEntity
  8
0
  6
BYBLOCK
 62
     4
100
AcDbMText
 10
850.4895203587503
 20
811.2042046004276
 30
0.0
 40
12.0
 41
0.0
 71
     5
 72
     1
  1
\A1;40
 11
0.0
 21
1.0
 31
0.0
1001
ACAD
1000
MTEXTBEGIN
1070
    73
1070
     1
1070
    44
1040
1.0
1070
    74
1070
     0
1000
MTEXTEND
1000
MTEXTBEGIN
1070
    73
1070
     1
1070
    44
1040
1.0
1070
    74
1070
     0
1000
MTEXTEND
1000
MTEXTBEGIN
1070
    73
1070
     1
1070
    44
1040
1.0
1070
    74
1070
     0
1000
MTEXTEND
  0
POINT
  5
6C7
330
6BE
100
AcDbEntity
  8
DEFPOINTS
  6
BYBLOCK
 62
     0
100
AcDbPoint
 10
781.8803148945651
 20
886.2658907610454
 30
0.0
  0
POINT
  5
6C8
330
6BE
100
AcDbEntity
  8
DEFPOINTS
  6
BYBLOCK
 62
     0
100
AcDbPoint
 10
781.8802908946072
 20
846.265890761049
 30
0.0
  0
POINT
  5
6C9
330
6BE
100
AcDbEntity
  8
DEFPOINTS
  6
BYBLOCK
 62
     0
100
AcDbPoint
 10
860.4895203587503
 20
846.265890761049
 30
0.0
  0
ENDBLK
  5
6CA
330
6BE
100
AcDbEntity
  8
0
100
AcDbBlockEnd
  0
BLOCK
  5
6D6
330
6D5
100
AcDbEntity
  8
0
100
AcDbBlockBegin
  2
*D17
 70
     1
 10
0.0
 20
0.0
 30
0.0
  3
*D17
  1

  0
LINE
  5
6D7
330
6D5
100
AcDbEntity
  8
0
  6
BYBLOCK
 62
     4
100
AcDbLine
 10
777.8803528945375
 20
959.2657067609707
 30
0.0
 11
902.7617908568208
 21
959.2657067609707
 31
0.0
  0
LINE
  5
6D8
330
6D5
100
AcDbEntity
  8
0
  6
BYBLOCK
 62
     4
100
AcDbLine
 10
803.797763318006
 20
866.2658910783369
 30
0.0
 11
902.7617908568208
 21
866.2658910783369
 31
0.0
  0
LINE
  5
6D9
330
6D5
100
AcDbEntity
  8
0
  6
BYBLOCK
 62
     4
100
AcDbLine
 10
896.7617908568209
 20
945.2657067609706
 30
0.0
 11
896.7617908568209
 21
880.2658910783367
 31
0.0
  0
INSERT
  5
6DA
330
6D5
100
AcDbEntity
  8
0
  6
BYBLOCK
 62
     4
100
AcDbBlockReference
  2
_OPEN
 10
896.7617908568209
 20
959.2657067609707
 30
0.0
 41
14.0
 42
14.0
 43
14.0
 50
90.0
  0
INSERT
  5
6DB
330
6D5
100
AcDbEntity
  8
0
  6
BYBLOCK
 62
     4
100
AcDbBlockReference
  2
_OPEN
 10
896.7617908568209
 20
866.2658910783369
 30
0.0
 41
14.0
 42
14.0
 43
14.0
 50
270.0
  0
MTEXT
  5
6DC
330
6D5
100
AcDbEntity
  8
0
  6
BYBLOCK
 62
     4
100
AcDbMText
 10
886.7617908568208
 20
912.7657989196537
 30
0.0
 40
12.0
 41
0.0
 71
     5
 72
     1
  1
\A1;93
 11
0.0
 21
1.0
 31
0.0
1001
ACAD
1000
MTEXTBEGIN
1070
    73
1070
     1
1070
    44
1040
1.0
1070
    74
1070
     0
1000
MTEXTEND
1000
MTEXTBEGIN
1070
    73
1070
     1
1070
    44
1040
1.0
1070
    74
1070
     0
1000
MTEXTEND
1000
MTEXTBEGIN
1070
    73
1070
     1
1070
    44
1040
1.0
1070
    74
1070
     0
1000
MTEXTEND
  0
POINT
  5
6DD
330
6D5
100
AcDbEntity
  8
DEFPOINTS
  6
BYBLOCK
 62
     0
100
AcDbPoint
 10
765.8803528945375
 20
959.2657067609707
 30
0.0
  0
POINT
  5
6DE
330
6D5
100
AcDbEntity
  8
DEFPOINTS
  6
BYBLOCK
 62
     0
100
AcDbPoint
 10
791.797763318006
 20
866.2658910783369
 30
0.0
  0
POINT
  5
6DF
330
6D5
100
AcDbEntity
  8
DEFPOINTS
  6
BYBLOCK
 62
     0
100
AcDbPoint
 10
896.7617908568209
 20
866.2658910783369
 30
0.0
  0
ENDBLK
  5
6E0
330
6D5
100
AcDbEntity
  8
0
100
AcDbBlockEnd
  0
BLOCK
  5
6F2
330
6F1
100
AcDbEntity
  8
0
100
AcDbBlockBegin
  2
*D18
 70
     1
 10
0.0
 20
0.0
 30
0.0
  3
*D18
  1

  0
LINE
  5
6F3
330
6F1
100
AcDbEntity
  8
0
  6
BYBLOCK
 62
     4
100
AcDbLine
 10
776.3802944597594
 20
839.0831875263788
 30
0.0
 11
776.3802944597594
 21
713.1300964971869
 31
0.0
  0
LINE
  5
6F4
330
6F1
100
AcDbEntity
  8
0
  6
BYBLOCK
 62
     4
100
AcDbLine
 10
555.379498233968
 20
839.0832933571021
 30
0.0
 11
555.379498233968
 21
713.1300964971869
 31
0.0
  0
LINE
  5
6F5
330
6F1
100
AcDbEntity
  8
0
  6
BYBLOCK
 62
     4
100
AcDbLine
 10
762.3802944597595
 20
719.1300964971869
 30
0.0
 11
569.3794982339681
 21
719.1300964971869
 31
0.0
  0
INSERT
  5
6F6
330
6F1
100
AcDbEntity
  8
0
  6
BYBLOCK
 62
     4
100
AcDbBlockReference
  2
_OPEN
 10
776.3802944597594
 20
719.1300964971869
 30
0.0
 41
14.0
 42
14.0
 43
14.0
  0
INSERT
  5
6F7
330
6F1
100
AcDbEntity
  8
0
  6
BYBLOCK
 62
     4
100
AcDbBlockReference
  2
_OPEN
 10
555.379498233968
 20
719.1300964971869
 30
0.0
 41
14.0
 42
14.0
 43
14.0
 50
180.0
  0
MTEXT
  5
6F8
330
6F1
100
AcDbEntity
  8
0
  6
BYBLOCK
 62
     4
100
AcDbMText
 10
665.8798963468638
 20
729.130096497187
 30
0.0
 40
12.0
 41
0.0
 71
     5
 72
     1
  1
\A1;221
1001
ACAD
1000
MTEXTBEGIN
1070
    73
1070
     1
1070
    44
1040
1.0
1070
    74
1070
     0
1000
MTEXTEND
1000
MTEXTBEGIN
1070
    73
1070
     1
1070
    44
1040
1.0
1070
    74
1070
     0
1000
MTEXTEND
1000
MTEXTBEGIN
1070
    73
1070
     1
1070
    44
1040
1.0
1070
    74
1070
     0
1000
MTEXTEND
  0
POINT
  5
6F9
330
6F1
100
AcDbEntity
  8
DEFPOINTS
  6
BYBLOCK
 62
     0
100
AcDbPoint
 10
776.3802944597594
 20
851.0831875263788
 30
0.0
  0
POINT
  5
6FA
330
6F1
100
AcDbEntity
  8
DEFPOINTS
  6
BYBLOCK
 62
     0
100
AcDbPoint
 10
555.379498233968
 20
851.083293357102
 30
0.0
  0
POINT
  5
6FB
330
6F1
100
AcDbEntity
  8
DEFPOINTS
  6
BYBLOCK
 62
     0
100
AcDbPoint
 10
555.379498233968
 20
719.1300964971869
 30
0.0
  0
ENDBLK
  5
6FC
330
6F1
100
AcDbEntity
  8
0
100
AcDbBlockEnd
  0
ENDSEC
  0
SECTION
  2
ENTITIES
  0
LINE
  5
121
330
19
100
AcDbEntity
  8
ZUWAKU
 62
     7
 48
10.0
100
AcDbLine
 10
19.90074647074652
 20
48.1669006995453
 30
0.0
 11
1611.900746470746
 21
48.16690069954507
 31
0.0
  0
LINE
  5
122
330
19
100
AcDbEntity
  8
ZUWAKU
  6
CONTINUOUS
 62
     7
100
AcDbLine
 10
1611.900746470746
 20
1124.166900699545
 30
0.0
 11
19.90074647074652
 21
1124.166900699545
 31
0.0
  0
LINE
  5
123
330
19
100
AcDbEntity
  8
ZUWAKU
  6
CONTINUOUS
 62
     7
100
AcDbLine
 10
1611.900746470746
 20
24.16690069954529
 30
0.0
 11
19.90074647074652
 21
24.16690069954529
 31
0.0
  0
LINE
  5
124
330
19
100
AcDbEntity
  8
ZUWAKU
  6
CONTINUOUS
 62
     7
100
AcDbLine
 10
19.90074647074652
 20
1124.166900699545
 30
0.0
 11
19.90074647074652
 21
24.16690069954529
 31
0.0
  0
LINE
  5
125
330
19
100
AcDbEntity
  8
ZUWAKU
 62
     7
 48
10.0
100
AcDbLine
 10
88.91574076238157
 20
24.16690069954529
 30
0.0
 11
88.91574076238157
 21
48.1669006995453
 31
0.0
  0
TEXT
  5
126
330
19
100
AcDbEntity
  8
ZUWAKU
 62
     7
100
AcDbText
 10
31.91332132304342
 20
27.64761340998802
 30
0.0
 40
16.0
  1
品 種
100
AcDbText
  0
LINE
  5
127
330
19
100
AcDbEntity
  8
ZUWAKU
 62
     7
 48
10.0
100
AcDbLine
 10
552.0054677130756
 20
24.16690069954529
 30
0.0
 11
552.0054677130756
 21
48.16690069954521
 31
0.0
  0
LINE
  5
128
330
19
100
AcDbEntity
  8
ZUWAKU
 62
     7
 48
10.0
100
AcDbLine
 10
418.8274955845217
 20
24.16690069954529
 30
0.0
 11
418.8274955845218
 21
48.16690069954525
 31
0.0
  0
TEXT
  5
129
330
19
100
AcDbEntity
  8
ZUWAKU
 62
     7
100
AcDbText
 10
564.4260762822405
 20
27.88656214294769
 30
0.0
 40
16.0
  1
標準型　７５（ＵＴ－７５×６０）
100
AcDbText
  0
TEXT
  5
12A
330
19
100
AcDbEntity
  8
ZUWAKU
 62
     7
100
AcDbText
 10
430.711957737576
 20
28.96889043994906
 30
0.0
 40
16.0
  1
品名・ｻ ｲ ｽﾞ
100
AcDbText
  0
TEXT
  5
12B
330
19
100
AcDbEntity
  8
ZUWAKU
 62
     7
100
AcDbText
 10
100.503666760442
 20
28.80785192669509
 30
0.0
 40
16.0
  1
角マス
100
AcDbText
  0
LINE
  5
12C
330
19
100
AcDbEntity
  8
ZUWAKU
 62
     7
 48
10.0
100
AcDbLine
 10
1537.246006285983
 20
24.16690069954474
 30
0.0
 11
1537.246006285983
 21
48.16690069954507
 31
0.0
  0
LINE
  5
12D
330
19
100
AcDbEntity
  8
ZUWAKU
 62
     7
 48
10.0
100
AcDbLine
 10
1467.423590774814
 20
24.16690069954483
 30
0.0
 11
1467.423590774814
 21
48.16690069954509
 31
0.0
  0
TEXT
  5
12E
330
19
100
AcDbEntity
  8
ZUWAKU
 62
     7
100
AcDbText
 10
1479.19091629413
 20
27.08628325011705
 30
0.0
 40
16.0
  1
尺 度
100
AcDbText
  0
TEXT
  5
12F
330
19
100
AcDbEntity
  8
ZUWAKU
 62
     7
100
AcDbText
 10
1559.27471636407
 20
27.71150653553059
 30
0.0
 40
16.0
  1
1/4
100
AcDbText
  0
TEXT
  5
130
330
19
100
AcDbEntity
  8
ZUWAKU
 62
     7
100
AcDbText
 10
1308.30613703518
 20
28.40748782453036
 30
0.0
 40
16.0
  1
ＧＢ３１
100
AcDbText
  0
TEXT
  5
131
330
19
100
AcDbEntity
  8
ZUWAKU
 62
     7
100
AcDbText
 10
1240.472447976041
 20
27.90554632275259
 30
0.0
 40
16.0
  1
品 番
100
AcDbText
  0
LINE
  5
132
330
19
100
AcDbEntity
  8
ZUWAKU
 62
     7
 48
10.0
100
AcDbLine
 10
1228.46999593825
 20
24.16690069954464
 30
0.0
 11
1228.46999593825
 21
48.16690069954512
 31
0.0
  0
LINE
  5
133
330
19
100
AcDbEntity
  8
ZUWAKU
 62
     7
 48
10.0
100
AcDbLine
 10
1297.321307773629
 20
24.16690069954464
 30
0.0
 11
1297.321307773629
 21
48.1669006995451
 31
0.0
  0
TEXT
  5
134
330
19
100
AcDbEntity
  8
ZUWAKU
 62
     7
 48
10.0
100
AcDbText
 10
1292.407013373002
 20
5.798621502208334
 30
0.0
 40
16.0
  1
積水化学工業株式会社  建材
100
AcDbText
  0
LINE
  5
135
330
19
100
AcDbEntity
  8
ZUWAKU
  6
CONTINUOUS
 62
     7
100
AcDbLine
 10
1611.900746470746
 20
1124.166900699545
 30
0.0
 11
1611.900746470746
 21
24.16690069954529
 31
0.0
  0
LINE
  5
2A9
330
19
100
AcDbEntity
  8
SEIHIN
  6
CONTINUOUS
 62
     3
100
AcDbLine
 10
787.30098175851
 20
515.5778129984582
 30
0.0
 11
688.17318175851
 21
515.5778129984582
 31
0.0
  0
LINE
  5
2AA
330
19
100
AcDbEntity
  8
SEIHIN
  6
CONTINUOUS
 62
     3
100
AcDbLine
 10
806.1737217585696
 20
538.5778129984583
 30
0.0
 11
570.1729259648662
 21
538.5778129984583
 31
0.0
  0
LINE
  5
2AB
330
19
100
AcDbEntity
  8
SEIHIN
  6
CONTINUOUS
 62
     3
100
AcDbLine
 10
688.17298175851
 20
781.4140129984582
 30
0.0
 11
785.6711817585101
 21
781.4140129984582
 31
0.0
  0
LINE
  5
2AC
330
19
100
AcDbEntity
  8
SEIHIN
  6
CONTINUOUS
 62
     3
100
AcDbLine
 10
688.17318175851
 20
778.8110129984581
 30
0.0
 11
788.1736817585101
 21
778.8109129984582
 31
0.0
  0
LINE
  5
2AD
330
19
100
AcDbEntity
  8
SEIHIN
  6
CONTINUOUS
 62
     3
100
AcDbLine
 10
688.1733817585101
 20
964.8110129984582
 30
0.0
 11
788.1737817585101
 21
964.8107129984582
 31
0.0
  0
LINE
  5
2AE
330
19
100
AcDbEntity
  8
SEIHIN
  6
CONTINUOUS
 62
     3
100
AcDbLine
 10
688.17298175851
 20
962.4114129984581
 30
0.0
 11
785.6713817585101
 21
962.4114129984581
 31
0.0
  0
ARC
  5
2AF
330
19
100
AcDbEntity
  8
SEIHIN
  6
CONTINUOUS
 62
     3
100
AcDbCircle
 10
784.7929817585101
 20
959.4114129984582
 30
0.0
 40
3.0
100
AcDbArc
 50
0.0
 51
90.0
  0
ARC
  5
2B0
330
19
100
AcDbEntity
  8
SEIHIN
  6
CONTINUOUS
 62
     3
100
AcDbCircle
 10
784.79278175851
 20
785.1921129984583
 30
0.0
 40
3.0
100
AcDbArc
 50
270.0
 51
0.0
  0
LINE
  5
2B3
330
19
100
AcDbEntity
  8
CENTER_L
  6
CENTER
 62
     1
 48
5.0
100
AcDbLine
 10
688.17318175851
 20
280.8711129984582
 30
0.0
 11
688.17318175851
 21
555.3913129984582
 31
0.0
  0
LINE
  5
2BB
330
19
100
AcDbEntity
  8
SEIHIN
  6
CONTINUOUS
 62
     3
100
AcDbLine
 10
652.0451817585101
 20
343.7327129984581
 30
0.0
 11
652.8055817585101
 21
324.0333129984581
 31
0.0
  0
LINE
  5
2BC
330
19
100
AcDbEntity
  8
SEIHIN
  6
CONTINUOUS
 62
     3
100
AcDbLine
 10
724.3011817585101
 20
343.7327129984581
 30
0.0
 11
723.5407817585101
 21
324.0333129984581
 31
0.0
  0
LINE
  5
2BF
330
19
100
AcDbEntity
  8
SEIHIN
  6
CONTINUOUS
 62
     3
100
AcDbLine
 10
688.17318175851
 20
323.5778129984581
 30
0.0
 11
652.82328175851
 21
323.5778129984581
 31
0.0
  0
LINE
  5
2C0
330
19
100
AcDbEntity
  8
SEIHIN
  6
CONTINUOUS
 62
     3
100
AcDbLine
 10
688.17318175851
 20
318.5778129984581
 30
0.0
 11
659.04828175851
 21
318.5778129984581
 31
0.0
  0
LINE
  5
2C1
330
19
100
AcDbEntity
  8
SEIHIN
  6
CONTINUOUS
 62
     3
100
AcDbLine
 10
688.17318175851
 20
299.5778129984581
 30
0.0
 11
659.7132817585101
 21
299.5778129984581
 31
0.0
  0
LINE
  5
2C2
330
19
100
AcDbEntity
  8
SEIHIN
  6
CONTINUOUS
 62
     3
100
AcDbLine
 10
659.7132817585101
 20
299.5772129984582
 30
0.0
 11
660.74818175851
 21
298.5778129984581
 31
0.0
  0
LINE
  5
2C3
330
19
100
AcDbEntity
  8
SEIHIN
  6
CONTINUOUS
 62
     3
100
AcDbLine
 10
688.17318175851
 20
328.5778129984581
 30
0.0
 11
652.82328175851
 21
328.5778129984581
 31
0.0
  0
LINE
  5
2C4
330
19
100
AcDbEntity
  8
SEIHIN
  6
CONTINUOUS
 62
     3
100
AcDbLine
 10
688.17318175851
 20
303.5778129984581
 30
0.0
 11
659.5732817585101
 21
303.5778129984581
 31
0.0
  0
LINE
  5
2C5
330
19
100
AcDbEntity
  8
SEIHIN
  6
CONTINUOUS
 62
     3
100
AcDbLine
 10
653.1785817585101
 20
323.2924129984581
 30
0.0
 11
658.6910817585101
 21
318.8647129984582
 31
0.0
  0
ARC
  5
2C6
330
19
100
AcDbEntity
  8
SEIHIN
  6
CONTINUOUS
 62
     3
100
AcDbCircle
 10
658.0648817585101
 20
318.0851129984581
 30
0.0
 40
0.99998
100
AcDbArc
 50
2.00001
 51
51.22744
  0
LINE
  5
2C7
330
19
100
AcDbEntity
  8
SEIHIN
  6
CONTINUOUS
 62
     3
100
AcDbLine
 10
659.7132817585101
 20
299.5772129984582
 30
0.0
 11
659.06428175851
 21
318.1200129984581
 31
0.0
  0
ARC
  5
2C8
330
19
100
AcDbEntity
  8
SEIHIN
  6
CONTINUOUS
 62
     3
100
AcDbCircle
 10
653.80488175851
 20
324.0721129984582
 30
0.0
 40
1.000040999999999
100
AcDbArc
 50
182.2235169999999
 51
231.2310279999999
  0
LINE
  5
2C9
330
19
100
AcDbEntity
  8
SEIHIN
  6
CONTINUOUS
 62
     3
100
AcDbLine
 10
723.16788175851
 20
323.2924129984581
 30
0.0
 11
717.6553817585101
 21
318.8647129984582
 31
0.0
  0
LINE
  5
2CA
330
19
100
AcDbEntity
  8
SEIHIN
  6
CONTINUOUS
 62
     3
100
AcDbLine
 10
688.17318175851
 20
323.5778129984581
 30
0.0
 11
723.52318175851
 21
323.5778129984581
 31
0.0
  0
LINE
  5
2CB
330
19
100
AcDbEntity
  8
SEIHIN
  6
CONTINUOUS
 62
     3
100
AcDbLine
 10
688.17318175851
 20
328.5778129984581
 30
0.0
 11
723.52318175851
 21
328.5778129984581
 31
0.0
  0
LINE
  5
2CC
330
19
100
AcDbEntity
  8
SEIHIN
  6
CONTINUOUS
 62
     3
100
AcDbLine
 10
715.5981817585101
 20
298.5778129984581
 30
0.0
 11
688.17318175851
 21
298.5778129984581
 31
0.0
  0
LINE
  5
2CD
330
19
100
AcDbEntity
  8
SEIHIN
  6
CONTINUOUS
 62
     3
100
AcDbLine
 10
688.17318175851
 20
299.5778129984581
 30
0.0
 11
716.6331817585101
 21
299.5778129984581
 31
0.0
  0
LINE
  5
2CE
330
19
100
AcDbEntity
  8
SEIHIN
  6
CONTINUOUS
 62
     3
100
AcDbLine
 10
688.17318175851
 20
318.5778129984581
 30
0.0
 11
717.2981817585101
 21
318.5778129984581
 31
0.0
  0
LINE
  5
2CF
330
19
100
AcDbEntity
  8
SEIHIN
  6
CONTINUOUS
 62
     3
100
AcDbLine
 10
688.17318175851
 20
303.5778129984581
 30
0.0
 11
716.77318175851
 21
303.5778129984581
 31
0.0
  0
LINE
  5
2D0
330
19
100
AcDbEntity
  8
SEIHIN
  6
CONTINUOUS
 62
     3
100
AcDbLine
 10
660.74818175851
 20
298.5778129984581
 30
0.0
 11
688.17318175851
 21
298.5778129984581
 31
0.0
  0
ARC
  5
2D1
330
19
100
AcDbEntity
  8
SEIHIN
  6
CONTINUOUS
 62
     3
100
AcDbCircle
 10
718.2815817585101
 20
318.0851129984581
 30
0.0
 40
0.99998
100
AcDbArc
 50
128.7725599999999
 51
177.9999899999999
  0
LINE
  5
2D2
330
19
100
AcDbEntity
  8
SEIHIN
  6
CONTINUOUS
 62
     3
100
AcDbLine
 10
716.6331817585101
 20
299.5772129984582
 30
0.0
 11
715.5981817585101
 21
298.5778129984581
 31
0.0
  0
LINE
  5
2D3
330
19
100
AcDbEntity
  8
SEIHIN
  6
CONTINUOUS
 62
     3
100
AcDbLine
 10
716.6331817585101
 20
299.5772129984582
 30
0.0
 11
717.28218175851
 21
318.1200129984581
 31
0.0
  0
ARC
  5
2D4
330
19
100
AcDbEntity
  8
SEIHIN
  6
CONTINUOUS
 62
     3
100
AcDbCircle
 10
722.5415817585101
 20
324.0721129984582
 30
0.0
 40
0.9999909999999999
100
AcDbArc
 50
308.768972
 51
357.7762609999999
  0
LINE
  5
2D7
330
19
100
AcDbEntity
  8
SEIHIN
  6
CONTINUOUS
 62
     3
100
AcDbLine
 10
688.17318175851
 20
343.5778129984581
 30
0.0
 11
652.05118175851
 21
343.5778129984581
 31
0.0
  0
LINE
  5
2D8
330
19
100
AcDbEntity
  8
SEIHIN
  6
CONTINUOUS
 62
     3
100
AcDbLine
 10
688.17318175851
 20
353.5778129984581
 30
0.0
 11
619.34758175851
 21
353.5778129984581
 31
0.0
  0
LINE
  5
2D9
330
19
100
AcDbEntity
  8
SEIHIN
  6
CONTINUOUS
 62
     3
100
AcDbLine
 10
608.17318175851
 20
503.5779129984582
 30
0.0
 11
618.0202817585101
 21
355.8731129984581
 31
0.0
  0
LINE
  5
2DA
330
19
100
AcDbEntity
  8
SEIHIN
  6
CONTINUOUS
 62
     3
100
AcDbLine
 10
620.42958175851
 20
353.1300129984582
 30
0.0
 11
649.05188175851
 21
347.4498129984582
 31
0.0
  0
ARC
  5
2DB
330
19
100
AcDbEntity
  8
SEIHIN
  6
CONTINUOUS
 62
     3
100
AcDbCircle
 10
621.0135817585101
 20
356.0726129984582
 30
0.0
 40
2.999966
100
AcDbArc
 50
183.813058
 51
258.774717
  0
ARC
  5
2DC
330
19
100
AcDbEntity
  8
SEIHIN
  6
CONTINUOUS
 62
     3
100
AcDbCircle
 10
648.0481817585101
 20
343.5778129984581
 30
0.0
 40
4.000014
100
AcDbArc
 50
0.0
 51
78.774342
  0
LINE
  5
2E0
330
19
100
AcDbEntity
  8
SEIHIN
  6
CONTINUOUS
 62
     3
100
AcDbLine
 10
768.1731817585101
 20
503.5779129984582
 30
0.0
 11
766.6531435203409
 21
480.7773702990446
 31
0.0
  0
LINE
  5
2E1
330
19
100
AcDbEntity
  8
SEIHIN
  6
CONTINUOUS
 62
     3
100
AcDbLine
 10
688.17318175851
 20
353.5778129984581
 30
0.0
 11
756.99888175851
 21
353.5778129984581
 31
0.0
  0
LINE
  5
2E2
330
19
100
AcDbEntity
  8
SEIHIN
  6
CONTINUOUS
 62
     3
100
AcDbLine
 10
688.17318175851
 20
343.5778129984581
 30
0.0
 11
724.2951817585101
 21
343.5778129984581
 31
0.0
  0
LINE
  5
2E3
330
19
100
AcDbEntity
  8
SEIHIN
  6
CONTINUOUS
 62
     3
100
AcDbLine
 10
755.91678175851
 20
353.1300129984582
 30
0.0
 11
727.29458175851
 21
347.4498129984582
 31
0.0
  0
ARC
  5
2E4
330
19
100
AcDbEntity
  8
SEIHIN
  6
CONTINUOUS
 62
     3
100
AcDbCircle
 10
728.29818175851
 20
343.5778129984581
 30
0.0
 40
4.000003999999999
100
AcDbArc
 50
101.224253
 51
180.0
  0
ARC
  5
2E5
330
19
100
AcDbEntity
  8
SEIHIN
  6
CONTINUOUS
 62
     3
100
AcDbCircle
 10
755.3327817585101
 20
356.0726129984582
 30
0.0
 40
3.000016
100
AcDbArc
 50
281.2252829999999
 51
356.187069
  0
LINE
  5
2E6
330
19
100
AcDbEntity
  8
SEIHIN
  6
CONTINUOUS
 62
     3
100
AcDbLine
 10
774.7793817585101
 20
503.5778129984582
 30
0.0
 11
688.17318175851
 21
503.5778129984582
 31
0.0
  0
LINE
  5
2E7
330
19
100
AcDbEntity
  8
SEIHIN
  6
CONTINUOUS
 62
     3
100
AcDbLine
 10
778.09038175851
 20
513.6647129984582
 30
0.0
 11
777.7765817585101
 21
506.4475129984582
 31
0.0
  0
ARC
  5
2E8
330
19
100
AcDbEntity
  8
SEIHIN
  6
CONTINUOUS
 62
     3
100
AcDbCircle
 10
780.08848175851
 20
513.5778129984583
 30
0.0
 40
1.999993999999999
100
AcDbArc
 50
90.0
 51
177.5097
  0
ARC
  5
2E9
330
19
100
AcDbEntity
  8
SEIHIN
  6
CONTINUOUS
 62
     3
100
AcDbCircle
 10
774.7793817585101
 20
506.5778129984582
 30
0.0
 40
3.000017999999999
100
AcDbArc
 50
270.0
 51
357.5087879999999
  0
LINE
  5
2EA
330
19
100
AcDbEntity
  8
CENTER_L
  6
CENTER
 62
     1
 48
5.0
100
AcDbLine
 10
688.17328175851
 20
765.8890129984582
 30
0.0
 11
688.1733817585101
 21
974.7138129984582
 31
0.0
  0
LINE
  5
2EB
330
19
100
AcDbEntity
  8
SEIHIN
  6
CONTINUOUS
 62
     3
100
AcDbLine
 10
585.1727817585101
 20
781.8110129984582
 30
0.0
 11
585.1727817585101
 21
849.8110085616241
 31
0.0
  0
LINE
  5
2EC
330
19
100
AcDbEntity
  8
SEIHIN
  6
CONTINUOUS
 62
     3
100
AcDbLine
 10
651.23758175851
 20
865.6698129984583
 30
0.0
 11
651.23758175851
 21
933.5664129984582
 31
0.0
  0
LINE
  5
2ED
330
19
100
AcDbEntity
  8
SEIHIN
  6
CONTINUOUS
 62
     3
100
AcDbLine
 10
620.51978175851
 20
824.0895129984581
 30
0.0
 11
620.5198817585101
 21
958.4242129984582
 31
0.0
  0
LINE
  5
2EE
330
19
100
AcDbEntity
  8
SEIHIN
  6
CONTINUOUS
 62
     3
100
AcDbLine
 10
610.49218175851
 20
810.0613129984582
 30
0.0
 11
610.4922817585101
 21
959.4115129984581
 31
0.0
  0
LINE
  5
2EF
330
19
100
AcDbEntity
  8
SEIHIN
  6
CONTINUOUS
 62
     3
100
AcDbLine
 10
601.37568175851
 20
799.7136129984582
 30
0.0
 11
601.37568175851
 21
959.4115129984581
 31
0.0
  0
LINE
  5
2F0
330
19
100
AcDbEntity
  8
SEIHIN
  6
CONTINUOUS
 62
     3
100
AcDbLine
 10
587.67518175851
 20
784.4141129984582
 30
0.0
 11
587.67518175851
 21
959.4115129984581
 31
0.0
  0
LINE
  5
2F1
330
19
100
AcDbEntity
  8
SEIHIN
  6
CONTINUOUS
 62
     3
100
AcDbLine
 10
588.55368175851
 20
785.1923129984582
 30
0.0
 11
588.55358175851
 21
959.4115129984581
 31
0.0
  0
LINE
  5
2F2
330
19
100
AcDbEntity
  8
SEIHIN
  6
CONTINUOUS
 62
     3
100
AcDbLine
 10
600.85378175851
 20
799.4934129984581
 30
0.0
 11
600.85378175851
 21
959.4115129984581
 31
0.0
  0
LINE
  5
2F3
330
19
100
AcDbEntity
  8
SEIHIN
  6
CONTINUOUS
 62
     3
100
AcDbLine
 10
725.10898175851
 20
865.6697129984582
 30
0.0
 11
725.10898175851
 21
933.5662129984582
 31
0.0
  0
LINE
  5
2F4
330
19
100
AcDbEntity
  8
SEIHIN
  6
CONTINUOUS
 62
     3
100
AcDbLine
 10
755.82668175851
 20
824.0894129984582
 30
0.0
 11
755.82668175851
 21
958.4240129984582
 31
0.0
  0
LINE
  5
2F5
330
19
100
AcDbEntity
  8
SEIHIN
  6
CONTINUOUS
 62
     3
100
AcDbLine
 10
765.85428175851
 20
810.0610129984582
 30
0.0
 11
765.85428175851
 21
959.4114129984582
 31
0.0
  0
LINE
  5
2F6
330
19
100
AcDbEntity
  8
SEIHIN
  6
CONTINUOUS
 62
     3
100
AcDbLine
 10
774.97078175851
 20
799.7134129984582
 30
0.0
 11
774.97078175851
 21
959.4114129984582
 31
0.0
  0
LINE
  5
2F7
330
19
100
AcDbEntity
  8
SEIHIN
  6
CONTINUOUS
 62
     3
100
AcDbLine
 10
775.4926817585101
 20
799.4931129984583
 30
0.0
 11
775.4927817585101
 21
959.4114129984582
 31
0.0
  0
ARC
  5
2F8
330
19
100
AcDbEntity
  8
SEIHIN
  6
CONTINUOUS
 62
     3
100
AcDbCircle
 10
688.17318175851
 20
899.8110129984581
 30
0.0
 40
25.92
100
AcDbArc
 50
0.0
 51
359.9997789999999
  0
ARC
  5
2F9
330
19
100
AcDbEntity
  8
SEIHIN
  6
CONTINUOUS
 62
     3
100
AcDbCircle
 10
688.17318175851
 20
899.8110129984581
 30
0.0
 40
26.62
100
AcDbArc
 50
0.0
 51
359.999785
  0
ARC
  5
2FA
330
19
100
AcDbEntity
  8
SEIHIN
  6
CONTINUOUS
 62
     3
100
AcDbCircle
 10
688.17318175851
 20
899.8110129984581
 30
0.0
 40
32.9001
100
AcDbArc
 50
0.0
 51
359.999826
  0
ARC
  5
2FB
330
19
100
AcDbEntity
  8
SEIHIN
  6
CONTINUOUS
 62
     3
100
AcDbCircle
 10
688.17318175851
 20
899.8110129984581
 30
0.0
 40
33.85
100
AcDbArc
 50
0.0
 51
359.999831
  0
LINE
  5
2FF
330
19
100
AcDbEntity
  8
SEIHIN
  6
CONTINUOUS
 62
     3
100
AcDbLine
 10
688.17318175851
 20
778.8110129984581
 30
0.0
 11
588.1727817585101
 21
778.8110129984581
 31
0.0
  0
LINE
  5
300
330
19
100
AcDbEntity
  8
SEIHIN
  6
CONTINUOUS
 62
     3
100
AcDbLine
 10
688.17348175851
 20
782.1922129984582
 30
0.0
 11
591.55368175851
 21
782.1923129984582
 31
0.0
  0
LINE
  5
301
330
19
100
AcDbEntity
  8
SEIHIN
  6
CONTINUOUS
 62
     3
100
AcDbLine
 10
688.1733817585101
 20
796.4931129984583
 30
0.0
 11
603.8536817585101
 21
796.4934129984582
 31
0.0
  0
LINE
  5
302
330
19
100
AcDbEntity
  8
SEIHIN
  6
CONTINUOUS
 62
     3
100
AcDbLine
 10
688.17348175851
 20
821.0895129984582
 30
0.0
 11
623.51978175851
 21
821.0895129984582
 31
0.0
  0
LINE
  5
303
330
19
100
AcDbEntity
  8
SEIHIN
  6
CONTINUOUS
 62
     3
100
AcDbLine
 10
688.17348175851
 20
781.4140129984582
 30
0.0
 11
590.6751817585101
 21
781.4141129984582
 31
0.0
  0
LINE
  5
304
330
19
100
AcDbEntity
  8
SEIHIN
  6
CONTINUOUS
 62
     3
100
AcDbLine
 10
688.17348175851
 20
807.0612129984581
 30
0.0
 11
613.4921817585101
 21
807.0613129984582
 31
0.0
  0
LINE
  5
305
330
19
100
AcDbEntity
  8
SEIHIN
  6
CONTINUOUS
 62
     3
100
AcDbLine
 10
688.17348175851
 20
862.6697129984581
 30
0.0
 11
654.23758175851
 21
862.6698129984582
 31
0.0
  0
LINE
  5
306
330
19
100
AcDbEntity
  8
SEIHIN
  6
CONTINUOUS
 62
     3
100
AcDbLine
 10
688.17328175851
 20
796.7135129984582
 30
0.0
 11
604.37568175851
 21
796.7136129984582
 31
0.0
  0
LINE
  5
307
330
19
100
AcDbEntity
  8
SEIHIN
  6
CONTINUOUS
 62
     3
100
AcDbLine
 10
651.23758175851
 20
862.6698129984582
 30
0.0
 11
621.84438175851
 21
822.8825129984581
 31
0.0
  0
ARC
  5
308
330
19
100
AcDbEntity
  8
SEIHIN
  6
CONTINUOUS
 62
     3
100
AcDbCircle
 10
591.55368175851
 20
785.1923129984582
 30
0.0
 40
3.0
100
AcDbArc
 50
180.0
 51
270.0
  0
ARC
  5
309
330
19
100
AcDbEntity
  8
SEIHIN
  6
CONTINUOUS
 62
     3
100
AcDbCircle
 10
590.6751817585101
 20
784.4141129984582
 30
0.0
 40
3.0
100
AcDbArc
 50
180.0
 51
270.0
  0
ARC
  5
30A
330
19
100
AcDbEntity
  8
SEIHIN
  6
CONTINUOUS
 62
     3
100
AcDbCircle
 10
588.1727817585101
 20
781.8110129984582
 30
0.0
 40
3.0
100
AcDbArc
 50
180.0
 51
270.0
  0
ARC
  5
30B
330
19
100
AcDbEntity
  8
SEIHIN
  6
CONTINUOUS
 62
     3
100
AcDbCircle
 10
613.4921817585101
 20
810.0613129984582
 30
0.0
 40
3.0
100
AcDbArc
 50
180.0
 51
270.0
  0
ARC
  5
30C
330
19
100
AcDbEntity
  8
SEIHIN
  6
CONTINUOUS
 62
     3
100
AcDbCircle
 10
604.37568175851
 20
799.7136129984582
 30
0.0
 40
3.0
100
AcDbArc
 50
180.0
 51
270.0
  0
ARC
  5
30D
330
19
100
AcDbEntity
  8
SEIHIN
  6
CONTINUOUS
 62
     3
100
AcDbCircle
 10
603.85378175851
 20
799.4934129984581
 30
0.0
 40
3.0
100
AcDbArc
 50
180.0
 51
270.0
  0
LINE
  5
30E
330
19
100
AcDbEntity
  8
SEIHIN
  6
CONTINUOUS
 62
     3
100
AcDbLine
 10
620.51978175851
 20
821.0895129984582
 30
0.0
 11
611.95928175851
 21
809.1137129984582
 31
0.0
  0
ARC
  5
30F
330
19
100
AcDbEntity
  8
SEIHIN
  6
CONTINUOUS
 62
     3
100
AcDbCircle
 10
623.51978175851
 20
824.0895129984581
 30
0.0
 40
3.0
100
AcDbArc
 50
180.0
 51
270.0
  0
ARC
  5
310
330
19
100
AcDbEntity
  8
SEIHIN
  6
CONTINUOUS
 62
     3
100
AcDbCircle
 10
654.23758175851
 20
865.6698129984583
 30
0.0
 40
3.0
100
AcDbArc
 50
180.0
 51
270.0
  0
LINE
  5
311
330
19
100
AcDbEntity
  8
SEIHIN
  6
CONTINUOUS
 62
     3
100
AcDbLine
 10
725.10898175851
 20
862.6697129984581
 30
0.0
 11
754.50208175851
 21
822.8823129984581
 31
0.0
  0
LINE
  5
312
330
19
100
AcDbEntity
  8
SEIHIN
  6
CONTINUOUS
 62
     3
100
AcDbLine
 10
688.17298175851
 20
821.0895129984582
 30
0.0
 11
752.82668175851
 21
821.0894129984582
 31
0.0
  0
LINE
  5
313
330
19
100
AcDbEntity
  8
SEIHIN
  6
CONTINUOUS
 62
     3
100
AcDbLine
 10
688.17298175851
 20
807.0612129984581
 30
0.0
 11
762.85428175851
 21
807.0612129984581
 31
0.0
  0
LINE
  5
314
330
19
100
AcDbEntity
  8
SEIHIN
  6
CONTINUOUS
 62
     3
100
AcDbLine
 10
688.17318175851
 20
796.7135129984582
 30
0.0
 11
771.97078175851
 21
796.7134129984582
 31
0.0
  0
LINE
  5
315
330
19
100
AcDbEntity
  8
SEIHIN
  6
CONTINUOUS
 62
     3
100
AcDbLine
 10
688.17298175851
 20
782.1922129984582
 30
0.0
 11
784.79278175851
 21
782.1922129984582
 31
0.0
  0
LINE
  5
316
330
19
100
AcDbEntity
  8
SEIHIN
  6
CONTINUOUS
 62
     3
100
AcDbLine
 10
688.1730817585101
 20
796.4931129984583
 30
0.0
 11
772.4927817585101
 21
796.4932129984583
 31
0.0
  0
ARC
  5
317
330
19
100
AcDbEntity
  8
SEIHIN
  6
CONTINUOUS
 62
     3
100
AcDbCircle
 10
752.82668175851
 20
824.0894129984582
 30
0.0
 40
3.0
100
AcDbArc
 50
270.0
 51
0.0
  0
ARC
  5
318
330
19
100
AcDbEntity
  8
SEIHIN
  6
CONTINUOUS
 62
     3
100
AcDbCircle
 10
762.85428175851
 20
810.0610129984582
 30
0.0
 40
3.0
100
AcDbArc
 50
270.0
 51
0.0
  0
ARC
  5
319
330
19
100
AcDbEntity
  8
SEIHIN
  6
CONTINUOUS
 62
     3
100
AcDbCircle
 10
771.97078175851
 20
799.7134129984582
 30
0.0
 40
3.0
100
AcDbArc
 50
270.0
 51
0.0
  0
ARC
  5
31A
330
19
100
AcDbEntity
  8
SEIHIN
  6
CONTINUOUS
 62
     3
100
AcDbCircle
 10
772.49268175851
 20
799.4931129984583
 30
0.0
 40
3.0
100
AcDbArc
 50
270.0
 51
0.0
  0
LINE
  5
31B
330
19
100
AcDbEntity
  8
SEIHIN
  6
CONTINUOUS
 62
     3
100
AcDbLine
 10
755.82668175851
 20
821.0894129984582
 30
0.0
 11
764.38718175851
 21
809.1135129984582
 31
0.0
  0
LINE
  5
31C
330
19
100
AcDbEntity
  8
CENTER_L
  6
CENTER
 62
     1
 48
5.0
100
AcDbLine
 10
739.5848309944575
 20
899.8109129984582
 30
0.0
 11
636.7618607850102
 21
899.8109129984582
 31
0.0
  0
ARC
  5
31D
330
19
100
AcDbEntity
  8
SEIHIN
  6
CONTINUOUS
 62
     3
100
AcDbCircle
 10
722.10898175851
 20
865.6698129984583
 30
0.0
 40
3.0
100
AcDbArc
 50
270.0
 51
0.0
  0
LINE
  5
31E
330
19
100
AcDbEntity
  8
SEIHIN
  6
CONTINUOUS
 62
     3
100
AcDbLine
 10
688.1730817585101
 20
862.6697129984581
 30
0.0
 11
722.10898175851
 21
862.6698129984582
 31
0.0
  0
LINE
  5
31F
330
19
100
AcDbEntity
  8
SEIHIN
  6
CONTINUOUS
 62
     3
100
AcDbLine
 10
688.17318175851
 20
964.8110129984582
 30
0.0
 11
588.1727817585101
 21
964.8110129984582
 31
0.0
  0
LINE
  5
320
330
19
100
AcDbEntity
  8
SEIHIN
  6
CONTINUOUS
 62
     3
100
AcDbLine
 10
688.17368175851
 20
961.4241129984582
 30
0.0
 11
623.5198817585101
 21
961.4242129984582
 31
0.0
  0
LINE
  5
321
330
19
100
AcDbEntity
  8
SEIHIN
  6
CONTINUOUS
 62
     3
100
AcDbLine
 10
688.17358175851
 20
962.4114129984581
 30
0.0
 11
590.6751817585101
 21
962.4115129984582
 31
0.0
  0
LINE
  5
322
330
19
100
AcDbEntity
  8
SEIHIN
  6
CONTINUOUS
 62
     3
100
AcDbLine
 10
688.17368175851
 20
936.5664129984581
 30
0.0
 11
654.23758175851
 21
936.5664129984581
 31
0.0
  0
ARC
  5
323
330
19
100
AcDbEntity
  8
SEIHIN
  6
CONTINUOUS
 62
     3
100
AcDbCircle
 10
590.6751817585101
 20
959.4115129984581
 30
0.0
 40
3.0
100
AcDbArc
 50
90.0
 51
180.0
  0
ARC
  5
324
330
19
100
AcDbEntity
  8
SEIHIN
  6
CONTINUOUS
 62
     3
100
AcDbCircle
 10
591.5535817585101
 20
959.4115129984581
 30
0.0
 40
3.0
100
AcDbArc
 50
90.0
 51
180.0
  0
ARC
  5
325
330
19
100
AcDbEntity
  8
SEIHIN
  6
CONTINUOUS
 62
     3
100
AcDbCircle
 10
588.1727817585101
 20
961.8110129984582
 30
0.0
 40
3.0
100
AcDbArc
 50
90.0
 51
180.0
  0
ARC
  5
326
330
19
100
AcDbEntity
  8
SEIHIN
  6
CONTINUOUS
 62
     3
100
AcDbCircle
 10
613.4922817585101
 20
959.4115129984581
 30
0.0
 40
3.0
100
AcDbArc
 50
90.0
 51
180.0
  0
ARC
  5
327
330
19
100
AcDbEntity
  8
SEIHIN
  6
CONTINUOUS
 62
     3
100
AcDbCircle
 10
604.37568175851
 20
959.4115129984581
 30
0.0
 40
3.0
100
AcDbArc
 50
90.0
 51
180.0
  0
ARC
  5
328
330
19
100
AcDbEntity
  8
SEIHIN
  6
CONTINUOUS
 62
     3
100
AcDbCircle
 10
603.85378175851
 20
959.4115129984581
 30
0.0
 40
3.0
100
AcDbArc
 50
90.0
 51
180.0
  0
LINE
  5
329
330
19
100
AcDbEntity
  8
SEIHIN
  6
CONTINUOUS
 62
     3
100
AcDbLine
 10
622.00558175851
 20
960.2219129984582
 30
0.0
 11
651.2376817585101
 21
936.5664129984581
 31
0.0
  0
ARC
  5
32A
330
19
100
AcDbEntity
  8
SEIHIN
  6
CONTINUOUS
 62
     3
100
AcDbCircle
 10
623.5198817585101
 20
958.4242129984582
 30
0.0
 40
3.0
100
AcDbArc
 50
90.0
 51
180.0
  0
ARC
  5
32B
330
19
100
AcDbEntity
  8
SEIHIN
  6
CONTINUOUS
 62
     3
100
AcDbCircle
 10
654.23758175851
 20
933.5664129984582
 30
0.0
 40
3.0
100
AcDbArc
 50
90.0
 51
180.0
  0
LINE
  5
32C
330
19
100
AcDbEntity
  8
SEIHIN
  6
CONTINUOUS
 62
     3
100
AcDbLine
 10
688.1728817585101
 20
961.4241129984582
 30
0.0
 11
752.82668175851
 21
961.4241129984582
 31
0.0
  0
ARC
  5
32D
330
19
100
AcDbEntity
  8
SEIHIN
  6
CONTINUOUS
 62
     3
100
AcDbCircle
 10
722.10898175851
 20
933.5663129984581
 30
0.0
 40
3.0
100
AcDbArc
 50
0.0
 51
90.0
  0
LINE
  5
32E
330
19
100
AcDbEntity
  8
SEIHIN
  6
CONTINUOUS
 62
     3
100
AcDbLine
 10
688.1728817585101
 20
936.5664129984581
 30
0.0
 11
722.10898175851
 21
936.5664129984581
 31
0.0
  0
ARC
  5
32F
330
19
100
AcDbEntity
  8
SEIHIN
  6
CONTINUOUS
 62
     3
100
AcDbCircle
 10
762.85428175851
 20
959.4114129984582
 30
0.0
 40
3.0
100
AcDbArc
 50
0.0
 51
90.0
  0
ARC
  5
330
330
19
100
AcDbEntity
  8
SEIHIN
  6
CONTINUOUS
 62
     3
100
AcDbCircle
 10
771.97078175851
 20
959.4114129984582
 30
0.0
 40
3.0
100
AcDbArc
 50
0.0
 51
90.0
  0
ARC
  5
331
330
19
100
AcDbEntity
  8
SEIHIN
  6
CONTINUOUS
 62
     3
100
AcDbCircle
 10
772.4927817585101
 20
959.4114129984582
 30
0.0
 40
3.0
100
AcDbArc
 50
0.0
 51
90.0
  0
LINE
  5
332
330
19
100
AcDbEntity
  8
SEIHIN
  6
CONTINUOUS
 62
     3
100
AcDbLine
 10
754.3409817585101
 20
960.2217129984582
 30
0.0
 11
725.10888175851
 21
936.5663129984582
 31
0.0
  0
ARC
  5
333
330
19
100
AcDbEntity
  8
SEIHIN
  6
CONTINUOUS
 62
     3
100
AcDbCircle
 10
752.82668175851
 20
958.4240129984582
 30
0.0
 40
3.0
100
AcDbArc
 50
0.0
 51
90.0
  0
LINE
  5
334
330
19
100
AcDbEntity
  8
SEIHIN
  6
CONTINUOUS
 62
     3
100
AcDbLine
 10
1200.11258175851
 20
538.5778129984583
 30
0.0
 11
1199.12538175851
 21
355.9154129984582
 31
0.0
  0
ARC
  5
335
330
19
100
AcDbEntity
  8
SEIHIN
  6
CONTINUOUS
 62
     3
100
AcDbCircle
 10
787.30098175851
 20
518.5778129984583
 30
0.0
 40
3.000017999999999
100
AcDbArc
 50
270.0
 51
357.5087879999999
  0
ARC
  5
336
330
19
100
AcDbEntity
  8
SEIHIN
  6
CONTINUOUS
 62
     3
100
AcDbCircle
 10
1017.98508175851
 20
518.5778129984583
 30
0.0
 40
3.000015
100
AcDbArc
 50
182.489304
 51
270.0
  0
LINE
  5
339
330
19
100
AcDbEntity
  8
SEIHIN
  6
CONTINUOUS
 62
     3
100
AcDbLine
 10
1017.98508175851
 20
515.5778129984582
 30
0.0
 11
1196.123399643911
 21
515.5778129984581
 31
0.0
  0
LINE
  5
33A
330
19
100
AcDbEntity
  8
SEIHIN
  6
CONTINUOUS
 62
     3
100
AcDbLine
 10
1032.50688175851
 20
503.5778129984582
 30
0.0
 11
1196.875081758509
 21
503.5778129984582
 31
0.0
  0
LINE
  5
33B
330
19
100
AcDbEntity
  8
SEIHIN
  6
CONTINUOUS
 62
     3
100
AcDbLine
 10
1170.10718175851
 20
323.2923129984582
 30
0.0
 11
1164.594581758509
 21
318.8645129984581
 31
0.0
  0
LINE
  5
33C
330
19
100
AcDbEntity
  8
SEIHIN
  6
CONTINUOUS
 62
     3
100
AcDbLine
 10
1135.11248175851
 20
323.5776129984582
 30
0.0
 11
1170.46248175851
 21
323.5776129984582
 31
0.0
  0
LINE
  5
33D
330
19
100
AcDbEntity
  8
SEIHIN
  6
CONTINUOUS
 62
     3
100
AcDbLine
 10
1135.11248175851
 20
328.5776129984582
 30
0.0
 11
1170.46248175851
 21
328.5776129984582
 31
0.0
  0
LINE
  5
33E
330
19
100
AcDbEntity
  8
SEIHIN
  6
CONTINUOUS
 62
     3
100
AcDbLine
 10
1135.11248175851
 20
343.5776129984582
 30
0.0
 11
1171.23448175851
 21
343.5776129984582
 31
0.0
  0
LINE
  5
33F
330
19
100
AcDbEntity
  8
SEIHIN
  6
CONTINUOUS
 62
     3
100
AcDbLine
 10
1055.43428175851
 20
353.5778129984581
 30
0.0
 11
1197.98538175851
 21
353.5778129984581
 31
0.0
  0
LINE
  5
341
330
19
100
AcDbEntity
  8
CENTER_L
  6
CENTER
 62
     1
 48
5.0
100
AcDbLine
 10
1135.112581758509
 20
280.2673129984582
 30
0.0
 11
1135.112581758509
 21
376.7545129984581
 31
0.0
  0
LINE
  5
342
330
19
100
AcDbEntity
  8
SEIHIN
  6
CONTINUOUS
 62
     3
100
AcDbLine
 10
1098.98448175851
 20
343.7326129984581
 30
0.0
 11
1099.74488175851
 21
324.0332129984582
 31
0.0
  0
LINE
  5
343
330
19
100
AcDbEntity
  8
SEIHIN
  6
CONTINUOUS
 62
     3
100
AcDbLine
 10
1100.11788175851
 20
323.2923129984582
 30
0.0
 11
1105.63038175851
 21
318.8645129984581
 31
0.0
  0
LINE
  5
344
330
19
100
AcDbEntity
  8
SEIHIN
  6
CONTINUOUS
 62
     3
100
AcDbLine
 10
1135.11248175851
 20
323.5776129984582
 30
0.0
 11
1099.76248175851
 21
323.5776129984582
 31
0.0
  0
LINE
  5
345
330
19
100
AcDbEntity
  8
SEIHIN
  6
CONTINUOUS
 62
     3
100
AcDbLine
 10
1135.11248175851
 20
328.5776129984582
 30
0.0
 11
1099.76248175851
 21
328.5776129984582
 31
0.0
  0
ARC
  5
346
330
19
100
AcDbEntity
  8
SEIHIN
  6
CONTINUOUS
 62
     3
100
AcDbCircle
 10
1100.744181758509
 20
324.0719129984581
 30
0.0
 40
1.000032
100
AcDbArc
 50
182.2177919999999
 51
231.2229729999999
  0
LINE
  5
347
330
19
100
AcDbEntity
  8
SEIHIN
  6
CONTINUOUS
 62
     3
100
AcDbLine
 10
1107.68748175851
 20
298.5776129984582
 30
0.0
 11
1135.11248175851
 21
298.5776129984582
 31
0.0
  0
LINE
  5
348
330
19
100
AcDbEntity
  8
SEIHIN
  6
CONTINUOUS
 62
     3
100
AcDbLine
 10
1135.11248175851
 20
299.5776129984582
 30
0.0
 11
1106.65248175851
 21
299.5776129984582
 31
0.0
  0
LINE
  5
349
330
19
100
AcDbEntity
  8
SEIHIN
  6
CONTINUOUS
 62
     3
100
AcDbLine
 10
1135.11248175851
 20
318.5776129984582
 30
0.0
 11
1105.98758175851
 21
318.5776129984582
 31
0.0
  0
LINE
  5
34A
330
19
100
AcDbEntity
  8
SEIHIN
  6
CONTINUOUS
 62
     3
100
AcDbLine
 10
1135.11248175851
 20
303.5776129984582
 30
0.0
 11
1106.512481758509
 21
303.5776129984582
 31
0.0
  0
ARC
  5
34B
330
19
100
AcDbEntity
  8
SEIHIN
  6
CONTINUOUS
 62
     3
100
AcDbCircle
 10
1105.00418175851
 20
318.0849129984582
 30
0.0
 40
0.9999819999999999
100
AcDbArc
 50
2.005736
 51
51.22744
  0
LINE
  5
34C
330
19
100
AcDbEntity
  8
SEIHIN
  6
CONTINUOUS
 62
     3
100
AcDbLine
 10
1106.65248175851
 20
299.5770129984582
 30
0.0
 11
1107.68748175851
 21
298.5776129984582
 31
0.0
  0
LINE
  5
34D
330
19
100
AcDbEntity
  8
SEIHIN
  6
CONTINUOUS
 62
     3
100
AcDbLine
 10
1106.65248175851
 20
299.5770129984582
 30
0.0
 11
1106.00358175851
 21
318.1199129984581
 31
0.0
  0
ARC
  5
34E
330
19
100
AcDbEntity
  8
SEIHIN
  6
CONTINUOUS
 62
     3
100
AcDbCircle
 10
1165.22078175851
 20
318.0849129984582
 30
0.0
 40
0.9999319999999999
100
AcDbArc
 50
128.7725599999999
 51
177.9940629999999
  0
LINE
  5
34F
330
19
100
AcDbEntity
  8
SEIHIN
  6
CONTINUOUS
 62
     3
100
AcDbLine
 10
1162.53748175851
 20
298.5776129984582
 30
0.0
 11
1135.11248175851
 21
298.5776129984582
 31
0.0
  0
LINE
  5
350
330
19
100
AcDbEntity
  8
SEIHIN
  6
CONTINUOUS
 62
     3
100
AcDbLine
 10
1135.11248175851
 20
299.5776129984582
 30
0.0
 11
1163.57248175851
 21
299.5776129984582
 31
0.0
  0
LINE
  5
351
330
19
100
AcDbEntity
  8
SEIHIN
  6
CONTINUOUS
 62
     3
100
AcDbLine
 10
1135.11248175851
 20
318.5776129984582
 30
0.0
 11
1164.23738175851
 21
318.5776129984582
 31
0.0
  0
LINE
  5
352
330
19
100
AcDbEntity
  8
SEIHIN
  6
CONTINUOUS
 62
     3
100
AcDbLine
 10
1135.11248175851
 20
303.5776129984582
 30
0.0
 11
1163.71248175851
 21
303.5776129984582
 31
0.0
  0
LINE
  5
353
330
19
100
AcDbEntity
  8
SEIHIN
  6
CONTINUOUS
 62
     3
100
AcDbLine
 10
1163.57248175851
 20
299.5770129984582
 30
0.0
 11
1162.53748175851
 21
298.5776129984582
 31
0.0
  0
LINE
  5
354
330
19
100
AcDbEntity
  8
SEIHIN
  6
CONTINUOUS
 62
     3
100
AcDbLine
 10
1163.57248175851
 20
299.5770129984582
 30
0.0
 11
1164.22148175851
 21
318.1199129984581
 31
0.0
  0
LINE
  5
355
330
19
100
AcDbEntity
  8
SEIHIN
  6
CONTINUOUS
 62
     3
100
AcDbLine
 10
1029.19588175851
 20
513.6646129984582
 30
0.0
 11
1029.509681758509
 21
506.4475129984582
 31
0.0
  0
ARC
  5
356
330
19
100
AcDbEntity
  8
SEIHIN
  6
CONTINUOUS
 62
     3
100
AcDbCircle
 10
1027.19778175851
 20
513.5778129984583
 30
0.0
 40
1.999991999999999
100
AcDbArc
 50
2.487436999999999
 51
90.0
  0
ARC
  5
357
330
19
100
AcDbEntity
  8
SEIHIN
  6
CONTINUOUS
 62
     3
100
AcDbCircle
 10
1032.50688175851
 20
506.5778129984582
 30
0.0
 40
3.000015
100
AcDbArc
 50
182.489304
 51
270.0
  0
LINE
  5
358
330
19
100
AcDbEntity
  8
SEIHIN
  6
CONTINUOUS
 62
     3
100
AcDbLine
 10
1040.11268175851
 20
503.5778129984582
 30
0.0
 11
1053.89338175851
 21
355.9275129984581
 31
0.0
  0
LINE
  5
359
330
19
100
AcDbEntity
  8
SEIHIN
  6
CONTINUOUS
 62
     3
100
AcDbLine
 10
1135.11248175851
 20
343.5776129984582
 30
0.0
 11
1098.99048175851
 21
343.5776129984582
 31
0.0
  0
LINE
  5
35A
330
19
100
AcDbEntity
  8
SEIHIN
  6
CONTINUOUS
 62
     3
100
AcDbLine
 10
1056.44768175851
 20
353.2376129984581
 30
0.0
 11
1095.56448175851
 21
347.5358129984582
 31
0.0
  0
ARC
  5
35B
330
19
100
AcDbEntity
  8
SEIHIN
  6
CONTINUOUS
 62
     3
100
AcDbCircle
 10
1056.880381758509
 20
356.2062129984582
 30
0.0
 40
2.999971
100
AcDbArc
 50
185.3305109999999
 51
261.707029
  0
ARC
  5
35C
330
19
100
AcDbEntity
  8
SEIHIN
  6
CONTINUOUS
 62
     3
100
AcDbCircle
 10
1094.98748175851
 20
343.5776129984582
 30
0.0
 40
4.000003999999999
100
AcDbArc
 50
0.0
 51
78.775747
  0
LINE
  5
35D
330
19
100
AcDbEntity
  8
SEIHIN
  6
CONTINUOUS
 62
     3
100
AcDbLine
 10
1171.24048175851
 20
343.7326129984581
 30
0.0
 11
1170.48008175851
 21
324.0332129984582
 31
0.0
  0
ARC
  5
35E
330
19
100
AcDbEntity
  8
SEIHIN
  6
CONTINUOUS
 62
     3
100
AcDbCircle
 10
1169.48088175851
 20
324.0719129984581
 30
0.0
 40
0.9999499999999999
100
AcDbArc
 50
308.77256
 51
357.781987
  0
LINE
  5
35F
330
19
100
AcDbEntity
  8
SEIHIN
  6
CONTINUOUS
 62
     3
100
AcDbLine
 10
1196.84278175851
 20
353.0187129984582
 30
0.0
 11
1174.28098175851
 21
347.4616129984582
 31
0.0
  0
ARC
  5
360
330
19
100
AcDbEntity
  8
SEIHIN
  6
CONTINUOUS
 62
     3
100
AcDbCircle
 10
1175.23758175851
 20
343.5776129984582
 30
0.0
 40
4.000014
100
AcDbArc
 50
101.225658
 51
180.0
  0
ARC
  5
361
330
19
100
AcDbEntity
  8
SEIHIN
  6
CONTINUOUS
 62
     3
100
AcDbCircle
 10
1196.12538175851
 20
355.9316129984581
 30
0.0
 40
2.999954999999999
100
AcDbArc
 50
283.837524
 51
359.690595
  0
LINE
  5
362
330
19
100
AcDbEntity
  8
SEIHIN
  6
CONTINUOUS
 62
     3
100
AcDbLine
 10
787.79278175851
 20
785.1921129984583
 30
0.0
 11
787.79298175851
 21
959.4114129984582
 31
0.0
  0
LINE
  5
363
330
19
100
AcDbEntity
  8
SEIHIN
  6
CONTINUOUS
 62
     3
100
AcDbLine
 10
788.6712817585101
 20
784.4140129984582
 30
0.0
 11
788.67138175851
 21
959.4114129984582
 31
0.0
  0
LINE
  5
364
330
19
100
AcDbEntity
  8
SEIHIN
  6
CONTINUOUS
 62
     3
100
AcDbLine
 10
791.17368175851
 20
781.8107129984582
 30
0.0
 11
791.1737195363546
 21
849.8109091095908
 31
0.0
  0
LINE
  5
366
330
19
100
AcDbEntity
  8
SEIHIN
  6
CONTINUOUS
 62
     3
100
AcDbLine
 10
1014.11268175851
 20
538.5778129984583
 30
0.0
 11
1200.11258175851
 21
538.5778129984583
 31
0.0
  0
LINE
  5
367
330
19
100
AcDbEntity
  8
SEIHIN
  6
CONTINUOUS
 62
     3
100
AcDbLine
 10
791.1735817585101
 20
538.5778129984583
 30
0.0
 11
790.29818175851
 21
518.4474129984582
 31
0.0
  0
LINE
  5
368
330
19
100
AcDbEntity
  8
SEIHIN
  6
CONTINUOUS
 62
     3
100
AcDbLine
 10
1014.11268175851
 20
538.5778129984583
 30
0.0
 11
1014.98788175851
 21
518.4475129984583
 31
0.0
  0
ARC
  5
369
330
19
100
AcDbEntity
  8
SEIHIN
  6
CONTINUOUS
 62
     3
100
AcDbCircle
 10
785.6711817585101
 20
784.4140129984582
 30
0.0
 40
3.0
100
AcDbArc
 50
270.0
 51
0.0
  0
ARC
  5
36A
330
19
100
AcDbEntity
  8
SEIHIN
  6
CONTINUOUS
 62
     3
100
AcDbCircle
 10
788.1736817585101
 20
781.8107129984582
 30
0.0
 40
3.0
100
AcDbArc
 50
270.0
 51
0.0
  0
ARC
  5
36B
330
19
100
AcDbEntity
  8
SEIHIN
  6
CONTINUOUS
 62
     3
100
AcDbCircle
 10
785.6713817585101
 20
959.4114129984582
 30
0.0
 40
3.0
100
AcDbArc
 50
0.0
 51
90.0
  0
ARC
  5
36C
330
19
100
AcDbEntity
  8
SEIHIN
  6
CONTINUOUS
 62
     3
100
AcDbCircle
 10
788.1737817585101
 20
961.8109129984581
 30
0.0
 40
3.0
100
AcDbArc
 50
0.0
 51
90.0
  0
LINE
  5
4C2
330
19
100
AcDbEntity
  8
SEIHIN
  6
CONTINUOUS
 62
     3
100
AcDbLine
 10
806.1737217585696
 20
853.8108958874257
 30
0.0
 11
806.1737417585474
 21
889.8108958874241
 31
0.0
  0
LINE
  5
4C5
330
19
100
AcDbEntity
  8
SEIHIN
  6
CONTINUOUS
 62
     3
100
AcDbLine
 10
793.1737419807817
 20
891.8109079984796
 30
0.0
 11
804.1737437585377
 21
891.8108969985329
 31
0.0
  0
LINE
  5
4C6
330
19
100
AcDbEntity
  8
SEIHIN
  6
CONTINUOUS
 62
     3
100
AcDbLine
 10
793.1737215363442
 20
851.81090799848
 30
0.0
 11
804.1737197585799
 21
851.8108969985366
 31
0.0
  0
LINE
  5
4C9
330
19
100
AcDbEntity
  8
SEIHIN
  6
CONTINUOUS
 62
     3
100
AcDbLine
 10
791.1737439807721
 20
893.8109091095885
 30
0.0
 11
791.1737817585101
 21
961.8109129984581
 31
0.0
  0
ARC
  5
4CA
330
19
100
AcDbEntity
  8
SEIHIN
  6
CONTINUOUS
 62
     3
100
AcDbCircle
 10
793.1737439807717
 20
893.8109079984787
 30
0.0
 40
2.0
100
AcDbArc
 50
179.9999681690466
 51
269.999942704507
  0
ARC
  5
4CB
330
19
100
AcDbEntity
  8
SEIHIN
  6
CONTINUOUS
 62
     3
100
AcDbCircle
 10
793.1737195363543
 20
849.8109079984809
 30
0.0
 40
2.0
100
AcDbArc
 50
89.99994270450697
 51
179.9999681690467
  0
LINE
  5
4CC
330
19
100
AcDbEntity
  8
CENTER_L
  6
CENTER
 62
     1
 48
5.0
100
AcDbLine
 10
798.6737344348309
 20
876.6281937638652
 30
0.0
 11
798.6737401933899
 21
886.9936112331476
 31
0.0
  0
LINE
  5
4CD
330
19
100
AcDbEntity
  8
CENTER_L
  6
CENTER
 62
     1
 48
5.0
100
AcDbLine
 10
793.4910285794709
 20
881.8109076811893
 30
0.0
 11
803.8564460487499
 21
881.8108973158237
 31
0.0
  0
CIRCLE
  5
4D0
330
19
100
AcDbEntity
  8
SEIHIN
  6
CONTINUOUS
 62
     3
100
AcDbCircle
 10
798.6737373141104
 20
881.8109024985064
 30
0.0
 40
2.25
  0
LINE
  5
4D2
330
19
100
AcDbEntity
  8
CENTER_L
  6
CENTER
 62
     1
 48
5.0
100
AcDbLine
 10
793.4910174683721
 20
861.8109076811904
 30
0.0
 11
803.856434937651
 21
861.8108973158248
 31
0.0
  0
CIRCLE
  5
4D3
330
19
100
AcDbEntity
  8
SEIHIN
  6
CONTINUOUS
 62
     3
100
AcDbCircle
 10
798.6737262030116
 20
861.8109024985075
 30
0.0
 40
2.25
  0
LINE
  5
4D4
330
19
100
AcDbEntity
  8
CENTER_L
  6
CENTER
 62
     1
 48
5.0
100
AcDbLine
 10
798.6737233237321
 20
856.6281937638663
 30
0.0
 11
798.673729082291
 21
866.9936112331487
 31
0.0
  0
LINE
  5
4D5
330
19
100
AcDbEntity
  8
SEIHIN
  6
CONTINUOUS
 62
     3
100
AcDbLine
 10
570.1729259648662
 20
853.8110089012038
 30
0.0
 11
570.1729404435516
 21
889.8110089012046
 31
0.0
  0
CIRCLE
  5
4D6
330
19
100
AcDbEntity
  8
SEIHIN
  6
CONTINUOUS
 62
     3
100
AcDbCircle
 10
577.672929182352
 20
861.8110083292311
 30
0.0
 40
2.25
  0
LINE
  5
4D7
330
19
100
AcDbEntity
  8
CENTER_L
  6
CENTER
 62
     1
 48
5.0
100
AcDbLine
 10
582.8556379169943
 20
861.8110085482232
 30
0.0
 11
572.49022044771
 21
861.8110081102393
 31
0.0
  0
LINE
  5
4D8
330
19
100
AcDbEntity
  8
SEIHIN
  6
CONTINUOUS
 62
     3
100
AcDbLine
 10
583.1727816740015
 20
851.8110085616241
 30
0.0
 11
572.1729260493749
 21
851.8110080968323
 31
0.0
  0
LINE
  5
4D9
330
19
100
AcDbEntity
  8
CENTER_L
  6
CENTER
 62
     1
 48
5.0
100
AcDbLine
 10
577.6729270979407
 20
856.6282995945895
 30
0.0
 11
577.6729312667635
 21
866.9937170638727
 31
0.0
  0
LINE
  5
4DA
330
19
100
AcDbEntity
  8
CENTER_L
  6
CENTER
 62
     1
 48
5.0
100
AcDbLine
 10
582.8556459607084
 20
881.8110085482233
 30
0.0
 11
572.4902284914242
 21
881.8110081102394
 31
0.0
  0
CIRCLE
  5
4DB
330
19
100
AcDbEntity
  8
SEIHIN
  6
CONTINUOUS
 62
     3
100
AcDbCircle
 10
577.6729372260663
 20
881.8110083292316
 30
0.0
 40
2.25
  0
LINE
  5
4DC
330
19
100
AcDbEntity
  8
SEIHIN
  6
CONTINUOUS
 62
     3
100
AcDbLine
 10
583.1727818430189
 20
891.8110085616243
 30
0.0
 11
572.1729403590428
 21
891.8110080968331
 31
0.0
  0
LINE
  5
4DD
330
19
100
AcDbEntity
  8
CENTER_L
  6
CENTER
 62
     1
 48
5.0
100
AcDbLine
 10
577.6729351416548
 20
876.62829959459
 30
0.0
 11
577.6729393104776
 21
886.9937170638731
 31
0.0
  0
ARC
  5
4E0
330
19
100
AcDbEntity
  8
SEIHIN
  6
CONTINUOUS
 62
     3
100
AcDbCircle
 10
804.1737417585476
 20
889.810896998534
 30
0.0
 40
2.0
100
AcDbArc
 50
359.9999681690464
 51
89.99994270450665
  0
ARC
  5
4E1
330
19
100
AcDbEntity
  8
SEIHIN
  6
CONTINUOUS
 62
     3
100
AcDbCircle
 10
804.1737217585698
 20
853.8108969985355
 30
0.0
 40
2.0
100
AcDbArc
 50
269.9999427045068
 51
359.9999681690466
  0
ARC
  5
4E2
330
19
100
AcDbEntity
  8
SEIHIN
  6
CONTINUOUS
 62
     3
100
AcDbCircle
 10
572.1729404435515
 20
889.8110080968331
 30
0.0
 40
2.0
100
AcDbArc
 50
90.000002420996
 51
179.9999769564563
  0
ARC
  5
4E3
330
19
100
AcDbEntity
  8
SEIHIN
  6
CONTINUOUS
 62
     3
100
AcDbCircle
 10
572.1729259648661
 20
853.8110080968323
 30
0.0
 40
2.0
100
AcDbArc
 50
179.9999769564564
 51
270.0000024209963
  0
LINE
  5
4E7
330
19
100
AcDbEntity
  8
SEIHIN
  6
CONTINUOUS
 62
     3
100
AcDbLine
 10
585.1727817585103
 20
893.8110085616242
 30
0.0
 11
585.1727817585101
 21
961.8110129984582
 31
0.0
  0
ARC
  5
4E8
330
19
100
AcDbEntity
  8
SEIHIN
  6
CONTINUOUS
 62
     3
100
AcDbCircle
 10
583.1727817585102
 20
893.8110085616242
 30
0.0
 40
2.0
100
AcDbArc
 50
270.000002420996
 51
0.0
  0
ARC
  5
4E9
330
19
100
AcDbEntity
  8
SEIHIN
  6
CONTINUOUS
 62
     3
100
AcDbCircle
 10
583.1727817585101
 20
849.8110085616241
 30
0.0
 40
2.0
100
AcDbArc
 50
0.0
 51
90.00000242099568
  0
LINE
  5
4EA
330
19
100
AcDbEntity
  8
SEIHIN
  6
CONTINUOUS
 62
     3
100
AcDbLine
 10
806.1737217585694
 20
538.5778129984583
 30
0.0
 11
806.1737217585694
 21
535.5778129984582
 31
0.0
  0
LINE
  5
4EB
330
19
100
AcDbEntity
  8
SEIHIN
  6
CONTINUOUS
 62
     3
100
AcDbLine
 10
570.1729259648662
 20
538.5778129984583
 30
0.0
 11
570.1729259648662
 21
535.5778129984583
 31
0.0
  0
LINE
  5
4EC
330
19
100
AcDbEntity
  8
SEIHIN
  6
CONTINUOUS
 62
     3
100
AcDbLine
 10
806.1737217585696
 20
535.5778129984583
 30
0.0
 11
791.0431223538287
 21
535.5778129984583
 31
0.0
  0
LINE
  5
4ED
330
19
100
AcDbEntity
  8
SEIHIN
  6
CONTINUOUS
 62
     3
100
AcDbLine
 10
585.3033411631916
 20
535.5778129984583
 30
0.0
 11
570.1729259648662
 21
535.5778129984583
 31
0.0
  0
LINE
  5
4EE
330
19
100
AcDbEntity
  8
CENTER_L
  6
CENTER
 62
     1
 48
5.0
100
AcDbLine
 10
798.6737233237321
 20
543.5778129984583
 30
0.0
 11
798.673723323732
 21
530.5778129984583
 31
0.0
  0
LINE
  5
4F1
330
19
100
AcDbEntity
  8
CENTER_L
  6
CENTER
 62
     1
 48
5.0
100
AcDbLine
 10
577.6726401932879
 20
543.5778129984583
 30
0.0
 11
577.672640193288
 21
530.5778129984583
 31
0.0
  0
LINE
  5
4F2
330
19
100
AcDbEntity
  8
SEIHIN
  6
CONTINUOUS
 62
     3
100
AcDbLine
 10
785.8100996596365
 20
483.5778129984582
 30
0.0
 11
783.6248309782351
 21
483.5778129984582
 31
0.0
  0
LINE
  5
4F4
330
19
100
AcDbEntity
  8
CENTER_L
  6
CENTER
 62
     1
 48
5.0
100
AcDbLine
 10
779.67358175851
 20
503.3458887843213
 30
0.0
 11
779.67358175851
 21
493.8097372125952
 31
0.0
  0
LINE
  5
4F5
330
19
100
AcDbEntity
  8
CENTER_L
  6
CENTER
 62
     1
 48
5.0
100
AcDbLine
 10
784.4416575443731
 20
498.5778129984582
 30
0.0
 11
774.905505972647
 21
498.5778129984582
 31
0.0
  0
LINE
  5
4F6
330
19
100
AcDbEntity
  8
SEIHIN
  6
CONTINUOUS
 62
     3
100
AcDbLine
 10
766.6531435203406
 20
480.7773702990446
 30
0.0
 11
758.3261817585101
 21
355.8731129984581
 31
0.0
  0
ARC
  5
4F7
330
19
100
AcDbEntity
  8
SEIHIN
  6
CONTINUOUS
 62
     3
100
AcDbCircle
 10
769.6464989759761
 20
480.5778129984583
 30
0.0
 40
3.0
100
AcDbArc
 50
90.0
 51
176.1859200164969
  0
ARC
  5
4F8
330
19
100
AcDbEntity
  8
SEIHIN
  6
CONTINUOUS
 62
     3
100
AcDbCircle
 10
779.67358175851
 20
498.5778129984582
 30
0.0
 40
2.25
100
AcDbArc
 50
0.0000000000723753
 51
177.1482248735581
  0
LINE
  5
4FB
330
19
100
AcDbEntity
  8
SEIHIN
  6
CONTINUOUS
 62
     3
100
AcDbLine
 10
776.7209174038523
 20
484.5280606811331
 30
0.0
 11
777.4263681886004
 21
498.6897557124402
 31
0.0
  0
LINE
  5
4FC
330
19
100
AcDbEntity
  8
SEIHIN
  6
CONTINUOUS
 62
     3
100
AcDbLine
 10
782.6260786393572
 20
484.5278753815144
 30
0.0
 11
781.92358175851
 21
498.5778129984582
 31
0.0
  0
LINE
  5
4FD
330
19
100
AcDbEntity
  8
SEIHIN
  6
CONTINUOUS
 62
     3
100
AcDbLine
 10
775.7221558172258
 20
483.5778129984584
 30
0.0
 11
769.6464989759761
 21
483.5778129984583
 31
0.0
  0
ARC
  5
4FE
330
19
100
AcDbEntity
  8
SEIHIN
  6
CONTINUOUS
 62
     3
100
AcDbCircle
 10
775.7221558172258
 20
484.5778129984585
 30
0.0
 40
1.0
100
AcDbArc
 50
270.0000000000004
 51
357.1482248735579
  0
ARC
  5
4FF
330
19
100
AcDbEntity
  8
SEIHIN
  6
CONTINUOUS
 62
     3
100
AcDbCircle
 10
783.6248309782351
 20
484.5778129984583
 30
0.0
 40
1.0
100
AcDbArc
 50
182.8624052261117
 51
270.0
  0
LINE
  5
501
330
19
100
AcDbEntity
  8
SEIHIN
  6
CONTINUOUS
 62
     3
100
AcDbLine
 10
790.29818175851
 20
518.4474129984582
 30
0.0
 11
788.8068489072694
 21
486.4381922735947
 31
0.0
  0
ARC
  5
502
330
19
100
AcDbEntity
  8
SEIHIN
  6
CONTINUOUS
 62
     3
100
AcDbCircle
 10
785.8100996596365
 20
486.5778129984582
 30
0.0
 40
3.0
100
AcDbArc
 50
270.0
 51
357.3324770127809
  0
LINE
  5
510
330
19
100
AcDbEntity
  8
SEIHIN
  6
CONTINUOUS
 62
     3
100
AcDbLine
 10
601.5669817585099
 20
503.5778129984582
 30
0.0
 11
688.17318175851
 21
503.5778129984582
 31
0.0
  0
LINE
  5
511
330
19
100
AcDbEntity
  8
SEIHIN
  6
CONTINUOUS
 62
     3
100
AcDbLine
 10
589.04538175851
 20
515.5778129984582
 30
0.0
 11
688.17318175851
 21
515.5778129984582
 31
0.0
  0
LINE
  5
512
330
19
100
AcDbEntity
  8
CENTER_L
  6
CENTER
 62
     1
 48
5.0
100
AcDbLine
 10
596.67278175851
 20
503.3458887843213
 30
0.0
 11
596.67278175851
 21
493.8097372125952
 31
0.0
  0
LINE
  5
513
330
19
100
AcDbEntity
  8
SEIHIN
  6
CONTINUOUS
 62
     3
100
AcDbLine
 10
586.0481817585101
 20
518.4474129984582
 30
0.0
 11
587.5395146097506
 21
486.4381922735947
 31
0.0
  0
LINE
  5
514
330
19
100
AcDbEntity
  8
SEIHIN
  6
CONTINUOUS
 62
     3
100
AcDbLine
 10
593.7202848776628
 20
484.5278753815144
 30
0.0
 11
594.42278175851
 21
498.5778129984582
 31
0.0
  0
LINE
  5
515
330
19
100
AcDbEntity
  8
SEIHIN
  6
CONTINUOUS
 62
     3
100
AcDbLine
 10
599.6254461131677
 20
484.5280606811331
 30
0.0
 11
598.9199953284197
 21
498.6897557124402
 31
0.0
  0
ARC
  5
516
330
19
100
AcDbEntity
  8
SEIHIN
  6
CONTINUOUS
 62
     3
100
AcDbCircle
 10
600.6242076997942
 20
484.5778129984585
 30
0.0
 40
1.0
100
AcDbArc
 50
182.851775126442
 51
269.9999999999995
  0
LINE
  5
517
330
19
100
AcDbEntity
  8
SEIHIN
  6
CONTINUOUS
 62
     3
100
AcDbLine
 10
600.6242076997942
 20
483.5778129984584
 30
0.0
 11
606.6998645410438
 21
483.5778129984583
 31
0.0
  0
ARC
  5
518
330
19
100
AcDbEntity
  8
SEIHIN
  6
CONTINUOUS
 62
     3
100
AcDbCircle
 10
606.6998645410438
 20
480.5778129984583
 30
0.0
 40
3.0
100
AcDbArc
 50
3.814079983503066
 51
90.0
  0
ARC
  5
519
330
19
100
AcDbEntity
  8
SEIHIN
  6
CONTINUOUS
 62
     3
100
AcDbCircle
 10
590.5362638573835
 20
486.5778129984582
 30
0.0
 40
3.0
100
AcDbArc
 50
182.667522987219
 51
270.0
  0
LINE
  5
51A
330
19
100
AcDbEntity
  8
SEIHIN
  6
CONTINUOUS
 62
     3
100
AcDbLine
 10
590.5362638573835
 20
483.5778129984582
 30
0.0
 11
592.721532538785
 21
483.5778129984582
 31
0.0
  0
ARC
  5
51B
330
19
100
AcDbEntity
  8
SEIHIN
  6
CONTINUOUS
 62
     3
100
AcDbCircle
 10
592.721532538785
 20
484.5778129984583
 30
0.0
 40
1.0
100
AcDbArc
 50
270.0
 51
357.1375947738882
  0
LINE
  5
51C
330
19
100
AcDbEntity
  8
SEIHIN
  6
CONTINUOUS
 62
     3
100
AcDbLine
 10
585.17278175851
 20
538.5778129984583
 30
0.0
 11
586.0481817585101
 21
518.4474129984582
 31
0.0
  0
LINE
  5
51D
330
19
100
AcDbEntity
  8
CENTER_L
  6
CENTER
 62
     1
 48
5.0
100
AcDbLine
 10
591.9047059726469
 20
498.5778129984582
 30
0.0
 11
601.4408575443731
 21
498.5778129984582
 31
0.0
  0
ARC
  5
51E
330
19
100
AcDbEntity
  8
SEIHIN
  6
CONTINUOUS
 62
     3
100
AcDbCircle
 10
596.67278175851
 20
498.5778129984582
 30
0.0
 40
2.25
100
AcDbArc
 50
2.851775126441828
 51
179.9999999999276
  0
ARC
  5
51F
330
19
100
AcDbEntity
  8
SEIHIN
  6
CONTINUOUS
 62
     3
100
AcDbCircle
 10
601.5669817585099
 20
506.5778129984582
 30
0.0
 40
3.000017999999999
100
AcDbArc
 50
182.491212
 51
270.0
  0
ARC
  5
520
330
19
100
AcDbEntity
  8
SEIHIN
  6
CONTINUOUS
 62
     3
100
AcDbCircle
 10
596.25788175851
 20
513.5778129984583
 30
0.0
 40
1.999993999999999
100
AcDbArc
 50
2.490299999999987
 51
90.0
  0
LINE
  5
521
330
19
100
AcDbEntity
  8
SEIHIN
  6
CONTINUOUS
 62
     3
100
AcDbLine
 10
598.2559817585101
 20
513.6647129984582
 30
0.0
 11
598.56978175851
 21
506.4475129984582
 31
0.0
  0
ARC
  5
522
330
19
100
AcDbEntity
  8
SEIHIN
  6
CONTINUOUS
 62
     3
100
AcDbCircle
 10
589.04538175851
 20
518.5778129984583
 30
0.0
 40
3.000017999999999
100
AcDbArc
 50
182.491212
 51
270.0
  0
LINE
  5
523
330
19
100
AcDbEntity
  8
SEIHIN
  6
CONTINUOUS
 62
     3
100
AcDbLine
 10
608.17318175851
 20
503.5779129984582
 30
0.0
 11
609.6932199966792
 21
480.7773702990446
 31
0.0
  0
LINE
  5
527
330
19
100
AcDbEntity
  8
SEIHIN
  6
CONTINUOUS
 62
     3
100
AcDbLine
 10
1197.31258175851
 20
483.5778129984584
 30
0.0
 11
1199.815333939583
 21
483.5778129984585
 31
0.0
  0
LINE
  5
528
330
19
100
AcDbEntity
  8
SEIHIN
  6
CONTINUOUS
 62
     3
100
AcDbLine
 10
1196.623280057921
 20
515.0887478825146
 30
0.0
 11
1197.31258175851
 21
483.5778129984584
 31
0.0
  0
ARC
  5
529
330
19
100
AcDbEntity
  8
SEIHIN
  6
CONTINUOUS
 62
     3
100
AcDbCircle
 10
1196.123399643911
 20
515.0778129984582
 30
0.0
 40
0.5
100
AcDbArc
 50
1.253145319143082
 51
90.0
  0
LINE
  5
52C
330
19
100
AcDbEntity
  8
SEIHIN
  6
CONTINUOUS
 62
     3
100
AcDbLine
 10
1127.11268175851
 20
538.5778129984583
 30
0.0
 11
1127.11268175851
 21
535.5778129984583
 31
0.0
  0
LINE
  5
52D
330
19
100
AcDbEntity
  8
SEIHIN
  6
CONTINUOUS
 62
     3
100
AcDbLine
 10
1087.11268175851
 20
538.5778129984583
 30
0.0
 11
1087.11268175851
 21
535.5778129984583
 31
0.0
  0
LINE
  5
52E
330
19
100
AcDbEntity
  8
SEIHIN
  6
CONTINUOUS
 62
     3
100
AcDbLine
 10
1087.11268175851
 20
535.5778129984583
 30
0.0
 11
1127.11268175851
 21
535.5778129984583
 31
0.0
  0
LINE
  5
52F
330
19
100
AcDbEntity
  8
CENTER_L
  6
CENTER
 62
     1
 48
5.0
100
AcDbLine
 10
1117.11268175851
 20
543.5778129984583
 30
0.0
 11
1117.11268175851
 21
530.5778129984583
 31
0.0
  0
LINE
  5
530
330
19
100
AcDbEntity
  8
CENTER_L
  6
CENTER
 62
     1
 48
5.0
100
AcDbLine
 10
1097.112681758509
 20
543.5778129984583
 30
0.0
 11
1097.112681758509
 21
530.5778129984583
 31
0.0
  0
DIMENSION
  5
553
330
19
100
AcDbEntity
  8
SUNPOU
  6
CONTINUOUS
 62
     4
100
AcDbDimension
  2
*D1
 10
847.8894520867651
 20
498.5778129984582
 30
0.0
 11
837.8894520867651
 21
518.5778129984583
 31
0.0
 12
24.56446126275114
 22
-4.454993762512458
 32
0.0
 70
    32
  3
STANDARD
100
AcDbAlignedDimension
 13
806.1737217585696
 23
538.5778129984583
 33
0.0
 14
784.4416575443731
 24
498.5778129984582
 34
0.0
 50
90.0
100
AcDbRotatedDimension
1001
ACAD
1000
DSTYLE
1002
{
1070
   140
1040
12.0
1070
    74
1070
     0
1070
   172
1070
     1
1070
    73
1070
     0
1070
   272
1070
     2
1070
    77
1070
     3
1070
   173
1070
     1
1070
   147
1040
4.0
1070
    42
1040
12.0
1070
    44
1040
6.0
1070
    43
1040
28.0
1070
   271
1070
     0
1070
   178
1070
     4
1070
   177
1070
     4
1070
   176
1070
     4
1070
   141
1040
150.0
1070
     7
1000
_OPEN
1070
     6
1000
_OPEN
1070
    41
1040
14.0
1070
   143
1040
0.03937
1002
}
  0
DIMENSION
  5
562
330
19
100
AcDbEntity
  8
SUNPOU
  6
CONTINUOUS
 62
     4
100
AcDbDimension
  2
*D2
 10
847.8894520867651
 20
318.5778129984581
 30
0.0
 11
837.8894520867651
 21
276.5778129984581
 31
0.0
 12
24.56446126275114
 22
-4.454993762512458
 32
0.0
 70
    32
  3
STANDARD
100
AcDbAlignedDimension
 13
724.2951817585101
 23
343.5778129984581
 33
0.0
 14
717.2981817585101
 24
318.5778129984581
 34
0.0
 50
90.0
100
AcDbRotatedDimension
1001
ACAD
1000
DSTYLE
1002
{
1070
   140
1040
12.0
1070
    74
1070
     0
1070
   172
1070
     1
1070
    73
1070
     0
1070
   272
1070
     2
1070
    77
1070
     3
1070
   173
1070
     1
1070
   147
1040
4.0
1070
    42
1040
12.0
1070
    44
1040
6.0
1070
    43
1040
28.0
1070
   271
1070
     0
1070
   178
1070
     4
1070
   177
1070
     4
1070
   176
1070
     4
1070
   141
1040
150.0
1070
     7
1000
_OPEN
1070
     6
1000
_OPEN
1070
    41
1040
14.0
1070
   143
1040
0.03937
1002
}
  0
DIMENSION
  5
571
330
19
100
AcDbEntity
  8
SUNPOU
  6
CONTINUOUS
 62
     4
100
AcDbDimension
  2
*D3
 10
800.8381563750617
 20
298.5778129984581
 30
0.0
 11
790.8381563750618
 21
257.5778129984581
 31
0.0
 12
24.56446126275114
 22
-4.454993762512458
 32
0.0
 70
    32
  3
STANDARD
100
AcDbAlignedDimension
 13
717.2981817585101
 23
318.5778129984581
 33
0.0
 14
715.5981817585101
 24
298.5778129984581
 34
0.0
 50
90.0
100
AcDbRotatedDimension
1001
ACAD
1000
DSTYLE
1002
{
1070
   140
1040
12.0
1070
    74
1070
     0
1070
   172
1070
     1
1070
    73
1070
     0
1070
   272
1070
     2
1070
    77
1070
     3
1070
   173
1070
     1
1070
   147
1040
4.0
1070
    42
1040
12.0
1070
    44
1040
6.0
1070
    43
1040
28.0
1070
   271
1070
     0
1070
   178
1070
     4
1070
   177
1070
     4
1070
   176
1070
     4
1070
   141
1040
150.0
1070
     7
1000
_OPEN
1070
     6
1000
_OPEN
1070
    41
1040
14.0
1070
   143
1040
0.03937
1002
}
  0
DIMENSION
  5
57E
330
19
100
AcDbEntity
  8
SUNPOU
  6
CONTINUOUS
 62
     4
100
AcDbDimension
  2
*D4
 10
885.1862162489579
 20
343.5778129984581
 30
0.0
 11
875.1862162489578
 21
441.0778129984582
 31
0.0
 12
24.56446126275114
 22
-4.454993762512458
 32
0.0
 70
    32
  3
STANDARD
100
AcDbAlignedDimension
 13
806.1737217585696
 23
538.5778129984583
 33
0.0
 14
724.2951817585101
 24
343.5778129984581
 34
0.0
 50
90.0
100
AcDbRotatedDimension
1001
ACAD
1000
DSTYLE
1002
{
1070
   140
1040
12.0
1070
    74
1070
     0
1070
   172
1070
     1
1070
    73
1070
     0
1070
   272
1070
     2
1070
    77
1070
     3
1070
   173
1070
     1
1070
   147
1040
4.0
1070
    42
1040
12.0
1070
    44
1040
6.0
1070
    43
1040
28.0
1070
   271
1070
     0
1070
   178
1070
     4
1070
   177
1070
     4
1070
   176
1070
     4
1070
   141
1040
150.0
1070
     7
1000
_OPEN
1070
     6
1000
_OPEN
1070
    41
1040
14.0
1070
   143
1040
0.03937
1002
}
  0
DIMENSION
  5
58B
330
19
100
AcDbEntity
  8
SUNPOU
  6
CONTINUOUS
 62
     4
100
AcDbDimension
  2
*D5
 10
924.7781629135051
 20
298.5778129984581
 30
0.0
 11
914.7781629135051
 21
418.5778129984582
 31
0.0
 12
24.56446126275114
 22
-4.454993762512458
 32
0.0
 70
    32
  3
STANDARD
100
AcDbAlignedDimension
 13
806.1737217585696
 23
538.5778129984583
 33
0.0
 14
715.5981817585101
 24
298.5778129984581
 34
0.0
 50
90.0
100
AcDbRotatedDimension
1001
ACAD
1000
DSTYLE
1002
{
1070
   140
1040
12.0
1070
    74
1070
     0
1070
   172
1070
     1
1070
    73
1070
     0
1070
   272
1070
     2
1070
    77
1070
     3
1070
   173
1070
     1
1070
   147
1040
4.0
1070
    42
1040
12.0
1070
    44
1040
6.0
1070
    43
1040
28.0
1070
   271
1070
     0
1070
   178
1070
     4
1070
   177
1070
     4
1070
   176
1070
     4
1070
   141
1040
150.0
1070
     7
1000
_OPEN
1070
     6
1000
_OPEN
1070
    41
1040
14.0
1070
   143
1040
0.03937
1002
}
  0
DIMENSION
  5
598
330
19
100
AcDbEntity
  8
SUNPOU
  6
CONTINUOUS
 62
     4
100
AcDbDimension
  2
*D6
 10
659.7132817585101
 20
250.7891051263163
 30
0.0
 11
688.1732317585101
 21
260.7891051263163
 31
0.0
 12
24.56446126275114
 22
-4.454993762512458
 32
0.0
 70
    32
  1
φ<>
  3
STANDARD
100
AcDbAlignedDimension
 13
716.6331817585101
 23
299.5772129984582
 33
0.0
 14
659.7132817585101
 24
299.5772129984582
 34
0.0
100
AcDbRotatedDimension
1001
ACAD
1000
DSTYLE
1002
{
1070
   140
1040
12.0
1070
    74
1070
     0
1070
   172
1070
     1
1070
    73
1070
     0
1070
   272
1070
     2
1070
    77
1070
     3
1070
   173
1070
     1
1070
   147
1040
4.0
1070
    42
1040
12.0
1070
    44
1040
6.0
1070
    43
1040
28.0
1070
   271
1070
     0
1070
   178
1070
     4
1070
   177
1070
     4
1070
   176
1070
     4
1070
   141
1040
150.0
1070
     7
1000
_OPEN
1070
     6
1000
_OPEN
1070
    41
1040
14.0
1070
   143
1040
0.03937
1002
}
  0
DIMENSION
  5
5A5
330
19
100
AcDbEntity
  8
SUNPOU
  6
CONTINUOUS
 62
     4
100
AcDbDimension
  2
*D7
 10
652.8055817585101
 20
211.3390881800524
 30
0.0
 11
688.17318175851
 21
221.3390881800524
 31
0.0
 12
24.56446126275114
 22
-4.454993762512458
 32
0.0
 70
    32
  1
φ<>
  3
STANDARD
100
AcDbAlignedDimension
 13
723.5407817585101
 23
324.0333129984581
 33
0.0
 14
652.8055817585101
 24
324.0333129984581
 34
0.0
100
AcDbRotatedDimension
1001
ACAD
1000
DSTYLE
1002
{
1070
   140
1040
12.0
1070
    74
1070
     0
1070
   172
1070
     1
1070
    73
1070
     0
1070
   272
1070
     2
1070
    77
1070
     3
1070
   173
1070
     1
1070
   147
1040
4.0
1070
    42
1040
12.0
1070
    44
1040
6.0
1070
    43
1040
28.0
1070
   271
1070
     0
1070
   178
1070
     4
1070
   177
1070
     4
1070
   176
1070
     4
1070
   141
1040
150.0
1070
     7
1000
_OPEN
1070
     6
1000
_OPEN
1070
    41
1040
14.0
1070
   143
1040
0.03937
1002
}
  0
DIMENSION
  5
5B2
330
19
100
AcDbEntity
  8
SUNPOU
  6
CONTINUOUS
 62
     4
100
AcDbDimension
  2
*D8
 10
618.1733057722267
 20
169.6460917741728
 30
0.0
 11
688.173233269159
 21
179.6460917741728
 31
0.0
 12
24.56446126275114
 22
-4.454993762512458
 32
0.0
 70
    32
  3
STANDARD
100
AcDbAlignedDimension
 13
758.1731607660913
 23
353.5778012201485
 33
0.0
 14
618.1733057722267
 24
353.5777792107223
 34
0.0
100
AcDbRotatedDimension
1001
ACAD
1000
DSTYLE
1002
{
1070
   140
1040
12.0
1070
    74
1070
     0
1070
   172
1070
     1
1070
    73
1070
     0
1070
   272
1070
     2
1070
    77
1070
     3
1070
   173
1070
     1
1070
   147
1040
4.0
1070
    42
1040
12.0
1070
    44
1040
6.0
1070
    43
1040
28.0
1070
   271
1070
     0
1070
   178
1070
     4
1070
   177
1070
     4
1070
   176
1070
     4
1070
   141
1040
150.0
1070
     7
1000
_OPEN
1070
     6
1000
_OPEN
1070
    41
1040
14.0
1070
   143
1040
0.03937
1002
}
  0
DIMENSION
  5
605
330
19
100
AcDbEntity
  8
SUNPOU
  6
CONTINUOUS
 62
     4
100
AcDbDimension
  2
*D9
 10
596.67278175851
 20
572.315626194199
 30
0.0
 11
688.17318175851
 21
582.3156261941989
 31
0.0
 12
24.56446126275114
 22
-4.454993762512458
 32
0.0
 70
    32
  3
STANDARD
100
AcDbAlignedDimension
 13
779.67358175851
 23
503.3458887843213
 33
0.0
 14
596.67278175851
 24
503.3458887843213
 34
0.0
100
AcDbRotatedDimension
1001
ACAD
1000
DSTYLE
1002
{
1070
   140
1040
12.0
1070
    74
1070
     0
1070
   172
1070
     1
1070
    73
1070
     0
1070
   272
1070
     2
1070
    77
1070
     3
1070
   173
1070
     1
1070
   147
1040
4.0
1070
    42
1040
12.0
1070
    44
1040
6.0
1070
    43
1040
28.0
1070
   271
1070
     0
1070
   178
1070
     4
1070
   177
1070
     4
1070
   176
1070
     4
1070
   141
1040
150.0
1070
     7
1000
_OPEN
1070
     6
1000
_OPEN
1070
    41
1040
14.0
1070
   143
1040
0.03937
1002
}
  0
DIMENSION
  5
612
330
19
100
AcDbEntity
  8
SUNPOU
  6
CONTINUOUS
 62
     4
100
AcDbDimension
  2
*D10
 10
585.17278175851
 20
610.0626580874295
 30
0.0
 11
688.17318175851
 21
620.0626580874295
 31
0.0
 12
24.56446126275114
 22
-4.454993762512458
 32
0.0
 70
    32
  3
STANDARD
100
AcDbAlignedDimension
 13
791.1735817585101
 23
538.5778129984583
 33
0.0
 14
585.17278175851
 24
538.5778129984583
 34
0.0
100
AcDbRotatedDimension
1001
ACAD
1000
DSTYLE
1002
{
1070
   140
1040
12.0
1070
    74
1070
     0
1070
   172
1070
     1
1070
    73
1070
     0
1070
   272
1070
     2
1070
    77
1070
     3
1070
   173
1070
     1
1070
   147
1040
4.0
1070
    42
1040
12.0
1070
    44
1040
6.0
1070
    43
1040
28.0
1070
   271
1070
     0
1070
   178
1070
     4
1070
   177
1070
     4
1070
   176
1070
     4
1070
   141
1040
150.0
1070
     7
1000
_OPEN
1070
     6
1000
_OPEN
1070
    41
1040
14.0
1070
   143
1040
0.03937
1002
}
  0
DIMENSION
  5
62C
330
19
100
AcDbEntity
  8
SUNPOU
  6
CONTINUOUS
 62
     4
100
AcDbDimension
  2
*D11
 10
570.1729259648662
 20
647.3168384038062
 30
0.0
 11
688.1733238617179
 21
657.3168384038062
 31
0.0
 12
22.29342886397262
 22
-4.454993762512458
 32
0.0
 70
    32
  3
STANDARD
100
AcDbAlignedDimension
 13
806.1737217585696
 23
538.5778129984583
 33
0.0
 14
570.1729259648662
 24
538.5778129984583
 34
0.0
100
AcDbRotatedDimension
1001
ACAD
1000
DSTYLE
1002
{
1070
   140
1040
12.0
1070
    74
1070
     0
1070
   172
1070
     1
1070
    73
1070
     0
1070
   272
1070
     2
1070
    77
1070
     3
1070
   173
1070
     1
1070
   147
1040
4.0
1070
    42
1040
12.0
1070
    44
1040
6.0
1070
    43
1040
28.0
1070
   271
1070
     0
1070
   178
1070
     4
1070
   177
1070
     4
1070
   176
1070
     4
1070
   141
1040
150.0
1070
     7
1000
_OPEN
1070
     6
1000
_OPEN
1070
    41
1040
14.0
1070
   143
1040
0.03937
1002
}
  0
DIMENSION
  5
66C
330
19
100
AcDbEntity
  8
SUNPOU
  6
CONTINUOUS
 62
     4
100
AcDbDimension
  2
*D12
 10
1014.11268175851
 20
572.5540333457761
 30
0.0
 11
1107.11263175851
 21
582.5540333457761
 31
0.0
 12
22.29342886397262
 22
-4.454993762512458
 32
0.0
 70
    32
  3
STANDARD
100
AcDbAlignedDimension
 13
1200.11258175851
 23
538.5778129984583
 33
0.0
 14
1014.11268175851
 24
538.5778129984583
 34
0.0
100
AcDbRotatedDimension
1001
ACAD
1000
DSTYLE
1002
{
1070
   140
1040
12.0
1070
    74
1070
     0
1070
   172
1070
     1
1070
    73
1070
     0
1070
   272
1070
     2
1070
    77
1070
     3
1070
   173
1070
     1
1070
   147
1040
4.0
1070
    42
1040
12.0
1070
    44
1040
6.0
1070
    43
1040
28.0
1070
   271
1070
     0
1070
   178
1070
     4
1070
   177
1070
     4
1070
   176
1070
     4
1070
   141
1040
150.0
1070
     7
1000
_OPEN
1070
     6
1000
_OPEN
1070
    41
1040
14.0
1070
   143
1040
0.03937
1002
}
  0
DIMENSION
  5
679
330
19
100
AcDbEntity
  8
SUNPOU
  6
CONTINUOUS
 62
     4
100
AcDbDimension
  2
*D13
 10
1135.112581758509
 20
250.904513543745
 30
0.0
 11
1167.11898175851
 21
260.904513543745
 31
0.0
 12
54.56446126275114
 22
-4.454993762512458
 32
0.0
 70
    32
  3
STANDARD
100
AcDbAlignedDimension
 13
1199.12538175851
 23
355.9154129984582
 33
0.0
 14
1135.112581758509
 24
280.2673129984582
 34
0.0
100
AcDbRotatedDimension
1001
ACAD
1000
DSTYLE
1002
{
1070
   140
1040
12.0
1070
    74
1070
     0
1070
   172
1070
     1
1070
    73
1070
     0
1070
   272
1070
     2
1070
    77
1070
     3
1070
   173
1070
     1
1070
   147
1040
4.0
1070
    42
1040
12.0
1070
    44
1040
6.0
1070
    43
1040
28.0
1070
   271
1070
     0
1070
   178
1070
     4
1070
   177
1070
     4
1070
   176
1070
     4
1070
   141
1040
150.0
1070
     7
1000
_OPEN
1070
     6
1000
_OPEN
1070
    41
1040
14.0
1070
   143
1040
0.03937
1002
}
  0
DIMENSION
  5
686
330
19
100
AcDbEntity
  8
SUNPOU
  6
CONTINUOUS
 62
     4
100
AcDbDimension
  2
*D14
 10
1054.112672332382
 20
211.1060521604767
 30
0.0
 11
1126.612710274426
 21
221.1060521604768
 31
0.0
 12
54.56446126275114
 22
-4.454993762512458
 32
0.0
 70
    32
  3
STANDARD
100
AcDbAlignedDimension
 13
1199.11274821647
 23
353.5778186816719
 33
0.0
 14
1054.112672332382
 24
353.5779720448498
 34
0.0
100
AcDbRotatedDimension
1001
ACAD
1000
DSTYLE
1002
{
1070
   140
1040
12.0
1070
    74
1070
     0
1070
   172
1070
     1
1070
    73
1070
     0
1070
   272
1070
     2
1070
    77
1070
     3
1070
   173
1070
     1
1070
   147
1040
4.0
1070
    42
1040
12.0
1070
    44
1040
6.0
1070
    43
1040
28.0
1070
   271
1070
     0
1070
   178
1070
     4
1070
   177
1070
     4
1070
   176
1070
     4
1070
   141
1040
150.0
1070
     7
1000
_OPEN
1070
     6
1000
_OPEN
1070
    41
1040
14.0
1070
   143
1040
0.03937
1002
}
  0
DIMENSION
  5
695
330
19
100
AcDbEntity
  8
SUNPOU
  6
CONTINUOUS
 62
     4
100
AcDbDimension
  2
*D15
 10
847.7169330964679
 20
861.8108973158248
 30
0.0
 11
837.7169330964679
 21
820.8108973158248
 31
0.0
 12
24.56446126275114
 22
5.545006237487541
 32
0.0
 70
    32
  3
STANDARD
100
AcDbAlignedDimension
 13
803.8564460487499
 23
881.8108973158237
 33
0.0
 14
803.856434937651
 24
861.8108973158248
 34
0.0
 50
90.0
100
AcDbRotatedDimension
1001
ACAD
1000
DSTYLE
1002
{
1070
   140
1040
12.0
1070
    74
1070
     0
1070
   172
1070
     1
1070
    73
1070
     0
1070
   272
1070
     2
1070
    77
1070
     3
1070
   173
1070
     1
1070
   147
1040
4.0
1070
    42
1040
12.0
1070
    44
1040
6.0
1070
    43
1040
28.0
1070
   271
1070
     0
1070
   178
1070
     4
1070
   177
1070
     4
1070
   176
1070
     4
1070
   141
1040
150.0
1070
     7
1000
_OPEN
1070
     6
1000
_OPEN
1070
    41
1040
14.0
1070
   143
1040
0.03937
1002
}
  0
LINE
  5
6B7
330
19
100
AcDbEntity
  8
CENTER_L
  6
CENTER
 62
     1
 48
5.0
100
AcDbLine
 10
1191.942318452912
 20
498.5778129984582
 30
0.0
 11
1209.065522991843
 21
498.5778129984582
 31
0.0
  0
DIMENSION
  5
6CB
330
19
100
AcDbEntity
  8
SUNPOU
  6
CONTINUOUS
100
AcDbDimension
  2
*D16
 10
882.7829492227229
 20
851.8108969985366
 30
0.0
 11
882.7829492227229
 21
816.7492108379152
 31
0.0
 12
22.29342886397262
 22
5.545006237487541
 32
0.0
 70
   160
  3
STANDARD
100
AcDbAlignedDimension
 13
804.1737437585377
 23
891.8108969985329
 33
0.0
 14
804.1737197585799
 24
851.8108969985366
 34
0.0
 50
90.0
100
AcDbRotatedDimension
1001
ACAD
1000
DSTYLE
1002
{
1070
   288
1070
     1
1070
   140
1040
12.0
1070
    74
1070
     0
1070
   172
1070
     1
1070
    73
1070
     0
1070
   272
1070
     2
1070
    77
1070
     3
1070
   173
1070
     1
1070
   147
1040
4.0
1070
    42
1040
12.0
1070
    44
1040
6.0
1070
    43
1040
28.0
1070
   271
1070
     0
1070
   178
1070
     4
1070
   177
1070
     4
1070
   176
1070
     4
1070
   141
1040
150.0
1070
     7
1000
_OPEN
1070
     6
1000
_OPEN
1070
    41
1040
14.0
1070
   143
1040
0.03937
1002
}
  0
LINE
  5
6CD
330
19
100
AcDbEntity
  8
CENTER_L
  6
CENTER
 62
     1
 48
5.0
100
AcDbLine
 10
814.0911921819787
 20
871.8108973158244
 30
0.0
 11
781.1796253363247
 21
871.8108973158244
 31
0.0
  0
LINE
  5
6D4
330
19
100
AcDbEntity
  8
CENTER_L
  6
CENTER
 62
     1
 48
5.0
100
AcDbLine
 10
562.2554727807936
 20
871.8110179124774
 30
0.0
 11
595.1670396264327
 21
871.810986391732
 31
0.0
  0
DIMENSION
  5
6E1
330
19
100
AcDbEntity
  8
SUNPOU
  6
CONTINUOUS
100
AcDbDimension
  2
*D17
 10
919.0552197207935
 20
871.8108973158244
 30
0.0
 11
909.0552197207935
 21
918.3108051571412
 31
0.0
 12
22.29342886397262
 22
5.545006237487541
 32
0.0
 70
    32
  3
STANDARD
100
AcDbAlignedDimension
 13
788.1737817585101
 23
964.8107129984582
 33
0.0
 14
814.0911921819787
 24
871.8108973158244
 34
0.0
 50
90.0
100
AcDbRotatedDimension
1001
ACAD
1000
DSTYLE
1002
{
1070
   140
1040
12.0
1070
    74
1070
     0
1070
   172
1070
     1
1070
    73
1070
     0
1070
   272
1070
     2
1070
    77
1070
     3
1070
   173
1070
     1
1070
   147
1040
4.0
1070
    42
1040
12.0
1070
    44
1040
6.0
1070
    43
1040
28.0
1070
   271
1070
     0
1070
   178
1070
     4
1070
   177
1070
     4
1070
   176
1070
     4
1070
   141
1040
150.0
1070
     7
1000
_OPEN
1070
     6
1000
_OPEN
1070
    41
1040
14.0
1070
   143
1040
0.03937
1002
}
  0
LEADER
  5
6E2
330
19
100
AcDbEntity
  8
SUNPOU
  6
CONTINUOUS
 62
     4
100
AcDbLeader
  3
STANDARD
 73
     0
 74
     0
 40
12.0
 41
62.39999999999999
 76
     3
 10
800.410790494261
 20
883.3753518831468
 30
0.0
 10
807.883963138569
 20
919.3401913183743
 30
0.0
 10
811.1748974193824
 20
919.3401913183743
 30
0.0
1001
ACAD
1000
DSTYLE
1002
{
1070
     6
1000
OPEN
1070
    41
1040
14.0
1070
    42
1040
12.0
1070
    43
1040
28.0
1070
    44
1040
6.0
1070
    73
1070
     0
1070
    74
1070
     0
1070
    77
1070
     3
1070
   140
1040
12.0
1070
   141
1040
150.0
1070
   143
1040
0.03937
1070
   147
1040
4.0
1070
   172
1070
     1
1070
   173
1070
     1
1070
   176
1070
     4
1070
   177
1070
     4
1070
   178
1070
     4
1070
   271
1070
     0
1070
   272
1070
     2
1070
   341
1005
27
1070
   343
1005
27
1070
   344
1005
27
1002
}
1000
LEANOF
1010
0.0
1020
0.0
1030
0.0
  0
MTEXT
  5
6E3
330
19
100
AcDbEntity
  8
SUNPOU
  6
CONTINUOUS
 62
     4
100
AcDbMText
 10
815.1748974193823
 20
923.3401913183742
 30
0.0
 40
12.0
 41
0.0
 71
     7
 72
     1
  1
4-φ4.5
1001
ACAD
1000
MTEXTBEGIN
1070
    73
1070
     1
1070
    44
1040
1.0
1070
    74
1070
     0
1000
MTEXTEND
1000
MTEXTBEGIN
1070
    73
1070
     1
1070
    44
1040
1.0
1070
    74
1070
     0
1000
MTEXTEND
1000
MTEXTBEGIN
1070
    73
1070
     1
1070
    44
1040
1.0
1070
    74
1070
     0
1000
MTEXTEND
  0
DIMENSION
  5
6FD
330
19
100
AcDbEntity
  8
SUNPOU
  6
CONTINUOUS
100
AcDbDimension
  2
*D18
 10
577.6729270979407
 20
724.6751027346745
 30
0.0
 11
688.1733252108364
 21
734.6751027346745
 31
0.0
 12
22.29342886397262
 22
5.545006237487541
 32
0.0
 70
    32
  3
STANDARD
100
AcDbAlignedDimension
 13
798.6737233237321
 23
856.6281937638663
 33
0.0
 14
577.6729270979407
 24
856.6282995945895
 34
0.0
100
AcDbRotatedDimension
1001
ACAD
1000
DSTYLE
1002
{
1070
   140
1040
12.0
1070
    74
1070
     0
1070
   172
1070
     1
1070
    73
1070
     0
1070
   272
1070
     2
1070
    77
1070
     3
1070
   173
1070
     1
1070
   147
1040
4.0
1070
    42
1040
12.0
1070
    44
1040
6.0
1070
    43
1040
28.0
1070
   271
1070
     0
1070
   178
1070
     4
1070
   177
1070
     4
1070
   176
1070
     4
1070
   141
1040
150.0
1070
     7
1000
_OPEN
1070
     6
1000
_OPEN
1070
    41
1040
14.0
1070
   143
1040
0.03937
1002
}
  0
VIEWPORT
  5
22
330
16
100
AcDbEntity
 67
     1
  8
0
100
AcDbViewport
 10
313.6808219178082
 20
148.5
 30
0.0
 40
627.3616438356165
 41
297.0
 68
     2
 69
     1
1001
ACAD
1000
MVIEW
1002
{
1070
    16
1010
0.0
1020
0.0
1030
0.0
1010
0.0
1020
0.0
1030
1.0
1040
0.0
1040
297.0
1040
313.6808219178082
1040
148.5
1040
50.0
1040
0.0
1040
0.0
1070
     0
1070
   100
1070
     1
1070
     0
1070
     0
1070
     0
1070
     0
1070
     0
1040
0.0
1040
0.0
1040
0.0
1040
10.0
1040
10.0
1040
10.0
1040
10.0
1070
     0
1002
{
1002
}
1002
}
  0
VIEWPORT
  5
25
330
16
100
AcDbEntity
 67
     1
  8
VIEWPORT
100
AcDbViewport
 10
210.0
 20
148.5
 30
0.0
 40
420.0
 41
297.0
 68
     1
 69
     2
1001
ACAD
1000
MVIEW
1002
{
1070
    16
1010
0.0
1020
0.0
1030
0.0
1010
0.0
1020
0.0
1030
1.0
1040
0.0
1040
1212.607689320388
1040
841.0
1040
594.0
1040
50.0
1040
0.0
1040
0.0
1070
     0
1070
   100
1070
     1
1070
     0
1070
     0
1070
     0
1070
     0
1070
     0
1040
0.0
1040
0.0
1040
0.0
1040
57.0
1040
57.0
1040
57.0
1040
57.0
1070
     0
1002
{
1002
}
1002
}
  0
ENDSEC
  0
SECTION
  2
OBJECTS
  0
DICTIONARY
  5
C
330
0
100
AcDbDictionary
  3
ACAD_GROUP
350
D
  3
ACAD_LAYOUT
350
703
  3
ACAD_MLINESTYLE
350
E
  3
ACAD_PLOTSETTINGS
350
704
1001
ACAD
1000
TREAT_AS_HARD
1070
     0
  0
DICTIONARY
  5
732
330
19
100
AcDbDictionary
  3
ACAD_LAYOUTSELFREF
350
776
1001
ACAD
1000
TREAT_AS_HARD
1070
     1
  0
DICTIONARY
  5
730
330
16
100
AcDbDictionary
  3
ACAD_LAYOUTSELFREF
350
775
1001
ACAD
1000
TREAT_AS_HARD
1070
     1
  0
DICTIONARY
  5
D
102
{ACAD_REACTORS
330
C
102
}
330
C
100
AcDbDictionary
1001
ACAD
1000
TREAT_AS_HARD
1070
     0
  0
DICTIONARY
  5
703
102
{ACAD_REACTORS
330
C
102
}
330
C
100
AcDbDictionary
1001
ACAD
1000
TREAT_AS_HARD
1070
     0
  0
DICTIONARY
  5
E
102
{ACAD_REACTORS
330
C
102
}
330
C
100
AcDbDictionary
  3
STANDARD
350
1C
1001
ACAD
1000
TREAT_AS_HARD
1070
     0
  0
DICTIONARY
  5
704
102
{ACAD_REACTORS
330
C
102
}
330
C
100
AcDbDictionary
1001
ACAD
1000
TREAT_AS_HARD
1070
     0
  0
XRECORD
  5
776
102
{ACAD_REACTORS
330
732
102
}
330
732
100
AcDbXrecord
340
19
  0
XRECORD
  5
775
102
{ACAD_REACTORS
330
730
102
}
330
730
100
AcDbXrecord
340
16
  0
MLINESTYLE
  5
1C
102
{ACAD_REACTORS
330
E
102
}
330
E
100
AcDbMlineStyle
  2
STANDARD
 70
     0
  3

 62
     0
 51
90.0
 52
90.0
 71
     2
 49
0.5
 62
   256
  6
BYLAYER
 49
-0.5
 62
   256
  6
BYLAYER
  0
ENDSEC
  0
EOF
