  0
SECTION
  2
HEADER
  9
$ACADVER
  1
AC1012
  9
$DWGCODEPAGE
  3
dos932
  9
$INSBASE
 10
0.0
 20
0.0
 30
0.0
  9
$EXTMIN
 10
19.83926785532275
 20
5.764529139926253
 30
-0.0000000349181948
  9
$EXTMAX
 10
1611.985111256578
 20
1124.227663824599
 30
0.0000000814935746
  9
$LIMMIN
 10
0.0
 20
0.0
  9
$LIMMAX
 10
1682.0
 20
1188.0
  9
$ORTHOMODE
 70
     1
  9
$REGENMODE
 70
     1
  9
$FILLMODE
 70
     1
  9
$QTEXTMODE
 70
     0
  9
$MIRRTEXT
 70
     1
  9
$DRAGMODE
 70
     2
  9
$LTSCALE
 40
5.657142857142857
  9
$OSMODE
 70
    37
  9
$ATTMODE
 70
     1
  9
$TEXTSIZE
 40
19.8
  9
$TRACEWID
 40
0.05
  9
$TEXTSTYLE
  7
STANDARD
  9
$CLAYER
  8
CENTER_L
  9
$CELTYPE
  6
BYLAYER
  9
$CECOLOR
 62
   256
  9
$CELTSCALE
 40
1.0
  9
$DELOBJ
 70
     1
  9
$DISPSILH
 70
     0
  9
$DIMSCALE
 40
1.0
  9
$DIMASZ
 40
14.0
  9
$DIMEXO
 40
12.0
  9
$DIMDLI
 40
28.0
  9
$DIMRND
 40
0.0
  9
$DIMDLE
 40
0.0
  9
$DIMEXE
 40
6.0
  9
$DIMTP
 40
0.0
  9
$DIMTM
 40
0.0
  9
$DIMTXT
 40
12.0
  9
$DIMCEN
 40
150.0
  9
$DIMTSZ
 40
0.0
  9
$DIMTOL
 70
     0
  9
$DIMLIM
 70
     0
  9
$DIMTIH
 70
     0
  9
$DIMTOH
 70
     0
  9
$DIMSE1
 70
     0
  9
$DIMSE2
 70
     0
  9
$DIMTAD
 70
     3
  9
$DIMZIN
 70
     0
  9
$DIMBLK
  1

  9
$DIMASO
 70
     1
  9
$DIMSHO
 70
     1
  9
$DIMPOST
  1

  9
$DIMAPOST
  1

  9
$DIMALT
 70
     0
  9
$DIMALTD
 70
     2
  9
$DIMALTF
 40
0.03937
  9
$DIMLFAC
 40
1.0
  9
$DIMTOFL
 70
     1
  9
$DIMTVP
 40
0.0
  9
$DIMTIX
 70
     0
  9
$DIMSOXD
 70
     0
  9
$DIMSAH
 70
     1
  9
$DIMBLK1
  1
OPEN
  9
$DIMBLK2
  1
OPEN
  9
$DIMSTYLE
  2
STANDARD
  9
$DIMCLRD
 70
   256
  9
$DIMCLRE
 70
   256
  9
$DIMCLRT
 70
   256
  9
$DIMTFAC
 40
1.0
  9
$DIMGAP
 40
4.0
  9
$DIMJUST
 70
     0
  9
$DIMSD1
 70
     0
  9
$DIMSD2
 70
     0
  9
$DIMTOLJ
 70
     1
  9
$DIMTZIN
 70
     0
  9
$DIMALTZ
 70
     0
  9
$DIMALTTZ
 70
     0
  9
$DIMFIT
 70
     3
  9
$DIMUPT
 70
     0
  9
$DIMUNIT
 70
     2
  9
$DIMDEC
 70
     0
  9
$DIMTDEC
 70
     0
  9
$DIMALTU
 70
     2
  9
$DIMALTTD
 70
     2
  9
$DIMTXSTY
  7
STANDARD
  9
$DIMAUNIT
 70
     0
  9
$LUNITS
 70
     2
  9
$LUPREC
 70
     4
  9
$SKETCHINC
 40
0.1
  9
$FILLETRAD
 40
0.5
  9
$AUNITS
 70
     0
  9
$AUPREC
 70
     0
  9
$MENU
  1
acad
  9
$ELEVATION
 40
0.0
  9
$PELEVATION
 40
0.0
  9
$THICKNESS
 40
0.0
  9
$LIMCHECK
 70
     0
  9
$BLIPMODE
 70
     0
  9
$CHAMFERA
 40
56.57142857142858
  9
$CHAMFERB
 40
56.57142857142858
  9
$CHAMFERC
 40
113.1428571428571
  9
$CHAMFERD
 40
0.0
  9
$SKPOLY
 70
     0
  9
$TDCREATE
 40
2450994.355304167
  9
$TDUPDATE
 40
2452445.849119444
  9
$TDINDWG
 40
0.0592277778
  9
$TDUSRTIMER
 40
0.0592277778
  9
$USRTIMER
 70
     1
  9
$ANGBASE
 50
0.0
  9
$ANGDIR
 70
     0
  9
$PDMODE
 70
     1
  9
$PDSIZE
 40
0.0
  9
$PLINEWID
 40
0.0
  9
$COORDS
 70
     1
  9
$SPLFRAME
 70
     0
  9
$SPLINETYPE
 70
     6
  9
$SPLINESEGS
 70
     8
  9
$ATTDIA
 70
     0
  9
$ATTREQ
 70
     1
  9
$HANDLING
 70
 10241
  9
$HANDSEED
  5
774
  9
$SURFTAB1
 70
     6
  9
$SURFTAB2
 70
     6
  9
$SURFTYPE
 70
     6
  9
$SURFU
 70
     6
  9
$SURFV
 70
     6
  9
$UCSNAME
  2

  9
$UCSORG
 10
0.0
 20
0.0
 30
0.0
  9
$UCSXDIR
 10
1.0
 20
0.0
 30
0.0
  9
$UCSYDIR
 10
0.0
 20
1.0
 30
0.0
  9
$PUCSNAME
  2

  9
$PUCSORG
 10
0.0
 20
0.0
 30
0.0
  9
$PUCSXDIR
 10
1.0
 20
0.0
 30
0.0
  9
$PUCSYDIR
 10
0.0
 20
1.0
 30
0.0
  9
$USERI1
 70
     0
  9
$USERI2
 70
     0
  9
$USERI3
 70
     0
  9
$USERI4
 70
     0
  9
$USERI5
 70
     0
  9
$USERR1
 40
0.0
  9
$USERR2
 40
0.0
  9
$USERR3
 40
0.0
  9
$USERR4
 40
0.0
  9
$USERR5
 40
0.0
  9
$WORLDVIEW
 70
     1
  9
$SHADEDGE
 70
     3
  9
$SHADEDIF
 70
    70
  9
$TILEMODE
 70
     1
  9
$MAXACTVP
 70
    16
  9
$PINSBASE
 10
0.0
 20
0.0
 30
0.0
  9
$PLIMCHECK
 70
     0
  9
$PEXTMIN
 10
0.0
 20
0.0
 30
0.0
  9
$PEXTMAX
 10
420.0
 20
297.0
 30
0.0
  9
$PLIMMIN
 10
0.0
 20
0.0
  9
$PLIMMAX
 10
420.0
 20
297.0
  9
$UNITMODE
 70
     0
  9
$VISRETAIN
 70
     0
  9
$PLINEGEN
 70
     0
  9
$PSLTSCALE
 70
     1
  9
$TREEDEPTH
 70
  3020
  9
$PICKSTYLE
 70
     1
  9
$CMLSTYLE
  2
STANDARD
  9
$CMLJUST
 70
     0
  9
$CMLSCALE
 40
20.0
  9
$SAVEIMAGES
 70
     1
  0
ENDSEC
  0
SECTION
  2
CLASSES
  0
CLASS
  1
ACDBDICTIONARYWDFLT
  2
AcDbDictionaryWithDefault
  3
AutoCAD 2000
 90
    32768
280
     0
281
     0
  0
CLASS
  1
ACDBPLACEHOLDER
  2
AcDbPlaceHolder
  3
AutoCAD 2000
 90
    32768
280
     0
281
     0
  0
CLASS
  1
LAYOUT
  2
AcDbLayout
  3
AutoCAD 2000
 90
    32768
280
     0
281
     0
  0
CLASS
  1
LONG_TRANSACTION
  2
AcDbLongTransaction
  3
AutoCAD 2000
 90
    32768
280
     0
281
     0
  0
CLASS
  1
LWPOLYLINE
  2
AcDbPolyline
  3
AutoCAD 2000
 90
    32768
280
     0
281
     1
  0
CLASS
  1
HATCH
  2
AcDbHatch
  3
AutoCAD 2000
 90
    32768
280
     0
281
     1
  0
CLASS
  1
XRECORD
  2
AcDbXrecord
  3
AutoCAD 2000
 90
    32768
280
     0
281
     0
  0
CLASS
  1
LONG_TRANSACTION
  2
AcDbLongTransaction
  3
AutoCAD 2000
 90
    32768
280
     0
281
     0
  0
CLASS
  1
LWPOLYLINE
  2
AcDbPolyline
  3
AutoCAD 2000
 90
    32768
280
     0
281
     1
  0
CLASS
  1
HATCH
  2
AcDbHatch
  3
AutoCAD 2000
 90
    32768
280
     0
281
     1
  0
CLASS
  1
XRECORD
  2
AcDbXrecord
  3
AutoCAD 2000
 90
    32768
280
     0
281
     0
  0
ENDSEC
  0
SECTION
  2
TABLES
  0
TABLE
  2
VPORT
  5
8
330
0
100
AcDbSymbolTable
 70
     2
  0
VPORT
  5
771
330
8
100
AcDbSymbolTableRecord
100
AcDbViewportTableRecord
  2
*ACTIVE
 70
     0
 10
0.0
 20
0.0
 11
1.0
 21
1.0
 12
894.6388380455122
 22
594.0
 13
0.0
 23
0.0
 14
10.0
 24
10.0
 15
10.0
 25
10.0
 16
0.0
 26
0.0
 36
1.0
 17
0.0
 27
0.0
 37
0.0
 40
1201.127071823204
 41
1.840236686390532
 42
50.0
 43
0.0
 44
0.0
 50
0.0
 51
0.0
 71
     0
 72
   100
 73
     1
 74
     0
 75
     0
 76
     0
 77
     0
 78
     0
  0
ENDTAB
  0
TABLE
  2
LTYPE
  5
5
330
0
100
AcDbSymbolTable
 70
     2
  0
LTYPE
  5
13
330
5
100
AcDbSymbolTableRecord
100
AcDbLinetypeTableRecord
  2
BYBLOCK
 70
     0
  3

 72
    65
 73
     0
 40
0.0
  0
LTYPE
  5
14
330
5
100
AcDbSymbolTableRecord
100
AcDbLinetypeTableRecord
  2
BYLAYER
 70
     0
  3

 72
    65
 73
     0
 40
0.0
  0
LTYPE
  5
15
330
5
100
AcDbSymbolTableRecord
100
AcDbLinetypeTableRecord
  2
CONTINUOUS
 70
     0
  3
Solid line
 72
    65
 73
     0
 40
0.0
  0
LTYPE
  5
11C
330
5
100
AcDbSymbolTableRecord
100
AcDbLinetypeTableRecord
  2
CENTER
 70
     0
  3
____ _ ____ _ ____ _ ____ _ ____ _ ____ _ ____ 
 72
    65
 73
     4
 40
2.0
 49
1.25
 74
     0
 49
-0.25
 74
     0
 49
0.25
 74
     0
 49
-0.25
 74
     0
  0
ENDTAB
  0
TABLE
  2
LAYER
  5
2
330
0
100
AcDbSymbolTable
 70
     7
  0
LAYER
  5
F
330
2
100
AcDbSymbolTableRecord
100
AcDbLayerTableRecord
  2
0
 70
     0
 62
     7
  6
CONTINUOUS
  0
LAYER
  5
23
330
2
100
AcDbSymbolTableRecord
100
AcDbLayerTableRecord
  2
VIEWPORT
 70
     0
 62
     7
  6
CONTINUOUS
  0
LAYER
  5
2D
330
2
100
AcDbSymbolTableRecord
100
AcDbLayerTableRecord
  2
ZUWAKU
 70
     0
 62
     7
  6
CONTINUOUS
  0
LAYER
  5
A6
330
2
100
AcDbSymbolTableRecord
100
AcDbLayerTableRecord
  2
DEFPOINTS
 70
     0
 62
     7
  6
CONTINUOUS
  0
LAYER
  5
1E7
330
2
100
AcDbSymbolTableRecord
100
AcDbLayerTableRecord
  2
SEIHIN
 70
     0
 62
     3
  6
CONTINUOUS
  0
LAYER
  5
1E8
330
2
100
AcDbSymbolTableRecord
100
AcDbLayerTableRecord
  2
SUNPOU
 70
     0
 62
     4
  6
CONTINUOUS
  0
LAYER
  5
1E9
330
2
100
AcDbSymbolTableRecord
100
AcDbLayerTableRecord
  2
CENTER_L
 70
     0
 62
     1
  6
CENTER
  0
ENDTAB
  0
TABLE
  2
STYLE
  5
3
330
0
100
AcDbSymbolTable
 70
     1
  0
STYLE
  5
10
330
3
100
AcDbSymbolTableRecord
100
AcDbTextStyleTableRecord
  2
STANDARD
 70
     0
 40
0.0
 41
1.0
 50
0.0
 71
     0
 42
19.8
  3
txt
  4
bigfont.shx
  0
ENDTAB
  0
TABLE
  2
VIEW
  5
6
330
0
100
AcDbSymbolTable
 70
     0
  0
ENDTAB
  0
TABLE
  2
UCS
  5
7
330
0
100
AcDbSymbolTable
 70
     0
  0
ENDTAB
  0
TABLE
  2
APPID
  5
9
330
0
100
AcDbSymbolTable
 70
     1
  0
APPID
  5
11
330
9
100
AcDbSymbolTableRecord
100
AcDbRegAppTableRecord
  2
ACAD
 70
     0
  0
ENDTAB
  0
TABLE
  2
DIMSTYLE
  5
A
330
0
100
AcDbSymbolTable
 70
     1
  0
DIMSTYLE
105
1D
102
{ACAD_REACTORS
330
503
330
512
330
521
330
53B
330
596
330
5A3
330
5B0
330
5CA
330
619
330
626
330
65A
330
669
330
693
330
6B8
330
6C5
330
6FE
330
715
330
722
102
}
330
A
100
AcDbSymbolTableRecord
100
AcDbDimStyleTableRecord
  2
STANDARD
 70
     0
  3

  4

  5

  6

  7

 40
1.0
 41
0.18
 42
0.0625
 43
0.38
 44
0.18
 45
0.0
 46
0.0
 47
0.0
 48
0.0
140
0.18
141
0.09
142
0.0
143
25.4
144
1.0
145
0.0
146
1.0
147
0.09
 71
     0
 72
     0
 73
     1
 74
     1
 75
     0
 76
     0
 77
     0
 78
     0
170
     0
171
     2
172
     0
173
     0
174
     0
175
     0
176
     0
177
     0
178
     0
270
     2
271
     4
272
     4
273
     2
274
     2
340
10
275
     0
280
     0
281
     0
282
     0
283
     1
284
     0
285
     0
286
     0
287
     3
288
     0
  0
ENDTAB
  0
TABLE
  2
BLOCK_RECORD
  5
1
330
0
100
AcDbSymbolTable
 70
    19
  0
BLOCK_RECORD
  5
19
102
{ACAD_XDICTIONARY
360
763
102
}
330
1
100
AcDbSymbolTableRecord
100
AcDbBlockTableRecord
  2
*MODEL_SPACE
  0
BLOCK_RECORD
  5
16
102
{ACAD_XDICTIONARY
360
761
102
}
330
1
100
AcDbSymbolTableRecord
100
AcDbBlockTableRecord
  2
*PAPER_SPACE
  0
BLOCK_RECORD
  5
27
330
1
100
AcDbSymbolTableRecord
100
AcDbBlockTableRecord
  2
_OPEN
  0
BLOCK_RECORD
  5
4F5
330
1
100
AcDbSymbolTableRecord
100
AcDbBlockTableRecord
  2
*D1
  0
BLOCK_RECORD
  5
504
330
1
100
AcDbSymbolTableRecord
100
AcDbBlockTableRecord
  2
*D2
  0
BLOCK_RECORD
  5
513
330
1
100
AcDbSymbolTableRecord
100
AcDbBlockTableRecord
  2
*D3
  0
BLOCK_RECORD
  5
52F
330
1
100
AcDbSymbolTableRecord
100
AcDbBlockTableRecord
  2
*D4
  0
BLOCK_RECORD
  5
58A
330
1
100
AcDbSymbolTableRecord
100
AcDbBlockTableRecord
  2
*D5
  0
BLOCK_RECORD
  5
597
330
1
100
AcDbSymbolTableRecord
100
AcDbBlockTableRecord
  2
*D6
  0
BLOCK_RECORD
  5
5A4
330
1
100
AcDbSymbolTableRecord
100
AcDbBlockTableRecord
  2
*D7
  0
BLOCK_RECORD
  5
5BE
330
1
100
AcDbSymbolTableRecord
100
AcDbBlockTableRecord
  2
*D8
  0
BLOCK_RECORD
  5
60D
330
1
100
AcDbSymbolTableRecord
100
AcDbBlockTableRecord
  2
*D9
  0
BLOCK_RECORD
  5
61A
330
1
100
AcDbSymbolTableRecord
100
AcDbBlockTableRecord
  2
*D10
  0
BLOCK_RECORD
  5
64E
330
1
100
AcDbSymbolTableRecord
100
AcDbBlockTableRecord
  2
*D11
  0
BLOCK_RECORD
  5
65B
330
1
100
AcDbSymbolTableRecord
100
AcDbBlockTableRecord
  2
*D12
  0
BLOCK_RECORD
  5
687
330
1
100
AcDbSymbolTableRecord
100
AcDbBlockTableRecord
  2
*D13
  0
BLOCK_RECORD
  5
6AC
330
1
100
AcDbSymbolTableRecord
100
AcDbBlockTableRecord
  2
*D14
  0
BLOCK_RECORD
  5
6B9
330
1
100
AcDbSymbolTableRecord
100
AcDbBlockTableRecord
  2
*D15
  0
BLOCK_RECORD
  5
6F2
330
1
100
AcDbSymbolTableRecord
100
AcDbBlockTableRecord
  2
*D16
  0
BLOCK_RECORD
  5
708
330
1
100
AcDbSymbolTableRecord
100
AcDbBlockTableRecord
  2
*D17
  0
BLOCK_RECORD
  5
716
330
1
100
AcDbSymbolTableRecord
100
AcDbBlockTableRecord
  2
*D18
  0
ENDTAB
  0
ENDSEC
  0
SECTION
  2
BLOCKS
  0
BLOCK
  5
1A
330
19
100
AcDbEntity
  8
0
100
AcDbBlockBegin
  2
*MODEL_SPACE
 70
     0
 10
0.0
 20
0.0
 30
0.0
  3
*MODEL_SPACE
  1

  0
ENDBLK
  5
1B
330
19
100
AcDbEntity
  8
0
100
AcDbBlockEnd
  0
BLOCK
  5
17
330
16
100
AcDbEntity
 67
     1
  8
0
100
AcDbBlockBegin
  2
*PAPER_SPACE
 70
     0
 10
0.0
 20
0.0
 30
0.0
  3
*PAPER_SPACE
  1

  0
ENDBLK
  5
18
330
16
100
AcDbEntity
 67
     1
  8
0
100
AcDbBlockEnd
  0
BLOCK
  5
28
330
27
100
AcDbEntity
  8
0
100
AcDbBlockBegin
  2
_OPEN
 70
     0
 10
0.0
 20
0.0
 30
0.0
  3
_OPEN
  1

  0
LINE
  5
29
330
27
100
AcDbEntity
  8
0
  6
BYBLOCK
 62
     0
100
AcDbLine
 10
-1.0
 20
0.1666666666666666
 30
0.0
 11
0.0
 21
0.0
 31
0.0
  0
LINE
  5
2A
330
27
100
AcDbEntity
  8
0
  6
BYBLOCK
 62
     0
100
AcDbLine
 10
0.0
 20
0.0
 30
0.0
 11
-1.0
 21
-0.1666666666666666
 31
0.0
  0
LINE
  5
2B
330
27
100
AcDbEntity
  8
0
  6
BYBLOCK
 62
     0
100
AcDbLine
 10
0.0
 20
0.0
 30
0.0
 11
-1.0
 21
0.0
 31
0.0
  0
ENDBLK
  5
2C
330
27
100
AcDbEntity
  8
0
100
AcDbBlockEnd
  0
BLOCK
  5
4F6
330
4F5
100
AcDbEntity
  8
0
100
AcDbBlockBegin
  2
*D1
 70
     1
 10
0.0
 20
0.0
 30
0.0
  3
*D1
  1

  0
LINE
  5
4F7
330
4F5
100
AcDbEntity
  8
0
  6
BYBLOCK
 62
     4
100
AcDbLine
 10
840.6962575787343
 20
557.0911173932661
 30
0.0
 11
879.9775809419115
 21
557.0911173932661
 31
0.0
  0
LINE
  5
4F8
330
4F5
100
AcDbEntity
  8
0
  6
BYBLOCK
 62
     4
100
AcDbLine
 10
816.9345541246345
 20
514.0911173932661
 30
0.0
 11
879.9775809419115
 21
514.0911173932661
 31
0.0
  0
LINE
  5
4F9
330
4F5
100
AcDbEntity
  8
0
  6
BYBLOCK
 62
     4
100
AcDbLine
 10
873.9775809419116
 20
571.0911173932661
 30
0.0
 11
873.9775809419116
 21
585.0911173932661
 31
0.0
  0
LINE
  5
4FA
330
4F5
100
AcDbEntity
  8
0
  6
BYBLOCK
 62
     4
100
AcDbLine
 10
873.9775809419116
 20
500.0911173932661
 30
0.0
 11
873.9775809419116
 21
486.0911173932661
 31
0.0
  0
LINE
  5
4FB
330
4F5
100
AcDbEntity
  8
0
  6
BYBLOCK
 62
     4
100
AcDbLine
 10
873.9775809419116
 20
557.0911173932661
 30
0.0
 11
873.9775809419116
 21
514.0911173932661
 31
0.0
  0
INSERT
  5
4FC
330
4F5
100
AcDbEntity
  8
0
  6
BYBLOCK
 62
     4
100
AcDbBlockReference
  2
_OPEN
 10
873.9775809419116
 20
557.0911173932661
 30
0.0
 41
14.0
 42
14.0
 43
14.0
 50
270.0
  0
INSERT
  5
4FD
330
4F5
100
AcDbEntity
  8
0
  6
BYBLOCK
 62
     4
100
AcDbBlockReference
  2
_OPEN
 10
873.9775809419116
 20
514.0911173932661
 30
0.0
 41
14.0
 42
14.0
 43
14.0
 50
90.0
  0
MTEXT
  5
4FE
330
4F5
100
AcDbEntity
  8
0
  6
BYBLOCK
 62
     4
100
AcDbMText
 10
863.9775809419116
 20
535.5911173932661
 30
0.0
 40
12.0
 41
0.0
 71
     5
 72
     1
  1
\A1;43
 11
0.0
 21
1.0
 31
0.0
1001
ACAD
1000
MTEXTBEGIN
1070
    73
1070
     1
1070
    44
1040
1.0
1070
    74
1070
     0
1000
MTEXTEND
1000
MTEXTBEGIN
1070
    73
1070
     1
1070
    44
1040
1.0
1070
    74
1070
     0
1000
MTEXTEND
  0
POINT
  5
4FF
330
4F5
100
AcDbEntity
  8
DEFPOINTS
  6
BYBLOCK
 62
     0
100
AcDbPoint
 10
828.6962575787342
 20
557.0911173932661
 30
0.0
  0
POINT
  5
500
330
4F5
100
AcDbEntity
  8
DEFPOINTS
  6
BYBLOCK
 62
     0
100
AcDbPoint
 10
804.9345541246346
 20
514.0911173932661
 30
0.0
  0
POINT
  5
501
330
4F5
100
AcDbEntity
  8
DEFPOINTS
  6
BYBLOCK
 62
     0
100
AcDbPoint
 10
873.9775809419116
 20
514.0911173932661
 30
0.0
  0
ENDBLK
  5
502
330
4F5
100
AcDbEntity
  8
0
100
AcDbBlockEnd
  0
BLOCK
  5
505
330
504
100
AcDbEntity
  8
0
100
AcDbBlockBegin
  2
*D2
 70
     1
 10
0.0
 20
0.0
 30
0.0
  3
*D2
  1

  0
LINE
  5
506
330
504
100
AcDbEntity
  8
0
  6
BYBLOCK
 62
     4
100
AcDbLine
 10
758.6957760402669
 20
339.0911173932662
 30
0.0
 11
879.9775809419115
 21
339.0911173932662
 31
0.0
  0
LINE
  5
507
330
504
100
AcDbEntity
  8
0
  6
BYBLOCK
 62
     4
100
AcDbLine
 10
749.9460760402669
 20
294.0910173932662
 30
0.0
 11
879.9775809419115
 21
294.0910173932662
 31
0.0
  0
LINE
  5
508
330
504
100
AcDbEntity
  8
0
  6
BYBLOCK
 62
     4
100
AcDbLine
 10
873.9775809419116
 20
353.0911173932662
 30
0.0
 11
873.9775809419116
 21
367.0911173932662
 31
0.0
  0
LINE
  5
509
330
504
100
AcDbEntity
  8
0
  6
BYBLOCK
 62
     4
100
AcDbLine
 10
873.9775809419116
 20
280.0910173932662
 30
0.0
 11
873.9775809419116
 21
266.0910173932662
 31
0.0
  0
LINE
  5
50A
330
504
100
AcDbEntity
  8
0
  6
BYBLOCK
 62
     4
100
AcDbLine
 10
873.9775809419116
 20
339.0911173932662
 30
0.0
 11
873.9775809419116
 21
294.0910173932662
 31
0.0
  0
INSERT
  5
50B
330
504
100
AcDbEntity
  8
0
  6
BYBLOCK
 62
     4
100
AcDbBlockReference
  2
_OPEN
 10
873.9775809419116
 20
339.0911173932662
 30
0.0
 41
14.0
 42
14.0
 43
14.0
 50
270.0
  0
INSERT
  5
50C
330
504
100
AcDbEntity
  8
0
  6
BYBLOCK
 62
     4
100
AcDbBlockReference
  2
_OPEN
 10
873.9775809419116
 20
294.0910173932662
 30
0.0
 41
14.0
 42
14.0
 43
14.0
 50
90.0
  0
MTEXT
  5
50D
330
504
100
AcDbEntity
  8
0
  6
BYBLOCK
 62
     4
100
AcDbMText
 10
863.9775809419116
 20
316.5910673932662
 30
0.0
 40
12.0
 41
0.0
 71
     5
 72
     1
  1
\A1;45
 11
0.0
 21
1.0
 31
0.0
1001
ACAD
1000
MTEXTBEGIN
1070
    73
1070
     1
1070
    44
1040
1.0
1070
    74
1070
     0
1000
MTEXTEND
1000
MTEXTBEGIN
1070
    73
1070
     1
1070
    44
1040
1.0
1070
    74
1070
     0
1000
MTEXTEND
  0
POINT
  5
50E
330
504
100
AcDbEntity
  8
DEFPOINTS
  6
BYBLOCK
 62
     0
100
AcDbPoint
 10
746.695776040267
 20
339.0911173932662
 30
0.0
  0
POINT
  5
50F
330
504
100
AcDbEntity
  8
DEFPOINTS
  6
BYBLOCK
 62
     0
100
AcDbPoint
 10
737.9460760402669
 20
294.0910173932662
 30
0.0
  0
POINT
  5
510
330
504
100
AcDbEntity
  8
DEFPOINTS
  6
BYBLOCK
 62
     0
100
AcDbPoint
 10
873.9775809419116
 20
294.0910173932662
 30
0.0
  0
ENDBLK
  5
511
330
504
100
AcDbEntity
  8
0
100
AcDbBlockEnd
  0
BLOCK
  5
514
330
513
100
AcDbEntity
  8
0
100
AcDbBlockBegin
  2
*D3
 70
     1
 10
0.0
 20
0.0
 30
0.0
  3
*D3
  1

  0
LINE
  5
515
330
513
100
AcDbEntity
  8
0
  6
BYBLOCK
 62
     4
100
AcDbLine
 10
749.9460760402669
 20
294.0910173932662
 30
0.0
 11
837.2328535002861
 21
294.0910173932662
 31
0.0
  0
LINE
  5
516
330
513
100
AcDbEntity
  8
0
  6
BYBLOCK
 62
     4
100
AcDbLine
 10
748.0960760402669
 20
274.0910173932662
 30
0.0
 11
837.2328535002861
 21
274.0910173932662
 31
0.0
  0
LINE
  5
517
330
513
100
AcDbEntity
  8
0
  6
BYBLOCK
 62
     4
100
AcDbLine
 10
831.2328535002862
 20
308.0910173932662
 30
0.0
 11
831.2328535002862
 21
322.0910173932661
 31
0.0
  0
LINE
  5
518
330
513
100
AcDbEntity
  8
0
  6
BYBLOCK
 62
     4
100
AcDbLine
 10
831.2328535002862
 20
260.0910173932662
 30
0.0
 11
831.2328535002862
 21
220.0910173932661
 31
0.0
  0
LINE
  5
519
330
513
100
AcDbEntity
  8
0
  6
BYBLOCK
 62
     4
100
AcDbLine
 10
831.2328535002862
 20
294.0910173932662
 30
0.0
 11
831.2328535002862
 21
274.0910173932662
 31
0.0
  0
INSERT
  5
51A
330
513
100
AcDbEntity
  8
0
  6
BYBLOCK
 62
     4
100
AcDbBlockReference
  2
_OPEN
 10
831.2328535002862
 20
294.0910173932662
 30
0.0
 41
14.0
 42
14.0
 43
14.0
 50
270.0
  0
INSERT
  5
51B
330
513
100
AcDbEntity
  8
0
  6
BYBLOCK
 62
     4
100
AcDbBlockReference
  2
_OPEN
 10
831.2328535002862
 20
274.0910173932662
 30
0.0
 41
14.0
 42
14.0
 43
14.0
 50
90.0
  0
MTEXT
  5
51C
330
513
100
AcDbEntity
  8
0
  6
BYBLOCK
 62
     4
100
AcDbMText
 10
821.2328535002862
 20
233.0910173932662
 30
0.0
 40
12.0
 41
0.0
 71
     5
 72
     1
  1
\A1;20
 11
0.0
 21
1.0
 31
0.0
1001
ACAD
1000
MTEXTBEGIN
1070
    73
1070
     1
1070
    44
1040
1.0
1070
    74
1070
     0
1000
MTEXTEND
1000
MTEXTBEGIN
1070
    73
1070
     1
1070
    44
1040
1.0
1070
    74
1070
     0
1000
MTEXTEND
  0
POINT
  5
51D
330
513
100
AcDbEntity
  8
DEFPOINTS
  6
BYBLOCK
 62
     0
100
AcDbPoint
 10
737.9460760402669
 20
294.0910173932662
 30
0.0
  0
POINT
  5
51E
330
513
100
AcDbEntity
  8
DEFPOINTS
  6
BYBLOCK
 62
     0
100
AcDbPoint
 10
736.0960760402669
 20
274.0910173932662
 30
0.0
  0
POINT
  5
51F
330
513
100
AcDbEntity
  8
DEFPOINTS
  6
BYBLOCK
 62
     0
100
AcDbPoint
 10
831.2328535002862
 20
274.0910173932662
 30
0.0
  0
ENDBLK
  5
520
330
513
100
AcDbEntity
  8
0
100
AcDbBlockEnd
  0
BLOCK
  5
530
330
52F
100
AcDbEntity
  8
0
100
AcDbBlockBegin
  2
*D4
 70
     1
 10
0.0
 20
0.0
 30
0.0
  3
*D4
  1

  0
LINE
  5
531
330
52F
100
AcDbEntity
  8
0
  6
BYBLOCK
 62
     4
100
AcDbLine
 10
840.6962575787343
 20
557.0911173932661
 30
0.0
 11
955.8863273869629
 21
557.0911173932661
 31
0.0
  0
LINE
  5
532
330
52F
100
AcDbEntity
  8
0
  6
BYBLOCK
 62
     4
100
AcDbLine
 10
748.0960760402669
 20
274.0910173932662
 30
0.0
 11
955.8863273869629
 21
274.0910173932662
 31
0.0
  0
LINE
  5
533
330
52F
100
AcDbEntity
  8
0
  6
BYBLOCK
 62
     4
100
AcDbLine
 10
949.8863273869629
 20
543.0911173932661
 30
0.0
 11
949.8863273869629
 21
288.0910173932662
 31
0.0
  0
INSERT
  5
534
330
52F
100
AcDbEntity
  8
0
  6
BYBLOCK
 62
     4
100
AcDbBlockReference
  2
_OPEN
 10
949.8863273869629
 20
557.0911173932661
 30
0.0
 41
14.0
 42
14.0
 43
14.0
 50
90.0
  0
INSERT
  5
535
330
52F
100
AcDbEntity
  8
0
  6
BYBLOCK
 62
     4
100
AcDbBlockReference
  2
_OPEN
 10
949.8863273869629
 20
274.0910173932662
 30
0.0
 41
14.0
 42
14.0
 43
14.0
 50
270.0
  0
MTEXT
  5
536
330
52F
100
AcDbEntity
  8
0
  6
BYBLOCK
 62
     4
100
AcDbMText
 10
939.8863273869629
 20
415.5910673932661
 30
0.0
 40
12.0
 41
0.0
 71
     5
 72
     1
  1
\A1;283
 11
0.0
 21
1.0
 31
0.0
1001
ACAD
1000
MTEXTBEGIN
1070
    73
1070
     1
1070
    44
1040
1.0
1070
    74
1070
     0
1000
MTEXTEND
1000
MTEXTBEGIN
1070
    73
1070
     1
1070
    44
1040
1.0
1070
    74
1070
     0
1000
MTEXTEND
  0
POINT
  5
537
330
52F
100
AcDbEntity
  8
DEFPOINTS
  6
BYBLOCK
 62
     0
100
AcDbPoint
 10
828.6962575787342
 20
557.0911173932661
 30
0.0
  0
POINT
  5
538
330
52F
100
AcDbEntity
  8
DEFPOINTS
  6
BYBLOCK
 62
     0
100
AcDbPoint
 10
736.0960760402669
 20
274.0910173932662
 30
0.0
  0
POINT
  5
539
330
52F
100
AcDbEntity
  8
DEFPOINTS
  6
BYBLOCK
 62
     0
100
AcDbPoint
 10
949.8863273869629
 20
274.0910173932662
 30
0.0
  0
ENDBLK
  5
53A
330
52F
100
AcDbEntity
  8
0
100
AcDbBlockEnd
  0
BLOCK
  5
58B
330
58A
100
AcDbEntity
  8
0
100
AcDbBlockBegin
  2
*D5
 70
     1
 10
0.0
 20
0.0
 30
0.0
  3
*D5
  1

  0
LINE
  5
58C
330
58A
100
AcDbEntity
  8
0
  6
BYBLOCK
 62
     4
100
AcDbLine
 10
840.6962575787343
 20
557.0911173932661
 30
0.0
 11
917.5634653783527
 21
557.0911173932661
 31
0.0
  0
LINE
  5
58D
330
58A
100
AcDbEntity
  8
0
  6
BYBLOCK
 62
     4
100
AcDbLine
 10
758.6957760402669
 20
339.0911173932662
 30
0.0
 11
917.5634653783527
 21
339.0911173932662
 31
0.0
  0
LINE
  5
58E
330
58A
100
AcDbEntity
  8
0
  6
BYBLOCK
 62
     4
100
AcDbLine
 10
911.5634653783526
 20
543.0911173932661
 30
0.0
 11
911.5634653783526
 21
353.0911173932662
 31
0.0
  0
INSERT
  5
58F
330
58A
100
AcDbEntity
  8
0
  6
BYBLOCK
 62
     4
100
AcDbBlockReference
  2
_OPEN
 10
911.5634653783526
 20
557.0911173932661
 30
0.0
 41
14.0
 42
14.0
 43
14.0
 50
90.0
  0
INSERT
  5
590
330
58A
100
AcDbEntity
  8
0
  6
BYBLOCK
 62
     4
100
AcDbBlockReference
  2
_OPEN
 10
911.5634653783526
 20
339.0911173932662
 30
0.0
 41
14.0
 42
14.0
 43
14.0
 50
270.0
  0
MTEXT
  5
591
330
58A
100
AcDbEntity
  8
0
  6
BYBLOCK
 62
     4
100
AcDbMText
 10
901.5634653783527
 20
448.0911173932661
 30
0.0
 40
12.0
 41
0.0
 71
     5
 72
     1
  1
\A1;218
 11
0.0
 21
1.0
 31
0.0
1001
ACAD
1000
MTEXTBEGIN
1070
    73
1070
     1
1070
    44
1040
1.0
1070
    74
1070
     0
1000
MTEXTEND
1000
MTEXTBEGIN
1070
    73
1070
     1
1070
    44
1040
1.0
1070
    74
1070
     0
1000
MTEXTEND
  0
POINT
  5
592
330
58A
100
AcDbEntity
  8
DEFPOINTS
  6
BYBLOCK
 62
     0
100
AcDbPoint
 10
828.6962575787342
 20
557.0911173932661
 30
0.0
  0
POINT
  5
593
330
58A
100
AcDbEntity
  8
DEFPOINTS
  6
BYBLOCK
 62
     0
100
AcDbPoint
 10
746.695776040267
 20
339.0911173932662
 30
0.0
  0
POINT
  5
594
330
58A
100
AcDbEntity
  8
DEFPOINTS
  6
BYBLOCK
 62
     0
100
AcDbPoint
 10
911.5634653783526
 20
339.0911173932662
 30
0.0
  0
ENDBLK
  5
595
330
58A
100
AcDbEntity
  8
0
100
AcDbBlockEnd
  0
BLOCK
  5
5E1
330
597
100
AcDbEntity
  8
0
100
AcDbBlockBegin
  2
*D6
 70
     1
 10
0.0
 20
0.0
 30
0.0
  3
*D6
  1

  0
LINE
  5
5E2
330
597
100
AcDbEntity
  8
0
  6
BYBLOCK
 62
     4
100
AcDbLine
 10
736.0960760402669
 20
262.0910173932662
 30
0.0
 11
736.0960760402669
 21
210.6728341932525
 31
0.0
  0
LINE
  5
5E3
330
597
100
AcDbEntity
  8
0
  6
BYBLOCK
 62
     4
100
AcDbLine
 10
665.2959760402669
 20
262.0910173932662
 30
0.0
 11
665.2959760402669
 21
210.6728341932525
 31
0.0
  0
LINE
  5
5E4
330
597
100
AcDbEntity
  8
0
  6
BYBLOCK
 62
     4
100
AcDbLine
 10
722.0960760402668
 20
216.6728341932525
 30
0.0
 11
679.2959760402669
 21
216.6728341932525
 31
0.0
  0
INSERT
  5
5E5
330
597
100
AcDbEntity
  8
0
  6
BYBLOCK
 62
     4
100
AcDbBlockReference
  2
_OPEN
 10
736.0960760402669
 20
216.6728341932525
 30
0.0
 41
14.0
 42
14.0
 43
14.0
  0
INSERT
  5
5E6
330
597
100
AcDbEntity
  8
0
  6
BYBLOCK
 62
     4
100
AcDbBlockReference
  2
_OPEN
 10
665.2959760402669
 20
216.6728341932525
 30
0.0
 41
14.0
 42
14.0
 43
14.0
 50
180.0
  0
MTEXT
  5
5E7
330
597
100
AcDbEntity
  8
0
  6
BYBLOCK
 62
     4
100
AcDbMText
 10
700.6960260402669
 20
226.6728341932525
 30
0.0
 40
12.0
 41
0.0
 71
     5
 72
     1
  1
\A1;φ71
1001
ACAD
1000
MTEXTBEGIN
1070
    73
1070
     1
1070
    44
1040
1.0
1070
    74
1070
     0
1000
MTEXTEND
1000
MTEXTBEGIN
1070
    73
1070
     1
1070
    44
1040
1.0
1070
    74
1070
     0
1000
MTEXTEND
  0
POINT
  5
5E8
330
597
100
AcDbEntity
  8
DEFPOINTS
  6
BYBLOCK
 62
     0
100
AcDbPoint
 10
736.0960760402669
 20
274.0910173932662
 30
0.0
  0
POINT
  5
5E9
330
597
100
AcDbEntity
  8
DEFPOINTS
  6
BYBLOCK
 62
     0
100
AcDbPoint
 10
665.2959760402669
 20
274.0910173932662
 30
0.0
  0
POINT
  5
5EA
330
597
100
AcDbEntity
  8
DEFPOINTS
  6
BYBLOCK
 62
     0
100
AcDbPoint
 10
665.2959760402669
 20
216.6728341932525
 30
0.0
  0
ENDBLK
  5
5EB
330
597
100
AcDbEntity
  8
0
100
AcDbBlockEnd
  0
BLOCK
  5
602
330
5A4
100
AcDbEntity
  8
0
100
AcDbBlockBegin
  2
*D7
 70
     1
 10
0.0
 20
0.0
 30
0.0
  3
*D7
  1

  0
LINE
  5
603
330
5A4
100
AcDbEntity
  8
0
  6
BYBLOCK
 62
     4
100
AcDbLine
 10
744.6460760402669
 20
287.0910173932662
 30
0.0
 11
744.6460760402669
 21
165.0180092368941
 31
0.0
  0
LINE
  5
604
330
5A4
100
AcDbEntity
  8
0
  6
BYBLOCK
 62
     4
100
AcDbLine
 10
656.5690370357306
 20
292.3006439911659
 30
0.0
 11
656.5690370357306
 21
165.0180092368941
 31
0.0
  0
LINE
  5
605
330
5A4
100
AcDbEntity
  8
0
  6
BYBLOCK
 62
     4
100
AcDbLine
 10
730.646076040267
 20
171.0180092368941
 30
0.0
 11
670.5690370357306
 21
171.0180092368941
 31
0.0
  0
INSERT
  5
606
330
5A4
100
AcDbEntity
  8
0
  6
BYBLOCK
 62
     4
100
AcDbBlockReference
  2
_OPEN
 10
744.6460760402669
 20
171.0180092368941
 30
0.0
 41
14.0
 42
14.0
 43
14.0
  0
INSERT
  5
607
330
5A4
100
AcDbEntity
  8
0
  6
BYBLOCK
 62
     4
100
AcDbBlockReference
  2
_OPEN
 10
656.5690370357306
 20
171.0180092368941
 30
0.0
 41
14.0
 42
14.0
 43
14.0
 50
180.0
  0
MTEXT
  5
608
330
5A4
100
AcDbEntity
  8
0
  6
BYBLOCK
 62
     4
100
AcDbMText
 10
700.6075565379988
 20
181.0180092368941
 30
0.0
 40
12.0
 41
0.0
 71
     5
 72
     1
  1
\A1;φ88
1001
ACAD
1000
MTEXTBEGIN
1070
    73
1070
     1
1070
    44
1040
1.0
1070
    74
1070
     0
1000
MTEXTEND
1000
MTEXTBEGIN
1070
    73
1070
     1
1070
    44
1040
1.0
1070
    74
1070
     0
1000
MTEXTEND
  0
POINT
  5
609
330
5A4
100
AcDbEntity
  8
DEFPOINTS
  6
BYBLOCK
 62
     0
100
AcDbPoint
 10
744.6460760402669
 20
299.0910173932661
 30
0.0
  0
POINT
  5
60A
330
5A4
100
AcDbEntity
  8
DEFPOINTS
  6
BYBLOCK
 62
     0
100
AcDbPoint
 10
656.5690370357306
 20
304.300643991166
 30
0.0
  0
POINT
  5
60B
330
5A4
100
AcDbEntity
  8
DEFPOINTS
  6
BYBLOCK
 62
     0
100
AcDbPoint
 10
656.5690370357306
 20
171.0180092368941
 30
0.0
  0
ENDBLK
  5
60C
330
5A4
100
AcDbEntity
  8
0
100
AcDbBlockEnd
  0
BLOCK
  5
5BF
330
5BE
100
AcDbEntity
  8
0
100
AcDbBlockBegin
  2
*D8
 70
     1
 10
0.0
 20
0.0
 30
0.0
  3
*D8
  1

  0
LINE
  5
5C0
330
5BE
100
AcDbEntity
  8
0
  6
BYBLOCK
 62
     4
100
AcDbLine
 10
778.1960760402669
 20
345.0911173932662
 30
0.0
 11
778.1960760402669
 21
120.0995506893245
 31
0.0
  0
LINE
  5
5C1
330
5BE
100
AcDbEntity
  8
0
  6
BYBLOCK
 62
     4
100
AcDbLine
 10
623.1960760402669
 20
345.0911173932662
 30
0.0
 11
623.1960760402669
 21
120.0995506893245
 31
0.0
  0
LINE
  5
5C2
330
5BE
100
AcDbEntity
  8
0
  6
BYBLOCK
 62
     4
100
AcDbLine
 10
764.1960760402668
 20
126.0995506893245
 30
0.0
 11
637.1960760402669
 21
126.0995506893245
 31
0.0
  0
INSERT
  5
5C3
330
5BE
100
AcDbEntity
  8
0
  6
BYBLOCK
 62
     4
100
AcDbBlockReference
  2
_OPEN
 10
778.1960760402669
 20
126.0995506893245
 30
0.0
 41
14.0
 42
14.0
 43
14.0
  0
INSERT
  5
5C4
330
5BE
100
AcDbEntity
  8
0
  6
BYBLOCK
 62
     4
100
AcDbBlockReference
  2
_OPEN
 10
623.1960760402669
 20
126.0995506893245
 30
0.0
 41
14.0
 42
14.0
 43
14.0
 50
180.0
  0
MTEXT
  5
5C5
330
5BE
100
AcDbEntity
  8
0
  6
BYBLOCK
 62
     4
100
AcDbMText
 10
700.6960760402669
 20
136.0995506893245
 30
0.0
 40
12.0
 41
0.0
 71
     5
 72
     1
  1
\A1;155
1001
ACAD
1000
MTEXTBEGIN
1070
    73
1070
     1
1070
    44
1040
1.0
1070
    74
1070
     0
1000
MTEXTEND
1000
MTEXTBEGIN
1070
    73
1070
     1
1070
    44
1040
1.0
1070
    74
1070
     0
1000
MTEXTEND
  0
POINT
  5
5C6
330
5BE
100
AcDbEntity
  8
DEFPOINTS
  6
BYBLOCK
 62
     0
100
AcDbPoint
 10
778.1960760402669
 20
357.0911173932662
 30
0.0
  0
POINT
  5
5C7
330
5BE
100
AcDbEntity
  8
DEFPOINTS
  6
BYBLOCK
 62
     0
100
AcDbPoint
 10
623.1960760402669
 20
357.0911173932662
 30
0.0
  0
POINT
  5
5C8
330
5BE
100
AcDbEntity
  8
DEFPOINTS
  6
BYBLOCK
 62
     0
100
AcDbPoint
 10
623.1960760402669
 20
126.0995506893245
 30
0.0
  0
ENDBLK
  5
5C9
330
5BE
100
AcDbEntity
  8
0
100
AcDbBlockEnd
  0
BLOCK
  5
60E
330
60D
100
AcDbEntity
  8
0
100
AcDbBlockBegin
  2
*D9
 70
     1
 10
0.0
 20
0.0
 30
0.0
  3
*D9
  1

  0
LINE
  5
60F
330
60D
100
AcDbEntity
  8
0
  6
BYBLOCK
 62
     4
100
AcDbLine
 10
800.696076040267
 20
530.3295954776338
 30
0.0
 11
800.696076040267
 21
596.0921514156948
 31
0.0
  0
LINE
  5
610
330
60D
100
AcDbEntity
  8
0
  6
BYBLOCK
 62
     4
100
AcDbLine
 10
600.6960760402669
 20
530.3295954776338
 30
0.0
 11
600.6960760402669
 21
596.0921514156948
 31
0.0
  0
LINE
  5
611
330
60D
100
AcDbEntity
  8
0
  6
BYBLOCK
 62
     4
100
AcDbLine
 10
786.6960760402669
 20
590.0921514156948
 30
0.0
 11
614.6960760402669
 21
590.0921514156948
 31
0.0
  0
INSERT
  5
612
330
60D
100
AcDbEntity
  8
0
  6
BYBLOCK
 62
     4
100
AcDbBlockReference
  2
_OPEN
 10
800.696076040267
 20
590.0921514156948
 30
0.0
 41
14.0
 42
14.0
 43
14.0
  0
INSERT
  5
613
330
60D
100
AcDbEntity
  8
0
  6
BYBLOCK
 62
     4
100
AcDbBlockReference
  2
_OPEN
 10
600.6960760402669
 20
590.0921514156948
 30
0.0
 41
14.0
 42
14.0
 43
14.0
 50
180.0
  0
MTEXT
  5
614
330
60D
100
AcDbEntity
  8
0
  6
BYBLOCK
 62
     4
100
AcDbMText
 10
700.6960760402669
 20
600.0921514156948
 30
0.0
 40
12.0
 41
0.0
 71
     5
 72
     1
  1
\A1;200
1001
ACAD
1000
MTEXTBEGIN
1070
    73
1070
     1
1070
    44
1040
1.0
1070
    74
1070
     0
1000
MTEXTEND
1000
MTEXTBEGIN
1070
    73
1070
     1
1070
    44
1040
1.0
1070
    74
1070
     0
1000
MTEXTEND
  0
POINT
  5
615
330
60D
100
AcDbEntity
  8
DEFPOINTS
  6
BYBLOCK
 62
     0
100
AcDbPoint
 10
800.696076040267
 20
518.3295954776338
 30
0.0
  0
POINT
  5
616
330
60D
100
AcDbEntity
  8
DEFPOINTS
  6
BYBLOCK
 62
     0
100
AcDbPoint
 10
600.6960760402669
 20
518.3295954776338
 30
0.0
  0
POINT
  5
617
330
60D
100
AcDbEntity
  8
DEFPOINTS
  6
BYBLOCK
 62
     0
100
AcDbPoint
 10
600.6960760402669
 20
590.0921514156948
 30
0.0
  0
ENDBLK
  5
618
330
60D
100
AcDbEntity
  8
0
100
AcDbBlockEnd
  0
BLOCK
  5
61B
330
61A
100
AcDbEntity
  8
0
100
AcDbBlockBegin
  2
*D10
 70
     1
 10
0.0
 20
0.0
 30
0.0
  3
*D10
  1

  0
LINE
  5
61C
330
61A
100
AcDbEntity
  8
0
  6
BYBLOCK
 62
     4
100
AcDbLine
 10
813.6960760402669
 20
569.091117393266
 30
0.0
 11
813.6960760402669
 21
634.5588534830626
 31
0.0
  0
LINE
  5
61D
330
61A
100
AcDbEntity
  8
0
  6
BYBLOCK
 62
     4
100
AcDbLine
 10
587.6960760402669
 20
569.091117393266
 30
0.0
 11
587.6960760402669
 21
634.5588534830626
 31
0.0
  0
LINE
  5
61E
330
61A
100
AcDbEntity
  8
0
  6
BYBLOCK
 62
     4
100
AcDbLine
 10
799.6960760402669
 20
628.5588534830626
 30
0.0
 11
601.6960760402668
 21
628.5588534830626
 31
0.0
  0
INSERT
  5
61F
330
61A
100
AcDbEntity
  8
0
  6
BYBLOCK
 62
     4
100
AcDbBlockReference
  2
_OPEN
 10
813.6960760402669
 20
628.5588534830626
 30
0.0
 41
14.0
 42
14.0
 43
14.0
  0
INSERT
  5
620
330
61A
100
AcDbEntity
  8
0
  6
BYBLOCK
 62
     4
100
AcDbBlockReference
  2
_OPEN
 10
587.6960760402669
 20
628.5588534830626
 30
0.0
 41
14.0
 42
14.0
 43
14.0
 50
180.0
  0
MTEXT
  5
621
330
61A
100
AcDbEntity
  8
0
  6
BYBLOCK
 62
     4
100
AcDbMText
 10
700.6960760402669
 20
638.5588534830626
 30
0.0
 40
12.0
 41
0.0
 71
     5
 72
     1
  1
\A1;226
1001
ACAD
1000
MTEXTBEGIN
1070
    73
1070
     1
1070
    44
1040
1.0
1070
    74
1070
     0
1000
MTEXTEND
1000
MTEXTBEGIN
1070
    73
1070
     1
1070
    44
1040
1.0
1070
    74
1070
     0
1000
MTEXTEND
  0
POINT
  5
622
330
61A
100
AcDbEntity
  8
DEFPOINTS
  6
BYBLOCK
 62
     0
100
AcDbPoint
 10
813.6960760402669
 20
557.0911173932661
 30
0.0
  0
POINT
  5
623
330
61A
100
AcDbEntity
  8
DEFPOINTS
  6
BYBLOCK
 62
     0
100
AcDbPoint
 10
587.6960760402669
 20
557.0911173932661
 30
0.0
  0
POINT
  5
624
330
61A
100
AcDbEntity
  8
DEFPOINTS
  6
BYBLOCK
 62
     0
100
AcDbPoint
 10
587.6960760402669
 20
628.5588534830626
 30
0.0
  0
ENDBLK
  5
625
330
61A
100
AcDbEntity
  8
0
100
AcDbBlockEnd
  0
BLOCK
  5
6CF
330
64E
100
AcDbEntity
  8
0
100
AcDbBlockBegin
  2
*D11
 70
     1
 10
0.0
 20
0.0
 30
0.0
  3
*D11
  1

  0
LINE
  5
6D0
330
64E
100
AcDbEntity
  8
0
  6
BYBLOCK
 62
     4
100
AcDbLine
 10
782.1332795411668
 20
573.5220166889096
 30
0.0
 11
782.1332795411668
 21
680.1085984507653
 31
0.0
  0
LINE
  5
6D1
330
64E
100
AcDbEntity
  8
0
  6
BYBLOCK
 62
     4
100
AcDbLine
 10
526.1332014500013
 20
573.5220166889095
 30
0.0
 11
526.1332014500013
 21
680.1085984507653
 31
0.0
  0
LINE
  5
6D2
330
64E
100
AcDbEntity
  8
0
  6
BYBLOCK
 62
     4
100
AcDbLine
 10
768.1332795411667
 20
674.1085984507654
 30
0.0
 11
540.1332014500013
 21
674.1085984507654
 31
0.0
  0
INSERT
  5
6D3
330
64E
100
AcDbEntity
  8
0
  6
BYBLOCK
 62
     4
100
AcDbBlockReference
  2
_OPEN
 10
782.1332795411668
 20
674.1085984507654
 30
0.0
 41
14.0
 42
14.0
 43
14.0
  0
INSERT
  5
6D4
330
64E
100
AcDbEntity
  8
0
  6
BYBLOCK
 62
     4
100
AcDbBlockReference
  2
_OPEN
 10
526.1332014500013
 20
674.1085984507654
 30
0.0
 41
14.0
 42
14.0
 43
14.0
 50
180.0
  0
MTEXT
  5
6D5
330
64E
100
AcDbEntity
  8
0
  6
BYBLOCK
 62
     4
100
AcDbMText
 10
654.133240495584
 20
684.1085984507653
 30
0.0
 40
12.0
 41
0.0
 71
     5
 72
     1
  1
\A1;256
1001
ACAD
1000
MTEXTBEGIN
1070
    73
1070
     1
1070
    44
1040
1.0
1070
    74
1070
     0
1000
MTEXTEND
1000
MTEXTBEGIN
1070
    73
1070
     1
1070
    44
1040
1.0
1070
    74
1070
     0
1000
MTEXTEND
  0
POINT
  5
6D6
330
64E
100
AcDbEntity
  8
DEFPOINTS
  6
BYBLOCK
 62
     0
100
AcDbPoint
 10
782.1332795411668
 20
561.5220166889096
 30
0.0
  0
POINT
  5
6D7
330
64E
100
AcDbEntity
  8
DEFPOINTS
  6
BYBLOCK
 62
     0
100
AcDbPoint
 10
526.1332014500013
 20
561.5220166889095
 30
0.0
  0
POINT
  5
6D8
330
64E
100
AcDbEntity
  8
DEFPOINTS
  6
BYBLOCK
 62
     0
100
AcDbPoint
 10
526.1332014500013
 20
674.1085984507654
 30
0.0
  0
ENDBLK
  5
6D9
330
64E
100
AcDbEntity
  8
0
100
AcDbBlockEnd
  0
BLOCK
  5
65C
330
65B
100
AcDbEntity
  8
0
100
AcDbBlockBegin
  2
*D12
 70
     1
 10
0.0
 20
0.0
 30
0.0
  3
*D12
  1

  0
LINE
  5
65D
330
65B
100
AcDbEntity
  8
0
  6
BYBLOCK
 62
     4
100
AcDbLine
 10
838.3010311119468
 20
895.8818173932662
 30
0.0
 11
879.6578569823369
 21
895.8818173932662
 31
0.0
  0
LINE
  5
65E
330
65B
100
AcDbEntity
  8
0
  6
BYBLOCK
 62
     4
100
AcDbLine
 10
838.3010105991262
 20
875.8818173932663
 30
0.0
 11
879.6578569823369
 21
875.8818173932663
 31
0.0
  0
LINE
  5
65F
330
65B
100
AcDbEntity
  8
0
  6
BYBLOCK
 62
     4
100
AcDbLine
 10
873.6578569823368
 20
909.8818173932663
 30
0.0
 11
873.6578569823368
 21
923.8818173932662
 31
0.0
  0
LINE
  5
660
330
65B
100
AcDbEntity
  8
0
  6
BYBLOCK
 62
     4
100
AcDbLine
 10
873.6578569823368
 20
861.8818173932663
 30
0.0
 11
873.6578569823368
 21
821.8818173932662
 31
0.0
  0
LINE
  5
661
330
65B
100
AcDbEntity
  8
0
  6
BYBLOCK
 62
     4
100
AcDbLine
 10
873.6578569823368
 20
895.8818173932662
 30
0.0
 11
873.6578569823368
 21
875.8818173932663
 31
0.0
  0
INSERT
  5
662
330
65B
100
AcDbEntity
  8
0
  6
BYBLOCK
 62
     4
100
AcDbBlockReference
  2
_OPEN
 10
873.6578569823368
 20
895.8818173932662
 30
0.0
 41
14.0
 42
14.0
 43
14.0
 50
270.0
  0
INSERT
  5
663
330
65B
100
AcDbEntity
  8
0
  6
BYBLOCK
 62
     4
100
AcDbBlockReference
  2
_OPEN
 10
873.6578569823368
 20
875.8818173932663
 30
0.0
 41
14.0
 42
14.0
 43
14.0
 50
90.0
  0
MTEXT
  5
664
330
65B
100
AcDbEntity
  8
0
  6
BYBLOCK
 62
     4
100
AcDbMText
 10
863.6578569823369
 20
834.8818173932663
 30
0.0
 40
12.0
 41
0.0
 71
     5
 72
     1
  1
\A1;20
 11
0.0
 21
1.0
 31
0.0
1001
ACAD
1000
MTEXTBEGIN
1070
    73
1070
     1
1070
    44
1040
1.0
1070
    74
1070
     0
1000
MTEXTEND
1000
MTEXTBEGIN
1070
    73
1070
     1
1070
    44
1040
1.0
1070
    74
1070
     0
1000
MTEXTEND
  0
POINT
  5
665
330
65B
100
AcDbEntity
  8
DEFPOINTS
  6
BYBLOCK
 62
     0
100
AcDbPoint
 10
826.3010311119469
 20
895.8818173932662
 30
0.0
  0
POINT
  5
666
330
65B
100
AcDbEntity
  8
DEFPOINTS
  6
BYBLOCK
 62
     0
100
AcDbPoint
 10
826.3010105991263
 20
875.8818173932663
 30
0.0
  0
POINT
  5
667
330
65B
100
AcDbEntity
  8
DEFPOINTS
  6
BYBLOCK
 62
     0
100
AcDbPoint
 10
873.6578569823368
 20
875.8818173932663
 30
0.0
  0
ENDBLK
  5
668
330
65B
100
AcDbEntity
  8
0
100
AcDbBlockEnd
  0
BLOCK
  5
6DA
330
687
100
AcDbEntity
  8
0
100
AcDbBlockBegin
  2
*D13
 70
     1
 10
0.0
 20
0.0
 30
0.0
  3
*D13
  1

  0
LINE
  5
6DB
330
687
100
AcDbEntity
  8
0
  6
BYBLOCK
 62
     4
100
AcDbLine
 10
1202.689098002699
 20
573.5220166889096
 30
0.0
 11
1202.689098002699
 21
600.516482673765
 31
0.0
  0
LINE
  5
6DC
330
687
100
AcDbEntity
  8
0
  6
BYBLOCK
 62
     4
100
AcDbLine
 10
999.6892980026993
 20
573.5220166889096
 30
0.0
 11
999.6892980026993
 21
600.516482673765
 31
0.0
  0
LINE
  5
6DD
330
687
100
AcDbEntity
  8
0
  6
BYBLOCK
 62
     4
100
AcDbLine
 10
1188.689098002699
 20
594.516482673765
 30
0.0
 11
1013.689298002699
 21
594.516482673765
 31
0.0
  0
INSERT
  5
6DE
330
687
100
AcDbEntity
  8
0
  6
BYBLOCK
 62
     4
100
AcDbBlockReference
  2
_OPEN
 10
1202.689098002699
 20
594.516482673765
 30
0.0
 41
14.0
 42
14.0
 43
14.0
  0
INSERT
  5
6DF
330
687
100
AcDbEntity
  8
0
  6
BYBLOCK
 62
     4
100
AcDbBlockReference
  2
_OPEN
 10
999.6892980026993
 20
594.516482673765
 30
0.0
 41
14.0
 42
14.0
 43
14.0
 50
180.0
  0
MTEXT
  5
6E0
330
687
100
AcDbEntity
  8
0
  6
BYBLOCK
 62
     4
100
AcDbMText
 10
1101.189198002699
 20
604.516482673765
 30
0.0
 40
12.0
 41
0.0
 71
     5
 72
     1
  1
\A1;203
1001
ACAD
1000
MTEXTBEGIN
1070
    73
1070
     1
1070
    44
1040
1.0
1070
    74
1070
     0
1000
MTEXTEND
1000
MTEXTBEGIN
1070
    73
1070
     1
1070
    44
1040
1.0
1070
    74
1070
     0
1000
MTEXTEND
  0
POINT
  5
6E1
330
687
100
AcDbEntity
  8
DEFPOINTS
  6
BYBLOCK
 62
     0
100
AcDbPoint
 10
1202.689098002699
 20
561.5220166889096
 30
0.0
  0
POINT
  5
6E2
330
687
100
AcDbEntity
  8
DEFPOINTS
  6
BYBLOCK
 62
     0
100
AcDbPoint
 10
999.6892980026993
 20
561.5220166889096
 30
0.0
  0
POINT
  5
6E3
330
687
100
AcDbEntity
  8
DEFPOINTS
  6
BYBLOCK
 62
     0
100
AcDbPoint
 10
999.6892980026993
 20
594.516482673765
 30
0.0
  0
ENDBLK
  5
6E4
330
687
100
AcDbEntity
  8
0
100
AcDbBlockEnd
  0
BLOCK
  5
6AD
330
6AC
100
AcDbEntity
  8
0
100
AcDbBlockBegin
  2
*D14
 70
     1
 10
0.0
 20
0.0
 30
0.0
  3
*D14
  1

  0
LINE
  5
6AE
330
6AC
100
AcDbEntity
  8
0
  6
BYBLOCK
 62
     4
100
AcDbLine
 10
1206.252076040267
 20
345.0911173932662
 30
0.0
 11
1206.252076040267
 21
210.8919741763525
 31
0.0
  0
LINE
  5
6AF
330
6AC
100
AcDbEntity
  8
0
  6
BYBLOCK
 62
     4
100
AcDbLine
 10
1132.252076040267
 20
246.1933173932662
 30
0.0
 11
1132.252076040267
 21
210.8919741763525
 31
0.0
  0
LINE
  5
6B0
330
6AC
100
AcDbEntity
  8
0
  6
BYBLOCK
 62
     4
100
AcDbLine
 10
1192.252076040267
 20
216.8919741763525
 30
0.0
 11
1146.252076040267
 21
216.8919741763525
 31
0.0
  0
INSERT
  5
6B1
330
6AC
100
AcDbEntity
  8
0
  6
BYBLOCK
 62
     4
100
AcDbBlockReference
  2
_OPEN
 10
1206.252076040267
 20
216.8919741763525
 30
0.0
 41
14.0
 42
14.0
 43
14.0
  0
INSERT
  5
6B2
330
6AC
100
AcDbEntity
  8
0
  6
BYBLOCK
 62
     4
100
AcDbBlockReference
  2
_OPEN
 10
1132.252076040267
 20
216.8919741763525
 30
0.0
 41
14.0
 42
14.0
 43
14.0
 50
180.0
  0
MTEXT
  5
6B3
330
6AC
100
AcDbEntity
  8
0
  6
BYBLOCK
 62
     4
100
AcDbMText
 10
1169.252076040267
 20
226.8919741763525
 30
0.0
 40
12.0
 41
0.0
 71
     5
 72
     1
  1
\A1;74
1001
ACAD
1000
MTEXTBEGIN
1070
    73
1070
     1
1070
    44
1040
1.0
1070
    74
1070
     0
1000
MTEXTEND
1000
MTEXTBEGIN
1070
    73
1070
     1
1070
    44
1040
1.0
1070
    74
1070
     0
1000
MTEXTEND
  0
POINT
  5
6B4
330
6AC
100
AcDbEntity
  8
DEFPOINTS
  6
BYBLOCK
 62
     0
100
AcDbPoint
 10
1206.252076040267
 20
357.0911173932662
 30
0.0
  0
POINT
  5
6B5
330
6AC
100
AcDbEntity
  8
DEFPOINTS
  6
BYBLOCK
 62
     0
100
AcDbPoint
 10
1132.252076040267
 20
258.1933173932662
 30
0.0
  0
POINT
  5
6B6
330
6AC
100
AcDbEntity
  8
DEFPOINTS
  6
BYBLOCK
 62
     0
100
AcDbPoint
 10
1132.252076040267
 20
216.8919741763525
 30
0.0
  0
ENDBLK
  5
6B7
330
6AC
100
AcDbEntity
  8
0
100
AcDbBlockEnd
  0
BLOCK
  5
6BA
330
6B9
100
AcDbEntity
  8
0
100
AcDbBlockBegin
  2
*D15
 70
     1
 10
0.0
 20
0.0
 30
0.0
  3
*D15
  1

  0
LINE
  5
6BB
330
6B9
100
AcDbEntity
  8
0
  6
BYBLOCK
 62
     4
100
AcDbLine
 10
1206.252076040267
 20
345.0911173932662
 30
0.0
 11
1206.252076040267
 21
164.6771741406591
 31
0.0
  0
LINE
  5
6BC
330
6B9
100
AcDbEntity
  8
0
  6
BYBLOCK
 62
     4
100
AcDbLine
 10
1046.251976040266
 20
345.0911173932662
 30
0.0
 11
1046.251976040266
 21
164.6771741406591
 31
0.0
  0
LINE
  5
6BD
330
6B9
100
AcDbEntity
  8
0
  6
BYBLOCK
 62
     4
100
AcDbLine
 10
1192.252076040267
 20
170.6771741406591
 30
0.0
 11
1060.251976040267
 21
170.6771741406591
 31
0.0
  0
INSERT
  5
6BE
330
6B9
100
AcDbEntity
  8
0
  6
BYBLOCK
 62
     4
100
AcDbBlockReference
  2
_OPEN
 10
1206.252076040267
 20
170.6771741406591
 30
0.0
 41
14.0
 42
14.0
 43
14.0
  0
INSERT
  5
6BF
330
6B9
100
AcDbEntity
  8
0
  6
BYBLOCK
 62
     4
100
AcDbBlockReference
  2
_OPEN
 10
1046.251976040266
 20
170.6771741406591
 30
0.0
 41
14.0
 42
14.0
 43
14.0
 50
180.0
  0
MTEXT
  5
6C0
330
6B9
100
AcDbEntity
  8
0
  6
BYBLOCK
 62
     4
100
AcDbMText
 10
1126.252026040267
 20
180.6771741406592
 30
0.0
 40
12.0
 41
0.0
 71
     5
 72
     1
  1
\A1;160
1001
ACAD
1000
MTEXTBEGIN
1070
    73
1070
     1
1070
    44
1040
1.0
1070
    74
1070
     0
1000
MTEXTEND
1000
MTEXTBEGIN
1070
    73
1070
     1
1070
    44
1040
1.0
1070
    74
1070
     0
1000
MTEXTEND
  0
POINT
  5
6C1
330
6B9
100
AcDbEntity
  8
DEFPOINTS
  6
BYBLOCK
 62
     0
100
AcDbPoint
 10
1206.252076040267
 20
357.0911173932662
 30
0.0
  0
POINT
  5
6C2
330
6B9
100
AcDbEntity
  8
DEFPOINTS
  6
BYBLOCK
 62
     0
100
AcDbPoint
 10
1046.251976040266
 20
357.0911173932662
 30
0.0
  0
POINT
  5
6C3
330
6B9
100
AcDbEntity
  8
DEFPOINTS
  6
BYBLOCK
 62
     0
100
AcDbPoint
 10
1046.251976040266
 20
170.6771741406591
 30
0.0
  0
ENDBLK
  5
6C4
330
6B9
100
AcDbEntity
  8
0
100
AcDbBlockEnd
  0
BLOCK
  5
6F3
330
6F2
100
AcDbEntity
  8
0
100
AcDbBlockBegin
  2
*D16
 70
     1
 10
0.0
 20
0.0
 30
0.0
  3
*D16
  1

  0
LINE
  5
6F4
330
6F2
100
AcDbEntity
  8
0
  6
BYBLOCK
 62
     4
100
AcDbLine
 10
774.6332825106573
 20
883.2079718736469
 30
0.0
 11
774.6332825106573
 21
755.8057483246402
 31
0.0
  0
LINE
  5
6F5
330
6F2
100
AcDbEntity
  8
0
  6
BYBLOCK
 62
     4
100
AcDbLine
 10
533.6332010685744
 20
883.208079588476
 30
0.0
 11
533.6332010685744
 21
755.8057483246402
 31
0.0
  0
LINE
  5
6F6
330
6F2
100
AcDbEntity
  8
0
  6
BYBLOCK
 62
     4
100
AcDbLine
 10
760.6332825106574
 20
761.8057483246403
 30
0.0
 11
547.6332010685744
 21
761.8057483246403
 31
0.0
  0
INSERT
  5
6F7
330
6F2
100
AcDbEntity
  8
0
  6
BYBLOCK
 62
     4
100
AcDbBlockReference
  2
_OPEN
 10
774.6332825106573
 20
761.8057483246403
 30
0.0
 41
14.0
 42
14.0
 43
14.0
  0
INSERT
  5
6F8
330
6F2
100
AcDbEntity
  8
0
  6
BYBLOCK
 62
     4
100
AcDbBlockReference
  2
_OPEN
 10
533.6332010685744
 20
761.8057483246403
 30
0.0
 41
14.0
 42
14.0
 43
14.0
 50
180.0
  0
MTEXT
  5
6F9
330
6F2
100
AcDbEntity
  8
0
  6
BYBLOCK
 62
     4
100
AcDbMText
 10
654.1332417896159
 20
771.8057483246402
 30
0.0
 40
12.0
 41
0.0
 71
     5
 72
     1
  1
\A1;241
1001
ACAD
1000
MTEXTBEGIN
1070
    73
1070
     1
1070
    44
1040
1.0
1070
    74
1070
     0
1000
MTEXTEND
1000
MTEXTBEGIN
1070
    73
1070
     1
1070
    44
1040
1.0
1070
    74
1070
     0
1000
MTEXTEND
  0
POINT
  5
6FA
330
6F2
100
AcDbEntity
  8
DEFPOINTS
  6
BYBLOCK
 62
     0
100
AcDbPoint
 10
774.6332825106573
 20
895.2079718736468
 30
0.0
  0
POINT
  5
6FB
330
6F2
100
AcDbEntity
  8
DEFPOINTS
  6
BYBLOCK
 62
     0
100
AcDbPoint
 10
533.6332010685744
 20
895.2080795884759
 30
0.0
  0
POINT
  5
6FC
330
6F2
100
AcDbEntity
  8
DEFPOINTS
  6
BYBLOCK
 62
     0
100
AcDbPoint
 10
533.6332010685744
 20
761.8057483246403
 30
0.0
  0
ENDBLK
  5
6FD
330
6F2
100
AcDbEntity
  8
0
100
AcDbBlockEnd
  0
BLOCK
  5
709
330
708
100
AcDbEntity
  8
0
100
AcDbBlockBegin
  2
*D17
 70
     1
 10
0.0
 20
0.0
 30
0.0
  3
*D17
  1

  0
LINE
  5
70A
330
708
100
AcDbEntity
  8
0
  6
BYBLOCK
 62
     4
100
AcDbLine
 10
792.1333164642446
 20
930.3127166889096
 30
0.0
 11
868.9114384065661
 21
930.3127166889096
 31
0.0
  0
LINE
  5
70B
330
708
100
AcDbEntity
  8
0
  6
BYBLOCK
 62
     4
100
AcDbLine
 10
792.1332795411678
 20
890.3127166889095
 30
0.0
 11
868.9114384065661
 21
890.3127166889095
 31
0.0
  0
LINE
  5
70C
330
708
100
AcDbEntity
  8
0
  6
BYBLOCK
 62
     4
100
AcDbLine
 10
862.911438406566
 20
916.3127166889095
 30
0.0
 11
862.911438406566
 21
904.3127166889096
 31
0.0
  0
LINE
  5
70D
330
708
100
AcDbEntity
  8
0
  6
BYBLOCK
 62
     4
100
AcDbLine
 10
862.911438406566
 20
890.3127166889095
 30
0.0
 11
862.911438406566
 21
843.6825238522315
 31
0.0
  0
INSERT
  5
70E
330
708
100
AcDbEntity
  8
0
  6
BYBLOCK
 62
     4
100
AcDbBlockReference
  2
_OPEN
 10
862.911438406566
 20
930.3127166889096
 30
0.0
 41
14.0
 42
14.0
 43
14.0
 50
90.0
  0
INSERT
  5
70F
330
708
100
AcDbEntity
  8
0
  6
BYBLOCK
 62
     4
100
AcDbBlockReference
  2
_OPEN
 10
862.911438406566
 20
890.3127166889095
 30
0.0
 41
14.0
 42
14.0
 43
14.0
 50
270.0
  0
MTEXT
  5
710
330
708
100
AcDbEntity
  8
0
  6
BYBLOCK
 62
     4
100
AcDbMText
 10
852.911438406566
 20
856.6825238522314
 30
0.0
 40
12.0
 41
0.0
 71
     5
 72
     1
  1
\A1;40
 11
0.0
 21
1.0
 31
0.0
1001
ACAD
1000
MTEXTBEGIN
1070
    73
1070
     1
1070
    44
1040
1.0
1070
    74
1070
     0
1000
MTEXTEND
1000
MTEXTBEGIN
1070
    73
1070
     1
1070
    44
1040
1.0
1070
    74
1070
     0
1000
MTEXTEND
  0
POINT
  5
711
330
708
100
AcDbEntity
  8
DEFPOINTS
  6
BYBLOCK
 62
     0
100
AcDbPoint
 10
780.1333164642446
 20
930.3127166889096
 30
0.0
  0
POINT
  5
712
330
708
100
AcDbEntity
  8
DEFPOINTS
  6
BYBLOCK
 62
     0
100
AcDbPoint
 10
780.1332795411678
 20
890.3127166889095
 30
0.0
  0
POINT
  5
713
330
708
100
AcDbEntity
  8
DEFPOINTS
  6
BYBLOCK
 62
     0
100
AcDbPoint
 10
862.911438406566
 20
890.3127166889095
 30
0.0
  0
ENDBLK
  5
714
330
708
100
AcDbEntity
  8
0
100
AcDbBlockEnd
  0
BLOCK
  5
717
330
716
100
AcDbEntity
  8
0
100
AcDbBlockBegin
  2
*D18
 70
     1
 10
0.0
 20
0.0
 30
0.0
  3
*D18
  1

  0
LINE
  5
718
330
716
100
AcDbEntity
  8
0
  6
BYBLOCK
 62
     4
100
AcDbLine
 10
775.1333980026994
 20
1011.812516688909
 30
0.0
 11
902.3637441653299
 21
1011.812516688909
 31
0.0
  0
LINE
  5
719
330
716
100
AcDbEntity
  8
0
  6
BYBLOCK
 62
     4
100
AcDbLine
 10
807.9004607564375
 20
910.3127166889096
 30
0.0
 11
902.3637441653299
 21
910.3127166889096
 31
0.0
  0
LINE
  5
71A
330
716
100
AcDbEntity
  8
0
  6
BYBLOCK
 62
     4
100
AcDbLine
 10
896.36374416533
 20
997.8125166889096
 30
0.0
 11
896.36374416533
 21
924.3127166889095
 31
0.0
  0
INSERT
  5
71B
330
716
100
AcDbEntity
  8
0
  6
BYBLOCK
 62
     4
100
AcDbBlockReference
  2
_OPEN
 10
896.36374416533
 20
1011.812516688909
 30
0.0
 41
14.0
 42
14.0
 43
14.0
 50
90.0
  0
INSERT
  5
71C
330
716
100
AcDbEntity
  8
0
  6
BYBLOCK
 62
     4
100
AcDbBlockReference
  2
_OPEN
 10
896.36374416533
 20
910.3127166889096
 30
0.0
 41
14.0
 42
14.0
 43
14.0
 50
270.0
  0
MTEXT
  5
71D
330
716
100
AcDbEntity
  8
0
  6
BYBLOCK
 62
     4
100
AcDbMText
 10
886.3637441653299
 20
961.0626166889096
 30
0.0
 40
12.0
 41
0.0
 71
     5
 72
     1
  1
\A1;101
 11
0.0
 21
1.0
 31
0.0
1001
ACAD
1000
MTEXTBEGIN
1070
    73
1070
     1
1070
    44
1040
1.0
1070
    74
1070
     0
1000
MTEXTEND
1000
MTEXTBEGIN
1070
    73
1070
     1
1070
    44
1040
1.0
1070
    74
1070
     0
1000
MTEXTEND
  0
POINT
  5
71E
330
716
100
AcDbEntity
  8
DEFPOINTS
  6
BYBLOCK
 62
     0
100
AcDbPoint
 10
763.1333980026994
 20
1011.812516688909
 30
0.0
  0
POINT
  5
71F
330
716
100
AcDbEntity
  8
DEFPOINTS
  6
BYBLOCK
 62
     0
100
AcDbPoint
 10
795.9004607564375
 20
910.3127166889096
 30
0.0
  0
POINT
  5
720
330
716
100
AcDbEntity
  8
DEFPOINTS
  6
BYBLOCK
 62
     0
100
AcDbPoint
 10
896.36374416533
 20
910.3127166889096
 30
0.0
  0
ENDBLK
  5
721
330
716
100
AcDbEntity
  8
0
100
AcDbBlockEnd
  0
ENDSEC
  0
SECTION
  2
ENTITIES
  0
LINE
  5
121
330
19
100
AcDbEntity
  8
ZUWAKU
 62
     7
 48
10.0
100
AcDbLine
 10
19.90074647074652
 20
48.1669006995453
 30
0.0
 11
1611.900746470746
 21
48.16690069954507
 31
0.0
  0
LINE
  5
122
330
19
100
AcDbEntity
  8
ZUWAKU
  6
CONTINUOUS
 62
     7
100
AcDbLine
 10
1611.900746470746
 20
1124.166900699545
 30
0.0
 11
19.90074647074652
 21
1124.166900699545
 31
0.0
  0
LINE
  5
123
330
19
100
AcDbEntity
  8
ZUWAKU
  6
CONTINUOUS
 62
     7
100
AcDbLine
 10
1611.900746470746
 20
24.16690069954529
 30
0.0
 11
19.90074647074652
 21
24.16690069954529
 31
0.0
  0
LINE
  5
124
330
19
100
AcDbEntity
  8
ZUWAKU
  6
CONTINUOUS
 62
     7
100
AcDbLine
 10
19.90074647074652
 20
1124.166900699545
 30
0.0
 11
19.90074647074652
 21
24.16690069954529
 31
0.0
  0
LINE
  5
125
330
19
100
AcDbEntity
  8
ZUWAKU
 62
     7
 48
10.0
100
AcDbLine
 10
88.91574076238157
 20
24.16690069954529
 30
0.0
 11
88.91574076238157
 21
48.1669006995453
 31
0.0
  0
TEXT
  5
126
330
19
100
AcDbEntity
  8
ZUWAKU
 62
     7
100
AcDbText
 10
31.91332132304342
 20
27.64761340998802
 30
0.0
 40
16.0
  1
品 種
100
AcDbText
  0
LINE
  5
127
330
19
100
AcDbEntity
  8
ZUWAKU
 62
     7
 48
10.0
100
AcDbLine
 10
552.0054677130756
 20
24.16690069954529
 30
0.0
 11
552.0054677130756
 21
48.16690069954521
 31
0.0
  0
LINE
  5
128
330
19
100
AcDbEntity
  8
ZUWAKU
 62
     7
 48
10.0
100
AcDbLine
 10
418.8274955845217
 20
24.16690069954529
 30
0.0
 11
418.8274955845218
 21
48.16690069954525
 31
0.0
  0
TEXT
  5
129
330
19
100
AcDbEntity
  8
ZUWAKU
 62
     7
100
AcDbText
 10
564.4260762822405
 20
27.88656214294769
 30
0.0
 40
16.0
  1
標準型　９０（ＵＴ９０×７５）
100
AcDbText
  0
TEXT
  5
12A
330
19
100
AcDbEntity
  8
ZUWAKU
 62
     7
100
AcDbText
 10
430.711957737576
 20
28.96889043994906
 30
0.0
 40
16.0
  1
品名・ｻ ｲ ｽﾞ
100
AcDbText
  0
TEXT
  5
12B
330
19
100
AcDbEntity
  8
ZUWAKU
 62
     7
100
AcDbText
 10
100.503666760442
 20
28.80785192669509
 30
0.0
 40
16.0
  1
角マス
100
AcDbText
  0
LINE
  5
12C
330
19
100
AcDbEntity
  8
ZUWAKU
 62
     7
 48
10.0
100
AcDbLine
 10
1537.246006285983
 20
24.16690069954474
 30
0.0
 11
1537.246006285983
 21
48.16690069954507
 31
0.0
  0
LINE
  5
12D
330
19
100
AcDbEntity
  8
ZUWAKU
 62
     7
 48
10.0
100
AcDbLine
 10
1467.423590774814
 20
24.16690069954483
 30
0.0
 11
1467.423590774814
 21
48.16690069954509
 31
0.0
  0
TEXT
  5
12E
330
19
100
AcDbEntity
  8
ZUWAKU
 62
     7
100
AcDbText
 10
1479.19091629413
 20
27.08628325011705
 30
0.0
 40
16.0
  1
尺 度
100
AcDbText
  0
TEXT
  5
12F
330
19
100
AcDbEntity
  8
ZUWAKU
 62
     7
100
AcDbText
 10
1559.27471636407
 20
27.71150653553059
 30
0.0
 40
16.0
  1
1/4
100
AcDbText
  0
TEXT
  5
130
330
19
100
AcDbEntity
  8
ZUWAKU
 62
     7
100
AcDbText
 10
1308.30613703518
 20
28.40748782453036
 30
0.0
 40
16.0
  1
ＧＢ３２
100
AcDbText
  0
TEXT
  5
131
330
19
100
AcDbEntity
  8
ZUWAKU
 62
     7
100
AcDbText
 10
1240.472447976041
 20
27.90554632275259
 30
0.0
 40
16.0
  1
品 番
100
AcDbText
  0
LINE
  5
132
330
19
100
AcDbEntity
  8
ZUWAKU
 62
     7
 48
10.0
100
AcDbLine
 10
1228.46999593825
 20
24.16690069954464
 30
0.0
 11
1228.46999593825
 21
48.16690069954512
 31
0.0
  0
LINE
  5
133
330
19
100
AcDbEntity
  8
ZUWAKU
 62
     7
 48
10.0
100
AcDbLine
 10
1297.321307773629
 20
24.16690069954464
 30
0.0
 11
1297.321307773629
 21
48.1669006995451
 31
0.0
  0
TEXT
  5
134
330
19
100
AcDbEntity
  8
ZUWAKU
 62
     7
 48
10.0
100
AcDbText
 10
1292.407013373002
 20
5.798621502208334
 30
0.0
 40
16.0
  1
積水化学工業株式会社  建材
100
AcDbText
  0
LINE
  5
135
330
19
100
AcDbEntity
  8
ZUWAKU
  6
CONTINUOUS
 62
     7
100
AcDbLine
 10
1611.900746470746
 20
1124.166900699545
 30
0.0
 11
1611.900746470746
 21
24.16690069954529
 31
0.0
  0
LINE
  5
2A7
330
19
100
AcDbEntity
  8
SEIHIN
  6
CONTINUOUS
 62
     3
100
AcDbLine
 10
542.3758772151542
 20
568.4774008540817
 30
0.0
 11
798.3759553063196
 21
568.4774008540819
 31
0.0
  0
LINE
  5
2A8
330
19
100
AcDbEntity
  8
SEIHIN
  6
CONTINUOUS
 62
     3
100
AcDbLine
 10
778.5210737678522
 20
541.4774008540819
 30
0.0
 11
670.3757737678522
 21
541.4774008540819
 31
0.0
  0
LINE
  5
2A9
330
19
100
AcDbEntity
  8
SEIHIN
  6
CONTINUOUS
 62
     3
100
AcDbLine
 10
765.8691737678523
 20
528.4774008540819
 30
0.0
 11
670.3757737678522
 21
528.4774008540819
 31
0.0
  0
LINE
  5
2AA
330
19
100
AcDbEntity
  8
SEIHIN
  6
CONTINUOUS
 62
     3
100
AcDbLine
 10
747.8757737678522
 20
368.477400854082
 30
0.0
 11
758.8314817804286
 21
508.7110628631952
 31
0.0
  0
LINE
  5
2AB
330
19
100
AcDbEntity
  8
SEIHIN
  6
CONTINUOUS
 62
     3
100
AcDbLine
 10
779.3760737678523
 20
1018.767900854082
 30
0.0
 11
670.3759737678523
 21
1018.768200854081
 31
0.0
  0
LINE
  5
2AC
330
19
100
AcDbEntity
  8
SEIHIN
  6
CONTINUOUS
 62
     3
100
AcDbLine
 10
670.3757737678522
 20
815.7681008540819
 30
0.0
 11
779.3758737678522
 21
815.7681008540819
 31
0.0
  0
LINE
  5
2AD
330
19
100
AcDbEntity
  8
SEIHIN
  6
CONTINUOUS
 62
     3
100
AcDbLine
 10
776.3760737678523
 20
1016.268100854081
 30
0.0
 11
670.3759737678523
 21
1016.268200854081
 31
0.0
  0
LINE
  5
2AE
330
19
100
AcDbEntity
  8
SEIHIN
  6
CONTINUOUS
 62
     3
100
AcDbLine
 10
670.3757737678522
 20
818.7681008540819
 30
0.0
 11
776.3758737678522
 21
818.767900854082
 31
0.0
  0
LINE
  5
2AF
330
19
100
AcDbEntity
  8
SEIHIN
  6
CONTINUOUS
 62
     3
100
AcDbLine
 10
670.3757737678522
 20
819.6600008540819
 30
0.0
 11
775.4847737678521
 21
819.660100854082
 31
0.0
  0
LINE
  5
2B0
330
19
100
AcDbEntity
  8
SEIHIN
  6
CONTINUOUS
 62
     3
100
AcDbLine
 10
745.0722737678522
 20
858.4575008540818
 30
0.0
 11
755.0395737678522
 21
845.0762008540818
 31
0.0
  0
LINE
  5
2B1
330
19
100
AcDbEntity
  8
SEIHIN
  6
CONTINUOUS
 62
     3
100
AcDbLine
 10
670.3757737678522
 20
831.655800854082
 30
0.0
 11
760.5379737678522
 21
831.655800854082
 31
0.0
  0
LINE
  5
2B2
330
19
100
AcDbEntity
  8
SEIHIN
  6
CONTINUOUS
 62
     3
100
AcDbLine
 10
670.3757737678522
 20
832.1559008540818
 30
0.0
 11
759.8151737678522
 21
832.1559008540818
 31
0.0
  0
ARC
  5
2B3
330
19
100
AcDbEntity
  8
SEIHIN
  6
CONTINUOUS
 62
     3
100
AcDbCircle
 10
751.1023737678523
 20
847.964400854082
 30
0.0
 40
7.0
100
AcDbArc
 50
270.0
 51
0.0
  0
ARC
  5
2B4
330
19
100
AcDbEntity
  8
SEIHIN
  6
CONTINUOUS
 62
     3
100
AcDbCircle
 10
751.1025737678522
 20
1009.268100854082
 30
0.0
 40
7.0
100
AcDbArc
 50
0.0
 51
90.0
  0
LINE
  5
2B7
330
19
100
AcDbEntity
  8
CENTER_L
  6
CENTER
 62
     1
 48
5.0
100
AcDbLine
 10
670.3757737678522
 20
269.5795008540819
 30
0.0
 11
670.3757737678522
 21
580.373400854082
 31
0.0
  0
LINE
  5
2B8
330
19
100
AcDbEntity
  8
SEIHIN
  6
CONTINUOUS
 62
     3
100
AcDbLine
 10
592.8757737678522
 20
368.477400854082
 30
0.0
 11
580.4477737678523
 21
527.5552008540819
 31
0.0
  0
LINE
  5
2C0
330
19
100
AcDbEntity
  8
SEIHIN
  6
CONTINUOUS
 62
     3
100
AcDbLine
 10
714.8257737678522
 20
350.477400854082
 30
0.0
 11
714.3257737678522
 21
310.4773008540819
 31
0.0
  0
LINE
  5
2C1
330
19
100
AcDbEntity
  8
SEIHIN
  6
CONTINUOUS
 62
     3
100
AcDbLine
 10
625.9257737678523
 20
350.477400854082
 30
0.0
 11
626.4257737678523
 21
310.4773008540819
 31
0.0
  0
LINE
  5
2C3
330
19
100
AcDbEntity
  8
SEIHIN
  6
CONTINUOUS
 62
     3
100
AcDbLine
 10
626.4257737678523
 20
310.4773008540819
 30
0.0
 11
670.3757737678522
 21
310.4773008540819
 31
0.0
  0
LINE
  5
2C4
330
19
100
AcDbEntity
  8
SEIHIN
  6
CONTINUOUS
 62
     3
100
AcDbLine
 10
633.1257737678522
 20
305.477300854082
 30
0.0
 11
626.4257737678523
 21
310.4773008540819
 31
0.0
  0
LINE
  5
2C6
330
19
100
AcDbEntity
  8
SEIHIN
  6
CONTINUOUS
 62
     3
100
AcDbLine
 10
705.7757737678522
 20
285.4773008540819
 30
0.0
 11
670.3757737678522
 21
285.4773008540819
 31
0.0
  0
LINE
  5
2C7
330
19
100
AcDbEntity
  8
SEIHIN
  6
CONTINUOUS
 62
     3
100
AcDbLine
 10
707.6257737678522
 20
305.477300854082
 30
0.0
 11
670.3757737678522
 21
305.477300854082
 31
0.0
  0
LINE
  5
2C8
330
19
100
AcDbEntity
  8
SEIHIN
  6
CONTINUOUS
 62
     3
100
AcDbLine
 10
714.3257737678522
 20
310.4773008540819
 30
0.0
 11
670.3757737678522
 21
310.4773008540819
 31
0.0
  0
LINE
  5
2C9
330
19
100
AcDbEntity
  8
SEIHIN
  6
CONTINUOUS
 62
     3
100
AcDbLine
 10
633.1257737678522
 20
305.477300854082
 30
0.0
 11
670.3757737678522
 21
305.477300854082
 31
0.0
  0
LINE
  5
2CA
330
19
100
AcDbEntity
  8
SEIHIN
  6
CONTINUOUS
 62
     3
100
AcDbLine
 10
634.9756737678522
 20
285.4773008540819
 30
0.0
 11
670.3757737678522
 21
285.4773008540819
 31
0.0
  0
LINE
  5
2CB
330
19
100
AcDbEntity
  8
SEIHIN
  6
CONTINUOUS
 62
     3
100
AcDbLine
 10
634.4756737678522
 20
305.477300854082
 30
0.0
 11
634.9756737678522
 21
285.4773008540819
 31
0.0
  0
LINE
  5
2CC
330
19
100
AcDbEntity
  8
SEIHIN
  6
CONTINUOUS
 62
     3
100
AcDbLine
 10
706.2757737678522
 20
305.477300854082
 30
0.0
 11
705.7757737678522
 21
285.4773008540819
 31
0.0
  0
LINE
  5
2CD
330
19
100
AcDbEntity
  8
SEIHIN
  6
CONTINUOUS
 62
     3
100
AcDbLine
 10
707.6257737678522
 20
305.477300854082
 30
0.0
 11
714.3257737678522
 21
310.4773008540819
 31
0.0
  0
LINE
  5
2CE
330
19
100
AcDbEntity
  8
SEIHIN
  6
CONTINUOUS
 62
     3
100
AcDbLine
 10
592.8757737678522
 20
368.477400854082
 30
0.0
 11
670.3757737678522
 21
368.477400854082
 31
0.0
  0
LINE
  5
2CF
330
19
100
AcDbEntity
  8
SEIHIN
  6
CONTINUOUS
 62
     3
100
AcDbLine
 10
620.9274737678522
 20
354.477400854082
 30
0.0
 11
670.3757737678522
 21
354.477400854082
 31
0.0
  0
LINE
  5
2D0
330
19
100
AcDbEntity
  8
SEIHIN
  6
CONTINUOUS
 62
     3
100
AcDbLine
 10
624.3760737678522
 20
350.477400854082
 30
0.0
 11
670.3757737678522
 21
350.477400854082
 31
0.0
  0
LINE
  5
2D1
330
19
100
AcDbEntity
  8
SEIHIN
  6
CONTINUOUS
 62
     3
100
AcDbLine
 10
593.2812737678523
 20
365.153200854082
 30
0.0
 11
593.1757737678522
 21
368.477400854082
 31
0.0
  0
ARC
  5
2D2
330
19
100
AcDbEntity
  8
SEIHIN
  6
CONTINUOUS
 62
     3
100
AcDbCircle
 10
597.2792737678522
 20
365.2801008540819
 30
0.0
 40
3.999987999999999
100
AcDbArc
 50
181.818008
 51
254.298386
  0
LINE
  5
2D3
330
19
100
AcDbEntity
  8
SEIHIN
  6
CONTINUOUS
 62
     3
100
AcDbLine
 10
596.1967737678523
 20
361.4294008540819
 30
0.0
 11
621.4584737678523
 21
354.3281008540819
 31
0.0
  0
ARC
  5
2D4
330
19
100
AcDbEntity
  8
SEIHIN
  6
CONTINUOUS
 62
     3
100
AcDbCircle
 10
620.3760737678522
 20
350.477400854082
 30
0.0
 40
3.999967999999999
100
AcDbArc
 50
0.0
 51
74.29976500000001
  0
LINE
  5
2D5
330
19
100
AcDbEntity
  8
SEIHIN
  6
CONTINUOUS
 62
     3
100
AcDbLine
 10
716.3754737678523
 20
350.477400854082
 30
0.0
 11
670.3757737678522
 21
350.477400854082
 31
0.0
  0
LINE
  5
2D6
330
19
100
AcDbEntity
  8
SEIHIN
  6
CONTINUOUS
 62
     3
100
AcDbLine
 10
747.8757737678522
 20
368.477400854082
 30
0.0
 11
670.3757737678522
 21
368.477400854082
 31
0.0
  0
LINE
  5
2D7
330
19
100
AcDbEntity
  8
SEIHIN
  6
CONTINUOUS
 62
     3
100
AcDbLine
 10
719.8239737678522
 20
354.477400854082
 30
0.0
 11
670.3757737678522
 21
354.477400854082
 31
0.0
  0
LINE
  5
2D8
330
19
100
AcDbEntity
  8
SEIHIN
  6
CONTINUOUS
 62
     3
100
AcDbLine
 10
747.4701737678523
 20
365.153200854082
 30
0.0
 11
747.5757737678523
 21
368.477400854082
 31
0.0
  0
LINE
  5
2D9
330
19
100
AcDbEntity
  8
SEIHIN
  6
CONTINUOUS
 62
     3
100
AcDbLine
 10
744.5546737678522
 20
361.4294008540819
 30
0.0
 11
719.2929737678522
 21
354.3281008540819
 31
0.0
  0
ARC
  5
2DA
330
19
100
AcDbEntity
  8
SEIHIN
  6
CONTINUOUS
 62
     3
100
AcDbCircle
 10
720.3754737678523
 20
350.477400854082
 30
0.0
 40
3.999980999999999
100
AcDbArc
 50
105.7016139999999
 51
180.0
  0
ARC
  5
2DB
330
19
100
AcDbEntity
  8
SEIHIN
  6
CONTINUOUS
 62
     3
100
AcDbCircle
 10
743.4722737678522
 20
365.2801008540819
 30
0.0
 40
3.999923999999999
100
AcDbArc
 50
285.700235
 51
358.181947
  0
LINE
  5
2DC
330
19
100
AcDbEntity
  8
CENTER_L
  6
CENTER
 62
     1
 48
5.0
100
AcDbLine
 10
670.3758737678522
 20
804.1950008540821
 30
0.0
 11
670.3759737678523
 21
1027.934000854082
 31
0.0
  0
LINE
  5
2DD
330
19
100
AcDbEntity
  8
SEIHIN
  6
CONTINUOUS
 62
     3
100
AcDbLine
 10
557.3757737678522
 20
819.7681008540818
 30
0.0
 11
557.3757737678522
 21
895.2682036525574
 31
0.0
  0
LINE
  5
2DE
330
19
100
AcDbEntity
  8
SEIHIN
  6
CONTINUOUS
 62
     3
100
AcDbLine
 10
560.3757737678522
 20
822.768100854082
 30
0.0
 11
560.3757737678522
 21
1012.268100854081
 31
0.0
  0
LINE
  5
2DF
330
19
100
AcDbEntity
  8
SEIHIN
  6
CONTINUOUS
 62
     3
100
AcDbLine
 10
561.2667737678521
 20
823.6601008540819
 30
0.0
 11
561.2668737678522
 21
1012.268100854081
 31
0.0
  0
LINE
  5
2E0
330
19
100
AcDbEntity
  8
SEIHIN
  6
CONTINUOUS
 62
     3
100
AcDbLine
 10
573.2136737678522
 20
838.6559008540819
 30
0.0
 11
573.2137737678523
 21
1009.268100854082
 31
0.0
  0
LINE
  5
2E1
330
19
100
AcDbEntity
  8
SEIHIN
  6
CONTINUOUS
 62
     3
100
AcDbLine
 10
573.9364737678522
 20
839.1559008540818
 30
0.0
 11
573.9365737678522
 21
1009.268100854082
 31
0.0
  0
LINE
  5
2E2
330
19
100
AcDbEntity
  8
SEIHIN
  6
CONTINUOUS
 62
     3
100
AcDbLine
 10
582.6491737678522
 20
847.9645008540819
 30
0.0
 11
582.6492737678522
 21
1009.268100854082
 31
0.0
  0
LINE
  5
2E3
330
19
100
AcDbEntity
  8
SEIHIN
  6
CONTINUOUS
 62
     3
100
AcDbLine
 10
595.6794737678523
 20
865.4575008540819
 30
0.0
 11
595.6794737678523
 21
1006.198700854082
 31
0.0
  0
LINE
  5
2E5
330
19
100
AcDbEntity
  8
SEIHIN
  6
CONTINUOUS
 62
     3
100
AcDbLine
 10
745.0722737678522
 20
865.4575008540819
 30
0.0
 11
745.0723737678522
 21
1006.198600854082
 31
0.0
  0
ARC
  5
2E7
330
19
100
AcDbEntity
  8
SEIHIN
  6
CONTINUOUS
 62
     3
100
AcDbCircle
 10
670.3757737678522
 20
941.7681008540819
 30
0.0
 40
32.4
100
AcDbArc
 50
0.0
 51
359.999823
  0
ARC
  5
2E8
330
19
100
AcDbEntity
  8
SEIHIN
  6
CONTINUOUS
 62
     3
100
AcDbCircle
 10
670.3757737678522
 20
941.7681008540819
 30
0.0
 40
32.9
100
AcDbArc
 50
0.0
 51
359.999826
  0
ARC
  5
2E9
330
19
100
AcDbEntity
  8
SEIHIN
  6
CONTINUOUS
 62
     3
100
AcDbCircle
 10
670.3757737678522
 20
941.7681008540819
 30
0.0
 40
41.47
100
AcDbArc
 50
0.0
 51
359.999724
  0
ARC
  5
2EA
330
19
100
AcDbEntity
  8
SEIHIN
  6
CONTINUOUS
 62
     3
100
AcDbCircle
 10
670.3757737678522
 20
941.7681008540819
 30
0.0
 40
42.00999999999999
100
AcDbArc
 50
0.0
 51
359.999727
  0
LINE
  5
2EB
330
19
100
AcDbEntity
  8
SEIHIN
  6
CONTINUOUS
 62
     3
100
AcDbLine
 10
562.2303737678522
 20
541.4774008540819
 30
0.0
 11
670.3757737678522
 21
541.4774008540819
 31
0.0
  0
LINE
  5
2EC
330
19
100
AcDbEntity
  8
SEIHIN
  6
CONTINUOUS
 62
     3
100
AcDbLine
 10
574.8823737678523
 20
528.4774008540819
 30
0.0
 11
670.3757737678522
 21
528.4774008540819
 31
0.0
  0
ARC
  5
2EE
330
19
100
AcDbEntity
  8
SEIHIN
  6
CONTINUOUS
 62
     3
100
AcDbCircle
 10
562.2303737678522
 20
545.4774008540819
 30
0.0
 40
4.000021
100
AcDbArc
 50
182.121839
 51
270.0
  0
LINE
  5
2EF
330
19
100
AcDbEntity
  8
SEIHIN
  6
CONTINUOUS
 62
     3
100
AcDbLine
 10
557.3757737678522
 20
568.4774008540819
 30
0.0
 11
558.2330737678522
 21
545.3293008540819
 31
0.0
  0
ARC
  5
2F0
330
19
100
AcDbEntity
  8
SEIHIN
  6
CONTINUOUS
 62
     3
100
AcDbCircle
 10
579.4507737678523
 20
527.4774008540819
 30
0.0
 40
1.000014999999999
100
AcDbArc
 50
4.461983
 51
90.0
  0
LINE
  5
2F1
330
19
100
AcDbEntity
  8
SEIHIN
  6
CONTINUOUS
 62
     3
100
AcDbLine
 10
570.4282737678522
 20
540.532900854082
 30
0.0
 11
570.8884737678523
 21
532.2552008540819
 31
0.0
  0
ARC
  5
2F2
330
19
100
AcDbEntity
  8
SEIHIN
  6
CONTINUOUS
 62
     3
100
AcDbCircle
 10
569.4297737678523
 20
540.4774008540819
 30
0.0
 40
1.000020999999999
100
AcDbArc
 50
3.181418999999999
 51
90.0
  0
ARC
  5
2F3
330
19
100
AcDbEntity
  8
SEIHIN
  6
CONTINUOUS
 62
     3
100
AcDbCircle
 10
574.8823737678523
 20
532.4774008540819
 30
0.0
 40
4.000034999999999
100
AcDbArc
 50
183.1829289999999
 51
270.0
  0
LINE
  5
2F4
330
19
100
AcDbEntity
  8
CENTER_L
  6
CENTER
 62
     1
 48
5.0
100
AcDbLine
 10
620.7809737678522
 20
941.7681008540819
 30
0.0
 11
670.3758737678522
 21
941.7681008540819
 31
0.0
  0
LINE
  5
2F5
330
19
100
AcDbEntity
  8
SEIHIN
  6
CONTINUOUS
 62
     3
100
AcDbLine
 10
670.3758737678522
 20
815.7681008540819
 30
0.0
 11
561.3757737678522
 21
815.7681008540819
 31
0.0
  0
LINE
  5
2F6
330
19
100
AcDbEntity
  8
SEIHIN
  6
CONTINUOUS
 62
     3
100
AcDbLine
 10
670.3758737678522
 20
818.7681008540819
 30
0.0
 11
564.3757737678522
 21
818.7681008540819
 31
0.0
  0
LINE
  5
2F7
330
19
100
AcDbEntity
  8
SEIHIN
  6
CONTINUOUS
 62
     3
100
AcDbLine
 10
670.3758737678522
 20
858.4575008540818
 30
0.0
 11
602.6794737678523
 21
858.4575008540818
 31
0.0
  0
LINE
  5
2F8
330
19
100
AcDbEntity
  8
SEIHIN
  6
CONTINUOUS
 62
     3
100
AcDbLine
 10
670.3758737678522
 20
840.9645008540818
 30
0.0
 11
589.6490737678523
 21
840.9645008540818
 31
0.0
  0
LINE
  5
2F9
330
19
100
AcDbEntity
  8
SEIHIN
  6
CONTINUOUS
 62
     3
100
AcDbLine
 10
670.3758737678522
 20
832.1558008540819
 30
0.0
 11
580.9364737678522
 21
832.1559008540818
 31
0.0
  0
LINE
  5
2FA
330
19
100
AcDbEntity
  8
SEIHIN
  6
CONTINUOUS
 62
     3
100
AcDbLine
 10
670.3758737678522
 20
831.655800854082
 30
0.0
 11
580.2136737678522
 21
831.6559008540819
 31
0.0
  0
LINE
  5
2FB
330
19
100
AcDbEntity
  8
SEIHIN
  6
CONTINUOUS
 62
     3
100
AcDbLine
 10
670.3758737678522
 20
819.6600008540819
 30
0.0
 11
565.2667737678521
 21
819.660100854082
 31
0.0
  0
ARC
  5
2FE
330
19
100
AcDbEntity
  8
SEIHIN
  6
CONTINUOUS
 62
     3
100
AcDbCircle
 10
602.6794737678523
 20
865.4575008540819
 30
0.0
 40
7.0
100
AcDbArc
 50
180.0
 51
270.0
  0
ARC
  5
2FF
330
19
100
AcDbEntity
  8
SEIHIN
  6
CONTINUOUS
 62
     3
100
AcDbCircle
 10
564.3757737678522
 20
822.768100854082
 30
0.0
 40
4.0
100
AcDbArc
 50
180.0
 51
270.0
  0
ARC
  5
300
330
19
100
AcDbEntity
  8
SEIHIN
  6
CONTINUOUS
 62
     3
100
AcDbCircle
 10
565.2667737678521
 20
823.6601008540819
 30
0.0
 40
4.0
100
AcDbArc
 50
180.0
 51
270.0
  0
ARC
  5
301
330
19
100
AcDbEntity
  8
SEIHIN
  6
CONTINUOUS
 62
     3
100
AcDbCircle
 10
561.3757737678522
 20
819.7681008540818
 30
0.0
 40
4.0
100
AcDbArc
 50
180.0
 51
270.0
  0
LINE
  5
302
330
19
100
AcDbEntity
  8
SEIHIN
  6
CONTINUOUS
 62
     3
100
AcDbLine
 10
595.6794737678523
 20
858.4575008540818
 30
0.0
 11
585.7119737678523
 21
845.0763008540821
 31
0.0
  0
ARC
  5
303
330
19
100
AcDbEntity
  8
SEIHIN
  6
CONTINUOUS
 62
     3
100
AcDbCircle
 10
589.6491737678522
 20
847.9645008540819
 30
0.0
 40
7.0
100
AcDbArc
 50
180.0
 51
270.0
  0
ARC
  5
304
330
19
100
AcDbEntity
  8
SEIHIN
  6
CONTINUOUS
 62
     3
100
AcDbCircle
 10
580.9364737678522
 20
839.1559008540818
 30
0.0
 40
7.0
100
AcDbArc
 50
180.0
 51
270.0
  0
ARC
  5
305
330
19
100
AcDbEntity
  8
SEIHIN
  6
CONTINUOUS
 62
     3
100
AcDbCircle
 10
580.2136737678522
 20
838.6559008540819
 30
0.0
 40
7.0
100
AcDbArc
 50
180.0
 51
270.0
  0
ARC
  5
307
330
19
100
AcDbEntity
  8
SEIHIN
  6
CONTINUOUS
 62
     3
100
AcDbCircle
 10
738.0722737678523
 20
865.4575008540819
 30
0.0
 40
7.0
100
AcDbArc
 50
270.0
 51
0.0
  0
LINE
  5
308
330
19
100
AcDbEntity
  8
SEIHIN
  6
CONTINUOUS
 62
     3
100
AcDbLine
 10
670.3757737678522
 20
858.4576008540821
 30
0.0
 11
738.0722737678523
 21
858.4575008540818
 31
0.0
  0
LINE
  5
309
330
19
100
AcDbEntity
  8
SEIHIN
  6
CONTINUOUS
 62
     3
100
AcDbLine
 10
670.3756737678522
 20
840.9645008540818
 30
0.0
 11
751.1024737678523
 21
840.9644008540819
 31
0.0
  0
LINE
  5
30A
330
19
100
AcDbEntity
  8
CENTER_L
  6
CENTER
 62
     1
 48
5.0
100
AcDbLine
 10
719.9707737678522
 20
941.7681008540819
 30
0.0
 11
670.3758737678522
 21
941.7681008540819
 31
0.0
  0
LINE
  5
30E
330
19
100
AcDbEntity
  8
SEIHIN
  6
CONTINUOUS
 62
     3
100
AcDbLine
 10
561.3757737678522
 20
1018.768100854081
 30
0.0
 11
670.3758737678522
 21
1018.768100854081
 31
0.0
  0
LINE
  5
30F
330
19
100
AcDbEntity
  8
SEIHIN
  6
CONTINUOUS
 62
     3
100
AcDbLine
 10
564.3757737678522
 20
1016.268100854081
 30
0.0
 11
670.3758737678522
 21
1016.268100854081
 31
0.0
  0
LINE
  5
310
330
19
100
AcDbEntity
  8
SEIHIN
  6
CONTINUOUS
 62
     3
100
AcDbLine
 10
670.3760737678522
 20
1013.198600854082
 30
0.0
 11
602.6794737678523
 21
1013.198700854082
 31
0.0
  0
ARC
  5
312
330
19
100
AcDbEntity
  8
SEIHIN
  6
CONTINUOUS
 62
     3
100
AcDbCircle
 10
565.2668737678522
 20
1012.268100854081
 30
0.0
 40
4.0
100
AcDbArc
 50
90.0
 51
180.0
  0
ARC
  5
313
330
19
100
AcDbEntity
  8
SEIHIN
  6
CONTINUOUS
 62
     3
100
AcDbCircle
 10
564.3757737678522
 20
1012.268100854081
 30
0.0
 40
4.0
100
AcDbArc
 50
90.0
 51
180.0
  0
ARC
  5
314
330
19
100
AcDbEntity
  8
SEIHIN
  6
CONTINUOUS
 62
     3
100
AcDbCircle
 10
561.3757737678522
 20
1014.768100854082
 30
0.0
 40
4.0
100
AcDbArc
 50
90.0
 51
180.0
  0
ARC
  5
316
330
19
100
AcDbEntity
  8
SEIHIN
  6
CONTINUOUS
 62
     3
100
AcDbCircle
 10
602.6794737678523
 20
1006.198700854082
 30
0.0
 40
7.0
100
AcDbArc
 50
90.0
 51
180.0
  0
ARC
  5
317
330
19
100
AcDbEntity
  8
SEIHIN
  6
CONTINUOUS
 62
     3
100
AcDbCircle
 10
589.6492737678522
 20
1009.268100854082
 30
0.0
 40
7.0
100
AcDbArc
 50
90.0
 51
180.0
  0
ARC
  5
318
330
19
100
AcDbEntity
  8
SEIHIN
  6
CONTINUOUS
 62
     3
100
AcDbCircle
 10
580.9365737678522
 20
1009.268100854082
 30
0.0
 40
7.0
100
AcDbArc
 50
90.0
 51
180.0
  0
ARC
  5
319
330
19
100
AcDbEntity
  8
SEIHIN
  6
CONTINUOUS
 62
     3
100
AcDbCircle
 10
580.2137737678523
 20
1009.268100854082
 30
0.0
 40
7.0
100
AcDbArc
 50
90.0
 51
180.0
  0
LINE
  5
31A
330
19
100
AcDbEntity
  8
SEIHIN
  6
CONTINUOUS
 62
     3
100
AcDbLine
 10
670.3757737678522
 20
1013.198600854082
 30
0.0
 11
738.0723737678522
 21
1013.198500854082
 31
0.0
  0
ARC
  5
31F
330
19
100
AcDbEntity
  8
SEIHIN
  6
CONTINUOUS
 62
     3
100
AcDbCircle
 10
738.0723737678522
 20
1006.198500854081
 30
0.0
 40
7.0
100
AcDbArc
 50
0.0
 51
90.0
  0
LINE
  5
320
330
19
100
AcDbEntity
  8
SEIHIN
  6
CONTINUOUS
 62
     3
100
AcDbLine
 10
1039.026973767852
 20
527.583000854082
 30
0.0
 11
1055.931673767852
 21
368.477400854082
 31
0.0
  0
LINE
  5
321
330
19
100
AcDbEntity
  8
CENTER_L
  6
CENTER
 62
     1
 48
5.0
100
AcDbLine
 10
1141.931773767852
 20
269.579600854082
 30
0.0
 11
1141.931773767852
 21
386.7633852509643
 31
0.0
  0
LINE
  5
322
330
19
100
AcDbEntity
  8
SEIHIN
  6
CONTINUOUS
 62
     3
100
AcDbLine
 10
1218.931773767852
 20
568.4774008540819
 30
0.0
 11
1215.931773767852
 21
368.477400854082
 31
0.0
  0
LINE
  5
324
330
19
100
AcDbEntity
  8
SEIHIN
  6
CONTINUOUS
 62
     3
100
AcDbLine
 10
1055.931673767852
 20
368.477400854082
 30
0.0
 11
1215.931773767852
 21
368.477400854082
 31
0.0
  0
LINE
  5
325
330
19
100
AcDbEntity
  8
SEIHIN
  6
CONTINUOUS
 62
     3
100
AcDbLine
 10
1092.483373767852
 20
354.477400854082
 30
0.0
 11
1141.931773767852
 21
354.477400854082
 31
0.0
  0
LINE
  5
326
330
19
100
AcDbEntity
  8
SEIHIN
  6
CONTINUOUS
 62
     3
100
AcDbLine
 10
1095.931973767852
 20
350.477400854082
 30
0.0
 11
1141.931773767852
 21
350.477400854082
 31
0.0
  0
LINE
  5
327
330
19
100
AcDbEntity
  8
SEIHIN
  6
CONTINUOUS
 62
     3
100
AcDbLine
 10
1097.981673767852
 20
310.477400854082
 30
0.0
 11
1141.931773767852
 21
310.477400854082
 31
0.0
  0
LINE
  5
328
330
19
100
AcDbEntity
  8
SEIHIN
  6
CONTINUOUS
 62
     3
100
AcDbLine
 10
1104.681673767852
 20
305.477400854082
 30
0.0
 11
1141.931773767852
 21
305.477400854082
 31
0.0
  0
LINE
  5
329
330
19
100
AcDbEntity
  8
SEIHIN
  6
CONTINUOUS
 62
     3
100
AcDbLine
 10
1106.531573767852
 20
285.477400854082
 30
0.0
 11
1141.931773767852
 21
285.477400854082
 31
0.0
  0
LINE
  5
32A
330
19
100
AcDbEntity
  8
SEIHIN
  6
CONTINUOUS
 62
     3
100
AcDbLine
 10
1097.481673767852
 20
350.477400854082
 30
0.0
 11
1097.981673767852
 21
310.477400854082
 31
0.0
  0
LINE
  5
32B
330
19
100
AcDbEntity
  8
SEIHIN
  6
CONTINUOUS
 62
     3
100
AcDbLine
 10
1106.031573767852
 20
305.477400854082
 30
0.0
 11
1106.531573767852
 21
285.477400854082
 31
0.0
  0
LINE
  5
32C
330
19
100
AcDbEntity
  8
SEIHIN
  6
CONTINUOUS
 62
     3
100
AcDbLine
 10
1104.681673767852
 20
305.477400854082
 30
0.0
 11
1097.981673767852
 21
310.477400854082
 31
0.0
  0
ARC
  5
32D
330
19
100
AcDbEntity
  8
SEIHIN
  6
CONTINUOUS
 62
     3
100
AcDbCircle
 10
1060.231673767852
 20
367.4312008540819
 30
0.0
 40
4.000008
100
AcDbArc
 50
180.0
 51
254.719253
  0
LINE
  5
32E
330
19
100
AcDbEntity
  8
SEIHIN
  6
CONTINUOUS
 62
     3
100
AcDbLine
 10
1056.231673767852
 20
367.4312008540819
 30
0.0
 11
1056.231673767852
 21
368.477400854082
 31
0.0
  0
LINE
  5
32F
330
19
100
AcDbEntity
  8
SEIHIN
  6
CONTINUOUS
 62
     3
100
AcDbLine
 10
1059.177473767852
 20
363.5725008540819
 30
0.0
 11
1092.986173767852
 21
354.3360008540819
 31
0.0
  0
ARC
  5
330
330
19
100
AcDbEntity
  8
SEIHIN
  6
CONTINUOUS
 62
     3
100
AcDbCircle
 10
1091.931973767852
 20
350.477400854082
 30
0.0
 40
4.000016
100
AcDbArc
 50
0.0
 51
74.30015300000002
  0
LINE
  5
332
330
19
100
AcDbEntity
  8
SEIHIN
  6
CONTINUOUS
 62
     3
100
AcDbLine
 10
1186.381773767852
 20
350.477400854082
 30
0.0
 11
1185.881773767852
 21
310.477400854082
 31
0.0
  0
LINE
  5
333
330
19
100
AcDbEntity
  8
SEIHIN
  6
CONTINUOUS
 62
     3
100
AcDbLine
 10
1185.881773767852
 20
310.477400854082
 30
0.0
 11
1141.931773767852
 21
310.477400854082
 31
0.0
  0
LINE
  5
334
330
19
100
AcDbEntity
  8
SEIHIN
  6
CONTINUOUS
 62
     3
100
AcDbLine
 10
1179.181773767852
 20
305.477400854082
 30
0.0
 11
1185.881773767852
 21
310.477400854082
 31
0.0
  0
LINE
  5
335
330
19
100
AcDbEntity
  8
SEIHIN
  6
CONTINUOUS
 62
     3
100
AcDbLine
 10
1179.181773767852
 20
305.477400854082
 30
0.0
 11
1141.931773767852
 21
305.477400854082
 31
0.0
  0
LINE
  5
336
330
19
100
AcDbEntity
  8
SEIHIN
  6
CONTINUOUS
 62
     3
100
AcDbLine
 10
1177.331773767852
 20
285.477400854082
 30
0.0
 11
1141.931773767852
 21
285.477400854082
 31
0.0
  0
LINE
  5
337
330
19
100
AcDbEntity
  8
SEIHIN
  6
CONTINUOUS
 62
     3
100
AcDbLine
 10
1177.831773767852
 20
305.477400854082
 30
0.0
 11
1177.331773767852
 21
285.477400854082
 31
0.0
  0
LINE
  5
338
330
19
100
AcDbEntity
  8
SEIHIN
  6
CONTINUOUS
 62
     3
100
AcDbLine
 10
1191.379773767852
 20
354.477400854082
 30
0.0
 11
1141.931773767852
 21
354.477400854082
 31
0.0
  0
LINE
  5
339
330
19
100
AcDbEntity
  8
SEIHIN
  6
CONTINUOUS
 62
     3
100
AcDbLine
 10
1187.931773767852
 20
350.477400854082
 30
0.0
 11
1141.931773767852
 21
350.477400854082
 31
0.0
  0
LINE
  5
33A
330
19
100
AcDbEntity
  8
SEIHIN
  6
CONTINUOUS
 62
     3
100
AcDbLine
 10
1215.513773767852
 20
364.2158008540819
 30
0.0
 11
1215.631773767852
 21
368.477400854082
 31
0.0
  0
ARC
  5
33B
330
19
100
AcDbEntity
  8
SEIHIN
  6
CONTINUOUS
 62
     3
100
AcDbCircle
 10
1211.514773767852
 20
364.326900854082
 30
0.0
 40
4.000276999999999
100
AcDbArc
 50
285.78327
 51
358.408621
  0
LINE
  5
33C
330
19
100
AcDbEntity
  8
SEIHIN
  6
CONTINUOUS
 62
     3
100
AcDbLine
 10
1212.602773767852
 20
360.4777008540819
 30
0.0
 11
1190.843773767852
 21
354.326600854082
 31
0.0
  0
ARC
  5
33D
330
19
100
AcDbEntity
  8
SEIHIN
  6
CONTINUOUS
 62
     3
100
AcDbCircle
 10
1191.931773767852
 20
350.477400854082
 30
0.0
 40
4.000097
100
AcDbArc
 50
105.7081209999999
 51
180.0
  0
LINE
  5
33E
330
19
100
AcDbEntity
  8
SEIHIN
  6
CONTINUOUS
 62
     3
100
AcDbLine
 10
783.3758737678522
 20
819.7681008540818
 30
0.0
 11
783.3759512037516
 21
895.2681029053639
 31
0.0
  0
LINE
  5
33F
330
19
100
AcDbEntity
  8
SEIHIN
  6
CONTINUOUS
 62
     3
100
AcDbLine
 10
780.3758737678522
 20
822.768100854082
 30
0.0
 11
780.3760737678523
 21
1012.267900854082
 31
0.0
  0
LINE
  5
340
330
19
100
AcDbEntity
  8
SEIHIN
  6
CONTINUOUS
 62
     3
100
AcDbLine
 10
779.4847737678521
 20
823.660000854082
 30
0.0
 11
779.4849737678522
 21
1012.267900854082
 31
0.0
  0
LINE
  5
341
330
19
100
AcDbEntity
  8
SEIHIN
  6
CONTINUOUS
 62
     3
100
AcDbLine
 10
758.1023737678523
 20
847.964400854082
 30
0.0
 11
758.1025737678523
 21
1009.268100854082
 31
0.0
  0
LINE
  5
342
330
19
100
AcDbEntity
  8
SEIHIN
  6
CONTINUOUS
 62
     3
100
AcDbLine
 10
767.5379737678522
 20
838.6558008540818
 30
0.0
 11
767.5380737678523
 21
1009.268100854082
 31
0.0
  0
LINE
  5
343
330
19
100
AcDbEntity
  8
SEIHIN
  6
CONTINUOUS
 62
     3
100
AcDbLine
 10
766.8151737678522
 20
839.1559008540818
 30
0.0
 11
766.8152737678523
 21
1009.268100854082
 31
0.0
  0
LINE
  5
345
330
19
100
AcDbEntity
  8
SEIHIN
  6
CONTINUOUS
 62
     3
100
AcDbLine
 10
1015.931973767852
 20
568.4774008540819
 30
0.0
 11
1218.931773767852
 21
568.4774008540819
 31
0.0
  0
LINE
  5
346
330
19
100
AcDbEntity
  8
SEIHIN
  6
CONTINUOUS
 62
     3
100
AcDbLine
 10
1020.786573767852
 20
541.4774008540819
 30
0.0
 11
1214.443304341929
 21
541.4774008540821
 31
0.0
  0
LINE
  5
347
330
19
100
AcDbEntity
  8
SEIHIN
  6
CONTINUOUS
 62
     3
100
AcDbLine
 10
1033.280973767852
 20
528.4774008540819
 30
0.0
 11
1215.235107101186
 21
528.4774008540819
 31
0.0
  0
ARC
  5
348
330
19
100
AcDbEntity
  8
SEIHIN
  6
CONTINUOUS
 62
     3
100
AcDbCircle
 10
778.5210737678522
 20
545.4774008540819
 30
0.0
 40
4.000021
100
AcDbArc
 50
270.0
 51
357.878161
  0
ARC
  5
349
330
19
100
AcDbEntity
  8
SEIHIN
  6
CONTINUOUS
 62
     3
100
AcDbCircle
 10
765.8691737678523
 20
532.4774008540819
 30
0.0
 40
3.999987999999999
100
AcDbArc
 50
270.0
 51
356.815561
  0
ARC
  5
34A
330
19
100
AcDbEntity
  8
SEIHIN
  6
CONTINUOUS
 62
     3
100
AcDbCircle
 10
761.3006737678522
 20
527.4774008540819
 30
0.0
 40
1.000014999999999
100
AcDbArc
 50
90.0
 51
175.538017
  0
LINE
  5
34B
330
19
100
AcDbEntity
  8
SEIHIN
  6
CONTINUOUS
 62
     3
100
AcDbLine
 10
770.3232737678522
 20
540.532900854082
 30
0.0
 11
769.8629737678523
 21
532.2552008540819
 31
0.0
  0
ARC
  5
34C
330
19
100
AcDbEntity
  8
SEIHIN
  6
CONTINUOUS
 62
     3
100
AcDbCircle
 10
771.3216737678522
 20
540.4774008540819
 30
0.0
 40
1.000020999999999
100
AcDbArc
 50
90.0
 51
176.818581
  0
LINE
  5
34D
330
19
100
AcDbEntity
  8
SEIHIN
  6
CONTINUOUS
 62
     3
100
AcDbLine
 10
783.3757737678523
 20
568.4774008540819
 30
0.0
 11
782.5183737678522
 21
545.3293008540819
 31
0.0
  0
ARC
  5
34E
330
19
100
AcDbEntity
  8
SEIHIN
  6
CONTINUOUS
 62
     3
100
AcDbCircle
 10
1020.786573767852
 20
545.4774008540819
 30
0.0
 40
4.000021
100
AcDbArc
 50
182.121839
 51
270.0
  0
LINE
  5
34F
330
19
100
AcDbEntity
  8
SEIHIN
  6
CONTINUOUS
 62
     3
100
AcDbLine
 10
1028.968773767852
 20
540.515800854082
 30
0.0
 11
1029.283873767852
 21
532.3236008540821
 31
0.0
  0
ARC
  5
350
330
19
100
AcDbEntity
  8
SEIHIN
  6
CONTINUOUS
 62
     3
100
AcDbCircle
 10
1027.969573767852
 20
540.4774008540819
 30
0.0
 40
0.9999689999999999
100
AcDbArc
 50
2.200836
 51
90.0
  0
ARC
  5
351
330
19
100
AcDbEntity
  8
SEIHIN
  6
CONTINUOUS
 62
     3
100
AcDbCircle
 10
1033.280973767852
 20
532.4774008540819
 30
0.0
 40
4.000029
100
AcDbArc
 50
182.203534
 51
270.0
  0
ARC
  5
352
330
19
100
AcDbEntity
  8
SEIHIN
  6
CONTINUOUS
 62
     3
100
AcDbCircle
 10
1038.032573767852
 20
527.4774008540819
 30
0.0
 40
0.9999959999999997
100
AcDbArc
 50
6.061789
 51
90.0
  0
LINE
  5
353
330
19
100
AcDbEntity
  8
SEIHIN
  6
CONTINUOUS
 62
     3
100
AcDbLine
 10
1015.931973767852
 20
568.477700854082
 30
0.0
 11
1016.789273767852
 21
545.3293008540819
 31
0.0
  0
ARC
  5
354
330
19
100
AcDbEntity
  8
SEIHIN
  6
CONTINUOUS
 62
     3
100
AcDbCircle
 10
776.3758737678522
 20
822.768100854082
 30
0.0
 40
4.0
100
AcDbArc
 50
270.0
 51
0.0
  0
ARC
  5
355
330
19
100
AcDbEntity
  8
SEIHIN
  6
CONTINUOUS
 62
     3
100
AcDbCircle
 10
779.3758737678522
 20
819.7681008540818
 30
0.0
 40
4.0
100
AcDbArc
 50
270.0
 51
0.0
  0
ARC
  5
356
330
19
100
AcDbEntity
  8
SEIHIN
  6
CONTINUOUS
 62
     3
100
AcDbCircle
 10
775.4847737678521
 20
823.660000854082
 30
0.0
 40
4.0
100
AcDbArc
 50
270.0
 51
0.0
  0
ARC
  5
357
330
19
100
AcDbEntity
  8
SEIHIN
  6
CONTINUOUS
 62
     3
100
AcDbCircle
 10
760.5379737678522
 20
838.6558008540818
 30
0.0
 40
7.0
100
AcDbArc
 50
270.0
 51
0.0
  0
ARC
  5
358
330
19
100
AcDbEntity
  8
SEIHIN
  6
CONTINUOUS
 62
     3
100
AcDbCircle
 10
759.8151737678522
 20
839.1559008540818
 30
0.0
 40
7.0
100
AcDbArc
 50
270.0
 51
0.0
  0
ARC
  5
359
330
19
100
AcDbEntity
  8
SEIHIN
  6
CONTINUOUS
 62
     3
100
AcDbCircle
 10
779.3760737678523
 20
1014.768100854082
 30
0.0
 40
4.0
100
AcDbArc
 50
0.0
 51
90.0
  0
ARC
  5
35A
330
19
100
AcDbEntity
  8
SEIHIN
  6
CONTINUOUS
 62
     3
100
AcDbCircle
 10
759.8152737678523
 20
1009.268100854082
 30
0.0
 40
7.0
100
AcDbArc
 50
0.0
 51
90.0
  0
ARC
  5
35B
330
19
100
AcDbEntity
  8
SEIHIN
  6
CONTINUOUS
 62
     3
100
AcDbCircle
 10
760.5380737678522
 20
1009.268100854082
 30
0.0
 40
7.0
100
AcDbArc
 50
0.0
 51
90.0
  0
ARC
  5
35C
330
19
100
AcDbEntity
  8
SEIHIN
  6
CONTINUOUS
 62
     3
100
AcDbCircle
 10
775.4849737678522
 20
1012.267900854082
 30
0.0
 40
4.0
100
AcDbArc
 50
0.0
 51
90.0
  0
ARC
  5
35D
330
19
100
AcDbEntity
  8
SEIHIN
  6
CONTINUOUS
 62
     3
100
AcDbCircle
 10
776.3760737678523
 20
1012.267900854082
 30
0.0
 40
4.0
100
AcDbArc
 50
0.0
 51
90.0
  0
LINE
  5
47F
330
19
100
AcDbEntity
  8
SEIHIN
  6
CONTINUOUS
 62
     3
100
AcDbLine
 10
785.3759963319557
 20
937.2681008540819
 30
0.0
 11
796.3759922293975
 21
937.2681008540819
 31
0.0
  0
LINE
  5
480
330
19
100
AcDbEntity
  8
SEIHIN
  6
CONTINUOUS
 62
     3
100
AcDbLine
 10
785.3759512037505
 20
897.2681008540819
 30
0.0
 11
796.3759553063206
 21
897.2681008540819
 31
0.0
  0
LINE
  5
481
330
19
100
AcDbEntity
  8
SEIHIN
  6
CONTINUOUS
 62
     3
100
AcDbLine
 10
798.3759553063196
 20
899.2680988027998
 30
0.0
 11
798.3759922293964
 21
935.2680988027998
 31
0.0
  0
LINE
  5
482
330
19
100
AcDbEntity
  8
CENTER_L
  6
CENTER
 62
     1
 48
5.0
100
AcDbLine
 10
790.8759582758102
 20
902.1633560388192
 30
0.0
 11
790.8759687470817
 21
912.3728456693449
 31
0.0
  0
ARC
  5
483
330
19
100
AcDbEntity
  8
SEIHIN
  6
CONTINUOUS
 62
     3
100
AcDbCircle
 10
796.3759922293975
 20
935.268100854082
 30
0.0
 40
2.0
100
AcDbArc
 50
359.9999412350978
 51
90.0
  0
ARC
  5
484
330
19
100
AcDbEntity
  8
SEIHIN
  6
CONTINUOUS
 62
     3
100
AcDbCircle
 10
796.3759553063206
 20
899.2681008540818
 30
0.0
 40
2.0
100
AcDbArc
 50
269.9999999999999
 51
359.9999412350979
  0
LINE
  5
485
330
19
100
AcDbEntity
  8
CENTER_L
  6
CENTER
 62
     1
 48
5.0
100
AcDbLine
 10
785.771239209001
 20
927.268100854082
 30
0.0
 11
795.9807288395321
 21
927.268100854082
 31
0.0
  0
LINE
  5
486
330
19
100
AcDbEntity
  8
CENTER_L
  6
CENTER
 62
     1
 48
5.0
100
AcDbLine
 10
785.7712186961804
 20
907.268100854082
 30
0.0
 11
795.9807083267116
 21
907.268100854082
 31
0.0
  0
CIRCLE
  5
487
330
19
100
AcDbEntity
  8
SEIHIN
  6
CONTINUOUS
 62
     3
100
AcDbCircle
 10
790.8759840242666
 20
927.268100854082
 30
0.0
 40
2.25
  0
CIRCLE
  5
488
330
19
100
AcDbEntity
  8
SEIHIN
  6
CONTINUOUS
 62
     3
100
AcDbCircle
 10
790.875963511446
 20
907.268100854082
 30
0.0
 40
2.25
  0
LINE
  5
489
330
19
100
AcDbEntity
  8
SEIHIN
  6
CONTINUOUS
 62
     3
100
AcDbLine
 10
783.3759963319567
 20
939.268102905364
 30
0.0
 11
783.3760737678523
 21
1014.768100854082
 31
0.0
  0
ARC
  5
48A
330
19
100
AcDbEntity
  8
SEIHIN
  6
CONTINUOUS
 62
     3
100
AcDbCircle
 10
785.3759963319557
 20
939.2681008540819
 30
0.0
 40
2.0
100
AcDbArc
 50
179.9999412350978
 51
270.0
  0
ARC
  5
48B
330
19
100
AcDbEntity
  8
SEIHIN
  6
CONTINUOUS
 62
     3
100
AcDbCircle
 10
785.3759512037505
 20
895.2681008540819
 30
0.0
 40
2.0
100
AcDbArc
 50
90.0
 51
179.999941235098
  0
LINE
  5
48E
330
19
100
AcDbEntity
  8
CENTER_L
  6
CENTER
 62
     1
 48
5.0
100
AcDbLine
 10
790.8759787886307
 20
922.1633560388191
 30
0.0
 11
790.8759892599021
 21
932.3728456693448
 31
0.0
  0
ARC
  5
48F
330
19
100
AcDbEntity
  8
SEIHIN
  6
CONTINUOUS
 62
     3
100
AcDbCircle
 10
544.3758772151542
 20
899.2682134853522
 30
0.0
 40
2.0
100
AcDbArc
 50
180.0000075482795
 51
269.9999487833775
  0
LINE
  5
490
330
19
100
AcDbEntity
  8
SEIHIN
  6
CONTINUOUS
 62
     3
100
AcDbLine
 10
555.3757755556496
 20
897.2682036525567
 30
0.0
 11
544.3758754273568
 21
897.2682134853529
 31
0.0
  0
LINE
  5
491
330
19
100
AcDbEntity
  8
SEIHIN
  6
CONTINUOUS
 62
     3
100
AcDbLine
 10
542.3758772151542
 20
899.2682132218675
 30
0.0
 11
542.3758724724303
 21
935.2682132218863
 31
0.0
  0
LINE
  5
492
330
19
100
AcDbEntity
  8
CENTER_L
  6
CENTER
 62
     1
 48
5.0
100
AcDbLine
 10
554.9806209764798
 20
907.2682040057889
 30
0.0
 11
544.7711313459527
 21
907.2682131320384
 31
0.0
  0
LINE
  5
493
330
19
100
AcDbEntity
  8
CENTER_L
  6
CENTER
 62
     1
 48
5.0
100
AcDbLine
 10
549.8758768337272
 20
902.1634637536482
 30
0.0
 11
549.8758754887052
 21
912.3729533841792
 31
0.0
  0
CIRCLE
  5
494
330
19
100
AcDbEntity
  8
SEIHIN
  6
CONTINUOUS
 62
     3
100
AcDbCircle
 10
549.8758761612163
 20
907.2682085689136
 30
0.0
 40
2.25
  0
LINE
  5
495
330
19
100
AcDbEntity
  8
CENTER_L
  6
CENTER
 62
     1
 48
5.0
100
AcDbLine
 10
554.9806183416331
 20
927.2682040057993
 30
0.0
 11
544.771128711106
 21
927.2682131320488
 31
0.0
  0
LINE
  5
496
330
19
100
AcDbEntity
  8
SEIHIN
  6
CONTINUOUS
 62
     3
100
AcDbLine
 10
555.3757719800548
 20
937.2682036525757
 30
0.0
 11
544.3758742602277
 21
937.2682134853702
 31
0.0
  0
LINE
  5
497
330
19
100
AcDbEntity
  8
CENTER_L
  6
CENTER
 62
     1
 48
5.0
100
AcDbLine
 10
549.8758741988807
 20
922.1634637536586
 30
0.0
 11
549.8758728538588
 21
932.3729533841897
 31
0.0
  0
CIRCLE
  5
498
330
19
100
AcDbEntity
  8
SEIHIN
  6
CONTINUOUS
 62
     3
100
AcDbCircle
 10
549.8758735263695
 20
927.2682085689242
 30
0.0
 40
2.25
  0
ARC
  5
499
330
19
100
AcDbEntity
  8
SEIHIN
  6
CONTINUOUS
 62
     3
100
AcDbCircle
 10
544.3758724724303
 20
935.268213485371
 30
0.0
 40
2.0
100
AcDbArc
 50
89.9999487833775
 51
180.0000075482796
  0
LINE
  5
49F
330
19
100
AcDbEntity
  8
SEIHIN
  6
CONTINUOUS
 62
     3
100
AcDbLine
 10
557.3757737678521
 20
939.268203652575
 30
0.0
 11
557.3757737678522
 21
1014.768100854082
 31
0.0
  0
ARC
  5
4A0
330
19
100
AcDbEntity
  8
SEIHIN
  6
CONTINUOUS
 62
     3
100
AcDbCircle
 10
555.3757737678521
 20
939.268203652575
 30
0.0
 40
2.0
100
AcDbArc
 50
269.9999487833772
 51
359.9999999999999
  0
ARC
  5
4A1
330
19
100
AcDbEntity
  8
SEIHIN
  6
CONTINUOUS
 62
     3
100
AcDbCircle
 10
555.3757737678522
 20
895.2682036525574
 30
0.0
 40
2.0
100
AcDbArc
 50
0.0
 51
89.9999487833775
  0
LINE
  5
4A2
330
19
100
AcDbEntity
  8
SEIHIN
  6
CONTINUOUS
 62
     3
100
AcDbLine
 10
798.3759553063196
 20
568.4774008540819
 30
0.0
 11
798.3759553063196
 21
564.477400854082
 31
0.0
  0
LINE
  5
4A3
330
19
100
AcDbEntity
  8
SEIHIN
  6
CONTINUOUS
 62
     3
100
AcDbLine
 10
542.3758772151542
 20
568.4774008540817
 30
0.0
 11
542.3758772151542
 21
564.4774008540817
 31
0.0
  0
LINE
  5
4A5
330
19
100
AcDbEntity
  8
SEIHIN
  6
CONTINUOUS
 62
     3
100
AcDbLine
 10
542.3758772151542
 20
564.4774008540817
 30
0.0
 11
557.523915515987
 21
564.4774008540819
 31
0.0
  0
LINE
  5
4A6
330
19
100
AcDbEntity
  8
SEIHIN
  6
CONTINUOUS
 62
     3
100
AcDbLine
 10
783.2276147396815
 20
564.4774008540819
 30
0.0
 11
798.3759553063196
 21
564.4774008540819
 31
0.0
  0
LINE
  5
4A7
330
19
100
AcDbEntity
  8
CENTER_L
  6
CENTER
 62
     1
 48
5.0
100
AcDbLine
 10
790.8759553063196
 20
573.4774008540819
 30
0.0
 11
790.8759553063197
 21
559.477400854082
 31
0.0
  0
LINE
  5
4AA
330
19
100
AcDbEntity
  8
CENTER_L
  6
CENTER
 62
     1
 48
5.0
100
AcDbLine
 10
549.8760587536215
 20
573.4774008540817
 30
0.0
 11
549.8760587536216
 21
559.4774008540818
 31
0.0
  0
LINE
  5
4AB
330
19
100
AcDbEntity
  8
SEIHIN
  6
CONTINUOUS
 62
     3
100
AcDbLine
 10
761.8223682820359
 20
511.4774008540819
 30
0.0
 11
766.4276949812667
 21
511.4774008540819
 31
0.0
  0
LINE
  5
4AD
330
19
100
AcDbEntity
  8
CENTER_L
  6
CENTER
 62
     1
 48
5.0
100
AcDbLine
 10
770.3757737678523
 20
529.7158789384496
 30
0.0
 11
770.3757737678523
 21
521.2389227697142
 31
0.0
  0
LINE
  5
4AE
330
19
100
AcDbEntity
  8
CENTER_L
  6
CENTER
 62
     1
 48
5.0
100
AcDbLine
 10
766.1372956834846
 20
525.4774008540819
 30
0.0
 11
774.6142518522199
 21
525.4774008540818
 31
0.0
  0
LINE
  5
4AF
330
19
100
AcDbEntity
  8
SEIHIN
  6
CONTINUOUS
 62
     3
100
AcDbLine
 10
758.8314817804275
 20
508.7110628631954
 30
0.0
 11
760.3036737678523
 21
527.5552008540819
 31
0.0
  0
ARC
  5
4B0
330
19
100
AcDbEntity
  8
SEIHIN
  6
CONTINUOUS
 62
     3
100
AcDbCircle
 10
761.8223682820359
 20
508.4774008540819
 30
0.0
 40
3.0
100
AcDbArc
 50
90.00000000000003
 51
175.5328599568078
  0
ARC
  5
4B3
330
19
100
AcDbEntity
  8
SEIHIN
  6
CONTINUOUS
 62
     3
100
AcDbCircle
 10
770.3757737678523
 20
525.4774008540818
 30
0.0
 40
2.25
100
AcDbArc
 50
3.05343121719131
 51
176.9465687828085
  0
LINE
  5
4B4
330
19
100
AcDbEntity
  8
SEIHIN
  6
CONTINUOUS
 62
     3
100
AcDbLine
 10
767.4262752758683
 20
512.4241336480959
 30
0.0
 11
768.1289681049989
 21
525.5972520675505
 31
0.0
  0
LINE
  5
4B5
330
19
100
AcDbEntity
  8
SEIHIN
  6
CONTINUOUS
 62
     3
100
AcDbLine
 10
773.325272259836
 20
512.4241336480959
 30
0.0
 11
772.6225794307056
 21
525.5972520675505
 31
0.0
  0
LINE
  5
4B6
330
19
100
AcDbEntity
  8
SEIHIN
  6
CONTINUOUS
 62
     3
100
AcDbLine
 10
774.3238525544374
 20
511.4774008540819
 30
0.0
 11
778.0178134808764
 21
511.4774008540819
 31
0.0
  0
ARC
  5
4B7
330
19
100
AcDbEntity
  8
SEIHIN
  6
CONTINUOUS
 62
     3
100
AcDbCircle
 10
766.4276949812667
 20
512.4774008540819
 30
0.0
 40
1.0
100
AcDbArc
 50
270.0
 51
356.9465687828079
  0
ARC
  5
4B8
330
19
100
AcDbEntity
  8
SEIHIN
  6
CONTINUOUS
 62
     3
100
AcDbCircle
 10
774.3238525544374
 20
512.4774008540819
 30
0.0
 40
1.0
100
AcDbArc
 50
183.053431217192
 51
270.0
  0
LINE
  5
4BA
330
19
100
AcDbEntity
  8
SEIHIN
  6
CONTINUOUS
 62
     3
100
AcDbLine
 10
782.5183737678522
 20
545.3293008540819
 30
0.0
 11
781.0142879646642
 21
514.3320025459494
 31
0.0
  0
ARC
  5
4BB
330
19
100
AcDbEntity
  8
SEIHIN
  6
CONTINUOUS
 62
     3
100
AcDbCircle
 10
778.0178134808764
 20
514.4774008540819
 30
0.0
 40
3.0
100
AcDbArc
 50
270.0
 51
357.222008573964
  0
LINE
  5
4CA
330
19
100
AcDbEntity
  8
SEIHIN
  6
CONTINUOUS
 62
     3
100
AcDbLine
 10
573.3252722598361
 20
512.4241336480959
 30
0.0
 11
572.6225794307056
 21
525.5972520675505
 31
0.0
  0
ARC
  5
4CB
330
19
100
AcDbEntity
  8
SEIHIN
  6
CONTINUOUS
 62
     3
100
AcDbCircle
 10
574.3238525544377
 20
512.4774008540819
 30
0.0
 40
1.0
100
AcDbArc
 50
183.053431217192
 51
270.0
  0
LINE
  5
4CC
330
19
100
AcDbEntity
  8
SEIHIN
  6
CONTINUOUS
 62
     3
100
AcDbLine
 10
578.9291792536685
 20
511.4774008540819
 30
0.0
 11
574.3238525544377
 21
511.4774008540819
 31
0.0
  0
LINE
  5
4CD
330
19
100
AcDbEntity
  8
CENTER_L
  6
CENTER
 62
     1
 48
5.0
100
AcDbLine
 10
570.3757737678522
 20
529.7158789384496
 30
0.0
 11
570.3757737678522
 21
521.2389227697142
 31
0.0
  0
LINE
  5
4CE
330
19
100
AcDbEntity
  8
SEIHIN
  6
CONTINUOUS
 62
     3
100
AcDbLine
 10
558.2331737678522
 20
545.3293008540819
 30
0.0
 11
559.7372595710402
 21
514.3320025459494
 31
0.0
  0
LINE
  5
4CF
330
19
100
AcDbEntity
  8
SEIHIN
  6
CONTINUOUS
 62
     3
100
AcDbLine
 10
567.4262752758685
 20
512.4241336480959
 30
0.0
 11
568.1289681049988
 21
525.5972520675505
 31
0.0
  0
ARC
  5
4D0
330
19
100
AcDbEntity
  8
SEIHIN
  6
CONTINUOUS
 62
     3
100
AcDbCircle
 10
562.733734054828
 20
514.4774008540819
 30
0.0
 40
3.0
100
AcDbArc
 50
182.7779914260359
 51
270.0
  0
LINE
  5
4D1
330
19
100
AcDbEntity
  8
SEIHIN
  6
CONTINUOUS
 62
     3
100
AcDbLine
 10
566.427694981267
 20
511.4774008540819
 30
0.0
 11
562.733734054828
 21
511.4774008540819
 31
0.0
  0
ARC
  5
4D2
330
19
100
AcDbEntity
  8
SEIHIN
  6
CONTINUOUS
 62
     3
100
AcDbCircle
 10
566.427694981267
 20
512.4774008540819
 30
0.0
 40
1.0
100
AcDbArc
 50
270.0
 51
356.9465687828079
  0
ARC
  5
4D3
330
19
100
AcDbEntity
  8
SEIHIN
  6
CONTINUOUS
 62
     3
100
AcDbCircle
 10
578.9291792536685
 20
508.4774008540819
 30
0.0
 40
3.0
100
AcDbArc
 50
4.467140043192152
 51
89.99999999999998
  0
LINE
  5
4D4
330
19
100
AcDbEntity
  8
CENTER_L
  6
CENTER
 62
     1
 48
5.0
100
AcDbLine
 10
574.6142518522199
 20
525.4774008540819
 30
0.0
 11
566.1372956834846
 21
525.4774008540818
 31
0.0
  0
ARC
  5
4D5
330
19
100
AcDbEntity
  8
SEIHIN
  6
CONTINUOUS
 62
     3
100
AcDbCircle
 10
570.3757737678522
 20
525.4774008540818
 30
0.0
 40
2.25
100
AcDbArc
 50
3.053431217191472
 51
176.9465687828086
  0
LINE
  5
4E2
330
19
100
AcDbEntity
  8
SEIHIN
  6
CONTINUOUS
 62
     3
100
AcDbLine
 10
1137.431773767852
 20
568.4774008540819
 30
0.0
 11
1137.431773767852
 21
564.4774008540819
 31
0.0
  0
LINE
  5
4E3
330
19
100
AcDbEntity
  8
SEIHIN
  6
CONTINUOUS
 62
     3
100
AcDbLine
 10
1097.431773767852
 20
568.4774008540819
 30
0.0
 11
1097.431773767852
 21
564.4774008540819
 31
0.0
  0
LINE
  5
4E4
330
19
100
AcDbEntity
  8
SEIHIN
  6
CONTINUOUS
 62
     3
100
AcDbLine
 10
1097.431773767852
 20
564.4774008540819
 30
0.0
 11
1137.431773767852
 21
564.4774008540819
 31
0.0
  0
LINE
  5
4E7
330
19
100
AcDbEntity
  8
CENTER_L
  6
CENTER
 62
     1
 48
5.0
100
AcDbLine
 10
1107.431773767852
 20
573.4774008540819
 30
0.0
 11
1107.431773767852
 21
559.477400854082
 31
0.0
  0
LINE
  5
4E8
330
19
100
AcDbEntity
  8
CENTER_L
  6
CENTER
 62
     1
 48
5.0
100
AcDbLine
 10
1127.431773767852
 20
573.4774008540819
 30
0.0
 11
1127.431773767852
 21
559.477400854082
 31
0.0
  0
LINE
  5
4E9
330
19
100
AcDbEntity
  8
SEIHIN
  6
CONTINUOUS
 62
     3
100
AcDbLine
 10
1215.631773767852
 20
511.477400854082
 30
0.0
 11
1218.076773767852
 21
511.477400854082
 31
0.0
  0
LINE
  5
4ED
330
19
100
AcDbEntity
  8
SEIHIN
  6
CONTINUOUS
 62
     3
100
AcDbLine
 10
1214.943168286371
 20
540.989064346119
 30
0.0
 11
1215.631773767852
 21
511.4774008540819
 31
0.0
  0
ARC
  5
4EE
330
19
100
AcDbEntity
  8
SEIHIN
  6
CONTINUOUS
 62
     3
100
AcDbCircle
 10
1214.443304341929
 20
540.9774008540821
 30
0.0
 40
0.5
100
AcDbArc
 50
1.336658978329202
 51
90.0
  0
DIMENSION
  5
503
330
19
100
AcDbEntity
  8
SUNPOU
  6
CONTINUOUS
 62
     4
100
AcDbDimension
  2
*D1
 10
843.6572786694968
 20
525.4774008540818
 30
0.0
 11
833.6572786694969
 21
546.9774008540818
 31
0.0
 12
-30.32030227241466
 22
11.38628346081577
 32
0.0
 70
    32
  3
STANDARD
100
AcDbAlignedDimension
 13
798.3759553063196
 23
568.4774008540819
 33
0.0
 14
774.6142518522199
 24
525.4774008540818
 34
0.0
 50
90.0
100
AcDbRotatedDimension
1001
ACAD
1000
DSTYLE
1002
{
1070
   140
1040
12.0
1070
    74
1070
     0
1070
   172
1070
     1
1070
    73
1070
     0
1070
   272
1070
     2
1070
    77
1070
     3
1070
   173
1070
     1
1070
   147
1040
4.0
1070
    42
1040
12.0
1070
    44
1040
6.0
1070
    43
1040
28.0
1070
   271
1070
     0
1070
   178
1070
     4
1070
   177
1070
     4
1070
   176
1070
     4
1070
   141
1040
150.0
1070
     7
1000
_OPEN
1070
     6
1000
_OPEN
1070
    41
1040
14.0
1070
   143
1040
0.03937
1002
}
  0
DIMENSION
  5
512
330
19
100
AcDbEntity
  8
SUNPOU
  6
CONTINUOUS
 62
     4
100
AcDbDimension
  2
*D2
 10
843.6572786694968
 20
305.477300854082
 30
0.0
 11
833.6572786694969
 21
327.977350854082
 31
0.0
 12
-30.32030227241466
 22
11.38628346081577
 32
0.0
 70
    32
  3
STANDARD
100
AcDbAlignedDimension
 13
716.3754737678523
 23
350.477400854082
 33
0.0
 14
707.6257737678522
 24
305.477300854082
 34
0.0
 50
90.0
100
AcDbRotatedDimension
1001
ACAD
1000
DSTYLE
1002
{
1070
   140
1040
12.0
1070
    74
1070
     0
1070
   172
1070
     1
1070
    73
1070
     0
1070
   272
1070
     2
1070
    77
1070
     3
1070
   173
1070
     1
1070
   147
1040
4.0
1070
    42
1040
12.0
1070
    44
1040
6.0
1070
    43
1040
28.0
1070
   271
1070
     0
1070
   178
1070
     4
1070
   177
1070
     4
1070
   176
1070
     4
1070
   141
1040
150.0
1070
     7
1000
_OPEN
1070
     6
1000
_OPEN
1070
    41
1040
14.0
1070
   143
1040
0.03937
1002
}
  0
DIMENSION
  5
521
330
19
100
AcDbEntity
  8
SUNPOU
  6
CONTINUOUS
 62
     4
100
AcDbDimension
  2
*D3
 10
800.9125512278714
 20
285.4773008540819
 30
0.0
 11
790.9125512278714
 21
244.477300854082
 31
0.0
 12
-30.32030227241466
 22
11.38628346081577
 32
0.0
 70
    32
  3
STANDARD
100
AcDbAlignedDimension
 13
707.6257737678522
 23
305.477300854082
 33
0.0
 14
705.7757737678522
 24
285.4773008540819
 34
0.0
 50
90.0
100
AcDbRotatedDimension
1001
ACAD
1000
DSTYLE
1002
{
1070
   140
1040
12.0
1070
    74
1070
     0
1070
   172
1070
     1
1070
    73
1070
     0
1070
   272
1070
     2
1070
    77
1070
     3
1070
   173
1070
     1
1070
   147
1040
4.0
1070
    42
1040
12.0
1070
    44
1040
6.0
1070
    43
1040
28.0
1070
   271
1070
     0
1070
   178
1070
     4
1070
   177
1070
     4
1070
   176
1070
     4
1070
   141
1040
150.0
1070
     7
1000
_OPEN
1070
     6
1000
_OPEN
1070
    41
1040
14.0
1070
   143
1040
0.03937
1002
}
  0
DIMENSION
  5
53B
330
19
100
AcDbEntity
  8
SUNPOU
  6
CONTINUOUS
 62
     4
100
AcDbDimension
  2
*D4
 10
919.5660251145481
 20
285.4773008540819
 30
0.0
 11
909.5660251145481
 21
426.9773508540819
 31
0.0
 12
-30.32030227241466
 22
11.38628346081577
 32
0.0
 70
    32
  3
STANDARD
100
AcDbAlignedDimension
 13
798.3759553063196
 23
568.4774008540819
 33
0.0
 14
705.7757737678522
 24
285.4773008540819
 34
0.0
 50
90.0
100
AcDbRotatedDimension
1001
ACAD
1000
DSTYLE
1002
{
1070
   140
1040
12.0
1070
    74
1070
     0
1070
   172
1070
     1
1070
    73
1070
     0
1070
   272
1070
     2
1070
    77
1070
     3
1070
   173
1070
     1
1070
   147
1040
4.0
1070
    42
1040
12.0
1070
    44
1040
6.0
1070
    43
1040
28.0
1070
   271
1070
     0
1070
   178
1070
     4
1070
   177
1070
     4
1070
   176
1070
     4
1070
   141
1040
150.0
1070
     7
1000
_OPEN
1070
     6
1000
_OPEN
1070
    41
1040
14.0
1070
   143
1040
0.03937
1002
}
  0
DIMENSION
  5
596
330
19
100
AcDbEntity
  8
SUNPOU
  6
CONTINUOUS
 62
     4
100
AcDbDimension
  2
*D5
 10
881.243163105938
 20
350.477400854082
 30
0.0
 11
871.2431631059381
 21
459.4774008540819
 31
0.0
 12
-30.32030227241466
 22
11.38628346081577
 32
0.0
 70
    32
  3
STANDARD
100
AcDbAlignedDimension
 13
798.3759553063196
 23
568.4774008540819
 33
0.0
 14
716.3754737678523
 24
350.477400854082
 34
0.0
 50
90.0
100
AcDbRotatedDimension
1001
ACAD
1000
DSTYLE
1002
{
1070
   140
1040
12.0
1070
    74
1070
     0
1070
   172
1070
     1
1070
    73
1070
     0
1070
   272
1070
     2
1070
    77
1070
     3
1070
   173
1070
     1
1070
   147
1040
4.0
1070
    42
1040
12.0
1070
    44
1040
6.0
1070
    43
1040
28.0
1070
   271
1070
     0
1070
   178
1070
     4
1070
   177
1070
     4
1070
   176
1070
     4
1070
   141
1040
150.0
1070
     7
1000
_OPEN
1070
     6
1000
_OPEN
1070
    41
1040
14.0
1070
   143
1040
0.03937
1002
}
  0
DIMENSION
  5
5A3
330
19
100
AcDbEntity
  8
SUNPOU
  6
CONTINUOUS
 62
     4
100
AcDbDimension
  2
*D6
 10
634.9756737678522
 20
228.0591176540683
 30
0.0
 11
670.3757237678522
 21
238.0591176540683
 31
0.0
 12
-30.32030227241466
 22
11.38628346081577
 32
0.0
 70
    32
  1
φ<>
  3
STANDARD
100
AcDbAlignedDimension
 13
705.7757737678522
 23
285.4773008540819
 33
0.0
 14
634.9756737678522
 24
285.4773008540819
 34
0.0
100
AcDbRotatedDimension
1001
ACAD
1000
DSTYLE
1002
{
1070
   140
1040
12.0
1070
    74
1070
     0
1070
   172
1070
     1
1070
    73
1070
     0
1070
   272
1070
     2
1070
    77
1070
     3
1070
   173
1070
     1
1070
   147
1040
4.0
1070
    42
1040
12.0
1070
    44
1040
6.0
1070
    43
1040
28.0
1070
   271
1070
     0
1070
   178
1070
     4
1070
   177
1070
     4
1070
   176
1070
     4
1070
   141
1040
150.0
1070
     7
1000
_OPEN
1070
     6
1000
_OPEN
1070
    41
1040
14.0
1070
   143
1040
0.03937
1002
}
  0
DIMENSION
  5
5B0
330
19
100
AcDbEntity
  8
SUNPOU
  6
CONTINUOUS
 62
     4
100
AcDbDimension
  2
*D7
 10
626.2487347633159
 20
182.4042926977099
 30
0.0
 11
670.2872542655841
 21
192.4042926977099
 31
0.0
 12
-30.32030227241466
 22
11.38628346081577
 32
0.0
 70
    32
  1
φ<>
  3
STANDARD
100
AcDbAlignedDimension
 13
714.3257737678522
 23
310.4773008540819
 33
0.0
 14
626.2487347633159
 24
315.6869274519817
 34
0.0
100
AcDbRotatedDimension
1001
ACAD
1000
DSTYLE
1002
{
1070
   140
1040
12.0
1070
    74
1070
     0
1070
   172
1070
     1
1070
    73
1070
     0
1070
   272
1070
     2
1070
    77
1070
     3
1070
   173
1070
     1
1070
   147
1040
4.0
1070
    42
1040
12.0
1070
    44
1040
6.0
1070
    43
1040
28.0
1070
   271
1070
     0
1070
   178
1070
     4
1070
   177
1070
     4
1070
   176
1070
     4
1070
   141
1040
150.0
1070
     7
1000
_OPEN
1070
     6
1000
_OPEN
1070
    41
1040
14.0
1070
   143
1040
0.03937
1002
}
  0
DIMENSION
  5
5CA
330
19
100
AcDbEntity
  8
SUNPOU
  6
CONTINUOUS
 62
     4
100
AcDbDimension
  2
*D8
 10
592.8757737678522
 20
137.4858341501403
 30
0.0
 11
670.3757737678522
 21
147.4858341501403
 31
0.0
 12
-30.32030227241466
 22
11.38628346081577
 32
0.0
 70
    32
  3
STANDARD
100
AcDbAlignedDimension
 13
747.8757737678522
 23
368.477400854082
 33
0.0
 14
592.8757737678522
 24
368.477400854082
 34
0.0
100
AcDbRotatedDimension
1001
ACAD
1000
DSTYLE
1002
{
1070
   140
1040
12.0
1070
    74
1070
     0
1070
   172
1070
     1
1070
    73
1070
     0
1070
   272
1070
     2
1070
    77
1070
     3
1070
   173
1070
     1
1070
   147
1040
4.0
1070
    42
1040
12.0
1070
    44
1040
6.0
1070
    43
1040
28.0
1070
   271
1070
     0
1070
   178
1070
     4
1070
   177
1070
     4
1070
   176
1070
     4
1070
   141
1040
150.0
1070
     7
1000
_OPEN
1070
     6
1000
_OPEN
1070
    41
1040
14.0
1070
   143
1040
0.03937
1002
}
  0
DIMENSION
  5
619
330
19
100
AcDbEntity
  8
SUNPOU
  6
CONTINUOUS
 62
     4
100
AcDbDimension
  2
*D9
 10
570.3757737678522
 20
601.4784348765106
 30
0.0
 11
670.3757737678522
 21
611.4784348765105
 31
0.0
 12
-30.32030227241466
 22
11.38628346081577
 32
0.0
 70
    32
  3
STANDARD
100
AcDbAlignedDimension
 13
770.3757737678523
 23
529.7158789384496
 33
0.0
 14
570.3757737678522
 24
529.7158789384496
 34
0.0
100
AcDbRotatedDimension
1001
ACAD
1000
DSTYLE
1002
{
1070
   140
1040
12.0
1070
    74
1070
     0
1070
   172
1070
     1
1070
    73
1070
     0
1070
   272
1070
     2
1070
    77
1070
     3
1070
   173
1070
     1
1070
   147
1040
4.0
1070
    42
1040
12.0
1070
    44
1040
6.0
1070
    43
1040
28.0
1070
   271
1070
     0
1070
   178
1070
     4
1070
   177
1070
     4
1070
   176
1070
     4
1070
   141
1040
150.0
1070
     7
1000
_OPEN
1070
     6
1000
_OPEN
1070
    41
1040
14.0
1070
   143
1040
0.03937
1002
}
  0
DIMENSION
  5
626
330
19
100
AcDbEntity
  8
SUNPOU
  6
CONTINUOUS
 62
     4
100
AcDbDimension
  2
*D10
 10
557.3757737678522
 20
639.9451369438784
 30
0.0
 11
670.3757737678522
 21
649.9451369438784
 31
0.0
 12
-30.32030227241466
 22
11.38628346081577
 32
0.0
 70
    32
  3
STANDARD
100
AcDbAlignedDimension
 13
783.3757737678523
 23
568.4774008540819
 33
0.0
 14
557.3757737678522
 24
568.4774008540819
 34
0.0
100
AcDbRotatedDimension
1001
ACAD
1000
DSTYLE
1002
{
1070
   140
1040
12.0
1070
    74
1070
     0
1070
   172
1070
     1
1070
    73
1070
     0
1070
   272
1070
     2
1070
    77
1070
     3
1070
   173
1070
     1
1070
   147
1040
4.0
1070
    42
1040
12.0
1070
    44
1040
6.0
1070
    43
1040
28.0
1070
   271
1070
     0
1070
   178
1070
     4
1070
   177
1070
     4
1070
   176
1070
     4
1070
   141
1040
150.0
1070
     7
1000
_OPEN
1070
     6
1000
_OPEN
1070
    41
1040
14.0
1070
   143
1040
0.03937
1002
}
  0
DIMENSION
  5
65A
330
19
100
AcDbEntity
  8
SUNPOU
  6
CONTINUOUS
 62
     4
100
AcDbDimension
  2
*D11
 10
542.3758772151542
 20
681.0639826159376
 30
0.0
 11
670.3759162607369
 21
691.0639826159377
 31
0.0
 12
16.24267576515285
 22
6.95538416517229
 32
0.0
 70
    32
  3
STANDARD
100
AcDbAlignedDimension
 13
798.3759553063196
 23
568.4774008540819
 33
0.0
 14
542.3758772151542
 24
568.4774008540817
 34
0.0
100
AcDbRotatedDimension
1001
ACAD
1000
DSTYLE
1002
{
1070
   140
1040
12.0
1070
    74
1070
     0
1070
   172
1070
     1
1070
    73
1070
     0
1070
   272
1070
     2
1070
    77
1070
     3
1070
   173
1070
     1
1070
   147
1040
4.0
1070
    42
1040
12.0
1070
    44
1040
6.0
1070
    43
1040
28.0
1070
   271
1070
     0
1070
   178
1070
     4
1070
   177
1070
     4
1070
   176
1070
     4
1070
   141
1040
150.0
1070
     7
1000
_OPEN
1070
     6
1000
_OPEN
1070
    41
1040
14.0
1070
   143
1040
0.03937
1002
}
  0
DIMENSION
  5
669
330
19
100
AcDbEntity
  8
SUNPOU
  6
CONTINUOUS
 62
     4
100
AcDbDimension
  2
*D12
 10
843.3375547099222
 20
907.268100854082
 30
0.0
 11
833.3375547099221
 21
866.268100854082
 31
0.0
 12
-30.32030227241466
 22
31.38628346081577
 32
0.0
 70
    32
  3
STANDARD
100
AcDbAlignedDimension
 13
795.9807288395321
 23
927.268100854082
 33
0.0
 14
795.9807083267116
 24
907.268100854082
 34
0.0
 50
90.0
100
AcDbRotatedDimension
1001
ACAD
1000
DSTYLE
1002
{
1070
   140
1040
12.0
1070
    74
1070
     0
1070
   172
1070
     1
1070
    73
1070
     0
1070
   272
1070
     2
1070
    77
1070
     3
1070
   173
1070
     1
1070
   147
1040
4.0
1070
    42
1040
12.0
1070
    44
1040
6.0
1070
    43
1040
28.0
1070
   271
1070
     0
1070
   178
1070
     4
1070
   177
1070
     4
1070
   176
1070
     4
1070
   141
1040
150.0
1070
     7
1000
_OPEN
1070
     6
1000
_OPEN
1070
    41
1040
14.0
1070
   143
1040
0.03937
1002
}
  0
DIMENSION
  5
693
330
19
100
AcDbEntity
  8
SUNPOU
  6
CONTINUOUS
 62
     4
100
AcDbDimension
  2
*D13
 10
1015.931973767852
 20
601.4718668389373
 30
0.0
 11
1117.431873767852
 21
611.4718668389373
 31
0.0
 12
16.24267576515285
 22
6.95538416517229
 32
0.0
 70
    32
  3
STANDARD
100
AcDbAlignedDimension
 13
1218.931773767852
 23
568.4774008540819
 33
0.0
 14
1015.931973767852
 24
568.4774008540819
 34
0.0
100
AcDbRotatedDimension
1001
ACAD
1000
DSTYLE
1002
{
1070
   140
1040
12.0
1070
    74
1070
     0
1070
   172
1070
     1
1070
    73
1070
     0
1070
   272
1070
     2
1070
    77
1070
     3
1070
   173
1070
     1
1070
   147
1040
4.0
1070
    42
1040
12.0
1070
    44
1040
6.0
1070
    43
1040
28.0
1070
   271
1070
     0
1070
   178
1070
     4
1070
   177
1070
     4
1070
   176
1070
     4
1070
   141
1040
150.0
1070
     7
1000
_OPEN
1070
     6
1000
_OPEN
1070
    41
1040
14.0
1070
   143
1040
0.03937
1002
}
  0
DIMENSION
  5
6B8
330
19
100
AcDbEntity
  8
SUNPOU
  6
CONTINUOUS
 62
     4
100
AcDbDimension
  2
*D14
 10
1141.931773767852
 20
228.2782576371682
 30
0.0
 11
1178.931773767852
 21
238.2782576371683
 31
0.0
 12
9.679697727585335
 22
11.38628346081577
 32
0.0
 70
    32
  3
STANDARD
100
AcDbAlignedDimension
 13
1215.931773767852
 23
368.477400854082
 33
0.0
 14
1141.931773767852
 24
269.579600854082
 34
0.0
100
AcDbRotatedDimension
1001
ACAD
1000
DSTYLE
1002
{
1070
   140
1040
12.0
1070
    74
1070
     0
1070
   172
1070
     1
1070
    73
1070
     0
1070
   272
1070
     2
1070
    77
1070
     3
1070
   173
1070
     1
1070
   147
1040
4.0
1070
    42
1040
12.0
1070
    44
1040
6.0
1070
    43
1040
28.0
1070
   271
1070
     0
1070
   178
1070
     4
1070
   177
1070
     4
1070
   176
1070
     4
1070
   141
1040
150.0
1070
     7
1000
_OPEN
1070
     6
1000
_OPEN
1070
    41
1040
14.0
1070
   143
1040
0.03937
1002
}
  0
DIMENSION
  5
6C5
330
19
100
AcDbEntity
  8
SUNPOU
  6
CONTINUOUS
 62
     4
100
AcDbDimension
  2
*D15
 10
1055.931673767852
 20
182.0634576014749
 30
0.0
 11
1135.931723767852
 21
192.0634576014749
 31
0.0
 12
9.679697727585335
 22
11.38628346081577
 32
0.0
 70
    32
  3
STANDARD
100
AcDbAlignedDimension
 13
1215.931773767852
 23
368.477400854082
 33
0.0
 14
1055.931673767852
 24
368.477400854082
 34
0.0
100
AcDbRotatedDimension
1001
ACAD
1000
DSTYLE
1002
{
1070
   140
1040
12.0
1070
    74
1070
     0
1070
   172
1070
     1
1070
    73
1070
     0
1070
   272
1070
     2
1070
    77
1070
     3
1070
   173
1070
     1
1070
   147
1040
4.0
1070
    42
1040
12.0
1070
    44
1040
6.0
1070
    43
1040
28.0
1070
   271
1070
     0
1070
   178
1070
     4
1070
   177
1070
     4
1070
   176
1070
     4
1070
   141
1040
150.0
1070
     7
1000
_OPEN
1070
     6
1000
_OPEN
1070
    41
1040
14.0
1070
   143
1040
0.03937
1002
}
  0
DIMENSION
  5
6FE
330
19
100
AcDbEntity
  8
SUNPOU
  6
CONTINUOUS
100
AcDbDimension
  2
*D16
 10
549.8758768337272
 20
768.7611324898125
 30
0.0
 11
670.3759175547688
 21
778.7611324898125
 31
0.0
 12
16.24267576515285
 22
6.95538416517229
 32
0.0
 70
    32
  3
STANDARD
100
AcDbAlignedDimension
 13
790.8759582758102
 23
902.1633560388192
 33
0.0
 14
549.8758768337272
 24
902.1634637536482
 34
0.0
100
AcDbRotatedDimension
1001
ACAD
1000
DSTYLE
1002
{
1070
   140
1040
12.0
1070
    74
1070
     0
1070
   172
1070
     1
1070
    73
1070
     0
1070
   272
1070
     2
1070
    77
1070
     3
1070
   173
1070
     1
1070
   147
1040
4.0
1070
    42
1040
12.0
1070
    44
1040
6.0
1070
    43
1040
28.0
1070
   271
1070
     0
1070
   178
1070
     4
1070
   177
1070
     4
1070
   176
1070
     4
1070
   141
1040
150.0
1070
     7
1000
_OPEN
1070
     6
1000
_OPEN
1070
    41
1040
14.0
1070
   143
1040
0.03937
1002
}
  0
LINE
  5
700
330
19
100
AcDbEntity
  8
CENTER_L
  6
CENTER
 62
     1
 48
5.0
100
AcDbLine
 10
812.1431365215903
 20
917.2681008540818
 30
0.0
 11
774.0380434679938
 21
917.268100854082
 31
0.0
  0
LINE
  5
707
330
19
100
AcDbEntity
  8
CENTER_L
  6
CENTER
 62
     1
 48
5.0
100
AcDbLine
 10
571.1430260236936
 20
917.2682085689238
 30
0.0
 11
533.0379329700971
 21
917.268208568924
 31
0.0
  0
DIMENSION
  5
715
330
19
100
AcDbEntity
  8
SUNPOU
  6
CONTINUOUS
100
AcDbDimension
  2
*D17
 10
879.1541141717189
 20
897.2681008540819
 30
0.0
 11
879.1541141717189
 21
863.6379080174037
 31
0.0
 12
16.24267576515285
 22
6.95538416517229
 32
0.0
 70
   160
  3
STANDARD
100
AcDbAlignedDimension
 13
796.3759922293975
 23
937.2681008540819
 33
0.0
 14
796.3759553063206
 24
897.2681008540819
 34
0.0
 50
90.0
100
AcDbRotatedDimension
1001
ACAD
1000
DSTYLE
1002
{
1070
   288
1070
     1
1070
   140
1040
12.0
1070
    74
1070
     0
1070
   172
1070
     1
1070
    73
1070
     0
1070
   272
1070
     2
1070
    77
1070
     3
1070
   173
1070
     1
1070
   147
1040
4.0
1070
    42
1040
12.0
1070
    44
1040
6.0
1070
    43
1040
28.0
1070
   271
1070
     0
1070
   178
1070
     4
1070
   177
1070
     4
1070
   176
1070
     4
1070
   141
1040
150.0
1070
     7
1000
_OPEN
1070
     6
1000
_OPEN
1070
    41
1040
14.0
1070
   143
1040
0.03937
1002
}
  0
DIMENSION
  5
722
330
19
100
AcDbEntity
  8
SUNPOU
  6
CONTINUOUS
100
AcDbDimension
  2
*D18
 10
912.6064199304828
 20
917.2681008540818
 30
0.0
 11
902.6064199304828
 21
968.0180008540819
 31
0.0
 12
16.24267576515285
 22
6.95538416517229
 32
0.0
 70
    32
  3
STANDARD
100
AcDbAlignedDimension
 13
779.3760737678523
 23
1018.767900854082
 33
0.0
 14
812.1431365215903
 24
917.2681008540818
 34
0.0
 50
90.0
100
AcDbRotatedDimension
1001
ACAD
1000
DSTYLE
1002
{
1070
   140
1040
12.0
1070
    74
1070
     0
1070
   172
1070
     1
1070
    73
1070
     0
1070
   272
1070
     2
1070
    77
1070
     3
1070
   173
1070
     1
1070
   147
1040
4.0
1070
    42
1040
12.0
1070
    44
1040
6.0
1070
    43
1040
28.0
1070
   271
1070
     0
1070
   178
1070
     4
1070
   177
1070
     4
1070
   176
1070
     4
1070
   141
1040
150.0
1070
     7
1000
_OPEN
1070
     6
1000
_OPEN
1070
    41
1040
14.0
1070
   143
1040
0.03937
1002
}
  0
LEADER
  5
723
330
19
100
AcDbEntity
  8
SUNPOU
  6
CONTINUOUS
 62
     4
100
AcDbLeader
  3
STANDARD
 73
     0
 74
     0
 40
12.0
 41
62.39999999999999
 76
     3
 10
792.4695412876854
 20
928.5759245474409
 30
0.0
 10
806.0143326230754
 20
968.0393946710532
 30
0.0
 10
810.1119143554161
 20
968.0393946710532
 30
0.0
1001
ACAD
1000
DSTYLE
1002
{
1070
     6
1000
OPEN
1070
    41
1040
14.0
1070
    42
1040
12.0
1070
    43
1040
28.0
1070
    44
1040
6.0
1070
    73
1070
     0
1070
    74
1070
     0
1070
    77
1070
     3
1070
   140
1040
12.0
1070
   141
1040
150.0
1070
   143
1040
0.03937
1070
   147
1040
4.0
1070
   172
1070
     1
1070
   173
1070
     1
1070
   176
1070
     4
1070
   177
1070
     4
1070
   178
1070
     4
1070
   271
1070
     0
1070
   272
1070
     2
1070
   341
1005
27
1070
   343
1005
27
1070
   344
1005
27
1002
}
1000
LEANOF
1010
0.0
1020
0.0
1030
0.0
  0
MTEXT
  5
724
330
19
100
AcDbEntity
  8
SUNPOU
  6
CONTINUOUS
 62
     4
100
AcDbMText
 10
814.111914355416
 20
972.0393946710533
 30
0.0
 40
12.0
 41
0.0
 71
     7
 72
     1
  1
4-φ4.5
1001
ACAD
1000
MTEXTBEGIN
1070
    73
1070
     1
1070
    44
1040
1.0
1070
    74
1070
     0
1000
MTEXTEND
1000
MTEXTBEGIN
1070
    73
1070
     1
1070
    44
1040
1.0
1070
    74
1070
     0
1000
MTEXTEND
  0
LINE
  5
725
330
19
100
AcDbEntity
  8
CENTER_L
  6
CENTER
 62
     1
 48
5.0
100
AcDbLine
 10
1209.041799453916
 20
525.4774008540818
 30
0.0
 11
1226.165411954413
 21
525.4774008540818
 31
0.0
  0
VIEWPORT
  5
22
330
16
100
AcDbEntity
 67
     1
  8
0
100
AcDbViewport
 10
313.6808219178082
 20
148.5
 30
0.0
 40
627.3616438356165
 41
297.0
 68
     2
 69
     1
1001
ACAD
1000
MVIEW
1002
{
1070
    16
1010
0.0
1020
0.0
1030
0.0
1010
0.0
1020
0.0
1030
1.0
1040
0.0
1040
297.0
1040
313.6808219178082
1040
148.5
1040
50.0
1040
0.0
1040
0.0
1070
     0
1070
   100
1070
     1
1070
     0
1070
     0
1070
     0
1070
     0
1070
     0
1040
0.0
1040
0.0
1040
0.0
1040
10.0
1040
10.0
1040
10.0
1040
10.0
1070
     0
1002
{
1002
}
1002
}
  0
VIEWPORT
  5
25
330
16
100
AcDbEntity
 67
     1
  8
VIEWPORT
100
AcDbViewport
 10
210.0
 20
148.5
 30
0.0
 40
420.0
 41
297.0
 68
     1
 69
     2
1001
ACAD
1000
MVIEW
1002
{
1070
    16
1010
0.0
1020
0.0
1030
0.0
1010
0.0
1020
0.0
1030
1.0
1040
0.0
1040
1212.607689320388
1040
841.0
1040
594.0
1040
50.0
1040
0.0
1040
0.0
1070
     0
1070
   100
1070
     1
1070
     0
1070
     0
1070
     0
1070
     0
1070
     0
1040
0.0
1040
0.0
1040
0.0
1040
57.0
1040
57.0
1040
57.0
1040
57.0
1070
     0
1002
{
1002
}
1002
}
  0
ENDSEC
  0
SECTION
  2
OBJECTS
  0
DICTIONARY
  5
C
330
0
100
AcDbDictionary
  3
ACAD_GROUP
350
D
  3
ACAD_LAYOUT
350
736
  3
ACAD_MLINESTYLE
350
E
  3
ACAD_PLOTSETTINGS
350
737
1001
ACAD
1000
TREAT_AS_HARD
1070
     0
  0
DICTIONARY
  5
763
330
19
100
AcDbDictionary
  3
ACAD_LAYOUTSELFREF
350
773
1001
ACAD
1000
TREAT_AS_HARD
1070
     1
  0
DICTIONARY
  5
761
330
16
100
AcDbDictionary
  3
ACAD_LAYOUTSELFREF
350
772
1001
ACAD
1000
TREAT_AS_HARD
1070
     1
  0
DICTIONARY
  5
D
102
{ACAD_REACTORS
330
C
102
}
330
C
100
AcDbDictionary
1001
ACAD
1000
TREAT_AS_HARD
1070
     0
  0
DICTIONARY
  5
736
102
{ACAD_REACTORS
330
C
102
}
330
C
100
AcDbDictionary
1001
ACAD
1000
TREAT_AS_HARD
1070
     0
  0
DICTIONARY
  5
E
102
{ACAD_REACTORS
330
C
102
}
330
C
100
AcDbDictionary
  3
STANDARD
350
1C
1001
ACAD
1000
TREAT_AS_HARD
1070
     0
  0
DICTIONARY
  5
737
102
{ACAD_REACTORS
330
C
102
}
330
C
100
AcDbDictionary
1001
ACAD
1000
TREAT_AS_HARD
1070
     0
  0
XRECORD
  5
773
102
{ACAD_REACTORS
330
763
102
}
330
763
100
AcDbXrecord
340
19
  0
XRECORD
  5
772
102
{ACAD_REACTORS
330
761
102
}
330
761
100
AcDbXrecord
340
16
  0
MLINESTYLE
  5
1C
102
{ACAD_REACTORS
330
E
102
}
330
E
100
AcDbMlineStyle
  2
STANDARD
 70
     0
  3

 62
     0
 51
90.0
 52
90.0
 71
     2
 49
0.5
 62
   256
  6
BYLAYER
 49
-0.5
 62
   256
  6
BYLAYER
  0
ENDSEC
  0
EOF
