  0
SECTION
  2
HEADER
  9
$ACADVER
  1
AC1012
  9
$DWGCODEPAGE
  3
dos932
  9
$INSBASE
 10
0.0
 20
0.0
 30
0.0
  9
$EXTMIN
 10
10.05047808566086
 20
4.949376903717846
 30
0.0
  9
$EXTMAX
 10
806.2246110975902
 20
563.7825862828226
 30
0.0
  9
$LIMMIN
 10
0.0
 20
0.0
  9
$LIMMAX
 10
840.0
 20
594.0
  9
$ORTHOMODE
 70
     0
  9
$REGENMODE
 70
     1
  9
$FILLMODE
 70
     1
  9
$QTEXTMODE
 70
     0
  9
$MIRRTEXT
 70
     1
  9
$DRAGMODE
 70
     2
  9
$LTSCALE
 40
2.0
  9
$OSMODE
 70
    37
  9
$ATTMODE
 70
     1
  9
$TEXTSIZE
 40
5.0
  9
$TRACEWID
 40
1.0
  9
$TEXTSTYLE
  7
STANDARD
  9
$CLAYER
  8
CENTER_L
  9
$CELTYPE
  6
BYLAYER
  9
$CECOLOR
 62
   256
  9
$CELTSCALE
 40
1.0
  9
$DELOBJ
 70
     1
  9
$DISPSILH
 70
     0
  9
$DIMSCALE
 40
1.0
  9
$DIMASZ
 40
7.0
  9
$DIMEXO
 40
6.0
  9
$DIMDLI
 40
14.0
  9
$DIMRND
 40
0.0
  9
$DIMDLE
 40
0.0
  9
$DIMEXE
 40
3.0
  9
$DIMTP
 40
0.0
  9
$DIMTM
 40
0.0
  9
$DIMTXT
 40
6.0
  9
$DIMCEN
 40
150.0
  9
$DIMTSZ
 40
0.0
  9
$DIMTOL
 70
     0
  9
$DIMLIM
 70
     0
  9
$DIMTIH
 70
     0
  9
$DIMTOH
 70
     0
  9
$DIMSE1
 70
     0
  9
$DIMSE2
 70
     0
  9
$DIMTAD
 70
     3
  9
$DIMZIN
 70
     0
  9
$DIMBLK
  1

  9
$DIMASO
 70
     1
  9
$DIMSHO
 70
     1
  9
$DIMPOST
  1

  9
$DIMAPOST
  1

  9
$DIMALT
 70
     0
  9
$DIMALTD
 70
     2
  9
$DIMALTF
 40
25.4
  9
$DIMLFAC
 40
1.0
  9
$DIMTOFL
 70
     1
  9
$DIMTVP
 40
0.0
  9
$DIMTIX
 70
     0
  9
$DIMSOXD
 70
     0
  9
$DIMSAH
 70
     1
  9
$DIMBLK1
  1
OPEN
  9
$DIMBLK2
  1
OPEN
  9
$DIMSTYLE
  2
STANDARD
  9
$DIMCLRD
 70
   256
  9
$DIMCLRE
 70
   256
  9
$DIMCLRT
 70
   256
  9
$DIMTFAC
 40
1.0
  9
$DIMGAP
 40
2.0
  9
$DIMJUST
 70
     0
  9
$DIMSD1
 70
     0
  9
$DIMSD2
 70
     0
  9
$DIMTOLJ
 70
     1
  9
$DIMTZIN
 70
     0
  9
$DIMALTZ
 70
     0
  9
$DIMALTTZ
 70
     0
  9
$DIMFIT
 70
     3
  9
$DIMUPT
 70
     0
  9
$DIMUNIT
 70
     2
  9
$DIMDEC
 70
     0
  9
$DIMTDEC
 70
     0
  9
$DIMALTU
 70
     2
  9
$DIMALTTD
 70
     2
  9
$DIMTXSTY
  7
STANDARD
  9
$DIMAUNIT
 70
     0
  9
$LUNITS
 70
     2
  9
$LUPREC
 70
     4
  9
$SKETCHINC
 40
1.0
  9
$FILLETRAD
 40
20.0
  9
$AUNITS
 70
     0
  9
$AUPREC
 70
     0
  9
$MENU
  1
.
  9
$ELEVATION
 40
0.0
  9
$PELEVATION
 40
0.0
  9
$THICKNESS
 40
0.0
  9
$LIMCHECK
 70
     0
  9
$BLIPMODE
 70
     0
  9
$CHAMFERA
 40
20.0
  9
$CHAMFERB
 40
20.0
  9
$CHAMFERC
 40
40.0
  9
$CHAMFERD
 40
0.0
  9
$SKPOLY
 70
     0
  9
$TDCREATE
 40
2451275.589213310
  9
$TDUPDATE
 40
2452393.718642060
  9
$TDINDWG
 40
0.0281532176
  9
$TDUSRTIMER
 40
0.0281532176
  9
$USRTIMER
 70
     1
  9
$ANGBASE
 50
0.0
  9
$ANGDIR
 70
     0
  9
$PDMODE
 70
     0
  9
$PDSIZE
 40
0.0
  9
$PLINEWID
 40
0.0
  9
$COORDS
 70
     1
  9
$SPLFRAME
 70
     0
  9
$SPLINETYPE
 70
     6
  9
$SPLINESEGS
 70
     8
  9
$ATTDIA
 70
     0
  9
$ATTREQ
 70
     1
  9
$HANDLING
 70
 10241
  9
$HANDSEED
  5
ABD
  9
$SURFTAB1
 70
     6
  9
$SURFTAB2
 70
     6
  9
$SURFTYPE
 70
     6
  9
$SURFU
 70
     6
  9
$SURFV
 70
     6
  9
$UCSNAME
  2

  9
$UCSORG
 10
0.0
 20
0.0
 30
0.0
  9
$UCSXDIR
 10
1.0
 20
0.0
 30
0.0
  9
$UCSYDIR
 10
0.0
 20
1.0
 30
0.0
  9
$PUCSNAME
  2

  9
$PUCSORG
 10
0.0
 20
0.0
 30
0.0
  9
$PUCSXDIR
 10
1.0
 20
0.0
 30
0.0
  9
$PUCSYDIR
 10
0.0
 20
1.0
 30
0.0
  9
$USERI1
 70
     0
  9
$USERI2
 70
     0
  9
$USERI3
 70
     0
  9
$USERI4
 70
     0
  9
$USERI5
 70
     0
  9
$USERR1
 40
0.0
  9
$USERR2
 40
0.0
  9
$USERR3
 40
0.0
  9
$USERR4
 40
0.0
  9
$USERR5
 40
0.0
  9
$WORLDVIEW
 70
     1
  9
$SHADEDGE
 70
     3
  9
$SHADEDIF
 70
    70
  9
$TILEMODE
 70
     1
  9
$MAXACTVP
 70
    16
  9
$PINSBASE
 10
0.0
 20
0.0
 30
0.0
  9
$PLIMCHECK
 70
     0
  9
$PEXTMIN
 10
0.0
 20
0.0
 30
0.0
  9
$PEXTMAX
 10
420.0
 20
297.0
 30
0.0
  9
$PLIMMIN
 10
0.0
 20
0.0
  9
$PLIMMAX
 10
420.0
 20
297.0
  9
$UNITMODE
 70
     0
  9
$VISRETAIN
 70
     0
  9
$PLINEGEN
 70
     0
  9
$PSLTSCALE
 70
     1
  9
$TREEDEPTH
 70
  3020
  9
$PICKSTYLE
 70
     1
  9
$CMLSTYLE
  2
STANDARD
  9
$CMLJUST
 70
     0
  9
$CMLSCALE
 40
1.0
  9
$SAVEIMAGES
 70
     1
  0
ENDSEC
  0
SECTION
  2
CLASSES
  0
CLASS
  1
ACDBDICTIONARYWDFLT
  2
AcDbDictionaryWithDefault
  3
AutoCAD 2000
 90
    32768
280
     0
281
     0
  0
CLASS
  1
ACDBPLACEHOLDER
  2
AcDbPlaceHolder
  3
AutoCAD 2000
 90
    32768
280
     0
281
     0
  0
CLASS
  1
LAYOUT
  2
AcDbLayout
  3
AutoCAD 2000
 90
    32768
280
     0
281
     0
  0
CLASS
  1
LONG_TRANSACTION
  2
AcDbLongTransaction
  3
AutoCAD 2000
 90
    32768
280
     0
281
     0
  0
CLASS
  1
LWPOLYLINE
  2
AcDbPolyline
  3
AutoCAD 2000
 90
    32768
280
     0
281
     1
  0
CLASS
  1
HATCH
  2
AcDbHatch
  3
AutoCAD 2000
 90
    32768
280
     0
281
     1
  0
CLASS
  1
XRECORD
  2
AcDbXrecord
  3
AutoCAD 2000
 90
    32768
280
     0
281
     0
  0
CLASS
  1
LONG_TRANSACTION
  2
AcDbLongTransaction
  3
AutoCAD 2000
 90
    32768
280
     0
281
     0
  0
CLASS
  1
LWPOLYLINE
  2
AcDbPolyline
  3
AutoCAD 2000
 90
    32768
280
     0
281
     1
  0
CLASS
  1
HATCH
  2
AcDbHatch
  3
AutoCAD 2000
 90
    32768
280
     0
281
     1
  0
CLASS
  1
XRECORD
  2
AcDbXrecord
  3
AutoCAD 2000
 90
    32768
280
     0
281
     0
  0
CLASS
  1
LONG_TRANSACTION
  2
AcDbLongTransaction
  3
AutoCAD 2000
 90
    32768
280
     0
281
     0
  0
CLASS
  1
LWPOLYLINE
  2
AcDbPolyline
  3
AutoCAD 2000
 90
    32768
280
     0
281
     1
  0
CLASS
  1
HATCH
  2
AcDbHatch
  3
AutoCAD 2000
 90
    32768
280
     0
281
     1
  0
CLASS
  1
XRECORD
  2
AcDbXrecord
  3
AutoCAD 2000
 90
    32768
280
     0
281
     0
  0
ENDSEC
  0
SECTION
  2
TABLES
  0
TABLE
  2
VPORT
  5
8
330
0
100
AcDbSymbolTable
 70
     2
  0
VPORT
  5
AB2
330
8
100
AcDbSymbolTableRecord
100
AcDbViewportTableRecord
  2
*ACTIVE
 70
     0
 10
0.0
 20
0.0
 11
1.0
 21
1.0
 12
527.4545545702839
 22
283.4161891749086
 13
0.0
 23
0.0
 14
5.0
 24
5.0
 15
0.0
 25
0.0
 16
0.0
 26
0.0
 36
1.0
 17
0.0
 27
0.0
 37
0.0
 40
588.5828166181627
 41
2.169459962756052
 42
50.0
 43
0.0
 44
0.0
 50
0.0
 51
0.0
 71
     0
 72
   100
 73
     1
 74
     0
 75
     0
 76
     0
 77
     0
 78
     0
  0
ENDTAB
  0
TABLE
  2
LTYPE
  5
5
330
0
100
AcDbSymbolTable
 70
     2
  0
LTYPE
  5
14
330
5
100
AcDbSymbolTableRecord
100
AcDbLinetypeTableRecord
  2
BYBLOCK
 70
     0
  3

 72
    65
 73
     0
 40
0.0
  0
LTYPE
  5
15
330
5
100
AcDbSymbolTableRecord
100
AcDbLinetypeTableRecord
  2
BYLAYER
 70
     0
  3

 72
    65
 73
     0
 40
0.0
  0
LTYPE
  5
16
330
5
100
AcDbSymbolTableRecord
100
AcDbLinetypeTableRecord
  2
CONTINUOUS
 70
     0
  3
Solid line
 72
    65
 73
     0
 40
0.0
  0
LTYPE
  5
135
330
5
100
AcDbSymbolTableRecord
100
AcDbLinetypeTableRecord
  2
CENTER
 70
     0
  3
____ _ ____ _ ____ _ ____ _ ____ _ ____ _ ____ 
 72
    65
 73
     4
 40
2.0
 49
1.25
 74
     0
 49
-0.25
 74
     0
 49
0.25
 74
     0
 49
-0.25
 74
     0
  0
ENDTAB
  0
TABLE
  2
LAYER
  5
2
330
0
100
AcDbSymbolTable
 70
     8
  0
LAYER
  5
F
330
2
100
AcDbSymbolTableRecord
100
AcDbLayerTableRecord
  2
0
 70
     0
 62
     7
  6
CONTINUOUS
  0
LAYER
  5
62
330
2
100
AcDbSymbolTableRecord
100
AcDbLayerTableRecord
  2
VIEWPORT
 70
     0
 62
     7
  6
CONTINUOUS
  0
LAYER
  5
65
330
2
100
AcDbSymbolTableRecord
100
AcDbLayerTableRecord
  2
ZUWAKU
 70
     0
 62
     7
  6
CONTINUOUS
  0
LAYER
  5
143
330
2
100
AcDbSymbolTableRecord
100
AcDbLayerTableRecord
  2
SEIHIN
 70
     0
 62
     3
  6
CONTINUOUS
  0
LAYER
  5
144
330
2
100
AcDbSymbolTableRecord
100
AcDbLayerTableRecord
  2
SUNPOU
 70
     0
 62
     4
  6
CONTINUOUS
  0
LAYER
  5
145
330
2
100
AcDbSymbolTableRecord
100
AcDbLayerTableRecord
  2
CENTER_L
 70
     0
 62
     1
  6
CENTER
  0
LAYER
  5
823
330
2
100
AcDbSymbolTableRecord
100
AcDbLayerTableRecord
  2
NOKITOI
 70
     0
 62
     6
  6
CONTINUOUS
  0
LAYER
  5
82C
330
2
100
AcDbSymbolTableRecord
100
AcDbLayerTableRecord
  2
DEFPOINTS
 70
     0
 62
     7
  6
CONTINUOUS
  0
ENDTAB
  0
TABLE
  2
STYLE
  5
3
330
0
100
AcDbSymbolTable
 70
     1
  0
STYLE
  5
10
330
3
100
AcDbSymbolTableRecord
100
AcDbTextStyleTableRecord
  2
STANDARD
 70
     0
 40
0.0
 41
1.0
 50
0.0
 71
     0
 42
5.0
  3
TXT
  4
bigfont.shx
  0
ENDTAB
  0
TABLE
  2
VIEW
  5
6
330
0
100
AcDbSymbolTable
 70
     0
  0
ENDTAB
  0
TABLE
  2
UCS
  5
7
330
0
100
AcDbSymbolTable
 70
     0
  0
ENDTAB
  0
TABLE
  2
APPID
  5
9
330
0
100
AcDbSymbolTable
 70
     1
  0
APPID
  5
11
330
9
100
AcDbSymbolTableRecord
100
AcDbRegAppTableRecord
  2
ACAD
 70
     0
  0
ENDTAB
  0
TABLE
  2
DIMSTYLE
  5
A
330
0
100
AcDbSymbolTable
 70
     1
  0
DIMSTYLE
105
1D
102
{ACAD_REACTORS
330
831
330
83E
330
84B
330
867
330
873
330
880
330
8F0
330
8FF
330
90C
330
919
330
940
330
94D
330
A01
102
}
330
A
100
AcDbSymbolTableRecord
100
AcDbDimStyleTableRecord
  2
STANDARD
 70
     0
  3

  4

  5

  6

  7

 40
1.0
 41
0.18
 42
0.0625
 43
0.38
 44
0.18
 45
0.0
 46
0.0
 47
0.0
 48
0.0
140
0.18
141
0.09
142
0.0
143
25.4
144
1.0
145
0.0
146
1.0
147
0.09
 71
     0
 72
     0
 73
     1
 74
     1
 75
     0
 76
     0
 77
     0
 78
     0
170
     0
171
     2
172
     0
173
     0
174
     0
175
     0
176
     0
177
     0
178
     0
270
     2
271
     4
272
     4
273
     2
274
     2
340
10
275
     0
280
     0
281
     0
282
     0
283
     1
284
     0
285
     0
286
     0
287
     3
288
     0
  0
ENDTAB
  0
TABLE
  2
BLOCK_RECORD
  5
1
330
0
100
AcDbSymbolTable
 70
    14
  0
BLOCK_RECORD
  5
1A
102
{ACAD_XDICTIONARY
360
A60
102
}
330
1
100
AcDbSymbolTableRecord
100
AcDbBlockTableRecord
  2
*MODEL_SPACE
  0
BLOCK_RECORD
  5
17
102
{ACAD_XDICTIONARY
360
A5E
102
}
330
1
100
AcDbSymbolTableRecord
100
AcDbBlockTableRecord
  2
*PAPER_SPACE
  0
BLOCK_RECORD
  5
6D
330
1
100
AcDbSymbolTableRecord
100
AcDbBlockTableRecord
  2
_OPEN
  0
BLOCK_RECORD
  5
824
330
1
100
AcDbSymbolTableRecord
100
AcDbBlockTableRecord
  2
*D1
  0
BLOCK_RECORD
  5
832
330
1
100
AcDbSymbolTableRecord
100
AcDbBlockTableRecord
  2
*D2
  0
BLOCK_RECORD
  5
83F
330
1
100
AcDbSymbolTableRecord
100
AcDbBlockTableRecord
  2
*D3
  0
BLOCK_RECORD
  5
85B
330
1
100
AcDbSymbolTableRecord
100
AcDbBlockTableRecord
  2
*D4
  0
BLOCK_RECORD
  5
868
330
1
100
AcDbSymbolTableRecord
100
AcDbBlockTableRecord
  2
*D5
  0
BLOCK_RECORD
  5
874
330
1
100
AcDbSymbolTableRecord
100
AcDbBlockTableRecord
  2
*D6
  0
BLOCK_RECORD
  5
8E4
330
1
100
AcDbSymbolTableRecord
100
AcDbBlockTableRecord
  2
*D7
  0
BLOCK_RECORD
  5
8F1
330
1
100
AcDbSymbolTableRecord
100
AcDbBlockTableRecord
  2
*D8
  0
BLOCK_RECORD
  5
900
330
1
100
AcDbSymbolTableRecord
100
AcDbBlockTableRecord
  2
*D9
  0
BLOCK_RECORD
  5
90D
330
1
100
AcDbSymbolTableRecord
100
AcDbBlockTableRecord
  2
*D10
  0
BLOCK_RECORD
  5
934
330
1
100
AcDbSymbolTableRecord
100
AcDbBlockTableRecord
  2
*D11
  0
BLOCK_RECORD
  5
941
330
1
100
AcDbSymbolTableRecord
100
AcDbBlockTableRecord
  2
*D12
  0
BLOCK_RECORD
  5
9F5
330
1
100
AcDbSymbolTableRecord
100
AcDbBlockTableRecord
  2
*D13
  0
ENDTAB
  0
ENDSEC
  0
SECTION
  2
BLOCKS
  0
BLOCK
  5
1B
330
1A
100
AcDbEntity
  8
0
100
AcDbBlockBegin
  2
*MODEL_SPACE
 70
     0
 10
0.0
 20
0.0
 30
0.0
  3
*MODEL_SPACE
  1

  0
ENDBLK
  5
1C
330
1A
100
AcDbEntity
  8
0
100
AcDbBlockEnd
  0
BLOCK
  5
18
330
17
100
AcDbEntity
 67
     1
  8
0
100
AcDbBlockBegin
  2
*PAPER_SPACE
 70
     0
 10
0.0
 20
0.0
 30
0.0
  3
*PAPER_SPACE
  1

  0
ENDBLK
  5
19
330
17
100
AcDbEntity
 67
     1
  8
0
100
AcDbBlockEnd
  0
BLOCK
  5
6E
330
6D
100
AcDbEntity
  8
0
100
AcDbBlockBegin
  2
_OPEN
 70
     0
 10
0.0
 20
0.0
 30
0.0
  3
_OPEN
  1

  0
LINE
  5
6F
330
6D
100
AcDbEntity
  8
0
  6
BYBLOCK
 62
     0
100
AcDbLine
 10
-1.0
 20
0.1666666666666666
 30
0.0
 11
0.0
 21
0.0
 31
0.0
  0
LINE
  5
70
330
6D
100
AcDbEntity
  8
0
  6
BYBLOCK
 62
     0
100
AcDbLine
 10
0.0
 20
0.0
 30
0.0
 11
-1.0
 21
-0.1666666666666666
 31
0.0
  0
LINE
  5
71
330
6D
100
AcDbEntity
  8
0
  6
BYBLOCK
 62
     0
100
AcDbLine
 10
0.0
 20
0.0
 30
0.0
 11
-1.0
 21
0.0
 31
0.0
  0
ENDBLK
  5
72
330
6D
100
AcDbEntity
  8
0
100
AcDbBlockEnd
  0
BLOCK
  5
897
330
824
100
AcDbEntity
  8
0
100
AcDbBlockBegin
  2
*D1
 70
     1
 10
0.0
 20
0.0
 30
0.0
  3
*D1
  1

  0
LINE
  5
898
330
824
100
AcDbEntity
  8
0
  6
BYBLOCK
 62
     4
100
AcDbLine
 10
279.259717804538
 20
219.9103366284866
 30
0.0
 11
279.259717804538
 21
239.2954989043414
 31
0.0
  0
LINE
  5
899
330
824
100
AcDbEntity
  8
0
  6
BYBLOCK
 62
     4
100
AcDbLine
 10
109.2597178045381
 20
219.9105366284866
 30
0.0
 11
109.2597178045381
 21
239.2954989043414
 31
0.0
  0
LINE
  5
89A
330
824
100
AcDbEntity
  8
0
  6
BYBLOCK
 62
     4
100
AcDbLine
 10
272.259717804538
 20
236.2954989043414
 30
0.0
 11
116.2597178045381
 21
236.2954989043414
 31
0.0
  0
INSERT
  5
89B
330
824
100
AcDbEntity
  8
0
  6
BYBLOCK
 62
     4
100
AcDbBlockReference
  2
_OPEN
 10
279.259717804538
 20
236.2954989043414
 30
0.0
 41
7.0
 42
7.0
 43
7.0
  0
INSERT
  5
89C
330
824
100
AcDbEntity
  8
0
  6
BYBLOCK
 62
     4
100
AcDbBlockReference
  2
_OPEN
 10
109.2597178045381
 20
236.2954989043414
 30
0.0
 41
7.0
 42
7.0
 43
7.0
 50
180.0
  0
MTEXT
  5
89D
330
824
100
AcDbEntity
  8
0
  6
BYBLOCK
 62
     4
100
AcDbMText
 10
194.2597178045381
 20
241.2954989043414
 30
0.0
 40
6.0
 41
0.0
 71
     5
 72
     1
  1
\A1;φ170
1001
ACAD
1000
MTEXTBEGIN
1070
    73
1070
     1
1070
    44
1040
1.0
1070
    74
1070
     0
1000
MTEXTEND
1000
MTEXTBEGIN
1070
    73
1070
     1
1070
    44
1040
1.0
1070
    74
1070
     0
1000
MTEXTEND
1000
MTEXTBEGIN
1070
    73
1070
     1
1070
    44
1040
1.0
1070
    74
1070
     0
1000
MTEXTEND
  0
POINT
  5
89E
330
824
100
AcDbEntity
  8
DEFPOINTS
  6
BYBLOCK
 62
     0
100
AcDbPoint
 10
279.259717804538
 20
213.9103366284866
 30
0.0
  0
POINT
  5
89F
330
824
100
AcDbEntity
  8
DEFPOINTS
  6
BYBLOCK
 62
     0
100
AcDbPoint
 10
109.2597178045381
 20
213.9105366284866
 30
0.0
  0
POINT
  5
8A0
330
824
100
AcDbEntity
  8
DEFPOINTS
  6
BYBLOCK
 62
     0
100
AcDbPoint
 10
109.2597178045381
 20
236.2954989043414
 30
0.0
  0
ENDBLK
  5
8A1
330
824
100
AcDbEntity
  8
0
100
AcDbBlockEnd
  0
BLOCK
  5
8B8
330
832
100
AcDbEntity
  8
0
100
AcDbBlockBegin
  2
*D2
 70
     1
 10
0.0
 20
0.0
 30
0.0
  3
*D2
  1

  0
LINE
  5
8B9
330
832
100
AcDbEntity
  8
0
  6
BYBLOCK
 62
     4
100
AcDbLine
 10
251.259417804538
 20
119.9103366284866
 30
0.0
 11
251.259417804538
 21
90.30969441855949
 31
0.0
  0
LINE
  5
8BA
330
832
100
AcDbEntity
  8
0
  6
BYBLOCK
 62
     4
100
AcDbLine
 10
137.259417804538
 20
119.9108366284866
 30
0.0
 11
137.259417804538
 21
90.30969441855949
 31
0.0
  0
LINE
  5
8BB
330
832
100
AcDbEntity
  8
0
  6
BYBLOCK
 62
     4
100
AcDbLine
 10
244.259417804538
 20
93.3096944185595
 30
0.0
 11
144.259417804538
 21
93.3096944185595
 31
0.0
  0
INSERT
  5
8BC
330
832
100
AcDbEntity
  8
0
  6
BYBLOCK
 62
     4
100
AcDbBlockReference
  2
_OPEN
 10
251.259417804538
 20
93.3096944185595
 30
0.0
 41
7.0
 42
7.0
 43
7.0
  0
INSERT
  5
8BD
330
832
100
AcDbEntity
  8
0
  6
BYBLOCK
 62
     4
100
AcDbBlockReference
  2
_OPEN
 10
137.259417804538
 20
93.3096944185595
 30
0.0
 41
7.0
 42
7.0
 43
7.0
 50
180.0
  0
MTEXT
  5
8BE
330
832
100
AcDbEntity
  8
0
  6
BYBLOCK
 62
     4
100
AcDbMText
 10
194.259417804538
 20
98.3096944185595
 30
0.0
 40
6.0
 41
0.0
 71
     5
 72
     1
  1
\A1;φ114
1001
ACAD
1000
MTEXTBEGIN
1070
    73
1070
     1
1070
    44
1040
1.0
1070
    74
1070
     0
1000
MTEXTEND
1000
MTEXTBEGIN
1070
    73
1070
     1
1070
    44
1040
1.0
1070
    74
1070
     0
1000
MTEXTEND
1000
MTEXTBEGIN
1070
    73
1070
     1
1070
    44
1040
1.0
1070
    74
1070
     0
1000
MTEXTEND
  0
POINT
  5
8BF
330
832
100
AcDbEntity
  8
DEFPOINTS
  6
BYBLOCK
 62
     0
100
AcDbPoint
 10
251.259417804538
 20
125.9103366284866
 30
0.0
  0
POINT
  5
8C0
330
832
100
AcDbEntity
  8
DEFPOINTS
  6
BYBLOCK
 62
     0
100
AcDbPoint
 10
137.259417804538
 20
125.9108366284866
 30
0.0
  0
POINT
  5
8C1
330
832
100
AcDbEntity
  8
DEFPOINTS
  6
BYBLOCK
 62
     0
100
AcDbPoint
 10
137.259417804538
 20
93.3096944185595
 30
0.0
  0
ENDBLK
  5
8C2
330
832
100
AcDbEntity
  8
0
100
AcDbBlockEnd
  0
BLOCK
  5
8D9
330
83F
100
AcDbEntity
  8
0
100
AcDbBlockBegin
  2
*D3
 70
     1
 10
0.0
 20
0.0
 30
0.0
  3
*D3
  1

  0
LINE
  5
8DA
330
83F
100
AcDbEntity
  8
0
  6
BYBLOCK
 62
     4
100
AcDbLine
 10
264.259517804538
 20
159.9103366284866
 30
0.0
 11
264.259517804538
 21
67.8259417915981
 31
0.0
  0
LINE
  5
8DB
330
83F
100
AcDbEntity
  8
0
  6
BYBLOCK
 62
     4
100
AcDbLine
 10
124.259517804538
 20
159.9108366284867
 30
0.0
 11
124.259517804538
 21
67.8259417915981
 31
0.0
  0
LINE
  5
8DC
330
83F
100
AcDbEntity
  8
0
  6
BYBLOCK
 62
     4
100
AcDbLine
 10
257.2595178045379
 20
70.82594179159809
 30
0.0
 11
131.259517804538
 21
70.82594179159809
 31
0.0
  0
INSERT
  5
8DD
330
83F
100
AcDbEntity
  8
0
  6
BYBLOCK
 62
     4
100
AcDbBlockReference
  2
_OPEN
 10
264.259517804538
 20
70.82594179159809
 30
0.0
 41
7.0
 42
7.0
 43
7.0
  0
INSERT
  5
8DE
330
83F
100
AcDbEntity
  8
0
  6
BYBLOCK
 62
     4
100
AcDbBlockReference
  2
_OPEN
 10
124.259517804538
 20
70.82594179159809
 30
0.0
 41
7.0
 42
7.0
 43
7.0
 50
180.0
  0
MTEXT
  5
8DF
330
83F
100
AcDbEntity
  8
0
  6
BYBLOCK
 62
     4
100
AcDbMText
 10
194.259517804538
 20
75.82594179159809
 30
0.0
 40
6.0
 41
0.0
 71
     5
 72
     1
  1
\A1;φ140
1001
ACAD
1000
MTEXTBEGIN
1070
    73
1070
     1
1070
    44
1040
1.0
1070
    74
1070
     0
1000
MTEXTEND
1000
MTEXTBEGIN
1070
    73
1070
     1
1070
    44
1040
1.0
1070
    74
1070
     0
1000
MTEXTEND
1000
MTEXTBEGIN
1070
    73
1070
     1
1070
    44
1040
1.0
1070
    74
1070
     0
1000
MTEXTEND
  0
POINT
  5
8E0
330
83F
100
AcDbEntity
  8
DEFPOINTS
  6
BYBLOCK
 62
     0
100
AcDbPoint
 10
264.259517804538
 20
165.9103366284866
 30
0.0
  0
POINT
  5
8E1
330
83F
100
AcDbEntity
  8
DEFPOINTS
  6
BYBLOCK
 62
     0
100
AcDbPoint
 10
124.259517804538
 20
165.9108366284867
 30
0.0
  0
POINT
  5
8E2
330
83F
100
AcDbEntity
  8
DEFPOINTS
  6
BYBLOCK
 62
     0
100
AcDbPoint
 10
124.259517804538
 20
70.82594179159809
 30
0.0
  0
ENDBLK
  5
8E3
330
83F
100
AcDbEntity
  8
0
100
AcDbBlockEnd
  0
BLOCK
  5
85C
330
85B
100
AcDbEntity
  8
0
100
AcDbBlockBegin
  2
*D4
 70
     1
 10
0.0
 20
0.0
 30
0.0
  3
*D4
  1

  0
LINE
  5
85D
330
85B
100
AcDbEntity
  8
0
  6
BYBLOCK
 62
     4
100
AcDbLine
 10
281.259717804538
 20
209.9103366284866
 30
0.0
 11
301.4098338865997
 21
209.9103366284866
 31
0.0
  0
LINE
  5
85E
330
85B
100
AcDbEntity
  8
0
  6
BYBLOCK
 62
     4
100
AcDbLine
 10
270.259517804538
 20
165.9103366284866
 30
0.0
 11
301.4098338865997
 21
165.9103366284866
 31
0.0
  0
LINE
  5
85F
330
85B
100
AcDbEntity
  8
0
  6
BYBLOCK
 62
     4
100
AcDbLine
 10
298.4098338865996
 20
202.9103366284866
 30
0.0
 11
298.4098338865996
 21
172.9103366284866
 31
0.0
  0
INSERT
  5
860
330
85B
100
AcDbEntity
  8
0
  6
BYBLOCK
 62
     4
100
AcDbBlockReference
  2
_OPEN
 10
298.4098338865996
 20
209.9103366284866
 30
0.0
 41
7.0
 42
7.0
 43
7.0
 50
90.0
  0
INSERT
  5
861
330
85B
100
AcDbEntity
  8
0
  6
BYBLOCK
 62
     4
100
AcDbBlockReference
  2
_OPEN
 10
298.4098338865996
 20
165.9103366284866
 30
0.0
 41
7.0
 42
7.0
 43
7.0
 50
270.0
  0
MTEXT
  5
862
330
85B
100
AcDbEntity
  8
0
  6
BYBLOCK
 62
     4
100
AcDbMText
 10
293.4098338865997
 20
187.9103366284866
 30
0.0
 40
6.0
 41
0.0
 71
     5
 72
     1
  1
\A1;44
 11
0.0
 21
1.0
 31
0.0
1001
ACAD
1000
MTEXTBEGIN
1070
    73
1070
     1
1070
    44
1040
1.0
1070
    74
1070
     0
1000
MTEXTEND
1000
MTEXTBEGIN
1070
    73
1070
     1
1070
    44
1040
1.0
1070
    74
1070
     0
1000
MTEXTEND
1000
MTEXTBEGIN
1070
    73
1070
     1
1070
    44
1040
1.0
1070
    74
1070
     0
1000
MTEXTEND
  0
POINT
  5
863
330
85B
100
AcDbEntity
  8
DEFPOINTS
  6
BYBLOCK
 62
     0
100
AcDbPoint
 10
275.259717804538
 20
209.9103366284866
 30
0.0
  0
POINT
  5
864
330
85B
100
AcDbEntity
  8
DEFPOINTS
  6
BYBLOCK
 62
     0
100
AcDbPoint
 10
264.259517804538
 20
165.9103366284866
 30
0.0
  0
POINT
  5
865
330
85B
100
AcDbEntity
  8
DEFPOINTS
  6
BYBLOCK
 62
     0
100
AcDbPoint
 10
298.4098338865996
 20
165.9103366284866
 30
0.0
  0
ENDBLK
  5
866
330
85B
100
AcDbEntity
  8
0
100
AcDbBlockEnd
  0
BLOCK
  5
869
330
868
100
AcDbEntity
  8
0
100
AcDbBlockBegin
  2
*D5
 70
     1
 10
0.0
 20
0.0
 30
0.0
  3
*D5
  1

  0
LINE
  5
AB5
330
868
100
AcDbEntity
  8
SUNPOU
  6
CONTINUOUS
 62
     4
100
AcDbLine
 10
234.9183585033264
 20
145.9105366284867
 30
0.0
 11
279.0687745853881
 21
145.9105366284867
 31
0.0
  0
LINE
  5
AB6
330
868
100
AcDbEntity
  8
SUNPOU
  6
CONTINUOUS
 62
     4
100
AcDbLine
 10
276.0687745853881
 20
178.9103366284866
 30
0.0
 11
276.0687745853881
 21
152.9105366284866
 31
0.0
  0
INSERT
  5
AB7
330
868
100
AcDbEntity
  8
SUNPOU
  6
CONTINUOUS
 62
     4
100
AcDbBlockReference
  2
_OPEN
 10
276.0687745853881
 20
185.9103366284866
 30
0.0
 41
7.0
 42
7.0
 43
7.0
 50
90.0
  0
INSERT
  5
AB8
330
868
100
AcDbEntity
  8
SUNPOU
  6
CONTINUOUS
 62
     4
100
AcDbBlockReference
  2
_OPEN
 10
276.0687745853881
 20
145.9105366284867
 30
0.0
 41
7.0
 42
7.0
 43
7.0
 50
270.0
  0
MTEXT
  5
AB9
330
868
100
AcDbEntity
  8
SUNPOU
  6
CONTINUOUS
 62
     4
100
AcDbMText
 10
271.068774585388
 20
165.9104366284867
 30
0.0
 40
6.0
 41
0.0
 71
     5
 72
     1
  1
\A1;40
 11
0.0000000000000001
 21
1.0
 31
0.0
  0
POINT
  5
ABA
330
868
100
AcDbEntity
  8
DEFPOINTS
  6
CONTINUOUS
 62
     0
100
AcDbPoint
 10
241.9184585033264
 20
185.9103366284866
 30
0.0
  0
POINT
  5
ABB
330
868
100
AcDbEntity
  8
DEFPOINTS
  6
CONTINUOUS
 62
     0
100
AcDbPoint
 10
228.9183585033264
 20
145.9105366284867
 30
0.0
  0
POINT
  5
ABC
330
868
100
AcDbEntity
  8
DEFPOINTS
  6
CONTINUOUS
 62
     0
100
AcDbPoint
 10
276.0687745853881
 20
145.9105366284867
 30
0.0
  0
ENDBLK
  5
872
330
868
100
AcDbEntity
  8
0
100
AcDbBlockEnd
  0
BLOCK
  5
875
330
874
100
AcDbEntity
  8
0
100
AcDbBlockBegin
  2
*D6
 70
     1
 10
0.0
 20
0.0
 30
0.0
  3
*D6
  1

  0
LINE
  5
876
330
874
100
AcDbEntity
  8
0
  6
BYBLOCK
 62
     4
100
AcDbLine
 10
285.259717804538
 20
213.9103366284866
 30
0.0
 11
322.1436724975437
 21
213.9103366284866
 31
0.0
  0
LINE
  5
877
330
874
100
AcDbEntity
  8
0
  6
BYBLOCK
 62
     4
100
AcDbLine
 10
257.259417804538
 20
125.9105366284866
 30
0.0
 11
322.1436724975437
 21
125.9105366284866
 31
0.0
  0
LINE
  5
878
330
874
100
AcDbEntity
  8
0
  6
BYBLOCK
 62
     4
100
AcDbLine
 10
319.1436724975437
 20
206.9103366284866
 30
0.0
 11
319.1436724975437
 21
132.9105366284866
 31
0.0
  0
INSERT
  5
879
330
874
100
AcDbEntity
  8
0
  6
BYBLOCK
 62
     4
100
AcDbBlockReference
  2
_OPEN
 10
319.1436724975437
 20
213.9103366284866
 30
0.0
 41
7.0
 42
7.0
 43
7.0
 50
90.0
  0
INSERT
  5
87A
330
874
100
AcDbEntity
  8
0
  6
BYBLOCK
 62
     4
100
AcDbBlockReference
  2
_OPEN
 10
319.1436724975437
 20
125.9105366284866
 30
0.0
 41
7.0
 42
7.0
 43
7.0
 50
270.0
  0
MTEXT
  5
87B
330
874
100
AcDbEntity
  8
0
  6
BYBLOCK
 62
     4
100
AcDbMText
 10
314.1436724975438
 20
169.9104366284866
 30
0.0
 40
6.0
 41
0.0
 71
     5
 72
     1
  1
\A1;88
 11
0.0
 21
1.0
 31
0.0
1001
ACAD
1000
MTEXTBEGIN
1070
    73
1070
     1
1070
    44
1040
1.0
1070
    74
1070
     0
1000
MTEXTEND
1000
MTEXTBEGIN
1070
    73
1070
     1
1070
    44
1040
1.0
1070
    74
1070
     0
1000
MTEXTEND
1000
MTEXTBEGIN
1070
    73
1070
     1
1070
    44
1040
1.0
1070
    74
1070
     0
1000
MTEXTEND
  0
POINT
  5
87C
330
874
100
AcDbEntity
  8
DEFPOINTS
  6
BYBLOCK
 62
     0
100
AcDbPoint
 10
279.259717804538
 20
213.9103366284866
 30
0.0
  0
POINT
  5
87D
330
874
100
AcDbEntity
  8
DEFPOINTS
  6
BYBLOCK
 62
     0
100
AcDbPoint
 10
251.259417804538
 20
125.9105366284866
 30
0.0
  0
POINT
  5
87E
330
874
100
AcDbEntity
  8
DEFPOINTS
  6
BYBLOCK
 62
     0
100
AcDbPoint
 10
319.1436724975437
 20
125.9105366284866
 30
0.0
  0
ENDBLK
  5
87F
330
874
100
AcDbEntity
  8
0
100
AcDbBlockEnd
  0
BLOCK
  5
9E8
330
8E4
100
AcDbEntity
  8
0
100
AcDbBlockBegin
  2
*D7
 70
     1
 10
0.0
 20
0.0
 30
0.0
  3
*D7
  1

  0
LINE
  5
9E9
330
8E4
100
AcDbEntity
  8
0
  6
BYBLOCK
 62
     4
100
AcDbLine
 10
510.6792066530907
 20
134.7102167804029
 30
0.0
 11
510.6792066530907
 21
108.5244902719132
 31
0.0
  0
LINE
  5
9EA
330
8E4
100
AcDbEntity
  8
0
  6
BYBLOCK
 62
     4
100
AcDbLine
 10
375.6801067026487
 20
134.7107366271945
 30
0.0
 11
375.6801067026487
 21
108.5244902719132
 31
0.0
  0
LINE
  5
9EB
330
8E4
100
AcDbEntity
  8
0
  6
BYBLOCK
 62
     4
100
AcDbLine
 10
503.6792066530907
 20
111.5244902719132
 30
0.0
 11
382.6801067026487
 21
111.5244902719132
 31
0.0
  0
INSERT
  5
9EC
330
8E4
100
AcDbEntity
  8
0
  6
BYBLOCK
 62
     4
100
AcDbBlockReference
  2
_OPEN
 10
510.6792066530907
 20
111.5244902719132
 30
0.0
 41
7.0
 42
7.0
 43
7.0
  0
INSERT
  5
9ED
330
8E4
100
AcDbEntity
  8
0
  6
BYBLOCK
 62
     4
100
AcDbBlockReference
  2
_OPEN
 10
375.6801067026487
 20
111.5244902719132
 30
0.0
 41
7.0
 42
7.0
 43
7.0
 50
180.0
  0
MTEXT
  5
9EE
330
8E4
100
AcDbEntity
  8
0
  6
BYBLOCK
 62
     4
100
AcDbMText
 10
443.1796566778697
 20
116.5244902719132
 30
0.0
 40
6.0
 41
0.0
 71
     5
 72
     1
  1
\A1;φ135
1001
ACAD
1000
MTEXTBEGIN
1070
    73
1070
     1
1070
    44
1040
1.0
1070
    74
1070
     0
1000
MTEXTEND
1000
MTEXTBEGIN
1070
    73
1070
     1
1070
    44
1040
1.0
1070
    74
1070
     0
1000
MTEXTEND
1000
MTEXTBEGIN
1070
    73
1070
     1
1070
    44
1040
1.0
1070
    74
1070
     0
1000
MTEXTEND
  0
POINT
  5
9EF
330
8E4
100
AcDbEntity
  8
DEFPOINTS
  6
BYBLOCK
 62
     0
100
AcDbPoint
 10
510.6792066530907
 20
140.7102167804029
 30
0.0
  0
POINT
  5
9F0
330
8E4
100
AcDbEntity
  8
DEFPOINTS
  6
BYBLOCK
 62
     0
100
AcDbPoint
 10
375.6801067026487
 20
140.7107366271945
 30
0.0
  0
POINT
  5
9F1
330
8E4
100
AcDbEntity
  8
DEFPOINTS
  6
BYBLOCK
 62
     0
100
AcDbPoint
 10
375.6801067026487
 20
111.5244902719132
 30
0.0
  0
ENDBLK
  5
9F2
330
8E4
100
AcDbEntity
  8
0
100
AcDbBlockEnd
  0
BLOCK
  5
927
330
8F1
100
AcDbEntity
  8
0
100
AcDbBlockBegin
  2
*D8
 70
     1
 10
0.0
 20
0.0
 30
0.0
  3
*D8
  1

  0
LINE
  5
928
330
8F1
100
AcDbEntity
  8
0
  6
BYBLOCK
 62
     4
100
AcDbLine
 10
525.1797991720081
 20
180.7104366284867
 30
0.0
 11
545.1569147138321
 21
180.7104366284867
 31
0.0
  0
LINE
  5
929
330
8F1
100
AcDbEntity
  8
0
  6
BYBLOCK
 62
     4
100
AcDbLine
 10
529.1797991720081
 20
178.7103366284866
 30
0.0
 11
545.1569147138321
 21
178.7103366284866
 31
0.0
  0
LINE
  5
92A
330
8F1
100
AcDbEntity
  8
0
  6
BYBLOCK
 62
     4
100
AcDbLine
 10
542.156914713832
 20
171.7103366284866
 30
0.0
 11
542.156914713832
 21
164.7103366284866
 31
0.0
  0
LINE
  5
92B
330
8F1
100
AcDbEntity
  8
0
  6
BYBLOCK
 62
     4
100
AcDbLine
 10
542.156914713832
 20
187.7104366284867
 30
0.0
 11
542.156914713832
 21
202.7104366284867
 31
0.0
  0
LINE
  5
92C
330
8F1
100
AcDbEntity
  8
0
  6
BYBLOCK
 62
     4
100
AcDbLine
 10
542.156914713832
 20
178.7103366284866
 30
0.0
 11
542.156914713832
 21
180.7104366284867
 31
0.0
  0
INSERT
  5
92D
330
8F1
100
AcDbEntity
  8
0
  6
BYBLOCK
 62
     4
100
AcDbBlockReference
  2
_OPEN
 10
542.156914713832
 20
178.7103366284866
 30
0.0
 41
7.0
 42
7.0
 43
7.0
 50
90.0
  0
INSERT
  5
92E
330
8F1
100
AcDbEntity
  8
0
  6
BYBLOCK
 62
     4
100
AcDbBlockReference
  2
_OPEN
 10
542.156914713832
 20
180.7104366284867
 30
0.0
 41
7.0
 42
7.0
 43
7.0
 50
270.0
  0
MTEXT
  5
92F
330
8F1
100
AcDbEntity
  8
0
  6
BYBLOCK
 62
     4
100
AcDbMText
 10
537.1569147138321
 20
198.7104366284867
 30
0.0
 40
6.0
 41
0.0
 71
     5
 72
     1
  1
\A1;2
 11
0.0
 21
1.0
 31
0.0
1001
ACAD
1000
MTEXTBEGIN
1070
    73
1070
     1
1070
    44
1040
1.0
1070
    74
1070
     0
1000
MTEXTEND
1000
MTEXTBEGIN
1070
    73
1070
     1
1070
    44
1040
1.0
1070
    74
1070
     0
1000
MTEXTEND
1000
MTEXTBEGIN
1070
    73
1070
     1
1070
    44
1040
1.0
1070
    74
1070
     0
1000
MTEXTEND
  0
POINT
  5
930
330
8F1
100
AcDbEntity
  8
DEFPOINTS
  6
BYBLOCK
 62
     0
100
AcDbPoint
 10
519.1797991720082
 20
180.7104366284867
 30
0.0
  0
POINT
  5
931
330
8F1
100
AcDbEntity
  8
DEFPOINTS
  6
BYBLOCK
 62
     0
100
AcDbPoint
 10
523.1797991720082
 20
178.7103366284866
 30
0.0
  0
POINT
  5
932
330
8F1
100
AcDbEntity
  8
DEFPOINTS
  6
BYBLOCK
 62
     0
100
AcDbPoint
 10
542.156914713832
 20
178.7103366284866
 30
0.0
  0
ENDBLK
  5
933
330
8F1
100
AcDbEntity
  8
0
100
AcDbBlockEnd
  0
BLOCK
  5
901
330
900
100
AcDbEntity
  8
0
100
AcDbBlockBegin
  2
*D9
 70
     1
 10
0.0
 20
0.0
 30
0.0
  3
*D9
  1

  0
LINE
  5
902
330
900
100
AcDbEntity
  8
0
  6
BYBLOCK
 62
     4
100
AcDbLine
 10
529.1797991720081
 20
178.7103366284866
 30
0.0
 11
564.7142969227815
 21
178.7103366284866
 31
0.0
  0
LINE
  5
903
330
900
100
AcDbEntity
  8
0
  6
BYBLOCK
 62
     4
100
AcDbLine
 10
514.5153067026487
 20
138.7104366280834
 30
0.0
 11
564.7142969227815
 21
138.7104366280834
 31
0.0
  0
LINE
  5
904
330
900
100
AcDbEntity
  8
0
  6
BYBLOCK
 62
     4
100
AcDbLine
 10
561.7142969227816
 20
171.7103366284866
 30
0.0
 11
561.7142969227816
 21
145.7104366280834
 31
0.0
  0
INSERT
  5
905
330
900
100
AcDbEntity
  8
0
  6
BYBLOCK
 62
     4
100
AcDbBlockReference
  2
_OPEN
 10
561.7142969227816
 20
178.7103366284866
 30
0.0
 41
7.0
 42
7.0
 43
7.0
 50
90.0
  0
INSERT
  5
906
330
900
100
AcDbEntity
  8
0
  6
BYBLOCK
 62
     4
100
AcDbBlockReference
  2
_OPEN
 10
561.7142969227816
 20
138.7104366280834
 30
0.0
 41
7.0
 42
7.0
 43
7.0
 50
270.0
  0
MTEXT
  5
907
330
900
100
AcDbEntity
  8
0
  6
BYBLOCK
 62
     4
100
AcDbMText
 10
556.7142969227815
 20
158.710386628285
 30
0.0
 40
6.0
 41
0.0
 71
     5
 72
     1
  1
\A1;40
 11
0.0
 21
1.0
 31
0.0
1001
ACAD
1000
MTEXTBEGIN
1070
    73
1070
     1
1070
    44
1040
1.0
1070
    74
1070
     0
1000
MTEXTEND
1000
MTEXTBEGIN
1070
    73
1070
     1
1070
    44
1040
1.0
1070
    74
1070
     0
1000
MTEXTEND
1000
MTEXTBEGIN
1070
    73
1070
     1
1070
    44
1040
1.0
1070
    74
1070
     0
1000
MTEXTEND
  0
POINT
  5
908
330
900
100
AcDbEntity
  8
DEFPOINTS
  6
BYBLOCK
 62
     0
100
AcDbPoint
 10
523.1797991720082
 20
178.7103366284866
 30
0.0
  0
POINT
  5
909
330
900
100
AcDbEntity
  8
DEFPOINTS
  6
BYBLOCK
 62
     0
100
AcDbPoint
 10
508.5153067026486
 20
138.7104366280834
 30
0.0
  0
POINT
  5
90A
330
900
100
AcDbEntity
  8
DEFPOINTS
  6
BYBLOCK
 62
     0
100
AcDbPoint
 10
561.7142969227816
 20
138.7104366280834
 30
0.0
  0
ENDBLK
  5
90B
330
900
100
AcDbEntity
  8
0
100
AcDbBlockEnd
  0
BLOCK
  5
90E
330
90D
100
AcDbEntity
  8
0
100
AcDbBlockBegin
  2
*D10
 70
     1
 10
0.0
 20
0.0
 30
0.0
  3
*D10
  1

  0
LINE
  5
90F
330
90D
100
AcDbEntity
  8
0
  6
BYBLOCK
 62
     4
100
AcDbLine
 10
469.1797991720082
 20
216.8246176009088
 30
0.0
 11
585.3617177744313
 21
216.8246176009088
 31
0.0
  0
LINE
  5
910
330
90D
100
AcDbEntity
  8
0
  6
BYBLOCK
 62
     4
100
AcDbLine
 10
514.5153067026487
 20
138.7104366280834
 30
0.0
 11
585.3617177744313
 21
138.7104366280834
 31
0.0
  0
LINE
  5
911
330
90D
100
AcDbEntity
  8
0
  6
BYBLOCK
 62
     4
100
AcDbLine
 10
582.3617177744313
 20
209.8246176009088
 30
0.0
 11
582.3617177744313
 21
145.7104366280834
 31
0.0
  0
INSERT
  5
912
330
90D
100
AcDbEntity
  8
0
  6
BYBLOCK
 62
     4
100
AcDbBlockReference
  2
_OPEN
 10
582.3617177744313
 20
216.8246176009088
 30
0.0
 41
7.0
 42
7.0
 43
7.0
 50
90.0
  0
INSERT
  5
913
330
90D
100
AcDbEntity
  8
0
  6
BYBLOCK
 62
     4
100
AcDbBlockReference
  2
_OPEN
 10
582.3617177744313
 20
138.7104366280834
 30
0.0
 41
7.0
 42
7.0
 43
7.0
 50
270.0
  0
MTEXT
  5
914
330
90D
100
AcDbEntity
  8
0
  6
BYBLOCK
 62
     4
100
AcDbMText
 10
577.3617177744313
 20
177.7675271144961
 30
0.0
 40
6.0
 41
0.0
 71
     5
 72
     1
  1
\A1;78
 11
0.0
 21
1.0
 31
0.0
1001
ACAD
1000
MTEXTBEGIN
1070
    73
1070
     1
1070
    44
1040
1.0
1070
    74
1070
     0
1000
MTEXTEND
1000
MTEXTBEGIN
1070
    73
1070
     1
1070
    44
1040
1.0
1070
    74
1070
     0
1000
MTEXTEND
1000
MTEXTBEGIN
1070
    73
1070
     1
1070
    44
1040
1.0
1070
    74
1070
     0
1000
MTEXTEND
  0
POINT
  5
915
330
90D
100
AcDbEntity
  8
DEFPOINTS
  6
BYBLOCK
 62
     0
100
AcDbPoint
 10
463.1797991720081
 20
216.8246176009088
 30
0.0
  0
POINT
  5
916
330
90D
100
AcDbEntity
  8
DEFPOINTS
  6
BYBLOCK
 62
     0
100
AcDbPoint
 10
508.5153067026486
 20
138.7104366280834
 30
0.0
  0
POINT
  5
917
330
90D
100
AcDbEntity
  8
DEFPOINTS
  6
BYBLOCK
 62
     0
100
AcDbPoint
 10
582.3617177744313
 20
138.7104366280834
 30
0.0
  0
ENDBLK
  5
918
330
90D
100
AcDbEntity
  8
0
100
AcDbBlockEnd
  0
BLOCK
  5
9C7
330
934
100
AcDbEntity
  8
0
100
AcDbBlockBegin
  2
*D11
 70
     1
 10
0.0
 20
0.0
 30
0.0
  3
*D11
  1

  0
LINE
  5
9C8
330
934
100
AcDbEntity
  8
0
  6
BYBLOCK
 62
     4
100
AcDbLine
 10
504.9296991720082
 20
205.0941366284866
 30
0.0
 11
504.9296991720082
 21
243.7567272426449
 31
0.0
  0
LINE
  5
9C9
330
934
100
AcDbEntity
  8
0
  6
BYBLOCK
 62
     4
100
AcDbLine
 10
381.4298991720081
 20
205.0945366284866
 30
0.0
 11
381.4298991720081
 21
243.7567272426449
 31
0.0
  0
LINE
  5
9CA
330
934
100
AcDbEntity
  8
0
  6
BYBLOCK
 62
     4
100
AcDbLine
 10
497.9296991720081
 20
240.7567272426449
 30
0.0
 11
388.4298991720081
 21
240.7567272426449
 31
0.0
  0
INSERT
  5
9CB
330
934
100
AcDbEntity
  8
0
  6
BYBLOCK
 62
     4
100
AcDbBlockReference
  2
_OPEN
 10
504.9296991720082
 20
240.7567272426449
 30
0.0
 41
7.0
 42
7.0
 43
7.0
  0
INSERT
  5
9CC
330
934
100
AcDbEntity
  8
0
  6
BYBLOCK
 62
     4
100
AcDbBlockReference
  2
_OPEN
 10
381.4298991720081
 20
240.7567272426449
 30
0.0
 41
7.0
 42
7.0
 43
7.0
 50
180.0
  0
MTEXT
  5
9CD
330
934
100
AcDbEntity
  8
0
  6
BYBLOCK
 62
     4
100
AcDbMText
 10
443.1797991720081
 20
245.7567272426449
 30
0.0
 40
6.0
 41
0.0
 71
     5
 72
     1
  1
\A1;φ123
1001
ACAD
1000
MTEXTBEGIN
1070
    73
1070
     1
1070
    44
1040
1.0
1070
    74
1070
     0
1000
MTEXTEND
1000
MTEXTBEGIN
1070
    73
1070
     1
1070
    44
1040
1.0
1070
    74
1070
     0
1000
MTEXTEND
1000
MTEXTBEGIN
1070
    73
1070
     1
1070
    44
1040
1.0
1070
    74
1070
     0
1000
MTEXTEND
  0
POINT
  5
9CE
330
934
100
AcDbEntity
  8
DEFPOINTS
  6
BYBLOCK
 62
     0
100
AcDbPoint
 10
504.9296991720082
 20
199.0941366284866
 30
0.0
  0
POINT
  5
9CF
330
934
100
AcDbEntity
  8
DEFPOINTS
  6
BYBLOCK
 62
     0
100
AcDbPoint
 10
381.4298991720081
 20
199.0945366284867
 30
0.0
  0
POINT
  5
9D0
330
934
100
AcDbEntity
  8
DEFPOINTS
  6
BYBLOCK
 62
     0
100
AcDbPoint
 10
381.4298991720081
 20
240.7567272426449
 30
0.0
  0
ENDBLK
  5
9D1
330
934
100
AcDbEntity
  8
0
100
AcDbBlockEnd
  0
BLOCK
  5
964
330
941
100
AcDbEntity
  8
0
100
AcDbBlockBegin
  2
*D12
 70
     1
 10
0.0
 20
0.0
 30
0.0
  3
*D12
  1

  0
LINE
  5
965
330
941
100
AcDbEntity
  8
0
  6
BYBLOCK
 62
     4
100
AcDbLine
 10
523.1797991720082
 20
185.7103366284867
 30
0.0
 11
523.1797991720082
 21
263.3743668537624
 31
0.0
  0
LINE
  5
966
330
941
100
AcDbEntity
  8
0
  6
BYBLOCK
 62
     4
100
AcDbLine
 10
363.1796991720082
 20
185.7109366284866
 30
0.0
 11
363.1796991720082
 21
263.3743668537624
 31
0.0
  0
LINE
  5
967
330
941
100
AcDbEntity
  8
0
  6
BYBLOCK
 62
     4
100
AcDbLine
 10
516.1797991720082
 20
260.3743668537624
 30
0.0
 11
370.1796991720082
 21
260.3743668537624
 31
0.0
  0
INSERT
  5
968
330
941
100
AcDbEntity
  8
0
  6
BYBLOCK
 62
     4
100
AcDbBlockReference
  2
_OPEN
 10
523.1797991720082
 20
260.3743668537624
 30
0.0
 41
7.0
 42
7.0
 43
7.0
  0
INSERT
  5
969
330
941
100
AcDbEntity
  8
0
  6
BYBLOCK
 62
     4
100
AcDbBlockReference
  2
_OPEN
 10
363.1796991720082
 20
260.3743668537624
 30
0.0
 41
7.0
 42
7.0
 43
7.0
 50
180.0
  0
MTEXT
  5
96A
330
941
100
AcDbEntity
  8
0
  6
BYBLOCK
 62
     4
100
AcDbMText
 10
443.1797491720081
 20
265.3743668537624
 30
0.0
 40
6.0
 41
0.0
 71
     5
 72
     1
  1
\A1;φ160
1001
ACAD
1000
MTEXTBEGIN
1070
    73
1070
     1
1070
    44
1040
1.0
1070
    74
1070
     0
1000
MTEXTEND
1000
MTEXTBEGIN
1070
    73
1070
     1
1070
    44
1040
1.0
1070
    74
1070
     0
1000
MTEXTEND
1000
MTEXTBEGIN
1070
    73
1070
     1
1070
    44
1040
1.0
1070
    74
1070
     0
1000
MTEXTEND
  0
POINT
  5
96B
330
941
100
AcDbEntity
  8
DEFPOINTS
  6
BYBLOCK
 62
     0
100
AcDbPoint
 10
523.1797991720082
 20
179.7103366284867
 30
0.0
  0
POINT
  5
96C
330
941
100
AcDbEntity
  8
DEFPOINTS
  6
BYBLOCK
 62
     0
100
AcDbPoint
 10
363.1796991720082
 20
179.7109366284867
 30
0.0
  0
POINT
  5
96D
330
941
100
AcDbEntity
  8
DEFPOINTS
  6
BYBLOCK
 62
     0
100
AcDbPoint
 10
363.1796991720082
 20
260.3743668537624
 30
0.0
  0
ENDBLK
  5
96E
330
941
100
AcDbEntity
  8
0
100
AcDbBlockEnd
  0
BLOCK
  5
A18
330
9F5
100
AcDbEntity
  8
0
100
AcDbBlockBegin
  2
*D13
 70
     1
 10
0.0
 20
0.0
 30
0.0
  3
*D13
  1

  0
LINE
  5
A19
330
9F5
100
AcDbEntity
  8
0
  6
BYBLOCK
 62
     4
100
AcDbLine
 10
750.2166407986745
 20
353.6101074033358
 30
0.0
 11
750.2166407986745
 21
299.5114089614346
 31
0.0
  0
LINE
  5
A1A
330
9F5
100
AcDbEntity
  8
0
  6
BYBLOCK
 62
     4
100
AcDbLine
 10
614.2166422079656
 20
353.931200225218
 30
0.0
 11
614.2166422079656
 21
299.5114089614346
 31
0.0
  0
LINE
  5
A1B
330
9F5
100
AcDbEntity
  8
0
  6
BYBLOCK
 62
     4
100
AcDbLine
 10
743.2166407986746
 20
302.5114089614346
 30
0.0
 11
621.2166422079656
 21
302.5114089614346
 31
0.0
  0
INSERT
  5
A1C
330
9F5
100
AcDbEntity
  8
0
  6
BYBLOCK
 62
     4
100
AcDbBlockReference
  2
_OPEN
 10
750.2166407986745
 20
302.5114089614346
 30
0.0
 41
7.0
 42
7.0
 43
7.0
  0
INSERT
  5
A1D
330
9F5
100
AcDbEntity
  8
0
  6
BYBLOCK
 62
     4
100
AcDbBlockReference
  2
_OPEN
 10
614.2166422079656
 20
302.5114089614346
 30
0.0
 41
7.0
 42
7.0
 43
7.0
 50
180.0
  0
MTEXT
  5
A1E
330
9F5
100
AcDbEntity
  8
0
  6
BYBLOCK
 62
     4
100
AcDbMText
 10
682.21664150332
 20
307.5114089614346
 30
0.0
 40
6.0
 41
0.0
 71
     5
 72
     1
  1
\A1;穴径 φ136
1001
ACAD
1000
MTEXTBEGIN
1070
    73
1070
     1
1070
    44
1040
1.0
1070
    74
1070
     0
1000
MTEXTEND
1000
MTEXTBEGIN
1070
    73
1070
     1
1070
    44
1040
1.0
1070
    74
1070
     0
1000
MTEXTEND
1000
MTEXTBEGIN
1070
    73
1070
     1
1070
    44
1040
1.0
1070
    74
1070
     0
1000
MTEXTEND
  0
POINT
  5
A1F
330
9F5
100
AcDbEntity
  8
DEFPOINTS
  6
BYBLOCK
 62
     0
100
AcDbPoint
 10
750.2166407986745
 20
359.6101074033358
 30
0.0
  0
POINT
  5
A20
330
9F5
100
AcDbEntity
  8
DEFPOINTS
  6
BYBLOCK
 62
     0
100
AcDbPoint
 10
614.2166422079656
 20
359.931200225218
 30
0.0
  0
POINT
  5
A21
330
9F5
100
AcDbEntity
  8
DEFPOINTS
  6
BYBLOCK
 62
     0
100
AcDbPoint
 10
614.2166422079656
 20
302.5114089614346
 30
0.0
  0
ENDBLK
  5
A22
330
9F5
100
AcDbEntity
  8
0
100
AcDbBlockEnd
  0
ENDSEC
  0
SECTION
  2
ENTITIES
  0
TEXT
  5
11A
330
1A
100
AcDbEntity
  8
ZUWAKU
 62
     7
 48
10.0
100
AcDbText
 10
795.5579444309237
 20
4.974918402528146
 30
0.0
 40
8.0
  1
A1
100
AcDbText
  0
LINE
  5
11B
330
1A
100
AcDbEntity
  8
ZUWAKU
 62
     7
 48
10.0
100
AcDbLine
 10
10.05047808566086
 20
25.78258628282265
 30
0.0
 11
806.0504780856609
 21
25.78258628282253
 31
0.0
  0
LINE
  5
11C
330
1A
100
AcDbEntity
  8
ZUWAKU
  6
CONTINUOUS
 62
     7
100
AcDbLine
 10
806.0504780856609
 20
563.7825862828226
 30
0.0
 11
10.05047808566086
 21
563.7825862828226
 31
0.0
  0
LINE
  5
11D
330
1A
100
AcDbEntity
  8
ZUWAKU
  6
CONTINUOUS
 62
     7
100
AcDbLine
 10
806.0504780856609
 20
13.78258628282265
 30
0.0
 11
10.05047808566086
 21
13.78258628282265
 31
0.0
  0
LINE
  5
11E
330
1A
100
AcDbEntity
  8
ZUWAKU
  6
CONTINUOUS
 62
     7
100
AcDbLine
 10
10.05047808566086
 20
563.7825862828226
 30
0.0
 11
10.05047808566086
 21
13.78258628282265
 31
0.0
  0
LINE
  5
11F
330
1A
100
AcDbEntity
  8
ZUWAKU
 62
     7
 48
10.0
100
AcDbLine
 10
44.55797523147839
 20
13.78258628282265
 30
0.0
 11
44.5579752314784
 21
25.78258628282265
 31
0.0
  0
TEXT
  5
120
330
1A
100
AcDbEntity
  8
ZUWAKU
 62
     7
100
AcDbText
 10
16.05676551180931
 20
15.52294263804401
 30
0.0
 40
8.0
  1
品 種
100
AcDbText
  0
LINE
  5
121
330
1A
100
AcDbEntity
  8
ZUWAKU
 62
     7
 48
10.0
100
AcDbLine
 10
276.1028387068254
 20
13.78258628282265
 30
0.0
 11
276.1028387068254
 21
25.78258628282261
 31
0.0
  0
LINE
  5
122
330
1A
100
AcDbEntity
  8
ZUWAKU
 62
     7
 48
10.0
100
AcDbLine
 10
209.5138526425484
 20
13.78258628282265
 30
0.0
 11
209.5138526425485
 21
25.78258628282263
 31
0.0
  0
TEXT
  5
124
330
1A
100
AcDbEntity
  8
ZUWAKU
 62
     7
100
AcDbText
 10
215.4560837190756
 20
16.18358115302453
 30
0.0
 40
8.0
  1
品名・ｻ ｲ ｽﾞ
100
AcDbText
  0
LINE
  5
126
330
1A
100
AcDbEntity
  8
ZUWAKU
 62
     7
 48
10.0
100
AcDbLine
 10
768.7231079932794
 20
13.78258628282237
 30
0.0
 11
768.7231079932794
 21
25.78258628282254
 31
0.0
  0
LINE
  5
127
330
1A
100
AcDbEntity
  8
ZUWAKU
 62
     7
 48
10.0
100
AcDbLine
 10
733.8119002376948
 20
13.78258628282242
 30
0.0
 11
733.8119002376946
 21
25.78258628282254
 31
0.0
  0
TEXT
  5
128
330
1A
100
AcDbEntity
  8
ZUWAKU
 62
     7
100
AcDbText
 10
739.6955629973526
 20
15.24227755810852
 30
0.0
 40
8.0
  1
尺 度
100
AcDbText
  0
TEXT
  5
129
330
1A
100
AcDbEntity
  8
ZUWAKU
 62
     7
100
AcDbText
 10
779.7374630323229
 20
15.55488920081529
 30
0.0
 40
8.0
  1
1/2
100
AcDbText
  0
TEXT
  5
12B
330
1A
100
AcDbEntity
  8
ZUWAKU
 62
     7
100
AcDbText
 10
620.3363288383084
 20
15.6519090944263
 30
0.0
 40
8.0
  1
品 番
100
AcDbText
  0
LINE
  5
12C
330
1A
100
AcDbEntity
  8
ZUWAKU
 62
     7
 48
10.0
100
AcDbLine
 10
614.3351028194128
 20
13.78258628282232
 30
0.0
 11
614.3351028194128
 21
25.78258628282256
 31
0.0
  0
LINE
  5
12D
330
1A
100
AcDbEntity
  8
ZUWAKU
 62
     7
 48
10.0
100
AcDbLine
 10
648.7607587371021
 20
13.78258628282232
 30
0.0
 11
648.7607587371021
 21
25.78258628282255
 31
0.0
  0
TEXT
  5
12E
330
1A
100
AcDbEntity
  8
ZUWAKU
 62
     7
 48
10.0
100
AcDbText
 10
646.2758615931216
 20
4.949376903717848
 30
0.0
 40
8.0
  1
積水化学工業株式会社  建材
100
AcDbText
  0
LINE
  5
12F
330
1A
100
AcDbEntity
  8
ZUWAKU
  6
CONTINUOUS
 62
     7
100
AcDbLine
 10
806.0504780856609
 20
563.7825862828226
 30
0.0
 11
806.0504780856609
 21
13.78258628282265
 31
0.0
  0
TEXT
  5
413
330
1A
100
AcDbEntity
  8
ZUWAKU
 62
     7
100
AcDbText
 10
50.3519382305086
 20
16.10306189639755
 30
0.0
 40
8.0
  1
自在ドレン
100
AcDbText
  0
TEXT
  5
41F
330
1A
100
AcDbEntity
  8
ZUWAKU
 62
     7
100
AcDbText
 10
282.3131429914078
 20
15.64241700452384
 30
0.0
 40
8.0
  1
ＶＵＴ１２５－１００
100
AcDbText
  0
LINE
  5
436
330
1A
100
AcDbEntity
  8
SEIHIN
  6
CONTINUOUS
100
AcDbLine
 10
241.9186585033265
 20
225.9103366284866
 30
0.0
 11
101.9183585016123
 21
225.9111366302009
 31
0.0
  0
LINE
  5
437
330
1A
100
AcDbEntity
  8
SEIHIN
  6
CONTINUOUS
100
AcDbLine
 10
256.9186585033265
 20
231.4103366284866
 30
0.0
 11
86.91865850332659
 21
231.4111366284868
 31
0.0
  0
LINE
  5
438
330
1A
100
AcDbEntity
  8
SEIHIN
  6
CONTINUOUS
100
AcDbLine
 10
241.9184585033264
 20
185.9103366284866
 30
0.0
 11
101.9184585038265
 21
185.9109366284868
 31
0.0
  0
LINE
  5
439
330
1A
100
AcDbEntity
  8
SEIHIN
  6
CONTINUOUS
100
AcDbLine
 10
90.92185847172174
 20
229.9097366403385
 30
0.0
 11
252.9186585033265
 21
229.9103366284867
 31
0.0
  0
LINE
  5
43B
330
1A
100
AcDbEntity
  8
SEIHIN
  6
CONTINUOUS
100
AcDbLine
 10
86.91865850332659
 20
233.9105366284866
 30
0.0
 11
256.9186585033265
 21
233.9103366284866
 31
0.0
  0
LINE
  5
43D
330
1A
100
AcDbEntity
  8
SEIHIN
  6
CONTINUOUS
100
AcDbLine
 10
114.9183585018265
 20
145.9105366284867
 30
0.0
 11
228.9183585033264
 21
145.9105366284867
 31
0.0
  0
LINE
  5
442
330
1A
100
AcDbEntity
  8
SEIHIN
  6
CONTINUOUS
100
AcDbLine
 10
101.9186585033265
 20
225.9108366284867
 30
0.0
 11
101.9184585033265
 21
185.9108366284867
 31
0.0
  0
LINE
  5
443
330
1A
100
AcDbEntity
  8
CENTER_L
 48
5.0
100
AcDbLine
 10
171.9186708088881
 20
240.910436628477
 30
0.0
 11
171.9182585033265
 21
133.8387366284866
 31
0.0
  0
LINE
  5
446
330
1A
100
AcDbEntity
  8
SEIHIN
  6
CONTINUOUS
100
AcDbLine
 10
114.9183585033265
 20
145.9108366284866
 30
0.0
 11
114.9185585033265
 21
185.9108366284867
 31
0.0
  0
LINE
  5
453
330
1A
100
AcDbEntity
  8
SEIHIN
  6
CONTINUOUS
100
AcDbLine
 10
86.91865850332659
 20
231.4109366284867
 30
0.0
 11
90.9218584717218
 21
229.9097366403385
 31
0.0
  0
LINE
  5
454
330
1A
100
AcDbEntity
  8
SEIHIN
  6
CONTINUOUS
100
AcDbLine
 10
86.91865850332659
 20
231.4109366284867
 30
0.0
 11
86.91865850332659
 21
233.9109366284867
 31
0.0
  0
LINE
  5
455
330
1A
100
AcDbEntity
  8
SEIHIN
  6
CONTINUOUS
100
AcDbLine
 10
97.91865850332658
 20
229.9108366284867
 30
0.0
 11
101.9186585033265
 21
225.9108366284867
 31
0.0
  0
LINE
  5
47C
330
1A
100
AcDbEntity
  8
SEIHIN
  6
CONTINUOUS
100
AcDbLine
 10
241.9186585033265
 20
225.9103366284866
 30
0.0
 11
241.9184585033264
 21
185.9103366284866
 31
0.0
  0
LINE
  5
483
330
1A
100
AcDbEntity
  8
SEIHIN
  6
CONTINUOUS
100
AcDbLine
 10
228.9183585033264
 20
145.9103366284866
 30
0.0
 11
228.9184585033265
 21
185.9103366284866
 31
0.0
  0
LINE
  5
4A0
330
1A
100
AcDbEntity
  8
SEIHIN
  6
CONTINUOUS
100
AcDbLine
 10
256.9186585033265
 20
231.4103366284866
 30
0.0
 11
252.9186585033265
 21
229.9103366284867
 31
0.0
  0
LINE
  5
4A1
330
1A
100
AcDbEntity
  8
SEIHIN
  6
CONTINUOUS
100
AcDbLine
 10
245.9186585033265
 20
229.9103366284867
 30
0.0
 11
241.9186585033265
 21
225.9103366284866
 31
0.0
  0
LINE
  5
4A5
330
1A
100
AcDbEntity
  8
SEIHIN
  6
CONTINUOUS
100
AcDbLine
 10
256.9186585033265
 20
231.4103366284866
 30
0.0
 11
256.9186585033265
 21
233.9103366284866
 31
0.0
  0
ARC
  5
4C7
330
1A
100
AcDbEntity
  8
SEIHIN
  6
CONTINUOUS
100
AcDbCircle
 10
171.9190585199746
 20
403.9104366284867
 30
0.0
 40
84.99999998341067
100
AcDbArc
 50
0.0000674067994426
 51
359.9999325932005
  0
LINE
  5
4CC
330
1A
100
AcDbEntity
  8
CENTER_L
 48
5.0
100
AcDbLine
 10
171.9187456117313
 20
311.9104366456081
 30
0.0
 11
171.9193652380584
 21
495.9104366113863
 31
0.0
  0
LINE
  5
4D3
330
1A
100
AcDbEntity
  8
CENTER_L
 48
5.0
100
AcDbLine
 10
79.91905853706879
 20
403.9107414315871
 30
0.0
 11
263.9190585033249
 21
403.9103311198284
 31
0.0
  0
TEXT
  5
51B
330
1A
100
AcDbEntity
  8
ZUWAKU
 62
     7
100
AcDbText
 10
654.2531733678779
 20
15.90287984531518
 30
0.0
 40
8.0
  1
ＧＢ３８
100
AcDbText
  0
LINE
  5
51F
330
1A
100
AcDbEntity
  8
SEIHIN
  6
CONTINUOUS
100
AcDbLine
 10
677.9638704627347
 20
192.9657274915417
 30
0.0
 11
659.7142704627349
 21
189.7214274915417
 31
0.0
  0
LINE
  5
520
330
1A
100
AcDbEntity
  8
SEIHIN
  6
CONTINUOUS
100
AcDbLine
 10
679.1772704627346
 20
191.3152274915417
 30
0.0
 11
670.2115704627346
 21
189.7213274915417
 31
0.0
  0
LINE
  5
521
330
1A
100
AcDbEntity
  8
SEIHIN
  6
CONTINUOUS
100
AcDbLine
 10
679.1772704627346
 20
192.3163274915416
 30
0.0
 11
664.5803704627349
 21
189.7214274915417
 31
0.0
  0
LINE
  5
524
330
1A
100
AcDbEntity
  8
SEIHIN
  6
CONTINUOUS
100
AcDbLine
 10
626.0021704627349
 20
189.7215274915417
 30
0.0
 11
678.1321704627348
 21
189.7213274915417
 31
0.0
  0
LINE
  5
526
330
1A
100
AcDbEntity
  8
SEIHIN
  6
CONTINUOUS
100
AcDbLine
 10
626.0022704627346
 20
213.7214274915417
 30
0.0
 11
678.1323704627348
 21
213.7213274915417
 31
0.0
  0
LINE
  5
529
330
1A
100
AcDbEntity
  8
SEIHIN
  6
CONTINUOUS
100
AcDbLine
 10
679.1771704627349
 20
200.3160274915416
 30
0.0
 11
627.2156704627348
 21
191.0786274915417
 31
0.0
  0
LINE
  5
52A
330
1A
100
AcDbEntity
  8
SEIHIN
  6
CONTINUOUS
100
AcDbLine
 10
679.1770704627349
 20
203.3147274915417
 30
0.0
 11
627.2155704627348
 21
194.0774274915417
 31
0.0
  0
LINE
  5
52B
330
1A
100
AcDbEntity
  8
SEIHIN
  6
CONTINUOUS
100
AcDbLine
 10
677.9637704627348
 20
201.4642274915416
 30
0.0
 11
626.0021704627349
 21
192.2269274915416
 31
0.0
  0
LINE
  5
52C
330
1A
100
AcDbEntity
  8
SEIHIN
  6
CONTINUOUS
100
AcDbLine
 10
677.9638704627347
 20
197.4644274915416
 30
0.0
 11
634.408770462735
 21
189.7215274915417
 31
0.0
  0
LINE
  5
52D
330
1A
100
AcDbEntity
  8
SEIHIN
  6
CONTINUOUS
100
AcDbLine
 10
677.9636704627348
 20
204.9652274915417
 30
0.0
 11
626.0021704627349
 21
195.7279274915416
 31
0.0
  0
LINE
  5
52E
330
1A
100
AcDbEntity
  8
SEIHIN
  6
CONTINUOUS
100
AcDbLine
 10
677.9637704627348
 20
200.9654274915417
 30
0.0
 11
626.0022704627346
 21
191.7280274915416
 31
0.0
  0
LINE
  5
52F
330
1A
100
AcDbEntity
  8
SEIHIN
  6
CONTINUOUS
100
AcDbLine
 10
679.1771704627349
 20
199.3149274915417
 30
0.0
 11
627.2156704627348
 21
190.0775274915416
 31
0.0
  0
LINE
  5
530
330
1A
100
AcDbEntity
  8
SEIHIN
  6
CONTINUOUS
100
AcDbLine
 10
679.1770704627349
 20
204.3158274915417
 30
0.0
 11
627.2155704627348
 21
195.0785274915417
 31
0.0
  0
LINE
  5
531
330
1A
100
AcDbEntity
  8
SEIHIN
  6
CONTINUOUS
100
AcDbLine
 10
677.9635704627349
 20
208.9651274915416
 30
0.0
 11
626.0021704627349
 21
199.7277274915417
 31
0.0
  0
LINE
  5
532
330
1A
100
AcDbEntity
  8
SEIHIN
  6
CONTINUOUS
100
AcDbLine
 10
677.9636704627348
 20
205.4640274915417
 30
0.0
 11
626.0021704627349
 21
196.2267274915417
 31
0.0
  0
LINE
  5
533
330
1A
100
AcDbEntity
  8
SEIHIN
  6
CONTINUOUS
100
AcDbLine
 10
679.1770704627349
 20
207.3146274915416
 30
0.0
 11
627.2154704627348
 21
198.0772274915417
 31
0.0
  0
LINE
  5
534
330
1A
100
AcDbEntity
  8
SEIHIN
  6
CONTINUOUS
100
AcDbLine
 10
679.1770704627349
 20
208.3157274915416
 30
0.0
 11
627.2154704627348
 21
199.0783274915417
 31
0.0
  0
LINE
  5
535
330
1A
100
AcDbEntity
  8
SEIHIN
  6
CONTINUOUS
100
AcDbLine
 10
677.9635704627349
 20
212.9649274915416
 30
0.0
 11
626.0020704627347
 21
203.7276274915417
 31
0.0
  0
LINE
  5
536
330
1A
100
AcDbEntity
  8
SEIHIN
  6
CONTINUOUS
100
AcDbLine
 10
677.9635704627349
 20
209.4639274915417
 30
0.0
 11
626.0020704627347
 21
200.2266274915417
 31
0.0
  0
LINE
  5
537
330
1A
100
AcDbEntity
  8
SEIHIN
  6
CONTINUOUS
100
AcDbLine
 10
679.1769704627347
 20
211.3144274915417
 30
0.0
 11
627.2154704627348
 21
202.0771274915416
 31
0.0
  0
LINE
  5
538
330
1A
100
AcDbEntity
  8
SEIHIN
  6
CONTINUOUS
100
AcDbLine
 10
679.1769704627347
 20
212.3155274915416
 30
0.0
 11
627.2154704627348
 21
203.0782274915417
 31
0.0
  0
LINE
  5
539
330
1A
100
AcDbEntity
  8
SEIHIN
  6
CONTINUOUS
100
AcDbLine
 10
677.9635704627349
 20
213.4637274915416
 30
0.0
 11
626.0019704627348
 21
204.2264274915416
 31
0.0
  0
LINE
  5
53A
330
1A
100
AcDbEntity
  8
SEIHIN
  6
CONTINUOUS
100
AcDbLine
 10
677.9638704627347
 20
196.9655274915417
 30
0.0
 11
637.2147704627348
 21
189.7215274915417
 31
0.0
  0
LINE
  5
53B
330
1A
100
AcDbEntity
  8
SEIHIN
  6
CONTINUOUS
100
AcDbLine
 10
677.9638704627347
 20
193.4645274915416
 30
0.0
 11
656.9081704627349
 21
189.7214274915417
 31
0.0
  0
LINE
  5
53C
330
1A
100
AcDbEntity
  8
SEIHIN
  6
CONTINUOUS
100
AcDbLine
 10
679.1771704627349
 20
195.3150274915417
 30
0.0
 11
647.7122704627349
 21
189.7214274915417
 31
0.0
  0
LINE
  5
53D
330
1A
100
AcDbEntity
  8
SEIHIN
  6
CONTINUOUS
100
AcDbLine
 10
679.1771704627349
 20
196.3161274915417
 30
0.0
 11
642.0809704627349
 21
189.7214274915417
 31
0.0
  0
LINE
  5
540
330
1A
100
AcDbEntity
  8
SEIHIN
  6
CONTINUOUS
100
AcDbLine
 10
612.2167704627347
 20
225.7215274915417
 30
0.0
 11
612.2165704627348
 21
185.7215274915417
 31
0.0
  0
LINE
  5
541
330
1A
100
AcDbEntity
  8
SEIHIN
  6
CONTINUOUS
100
AcDbLine
 10
614.7166704627347
 20
226.7571274915416
 30
0.0
 11
614.7163704627346
 21
187.7215274915417
 31
0.0
  0
LINE
  5
542
330
1A
100
AcDbEntity
  8
SEIHIN
  6
CONTINUOUS
100
AcDbLine
 10
625.2163704627346
 20
145.7215274915416
 30
0.0
 11
625.2165704627348
 21
185.7215274915417
 31
0.0
  0
LINE
  5
543
330
1A
100
AcDbEntity
  8
SEIHIN
  6
CONTINUOUS
100
AcDbLine
 10
627.9664704627346
 20
187.7215274915417
 30
0.0
 11
627.2164704627348
 21
145.7216274915416
 31
0.0
  0
LINE
  5
544
330
1A
100
AcDbEntity
  8
SEIHIN
  6
CONTINUOUS
100
AcDbLine
 10
647.716870462735
 20
213.7214274915417
 30
0.0
 11
627.2153704627347
 21
210.0768274915417
 31
0.0
  0
LINE
  5
545
330
1A
100
AcDbEntity
  8
SEIHIN
  6
CONTINUOUS
100
AcDbLine
 10
656.9128704627348
 20
213.7214274915417
 30
0.0
 11
626.0019704627348
 21
208.2263274915417
 31
0.0
  0
LINE
  5
546
330
1A
100
AcDbEntity
  8
SEIHIN
  6
CONTINUOUS
100
AcDbLine
 10
659.7188704627349
 20
213.7214274915417
 30
0.0
 11
626.0019704627348
 21
207.7274274915417
 31
0.0
  0
LINE
  5
547
330
1A
100
AcDbEntity
  8
SEIHIN
  6
CONTINUOUS
100
AcDbLine
 10
670.2162704627347
 20
213.7213274915417
 30
0.0
 11
627.2153704627347
 21
206.0769274915417
 31
0.0
  0
LINE
  5
548
330
1A
100
AcDbEntity
  8
SEIHIN
  6
CONTINUOUS
100
AcDbLine
 10
664.5850704627348
 20
213.7213274915417
 30
0.0
 11
627.2153704627347
 21
207.0780274915416
 31
0.0
  0
LINE
  5
549
330
1A
100
AcDbEntity
  8
SEIHIN
  6
CONTINUOUS
100
AcDbLine
 10
627.2154704627348
 20
198.0772274915417
 30
0.0
 11
626.0021704627349
 21
196.2267274915417
 31
0.0
  0
LINE
  5
54A
330
1A
100
AcDbEntity
  8
SEIHIN
  6
CONTINUOUS
100
AcDbLine
 10
626.0022704627346
 20
213.7215274915417
 30
0.0
 11
626.0022704627346
 21
189.7215274915417
 31
0.0
  0
LINE
  5
54B
330
1A
100
AcDbEntity
  8
SEIHIN
  6
CONTINUOUS
100
AcDbLine
 10
612.2165704627348
 20
185.7215274915417
 30
0.0
 11
625.2164704627348
 21
185.7215274915417
 31
0.0
  0
LINE
  5
54C
330
1A
100
AcDbEntity
  8
SEIHIN
  6
CONTINUOUS
100
AcDbLine
 10
626.0022704627346
 20
191.7280274915416
 30
0.0
 11
627.2156704627348
 21
191.0786274915417
 31
0.0
  0
LINE
  5
54D
330
1A
100
AcDbEntity
  8
SEIHIN
  6
CONTINUOUS
100
AcDbLine
 10
627.2156704627348
 20
191.0786274915417
 30
0.0
 11
627.2156704627348
 21
190.0775274915416
 31
0.0
  0
LINE
  5
54E
330
1A
100
AcDbEntity
  8
SEIHIN
  6
CONTINUOUS
100
AcDbLine
 10
627.2156704627348
 20
190.0775274915416
 30
0.0
 11
626.9821704627347
 21
189.7215274915417
 31
0.0
  0
LINE
  5
54F
330
1A
100
AcDbEntity
  8
SEIHIN
  6
CONTINUOUS
100
AcDbLine
 10
626.0021704627349
 20
195.7279274915416
 30
0.0
 11
627.2155704627348
 21
195.0785274915417
 31
0.0
  0
LINE
  5
550
330
1A
100
AcDbEntity
  8
SEIHIN
  6
CONTINUOUS
100
AcDbLine
 10
627.2155704627348
 20
195.0785274915417
 30
0.0
 11
627.2155704627348
 21
194.0774274915417
 31
0.0
  0
LINE
  5
551
330
1A
100
AcDbEntity
  8
SEIHIN
  6
CONTINUOUS
100
AcDbLine
 10
627.2155704627348
 20
194.0774274915417
 30
0.0
 11
626.0021704627349
 21
192.2269274915416
 31
0.0
  0
LINE
  5
552
330
1A
100
AcDbEntity
  8
SEIHIN
  6
CONTINUOUS
100
AcDbLine
 10
626.0021704627349
 20
192.2269274915416
 30
0.0
 11
626.0021704627349
 21
191.7280274915416
 31
0.0
  0
LINE
  5
553
330
1A
100
AcDbEntity
  8
SEIHIN
  6
CONTINUOUS
100
AcDbLine
 10
626.0021704627349
 20
196.2267274915417
 30
0.0
 11
626.0021704627349
 21
195.7279274915416
 31
0.0
  0
LINE
  5
554
330
1A
100
AcDbEntity
  8
SEIHIN
  6
CONTINUOUS
100
AcDbLine
 10
637.219370462735
 20
213.7214274915417
 30
0.0
 11
626.0019704627348
 21
211.7273274915417
 31
0.0
  0
LINE
  5
555
330
1A
100
AcDbEntity
  8
SEIHIN
  6
CONTINUOUS
100
AcDbLine
 10
634.4133704627347
 20
213.7214274915417
 30
0.0
 11
626.0018704627348
 21
212.2261274915417
 31
0.0
  0
LINE
  5
556
330
1A
100
AcDbEntity
  8
SEIHIN
  6
CONTINUOUS
100
AcDbLine
 10
642.0855704627347
 20
213.7214274915417
 30
0.0
 11
627.2153704627347
 21
211.0779274915417
 31
0.0
  0
LINE
  5
557
330
1A
100
AcDbEntity
  8
SEIHIN
  6
CONTINUOUS
100
AcDbLine
 10
627.2153704627347
 20
210.0768274915417
 30
0.0
 11
626.0019704627348
 21
208.2263274915417
 31
0.0
  0
LINE
  5
558
330
1A
100
AcDbEntity
  8
SEIHIN
  6
CONTINUOUS
100
AcDbLine
 10
626.0021704627349
 20
199.7277274915417
 30
0.0
 11
627.2154704627348
 21
199.0783274915417
 31
0.0
  0
LINE
  5
559
330
1A
100
AcDbEntity
  8
SEIHIN
  6
CONTINUOUS
100
AcDbLine
 10
626.0020704627347
 20
203.7276274915417
 30
0.0
 11
627.2154704627348
 21
203.0782274915417
 31
0.0
  0
LINE
  5
55A
330
1A
100
AcDbEntity
  8
SEIHIN
  6
CONTINUOUS
100
AcDbLine
 10
627.2154704627348
 20
203.0782274915417
 30
0.0
 11
627.2154704627348
 21
202.0771274915416
 31
0.0
  0
LINE
  5
55B
330
1A
100
AcDbEntity
  8
SEIHIN
  6
CONTINUOUS
100
AcDbLine
 10
627.2154704627348
 20
202.0771274915416
 30
0.0
 11
626.0020704627347
 21
200.2266274915417
 31
0.0
  0
LINE
  5
55C
330
1A
100
AcDbEntity
  8
SEIHIN
  6
CONTINUOUS
100
AcDbLine
 10
626.0020704627347
 20
200.2266274915417
 30
0.0
 11
626.0020704627347
 21
199.7277274915417
 31
0.0
  0
LINE
  5
55D
330
1A
100
AcDbEntity
  8
SEIHIN
  6
CONTINUOUS
100
AcDbLine
 10
626.0019704627348
 20
207.7274274915417
 30
0.0
 11
627.2153704627347
 21
207.0780274915416
 31
0.0
  0
LINE
  5
55E
330
1A
100
AcDbEntity
  8
SEIHIN
  6
CONTINUOUS
100
AcDbLine
 10
627.2153704627347
 20
207.0780274915416
 30
0.0
 11
627.2153704627347
 21
206.0769274915417
 31
0.0
  0
LINE
  5
55F
330
1A
100
AcDbEntity
  8
SEIHIN
  6
CONTINUOUS
100
AcDbLine
 10
627.2153704627347
 20
206.0769274915417
 30
0.0
 11
626.0019704627348
 21
204.2264274915416
 31
0.0
  0
LINE
  5
560
330
1A
100
AcDbEntity
  8
SEIHIN
  6
CONTINUOUS
100
AcDbLine
 10
626.0019704627348
 20
204.2264274915416
 30
0.0
 11
626.0019704627348
 21
203.7276274915417
 31
0.0
  0
LINE
  5
561
330
1A
100
AcDbEntity
  8
SEIHIN
  6
CONTINUOUS
100
AcDbLine
 10
626.0019704627348
 20
208.2263274915417
 30
0.0
 11
626.0019704627348
 21
207.7274274915417
 31
0.0
  0
LINE
  5
562
330
1A
100
AcDbEntity
  8
SEIHIN
  6
CONTINUOUS
100
AcDbLine
 10
627.2154704627348
 20
199.0783274915417
 30
0.0
 11
627.2154704627348
 21
198.0772274915417
 31
0.0
  0
LINE
  5
563
330
1A
100
AcDbEntity
  8
SEIHIN
  6
CONTINUOUS
100
AcDbLine
 10
626.0019704627348
 20
211.7273274915417
 30
0.0
 11
627.2153704627347
 21
211.0779274915417
 31
0.0
  0
LINE
  5
564
330
1A
100
AcDbEntity
  8
SEIHIN
  6
CONTINUOUS
100
AcDbLine
 10
627.2153704627347
 20
211.0779274915417
 30
0.0
 11
627.2153704627347
 21
210.0768274915417
 31
0.0
  0
LINE
  5
565
330
1A
100
AcDbEntity
  8
SEIHIN
  6
CONTINUOUS
100
AcDbLine
 10
626.9823704627349
 20
213.7214274915417
 30
0.0
 11
626.0018704627348
 21
212.2261274915417
 31
0.0
  0
LINE
  5
566
330
1A
100
AcDbEntity
  8
SEIHIN
  6
CONTINUOUS
100
AcDbLine
 10
626.0018704627348
 20
212.2261274915417
 30
0.0
 11
626.0018704627348
 21
211.7273274915417
 31
0.0
  0
LINE
  5
567
330
1A
100
AcDbEntity
  8
SEIHIN
  6
CONTINUOUS
100
AcDbLine
 10
608.2166704627347
 20
229.7216274915417
 30
0.0
 11
612.2167704627347
 21
225.7215274915417
 31
0.0
  0
LINE
  5
568
330
1A
100
AcDbEntity
  8
SEIHIN
  6
CONTINUOUS
100
AcDbLine
 10
614.7166704627347
 20
226.7571274915416
 30
0.0
 11
608.7521704627349
 21
232.7216274915417
 31
0.0
  0
LINE
  5
569
330
1A
100
AcDbEntity
  8
SEIHIN
  6
CONTINUOUS
100
AcDbLine
 10
597.2167704627347
 20
231.2217274915417
 30
0.0
 11
597.2167704627347
 21
233.7217274915416
 31
0.0
  0
LINE
  5
56A
330
1A
100
AcDbEntity
  8
SEIHIN
  6
CONTINUOUS
100
AcDbLine
 10
608.2166704627347
 20
229.7215274915417
 30
0.0
 11
601.2166704627348
 21
229.7216274915417
 31
0.0
  0
LINE
  5
56B
330
1A
100
AcDbEntity
  8
SEIHIN
  6
CONTINUOUS
100
AcDbLine
 10
597.2167704627347
 20
231.2217274915417
 30
0.0
 11
601.2166704627348
 21
229.7216274915417
 31
0.0
  0
LINE
  5
56C
330
1A
100
AcDbEntity
  8
SEIHIN
  6
CONTINUOUS
100
AcDbLine
 10
601.2167704627347
 20
233.7216274915417
 30
0.0
 11
601.2166704627348
 21
232.7216274915417
 31
0.0
  0
LINE
  5
56F
330
1A
100
AcDbEntity
  8
SEIHIN
  6
CONTINUOUS
100
AcDbLine
 10
749.7166704627347
 20
226.7566274915417
 30
0.0
 11
749.7166704627347
 21
213.7210274915416
 31
0.0
  0
LINE
  5
570
330
1A
100
AcDbEntity
  8
SEIHIN
  6
CONTINUOUS
100
AcDbLine
 10
752.2166704627347
 20
225.7210274915416
 30
0.0
 11
752.2164704627348
 21
185.7210274915416
 31
0.0
  0
LINE
  5
572
330
1A
100
AcDbEntity
  8
CENTER_L
 48
5.0
100
AcDbLine
 10
682.2166704627347
 20
240.4898274915416
 30
0.0
 11
682.2163704627349
 21
133.6494274915416
 31
0.0
  0
LINE
  5
573
330
1A
100
AcDbEntity
  8
SEIHIN
  6
CONTINUOUS
100
AcDbLine
 10
749.7166704627347
 20
213.7210274915416
 30
0.0
 11
742.6833704627349
 21
212.4707274915417
 31
0.0
  0
LINE
  5
574
330
1A
100
AcDbEntity
  8
SEIHIN
  6
CONTINUOUS
100
AcDbLine
 10
749.7166704627347
 20
213.7210274915416
 30
0.0
 11
741.1679704627347
 21
213.7210274915416
 31
0.0
  0
LINE
  5
575
330
1A
100
AcDbEntity
  8
SEIHIN
  6
CONTINUOUS
100
AcDbLine
 10
749.7166704627347
 20
213.7210274915416
 30
0.0
 11
742.6833704627349
 21
212.4707274915417
 31
0.0
  0
LINE
  5
576
330
1A
100
AcDbEntity
  8
SEIHIN
  6
CONTINUOUS
100
AcDbLine
 10
747.5516704627348
 20
211.4700274915417
 30
0.0
 11
740.2566704627349
 21
210.1731274915416
 31
0.0
  0
LINE
  5
577
330
1A
100
AcDbEntity
  8
SEIHIN
  6
CONTINUOUS
100
AcDbLine
 10
747.5516704627348
 20
212.4711274915416
 30
0.0
 11
740.2566704627349
 21
211.1742274915416
 31
0.0
  0
LINE
  5
578
330
1A
100
AcDbEntity
  8
SEIHIN
  6
CONTINUOUS
100
AcDbLine
 10
746.910570462735
 20
213.7210274915416
 30
0.0
 11
742.6833704627349
 21
212.9695274915416
 31
0.0
  0
LINE
  5
579
330
1A
100
AcDbEntity
  8
SEIHIN
  6
CONTINUOUS
100
AcDbLine
 10
749.7166704627347
 20
213.7210274915416
 30
0.0
 11
742.6834704627347
 21
212.4707274915417
 31
0.0
  0
LINE
  5
57A
330
1A
100
AcDbEntity
  8
SEIHIN
  6
CONTINUOUS
100
AcDbLine
 10
747.5517704627348
 20
207.4701274915417
 30
0.0
 11
740.2567704627347
 21
206.1732274915417
 31
0.0
  0
LINE
  5
57B
330
1A
100
AcDbEntity
  8
SEIHIN
  6
CONTINUOUS
100
AcDbLine
 10
749.716770462735
 20
206.2201274915417
 30
0.0
 11
742.6834704627347
 21
204.9698274915417
 31
0.0
  0
LINE
  5
57C
330
1A
100
AcDbEntity
  8
SEIHIN
  6
CONTINUOUS
100
AcDbLine
 10
749.7166704627347
 20
209.7211274915416
 30
0.0
 11
742.6834704627347
 21
208.4708274915417
 31
0.0
  0
LINE
  5
57D
330
1A
100
AcDbEntity
  8
SEIHIN
  6
CONTINUOUS
100
AcDbLine
 10
749.7166704627347
 20
209.7211274915416
 30
0.0
 11
742.6834704627347
 21
208.4708274915417
 31
0.0
  0
LINE
  5
57E
330
1A
100
AcDbEntity
  8
SEIHIN
  6
CONTINUOUS
100
AcDbLine
 10
747.5517704627348
 20
208.4712274915416
 30
0.0
 11
740.2567704627347
 21
207.1743274915416
 31
0.0
  0
LINE
  5
57F
330
1A
100
AcDbEntity
  8
SEIHIN
  6
CONTINUOUS
100
AcDbLine
 10
749.716770462735
 20
205.7213274915417
 30
0.0
 11
742.6834704627347
 21
204.4710274915416
 31
0.0
  0
LINE
  5
580
330
1A
100
AcDbEntity
  8
SEIHIN
  6
CONTINUOUS
100
AcDbLine
 10
749.716770462735
 20
205.7213274915417
 30
0.0
 11
742.6835704627348
 21
204.4710274915416
 31
0.0
  0
LINE
  5
581
330
1A
100
AcDbEntity
  8
SEIHIN
  6
CONTINUOUS
100
AcDbLine
 10
749.716770462735
 20
202.2203274915417
 30
0.0
 11
742.6835704627348
 21
200.9700274915417
 31
0.0
  0
LINE
  5
582
330
1A
100
AcDbEntity
  8
SEIHIN
  6
CONTINUOUS
100
AcDbLine
 10
747.551870462735
 20
203.4703274915417
 30
0.0
 11
740.2567704627347
 21
202.1734274915417
 31
0.0
  0
LINE
  5
583
330
1A
100
AcDbEntity
  8
SEIHIN
  6
CONTINUOUS
100
AcDbLine
 10
747.551870462735
 20
204.4714274915416
 30
0.0
 11
740.2567704627347
 21
203.1745274915417
 31
0.0
  0
LINE
  5
584
330
1A
100
AcDbEntity
  8
SEIHIN
  6
CONTINUOUS
100
AcDbLine
 10
749.716770462735
 20
201.7214274915417
 30
0.0
 11
742.6835704627348
 21
200.4711274915416
 31
0.0
  0
LINE
  5
585
330
1A
100
AcDbEntity
  8
SEIHIN
  6
CONTINUOUS
100
AcDbLine
 10
749.716770462735
 20
201.7214274915417
 30
0.0
 11
742.6835704627348
 21
200.4711274915416
 31
0.0
  0
LINE
  5
586
330
1A
100
AcDbEntity
  8
SEIHIN
  6
CONTINUOUS
100
AcDbLine
 10
747.551870462735
 20
200.4715274915417
 30
0.0
 11
740.2568704627348
 21
199.1747274915417
 31
0.0
  0
LINE
  5
587
330
1A
100
AcDbEntity
  8
SEIHIN
  6
CONTINUOUS
100
AcDbLine
 10
749.7164704627348
 20
189.7210274915416
 30
0.0
 11
741.1701704627348
 21
189.7210274915416
 31
0.0
  0
LINE
  5
588
330
1A
100
AcDbEntity
  8
SEIHIN
  6
CONTINUOUS
100
AcDbLine
 10
749.7168704627349
 20
198.2204274915416
 30
0.0
 11
742.6835704627348
 21
196.9701274915416
 31
0.0
  0
LINE
  5
589
330
1A
100
AcDbEntity
  8
SEIHIN
  6
CONTINUOUS
100
AcDbLine
 10
749.7168704627349
 20
197.7216274915417
 30
0.0
 11
742.6835704627348
 21
196.4713274915416
 31
0.0
  0
LINE
  5
58A
330
1A
100
AcDbEntity
  8
SEIHIN
  6
CONTINUOUS
100
AcDbLine
 10
749.7168704627349
 20
197.7216274915417
 30
0.0
 11
742.6836704627349
 21
196.4713274915416
 31
0.0
  0
LINE
  5
58B
330
1A
100
AcDbEntity
  8
SEIHIN
  6
CONTINUOUS
100
AcDbLine
 10
749.7169704627347
 20
194.2206274915417
 30
0.0
 11
742.6836704627349
 21
192.9703274915417
 31
0.0
  0
LINE
  5
58C
330
1A
100
AcDbEntity
  8
SEIHIN
  6
CONTINUOUS
100
AcDbLine
 10
747.5519704627347
 20
195.4706274915417
 30
0.0
 11
740.2568704627348
 21
194.1737274915417
 31
0.0
  0
LINE
  5
58D
330
1A
100
AcDbEntity
  8
SEIHIN
  6
CONTINUOUS
100
AcDbLine
 10
747.5519704627347
 20
196.4717274915417
 30
0.0
 11
740.2568704627348
 21
195.1748274915416
 31
0.0
  0
LINE
  5
58E
330
1A
100
AcDbEntity
  8
SEIHIN
  6
CONTINUOUS
100
AcDbLine
 10
749.7169704627347
 20
193.7218274915416
 30
0.0
 11
742.6836704627349
 21
192.4714274915417
 31
0.0
  0
LINE
  5
58F
330
1A
100
AcDbEntity
  8
SEIHIN
  6
CONTINUOUS
100
AcDbLine
 10
749.7169704627347
 20
193.7218274915416
 30
0.0
 11
742.6837704627348
 21
192.4714274915417
 31
0.0
  0
LINE
  5
590
330
1A
100
AcDbEntity
  8
SEIHIN
  6
CONTINUOUS
100
AcDbLine
 10
747.5520704627347
 20
191.4707274915417
 30
0.0
 11
740.2569704627346
 21
190.1739274915416
 31
0.0
  0
LINE
  5
591
330
1A
100
AcDbEntity
  8
SEIHIN
  6
CONTINUOUS
100
AcDbLine
 10
747.5520704627347
 20
192.4718274915416
 30
0.0
 11
740.2569704627346
 21
191.1750274915416
 31
0.0
  0
LINE
  5
592
330
1A
100
AcDbEntity
  8
SEIHIN
  6
CONTINUOUS
100
AcDbLine
 10
747.551870462735
 20
199.4704274915417
 30
0.0
 11
740.2568704627348
 21
198.1736274915416
 31
0.0
  0
LINE
  5
593
330
1A
100
AcDbEntity
  8
SEIHIN
  6
CONTINUOUS
100
AcDbLine
 10
752.2164704627348
 20
185.7210274915416
 30
0.0
 11
739.2165704627347
 21
185.7210274915416
 31
0.0
  0
LINE
  5
594
330
1A
100
AcDbEntity
  8
SEIHIN
  6
CONTINUOUS
100
AcDbLine
 10
749.7164704627348
 20
187.7210274915416
 30
0.0
 11
614.7163704635032
 21
187.7216274919862
 31
0.0
  0
LINE
  5
595
330
1A
100
AcDbEntity
  8
SEIHIN
  6
CONTINUOUS
100
AcDbLine
 10
749.7166704627347
 20
210.2200274915417
 30
0.0
 11
742.6834704627347
 21
208.9697274915417
 31
0.0
  0
LINE
  5
597
330
1A
100
AcDbEntity
  8
SEIHIN
  6
CONTINUOUS
100
AcDbLine
 10
739.2163704627348
 20
145.7210274915416
 30
0.0
 11
739.2164704627348
 21
185.7210274915416
 31
0.0
  0
LINE
  5
598
330
1A
100
AcDbEntity
  8
SEIHIN
  6
CONTINUOUS
100
AcDbLine
 10
736.4665704627348
 20
187.7211274915417
 30
0.0
 11
737.2163704627348
 21
145.7212274915417
 31
0.0
  0
LINE
  5
599
330
1A
100
AcDbEntity
  8
SEIHIN
  6
CONTINUOUS
100
AcDbLine
 10
625.2163704612345
 20
145.7212274915417
 30
0.0
 11
739.2163704627348
 21
145.7212274915417
 31
0.0
  0
LINE
  5
59A
330
1A
100
AcDbEntity
  8
SEIHIN
  6
CONTINUOUS
100
AcDbLine
 10
679.1771704627349
 20
199.3149274915417
 30
0.0
 11
677.9637704627348
 21
197.4644274915416
 31
0.0
  0
LINE
  5
59B
330
1A
100
AcDbEntity
  8
SEIHIN
  6
CONTINUOUS
100
AcDbLine
 10
677.9637704627348
 20
197.4644274915416
 30
0.0
 11
677.9638704627347
 21
196.9655274915417
 31
0.0
  0
LINE
  5
59C
330
1A
100
AcDbEntity
  8
SEIHIN
  6
CONTINUOUS
100
AcDbLine
 10
677.9638704627347
 20
196.9655274915417
 30
0.0
 11
679.1771704627349
 21
196.3161274915417
 31
0.0
  0
LINE
  5
59D
330
1A
100
AcDbEntity
  8
SEIHIN
  6
CONTINUOUS
100
AcDbLine
 10
679.1771704627349
 20
196.3161274915417
 30
0.0
 11
679.1771704627349
 21
195.3150274915417
 31
0.0
  0
LINE
  5
59E
330
1A
100
AcDbEntity
  8
SEIHIN
  6
CONTINUOUS
100
AcDbLine
 10
679.1771704627349
 20
195.3150274915417
 30
0.0
 11
677.9638704627347
 21
193.4645274915416
 31
0.0
  0
LINE
  5
59F
330
1A
100
AcDbEntity
  8
SEIHIN
  6
CONTINUOUS
100
AcDbLine
 10
677.9638704627347
 20
193.4645274915416
 30
0.0
 11
677.9638704627347
 21
192.9657274915417
 31
0.0
  0
LINE
  5
5A0
330
1A
100
AcDbEntity
  8
SEIHIN
  6
CONTINUOUS
100
AcDbLine
 10
677.9637704627348
 20
197.4644274915416
 30
0.0
 11
677.9638704627347
 21
196.9655274915417
 31
0.0
  0
LINE
  5
5A1
330
1A
100
AcDbEntity
  8
SEIHIN
  6
CONTINUOUS
100
AcDbLine
 10
677.9638704627347
 20
192.9657274915417
 30
0.0
 11
679.1772704627346
 21
192.3163274915416
 31
0.0
  0
LINE
  5
5A2
330
1A
100
AcDbEntity
  8
SEIHIN
  6
CONTINUOUS
100
AcDbLine
 10
679.1772704627346
 20
192.3163274915416
 30
0.0
 11
679.1772704627346
 21
191.3152274915417
 31
0.0
  0
LINE
  5
5A3
330
1A
100
AcDbEntity
  8
SEIHIN
  6
CONTINUOUS
100
AcDbLine
 10
679.1772704627346
 20
191.3152274915417
 30
0.0
 11
678.1321704627348
 21
189.7213274915417
 31
0.0
  0
LINE
  5
5A4
330
1A
100
AcDbEntity
  8
SEIHIN
  6
CONTINUOUS
100
AcDbLine
 10
677.9638704627347
 20
193.4645274915416
 30
0.0
 11
677.9638704627347
 21
192.9657274915417
 31
0.0
  0
LINE
  5
5A5
330
1A
100
AcDbEntity
  8
SEIHIN
  6
CONTINUOUS
100
AcDbLine
 10
677.9635704627349
 20
209.4639274915417
 30
0.0
 11
677.9635704627349
 21
208.9651274915416
 31
0.0
  0
LINE
  5
5A6
330
1A
100
AcDbEntity
  8
SEIHIN
  6
CONTINUOUS
100
AcDbLine
 10
677.9636704627348
 20
201.4642274915416
 30
0.0
 11
677.9637704627348
 21
200.9654274915417
 31
0.0
  0
LINE
  5
5A7
330
1A
100
AcDbEntity
  8
SEIHIN
  6
CONTINUOUS
100
AcDbLine
 10
679.1770704627349
 20
203.3147274915417
 30
0.0
 11
677.9636704627348
 21
201.4642274915416
 31
0.0
  0
LINE
  5
5A8
330
1A
100
AcDbEntity
  8
SEIHIN
  6
CONTINUOUS
100
AcDbLine
 10
679.1771704627349
 20
200.3160274915416
 30
0.0
 11
679.1771704627349
 21
199.3149274915417
 31
0.0
  0
LINE
  5
5A9
330
1A
100
AcDbEntity
  8
SEIHIN
  6
CONTINUOUS
100
AcDbLine
 10
677.9637704627348
 20
200.9654274915417
 30
0.0
 11
679.1771704627349
 21
200.3160274915416
 31
0.0
  0
LINE
  5
5AA
330
1A
100
AcDbEntity
  8
SEIHIN
  6
CONTINUOUS
100
AcDbLine
 10
679.1770704627349
 20
204.3158274915417
 30
0.0
 11
679.1770704627349
 21
203.3147274915417
 31
0.0
  0
LINE
  5
5AB
330
1A
100
AcDbEntity
  8
SEIHIN
  6
CONTINUOUS
100
AcDbLine
 10
677.9636704627348
 20
204.9652274915417
 30
0.0
 11
679.1770704627349
 21
204.3158274915417
 31
0.0
  0
LINE
  5
5AC
330
1A
100
AcDbEntity
  8
SEIHIN
  6
CONTINUOUS
100
AcDbLine
 10
677.9635704627349
 20
208.9651274915416
 30
0.0
 11
679.1770704627349
 21
208.3157274915416
 31
0.0
  0
LINE
  5
5AD
330
1A
100
AcDbEntity
  8
SEIHIN
  6
CONTINUOUS
100
AcDbLine
 10
679.1770704627349
 20
208.3157274915416
 30
0.0
 11
679.1770704627349
 21
207.3146274915416
 31
0.0
  0
LINE
  5
5AE
330
1A
100
AcDbEntity
  8
SEIHIN
  6
CONTINUOUS
100
AcDbLine
 10
679.1770704627349
 20
207.3146274915416
 30
0.0
 11
677.9635704627349
 21
205.4640274915417
 31
0.0
  0
LINE
  5
5AF
330
1A
100
AcDbEntity
  8
SEIHIN
  6
CONTINUOUS
100
AcDbLine
 10
677.9635704627349
 20
205.4640274915417
 30
0.0
 11
677.9636704627348
 21
204.9652274915417
 31
0.0
  0
LINE
  5
5B0
330
1A
100
AcDbEntity
  8
SEIHIN
  6
CONTINUOUS
100
AcDbLine
 10
677.9635704627349
 20
212.9649274915416
 30
0.0
 11
679.1769704627347
 21
212.3155274915416
 31
0.0
  0
LINE
  5
5B1
330
1A
100
AcDbEntity
  8
SEIHIN
  6
CONTINUOUS
100
AcDbLine
 10
679.1769704627347
 20
212.3155274915416
 30
0.0
 11
679.1769704627347
 21
211.3144274915417
 31
0.0
  0
LINE
  5
5B2
330
1A
100
AcDbEntity
  8
SEIHIN
  6
CONTINUOUS
100
AcDbLine
 10
678.1323704627348
 20
213.7213274915417
 30
0.0
 11
677.9635704627349
 21
213.4637274915416
 31
0.0
  0
LINE
  5
5B3
330
1A
100
AcDbEntity
  8
SEIHIN
  6
CONTINUOUS
100
AcDbLine
 10
677.9635704627349
 20
213.4637274915416
 30
0.0
 11
677.9635704627349
 21
212.9649274915416
 31
0.0
  0
LINE
  5
5B4
330
1A
100
AcDbEntity
  8
SEIHIN
  6
CONTINUOUS
100
AcDbLine
 10
679.1769704627347
 20
211.3144274915417
 30
0.0
 11
677.9635704627349
 21
209.4639274915417
 31
0.0
  0
LINE
  5
5B5
330
1A
100
AcDbEntity
  8
SEIHIN
  6
CONTINUOUS
100
AcDbLine
 10
740.2568704627348
 20
198.1736274915416
 30
0.0
 11
742.6835704627348
 21
196.9701274915416
 31
0.0
  0
LINE
  5
5B6
330
1A
100
AcDbEntity
  8
SEIHIN
  6
CONTINUOUS
100
AcDbLine
 10
742.6835704627348
 20
196.9701274915416
 30
0.0
 11
742.6835704627348
 21
196.4713274915416
 31
0.0
  0
LINE
  5
5B7
330
1A
100
AcDbEntity
  8
SEIHIN
  6
CONTINUOUS
100
AcDbLine
 10
742.6836704627349
 20
196.4713274915416
 30
0.0
 11
740.2568704627348
 21
195.1748274915416
 31
0.0
  0
LINE
  5
5B8
330
1A
100
AcDbEntity
  8
SEIHIN
  6
CONTINUOUS
100
AcDbLine
 10
740.2568704627348
 20
194.1737274915417
 30
0.0
 11
742.6836704627349
 21
192.9703274915417
 31
0.0
  0
LINE
  5
5B9
330
1A
100
AcDbEntity
  8
SEIHIN
  6
CONTINUOUS
100
AcDbLine
 10
740.2568704627348
 20
195.1748274915416
 30
0.0
 11
740.2568704627348
 21
194.1737274915417
 31
0.0
  0
LINE
  5
5BA
330
1A
100
AcDbEntity
  8
SEIHIN
  6
CONTINUOUS
100
AcDbLine
 10
742.6836704627349
 20
192.9703274915417
 30
0.0
 11
742.6836704627349
 21
192.4714274915417
 31
0.0
  0
LINE
  5
5BB
330
1A
100
AcDbEntity
  8
SEIHIN
  6
CONTINUOUS
100
AcDbLine
 10
742.6837704627348
 20
192.4714274915417
 30
0.0
 11
740.2569704627346
 21
191.1750274915416
 31
0.0
  0
LINE
  5
5BC
330
1A
100
AcDbEntity
  8
SEIHIN
  6
CONTINUOUS
100
AcDbLine
 10
740.2569704627346
 20
190.1739274915416
 30
0.0
 11
741.1701704627348
 21
189.7210274915416
 31
0.0
  0
LINE
  5
5BD
330
1A
100
AcDbEntity
  8
SEIHIN
  6
CONTINUOUS
100
AcDbLine
 10
740.2569704627346
 20
191.1750274915416
 30
0.0
 11
740.2569704627346
 21
190.1739274915416
 31
0.0
  0
LINE
  5
5BE
330
1A
100
AcDbEntity
  8
SEIHIN
  6
CONTINUOUS
100
AcDbLine
 10
740.2566704627349
 20
210.1731274915416
 30
0.0
 11
742.6834704627347
 21
208.9697274915417
 31
0.0
  0
LINE
  5
5BF
330
1A
100
AcDbEntity
  8
SEIHIN
  6
CONTINUOUS
100
AcDbLine
 10
740.2567704627347
 20
206.1732274915417
 30
0.0
 11
742.6834704627347
 21
204.9698274915417
 31
0.0
  0
LINE
  5
5C0
330
1A
100
AcDbEntity
  8
SEIHIN
  6
CONTINUOUS
100
AcDbLine
 10
742.6834704627347
 20
208.4708274915417
 30
0.0
 11
740.2567704627347
 21
207.1743274915416
 31
0.0
  0
LINE
  5
5C1
330
1A
100
AcDbEntity
  8
SEIHIN
  6
CONTINUOUS
100
AcDbLine
 10
742.6834704627347
 20
208.9697274915417
 30
0.0
 11
742.6834704627347
 21
208.4708274915417
 31
0.0
  0
LINE
  5
5C2
330
1A
100
AcDbEntity
  8
SEIHIN
  6
CONTINUOUS
100
AcDbLine
 10
740.2567704627347
 20
207.1743274915416
 30
0.0
 11
740.2567704627347
 21
206.1732274915417
 31
0.0
  0
LINE
  5
5C3
330
1A
100
AcDbEntity
  8
SEIHIN
  6
CONTINUOUS
100
AcDbLine
 10
742.6834704627347
 20
204.9698274915417
 30
0.0
 11
742.6834704627347
 21
204.4710274915416
 31
0.0
  0
LINE
  5
5C4
330
1A
100
AcDbEntity
  8
SEIHIN
  6
CONTINUOUS
100
AcDbLine
 10
742.6835704627348
 20
204.4710274915416
 30
0.0
 11
740.2567704627347
 21
203.1745274915417
 31
0.0
  0
LINE
  5
5C5
330
1A
100
AcDbEntity
  8
SEIHIN
  6
CONTINUOUS
100
AcDbLine
 10
740.2567704627347
 20
202.1734274915417
 30
0.0
 11
742.6835704627348
 21
200.9700274915417
 31
0.0
  0
LINE
  5
5C6
330
1A
100
AcDbEntity
  8
SEIHIN
  6
CONTINUOUS
100
AcDbLine
 10
740.2567704627347
 20
203.1745274915417
 30
0.0
 11
740.2567704627347
 21
202.1734274915417
 31
0.0
  0
LINE
  5
5C7
330
1A
100
AcDbEntity
  8
SEIHIN
  6
CONTINUOUS
100
AcDbLine
 10
742.6835704627348
 20
200.9700274915417
 30
0.0
 11
742.6835704627348
 21
200.4711274915416
 31
0.0
  0
LINE
  5
5C8
330
1A
100
AcDbEntity
  8
SEIHIN
  6
CONTINUOUS
100
AcDbLine
 10
742.6835704627348
 20
200.4711274915416
 30
0.0
 11
740.2568704627348
 21
199.1747274915417
 31
0.0
  0
LINE
  5
5C9
330
1A
100
AcDbEntity
  8
SEIHIN
  6
CONTINUOUS
100
AcDbLine
 10
740.2568704627348
 20
199.1747274915417
 30
0.0
 11
740.2568704627348
 21
198.1736274915416
 31
0.0
  0
LINE
  5
5CA
330
1A
100
AcDbEntity
  8
SEIHIN
  6
CONTINUOUS
100
AcDbLine
 10
740.2566704627349
 20
211.1742274915416
 30
0.0
 11
740.2566704627349
 21
210.1731274915416
 31
0.0
  0
LINE
  5
5CB
330
1A
100
AcDbEntity
  8
SEIHIN
  6
CONTINUOUS
100
AcDbLine
 10
742.6834704627347
 20
212.4707274915417
 30
0.0
 11
740.2566704627349
 21
211.1742274915416
 31
0.0
  0
LINE
  5
5CC
330
1A
100
AcDbEntity
  8
SEIHIN
  6
CONTINUOUS
100
AcDbLine
 10
741.1679704627347
 20
213.7210274915416
 30
0.0
 11
742.6833704627349
 21
212.9695274915416
 31
0.0
  0
LINE
  5
5CD
330
1A
100
AcDbEntity
  8
SEIHIN
  6
CONTINUOUS
100
AcDbLine
 10
742.6833704627349
 20
212.9695274915416
 30
0.0
 11
742.6833704627349
 21
212.4707274915417
 31
0.0
  0
LINE
  5
5CE
330
1A
100
AcDbEntity
  8
SEIHIN
  6
CONTINUOUS
100
AcDbLine
 10
742.6834704627347
 20
212.4707274915417
 30
0.0
 11
740.2566704627349
 21
211.1742274915416
 31
0.0
  0
LINE
  5
5D6
330
1A
100
AcDbEntity
  8
SEIHIN
  6
CONTINUOUS
100
AcDbLine
 10
749.7168704627349
 20
197.7216274915417
 30
0.0
 11
747.5519704627347
 21
196.4717274915417
 31
0.0
  0
LINE
  5
5D7
330
1A
100
AcDbEntity
  8
SEIHIN
  6
CONTINUOUS
100
AcDbLine
 10
749.7169704627347
 20
194.2206274915417
 30
0.0
 11
749.7169704627347
 21
193.7218274915416
 31
0.0
  0
LINE
  5
5D8
330
1A
100
AcDbEntity
  8
SEIHIN
  6
CONTINUOUS
100
AcDbLine
 10
747.5519704627347
 20
195.4706274915417
 30
0.0
 11
749.7169704627347
 21
194.2206274915417
 31
0.0
  0
LINE
  5
5D9
330
1A
100
AcDbEntity
  8
SEIHIN
  6
CONTINUOUS
100
AcDbLine
 10
747.5519704627347
 20
196.4717274915417
 30
0.0
 11
747.5519704627347
 21
195.4706274915417
 31
0.0
  0
LINE
  5
5DA
330
1A
100
AcDbEntity
  8
SEIHIN
  6
CONTINUOUS
100
AcDbLine
 10
749.7169704627347
 20
193.7218274915416
 30
0.0
 11
747.5520704627347
 21
192.4718274915416
 31
0.0
  0
LINE
  5
5DB
330
1A
100
AcDbEntity
  8
SEIHIN
  6
CONTINUOUS
100
AcDbLine
 10
747.5520704627347
 20
191.4707274915417
 30
0.0
 11
749.7169704627347
 21
190.2207274915417
 31
0.0
  0
LINE
  5
5DC
330
1A
100
AcDbEntity
  8
SEIHIN
  6
CONTINUOUS
100
AcDbLine
 10
749.7169704627347
 20
190.2207274915417
 30
0.0
 11
746.9058704627347
 21
189.7210274915416
 31
0.0
  0
LINE
  5
5DD
330
1A
100
AcDbEntity
  8
SEIHIN
  6
CONTINUOUS
100
AcDbLine
 10
747.5520704627347
 20
192.4718274915416
 30
0.0
 11
747.5520704627347
 21
191.4707274915417
 31
0.0
  0
LINE
  5
5DE
330
1A
100
AcDbEntity
  8
SEIHIN
  6
CONTINUOUS
100
AcDbLine
 10
749.7169704627347
 20
190.2207274915417
 30
0.0
 11
749.7169704627347
 21
187.7210274915416
 31
0.0
  0
LINE
  5
5DF
330
1A
100
AcDbEntity
  8
SEIHIN
  6
CONTINUOUS
100
AcDbLine
 10
749.7166704627347
 20
209.7211274915416
 30
0.0
 11
747.5517704627348
 21
208.4712274915416
 31
0.0
  0
LINE
  5
5E0
330
1A
100
AcDbEntity
  8
SEIHIN
  6
CONTINUOUS
100
AcDbLine
 10
749.716770462735
 20
206.2201274915417
 30
0.0
 11
749.716770462735
 21
205.7213274915417
 31
0.0
  0
LINE
  5
5E1
330
1A
100
AcDbEntity
  8
SEIHIN
  6
CONTINUOUS
100
AcDbLine
 10
749.716770462735
 20
202.2203274915417
 30
0.0
 11
749.716770462735
 21
201.7214274915417
 31
0.0
  0
LINE
  5
5E2
330
1A
100
AcDbEntity
  8
SEIHIN
  6
CONTINUOUS
100
AcDbLine
 10
747.5517704627348
 20
207.4701274915417
 30
0.0
 11
749.716770462735
 21
206.2201274915417
 31
0.0
  0
LINE
  5
5E3
330
1A
100
AcDbEntity
  8
SEIHIN
  6
CONTINUOUS
100
AcDbLine
 10
747.5517704627348
 20
208.4712274915416
 30
0.0
 11
747.5517704627348
 21
207.4701274915417
 31
0.0
  0
LINE
  5
5E4
330
1A
100
AcDbEntity
  8
SEIHIN
  6
CONTINUOUS
100
AcDbLine
 10
749.716770462735
 20
205.7213274915417
 30
0.0
 11
747.551870462735
 21
204.4714274915416
 31
0.0
  0
LINE
  5
5E5
330
1A
100
AcDbEntity
  8
SEIHIN
  6
CONTINUOUS
100
AcDbLine
 10
747.551870462735
 20
203.4703274915417
 30
0.0
 11
749.716770462735
 21
202.2203274915417
 31
0.0
  0
LINE
  5
5E6
330
1A
100
AcDbEntity
  8
SEIHIN
  6
CONTINUOUS
100
AcDbLine
 10
747.551870462735
 20
204.4714274915416
 30
0.0
 11
747.551870462735
 21
203.4703274915417
 31
0.0
  0
LINE
  5
5E7
330
1A
100
AcDbEntity
  8
SEIHIN
  6
CONTINUOUS
100
AcDbLine
 10
749.716770462735
 20
201.7214274915417
 30
0.0
 11
747.551870462735
 21
200.4715274915417
 31
0.0
  0
LINE
  5
5E8
330
1A
100
AcDbEntity
  8
SEIHIN
  6
CONTINUOUS
100
AcDbLine
 10
747.551870462735
 20
200.4715274915417
 30
0.0
 11
747.551870462735
 21
199.4704274915417
 31
0.0
  0
LINE
  5
5E9
330
1A
100
AcDbEntity
  8
SEIHIN
  6
CONTINUOUS
100
AcDbLine
 10
749.7168704627349
 20
198.2204274915416
 30
0.0
 11
749.7168704627349
 21
197.7216274915417
 31
0.0
  0
LINE
  5
5EA
330
1A
100
AcDbEntity
  8
SEIHIN
  6
CONTINUOUS
100
AcDbLine
 10
747.551870462735
 20
199.4704274915417
 30
0.0
 11
749.7168704627349
 21
198.2204274915416
 31
0.0
  0
LINE
  5
5EB
330
1A
100
AcDbEntity
  8
SEIHIN
  6
CONTINUOUS
100
AcDbLine
 10
747.5516704627348
 20
211.4700274915417
 30
0.0
 11
749.7166704627347
 21
210.2200274915417
 31
0.0
  0
LINE
  5
5EC
330
1A
100
AcDbEntity
  8
SEIHIN
  6
CONTINUOUS
100
AcDbLine
 10
749.7166704627347
 20
213.7210274915416
 30
0.0
 11
747.5516704627348
 21
212.4711274915416
 31
0.0
  0
LINE
  5
5ED
330
1A
100
AcDbEntity
  8
SEIHIN
  6
CONTINUOUS
100
AcDbLine
 10
747.5516704627348
 20
212.4711274915416
 30
0.0
 11
747.5516704627348
 21
211.4700274915417
 31
0.0
  0
LINE
  5
5EE
330
1A
100
AcDbEntity
  8
SEIHIN
  6
CONTINUOUS
100
AcDbLine
 10
749.7166704627347
 20
210.2200274915417
 30
0.0
 11
749.7166704627347
 21
209.7211274915416
 31
0.0
  0
LINE
  5
5F3
330
1A
100
AcDbEntity
  8
SEIHIN
  6
CONTINUOUS
100
AcDbLine
 10
749.7166704627347
 20
226.7566274915417
 30
0.0
 11
614.7169704631791
 21
226.7568274910973
 31
0.0
  0
LINE
  5
5F4
330
1A
100
AcDbEntity
  8
SEIHIN
  6
CONTINUOUS
100
AcDbLine
 10
763.2166704627348
 20
232.7210274915417
 30
0.0
 11
601.2166704227347
 21
232.7212274915416
 31
0.0
  0
LINE
  5
5F5
330
1A
100
AcDbEntity
  8
SEIHIN
  6
CONTINUOUS
100
AcDbLine
 10
597.2167704627347
 20
233.721227491424
 30
0.0
 11
767.2166704627348
 21
233.7210274915416
 31
0.0
  0
LINE
  5
5F7
330
1A
100
AcDbEntity
  8
SEIHIN
  6
CONTINUOUS
100
AcDbLine
 10
756.2166704627347
 20
229.7210274915416
 30
0.0
 11
763.2166704627348
 21
229.7210274915416
 31
0.0
  0
LINE
  5
5F8
330
1A
100
AcDbEntity
  8
SEIHIN
  6
CONTINUOUS
100
AcDbLine
 10
749.7166704627347
 20
226.7566274915417
 30
0.0
 11
755.6812704627348
 21
232.7210274915417
 31
0.0
  0
LINE
  5
5F9
330
1A
100
AcDbEntity
  8
SEIHIN
  6
CONTINUOUS
100
AcDbLine
 10
756.2166704627347
 20
229.7210274915416
 30
0.0
 11
752.2166704627347
 21
225.7210274915416
 31
0.0
  0
LINE
  5
5FA
330
1A
100
AcDbEntity
  8
SEIHIN
  6
CONTINUOUS
100
AcDbLine
 10
767.2166704627348
 20
231.2210274915416
 30
0.0
 11
767.2166704627348
 21
233.7210274915416
 31
0.0
  0
LINE
  5
5FB
330
1A
100
AcDbEntity
  8
SEIHIN
  6
CONTINUOUS
100
AcDbLine
 10
767.2166704627348
 20
231.2210274915416
 30
0.0
 11
763.2166704627348
 21
229.7210274915416
 31
0.0
  0
LINE
  5
5FC
330
1A
100
AcDbEntity
  8
SEIHIN
  6
CONTINUOUS
100
AcDbLine
 10
763.2166704627348
 20
233.7210274915416
 30
0.0
 11
763.2166704627348
 21
232.7210274915417
 31
0.0
  0
LINE
  5
601
330
1A
100
AcDbEntity
  8
SEIHIN
  6
CONTINUOUS
100
AcDbLine
 10
682.2166704627347
 20
387.5212274915416
 30
0.0
 11
662.2167704627347
 21
387.5213274915417
 31
0.0
  0
ARC
  5
602
330
1A
100
AcDbEntity
  8
SEIHIN
  6
CONTINUOUS
100
AcDbCircle
 10
682.2162906928236
 20
298.5211198316505
 30
0.0
 40
105.1000076600449
100
AcDbArc
 50
89.99990199755989
 51
100.9700084826868
  0
ARC
  5
603
330
1A
100
AcDbEntity
  8
SEIHIN
  6
CONTINUOUS
100
AcDbCircle
 10
682.2163046474133
 20
298.5211211035277
 30
0.0
 40
104.0000063881462
100
AcDbArc
 50
89.99990864887006
 51
101.0875077125634
  0
ARC
  5
604
330
1A
100
AcDbEntity
  8
SEIHIN
  6
CONTINUOUS
100
AcDbCircle
 10
682.2160238472704
 20
298.5210930041846
 30
0.0
 40
101.5000344883396
100
AcDbArc
 50
89.99974788992624
 51
101.3640268512284
  0
LINE
  5
605
330
1A
100
AcDbEntity
  8
SEIHIN
  6
CONTINUOUS
100
AcDbLine
 10
662.216670462735
 20
381.5213274915417
 30
0.0
 11
682.2166704627347
 21
381.5212274915415
 31
0.0
  0
LINE
  5
606
330
1A
100
AcDbEntity
  8
SEIHIN
  6
CONTINUOUS
100
AcDbLine
 10
747.5520704627347
 20
341.2707274915415
 30
0.0
 11
670.2077704627347
 21
327.5213274915417
 31
0.0
  0
LINE
  5
607
330
1A
100
AcDbEntity
  8
SEIHIN
  6
CONTINUOUS
100
AcDbLine
 10
747.5520704627347
 20
342.2719274915416
 30
0.0
 11
664.5761704627347
 21
327.5213274915417
 31
0.0
  0
LINE
  5
608
330
1A
100
AcDbEntity
  8
SEIHIN
  6
CONTINUOUS
100
AcDbLine
 10
749.7169704627347
 20
343.5218274915416
 30
0.0
 11
659.7101704627348
 21
327.5213274915417
 31
0.0
  0
LINE
  5
609
330
1A
100
AcDbEntity
  8
SEIHIN
  6
CONTINUOUS
100
AcDbLine
 10
614.7165704627347
 20
327.5214274915417
 30
0.0
 11
749.7171704627346
 21
327.5211274915417
 31
0.0
  0
LINE
  5
60A
330
1A
100
AcDbEntity
  8
SEIHIN
  6
CONTINUOUS
100
AcDbLine
 10
749.7166704627347
 20
363.5211274915417
 30
0.0
 11
614.7166704627347
 21
363.5214274915417
 31
0.0
  0
LINE
  5
60B
330
1A
100
AcDbEntity
  8
SEIHIN
  6
CONTINUOUS
100
AcDbLine
 10
747.5516704627348
 20
361.2700274915416
 30
0.0
 11
616.8812704627348
 21
338.0407274915417
 31
0.0
  0
LINE
  5
60C
330
1A
100
AcDbEntity
  8
SEIHIN
  6
CONTINUOUS
100
AcDbLine
 10
747.5516704627348
 20
362.2712274915417
 30
0.0
 11
616.8812704627348
 21
339.0419274915417
 31
0.0
  0
LINE
  5
60D
330
1A
100
AcDbEntity
  8
SEIHIN
  6
CONTINUOUS
100
AcDbLine
 10
616.8811704627349
 20
325.5214274915417
 30
0.0
 11
747.5521704627348
 21
325.5211274915417
 31
0.0
  0
LINE
  5
60E
330
1A
100
AcDbEntity
  8
SEIHIN
  6
CONTINUOUS
100
AcDbLine
 10
749.7166704627347
 20
363.5211274915417
 30
0.0
 11
614.7165704627347
 21
339.5221274915416
 31
0.0
  0
LINE
  5
60F
330
1A
100
AcDbEntity
  8
SEIHIN
  6
CONTINUOUS
100
AcDbLine
 10
606.2165704627347
 20
367.5216274915415
 30
0.0
 11
682.2165704627348
 21
367.5212274915415
 31
0.0
  0
LINE
  5
610
330
1A
100
AcDbEntity
  8
SEIHIN
  6
CONTINUOUS
100
AcDbLine
 10
682.2166704627347
 20
365.5213274915417
 30
0.0
 11
602.2165704627347
 21
365.5216274915415
 31
0.0
  0
LINE
  5
611
330
1A
100
AcDbEntity
  8
SEIHIN
  6
CONTINUOUS
100
AcDbLine
 10
749.7166704627347
 20
360.0201274915416
 30
0.0
 11
614.7165704627347
 21
336.0210274915416
 31
0.0
  0
LINE
  5
612
330
1A
100
AcDbEntity
  8
SEIHIN
  6
CONTINUOUS
100
AcDbLine
 10
749.716770462735
 20
352.0204274915417
 30
0.0
 11
614.7166704627347
 21
328.0213274915417
 31
0.0
  0
LINE
  5
613
330
1A
100
AcDbEntity
  8
SEIHIN
  6
CONTINUOUS
100
AcDbLine
 10
747.551870462735
 20
353.2703274915415
 30
0.0
 11
616.8814704627347
 21
330.0410274915417
 31
0.0
  0
LINE
  5
614
330
1A
100
AcDbEntity
  8
SEIHIN
  6
CONTINUOUS
100
AcDbLine
 10
747.551870462735
 20
354.2715274915417
 30
0.0
 11
616.8814704627347
 21
331.0422274915417
 31
0.0
  0
LINE
  5
615
330
1A
100
AcDbEntity
  8
SEIHIN
  6
CONTINUOUS
100
AcDbLine
 10
749.716770462735
 20
355.5214274915416
 30
0.0
 11
614.7167704627348
 21
331.5224274915417
 31
0.0
  0
LINE
  5
616
330
1A
100
AcDbEntity
  8
SEIHIN
  6
CONTINUOUS
100
AcDbLine
 10
747.5517704627348
 20
357.2702274915417
 30
0.0
 11
616.8813704627345
 21
334.0409274915415
 31
0.0
  0
LINE
  5
617
330
1A
100
AcDbEntity
  8
SEIHIN
  6
CONTINUOUS
100
AcDbLine
 10
747.5517704627348
 20
358.2713274915417
 30
0.0
 11
616.8813704627345
 21
335.0420274915415
 31
0.0
  0
LINE
  5
618
330
1A
100
AcDbEntity
  8
SEIHIN
  6
CONTINUOUS
100
AcDbLine
 10
749.7166704627347
 20
359.5212274915415
 30
0.0
 11
614.7166704627347
 21
335.5222274915416
 31
0.0
  0
LINE
  5
619
330
1A
100
AcDbEntity
  8
SEIHIN
  6
CONTINUOUS
100
AcDbLine
 10
749.716770462735
 20
356.0202274915416
 30
0.0
 11
614.7165704627347
 21
332.0212274915415
 31
0.0
  0
LINE
  5
61A
330
1A
100
AcDbEntity
  8
SEIHIN
  6
CONTINUOUS
100
AcDbLine
 10
747.551870462735
 20
350.2716274915417
 30
0.0
 11
619.5764704627349
 21
327.5214274915417
 31
0.0
  0
LINE
  5
61B
330
1A
100
AcDbEntity
  8
SEIHIN
  6
CONTINUOUS
100
AcDbLine
 10
749.7168704627349
 20
348.0205274915415
 30
0.0
 11
634.404270462735
 21
327.5214274915417
 31
0.0
  0
LINE
  5
61C
330
1A
100
AcDbEntity
  8
SEIHIN
  6
CONTINUOUS
100
AcDbLine
 10
747.5519704627347
 20
345.2706274915417
 30
0.0
 11
647.7078704627349
 21
327.5213274915417
 31
0.0
  0
LINE
  5
61D
330
1A
100
AcDbEntity
  8
SEIHIN
  6
CONTINUOUS
100
AcDbLine
 10
747.5519704627347
 20
346.2718274915417
 30
0.0
 11
642.0763704627347
 21
327.5213274915417
 31
0.0
  0
LINE
  5
61E
330
1A
100
AcDbEntity
  8
SEIHIN
  6
CONTINUOUS
100
AcDbLine
 10
749.7168704627349
 20
347.5217274915417
 30
0.0
 11
637.210270462735
 21
327.5213274915417
 31
0.0
  0
LINE
  5
61F
330
1A
100
AcDbEntity
  8
SEIHIN
  6
CONTINUOUS
100
AcDbLine
 10
749.7169704627347
 20
344.0207274915417
 30
0.0
 11
656.9041704627347
 21
327.5213274915417
 31
0.0
  0
LINE
  5
620
330
1A
100
AcDbEntity
  8
SEIHIN
  6
CONTINUOUS
100
AcDbLine
 10
747.551870462735
 20
349.2705274915417
 30
0.0
 11
625.2079704627346
 21
327.5214274915417
 31
0.0
  0
LINE
  5
621
330
1A
100
AcDbEntity
  8
SEIHIN
  6
CONTINUOUS
100
AcDbLine
 10
749.716770462735
 20
351.5215274915417
 30
0.0
 11
614.7167704627348
 21
327.5225274915416
 31
0.0
  0
LINE
  5
622
330
1A
100
AcDbEntity
  8
SEIHIN
  6
CONTINUOUS
100
AcDbLine
 10
727.2170704627346
 20
363.5212274915415
 30
0.0
 11
614.7166704627347
 21
343.5219274915415
 31
0.0
  0
LINE
  5
623
330
1A
100
AcDbEntity
  8
SEIHIN
  6
CONTINUOUS
100
AcDbLine
 10
732.0830704627346
 20
363.5211274915417
 30
0.0
 11
616.8813704627345
 21
343.0417274915417
 31
0.0
  0
LINE
  5
624
330
1A
100
AcDbEntity
  8
SEIHIN
  6
CONTINUOUS
100
AcDbLine
 10
737.7146704627348
 20
363.5211274915417
 30
0.0
 11
616.8813704627345
 21
342.0406274915416
 31
0.0
  0
LINE
  5
625
330
1A
100
AcDbEntity
  8
SEIHIN
  6
CONTINUOUS
100
AcDbLine
 10
746.9108704627346
 20
363.5211274915417
 30
0.0
 11
614.7165704627347
 21
340.0209274915416
 31
0.0
  0
LINE
  5
626
330
1A
100
AcDbEntity
  8
SEIHIN
  6
CONTINUOUS
100
AcDbLine
 10
704.7172704627349
 20
363.5212274915415
 30
0.0
 11
614.7167704627348
 21
347.5218274915416
 31
0.0
  0
LINE
  5
627
330
1A
100
AcDbEntity
  8
SEIHIN
  6
CONTINUOUS
100
AcDbLine
 10
709.5833704627348
 20
363.5212274915415
 30
0.0
 11
616.8814704627347
 21
347.0415274915417
 31
0.0
  0
LINE
  5
628
330
1A
100
AcDbEntity
  8
SEIHIN
  6
CONTINUOUS
100
AcDbLine
 10
715.2148704627347
 20
363.5212274915415
 30
0.0
 11
616.8814704627347
 21
346.0404274915417
 31
0.0
  0
LINE
  5
629
330
1A
100
AcDbEntity
  8
SEIHIN
  6
CONTINUOUS
100
AcDbLine
 10
724.4111704627348
 20
363.5212274915415
 30
0.0
 11
614.7166704627347
 21
344.0207274915417
 31
0.0
  0
LINE
  5
62A
330
1A
100
AcDbEntity
  8
SEIHIN
  6
CONTINUOUS
100
AcDbLine
 10
682.2175704627348
 20
363.5213274915417
 30
0.0
 11
614.7167704627348
 21
351.5216274915417
 31
0.0
  0
LINE
  5
62B
330
1A
100
AcDbEntity
  8
SEIHIN
  6
CONTINUOUS
100
AcDbLine
 10
687.0836704627349
 20
363.5213274915417
 30
0.0
 11
616.8814704627347
 21
351.0414274915417
 31
0.0
  0
LINE
  5
62C
330
1A
100
AcDbEntity
  8
SEIHIN
  6
CONTINUOUS
100
AcDbLine
 10
692.7151704627346
 20
363.5212274915415
 30
0.0
 11
616.8814704627347
 21
350.0403274915417
 31
0.0
  0
LINE
  5
62D
330
1A
100
AcDbEntity
  8
SEIHIN
  6
CONTINUOUS
100
AcDbLine
 10
701.9113704627348
 20
363.5212274915415
 30
0.0
 11
614.7167704627348
 21
348.0206274915417
 31
0.0
  0
LINE
  5
62E
330
1A
100
AcDbEntity
  8
SEIHIN
  6
CONTINUOUS
100
AcDbLine
 10
679.4116704627349
 20
363.5213274915417
 30
0.0
 11
614.7167704627348
 21
352.0204274915417
 31
0.0
  0
LINE
  5
631
330
1A
100
AcDbEntity
  8
SEIHIN
  6
CONTINUOUS
100
AcDbLine
 10
606.2165704627347
 20
367.5216274915415
 30
0.0
 11
602.2165704627347
 21
366.5216274915417
 31
0.0
  0
LINE
  5
632
330
1A
100
AcDbEntity
  8
SEIHIN
  6
CONTINUOUS
100
AcDbLine
 10
602.2165704627347
 20
366.5216274915417
 30
0.0
 11
602.2165704627347
 21
365.5216274915415
 31
0.0
  0
LINE
  5
633
330
1A
100
AcDbEntity
  8
SEIHIN
  6
CONTINUOUS
100
AcDbLine
 10
616.8816704627347
 20
362.0398274915417
 30
0.0
 11
614.7168704627349
 21
360.0201274915416
 31
0.0
  0
LINE
  5
634
330
1A
100
AcDbEntity
  8
SEIHIN
  6
CONTINUOUS
100
AcDbLine
 10
637.2180704627346
 20
363.5213274915417
 30
0.0
 11
614.7168704627349
 21
359.5213274915417
 31
0.0
  0
LINE
  5
635
330
1A
100
AcDbEntity
  8
SEIHIN
  6
CONTINUOUS
100
AcDbLine
 10
642.0841704627348
 20
363.5213274915417
 30
0.0
 11
616.8815704627347
 21
359.0411274915418
 31
0.0
  0
LINE
  5
636
330
1A
100
AcDbEntity
  8
SEIHIN
  6
CONTINUOUS
100
AcDbLine
 10
647.7156704627348
 20
363.5213274915417
 30
0.0
 11
616.8815704627347
 21
358.0400274915415
 31
0.0
  0
LINE
  5
637
330
1A
100
AcDbEntity
  8
SEIHIN
  6
CONTINUOUS
100
AcDbLine
 10
656.9118704627348
 20
363.5213274915417
 30
0.0
 11
614.7168704627349
 21
356.0203274915416
 31
0.0
  0
LINE
  5
638
330
1A
100
AcDbEntity
  8
SEIHIN
  6
CONTINUOUS
100
AcDbLine
 10
634.4121704627347
 20
363.5214274915417
 30
0.0
 11
614.7168704627349
 21
360.0201274915416
 31
0.0
  0
LINE
  5
639
330
1A
100
AcDbEntity
  8
SEIHIN
  6
CONTINUOUS
100
AcDbLine
 10
659.7178704627347
 20
363.5213274915417
 30
0.0
 11
614.7168704627349
 21
355.5215274915417
 31
0.0
  0
LINE
  5
63A
330
1A
100
AcDbEntity
  8
SEIHIN
  6
CONTINUOUS
100
AcDbLine
 10
664.5838704627347
 20
363.5213274915417
 30
0.0
 11
616.8815704627347
 21
355.0412274915417
 31
0.0
  0
LINE
  5
63B
330
1A
100
AcDbEntity
  8
SEIHIN
  6
CONTINUOUS
100
AcDbLine
 10
670.2153704627349
 20
363.5213274915417
 30
0.0
 11
616.8815704627347
 21
354.0401274915416
 31
0.0
  0
LINE
  5
63C
330
1A
100
AcDbEntity
  8
SEIHIN
  6
CONTINUOUS
100
AcDbLine
 10
616.8812704627348
 20
338.0407274915417
 30
0.0
 11
614.7165704627347
 21
336.0210274915416
 31
0.0
  0
LINE
  5
63D
330
1A
100
AcDbEntity
  8
SEIHIN
  6
CONTINUOUS
100
AcDbLine
 10
614.7165704627347
 20
336.0210274915416
 30
0.0
 11
614.7165704627347
 21
335.5222274915416
 31
0.0
  0
LINE
  5
63E
330
1A
100
AcDbEntity
  8
SEIHIN
  6
CONTINUOUS
100
AcDbLine
 10
616.8812704627348
 20
334.0409274915415
 30
0.0
 11
614.7164704627348
 21
332.0212274915415
 31
0.0
  0
LINE
  5
63F
330
1A
100
AcDbEntity
  8
SEIHIN
  6
CONTINUOUS
100
AcDbLine
 10
616.8812704627348
 20
335.0420274915415
 30
0.0
 11
616.8812704627348
 21
334.0409274915415
 31
0.0
  0
LINE
  5
640
330
1A
100
AcDbEntity
  8
SEIHIN
  6
CONTINUOUS
100
AcDbLine
 10
614.7165704627347
 20
335.5222274915416
 30
0.0
 11
616.8812704627348
 21
335.0420274915415
 31
0.0
  0
LINE
  5
641
330
1A
100
AcDbEntity
  8
SEIHIN
  6
CONTINUOUS
100
AcDbLine
 10
614.7165704627347
 20
332.0212274915415
 30
0.0
 11
614.7165704627347
 21
331.5224274915417
 31
0.0
  0
LINE
  5
642
330
1A
100
AcDbEntity
  8
SEIHIN
  6
CONTINUOUS
100
AcDbLine
 10
616.8811704627349
 20
331.0422274915417
 30
0.0
 11
616.8811704627349
 21
330.0410274915417
 31
0.0
  0
LINE
  5
643
330
1A
100
AcDbEntity
  8
SEIHIN
  6
CONTINUOUS
100
AcDbLine
 10
616.8811704627349
 20
330.0410274915417
 30
0.0
 11
614.7164704627348
 21
328.0213274915417
 31
0.0
  0
LINE
  5
644
330
1A
100
AcDbEntity
  8
SEIHIN
  6
CONTINUOUS
100
AcDbLine
 10
614.7164704627348
 20
328.0213274915417
 30
0.0
 11
614.7164704627348
 21
327.5225274915416
 31
0.0
  0
LINE
  5
645
330
1A
100
AcDbEntity
  8
SEIHIN
  6
CONTINUOUS
100
AcDbLine
 10
616.8811704627349
 20
327.5214274915417
 30
0.0
 11
616.8811704627349
 21
325.5214274915417
 31
0.0
  0
LINE
  5
646
330
1A
100
AcDbEntity
  8
SEIHIN
  6
CONTINUOUS
100
AcDbLine
 10
614.7164704627348
 20
331.5224274915417
 30
0.0
 11
616.8811704627349
 21
331.0422274915417
 31
0.0
  0
LINE
  5
647
330
1A
100
AcDbEntity
  8
SEIHIN
  6
CONTINUOUS
100
AcDbLine
 10
616.8814704627347
 20
350.0403274915417
 30
0.0
 11
614.7167704627348
 21
348.0206274915417
 31
0.0
  0
LINE
  5
648
330
1A
100
AcDbEntity
  8
SEIHIN
  6
CONTINUOUS
100
AcDbLine
 10
614.7166704627347
 20
343.5219274915415
 30
0.0
 11
616.8813704627345
 21
343.0417274915417
 31
0.0
  0
LINE
  5
649
330
1A
100
AcDbEntity
  8
SEIHIN
  6
CONTINUOUS
100
AcDbLine
 10
616.8814704627347
 20
346.0404274915417
 30
0.0
 11
614.7166704627347
 21
344.0207274915417
 31
0.0
  0
LINE
  5
64A
330
1A
100
AcDbEntity
  8
SEIHIN
  6
CONTINUOUS
100
AcDbLine
 10
614.7167704627348
 20
344.0207274915417
 30
0.0
 11
614.7167704627348
 21
343.5219274915415
 31
0.0
  0
LINE
  5
64B
330
1A
100
AcDbEntity
  8
SEIHIN
  6
CONTINUOUS
100
AcDbLine
 10
614.7167704627348
 20
347.5218274915416
 30
0.0
 11
616.8814704627347
 21
347.0415274915417
 31
0.0
  0
LINE
  5
64C
330
1A
100
AcDbEntity
  8
SEIHIN
  6
CONTINUOUS
100
AcDbLine
 10
616.8814704627347
 20
347.0415274915417
 30
0.0
 11
616.8814704627347
 21
346.0404274915417
 31
0.0
  0
LINE
  5
64D
330
1A
100
AcDbEntity
  8
SEIHIN
  6
CONTINUOUS
100
AcDbLine
 10
614.7167704627348
 20
348.0206274915417
 30
0.0
 11
614.7167704627348
 21
347.5218274915416
 31
0.0
  0
LINE
  5
64E
330
1A
100
AcDbEntity
  8
SEIHIN
  6
CONTINUOUS
100
AcDbLine
 10
616.8812704627348
 20
339.0419274915417
 30
0.0
 11
616.8812704627348
 21
338.0407274915417
 31
0.0
  0
LINE
  5
64F
330
1A
100
AcDbEntity
  8
SEIHIN
  6
CONTINUOUS
100
AcDbLine
 10
614.7165704627347
 20
339.5221274915416
 30
0.0
 11
616.8812704627348
 21
339.0419274915417
 31
0.0
  0
LINE
  5
650
330
1A
100
AcDbEntity
  8
SEIHIN
  6
CONTINUOUS
100
AcDbLine
 10
616.8813704627345
 20
342.0406274915416
 30
0.0
 11
614.7165704627347
 21
340.0209274915416
 31
0.0
  0
LINE
  5
651
330
1A
100
AcDbEntity
  8
SEIHIN
  6
CONTINUOUS
100
AcDbLine
 10
614.7166704627347
 20
340.0209274915416
 30
0.0
 11
614.7166704627347
 21
339.5221274915416
 31
0.0
  0
LINE
  5
652
330
1A
100
AcDbEntity
  8
SEIHIN
  6
CONTINUOUS
100
AcDbLine
 10
616.8813704627345
 20
343.0417274915417
 30
0.0
 11
616.8813704627345
 21
342.0406274915416
 31
0.0
  0
LINE
  5
653
330
1A
100
AcDbEntity
  8
SEIHIN
  6
CONTINUOUS
100
AcDbLine
 10
614.7168704627349
 20
355.5215274915417
 30
0.0
 11
616.8815704627347
 21
355.0412274915417
 31
0.0
  0
LINE
  5
654
330
1A
100
AcDbEntity
  8
SEIHIN
  6
CONTINUOUS
100
AcDbLine
 10
616.8815704627347
 20
355.0412274915417
 30
0.0
 11
616.8815704627347
 21
354.0401274915416
 31
0.0
  0
LINE
  5
655
330
1A
100
AcDbEntity
  8
SEIHIN
  6
CONTINUOUS
100
AcDbLine
 10
616.8815704627347
 20
358.0400274915415
 30
0.0
 11
614.7168704627349
 21
356.0202274915416
 31
0.0
  0
LINE
  5
656
330
1A
100
AcDbEntity
  8
SEIHIN
  6
CONTINUOUS
100
AcDbLine
 10
614.7168704627349
 20
356.0203274915416
 30
0.0
 11
614.7168704627349
 21
355.5215274915417
 31
0.0
  0
LINE
  5
657
330
1A
100
AcDbEntity
  8
SEIHIN
  6
CONTINUOUS
100
AcDbLine
 10
614.7168704627349
 20
359.5213274915417
 30
0.0
 11
616.8815704627347
 21
359.0411274915418
 31
0.0
  0
LINE
  5
658
330
1A
100
AcDbEntity
  8
SEIHIN
  6
CONTINUOUS
100
AcDbLine
 10
616.8815704627347
 20
359.0411274915418
 30
0.0
 11
616.8815704627347
 21
358.0400274915415
 31
0.0
  0
LINE
  5
659
330
1A
100
AcDbEntity
  8
SEIHIN
  6
CONTINUOUS
100
AcDbLine
 10
614.7169704627349
 20
360.0201274915416
 30
0.0
 11
614.7169704627349
 21
359.5213274915417
 31
0.0
  0
LINE
  5
65A
330
1A
100
AcDbEntity
  8
SEIHIN
  6
CONTINUOUS
100
AcDbLine
 10
614.7167704627348
 20
351.5216274915417
 30
0.0
 11
616.8814704627347
 21
351.0414274915417
 31
0.0
  0
LINE
  5
65B
330
1A
100
AcDbEntity
  8
SEIHIN
  6
CONTINUOUS
100
AcDbLine
 10
616.8814704627347
 20
351.0414274915417
 30
0.0
 11
616.8814704627347
 21
350.0403274915417
 31
0.0
  0
LINE
  5
65C
330
1A
100
AcDbEntity
  8
SEIHIN
  6
CONTINUOUS
100
AcDbLine
 10
614.7168704627349
 20
352.0204274915417
 30
0.0
 11
614.7168704627349
 21
351.5216274915417
 31
0.0
  0
LINE
  5
65D
330
1A
100
AcDbEntity
  8
SEIHIN
  6
CONTINUOUS
100
AcDbLine
 10
616.8815704627347
 20
354.0401274915416
 30
0.0
 11
614.7167704627348
 21
352.0204274915417
 31
0.0
  0
LINE
  5
65E
330
1A
100
AcDbEntity
  8
SEIHIN
  6
CONTINUOUS
100
AcDbLine
 10
657.2167704627347
 20
387.5213274915417
 30
0.0
 11
628.4117704627346
 21
387.5215274915417
 31
0.0
  0
LINE
  5
65F
330
1A
100
AcDbEntity
  8
SEIHIN
  6
CONTINUOUS
100
AcDbLine
 10
628.5011704627347
 20
381.5215274915417
 30
0.0
 11
657.216670462735
 21
381.5213274915417
 31
0.0
  0
ARC
  5
660
330
1A
100
AcDbEntity
  8
SEIHIN
  6
CONTINUOUS
100
AcDbCircle
 10
682.2161799352807
 20
298.5210524510854
 30
0.0
 40
101.5000362884207
100
AcDbArc
 50
104.258935109427
 51
118.7354703362374
  0
ARC
  5
661
330
1A
100
AcDbEntity
  8
SEIHIN
  6
CONTINUOUS
100
AcDbCircle
 10
682.2161272744438
 20
298.5210245294703
 30
0.0
 40
105.0999952471989
100
AcDbArc
 50
103.7606473126371
 51
122.1331280150261
  0
ARC
  5
662
330
1A
100
AcDbEntity
  8
SEIHIN
  6
CONTINUOUS
100
AcDbCircle
 10
682.2163980705636
 20
298.5211389452583
 30
0.0
 40
104.0000361449023
100
AcDbArc
 50
103.9093092717553
 51
121.1551183898905
  0
LINE
  5
663
330
1A
100
AcDbEntity
  8
SEIHIN
  6
CONTINUOUS
100
AcDbLine
 10
620.4667704627347
 20
385.9052274915417
 30
0.0
 11
620.4667704627347
 21
381.5215274915417
 31
0.0
  0
LINE
  5
664
330
1A
100
AcDbEntity
  8
SEIHIN
  6
CONTINUOUS
100
AcDbLine
 10
626.0011704627348
 20
381.5216274915417
 30
0.0
 11
626.0010704627347
 21
367.5216274915415
 31
0.0
  0
LINE
  5
665
330
1A
100
AcDbEntity
  8
SEIHIN
  6
CONTINUOUS
100
AcDbLine
 10
628.5010704627348
 20
367.5215274915417
 30
0.0
 11
628.5012704627349
 21
381.5214274915415
 31
0.0
  0
LINE
  5
666
330
1A
100
AcDbEntity
  8
SEIHIN
  6
CONTINUOUS
100
AcDbLine
 10
625.2158704627348
 20
363.5214274915417
 30
0.0
 11
616.8816704627347
 21
362.0398274915417
 31
0.0
  0
LINE
  5
667
330
1A
100
AcDbEntity
  8
SEIHIN
  6
CONTINUOUS
100
AcDbLine
 10
616.8816704627347
 20
363.0409274915415
 30
0.0
 11
616.8816704627347
 21
362.0398274915417
 31
0.0
  0
LINE
  5
668
330
1A
100
AcDbEntity
  8
SEIHIN
  6
CONTINUOUS
100
AcDbLine
 10
614.7169704627349
 20
363.5212274915415
 30
0.0
 11
616.8816704627347
 21
363.0409274915415
 31
0.0
  0
LINE
  5
669
330
1A
100
AcDbEntity
  8
SEIHIN
  6
CONTINUOUS
100
AcDbLine
 10
619.5843704627348
 20
363.5214274915417
 30
0.0
 11
616.8816704627347
 21
363.0409274915415
 31
0.0
  0
LINE
  5
66A
330
1A
100
AcDbEntity
  8
SEIHIN
  6
CONTINUOUS
100
AcDbLine
 10
616.8816704627347
 20
365.5213274915417
 30
0.0
 11
616.8816704627347
 21
363.5211274915417
 31
0.0
  0
LINE
  5
66B
330
1A
100
AcDbEntity
  8
SEIHIN
  6
CONTINUOUS
100
AcDbLine
 10
620.4667704627347
 20
381.5215274915417
 30
0.0
 11
626.0011704627348
 21
381.5215274915417
 31
0.0
  0
LINE
  5
66C
330
1A
100
AcDbEntity
  8
SEIHIN
  6
CONTINUOUS
100
AcDbLine
 10
631.1214704627348
 20
381.5214274915415
 30
0.0
 11
631.1212704627348
 21
367.5214274915417
 31
0.0
  0
LINE
  5
66D
330
1A
100
AcDbEntity
  8
SEIHIN
  6
CONTINUOUS
100
AcDbLine
 10
626.3150704627346
 20
387.5215274915417
 30
0.0
 11
622.8199704627347
 21
387.5215274915417
 31
0.0
  0
ARC
  5
66E
330
1A
100
AcDbEntity
  8
SEIHIN
  6
CONTINUOUS
100
AcDbCircle
 10
682.217262257842
 20
298.5217400094778
 30
0.0
 40
107.000030103757
100
AcDbArc
 50
123.7189386888234
 51
125.2476651317441
  0
LINE
  5
66F
330
1A
100
AcDbEntity
  8
SEIHIN
  6
CONTINUOUS
100
AcDbLine
 10
657.216670462735
 20
381.5213274915417
 30
0.0
 11
657.2165704627348
 21
367.5213274915417
 31
0.0
  0
LINE
  5
670
330
1A
100
AcDbEntity
  8
SEIHIN
  6
CONTINUOUS
100
AcDbLine
 10
662.216670462735
 20
381.5213274915417
 30
0.0
 11
662.2165704627348
 21
367.5213274915417
 31
0.0
  0
ARC
  5
671
330
1A
100
AcDbEntity
  8
SEIHIN
  6
CONTINUOUS
100
AcDbCircle
 10
682.2169039884033
 20
298.5212422820816
 30
0.0
 40
107.0000807180853
100
AcDbArc
 50
100.7731904740023
 51
103.5120938668598
  0
LINE
  5
672
330
1A
100
AcDbEntity
  8
SEIHIN
  6
CONTINUOUS
100
AcDbLine
 10
657.2167704627347
 20
399.4717274915417
 30
0.0
 11
657.2167704627347
 21
387.5213274915417
 31
0.0
  0
LINE
  5
673
330
1A
100
AcDbEntity
  8
SEIHIN
  6
CONTINUOUS
100
AcDbLine
 10
657.2168704627349
 20
402.5597274915416
 30
0.0
 11
657.2167704627347
 21
400.6047274915417
 31
0.0
  0
LINE
  5
674
330
1A
100
AcDbEntity
  8
SEIHIN
  6
CONTINUOUS
100
AcDbLine
 10
662.2167704627347
 20
400.5801274915417
 30
0.0
 11
662.2167704627347
 21
387.5213274915417
 31
0.0
  0
LINE
  5
675
330
1A
100
AcDbEntity
  8
SEIHIN
  6
CONTINUOUS
100
AcDbLine
 10
662.2168704627349
 20
403.6355274915417
 30
0.0
 11
662.2167704627347
 21
401.7008274915416
 31
0.0
  0
LINE
  5
679
330
1A
100
AcDbEntity
  8
CENTER_L
 48
5.0
100
AcDbLine
 10
682.2168704627349
 20
411.8882274915417
 30
0.0
 11
682.2164704627348
 21
320.8370274915417
 31
0.0
  0
LINE
  5
67A
330
1A
100
AcDbEntity
  8
SEIHIN
  6
CONTINUOUS
100
AcDbLine
 10
743.9666704627348
 20
381.5211274915417
 30
0.0
 11
738.4321704627348
 21
381.5211274915417
 31
0.0
  0
LINE
  5
67B
330
1A
100
AcDbEntity
  8
SEIHIN
  6
CONTINUOUS
100
AcDbLine
 10
747.5521704627348
 20
329.2713274915417
 30
0.0
 11
737.7072704627348
 21
327.5211274915417
 31
0.0
  0
LINE
  5
67C
330
1A
100
AcDbEntity
  8
SEIHIN
  6
CONTINUOUS
100
AcDbLine
 10
749.7171704627346
 20
331.5223274915417
 30
0.0
 11
727.2097704627348
 21
327.5212274915415
 31
0.0
  0
LINE
  5
67D
330
1A
100
AcDbEntity
  8
SEIHIN
  6
CONTINUOUS
100
AcDbLine
 10
747.5521704627348
 20
330.2724274915417
 30
0.0
 11
732.0758704627349
 21
327.5211274915417
 31
0.0
  0
LINE
  5
67E
330
1A
100
AcDbEntity
  8
SEIHIN
  6
CONTINUOUS
100
AcDbLine
 10
749.7171704627346
 20
332.0211274915417
 30
0.0
 11
724.4036704627347
 21
327.5212274915415
 31
0.0
  0
LINE
  5
67F
330
1A
100
AcDbEntity
  8
SEIHIN
  6
CONTINUOUS
100
AcDbLine
 10
682.2166704627347
 20
365.5213274915417
 30
0.0
 11
762.2166704627347
 21
365.5211274915417
 31
0.0
  0
LINE
  5
680
330
1A
100
AcDbEntity
  8
SEIHIN
  6
CONTINUOUS
100
AcDbLine
 10
758.2166704627347
 20
367.5211274915417
 30
0.0
 11
682.2166704627347
 21
367.5212274915415
 31
0.0
  0
LINE
  5
681
330
1A
100
AcDbEntity
  8
SEIHIN
  6
CONTINUOUS
100
AcDbLine
 10
747.5520704627347
 20
337.2709274915417
 30
0.0
 11
692.7075704627347
 21
327.5212274915415
 31
0.0
  0
LINE
  5
682
330
1A
100
AcDbEntity
  8
SEIHIN
  6
CONTINUOUS
100
AcDbLine
 10
747.5520704627347
 20
338.2721274915415
 30
0.0
 11
687.0760704627348
 21
327.5213274915417
 31
0.0
  0
LINE
  5
683
330
1A
100
AcDbEntity
  8
SEIHIN
  6
CONTINUOUS
100
AcDbLine
 10
749.7170704627349
 20
336.0210274915416
 30
0.0
 11
701.9038704627348
 21
327.5212274915415
 31
0.0
  0
LINE
  5
684
330
1A
100
AcDbEntity
  8
SEIHIN
  6
CONTINUOUS
100
AcDbLine
 10
749.7169704627347
 20
340.0208274915417
 30
0.0
 11
679.4039704627348
 21
327.5213274915417
 31
0.0
  0
LINE
  5
685
330
1A
100
AcDbEntity
  8
SEIHIN
  6
CONTINUOUS
100
AcDbLine
 10
749.7170704627349
 20
335.5221274915415
 30
0.0
 11
704.7099704627348
 21
327.5212274915415
 31
0.0
  0
LINE
  5
686
330
1A
100
AcDbEntity
  8
SEIHIN
  6
CONTINUOUS
100
AcDbLine
 10
749.7169704627347
 20
339.5220274915417
 30
0.0
 11
682.2163704627349
 21
327.5224274915417
 31
0.0
  0
LINE
  5
687
330
1A
100
AcDbEntity
  8
SEIHIN
  6
CONTINUOUS
100
AcDbLine
 10
747.5521704627348
 20
333.2711274915417
 30
0.0
 11
715.2074704627348
 21
327.5212274915415
 31
0.0
  0
LINE
  5
688
330
1A
100
AcDbEntity
  8
SEIHIN
  6
CONTINUOUS
100
AcDbLine
 10
747.5521704627348
 20
334.2722274915417
 30
0.0
 11
709.5759704627348
 21
327.5212274915415
 31
0.0
  0
ARC
  5
689
330
1A
100
AcDbEntity
  8
SEIHIN
  6
CONTINUOUS
100
AcDbCircle
 10
682.2156612296667
 20
298.5216146212631
 30
0.0
 40
107.0000609010801
100
AcDbArc
 50
54.75233508826467
 51
56.28106109115312
  0
LINE
  5
68A
330
1A
100
AcDbEntity
  8
SEIHIN
  6
CONTINUOUS
100
AcDbLine
 10
707.2165704627348
 20
387.5212274915416
 30
0.0
 11
736.0216704627346
 21
387.5211274915417
 31
0.0
  0
ARC
  5
68B
330
1A
100
AcDbEntity
  8
SEIHIN
  6
CONTINUOUS
100
AcDbCircle
 10
682.2165488809676
 20
298.5210534703543
 30
0.0
 40
104.0000205971401
100
AcDbArc
 50
58.84488031118372
 51
76.09069202717044
  0
ARC
  5
68C
330
1A
100
AcDbEntity
  8
SEIHIN
  6
CONTINUOUS
100
AcDbCircle
 10
682.2166298464358
 20
298.521017672184
 30
0.0
 40
105.1000456287503
100
AcDbArc
 50
57.86683528536161
 51
76.23925625065327
  0
ARC
  5
68D
330
1A
100
AcDbEntity
  8
SEIHIN
  6
CONTINUOUS
100
AcDbCircle
 10
682.2162328556796
 20
298.521181689218
 30
0.0
 40
101.5000411151205
100
AcDbArc
 50
61.26425553648646
 51
75.74075797953937
  0
LINE
  5
68E
330
1A
100
AcDbEntity
  8
SEIHIN
  6
CONTINUOUS
100
AcDbLine
 10
735.9321704627348
 20
381.5211274915417
 30
0.0
 11
707.2165704627348
 21
381.5212274915415
 31
0.0
  0
LINE
  5
68F
330
1A
100
AcDbEntity
  8
SEIHIN
  6
CONTINUOUS
100
AcDbLine
 10
702.2165704627347
 20
381.5212274915415
 30
0.0
 11
682.2165704627348
 21
381.5212274915415
 31
0.0
  0
LINE
  5
690
330
1A
100
AcDbEntity
  8
SEIHIN
  6
CONTINUOUS
100
AcDbLine
 10
707.2165704627348
 20
381.5212274915415
 30
0.0
 11
707.2166704627347
 21
367.5212274915415
 31
0.0
  0
LINE
  5
691
330
1A
100
AcDbEntity
  8
SEIHIN
  6
CONTINUOUS
100
AcDbLine
 10
702.2165704627347
 20
381.5212274915415
 30
0.0
 11
702.2166704627347
 21
367.5212274915415
 31
0.0
  0
LINE
  5
692
330
1A
100
AcDbEntity
  8
SEIHIN
  6
CONTINUOUS
100
AcDbLine
 10
682.2165704627348
 20
387.5212274915416
 30
0.0
 11
702.2165704627347
 21
387.5212274915416
 31
0.0
  0
ARC
  5
693
330
1A
100
AcDbEntity
  8
SEIHIN
  6
CONTINUOUS
100
AcDbCircle
 10
682.2165493196155
 20
298.521110316589
 30
0.0
 40
105.1000171749822
100
AcDbArc
 50
79.02999201576093
 51
90.00004298920753
  0
ARC
  5
694
330
1A
100
AcDbEntity
  8
SEIHIN
  6
CONTINUOUS
100
AcDbCircle
 10
682.2165353453424
 20
298.5211114878525
 30
0.0
 40
104.0000160037094
100
AcDbArc
 50
78.91249280192344
 51
90.00003574518268
  0
ARC
  5
695
330
1A
100
AcDbEntity
  8
SEIHIN
  6
CONTINUOUS
100
AcDbCircle
 10
682.2163234298359
 20
298.5211321712471
 30
0.0
 40
101.4999953203055
100
AcDbArc
 50
78.63568447277329
 51
89.99997345037703
  0
LINE
  5
696
330
1A
100
AcDbEntity
  8
SEIHIN
  6
CONTINUOUS
100
AcDbLine
 10
707.2166704627347
 20
399.4716274915417
 30
0.0
 11
707.2165704627348
 21
387.5212274915416
 31
0.0
  0
LINE
  5
697
330
1A
100
AcDbEntity
  8
SEIHIN
  6
CONTINUOUS
100
AcDbLine
 10
702.2166704627347
 20
400.5799274915417
 30
0.0
 11
702.2165704627347
 21
387.5212274915416
 31
0.0
  0
ARC
  5
698
330
1A
100
AcDbEntity
  8
SEIHIN
  6
CONTINUOUS
100
AcDbCircle
 10
682.2159530767544
 20
298.5212172945667
 30
0.0
 40
107.0000040108512
100
AcDbArc
 50
76.48790515120784
 51
79.22681050793196
  0
LINE
  5
699
330
1A
100
AcDbEntity
  8
SEIHIN
  6
CONTINUOUS
100
AcDbLine
 10
702.2166704627347
 20
403.6354274915417
 30
0.0
 11
702.2166704627347
 21
401.7006274915417
 31
0.0
  0
LINE
  5
69A
330
1A
100
AcDbEntity
  8
SEIHIN
  6
CONTINUOUS
100
AcDbLine
 10
707.2166704627347
 20
402.5596274915417
 30
0.0
 11
707.2166704627347
 21
400.6045274915416
 31
0.0
  0
LINE
  5
69B
330
1A
100
AcDbEntity
  8
SEIHIN
  6
CONTINUOUS
100
AcDbLine
 10
735.9321704627348
 20
367.5212274915415
 30
0.0
 11
735.9320704627348
 21
381.5211274915417
 31
0.0
  0
LINE
  5
69C
330
1A
100
AcDbEntity
  8
SEIHIN
  6
CONTINUOUS
100
AcDbLine
 10
738.4321704627348
 20
381.5211274915417
 30
0.0
 11
738.4321704627348
 21
367.5212274915415
 31
0.0
  0
LINE
  5
69D
330
1A
100
AcDbEntity
  8
SEIHIN
  6
CONTINUOUS
100
AcDbLine
 10
733.311870462735
 20
381.5211274915417
 30
0.0
 11
733.311970462735
 21
367.5211274915417
 31
0.0
  0
LINE
  5
69E
330
1A
100
AcDbEntity
  8
SEIHIN
  6
CONTINUOUS
100
AcDbLine
 10
738.1182704627349
 20
387.5211274915417
 30
0.0
 11
741.6134704627349
 21
387.5211274915417
 31
0.0
  0
LINE
  5
69F
330
1A
100
AcDbEntity
  8
SEIHIN
  6
CONTINUOUS
100
AcDbLine
 10
747.5516704627348
 20
361.2700274915416
 30
0.0
 11
749.7166704627347
 21
360.0201274915416
 31
0.0
  0
LINE
  5
6A3
330
1A
100
AcDbEntity
  8
SEIHIN
  6
CONTINUOUS
100
AcDbLine
 10
747.5520704627347
 20
337.2709274915417
 30
0.0
 11
749.7170704627349
 21
336.0210274915416
 31
0.0
  0
LINE
  5
6A4
330
1A
100
AcDbEntity
  8
SEIHIN
  6
CONTINUOUS
100
AcDbLine
 10
747.5521704627348
 20
333.2711274915417
 30
0.0
 11
749.7171704627346
 21
332.0211274915417
 31
0.0
  0
LINE
  5
6A5
330
1A
100
AcDbEntity
  8
SEIHIN
  6
CONTINUOUS
100
AcDbLine
 10
749.7170704627349
 20
335.5221274915415
 30
0.0
 11
747.5521704627348
 21
334.2722274915417
 31
0.0
  0
LINE
  5
6A6
330
1A
100
AcDbEntity
  8
SEIHIN
  6
CONTINUOUS
100
AcDbLine
 10
749.7170704627349
 20
336.0210274915416
 30
0.0
 11
749.7170704627349
 21
335.5221274915415
 31
0.0
  0
LINE
  5
6A7
330
1A
100
AcDbEntity
  8
SEIHIN
  6
CONTINUOUS
100
AcDbLine
 10
747.5521704627348
 20
334.2722274915417
 30
0.0
 11
747.5521704627348
 21
333.2711274915417
 31
0.0
  0
LINE
  5
6A8
330
1A
100
AcDbEntity
  8
SEIHIN
  6
CONTINUOUS
100
AcDbLine
 10
749.7171704627346
 20
332.0211274915417
 30
0.0
 11
749.7171704627346
 21
331.5223274915417
 31
0.0
  0
LINE
  5
6A9
330
1A
100
AcDbEntity
  8
SEIHIN
  6
CONTINUOUS
100
AcDbLine
 10
747.5521704627348
 20
329.2713274915417
 30
0.0
 11
749.7171704627346
 21
328.0213274915417
 31
0.0
  0
LINE
  5
6AA
330
1A
100
AcDbEntity
  8
SEIHIN
  6
CONTINUOUS
100
AcDbLine
 10
749.7171704627346
 20
328.0213274915417
 30
0.0
 11
746.9035704627349
 21
327.5211274915417
 31
0.0
  0
LINE
  5
6AB
330
1A
100
AcDbEntity
  8
SEIHIN
  6
CONTINUOUS
100
AcDbLine
 10
749.7171704627346
 20
328.0213274915417
 30
0.0
 11
749.7171704627346
 21
327.5224274915417
 31
0.0
  0
LINE
  5
6AC
330
1A
100
AcDbEntity
  8
SEIHIN
  6
CONTINUOUS
100
AcDbLine
 10
747.5521704627348
 20
330.2724274915417
 30
0.0
 11
747.5521704627348
 21
329.2713274915417
 31
0.0
  0
LINE
  5
6AD
330
1A
100
AcDbEntity
  8
SEIHIN
  6
CONTINUOUS
100
AcDbLine
 10
747.5521704627348
 20
327.5214274915417
 30
0.0
 11
747.5521704627348
 21
325.5214274915417
 31
0.0
  0
LINE
  5
6AE
330
1A
100
AcDbEntity
  8
SEIHIN
  6
CONTINUOUS
100
AcDbLine
 10
749.7171704627346
 20
331.5223274915417
 30
0.0
 11
747.5521704627348
 21
330.2724274915417
 31
0.0
  0
LINE
  5
6AF
330
1A
100
AcDbEntity
  8
SEIHIN
  6
CONTINUOUS
100
AcDbLine
 10
747.551870462735
 20
349.2705274915417
 30
0.0
 11
749.7168704627349
 21
348.0205274915415
 31
0.0
  0
LINE
  5
6B0
330
1A
100
AcDbEntity
  8
SEIHIN
  6
CONTINUOUS
100
AcDbLine
 10
749.7169704627347
 20
343.5218274915416
 30
0.0
 11
747.5520704627347
 21
342.2719274915416
 31
0.0
  0
LINE
  5
6B1
330
1A
100
AcDbEntity
  8
SEIHIN
  6
CONTINUOUS
100
AcDbLine
 10
749.7169704627347
 20
344.0207274915417
 30
0.0
 11
749.7169704627347
 21
343.5218274915416
 31
0.0
  0
LINE
  5
6B2
330
1A
100
AcDbEntity
  8
SEIHIN
  6
CONTINUOUS
100
AcDbLine
 10
747.5519704627347
 20
346.2717274915417
 30
0.0
 11
747.5519704627347
 21
345.2706274915417
 31
0.0
  0
LINE
  5
6B3
330
1A
100
AcDbEntity
  8
SEIHIN
  6
CONTINUOUS
100
AcDbLine
 10
747.5519704627347
 20
345.2706274915417
 30
0.0
 11
749.7169704627347
 21
344.0207274915417
 31
0.0
  0
LINE
  5
6B4
330
1A
100
AcDbEntity
  8
SEIHIN
  6
CONTINUOUS
100
AcDbLine
 10
749.7168704627349
 20
347.5217274915417
 30
0.0
 11
747.5519704627347
 21
346.2718274915417
 31
0.0
  0
LINE
  5
6B5
330
1A
100
AcDbEntity
  8
SEIHIN
  6
CONTINUOUS
100
AcDbLine
 10
749.7168704627349
 20
348.0205274915415
 30
0.0
 11
749.7168704627349
 21
347.5217274915417
 31
0.0
  0
LINE
  5
6B6
330
1A
100
AcDbEntity
  8
SEIHIN
  6
CONTINUOUS
100
AcDbLine
 10
747.5520704627347
 20
341.2707274915415
 30
0.0
 11
749.7169704627347
 21
340.0208274915417
 31
0.0
  0
LINE
  5
6B7
330
1A
100
AcDbEntity
  8
SEIHIN
  6
CONTINUOUS
100
AcDbLine
 10
747.5520704627347
 20
338.2720274915417
 30
0.0
 11
747.5520704627347
 21
337.2709274915417
 31
0.0
  0
LINE
  5
6B8
330
1A
100
AcDbEntity
  8
SEIHIN
  6
CONTINUOUS
100
AcDbLine
 10
749.7169704627347
 20
339.5220274915417
 30
0.0
 11
747.5520704627347
 21
338.2721274915415
 31
0.0
  0
LINE
  5
6B9
330
1A
100
AcDbEntity
  8
SEIHIN
  6
CONTINUOUS
100
AcDbLine
 10
749.7169704627347
 20
340.0208274915417
 30
0.0
 11
749.7169704627347
 21
339.5220274915417
 31
0.0
  0
LINE
  5
6BA
330
1A
100
AcDbEntity
  8
SEIHIN
  6
CONTINUOUS
100
AcDbLine
 10
747.5520704627347
 20
342.2719274915416
 30
0.0
 11
747.5520704627347
 21
341.2707274915415
 31
0.0
  0
LINE
  5
6BB
330
1A
100
AcDbEntity
  8
SEIHIN
  6
CONTINUOUS
100
AcDbLine
 10
747.5517704627348
 20
357.2702274915417
 30
0.0
 11
749.716770462735
 21
356.0202274915416
 31
0.0
  0
LINE
  5
6BC
330
1A
100
AcDbEntity
  8
SEIHIN
  6
CONTINUOUS
100
AcDbLine
 10
747.5517704627348
 20
358.2713274915417
 30
0.0
 11
747.5517704627348
 21
357.2702274915417
 31
0.0
  0
LINE
  5
6BD
330
1A
100
AcDbEntity
  8
SEIHIN
  6
CONTINUOUS
100
AcDbLine
 10
749.716770462735
 20
356.0202274915416
 30
0.0
 11
749.716770462735
 21
355.5214274915416
 31
0.0
  0
LINE
  5
6BE
330
1A
100
AcDbEntity
  8
SEIHIN
  6
CONTINUOUS
100
AcDbLine
 10
749.7166704627347
 20
359.5212274915415
 30
0.0
 11
747.5517704627348
 21
358.2713274915417
 31
0.0
  0
LINE
  5
6BF
330
1A
100
AcDbEntity
  8
SEIHIN
  6
CONTINUOUS
100
AcDbLine
 10
747.551870462735
 20
354.2714274915415
 30
0.0
 11
747.551870462735
 21
353.2703274915415
 31
0.0
  0
LINE
  5
6C0
330
1A
100
AcDbEntity
  8
SEIHIN
  6
CONTINUOUS
100
AcDbLine
 10
749.716770462735
 20
355.5214274915416
 30
0.0
 11
747.551870462735
 21
354.2715274915417
 31
0.0
  0
LINE
  5
6C1
330
1A
100
AcDbEntity
  8
SEIHIN
  6
CONTINUOUS
100
AcDbLine
 10
749.7166704627347
 20
360.0201274915416
 30
0.0
 11
749.7166704627347
 21
359.5212274915415
 31
0.0
  0
LINE
  5
6C2
330
1A
100
AcDbEntity
  8
SEIHIN
  6
CONTINUOUS
100
AcDbLine
 10
749.716770462735
 20
352.0204274915417
 30
0.0
 11
749.716770462735
 21
351.5215274915417
 31
0.0
  0
LINE
  5
6C3
330
1A
100
AcDbEntity
  8
SEIHIN
  6
CONTINUOUS
100
AcDbLine
 10
749.716770462735
 20
351.5215274915417
 30
0.0
 11
747.551870462735
 21
350.2716274915417
 31
0.0
  0
LINE
  5
6C4
330
1A
100
AcDbEntity
  8
SEIHIN
  6
CONTINUOUS
100
AcDbLine
 10
747.551870462735
 20
350.2716274915417
 30
0.0
 11
747.551870462735
 21
349.2705274915417
 31
0.0
  0
LINE
  5
6C5
330
1A
100
AcDbEntity
  8
SEIHIN
  6
CONTINUOUS
100
AcDbLine
 10
747.551870462735
 20
353.2703274915415
 30
0.0
 11
749.716770462735
 21
352.0204274915417
 31
0.0
  0
LINE
  5
6C9
330
1A
100
AcDbEntity
  8
SEIHIN
  6
CONTINUOUS
100
AcDbLine
 10
743.9666704627348
 20
385.9049274915417
 30
0.0
 11
743.9666704627348
 21
381.5211274915417
 31
0.0
  0
LINE
  5
6CA
330
1A
100
AcDbEntity
  8
SEIHIN
  6
CONTINUOUS
100
AcDbLine
 10
758.2166704627347
 20
367.5211274915417
 30
0.0
 11
762.2166704627347
 21
366.5211274915417
 31
0.0
  0
LINE
  5
6CB
330
1A
100
AcDbEntity
  8
SEIHIN
  6
CONTINUOUS
100
AcDbLine
 10
749.7166704627347
 20
363.5211274915417
 30
0.0
 11
747.5516704627348
 21
362.2712274915417
 31
0.0
  0
LINE
  5
6CC
330
1A
100
AcDbEntity
  8
SEIHIN
  6
CONTINUOUS
100
AcDbLine
 10
747.5516704627348
 20
362.2712274915417
 30
0.0
 11
747.5516704627348
 21
361.2700274915416
 31
0.0
  0
LINE
  5
6CD
330
1A
100
AcDbEntity
  8
SEIHIN
  6
CONTINUOUS
100
AcDbLine
 10
747.5516704627348
 20
365.5213274915417
 30
0.0
 11
747.5516704627348
 21
363.5211274915417
 31
0.0
  0
LINE
  5
6CE
330
1A
100
AcDbEntity
  8
SEIHIN
  6
CONTINUOUS
100
AcDbLine
 10
762.2166704627347
 20
366.5211274915417
 30
0.0
 11
762.2166704627347
 21
365.5211274915417
 31
0.0
  0
LINE
  5
6D4
330
1A
100
AcDbEntity
  8
CENTER_L
 48
5.0
100
AcDbLine
 10
420.8389398707967
 20
229.6528366284867
 30
0.0
 11
420.8385627203976
 21
131.710586628489
 31
0.0
  0
LINE
  5
6D5
330
1A
100
AcDbEntity
  8
SEIHIN
  6
CONTINUOUS
100
AcDbLine
 10
474.5541398707966
 20
194.7104366284867
 30
0.0
 11
445.8386398707967
 21
194.7105366284867
 31
0.0
  0
LINE
  5
6D6
330
1A
100
AcDbEntity
  8
SEIHIN
  6
CONTINUOUS
100
AcDbLine
 10
445.8386398707967
 20
200.7105366284866
 30
0.0
 11
474.6436398707967
 21
200.7104366284867
 31
0.0
  0
ARC
  5
6D7
330
1A
100
AcDbEntity
  8
SEIHIN
  6
CONTINUOUS
100
AcDbCircle
 10
420.8386182890295
 20
111.710362607299
 30
0.0
 40
104.0000205971404
100
AcDbArc
 50
58.84488031118376
 51
76.09069202717048
  0
ARC
  5
6D8
330
1A
100
AcDbEntity
  8
SEIHIN
  6
CONTINUOUS
100
AcDbCircle
 10
420.8383932088465
 20
111.7104550066556
 30
0.0
 40
101.5000287996385
100
AcDbArc
 50
61.26431027276887
 51
75.74086742573898
  0
ARC
  5
6D9
330
1A
100
AcDbEntity
  8
SEIHIN
  6
CONTINUOUS
100
AcDbCircle
 10
420.8384550228704
 20
111.7104302133103
 30
0.0
 40
105.100003287751
100
AcDbArc
 50
57.86666355763911
 51
76.23911351923137
  0
LINE
  5
6DE
330
1A
100
AcDbEntity
  8
SEIHIN
  6
CONTINUOUS
100
AcDbLine
 10
420.8386398707967
 20
178.7106366284867
 30
0.0
 11
500.8387398707966
 21
178.7103366284866
 31
0.0
  0
LINE
  5
6E0
330
1A
100
AcDbEntity
  8
SEIHIN
  6
CONTINUOUS
100
AcDbLine
 10
496.8387398707966
 20
180.7104366284867
 30
0.0
 11
420.8387398707968
 21
180.7105366284867
 31
0.0
  0
LINE
  5
6EA
330
1A
100
AcDbEntity
  8
SEIHIN
  6
CONTINUOUS
100
AcDbLine
 10
344.8386398707967
 20
180.7109366284866
 30
0.0
 11
420.8386398707967
 21
180.7105366284867
 31
0.0
  0
LINE
  5
6EB
330
1A
100
AcDbEntity
  8
SEIHIN
  6
CONTINUOUS
100
AcDbLine
 10
395.8388398707966
 20
200.7106366284867
 30
0.0
 11
367.0338398707967
 21
200.7108366284866
 31
0.0
  0
LINE
  5
6EC
330
1A
100
AcDbEntity
  8
SEIHIN
  6
CONTINUOUS
100
AcDbLine
 10
367.1232398707966
 20
194.7108366284866
 30
0.0
 11
395.8387398707967
 21
194.7106366284867
 31
0.0
  0
LINE
  5
6ED
330
1A
100
AcDbEntity
  8
SEIHIN
  6
CONTINUOUS
100
AcDbLine
 10
420.8386398707967
 20
178.7106366284867
 30
0.0
 11
340.8386398707967
 21
178.7109366284866
 31
0.0
  0
ARC
  5
6EE
330
1A
100
AcDbEntity
  8
SEIHIN
  6
CONTINUOUS
100
AcDbCircle
 10
420.8382493433424
 20
111.7103615880308
 30
0.0
 40
101.5000362884203
100
AcDbArc
 50
104.258935109427
 51
118.7354703362374
  0
ARC
  5
6EF
330
1A
100
AcDbEntity
  8
SEIHIN
  6
CONTINUOUS
100
AcDbCircle
 10
420.8385454208364
 20
111.7104813167452
 30
0.0
 40
105.1000557052539
100
AcDbArc
 50
103.7608911019627
 51
122.1333318211667
  0
ARC
  5
6F0
330
1A
100
AcDbEntity
  8
SEIHIN
  6
CONTINUOUS
100
AcDbCircle
 10
420.838308117223
 20
111.7103819675431
 30
0.0
 40
104.0000620128395
100
AcDbArc
 50
103.9092152948659
 51
121.1550715591223
  0
LINE
  5
6F5
330
1A
100
AcDbEntity
  8
SEIHIN
  6
CONTINUOUS
100
AcDbLine
 10
344.8386398707967
 20
180.7109366284866
 30
0.0
 11
340.8386398707967
 21
179.7109366284867
 31
0.0
  0
LINE
  5
6F6
330
1A
100
AcDbEntity
  8
SEIHIN
  6
CONTINUOUS
100
AcDbLine
 10
340.8386398707967
 20
179.7109366284867
 30
0.0
 11
340.8386398707967
 21
178.7109366284866
 31
0.0
  0
ARC
  5
6F7
330
1A
100
AcDbEntity
  8
SEIHIN
  6
CONTINUOUS
100
AcDbCircle
 10
420.8393316659031
 20
111.7110491464267
 30
0.0
 40
107.0000301037534
100
AcDbArc
 50
123.7189386888243
 51
125.2476651317451
  0
LINE
  5
6F8
330
1A
100
AcDbEntity
  8
SEIHIN
  6
CONTINUOUS
100
AcDbLine
 10
364.6232398707966
 20
194.7108366284866
 30
0.0
 11
364.6231398707966
 21
180.7109366284866
 31
0.0
  0
LINE
  5
6F9
330
1A
100
AcDbEntity
  8
SEIHIN
  6
CONTINUOUS
100
AcDbLine
 10
369.7435398707967
 20
194.7108366284866
 30
0.0
 11
369.7433398707965
 21
180.7108366284866
 31
0.0
  0
LINE
  5
6FA
330
1A
100
AcDbEntity
  8
SEIHIN
  6
CONTINUOUS
100
AcDbLine
 10
367.1231398707967
 20
180.7108366284866
 30
0.0
 11
367.1233398707967
 21
194.7108366284866
 31
0.0
  0
LINE
  5
6FB
330
1A
100
AcDbEntity
  8
SEIHIN
  6
CONTINUOUS
100
AcDbLine
 10
359.0888398707966
 20
199.0945366284867
 30
0.0
 11
359.0888398707966
 21
194.7108366284866
 31
0.0
  0
LINE
  5
6FC
330
1A
100
AcDbEntity
  8
SEIHIN
  6
CONTINUOUS
100
AcDbLine
 10
359.0888398707966
 20
194.7108366284866
 30
0.0
 11
364.6232398707966
 21
194.7108366284866
 31
0.0
  0
LINE
  5
6FD
330
1A
100
AcDbEntity
  8
SEIHIN
  6
CONTINUOUS
100
AcDbLine
 10
364.9371398707967
 20
200.7108366284866
 30
0.0
 11
361.4420398707967
 21
200.7108366284866
 31
0.0
  0
ARC
  5
6FE
330
1A
100
AcDbEntity
  8
SEIHIN
  6
CONTINUOUS
100
AcDbCircle
 10
420.838604753404
 20
111.7104206247965
 30
0.0
 40
104.0000160037104
100
AcDbArc
 50
78.9124928019234
 51
90.00003574518268
  0
ARC
  5
6FF
330
1A
100
AcDbEntity
  8
SEIHIN
  6
CONTINUOUS
100
AcDbCircle
 10
420.8383928378972
 20
111.7104413081914
 30
0.0
 40
101.4999953203062
100
AcDbArc
 50
78.63568447277294
 51
89.9999734503767
  0
ARC
  5
700
330
1A
100
AcDbEntity
  8
SEIHIN
  6
CONTINUOUS
100
AcDbCircle
 10
420.8386187276776
 20
111.710419453533
 30
0.0
 40
105.1000171749832
100
AcDbArc
 50
79.02999201576108
 51
90.00004298920769
  0
LINE
  5
701
330
1A
100
AcDbEntity
  8
SEIHIN
  6
CONTINUOUS
100
AcDbLine
 10
440.8386398707967
 20
194.7105366284867
 30
0.0
 11
420.8386398707967
 21
194.7105366284867
 31
0.0
  0
LINE
  5
702
330
1A
100
AcDbEntity
  8
SEIHIN
  6
CONTINUOUS
100
AcDbLine
 10
420.8386398707967
 20
200.7105366284866
 30
0.0
 11
440.8386398707967
 21
200.7105366284866
 31
0.0
  0
LINE
  5
703
330
1A
100
AcDbEntity
  8
SEIHIN
  6
CONTINUOUS
100
AcDbLine
 10
400.8387398707967
 20
194.7106366284867
 30
0.0
 11
420.8387398707968
 21
194.7105366284867
 31
0.0
  0
LINE
  5
704
330
1A
100
AcDbEntity
  8
SEIHIN
  6
CONTINUOUS
100
AcDbLine
 10
395.8387398707967
 20
194.7106366284867
 30
0.0
 11
395.8386398707966
 21
180.7106366284867
 31
0.0
  0
LINE
  5
705
330
1A
100
AcDbEntity
  8
SEIHIN
  6
CONTINUOUS
100
AcDbLine
 10
400.8387398707967
 20
194.7106366284867
 30
0.0
 11
400.8386398707967
 21
180.7106366284867
 31
0.0
  0
LINE
  5
706
330
1A
100
AcDbEntity
  8
SEIHIN
  6
CONTINUOUS
100
AcDbLine
 10
420.8387398707968
 20
200.7105366284866
 30
0.0
 11
400.8388398707966
 21
200.7106366284867
 31
0.0
  0
ARC
  5
707
330
1A
100
AcDbEntity
  8
SEIHIN
  6
CONTINUOUS
100
AcDbCircle
 10
420.8383601008852
 20
111.7104289685968
 30
0.0
 40
105.1000076600435
100
AcDbArc
 50
89.99990199755988
 51
100.9700084826868
  0
ARC
  5
708
330
1A
100
AcDbEntity
  8
SEIHIN
  6
CONTINUOUS
100
AcDbCircle
 10
420.8383740554754
 20
111.7104302404738
 30
0.0
 40
104.0000063881451
100
AcDbArc
 50
89.99990864887021
 51
101.0875077125636
  0
ARC
  5
709
330
1A
100
AcDbEntity
  8
SEIHIN
  6
CONTINUOUS
100
AcDbCircle
 10
420.8380932553323
 20
111.7104021411311
 30
0.0
 40
101.5000344883381
100
AcDbArc
 50
89.99974788992636
 51
101.3640268512285
  0
LINE
  5
70A
330
1A
100
AcDbEntity
  8
SEIHIN
  6
CONTINUOUS
100
AcDbLine
 10
400.8388398707966
 20
213.7694366284866
 30
0.0
 11
400.8388398707966
 21
200.7106366284867
 31
0.0
  0
LINE
  5
70B
330
1A
100
AcDbEntity
  8
SEIHIN
  6
CONTINUOUS
100
AcDbLine
 10
395.8388398707966
 20
212.6610366284867
 30
0.0
 11
395.8388398707966
 21
200.7106366284867
 31
0.0
  0
ARC
  5
70C
330
1A
100
AcDbEntity
  8
SEIHIN
  6
CONTINUOUS
100
AcDbCircle
 10
420.836964119934
 20
111.7101191136696
 30
0.0
 40
107.0000316085513
100
AcDbArc
 50
100.7721002600066
 51
103.5109936439519
  0
LINE
  5
70D
330
1A
100
AcDbEntity
  8
SEIHIN
  6
CONTINUOUS
100
AcDbLine
 10
395.8389398707966
 20
215.7490366284866
 30
0.0
 11
395.8388398707966
 21
213.7939366284867
 31
0.0
  0
LINE
  5
70E
330
1A
100
AcDbEntity
  8
SEIHIN
  6
CONTINUOUS
100
AcDbLine
 10
400.8389398707967
 20
216.8248366284867
 30
0.0
 11
400.8388398707966
 21
214.8900366284867
 31
0.0
  0
LINE
  5
70F
330
1A
100
AcDbEntity
  8
SEIHIN
  6
CONTINUOUS
100
AcDbLine
 10
445.8386398707967
 20
194.7105366284867
 30
0.0
 11
445.8387398707967
 21
180.7105366284867
 31
0.0
  0
LINE
  5
710
330
1A
100
AcDbEntity
  8
SEIHIN
  6
CONTINUOUS
100
AcDbLine
 10
440.8386398707967
 20
194.7105366284867
 30
0.0
 11
440.8387398707967
 21
180.7105366284867
 31
0.0
  0
LINE
  5
711
330
1A
100
AcDbEntity
  8
SEIHIN
  6
CONTINUOUS
100
AcDbLine
 10
445.8387398707967
 20
212.6608366284867
 30
0.0
 11
445.8386398707967
 21
200.7105366284866
 31
0.0
  0
LINE
  5
712
330
1A
100
AcDbEntity
  8
SEIHIN
  6
CONTINUOUS
100
AcDbLine
 10
440.8387398707967
 20
213.7692366284867
 30
0.0
 11
440.8386398707967
 21
200.7105366284866
 31
0.0
  0
LINE
  5
713
330
1A
100
AcDbEntity
  8
SEIHIN
  6
CONTINUOUS
100
AcDbLine
 10
445.8387398707967
 20
215.7488366284867
 30
0.0
 11
445.8387398707967
 21
213.7937366284867
 31
0.0
  0
ARC
  5
714
330
1A
100
AcDbEntity
  8
SEIHIN
  6
CONTINUOUS
100
AcDbCircle
 10
420.838022484816
 20
111.7105264315126
 30
0.0
 40
107.0000040108504
100
AcDbArc
 50
76.48790515120751
 51
79.22681050793165
  0
LINE
  5
715
330
1A
100
AcDbEntity
  8
SEIHIN
  6
CONTINUOUS
100
AcDbLine
 10
440.8387398707967
 20
216.8246366284867
 30
0.0
 11
440.8387398707967
 21
214.8899366284866
 31
0.0
  0
ARC
  5
71C
330
1A
100
AcDbEntity
  8
SEIHIN
  6
CONTINUOUS
100
AcDbCircle
 10
420.8377306377355
 20
111.7109237582023
 30
0.0
 40
107.0000609010809
100
AcDbArc
 50
54.75233508826959
 51
56.28106109115808
  0
LINE
  5
71D
330
1A
100
AcDbEntity
  8
SEIHIN
  6
CONTINUOUS
100
AcDbLine
 10
471.9339398707966
 20
194.7104366284867
 30
0.0
 11
471.9340398707967
 21
180.7104366284867
 31
0.0
  0
LINE
  5
71E
330
1A
100
AcDbEntity
  8
SEIHIN
  6
CONTINUOUS
100
AcDbLine
 10
474.5542398707967
 20
180.7105366284867
 30
0.0
 11
474.5541398707966
 21
194.7104366284867
 31
0.0
  0
LINE
  5
71F
330
1A
100
AcDbEntity
  8
SEIHIN
  6
CONTINUOUS
100
AcDbLine
 10
477.0541398707967
 20
194.7104366284867
 30
0.0
 11
477.0542398707966
 21
180.7105366284867
 31
0.0
  0
LINE
  5
720
330
1A
100
AcDbEntity
  8
SEIHIN
  6
CONTINUOUS
100
AcDbLine
 10
482.5886398707965
 20
194.7104366284867
 30
0.0
 11
477.0541398707967
 21
194.7104366284867
 31
0.0
  0
LINE
  5
721
330
1A
100
AcDbEntity
  8
SEIHIN
  6
CONTINUOUS
100
AcDbLine
 10
482.5886398707965
 20
199.0941366284867
 30
0.0
 11
482.5886398707965
 21
194.7104366284867
 31
0.0
  0
LINE
  5
722
330
1A
100
AcDbEntity
  8
SEIHIN
  6
CONTINUOUS
100
AcDbLine
 10
476.7402398707967
 20
200.7104366284867
 30
0.0
 11
480.2354398707967
 21
200.7104366284867
 31
0.0
  0
LINE
  5
723
330
1A
100
AcDbEntity
  8
SEIHIN
  6
CONTINUOUS
100
AcDbLine
 10
496.8387398707966
 20
180.7104366284867
 30
0.0
 11
500.8387398707966
 21
179.7103366284867
 31
0.0
  0
LINE
  5
724
330
1A
100
AcDbEntity
  8
SEIHIN
  6
CONTINUOUS
100
AcDbLine
 10
500.8387398707966
 20
179.7103366284867
 30
0.0
 11
500.8387398707966
 21
178.7103366284866
 31
0.0
  0
ARC
  5
725
330
1A
100
AcDbEntity
  8
SEIHIN
  6
CONTINUOUS
100
AcDbCircle
 10
420.8391398707968
 20
403.9105366284867
 30
0.0
 40
59.00000101906756
100
AcDbArc
 50
29.99999942863588
 51
60.00000057136433
  0
LINE
  5
726
330
1A
100
AcDbEntity
  8
SEIHIN
  6
CONTINUOUS
100
AcDbLine
 10
448.8392398707967
 20
423.9104366284865
 30
0.0
 11
474.1965398707967
 21
423.9104366284865
 31
0.0
  0
LINE
  5
727
330
1A
100
AcDbEntity
  8
SEIHIN
  6
CONTINUOUS
100
AcDbLine
 10
448.8392398707967
 20
428.9104366284865
 30
0.0
 11
469.3366398707968
 21
428.9104366284865
 31
0.0
  0
LINE
  5
728
330
1A
100
AcDbEntity
  8
SEIHIN
  6
CONTINUOUS
100
AcDbLine
 10
448.8391398707967
 20
383.9104366284867
 30
0.0
 11
474.1964398707966
 21
383.9104366284867
 31
0.0
  0
LINE
  5
729
330
1A
100
AcDbEntity
  8
SEIHIN
  6
CONTINUOUS
100
AcDbLine
 10
448.8391398707967
 20
378.9104366284865
 30
0.0
 11
469.3365398707967
 21
378.9104366284865
 31
0.0
  0
ARC
  5
72A
330
1A
100
AcDbEntity
  8
SEIHIN
  6
CONTINUOUS
100
AcDbCircle
 10
420.8391581719395
 20
403.9105549295603
 30
0.0
 40
59.00004432045436
100
AcDbArc
 50
299.9998424943207
 51
329.9998921927818
  0
LINE
  5
72B
330
1A
100
AcDbEntity
  8
CENTER_L
 48
5.0
100
AcDbLine
 10
330.9930398707966
 20
403.9107366284866
 30
0.0
 11
510.3688398707967
 21
403.9103366284868
 31
0.0
  0
ARC
  5
72E
330
1A
100
AcDbEntity
  8
SEIHIN
  6
CONTINUOUS
100
AcDbCircle
 10
420.8391398935757
 20
403.9104366284867
 30
0.0
 40
79.99999997728348
100
AcDbArc
 50
0.0000716197244141
 51
359.9999283802755
  0
ARC
  5
72F
330
1A
100
AcDbEntity
  8
SEIHIN
  6
CONTINUOUS
100
AcDbCircle
 10
420.8391398622126
 20
403.9104366284867
 30
0.0
 40
61.75000000866507
100
AcDbArc
 50
0.0000927866874607
 51
359.9999072133125
  0
ARC
  5
730
330
1A
100
AcDbEntity
  8
SEIHIN
  6
CONTINUOUS
100
AcDbCircle
 10
420.8391399091381
 20
403.9104366284867
 30
0.0
 40
76.99999996172339
100
AcDbArc
 50
0.0000744101033032
 51
359.9999255898966
  0
ARC
  5
731
330
1A
100
AcDbEntity
  8
SEIHIN
  6
CONTINUOUS
100
AcDbCircle
 10
437.8392398707966
 20
431.9104366284866
 30
0.0
 40
3.000000000000056
100
AcDbArc
 50
269.9999999999992
 51
359.9999999999989
  0
ARC
  5
732
330
1A
100
AcDbEntity
  8
SEIHIN
  6
CONTINUOUS
100
AcDbCircle
 10
448.8392398707967
 20
431.9104366284866
 30
0.0
 40
3.000000000000042
100
AcDbArc
 50
180.0000000000011
 51
270.0000000000008
  0
ARC
  5
733
330
1A
100
AcDbEntity
  8
SEIHIN
  6
CONTINUOUS
100
AcDbCircle
 10
403.8389398707967
 20
431.9106366284866
 30
0.0
 40
3.000000000000056
100
AcDbArc
 50
179.9999999999978
 51
269.9999999999977
  0
ARC
  5
734
330
1A
100
AcDbEntity
  8
SEIHIN
  6
CONTINUOUS
100
AcDbCircle
 10
392.8389398707967
 20
431.9107366284867
 30
0.0
 40
2.999999999999971
100
AcDbArc
 50
269.9999999999983
 51
359.9999999999983
  0
LINE
  5
735
330
1A
100
AcDbEntity
  8
CENTER_L
 48
5.0
100
AcDbLine
 10
420.8388398707966
 20
315.7386366284865
 30
0.0
 11
420.8394398707967
 21
493.9105366284866
 31
0.0
  0
ARC
  5
736
330
1A
100
AcDbEntity
  8
SEIHIN
  6
CONTINUOUS
100
AcDbCircle
 10
372.3415339236008
 20
431.9107469292846
 30
0.0
 40
3.000010300803802
100
AcDbArc
 50
150.0003407459642
 51
270.0001135826818
  0
ARC
  5
737
330
1A
100
AcDbEntity
  8
SEIHIN
  6
CONTINUOUS
100
AcDbCircle
 10
420.8388398710281
 20
403.9105366287182
 30
0.0
 40
59.00000101938413
100
AcDbArc
 50
209.999999428718
 51
240.0000005712819
  0
LINE
  5
738
330
1A
100
AcDbEntity
  8
SEIHIN
  6
CONTINUOUS
100
AcDbLine
 10
392.8389398707966
 20
423.9107366284867
 30
0.0
 11
367.4816398707966
 21
423.9107366284867
 31
0.0
  0
LINE
  5
739
330
1A
100
AcDbEntity
  8
SEIHIN
  6
CONTINUOUS
100
AcDbLine
 10
392.8388398707966
 20
383.9104366284867
 30
0.0
 11
367.4815398707967
 21
383.9104366284867
 31
0.0
  0
LINE
  5
73A
330
1A
100
AcDbEntity
  8
SEIHIN
  6
CONTINUOUS
100
AcDbLine
 10
392.8388398707966
 20
378.9104366284865
 30
0.0
 11
372.3414398707966
 21
378.9104366284865
 31
0.0
  0
ARC
  5
73B
330
1A
100
AcDbEntity
  8
SEIHIN
  6
CONTINUOUS
100
AcDbCircle
 10
372.3414339236008
 20
375.9104263276887
 30
0.0
 40
3.000010300803734
100
AcDbArc
 50
89.99988641731741
 51
209.9996592540352
  0
ARC
  5
73C
330
1A
100
AcDbEntity
  8
SEIHIN
  6
CONTINUOUS
100
AcDbCircle
 10
420.8389470027384
 20
403.910582506232
 30
0.0
 40
59.00000713196667
100
AcDbArc
 50
162.327723346221
 51
179.9999474410782
  0
ARC
  5
73D
330
1A
100
AcDbEntity
  8
SEIHIN
  6
CONTINUOUS
100
AcDbCircle
 10
420.8389642857321
 20
403.9102795704747
 30
0.0
 40
59.00002441549546
100
AcDbArc
 50
179.9997503672358
 51
197.6719541475862
  0
ARC
  5
73E
330
1A
100
AcDbEntity
  8
SEIHIN
  6
CONTINUOUS
100
AcDbCircle
 10
367.4815598171298
 20
386.9104220492492
 30
0.0
 40
2.999985420828781
100
AcDbArc
 50
197.6717483861308
 51
269.9996190512473
  0
ARC
  5
73F
330
1A
100
AcDbEntity
  8
SEIHIN
  6
CONTINUOUS
100
AcDbCircle
 10
367.4816598171299
 20
420.9107512077241
 30
0.0
 40
2.999985420828865
100
AcDbArc
 50
90.00038094875483
 51
162.3282516138713
  0
LINE
  5
740
330
1A
100
AcDbEntity
  8
SEIHIN
  6
CONTINUOUS
100
AcDbLine
 10
420.8391398707966
 20
378.9105366284867
 30
0.0
 11
437.8391398707967
 21
378.9104366284865
 31
0.0
  0
ARC
  5
741
330
1A
100
AcDbEntity
  8
SEIHIN
  6
CONTINUOUS
100
AcDbCircle
 10
420.8393945692782
 20
403.9105762222314
 30
0.0
 40
59.00003959429446
100
AcDbArc
 50
269.9997526586736
 51
287.6719518561484
  0
LINE
  5
742
330
1A
100
AcDbEntity
  8
SEIHIN
  6
CONTINUOUS
100
AcDbLine
 10
395.8388398707966
 20
375.9104366284865
 30
0.0
 11
395.8389398707966
 21
355.4130366284868
 31
0.0
  0
LINE
  5
743
330
1A
100
AcDbEntity
  8
SEIHIN
  6
CONTINUOUS
100
AcDbLine
 10
400.8388398707966
 20
375.9104366284865
 30
0.0
 11
400.8389398707967
 21
350.5532366284867
 31
0.0
  0
ARC
  5
744
330
1A
100
AcDbEntity
  8
SEIHIN
  6
CONTINUOUS
100
AcDbCircle
 10
420.8388939930517
 20
403.910443760428
 30
0.0
 40
59.00000713196637
100
AcDbArc
 50
252.3277233462203
 51
269.9999474410775
  0
ARC
  5
745
330
1A
100
AcDbEntity
  8
SEIHIN
  6
CONTINUOUS
100
AcDbCircle
 10
392.8389295699986
 20
355.413030681291
 30
0.0
 40
3.000010300803917
100
AcDbArc
 50
240.0003407459642
 51
0.0001135826809714
  0
ARC
  5
746
330
1A
100
AcDbEntity
  8
SEIHIN
  6
CONTINUOUS
100
AcDbCircle
 10
403.8389729320989
 20
350.5531913967145
 30
0.0
 40
3.000033061643292
100
AcDbArc
 50
179.9991361463029
 51
252.3275865739033
  0
LINE
  5
747
330
1A
100
AcDbEntity
  8
SEIHIN
  6
CONTINUOUS
100
AcDbLine
 10
420.8388398707966
 20
378.9104366284865
 30
0.0
 11
403.8388398707966
 21
378.9104366284865
 31
0.0
  0
ARC
  5
748
330
1A
100
AcDbEntity
  8
SEIHIN
  6
CONTINUOUS
100
AcDbCircle
 10
392.8388398707966
 20
375.9104366284865
 30
0.0
 40
3.0
100
AcDbArc
 50
0.0
 51
90.0
  0
ARC
  5
749
330
1A
100
AcDbEntity
  8
SEIHIN
  6
CONTINUOUS
100
AcDbCircle
 10
403.8388398707966
 20
375.9104366284865
 30
0.0
 40
3.0
100
AcDbArc
 50
90.0
 51
180.0
  0
LINE
  5
74A
330
1A
100
AcDbEntity
  8
SEIHIN
  6
CONTINUOUS
100
AcDbLine
 10
445.8390398707967
 20
375.9104366284865
 30
0.0
 11
445.8390398707967
 21
355.4130366284868
 31
0.0
  0
LINE
  5
74B
330
1A
100
AcDbEntity
  8
SEIHIN
  6
CONTINUOUS
100
AcDbLine
 10
440.8390398707966
 20
375.9104366284865
 30
0.0
 11
440.8390398707966
 21
350.5531366284867
 31
0.0
  0
ARC
  5
74C
330
1A
100
AcDbEntity
  8
SEIHIN
  6
CONTINUOUS
100
AcDbCircle
 10
437.8390544500342
 20
350.55315657482
 30
0.0
 40
2.99998542082875
100
AcDbArc
 50
287.6717483861281
 51
359.9996190512444
  0
ARC
  5
74D
330
1A
100
AcDbEntity
  8
SEIHIN
  6
CONTINUOUS
100
AcDbCircle
 10
448.8390501715946
 20
355.413030681291
 30
0.0
 40
3.000010300803878
100
AcDbArc
 50
179.9998864173184
 51
299.9996592540355
  0
ARC
  5
74E
330
1A
100
AcDbEntity
  8
SEIHIN
  6
CONTINUOUS
100
AcDbCircle
 10
437.8390398707967
 20
375.9104366284865
 30
0.0
 40
2.999999999999971
100
AcDbArc
 50
359.9999999999994
 51
89.99999999999944
  0
ARC
  5
74F
330
1A
100
AcDbEntity
  8
SEIHIN
  6
CONTINUOUS
100
AcDbCircle
 10
448.8390398707967
 20
375.9104366284865
 30
0.0
 40
2.999999999999971
100
AcDbArc
 50
90.00000000000055
 51
180.0000000000005
  0
LINE
  5
750
330
1A
100
AcDbEntity
  8
SEIHIN
  6
CONTINUOUS
100
AcDbLine
 10
420.8392398707966
 20
423.9105366284865
 30
0.0
 11
437.8392398707966
 21
423.9104366284865
 31
0.0
  0
LINE
  5
751
330
1A
100
AcDbEntity
  8
SEIHIN
  6
CONTINUOUS
100
AcDbLine
 10
420.8391398707966
 20
383.9105366284867
 30
0.0
 11
437.8391398707967
 21
383.9104366284867
 31
0.0
  0
LINE
  5
752
330
1A
100
AcDbEntity
  8
SEIHIN
  6
CONTINUOUS
100
AcDbLine
 10
400.8389398707967
 20
403.9106366284865
 30
0.0
 11
400.8389398707967
 21
420.9106366284865
 31
0.0
  0
LINE
  5
753
330
1A
100
AcDbEntity
  8
SEIHIN
  6
CONTINUOUS
100
AcDbLine
 10
395.8389398707966
 20
403.9106366284865
 30
0.0
 11
395.8389398707966
 21
420.9106366284865
 31
0.0
  0
LINE
  5
754
330
1A
100
AcDbEntity
  8
SEIHIN
  6
CONTINUOUS
100
AcDbLine
 10
420.8388398707966
 20
383.9104366284867
 30
0.0
 11
403.8388398707966
 21
383.9104366284867
 31
0.0
  0
LINE
  5
755
330
1A
100
AcDbEntity
  8
SEIHIN
  6
CONTINUOUS
100
AcDbLine
 10
400.8389398707967
 20
403.9104366284865
 30
0.0
 11
400.8388398707966
 21
386.9104366284865
 31
0.0
  0
LINE
  5
756
330
1A
100
AcDbEntity
  8
SEIHIN
  6
CONTINUOUS
100
AcDbLine
 10
395.8389398707966
 20
403.9104366284865
 30
0.0
 11
395.8388398707966
 21
386.9104366284865
 31
0.0
  0
ARC
  5
757
330
1A
100
AcDbEntity
  8
SEIHIN
  6
CONTINUOUS
100
AcDbCircle
 10
392.8388398707967
 20
386.9104366284866
 30
0.0
 40
2.999999999999886
100
AcDbArc
 50
269.9999999999977
 51
359.9999999999977
  0
ARC
  5
758
330
1A
100
AcDbEntity
  8
SEIHIN
  6
CONTINUOUS
100
AcDbCircle
 10
403.8388398707964
 20
386.9104366284866
 30
0.0
 40
2.999999999999886
100
AcDbArc
 50
180.0000000000021
 51
270.0000000000021
  0
LINE
  5
759
330
1A
100
AcDbEntity
  8
SEIHIN
  6
CONTINUOUS
100
AcDbLine
 10
420.8389398707967
 20
423.9105366284865
 30
0.0
 11
403.8389398707966
 21
423.9106366284866
 31
0.0
  0
ARC
  5
75A
330
1A
100
AcDbEntity
  8
SEIHIN
  6
CONTINUOUS
100
AcDbCircle
 10
392.8389398707965
 20
420.9107366284865
 30
0.0
 40
3.000000000000085
100
AcDbArc
 50
359.9999999999994
 51
89.99999999999944
  0
ARC
  5
75B
330
1A
100
AcDbEntity
  8
SEIHIN
  6
CONTINUOUS
100
AcDbCircle
 10
403.8389398707967
 20
420.9106366284867
 30
0.0
 40
3.000000000000056
100
AcDbArc
 50
90.00000000000218
 51
180.0000000000021
  0
LINE
  5
75C
330
1A
100
AcDbEntity
  8
SEIHIN
  6
CONTINUOUS
100
AcDbLine
 10
445.8391398707965
 20
403.9104366284865
 30
0.0
 11
445.8392398707966
 21
420.9104366284867
 31
0.0
  0
LINE
  5
75D
330
1A
100
AcDbEntity
  8
SEIHIN
  6
CONTINUOUS
100
AcDbLine
 10
440.8391398707967
 20
403.9104366284865
 30
0.0
 11
440.8392398707967
 21
420.9104366284867
 31
0.0
  0
ARC
  5
75E
330
1A
100
AcDbEntity
  8
SEIHIN
  6
CONTINUOUS
100
AcDbCircle
 10
437.8391398707968
 20
386.9104366284866
 30
0.0
 40
2.999999999999886
100
AcDbArc
 50
269.9999999999977
 51
359.9999999999977
  0
LINE
  5
75F
330
1A
100
AcDbEntity
  8
SEIHIN
  6
CONTINUOUS
100
AcDbLine
 10
445.8391398707965
 20
403.9104366284865
 30
0.0
 11
445.8391398707965
 21
386.9104366284865
 31
0.0
  0
LINE
  5
760
330
1A
100
AcDbEntity
  8
SEIHIN
  6
CONTINUOUS
100
AcDbLine
 10
440.8391398707967
 20
403.9104366284865
 30
0.0
 11
440.8391398707967
 21
386.9104366284865
 31
0.0
  0
ARC
  5
761
330
1A
100
AcDbEntity
  8
SEIHIN
  6
CONTINUOUS
100
AcDbCircle
 10
448.8391398707966
 20
386.9104366284867
 30
0.0
 40
2.999999999999928
100
AcDbArc
 50
180.0000000000032
 51
270.000000000003
  0
ARC
  5
762
330
1A
100
AcDbEntity
  8
SEIHIN
  6
CONTINUOUS
100
AcDbCircle
 10
437.8392398707967
 20
420.9104366284866
 30
0.0
 40
2.999999999999928
100
AcDbArc
 50
0.0000000000032569
 51
90.000000000003
  0
ARC
  5
763
330
1A
100
AcDbEntity
  8
SEIHIN
  6
CONTINUOUS
100
AcDbCircle
 10
448.8392398707965
 20
420.9104366284866
 30
0.0
 40
2.999999999999943
100
AcDbArc
 50
89.99999999999701
 51
179.9999999999967
  0
ARC
  5
764
330
1A
100
AcDbEntity
  8
SEIHIN
  6
CONTINUOUS
100
AcDbCircle
 10
420.8389898708545
 20
403.9105866284286
 30
0.0
 40
59.00006932041971
100
AcDbArc
 50
120.0000172012723
 51
149.9999827987275
  0
LINE
  5
765
330
1A
100
AcDbEntity
  8
SEIHIN
  6
CONTINUOUS
100
AcDbLine
 10
392.8389398707966
 20
428.9107366284866
 30
0.0
 11
372.3415398707966
 21
428.9107366284866
 31
0.0
  0
ARC
  5
766
330
1A
100
AcDbEntity
  8
SEIHIN
  6
CONTINUOUS
100
AcDbCircle
 10
420.8391857485414
 20
403.9105294965451
 30
0.0
 40
59.00000713196648
100
AcDbArc
 50
72.32772334622035
 51
89.99994744107757
  0
LINE
  5
767
330
1A
100
AcDbEntity
  8
SEIHIN
  6
CONTINUOUS
100
AcDbLine
 10
420.8392398707966
 20
428.9105366284867
 30
0.0
 11
437.8392398707966
 21
428.9104366284865
 31
0.0
  0
LINE
  5
768
330
1A
100
AcDbEntity
  8
SEIHIN
  6
CONTINUOUS
100
AcDbLine
 10
395.8389398707966
 20
431.9106366284866
 30
0.0
 11
395.8391398707967
 21
452.4081366284868
 31
0.0
  0
LINE
  5
769
330
1A
100
AcDbEntity
  8
SEIHIN
  6
CONTINUOUS
100
AcDbLine
 10
400.8389398707967
 20
431.9106366284866
 30
0.0
 11
400.8391398707967
 21
457.2678366284868
 31
0.0
  0
LINE
  5
76A
330
1A
100
AcDbEntity
  8
SEIHIN
  6
CONTINUOUS
100
AcDbLine
 10
420.8389398707967
 20
428.9105366284867
 30
0.0
 11
403.8389398707966
 21
428.9106366284865
 31
0.0
  0
ARC
  5
76B
330
1A
100
AcDbEntity
  8
SEIHIN
  6
CONTINUOUS
100
AcDbCircle
 10
420.8386851723155
 20
403.9104970347421
 30
0.0
 40
59.00003959429446
100
AcDbArc
 50
89.99975265867414
 51
107.6719518561489
  0
ARC
  5
76C
330
1A
100
AcDbEntity
  8
SEIHIN
  6
CONTINUOUS
100
AcDbCircle
 10
392.8391295699987
 20
452.4081425756824
 30
0.0
 40
3.000010300803897
100
AcDbArc
 50
359.999886417319
 51
119.9996592540368
  0
ARC
  5
76D
330
1A
100
AcDbEntity
  8
SEIHIN
  6
CONTINUOUS
100
AcDbCircle
 10
403.839125291559
 20
457.2678166821533
 30
0.0
 40
2.999985420828663
100
AcDbArc
 50
107.6717483861256
 51
179.9996190512429
  0
LINE
  5
76E
330
1A
100
AcDbEntity
  8
SEIHIN
  6
CONTINUOUS
100
AcDbLine
 10
445.8392398707966
 20
431.9104366284865
 30
0.0
 11
445.8392398707966
 21
452.4079366284866
 31
0.0
  0
LINE
  5
76F
330
1A
100
AcDbEntity
  8
SEIHIN
  6
CONTINUOUS
100
AcDbLine
 10
440.8392398707967
 20
431.9104366284865
 30
0.0
 11
440.8392398707967
 21
457.2677366284867
 31
0.0
  0
ARC
  5
770
330
1A
100
AcDbEntity
  8
SEIHIN
  6
CONTINUOUS
100
AcDbCircle
 10
437.8392544500342
 20
457.2677166821534
 30
0.0
 40
2.999985420828799
100
AcDbArc
 50
0.0003809487559142
 51
72.32825161387288
  0
ARC
  5
771
330
1A
100
AcDbEntity
  8
SEIHIN
  6
CONTINUOUS
100
AcDbCircle
 10
448.8392068704336
 20
452.4079175759977
 30
0.0
 40
2.999966999697482
100
AcDbArc
 50
59.99890833943331
 51
179.999636120261
  0
ARC
  5
772
330
1A
100
AcDbEntity
  8
SEIHIN
  6
CONTINUOUS
100
AcDbCircle
 10
469.3366458179924
 20
431.9104469292845
 30
0.0
 40
3.000010300803961
100
AcDbArc
 50
269.99988641732
 51
29.99965925403767
  0
ARC
  5
773
330
1A
100
AcDbEntity
  8
SEIHIN
  6
CONTINUOUS
100
AcDbCircle
 10
469.3365458179924
 20
375.9104263276887
 30
0.0
 40
3.000010300803719
100
AcDbArc
 50
330.0003407459645
 51
90.00011358268192
  0
ARC
  5
774
330
1A
100
AcDbEntity
  8
SEIHIN
  6
CONTINUOUS
100
AcDbCircle
 10
420.8391002770524
 20
403.9107913269683
 30
0.0
 40
59.00003959429406
100
AcDbArc
 50
359.9997526586737
 51
17.67195185614849
  0
ARC
  5
775
330
1A
100
AcDbEntity
  8
SEIHIN
  6
CONTINUOUS
100
AcDbCircle
 10
420.8391175598948
 20
403.9103931103801
 30
0.0
 40
59.00002231092893
100
AcDbArc
 50
342.3277256376865
 51
359.999945149612
  0
ARC
  5
776
330
1A
100
AcDbEntity
  8
SEIHIN
  6
CONTINUOUS
100
AcDbCircle
 10
474.1964406917035
 20
386.9104372284866
 30
0.0
 40
3.000000599999963
100
AcDbArc
 50
269.9999843218354
 51
342.326035256036
  0
ARC
  5
777
330
1A
100
AcDbEntity
  8
SEIHIN
  6
CONTINUOUS
100
AcDbCircle
 10
474.1965199244635
 20
420.9104512077241
 30
0.0
 40
2.999985420828719
100
AcDbArc
 50
17.67174838613013
 51
89.9996190512466
  0
LINE
  5
77B
330
1A
100
AcDbEntity
  8
SEIHIN
  6
CONTINUOUS
100
AcDbLine
 10
353.338647401437
 20
140.7107366280834
 30
0.0
 11
488.3392474014368
 21
140.7104366280835
 31
0.0
  0
LINE
  5
77C
330
1A
100
AcDbEntity
  8
SEIHIN
  6
CONTINUOUS
100
AcDbLine
 10
488.3387474014369
 20
176.7104366280834
 30
0.0
 11
353.3387474014369
 21
176.7107366280834
 31
0.0
  0
LINE
  5
77F
330
1A
100
AcDbEntity
  8
SEIHIN
  6
CONTINUOUS
100
AcDbLine
 10
355.5032474014371
 20
138.7107366280834
 30
0.0
 11
486.1742474014371
 21
138.7104366280835
 31
0.0
  0
LINE
  5
7A2
330
1A
100
AcDbEntity
  8
SEIHIN
  6
CONTINUOUS
100
AcDbLine
 10
355.5032474014371
 20
140.7107366280834
 30
0.0
 11
355.5032474014371
 21
138.7107366280834
 31
0.0
  0
LINE
  5
7C3
330
1A
100
AcDbEntity
  8
SEIHIN
  6
CONTINUOUS
 62
     4
100
AcDbLine
 10
355.5036474014369
 20
176.7107318171946
 30
0.0
 11
355.5036474014369
 21
140.7107318169937
 31
0.0
  0
LINE
  5
7C4
330
1A
100
AcDbEntity
  8
SEIHIN
  6
CONTINUOUS
100
AcDbLine
 10
353.3390474014371
 20
176.7107366274167
 30
0.0
 11
353.3390474014372
 21
140.7107366271946
 31
0.0
  0
LINE
  5
801
330
1A
100
AcDbEntity
  8
SEIHIN
  6
CONTINUOUS
100
AcDbLine
 10
355.5037474014369
 20
178.7106366280835
 30
0.0
 11
355.5037474014369
 21
176.7104366280834
 31
0.0
  0
LINE
  5
802
330
1A
100
AcDbEntity
  8
SEIHIN
  6
CONTINUOUS
 62
     4
100
AcDbLine
 10
486.1738246053771
 20
176.7102286399704
 30
0.0
 11
486.1735473519066
 21
140.7102286408372
 31
0.0
  0
LINE
  5
803
330
1A
100
AcDbEntity
  8
SEIHIN
  6
CONTINUOUS
100
AcDbLine
 10
488.3384246053498
 20
176.7102167795575
 30
0.0
 11
488.3381473518792
 21
140.710216780403
 31
0.0
  0
LINE
  5
804
330
1A
100
AcDbEntity
  8
SEIHIN
  6
CONTINUOUS
100
AcDbLine
 10
486.1737400076147
 20
178.7101334515702
 30
0.0
 11
486.1737246031037
 21
176.7099334516295
 31
0.0
  0
LINE
  5
805
330
1A
100
AcDbEntity
  8
SEIHIN
  6
CONTINUOUS
100
AcDbLine
 10
486.1739473519434
 20
140.7102334488463
 30
0.0
 11
486.1739319489728
 21
138.7102334489056
 31
0.0
  0
LINE
  5
806
330
1A
100
AcDbEntity
  8
SEIHIN
  6
CONTINUOUS
100
AcDbLine
 10
500.8387398707966
 20
179.7103366284867
 30
0.0
 11
340.8386398707967
 21
179.7109366284867
 31
0.0
  0
CIRCLE
  5
811
330
1A
100
AcDbEntity
  8
SEIHIN
  6
CONTINUOUS
100
AcDbCircle
 10
171.9190554252304
 20
403.9105362757146
 30
0.0
 40
80.9996074346732
  0
CIRCLE
  5
812
330
1A
100
AcDbEntity
  8
SEIHIN
  6
CONTINUOUS
100
AcDbCircle
 10
171.9190554252304
 20
403.9105362757146
 30
0.0
 40
73.46420743465448
  0
CIRCLE
  5
813
330
1A
100
AcDbEntity
  8
SEIHIN
  6
CONTINUOUS
100
AcDbCircle
 10
171.9190554252304
 20
403.9105362757146
 30
0.0
 40
67.49960743463964
  0
ARC
  5
814
330
1A
100
AcDbEntity
  8
SEIHIN
  6
CONTINUOUS
100
AcDbCircle
 10
171.9190554252304
 20
403.9105362757146
 30
0.0
 40
65.33460743463429
100
AcDbArc
 50
93.61289138990382
 51
146.3891659596881
  0
CIRCLE
  5
815
330
1A
100
AcDbEntity
  8
SEIHIN
  6
CONTINUOUS
100
AcDbCircle
 10
171.9190554252304
 20
403.9105362757146
 30
0.0
 40
54.24950743460672
  0
LINE
  5
816
330
1A
100
AcDbEntity
  8
SEIHIN
  6
CONTINUOUS
100
AcDbLine
 10
167.6655628597023
 20
471.2759933351414
 30
0.0
 11
167.8019904887564
 21
469.1152961092316
 31
0.0
  0
LINE
  5
817
330
1A
100
AcDbEntity
  8
SEIHIN
  6
CONTINUOUS
100
AcDbLine
 10
117.5073107666477
 20
440.076445248765
 30
0.0
 11
115.7042628597022
 21
441.2748789120449
 31
0.0
  0
LINE
  5
818
330
1A
100
AcDbEntity
  8
SEIHIN
  6
CONTINUOUS
100
AcDbLine
 10
115.7056045569812
 20
366.5441751294457
 30
0.0
 11
117.5086094299785
 21
367.7426735349396
 31
0.0
  0
LINE
  5
819
330
1A
100
AcDbEntity
  8
SEIHIN
  6
CONTINUOUS
100
AcDbLine
 10
167.8043318329047
 20
338.7056286506246
 30
0.0
 11
167.6679817892265
 21
336.5449265273294
 31
0.0
  0
LINE
  5
81A
330
1A
100
AcDbEntity
  8
SEIHIN
  6
CONTINUOUS
100
AcDbLine
 10
232.3859988590077
 20
373.9114403625568
 30
0.0
 11
230.4465663569563
 21
374.8736391829728
 31
0.0
  0
LINE
  5
81B
330
1A
100
AcDbEntity
  8
SEIHIN
  6
CONTINUOUS
100
AcDbLine
 10
230.445523676139
 20
432.9495349277545
 30
0.0
 11
232.3849216267625
 21
433.9118033877696
 31
0.0
  0
ARC
  5
81C
330
1A
100
AcDbEntity
  8
SEIHIN
  6
CONTINUOUS
100
AcDbCircle
 10
171.9190554252304
 20
403.9105362757146
 30
0.0
 40
65.33460743463429
100
AcDbArc
 50
213.6128913899038
 51
266.3891659596881
  0
ARC
  5
81D
330
1A
100
AcDbEntity
  8
SEIHIN
  6
CONTINUOUS
100
AcDbCircle
 10
171.9190554252304
 20
403.9105362757146
 30
0.0
 40
65.33460743463429
100
AcDbArc
 50
333.6128913899141
 51
26.38916595967772
  0
DIMENSION
  5
831
330
1A
100
AcDbEntity
  8
SUNPOU
  6
CONTINUOUS
100
AcDbDimension
  2
*D1
 10
86.91865850332659
 20
256.2954989043414
 30
0.0
 11
171.9186585033265
 21
261.2954989043414
 31
0.0
 12
-22.34105930121154
 22
20.00000000000003
 32
0.0
 70
    32
  1
φ<>
  3
STANDARD
100
AcDbAlignedDimension
 13
256.9186585033265
 23
233.9103366284866
 33
0.0
 14
86.91865850332659
 24
233.9105366284866
 34
0.0
100
AcDbRotatedDimension
1001
ACAD
1000
DSTYLE
1002
{
1070
   140
1040
6.0
1070
    74
1070
     0
1070
   172
1070
     1
1070
    73
1070
     0
1070
   272
1070
     2
1070
    77
1070
     3
1070
   173
1070
     1
1070
   147
1040
2.0
1070
    42
1040
6.0
1070
    44
1040
3.0
1070
    43
1040
14.0
1070
   271
1070
     0
1070
   178
1070
     4
1070
   177
1070
     4
1070
   176
1070
     4
1070
   141
1040
150.0
1070
     7
1000
_OPEN
1070
     6
1000
_OPEN
1070
    41
1040
7.0
1002
}
  0
DIMENSION
  5
83E
330
1A
100
AcDbEntity
  8
SUNPOU
  6
CONTINUOUS
100
AcDbDimension
  2
*D2
 10
114.9183585033265
 20
113.3096944185595
 30
0.0
 11
171.9183585033265
 21
118.3096944185595
 31
0.0
 12
-22.34105930121154
 22
20.00000000000003
 32
0.0
 70
    32
  1
φ<>
  3
STANDARD
100
AcDbAlignedDimension
 13
228.9183585033264
 23
145.9103366284866
 33
0.0
 14
114.9183585033265
 24
145.9108366284866
 34
0.0
100
AcDbRotatedDimension
1001
ACAD
1000
DSTYLE
1002
{
1070
   140
1040
6.0
1070
    74
1070
     0
1070
   172
1070
     1
1070
    73
1070
     0
1070
   272
1070
     2
1070
    77
1070
     3
1070
   173
1070
     1
1070
   147
1040
2.0
1070
    42
1040
6.0
1070
    44
1040
3.0
1070
    43
1040
14.0
1070
   271
1070
     0
1070
   178
1070
     4
1070
   177
1070
     4
1070
   176
1070
     4
1070
   141
1040
150.0
1070
     7
1000
_OPEN
1070
     6
1000
_OPEN
1070
    41
1040
7.0
1002
}
  0
DIMENSION
  5
84B
330
1A
100
AcDbEntity
  8
SUNPOU
  6
CONTINUOUS
100
AcDbDimension
  2
*D3
 10
101.9184585033265
 20
90.82594179159812
 30
0.0
 11
171.9184585033265
 21
95.82594179159812
 31
0.0
 12
-22.34105930121154
 22
20.00000000000003
 32
0.0
 70
    32
  1
φ<>
  3
STANDARD
100
AcDbAlignedDimension
 13
241.9184585033264
 23
185.9103366284866
 33
0.0
 14
101.9184585033265
 24
185.9108366284867
 34
0.0
100
AcDbRotatedDimension
1001
ACAD
1000
DSTYLE
1002
{
1070
   140
1040
6.0
1070
    74
1070
     0
1070
   172
1070
     1
1070
    73
1070
     0
1070
   272
1070
     2
1070
    77
1070
     3
1070
   173
1070
     1
1070
   147
1040
2.0
1070
    42
1040
6.0
1070
    44
1040
3.0
1070
    43
1040
14.0
1070
   271
1070
     0
1070
   178
1070
     4
1070
   177
1070
     4
1070
   176
1070
     4
1070
   141
1040
150.0
1070
     7
1000
_OPEN
1070
     6
1000
_OPEN
1070
    41
1040
7.0
1002
}
  0
DIMENSION
  5
867
330
1A
100
AcDbEntity
  8
SUNPOU
  6
CONTINUOUS
100
AcDbDimension
  2
*D4
 10
276.0687745853881
 20
185.9103366284866
 30
0.0
 11
271.0687745853881
 21
207.9103366284866
 31
0.0
 12
-22.34105930121154
 22
20.00000000000003
 32
0.0
 70
    32
  3
STANDARD
100
AcDbAlignedDimension
 13
252.9186585033265
 23
229.9103366284867
 33
0.0
 14
241.9184585033264
 24
185.9103366284866
 34
0.0
 50
90.0
100
AcDbRotatedDimension
1001
ACAD
1000
DSTYLE
1002
{
1070
   140
1040
6.0
1070
    74
1070
     0
1070
   172
1070
     1
1070
    73
1070
     0
1070
   272
1070
     2
1070
    77
1070
     3
1070
   173
1070
     1
1070
   147
1040
2.0
1070
    42
1040
6.0
1070
    44
1040
3.0
1070
    43
1040
14.0
1070
   271
1070
     0
1070
   178
1070
     4
1070
   177
1070
     4
1070
   176
1070
     4
1070
   141
1040
150.0
1070
     7
1000
_OPEN
1070
     6
1000
_OPEN
1070
    41
1040
7.0
1002
}
  0
DIMENSION
  5
873
330
1A
100
AcDbEntity
  8
SUNPOU
  6
CONTINUOUS
100
AcDbDimension
  2
*D5
 10
276.0687745853881
 20
145.9105366284867
 30
0.0
 11
271.068774585388
 21
165.9104366284867
 31
0.0
 70
    32
  3
STANDARD
100
AcDbAlignedDimension
 13
241.9184585033264
 23
185.9103366284866
 33
0.0
 14
228.9183585033264
 24
145.9105366284867
 34
0.0
 50
90.0
100
AcDbRotatedDimension
1001
ACAD
1000
DSTYLE
1002
{
1070
   287
1070
     4
1070
   287
1070
     4
1070
   287
1070
     4
1070
    41
1040
7.0
1070
    42
1040
6.0
1070
    43
1040
14.0
1070
    44
1040
3.0
1070
    73
1070
     0
1070
    74
1070
     0
1070
    75
1070
     1
1070
    77
1070
     3
1070
   140
1040
6.0
1070
   141
1040
150.0
1070
   147
1040
2.0
1070
   172
1070
     1
1070
   173
1070
     1
1070
   176
1070
     4
1070
   177
1070
     4
1070
   178
1070
     4
1070
   271
1070
     0
1070
   272
1070
     2
1070
   279
1070
     1
1070
     6
1000
OPEN
1070
     7
1000
OPEN
1002
}
  0
DIMENSION
  5
880
330
1A
100
AcDbEntity
  8
SUNPOU
  6
CONTINUOUS
100
AcDbDimension
  2
*D6
 10
296.8026131963322
 20
145.9105366284867
 30
0.0
 11
291.8026131963322
 21
189.9104366284866
 31
0.0
 12
-22.34105930121154
 22
20.00000000000003
 32
0.0
 70
    32
  3
STANDARD
100
AcDbAlignedDimension
 13
256.9186585033265
 23
233.9103366284866
 33
0.0
 14
228.9183585033264
 24
145.9105366284867
 34
0.0
 50
90.0
100
AcDbRotatedDimension
1001
ACAD
1000
DSTYLE
1002
{
1070
   140
1040
6.0
1070
    74
1070
     0
1070
   172
1070
     1
1070
    73
1070
     0
1070
   272
1070
     2
1070
    77
1070
     3
1070
   173
1070
     1
1070
   147
1040
2.0
1070
    42
1040
6.0
1070
    44
1040
3.0
1070
    43
1040
14.0
1070
   271
1070
     0
1070
   178
1070
     4
1070
   177
1070
     4
1070
   176
1070
     4
1070
   141
1040
150.0
1070
     7
1000
_OPEN
1070
     6
1000
_OPEN
1070
    41
1040
7.0
1002
}
  0
DIMENSION
  5
8F0
330
1A
100
AcDbEntity
  8
SUNPOU
  6
CONTINUOUS
100
AcDbDimension
  2
*D7
 10
353.3390474014372
 20
111.5244902719132
 30
0.0
 11
420.8385973766581
 21
116.5244902719132
 31
0.0
 12
-22.34105930121154
 22
0.0000000000000284
 32
0.0
 70
    32
  1
φ<>
  3
STANDARD
100
AcDbAlignedDimension
 13
488.3381473518792
 23
140.710216780403
 33
0.0
 14
353.3390474014372
 24
140.7107366271946
 34
0.0
100
AcDbRotatedDimension
1001
ACAD
1000
DSTYLE
1002
{
1070
   140
1040
6.0
1070
    74
1070
     0
1070
   172
1070
     1
1070
    73
1070
     0
1070
   272
1070
     2
1070
    77
1070
     3
1070
   173
1070
     1
1070
   147
1040
2.0
1070
    42
1040
6.0
1070
    44
1040
3.0
1070
    43
1040
14.0
1070
   271
1070
     0
1070
   178
1070
     4
1070
   177
1070
     4
1070
   176
1070
     4
1070
   141
1040
150.0
1070
     7
1000
_OPEN
1070
     6
1000
_OPEN
1070
    41
1040
7.0
1002
}
  0
DIMENSION
  5
8FF
330
1A
100
AcDbEntity
  8
SUNPOU
  6
CONTINUOUS
100
AcDbDimension
  2
*D8
 10
519.8158554126205
 20
178.7103366284866
 30
0.0
 11
514.8158554126204
 21
198.7104366284867
 31
0.0
 12
-22.34105930121154
 22
0.0000000000000284
 32
0.0
 70
    32
  3
STANDARD
100
AcDbAlignedDimension
 13
496.8387398707966
 23
180.7104366284867
 33
0.0
 14
500.8387398707966
 24
178.7103366284866
 34
0.0
 50
90.0
100
AcDbRotatedDimension
1001
ACAD
1000
DSTYLE
1002
{
1070
   140
1040
6.0
1070
    74
1070
     0
1070
   172
1070
     1
1070
    73
1070
     0
1070
   272
1070
     2
1070
    77
1070
     3
1070
   173
1070
     1
1070
   280
1070
     1
1070
   147
1040
2.0
1070
    42
1040
6.0
1070
    44
1040
3.0
1070
    43
1040
14.0
1070
   271
1070
     0
1070
   178
1070
     4
1070
   177
1070
     4
1070
   176
1070
     4
1070
   141
1040
150.0
1070
     7
1000
_OPEN
1070
     6
1000
_OPEN
1070
    41
1040
7.0
1002
}
  0
DIMENSION
  5
90C
330
1A
100
AcDbEntity
  8
SUNPOU
  6
CONTINUOUS
100
AcDbDimension
  2
*D9
 10
539.3732376215701
 20
138.7104366280835
 30
0.0
 11
534.37323762157
 21
158.710386628285
 31
0.0
 12
-22.34105930121154
 22
0.0000000000000284
 32
0.0
 70
    32
  3
STANDARD
100
AcDbAlignedDimension
 13
500.8387398707966
 23
178.7103366284866
 33
0.0
 14
486.1742474014371
 24
138.7104366280835
 34
0.0
 50
90.0
100
AcDbRotatedDimension
1001
ACAD
1000
DSTYLE
1002
{
1070
   140
1040
6.0
1070
    74
1070
     0
1070
   172
1070
     1
1070
    73
1070
     0
1070
   272
1070
     2
1070
    77
1070
     3
1070
   173
1070
     1
1070
   147
1040
2.0
1070
    42
1040
6.0
1070
    44
1040
3.0
1070
    43
1040
14.0
1070
   271
1070
     0
1070
   178
1070
     4
1070
   177
1070
     4
1070
   176
1070
     4
1070
   141
1040
150.0
1070
     7
1000
_OPEN
1070
     6
1000
_OPEN
1070
    41
1040
7.0
1002
}
  0
DIMENSION
  5
919
330
1A
100
AcDbEntity
  8
SUNPOU
  6
CONTINUOUS
100
AcDbDimension
  2
*D10
 10
560.0206584732197
 20
138.7104366280835
 30
0.0
 11
555.0206584732197
 21
177.7675271144961
 31
0.0
 12
-22.34105930121154
 22
0.0000000000000284
 32
0.0
 70
    32
  3
STANDARD
100
AcDbAlignedDimension
 13
440.8387398707966
 23
216.8246176009088
 33
0.0
 14
486.1742474014371
 24
138.7104366280835
 34
0.0
 50
90.0
100
AcDbRotatedDimension
1001
ACAD
1000
DSTYLE
1002
{
1070
   140
1040
6.0
1070
    74
1070
     0
1070
   172
1070
     1
1070
    73
1070
     0
1070
   272
1070
     2
1070
    77
1070
     3
1070
   173
1070
     1
1070
   147
1040
2.0
1070
    42
1040
6.0
1070
    44
1040
3.0
1070
    43
1040
14.0
1070
   271
1070
     0
1070
   178
1070
     4
1070
   177
1070
     4
1070
   176
1070
     4
1070
   141
1040
150.0
1070
     7
1000
_OPEN
1070
     6
1000
_OPEN
1070
    41
1040
7.0
1002
}
  0
DIMENSION
  5
940
330
1A
100
AcDbEntity
  8
SUNPOU
  6
CONTINUOUS
100
AcDbDimension
  2
*D11
 10
359.0888398707966
 20
240.756727242645
 30
0.0
 11
420.8387398707966
 21
245.7567272426449
 31
0.0
 12
-22.34105930121154
 22
0.0000000000000284
 32
0.0
 70
    32
  1
φ<>
  3
STANDARD
100
AcDbAlignedDimension
 13
482.5886398707965
 23
199.0941366284867
 33
0.0
 14
359.0888398707966
 24
199.0945366284867
 34
0.0
100
AcDbRotatedDimension
1001
ACAD
1000
DSTYLE
1002
{
1070
   140
1040
6.0
1070
    74
1070
     0
1070
   172
1070
     1
1070
    73
1070
     0
1070
   272
1070
     2
1070
    77
1070
     3
1070
   173
1070
     1
1070
   147
1040
2.0
1070
    42
1040
6.0
1070
    44
1040
3.0
1070
    43
1040
14.0
1070
   271
1070
     0
1070
   178
1070
     4
1070
   177
1070
     4
1070
   176
1070
     4
1070
   141
1040
150.0
1070
     7
1000
_OPEN
1070
     6
1000
_OPEN
1070
    41
1040
7.0
1002
}
  0
DIMENSION
  5
94D
330
1A
100
AcDbEntity
  8
SUNPOU
  6
CONTINUOUS
100
AcDbDimension
  2
*D12
 10
340.8386398707967
 20
260.3743668537624
 30
0.0
 11
420.8386898707966
 21
265.3743668537624
 31
0.0
 12
-22.34105930121154
 22
0.0000000000000284
 32
0.0
 70
    32
  1
φ<>
  3
STANDARD
100
AcDbAlignedDimension
 13
500.8387398707966
 23
179.7103366284867
 33
0.0
 14
340.8386398707967
 24
179.7109366284867
 34
0.0
100
AcDbRotatedDimension
1001
ACAD
1000
DSTYLE
1002
{
1070
   140
1040
6.0
1070
    74
1070
     0
1070
   172
1070
     1
1070
    73
1070
     0
1070
   272
1070
     2
1070
    77
1070
     3
1070
   173
1070
     1
1070
   147
1040
2.0
1070
    42
1040
6.0
1070
    44
1040
3.0
1070
    43
1040
14.0
1070
   271
1070
     0
1070
   178
1070
     4
1070
   177
1070
     4
1070
   176
1070
     4
1070
   141
1040
150.0
1070
     7
1000
_OPEN
1070
     6
1000
_OPEN
1070
    41
1040
7.0
1002
}
  0
DIMENSION
  5
A01
330
1A
100
AcDbEntity
  8
SUNPOU
  6
CONTINUOUS
100
AcDbDimension
  2
*D13
 10
614.2166422079656
 20
302.5114089614346
 30
0.0
 11
682.21664150332
 21
307.5114089614346
 31
0.0
 70
    32
  1
穴径 φ<>
  3
STANDARD
100
AcDbAlignedDimension
 13
750.2166407986745
 23
359.6101074033358
 33
0.0
 14
614.2166422079656
 24
359.931200225218
 34
0.0
100
AcDbRotatedDimension
1001
ACAD
1000
DSTYLE
1002
{
1070
   140
1040
6.0
1070
    74
1070
     0
1070
   172
1070
     1
1070
    73
1070
     0
1070
   272
1070
     2
1070
    77
1070
     3
1070
   173
1070
     1
1070
   147
1040
2.0
1070
    42
1040
6.0
1070
    44
1040
3.0
1070
    43
1040
14.0
1070
   271
1070
     0
1070
   178
1070
     4
1070
   177
1070
     4
1070
   176
1070
     4
1070
   141
1040
150.0
1070
     7
1000
_OPEN
1070
     6
1000
_OPEN
1070
    41
1040
7.0
1002
}
  0
LINE
  5
A23
330
1A
100
AcDbEntity
  8
NOKITOI
  6
CONTINUOUS
 62
     6
100
AcDbLine
 10
614.216870462735
 20
365.2215824904707
 30
0.0
 11
587.2168704627349
 21
365.221683740344
 31
0.0
  0
LINE
  5
A24
330
1A
100
AcDbEntity
  8
NOKITOI
  6
CONTINUOUS
 62
     6
100
AcDbLine
 10
614.216870462735
 20
362.721582490453
 30
0.0
 11
587.2168704627349
 21
362.7216837403264
 31
0.0
  0
LINE
  5
A25
330
1A
100
AcDbEntity
  8
NOKITOI
  6
CONTINUOUS
 62
     6
100
AcDbLine
 10
614.216870462735
 20
365.2215824904708
 30
0.0
 11
614.216870462735
 21
362.721582490453
 31
0.0
  0
LINE
  5
A27
330
1A
100
AcDbEntity
  8
NOKITOI
  6
CONTINUOUS
 62
     6
100
AcDbLine
 10
750.2164384689224
 20
362.7209850263096
 30
0.0
 11
777.2164384687701
 21
362.7208490470195
 31
0.0
  0
LINE
  5
A28
330
1A
100
AcDbEntity
  8
NOKITOI
  6
CONTINUOUS
 62
     6
100
AcDbLine
 10
750.2164604345857
 20
365.2209850262307
 30
0.0
 11
777.2164604344333
 21
365.2208490469405
 31
0.0
  0
LINE
  5
A29
330
1A
100
AcDbEntity
  8
NOKITOI
  6
CONTINUOUS
 62
     6
100
AcDbLine
 10
750.2164604345859
 20
365.2209850262308
 30
0.0
 11
750.2164384689224
 21
362.7209850263096
 31
0.0
  0
VIEWPORT
  5
22
330
17
100
AcDbEntity
 67
     1
  8
0
100
AcDbViewport
 10
313.6808219178082
 20
148.5
 30
0.0
 40
627.3616438356165
 41
297.0
 68
     2
 69
     1
1001
ACAD
1000
MVIEW
1002
{
1070
    16
1010
0.0
1020
0.0
1030
0.0
1010
0.0
1020
0.0
1030
1.0
1040
0.0
1040
297.0
1040
313.6808219178082
1040
148.5
1040
50.0
1040
0.0
1040
0.0
1070
     0
1070
   100
1070
     1
1070
     0
1070
     0
1070
     0
1070
     0
1070
     0
1040
0.0
1040
0.0
1040
0.0
1040
1.0
1040
1.0
1040
10.0
1040
10.0
1070
     0
1002
{
1002
}
1002
}
  0
VIEWPORT
  5
64
330
17
100
AcDbEntity
 67
     1
  8
VIEWPORT
100
AcDbViewport
 10
210.0
 20
148.5
 30
0.0
 40
420.0
 41
297.0
 68
     1
 69
     2
1001
ACAD
1000
MVIEW
1002
{
1070
    16
1010
0.0
1020
0.0
1030
0.0
1010
0.0
1020
0.0
1030
1.0
1040
0.0
1040
605.8799999999998
1040
420.0
1040
297.0
1040
50.0
1040
0.0
1040
0.0
1070
     0
1070
   100
1070
     1
1070
     0
1070
     0
1070
     0
1070
     0
1070
     0
1040
0.0
1040
0.0
1040
0.0
1040
10.0
1040
10.0
1040
0.0
1040
0.0
1070
     0
1002
{
1002
}
1002
}
  0
ENDSEC
  0
SECTION
  2
OBJECTS
  0
DICTIONARY
  5
C
330
0
100
AcDbDictionary
  3
ACAD_GROUP
350
D
  3
ACAD_LAYOUT
350
A33
  3
ACAD_MLINESTYLE
350
E
  3
ACAD_PLOTSETTINGS
350
A34
1001
ACAD
1000
TREAT_AS_HARD
1070
     0
  0
DICTIONARY
  5
A60
330
1A
100
AcDbDictionary
  3
ACAD_LAYOUTSELFREF
350
AB4
1001
ACAD
1000
TREAT_AS_HARD
1070
     1
  0
DICTIONARY
  5
A5E
330
17
100
AcDbDictionary
  3
ACAD_LAYOUTSELFREF
350
AB3
1001
ACAD
1000
TREAT_AS_HARD
1070
     1
  0
DICTIONARY
  5
D
102
{ACAD_REACTORS
330
C
102
}
330
C
100
AcDbDictionary
1001
ACAD
1000
TREAT_AS_HARD
1070
     0
  0
DICTIONARY
  5
A33
102
{ACAD_REACTORS
330
C
102
}
330
C
100
AcDbDictionary
1001
ACAD
1000
TREAT_AS_HARD
1070
     0
  0
DICTIONARY
  5
E
102
{ACAD_REACTORS
330
C
102
}
330
C
100
AcDbDictionary
  3
STANDARD
350
13
1001
ACAD
1000
TREAT_AS_HARD
1070
     0
  0
DICTIONARY
  5
A34
102
{ACAD_REACTORS
330
C
102
}
330
C
100
AcDbDictionary
1001
ACAD
1000
TREAT_AS_HARD
1070
     0
  0
XRECORD
  5
AB4
102
{ACAD_REACTORS
330
A60
102
}
330
A60
100
AcDbXrecord
340
1A
  0
XRECORD
  5
AB3
102
{ACAD_REACTORS
330
A5E
102
}
330
A5E
100
AcDbXrecord
340
17
  0
MLINESTYLE
  5
13
102
{ACAD_REACTORS
330
E
102
}
330
E
100
AcDbMlineStyle
  2
STANDARD
 70
     0
  3

 62
     0
 51
90.0
 52
90.0
 71
     2
 49
0.5
 62
   256
  6
BYLAYER
 49
-0.5
 62
   256
  6
BYLAYER
  0
ENDSEC
  0
EOF
