  0
SECTION
  2
HEADER
  9
$ACADVER
  1
AC1012
  9
$DWGCODEPAGE
  3
dos932
  9
$INSBASE
 10
0.0
 20
0.0
 30
0.0
  9
$EXTMIN
 10
10.05047808566086
 20
4.949376903717846
 30
0.0
  9
$EXTMAX
 10
806.2246110975902
 20
563.7825862828226
 30
0.0
  9
$LIMMIN
 10
0.0
 20
0.0
  9
$LIMMAX
 10
840.0
 20
594.0
  9
$ORTHOMODE
 70
     0
  9
$REGENMODE
 70
     1
  9
$FILLMODE
 70
     1
  9
$QTEXTMODE
 70
     0
  9
$MIRRTEXT
 70
     1
  9
$DRAGMODE
 70
     2
  9
$LTSCALE
 40
2.0
  9
$OSMODE
 70
    37
  9
$ATTMODE
 70
     1
  9
$TEXTSIZE
 40
5.0
  9
$TRACEWID
 40
1.0
  9
$TEXTSTYLE
  7
STANDARD
  9
$CLAYER
  8
CENTER_L
  9
$CELTYPE
  6
BYLAYER
  9
$CECOLOR
 62
   256
  9
$CELTSCALE
 40
1.0
  9
$DELOBJ
 70
     1
  9
$DISPSILH
 70
     0
  9
$DIMSCALE
 40
1.0
  9
$DIMASZ
 40
7.0
  9
$DIMEXO
 40
6.0
  9
$DIMDLI
 40
14.0
  9
$DIMRND
 40
0.0
  9
$DIMDLE
 40
0.0
  9
$DIMEXE
 40
3.0
  9
$DIMTP
 40
0.0
  9
$DIMTM
 40
0.0
  9
$DIMTXT
 40
6.0
  9
$DIMCEN
 40
150.0
  9
$DIMTSZ
 40
0.0
  9
$DIMTOL
 70
     0
  9
$DIMLIM
 70
     0
  9
$DIMTIH
 70
     0
  9
$DIMTOH
 70
     0
  9
$DIMSE1
 70
     0
  9
$DIMSE2
 70
     0
  9
$DIMTAD
 70
     3
  9
$DIMZIN
 70
     0
  9
$DIMBLK
  1

  9
$DIMASO
 70
     1
  9
$DIMSHO
 70
     1
  9
$DIMPOST
  1

  9
$DIMAPOST
  1

  9
$DIMALT
 70
     0
  9
$DIMALTD
 70
     2
  9
$DIMALTF
 40
25.4
  9
$DIMLFAC
 40
1.0
  9
$DIMTOFL
 70
     1
  9
$DIMTVP
 40
0.0
  9
$DIMTIX
 70
     0
  9
$DIMSOXD
 70
     0
  9
$DIMSAH
 70
     1
  9
$DIMBLK1
  1
OPEN
  9
$DIMBLK2
  1
OPEN
  9
$DIMSTYLE
  2
STANDARD
  9
$DIMCLRD
 70
   256
  9
$DIMCLRE
 70
   256
  9
$DIMCLRT
 70
   256
  9
$DIMTFAC
 40
1.0
  9
$DIMGAP
 40
2.0
  9
$DIMJUST
 70
     0
  9
$DIMSD1
 70
     0
  9
$DIMSD2
 70
     0
  9
$DIMTOLJ
 70
     1
  9
$DIMTZIN
 70
     0
  9
$DIMALTZ
 70
     0
  9
$DIMALTTZ
 70
     0
  9
$DIMFIT
 70
     3
  9
$DIMUPT
 70
     0
  9
$DIMUNIT
 70
     2
  9
$DIMDEC
 70
     0
  9
$DIMTDEC
 70
     0
  9
$DIMALTU
 70
     2
  9
$DIMALTTD
 70
     2
  9
$DIMTXSTY
  7
STANDARD
  9
$DIMAUNIT
 70
     0
  9
$LUNITS
 70
     2
  9
$LUPREC
 70
     4
  9
$SKETCHINC
 40
1.0
  9
$FILLETRAD
 40
20.0
  9
$AUNITS
 70
     0
  9
$AUPREC
 70
     0
  9
$MENU
  1
.
  9
$ELEVATION
 40
0.0
  9
$PELEVATION
 40
0.0
  9
$THICKNESS
 40
0.0
  9
$LIMCHECK
 70
     0
  9
$BLIPMODE
 70
     0
  9
$CHAMFERA
 40
20.0
  9
$CHAMFERB
 40
20.0
  9
$CHAMFERC
 40
40.0
  9
$CHAMFERD
 40
0.0
  9
$SKPOLY
 70
     0
  9
$TDCREATE
 40
2451275.610258564
  9
$TDUPDATE
 40
2452393.718855451
  9
$TDINDWG
 40
0.0578313542
  9
$TDUSRTIMER
 40
0.0578313542
  9
$USRTIMER
 70
     1
  9
$ANGBASE
 50
0.0
  9
$ANGDIR
 70
     0
  9
$PDMODE
 70
     0
  9
$PDSIZE
 40
0.0
  9
$PLINEWID
 40
0.0
  9
$COORDS
 70
     1
  9
$SPLFRAME
 70
     0
  9
$SPLINETYPE
 70
     6
  9
$SPLINESEGS
 70
     8
  9
$ATTDIA
 70
     0
  9
$ATTREQ
 70
     1
  9
$HANDLING
 70
 10241
  9
$HANDSEED
  5
B2D
  9
$SURFTAB1
 70
     6
  9
$SURFTAB2
 70
     6
  9
$SURFTYPE
 70
     6
  9
$SURFU
 70
     6
  9
$SURFV
 70
     6
  9
$UCSNAME
  2

  9
$UCSORG
 10
0.0
 20
0.0
 30
0.0
  9
$UCSXDIR
 10
1.0
 20
0.0
 30
0.0
  9
$UCSYDIR
 10
0.0
 20
1.0
 30
0.0
  9
$PUCSNAME
  2

  9
$PUCSORG
 10
0.0
 20
0.0
 30
0.0
  9
$PUCSXDIR
 10
1.0
 20
0.0
 30
0.0
  9
$PUCSYDIR
 10
0.0
 20
1.0
 30
0.0
  9
$USERI1
 70
     0
  9
$USERI2
 70
     0
  9
$USERI3
 70
     0
  9
$USERI4
 70
     0
  9
$USERI5
 70
     0
  9
$USERR1
 40
0.0
  9
$USERR2
 40
0.0
  9
$USERR3
 40
0.0
  9
$USERR4
 40
0.0
  9
$USERR5
 40
0.0
  9
$WORLDVIEW
 70
     1
  9
$SHADEDGE
 70
     3
  9
$SHADEDIF
 70
    70
  9
$TILEMODE
 70
     1
  9
$MAXACTVP
 70
    16
  9
$PINSBASE
 10
0.0
 20
0.0
 30
0.0
  9
$PLIMCHECK
 70
     0
  9
$PEXTMIN
 10
0.0
 20
0.0
 30
0.0
  9
$PEXTMAX
 10
420.0
 20
297.0
 30
0.0
  9
$PLIMMIN
 10
0.0
 20
0.0
  9
$PLIMMAX
 10
420.0
 20
297.0
  9
$UNITMODE
 70
     0
  9
$VISRETAIN
 70
     0
  9
$PLINEGEN
 70
     0
  9
$PSLTSCALE
 70
     1
  9
$TREEDEPTH
 70
  3020
  9
$PICKSTYLE
 70
     1
  9
$CMLSTYLE
  2
STANDARD
  9
$CMLJUST
 70
     0
  9
$CMLSCALE
 40
1.0
  9
$SAVEIMAGES
 70
     1
  0
ENDSEC
  0
SECTION
  2
CLASSES
  0
CLASS
  1
ACDBDICTIONARYWDFLT
  2
AcDbDictionaryWithDefault
  3
AutoCAD 2000
 90
    32768
280
     0
281
     0
  0
CLASS
  1
ACDBPLACEHOLDER
  2
AcDbPlaceHolder
  3
AutoCAD 2000
 90
    32768
280
     0
281
     0
  0
CLASS
  1
LAYOUT
  2
AcDbLayout
  3
AutoCAD 2000
 90
    32768
280
     0
281
     0
  0
CLASS
  1
LONG_TRANSACTION
  2
AcDbLongTransaction
  3
AutoCAD 2000
 90
    32768
280
     0
281
     0
  0
CLASS
  1
LWPOLYLINE
  2
AcDbPolyline
  3
AutoCAD 2000
 90
    32768
280
     0
281
     1
  0
CLASS
  1
HATCH
  2
AcDbHatch
  3
AutoCAD 2000
 90
    32768
280
     0
281
     1
  0
CLASS
  1
XRECORD
  2
AcDbXrecord
  3
AutoCAD 2000
 90
    32768
280
     0
281
     0
  0
CLASS
  1
LONG_TRANSACTION
  2
AcDbLongTransaction
  3
AutoCAD 2000
 90
    32768
280
     0
281
     0
  0
CLASS
  1
LWPOLYLINE
  2
AcDbPolyline
  3
AutoCAD 2000
 90
    32768
280
     0
281
     1
  0
CLASS
  1
HATCH
  2
AcDbHatch
  3
AutoCAD 2000
 90
    32768
280
     0
281
     1
  0
CLASS
  1
XRECORD
  2
AcDbXrecord
  3
AutoCAD 2000
 90
    32768
280
     0
281
     0
  0
CLASS
  1
LONG_TRANSACTION
  2
AcDbLongTransaction
  3
AutoCAD 2000
 90
    32768
280
     0
281
     0
  0
CLASS
  1
LWPOLYLINE
  2
AcDbPolyline
  3
AutoCAD 2000
 90
    32768
280
     0
281
     1
  0
CLASS
  1
HATCH
  2
AcDbHatch
  3
AutoCAD 2000
 90
    32768
280
     0
281
     1
  0
CLASS
  1
XRECORD
  2
AcDbXrecord
  3
AutoCAD 2000
 90
    32768
280
     0
281
     0
  0
ENDSEC
  0
SECTION
  2
TABLES
  0
TABLE
  2
VPORT
  5
8
330
0
100
AcDbSymbolTable
 70
     2
  0
VPORT
  5
B22
330
8
100
AcDbSymbolTableRecord
100
AcDbViewportTableRecord
  2
*ACTIVE
 70
     0
 10
0.0
 20
0.0
 11
1.0
 21
1.0
 12
555.1094358082146
 22
297.0800230515304
 13
0.0
 23
0.0
 14
5.0
 24
5.0
 15
0.0
 25
0.0
 16
0.0
 26
0.0
 36
1.0
 17
0.0
 27
0.0
 37
0.0
 40
603.9561034219519
 41
2.169459962756052
 42
50.0
 43
0.0
 44
0.0
 50
0.0
 51
0.0
 71
     0
 72
   100
 73
     1
 74
     0
 75
     0
 76
     0
 77
     0
 78
     0
  0
ENDTAB
  0
TABLE
  2
LTYPE
  5
5
330
0
100
AcDbSymbolTable
 70
     2
  0
LTYPE
  5
14
330
5
100
AcDbSymbolTableRecord
100
AcDbLinetypeTableRecord
  2
BYBLOCK
 70
     0
  3

 72
    65
 73
     0
 40
0.0
  0
LTYPE
  5
15
330
5
100
AcDbSymbolTableRecord
100
AcDbLinetypeTableRecord
  2
BYLAYER
 70
     0
  3

 72
    65
 73
     0
 40
0.0
  0
LTYPE
  5
16
330
5
100
AcDbSymbolTableRecord
100
AcDbLinetypeTableRecord
  2
CONTINUOUS
 70
     0
  3
Solid line
 72
    65
 73
     0
 40
0.0
  0
LTYPE
  5
135
330
5
100
AcDbSymbolTableRecord
100
AcDbLinetypeTableRecord
  2
CENTER
 70
     0
  3
____ _ ____ _ ____ _ ____ _ ____ _ ____ _ ____ 
 72
    65
 73
     4
 40
2.0
 49
1.25
 74
     0
 49
-0.25
 74
     0
 49
0.25
 74
     0
 49
-0.25
 74
     0
  0
ENDTAB
  0
TABLE
  2
LAYER
  5
2
330
0
100
AcDbSymbolTable
 70
     8
  0
LAYER
  5
F
330
2
100
AcDbSymbolTableRecord
100
AcDbLayerTableRecord
  2
0
 70
     0
 62
     7
  6
CONTINUOUS
  0
LAYER
  5
62
330
2
100
AcDbSymbolTableRecord
100
AcDbLayerTableRecord
  2
VIEWPORT
 70
     0
 62
     7
  6
CONTINUOUS
  0
LAYER
  5
65
330
2
100
AcDbSymbolTableRecord
100
AcDbLayerTableRecord
  2
ZUWAKU
 70
     0
 62
     7
  6
CONTINUOUS
  0
LAYER
  5
143
330
2
100
AcDbSymbolTableRecord
100
AcDbLayerTableRecord
  2
SEIHIN
 70
     0
 62
     3
  6
CONTINUOUS
  0
LAYER
  5
144
330
2
100
AcDbSymbolTableRecord
100
AcDbLayerTableRecord
  2
SUNPOU
 70
     0
 62
     4
  6
CONTINUOUS
  0
LAYER
  5
145
330
2
100
AcDbSymbolTableRecord
100
AcDbLayerTableRecord
  2
CENTER_L
 70
     0
 62
     1
  6
CENTER
  0
LAYER
  5
8B2
330
2
100
AcDbSymbolTableRecord
100
AcDbLayerTableRecord
  2
NOKITOI
 70
     0
 62
     6
  6
CONTINUOUS
  0
LAYER
  5
8BB
330
2
100
AcDbSymbolTableRecord
100
AcDbLayerTableRecord
  2
DEFPOINTS
 70
     0
 62
     7
  6
CONTINUOUS
  0
ENDTAB
  0
TABLE
  2
STYLE
  5
3
330
0
100
AcDbSymbolTable
 70
     1
  0
STYLE
  5
10
330
3
100
AcDbSymbolTableRecord
100
AcDbTextStyleTableRecord
  2
STANDARD
 70
     0
 40
0.0
 41
1.0
 50
0.0
 71
     0
 42
5.0
  3
TXT
  4
bigfont.shx
  0
ENDTAB
  0
TABLE
  2
VIEW
  5
6
330
0
100
AcDbSymbolTable
 70
     0
  0
ENDTAB
  0
TABLE
  2
UCS
  5
7
330
0
100
AcDbSymbolTable
 70
     0
  0
ENDTAB
  0
TABLE
  2
APPID
  5
9
330
0
100
AcDbSymbolTable
 70
     1
  0
APPID
  5
11
330
9
100
AcDbSymbolTableRecord
100
AcDbRegAppTableRecord
  2
ACAD
 70
     0
  0
ENDTAB
  0
TABLE
  2
DIMSTYLE
  5
A
330
0
100
AcDbSymbolTable
 70
     1
  0
DIMSTYLE
105
1D
102
{ACAD_REACTORS
330
8C0
330
8CD
330
8DA
330
94A
330
956
330
963
330
970
330
97F
330
98C
330
999
330
9A6
330
9B3
330
A68
102
}
330
A
100
AcDbSymbolTableRecord
100
AcDbDimStyleTableRecord
  2
STANDARD
 70
     0
  3

  4

  5

  6

  7

 40
1.0
 41
0.18
 42
0.0625
 43
0.38
 44
0.18
 45
0.0
 46
0.0
 47
0.0
 48
0.0
140
0.18
141
0.09
142
0.0
143
25.4
144
1.0
145
0.0
146
1.0
147
0.09
 71
     0
 72
     0
 73
     1
 74
     1
 75
     0
 76
     0
 77
     0
 78
     0
170
     0
171
     2
172
     0
173
     0
174
     0
175
     0
176
     0
177
     0
178
     0
270
     2
271
     4
272
     4
273
     2
274
     2
340
10
275
     0
280
     0
281
     0
282
     0
283
     1
284
     0
285
     0
286
     0
287
     3
288
     0
  0
ENDTAB
  0
TABLE
  2
BLOCK_RECORD
  5
1
330
0
100
AcDbSymbolTable
 70
    14
  0
BLOCK_RECORD
  5
1A
102
{ACAD_XDICTIONARY
360
AD0
102
}
330
1
100
AcDbSymbolTableRecord
100
AcDbBlockTableRecord
  2
*MODEL_SPACE
  0
BLOCK_RECORD
  5
17
102
{ACAD_XDICTIONARY
360
ACE
102
}
330
1
100
AcDbSymbolTableRecord
100
AcDbBlockTableRecord
  2
*PAPER_SPACE
  0
BLOCK_RECORD
  5
6D
330
1
100
AcDbSymbolTableRecord
100
AcDbBlockTableRecord
  2
_OPEN
  0
BLOCK_RECORD
  5
8B3
330
1
100
AcDbSymbolTableRecord
100
AcDbBlockTableRecord
  2
*D1
  0
BLOCK_RECORD
  5
8C1
330
1
100
AcDbSymbolTableRecord
100
AcDbBlockTableRecord
  2
*D2
  0
BLOCK_RECORD
  5
8CE
330
1
100
AcDbSymbolTableRecord
100
AcDbBlockTableRecord
  2
*D3
  0
BLOCK_RECORD
  5
93E
330
1
100
AcDbSymbolTableRecord
100
AcDbBlockTableRecord
  2
*D4
  0
BLOCK_RECORD
  5
94B
330
1
100
AcDbSymbolTableRecord
100
AcDbBlockTableRecord
  2
*D5
  0
BLOCK_RECORD
  5
957
330
1
100
AcDbSymbolTableRecord
100
AcDbBlockTableRecord
  2
*D6
  0
BLOCK_RECORD
  5
964
330
1
100
AcDbSymbolTableRecord
100
AcDbBlockTableRecord
  2
*D7
  0
BLOCK_RECORD
  5
971
330
1
100
AcDbSymbolTableRecord
100
AcDbBlockTableRecord
  2
*D8
  0
BLOCK_RECORD
  5
980
330
1
100
AcDbSymbolTableRecord
100
AcDbBlockTableRecord
  2
*D9
  0
BLOCK_RECORD
  5
98D
330
1
100
AcDbSymbolTableRecord
100
AcDbBlockTableRecord
  2
*D10
  0
BLOCK_RECORD
  5
99A
330
1
100
AcDbSymbolTableRecord
100
AcDbBlockTableRecord
  2
*D11
  0
BLOCK_RECORD
  5
9A7
330
1
100
AcDbSymbolTableRecord
100
AcDbBlockTableRecord
  2
*D12
  0
BLOCK_RECORD
  5
A5C
330
1
100
AcDbSymbolTableRecord
100
AcDbBlockTableRecord
  2
*D13
  0
ENDTAB
  0
ENDSEC
  0
SECTION
  2
BLOCKS
  0
BLOCK
  5
1B
330
1A
100
AcDbEntity
  8
0
100
AcDbBlockBegin
  2
*MODEL_SPACE
 70
     0
 10
0.0
 20
0.0
 30
0.0
  3
*MODEL_SPACE
  1

  0
ENDBLK
  5
1C
330
1A
100
AcDbEntity
  8
0
100
AcDbBlockEnd
  0
BLOCK
  5
18
330
17
100
AcDbEntity
 67
     1
  8
0
100
AcDbBlockBegin
  2
*PAPER_SPACE
 70
     0
 10
0.0
 20
0.0
 30
0.0
  3
*PAPER_SPACE
  1

  0
ENDBLK
  5
19
330
17
100
AcDbEntity
 67
     1
  8
0
100
AcDbBlockEnd
  0
BLOCK
  5
6E
330
6D
100
AcDbEntity
  8
0
100
AcDbBlockBegin
  2
_OPEN
 70
     0
 10
0.0
 20
0.0
 30
0.0
  3
_OPEN
  1

  0
LINE
  5
6F
330
6D
100
AcDbEntity
  8
0
  6
BYBLOCK
 62
     0
100
AcDbLine
 10
-1.0
 20
0.1666666666666666
 30
0.0
 11
0.0
 21
0.0
 31
0.0
  0
LINE
  5
70
330
6D
100
AcDbEntity
  8
0
  6
BYBLOCK
 62
     0
100
AcDbLine
 10
0.0
 20
0.0
 30
0.0
 11
-1.0
 21
-0.1666666666666666
 31
0.0
  0
LINE
  5
71
330
6D
100
AcDbEntity
  8
0
  6
BYBLOCK
 62
     0
100
AcDbLine
 10
0.0
 20
0.0
 30
0.0
 11
-1.0
 21
0.0
 31
0.0
  0
ENDBLK
  5
72
330
6D
100
AcDbEntity
  8
0
100
AcDbBlockEnd
  0
BLOCK
  5
8F1
330
8B3
100
AcDbEntity
  8
0
100
AcDbBlockBegin
  2
*D1
 70
     1
 10
0.0
 20
0.0
 30
0.0
  3
*D1
  1

  0
LINE
  5
8F2
330
8B3
100
AcDbEntity
  8
0
  6
BYBLOCK
 62
     4
100
AcDbLine
 10
236.1728746998995
 20
195.3408812873238
 30
0.0
 11
236.1728746998995
 21
213.6327445824426
 31
0.0
  0
LINE
  5
8F3
330
8B3
100
AcDbEntity
  8
0
  6
BYBLOCK
 62
     4
100
AcDbLine
 10
36.17277469989955
 20
195.3412812879237
 30
0.0
 11
36.17277469989955
 21
213.6327445824426
 31
0.0
  0
LINE
  5
8F4
330
8B3
100
AcDbEntity
  8
0
  6
BYBLOCK
 62
     4
100
AcDbLine
 10
229.1728746998995
 20
210.6327445824426
 30
0.0
 11
43.17277469989955
 21
210.6327445824426
 31
0.0
  0
INSERT
  5
8F5
330
8B3
100
AcDbEntity
  8
0
  6
BYBLOCK
 62
     4
100
AcDbBlockReference
  2
_OPEN
 10
236.1728746998995
 20
210.6327445824426
 30
0.0
 41
7.0
 42
7.0
 43
7.0
  0
INSERT
  5
8F6
330
8B3
100
AcDbEntity
  8
0
  6
BYBLOCK
 62
     4
100
AcDbBlockReference
  2
_OPEN
 10
36.17277469989955
 20
210.6327445824426
 30
0.0
 41
7.0
 42
7.0
 43
7.0
 50
180.0
  0
MTEXT
  5
8F7
330
8B3
100
AcDbEntity
  8
0
  6
BYBLOCK
 62
     4
100
AcDbMText
 10
136.1728246998995
 20
215.6327445824426
 30
0.0
 40
6.0
 41
0.0
 71
     5
 72
     1
  1
\A1;φ200
1001
ACAD
1000
MTEXTBEGIN
1070
    73
1070
     1
1070
    44
1040
1.0
1070
    74
1070
     0
1000
MTEXTEND
1000
MTEXTBEGIN
1070
    73
1070
     1
1070
    44
1040
1.0
1070
    74
1070
     0
1000
MTEXTEND
1000
MTEXTBEGIN
1070
    73
1070
     1
1070
    44
1040
1.0
1070
    74
1070
     0
1000
MTEXTEND
  0
POINT
  5
8F8
330
8B3
100
AcDbEntity
  8
DEFPOINTS
  6
BYBLOCK
 62
     0
100
AcDbPoint
 10
236.1728746998995
 20
189.3408812873238
 30
0.0
  0
POINT
  5
8F9
330
8B3
100
AcDbEntity
  8
DEFPOINTS
  6
BYBLOCK
 62
     0
100
AcDbPoint
 10
36.17277469989955
 20
189.3412812879237
 30
0.0
  0
POINT
  5
8FA
330
8B3
100
AcDbEntity
  8
DEFPOINTS
  6
BYBLOCK
 62
     0
100
AcDbPoint
 10
36.17277469989955
 20
210.6327445824426
 30
0.0
  0
ENDBLK
  5
8FB
330
8B3
100
AcDbEntity
  8
0
100
AcDbBlockEnd
  0
BLOCK
  5
912
330
8C1
100
AcDbEntity
  8
0
100
AcDbBlockBegin
  2
*D2
 70
     1
 10
0.0
 20
0.0
 30
0.0
  3
*D2
  1

  0
LINE
  5
913
330
8C1
100
AcDbEntity
  8
0
  6
BYBLOCK
 62
     4
100
AcDbLine
 10
206.4226746998995
 20
115.8408812879237
 30
0.0
 11
206.4226746998995
 21
90.56326925393955
 31
0.0
  0
LINE
  5
914
330
8C1
100
AcDbEntity
  8
0
  6
BYBLOCK
 62
     4
100
AcDbLine
 10
65.92247469989956
 20
115.8411812879237
 30
0.0
 11
65.92247469989956
 21
90.56326925393955
 31
0.0
  0
LINE
  5
915
330
8C1
100
AcDbEntity
  8
0
  6
BYBLOCK
 62
     4
100
AcDbLine
 10
199.4226746998995
 20
93.56326925393956
 30
0.0
 11
72.92247469989956
 21
93.56326925393956
 31
0.0
  0
INSERT
  5
916
330
8C1
100
AcDbEntity
  8
0
  6
BYBLOCK
 62
     4
100
AcDbBlockReference
  2
_OPEN
 10
206.4226746998995
 20
93.56326925393956
 30
0.0
 41
7.0
 42
7.0
 43
7.0
  0
INSERT
  5
917
330
8C1
100
AcDbEntity
  8
0
  6
BYBLOCK
 62
     4
100
AcDbBlockReference
  2
_OPEN
 10
65.92247469989956
 20
93.56326925393956
 30
0.0
 41
7.0
 42
7.0
 43
7.0
 50
180.0
  0
MTEXT
  5
918
330
8C1
100
AcDbEntity
  8
0
  6
BYBLOCK
 62
     4
100
AcDbMText
 10
136.1725746998995
 20
98.56326925393956
 30
0.0
 40
6.0
 41
0.0
 71
     5
 72
     1
  1
\A1;φ141
1001
ACAD
1000
MTEXTBEGIN
1070
    73
1070
     1
1070
    44
1040
1.0
1070
    74
1070
     0
1000
MTEXTEND
1000
MTEXTBEGIN
1070
    73
1070
     1
1070
    44
1040
1.0
1070
    74
1070
     0
1000
MTEXTEND
1000
MTEXTBEGIN
1070
    73
1070
     1
1070
    44
1040
1.0
1070
    74
1070
     0
1000
MTEXTEND
  0
POINT
  5
919
330
8C1
100
AcDbEntity
  8
DEFPOINTS
  6
BYBLOCK
 62
     0
100
AcDbPoint
 10
206.4226746998995
 20
121.8408812879237
 30
0.0
  0
POINT
  5
91A
330
8C1
100
AcDbEntity
  8
DEFPOINTS
  6
BYBLOCK
 62
     0
100
AcDbPoint
 10
65.92247469989956
 20
121.8411812879237
 30
0.0
  0
POINT
  5
91B
330
8C1
100
AcDbEntity
  8
DEFPOINTS
  6
BYBLOCK
 62
     0
100
AcDbPoint
 10
65.92247469989956
 20
93.56326925393956
 30
0.0
  0
ENDBLK
  5
91C
330
8C1
100
AcDbEntity
  8
0
100
AcDbBlockEnd
  0
BLOCK
  5
933
330
8CE
100
AcDbEntity
  8
0
100
AcDbBlockBegin
  2
*D3
 70
     1
 10
0.0
 20
0.0
 30
0.0
  3
*D3
  1

  0
LINE
  5
934
330
8CE
100
AcDbEntity
  8
0
  6
BYBLOCK
 62
     4
100
AcDbLine
 10
218.8977746998995
 20
145.8408812879238
 30
0.0
 11
218.8977746998995
 21
69.43906210871137
 31
0.0
  0
LINE
  5
935
330
8CE
100
AcDbEntity
  8
0
  6
BYBLOCK
 62
     4
100
AcDbLine
 10
53.44757469989957
 20
145.8412812879237
 30
0.0
 11
53.44757469989957
 21
69.43906210871137
 31
0.0
  0
LINE
  5
936
330
8CE
100
AcDbEntity
  8
0
  6
BYBLOCK
 62
     4
100
AcDbLine
 10
211.8977746998994
 20
72.43906210871137
 30
0.0
 11
60.44757469989957
 21
72.43906210871137
 31
0.0
  0
INSERT
  5
937
330
8CE
100
AcDbEntity
  8
0
  6
BYBLOCK
 62
     4
100
AcDbBlockReference
  2
_OPEN
 10
218.8977746998995
 20
72.43906210871137
 30
0.0
 41
7.0
 42
7.0
 43
7.0
  0
INSERT
  5
938
330
8CE
100
AcDbEntity
  8
0
  6
BYBLOCK
 62
     4
100
AcDbBlockReference
  2
_OPEN
 10
53.44757469989957
 20
72.43906210871137
 30
0.0
 41
7.0
 42
7.0
 43
7.0
 50
180.0
  0
MTEXT
  5
939
330
8CE
100
AcDbEntity
  8
0
  6
BYBLOCK
 62
     4
100
AcDbMText
 10
136.1726746998995
 20
77.43906210871137
 30
0.0
 40
6.0
 41
0.0
 71
     5
 72
     1
  1
\A1;φ165
1001
ACAD
1000
MTEXTBEGIN
1070
    73
1070
     1
1070
    44
1040
1.0
1070
    74
1070
     0
1000
MTEXTEND
1000
MTEXTBEGIN
1070
    73
1070
     1
1070
    44
1040
1.0
1070
    74
1070
     0
1000
MTEXTEND
1000
MTEXTBEGIN
1070
    73
1070
     1
1070
    44
1040
1.0
1070
    74
1070
     0
1000
MTEXTEND
  0
POINT
  5
93A
330
8CE
100
AcDbEntity
  8
DEFPOINTS
  6
BYBLOCK
 62
     0
100
AcDbPoint
 10
218.8977746998995
 20
151.8408812879238
 30
0.0
  0
POINT
  5
93B
330
8CE
100
AcDbEntity
  8
DEFPOINTS
  6
BYBLOCK
 62
     0
100
AcDbPoint
 10
53.44757469989957
 20
151.8412812879237
 30
0.0
  0
POINT
  5
93C
330
8CE
100
AcDbEntity
  8
DEFPOINTS
  6
BYBLOCK
 62
     0
100
AcDbPoint
 10
53.44757469989957
 20
72.43906210871137
 30
0.0
  0
ENDBLK
  5
93D
330
8CE
100
AcDbEntity
  8
0
100
AcDbBlockEnd
  0
BLOCK
  5
A2C
330
93E
100
AcDbEntity
  8
0
100
AcDbBlockBegin
  2
*D4
 70
     1
 10
0.0
 20
0.0
 30
0.0
  3
*D4
  1

  0
LINE
  5
A2D
330
93E
100
AcDbEntity
  8
0
  6
BYBLOCK
 62
     4
100
AcDbLine
 10
237.1730746946371
 20
186.8408812868712
 30
0.0
 11
256.0319427071699
 21
186.8408812868712
 31
0.0
  0
LINE
  5
A2E
330
93E
100
AcDbEntity
  8
0
  6
BYBLOCK
 62
     4
100
AcDbLine
 10
224.8977746998995
 20
151.8408812879238
 30
0.0
 11
256.0319427071699
 21
151.8408812879238
 31
0.0
  0
LINE
  5
A2F
330
93E
100
AcDbEntity
  8
0
  6
BYBLOCK
 62
     4
100
AcDbLine
 10
253.0319427071699
 20
179.8408812868712
 30
0.0
 11
253.0319427071699
 21
158.8408812879238
 31
0.0
  0
INSERT
  5
A30
330
93E
100
AcDbEntity
  8
0
  6
BYBLOCK
 62
     4
100
AcDbBlockReference
  2
_OPEN
 10
253.0319427071699
 20
186.8408812868712
 30
0.0
 41
7.0
 42
7.0
 43
7.0
 50
90.0
  0
INSERT
  5
A31
330
93E
100
AcDbEntity
  8
0
  6
BYBLOCK
 62
     4
100
AcDbBlockReference
  2
_OPEN
 10
253.0319427071699
 20
151.8408812879238
 30
0.0
 41
7.0
 42
7.0
 43
7.0
 50
270.0
  0
MTEXT
  5
A32
330
93E
100
AcDbEntity
  8
0
  6
BYBLOCK
 62
     4
100
AcDbMText
 10
248.0319427071699
 20
169.3408812873975
 30
0.0
 40
6.0
 41
0.0
 71
     5
 72
     1
  1
\A1;35
 11
0.0
 21
1.0
 31
0.0
1001
ACAD
1000
MTEXTBEGIN
1070
    73
1070
     1
1070
    44
1040
1.0
1070
    74
1070
     0
1000
MTEXTEND
1000
MTEXTBEGIN
1070
    73
1070
     1
1070
    44
1040
1.0
1070
    74
1070
     0
1000
MTEXTEND
1000
MTEXTBEGIN
1070
    73
1070
     1
1070
    44
1040
1.0
1070
    74
1070
     0
1000
MTEXTEND
  0
POINT
  5
A33
330
93E
100
AcDbEntity
  8
DEFPOINTS
  6
BYBLOCK
 62
     0
100
AcDbPoint
 10
231.1730746946371
 20
186.8408812868712
 30
0.0
  0
POINT
  5
A34
330
93E
100
AcDbEntity
  8
DEFPOINTS
  6
BYBLOCK
 62
     0
100
AcDbPoint
 10
218.8977746998995
 20
151.8408812879238
 30
0.0
  0
POINT
  5
A35
330
93E
100
AcDbEntity
  8
DEFPOINTS
  6
BYBLOCK
 62
     0
100
AcDbPoint
 10
253.0319427071699
 20
151.8408812879238
 30
0.0
  0
ENDBLK
  5
A36
330
93E
100
AcDbEntity
  8
0
100
AcDbBlockEnd
  0
BLOCK
  5
A22
330
94B
100
AcDbEntity
  8
0
100
AcDbBlockBegin
  2
*D5
 70
     1
 10
0.0
 20
0.0
 30
0.0
  3
*D5
  1

  0
LINE
  5
B25
330
94B
100
AcDbEntity
  8
SUNPOU
  6
CONTINUOUS
 62
     4
100
AcDbLine
 10
212.4226747002328
 20
136.8409812877814
 30
0.0
 11
256.03194270717
 21
136.8409812877814
 31
0.0
  0
LINE
  5
B26
330
94B
100
AcDbEntity
  8
SUNPOU
  6
CONTINUOUS
 62
     4
100
AcDbLine
 10
253.0319427071699
 20
159.8408812879238
 30
0.0
 11
253.0319427071699
 21
143.8409812877814
 31
0.0
  0
INSERT
  5
B27
330
94B
100
AcDbEntity
  8
SUNPOU
  6
CONTINUOUS
 62
     4
100
AcDbBlockReference
  2
_OPEN
 10
253.0319427071699
 20
166.8408812879238
 30
0.0
 41
7.0
 42
7.0
 43
7.0
 50
90.0
  0
INSERT
  5
B28
330
94B
100
AcDbEntity
  8
SUNPOU
  6
CONTINUOUS
 62
     4
100
AcDbBlockReference
  2
_OPEN
 10
253.0319427071699
 20
136.8409812877814
 30
0.0
 41
7.0
 42
7.0
 43
7.0
 50
270.0
  0
MTEXT
  5
B29
330
94B
100
AcDbEntity
  8
SUNPOU
  6
CONTINUOUS
 62
     4
100
AcDbMText
 10
248.0319427071699
 20
151.8409312878526
 30
0.0
 40
6.0
 41
0.0
 71
     5
 72
     1
  1
\A1;30
 11
0.0000000000000001
 21
1.0
 31
0.0
  0
POINT
  5
B2A
330
94B
100
AcDbEntity
  8
DEFPOINTS
  6
CONTINUOUS
 62
     0
100
AcDbPoint
 10
218.8977746998995
 20
166.8408812879238
 30
0.0
  0
POINT
  5
B2B
330
94B
100
AcDbEntity
  8
DEFPOINTS
  6
CONTINUOUS
 62
     0
100
AcDbPoint
 10
206.4226747002328
 20
136.8409812877814
 30
0.0
  0
POINT
  5
B2C
330
94B
100
AcDbEntity
  8
DEFPOINTS
  6
CONTINUOUS
 62
     0
100
AcDbPoint
 10
253.0319427071699
 20
136.8409812877814
 30
0.0
  0
ENDBLK
  5
A2B
330
94B
100
AcDbEntity
  8
0
100
AcDbBlockEnd
  0
BLOCK
  5
A17
330
957
100
AcDbEntity
  8
0
100
AcDbBlockBegin
  2
*D6
 70
     1
 10
0.0
 20
0.0
 30
0.0
  3
*D6
  1

  0
LINE
  5
A18
330
957
100
AcDbEntity
  8
0
  6
BYBLOCK
 62
     4
100
AcDbLine
 10
242.1728746998995
 20
189.3408812873238
 30
0.0
 11
276.2675905343662
 21
189.3408812873238
 31
0.0
  0
LINE
  5
A19
330
957
100
AcDbEntity
  8
0
  6
BYBLOCK
 62
     4
100
AcDbLine
 10
212.4226747002328
 20
121.8409812877814
 30
0.0
 11
276.2675905343662
 21
121.8409812877814
 31
0.0
  0
LINE
  5
A1A
330
957
100
AcDbEntity
  8
0
  6
BYBLOCK
 62
     4
100
AcDbLine
 10
273.2675905343662
 20
182.3408812873238
 30
0.0
 11
273.2675905343662
 21
128.8409812877814
 31
0.0
  0
INSERT
  5
A1B
330
957
100
AcDbEntity
  8
0
  6
BYBLOCK
 62
     4
100
AcDbBlockReference
  2
_OPEN
 10
273.2675905343662
 20
189.3408812873238
 30
0.0
 41
7.0
 42
7.0
 43
7.0
 50
90.0
  0
INSERT
  5
A1C
330
957
100
AcDbEntity
  8
0
  6
BYBLOCK
 62
     4
100
AcDbBlockReference
  2
_OPEN
 10
273.2675905343662
 20
121.8409812877814
 30
0.0
 41
7.0
 42
7.0
 43
7.0
 50
270.0
  0
MTEXT
  5
A1D
330
957
100
AcDbEntity
  8
0
  6
BYBLOCK
 62
     4
100
AcDbMText
 10
268.2675905343662
 20
155.5909312875526
 30
0.0
 40
6.0
 41
0.0
 71
     5
 72
     1
  1
\A1;67
 11
0.0
 21
1.0
 31
0.0
1001
ACAD
1000
MTEXTBEGIN
1070
    73
1070
     1
1070
    44
1040
1.0
1070
    74
1070
     0
1000
MTEXTEND
1000
MTEXTBEGIN
1070
    73
1070
     1
1070
    44
1040
1.0
1070
    74
1070
     0
1000
MTEXTEND
1000
MTEXTBEGIN
1070
    73
1070
     1
1070
    44
1040
1.0
1070
    74
1070
     0
1000
MTEXTEND
  0
POINT
  5
A1E
330
957
100
AcDbEntity
  8
DEFPOINTS
  6
BYBLOCK
 62
     0
100
AcDbPoint
 10
236.1728746998995
 20
189.3408812873238
 30
0.0
  0
POINT
  5
A1F
330
957
100
AcDbEntity
  8
DEFPOINTS
  6
BYBLOCK
 62
     0
100
AcDbPoint
 10
206.4226747002328
 20
121.8409812877814
 30
0.0
  0
POINT
  5
A20
330
957
100
AcDbEntity
  8
DEFPOINTS
  6
BYBLOCK
 62
     0
100
AcDbPoint
 10
273.2675905343662
 20
121.8409812877814
 30
0.0
  0
ENDBLK
  5
A21
330
957
100
AcDbEntity
  8
0
100
AcDbBlockEnd
  0
BLOCK
  5
A0C
330
964
100
AcDbEntity
  8
0
100
AcDbBlockBegin
  2
*D7
 70
     1
 10
0.0
 20
0.0
 30
0.0
  3
*D7
  1

  0
LINE
  5
A0D
330
964
100
AcDbEntity
  8
0
  6
BYBLOCK
 62
     4
100
AcDbLine
 10
499.0489325708884
 20
127.4078328617289
 30
0.0
 11
499.0489325708884
 21
99.1806881172563
 31
0.0
  0
LINE
  5
A0E
330
964
100
AcDbEntity
  8
0
  6
BYBLOCK
 62
     4
100
AcDbLine
 10
339.0483744700721
 20
127.4082051911372
 30
0.0
 11
339.0483744700721
 21
99.1806881172563
 31
0.0
  0
LINE
  5
A0F
330
964
100
AcDbEntity
  8
0
  6
BYBLOCK
 62
     4
100
AcDbLine
 10
492.0489325708883
 20
102.1806881172562
 30
0.0
 11
346.0483744700721
 21
102.1806881172562
 31
0.0
  0
INSERT
  5
A10
330
964
100
AcDbEntity
  8
0
  6
BYBLOCK
 62
     4
100
AcDbBlockReference
  2
_OPEN
 10
499.0489325708884
 20
102.1806881172562
 30
0.0
 41
7.0
 42
7.0
 43
7.0
  0
INSERT
  5
A11
330
964
100
AcDbEntity
  8
0
  6
BYBLOCK
 62
     4
100
AcDbBlockReference
  2
_OPEN
 10
339.0483744700721
 20
102.1806881172562
 30
0.0
 41
7.0
 42
7.0
 43
7.0
 50
180.0
  0
MTEXT
  5
A12
330
964
100
AcDbEntity
  8
0
  6
BYBLOCK
 62
     4
100
AcDbMText
 10
419.0486535204802
 20
107.1806881172562
 30
0.0
 40
6.0
 41
0.0
 71
     5
 72
     1
  1
\A1;φ160
1001
ACAD
1000
MTEXTBEGIN
1070
    73
1070
     1
1070
    44
1040
1.0
1070
    74
1070
     0
1000
MTEXTEND
1000
MTEXTBEGIN
1070
    73
1070
     1
1070
    44
1040
1.0
1070
    74
1070
     0
1000
MTEXTEND
1000
MTEXTBEGIN
1070
    73
1070
     1
1070
    44
1040
1.0
1070
    74
1070
     0
1000
MTEXTEND
  0
POINT
  5
A13
330
964
100
AcDbEntity
  8
DEFPOINTS
  6
BYBLOCK
 62
     0
100
AcDbPoint
 10
499.0489325708884
 20
133.4078328617289
 30
0.0
  0
POINT
  5
A14
330
964
100
AcDbEntity
  8
DEFPOINTS
  6
BYBLOCK
 62
     0
100
AcDbPoint
 10
339.0483744700721
 20
133.4082051911372
 30
0.0
  0
POINT
  5
A15
330
964
100
AcDbEntity
  8
DEFPOINTS
  6
BYBLOCK
 62
     0
100
AcDbPoint
 10
339.0483744700721
 20
102.1806881172562
 30
0.0
  0
ENDBLK
  5
A16
330
964
100
AcDbEntity
  8
0
100
AcDbBlockEnd
  0
BLOCK
  5
A4D
330
971
100
AcDbEntity
  8
0
100
AcDbBlockBegin
  2
*D8
 70
     1
 10
0.0
 20
0.0
 30
0.0
  3
*D8
  1

  0
LINE
  5
A4E
330
971
100
AcDbEntity
  8
0
  6
BYBLOCK
 62
     4
100
AcDbLine
 10
525.0482439374953
 20
165.407637231484
 30
0.0
 11
535.7654011506784
 21
165.407637231484
 31
0.0
  0
LINE
  5
A4F
330
971
100
AcDbEntity
  8
0
  6
BYBLOCK
 62
     4
100
AcDbLine
 10
520.0482439374952
 20
167.407737231484
 30
0.0
 11
535.7654011506784
 21
167.407737231484
 31
0.0
  0
LINE
  5
A50
330
971
100
AcDbEntity
  8
0
  6
BYBLOCK
 62
     4
100
AcDbLine
 10
532.7654011506783
 20
158.407637231484
 30
0.0
 11
532.7654011506783
 21
151.407637231484
 31
0.0
  0
LINE
  5
A51
330
971
100
AcDbEntity
  8
0
  6
BYBLOCK
 62
     4
100
AcDbLine
 10
532.7654011506783
 20
174.407737231484
 30
0.0
 11
532.7654011506783
 21
189.407737231484
 31
0.0
  0
LINE
  5
A52
330
971
100
AcDbEntity
  8
0
  6
BYBLOCK
 62
     4
100
AcDbLine
 10
532.7654011506783
 20
165.407637231484
 30
0.0
 11
532.7654011506783
 21
167.407737231484
 31
0.0
  0
INSERT
  5
A53
330
971
100
AcDbEntity
  8
0
  6
BYBLOCK
 62
     4
100
AcDbBlockReference
  2
_OPEN
 10
532.7654011506783
 20
165.407637231484
 30
0.0
 41
7.0
 42
7.0
 43
7.0
 50
90.0
  0
INSERT
  5
A54
330
971
100
AcDbEntity
  8
0
  6
BYBLOCK
 62
     4
100
AcDbBlockReference
  2
_OPEN
 10
532.7654011506783
 20
167.407737231484
 30
0.0
 41
7.0
 42
7.0
 43
7.0
 50
270.0
  0
MTEXT
  5
A55
330
971
100
AcDbEntity
  8
0
  6
BYBLOCK
 62
     4
100
AcDbMText
 10
527.7654011506784
 20
185.407737231484
 30
0.0
 40
6.0
 41
0.0
 71
     5
 72
     1
  1
\A1;2
 11
0.0
 21
1.0
 31
0.0
1001
ACAD
1000
MTEXTBEGIN
1070
    73
1070
     1
1070
    44
1040
1.0
1070
    74
1070
     0
1000
MTEXTEND
1000
MTEXTBEGIN
1070
    73
1070
     1
1070
    44
1040
1.0
1070
    74
1070
     0
1000
MTEXTEND
1000
MTEXTBEGIN
1070
    73
1070
     1
1070
    44
1040
1.0
1070
    74
1070
     0
1000
MTEXTEND
  0
POINT
  5
A56
330
971
100
AcDbEntity
  8
DEFPOINTS
  6
BYBLOCK
 62
     0
100
AcDbPoint
 10
519.0482439374952
 20
165.407637231484
 30
0.0
  0
POINT
  5
A57
330
971
100
AcDbEntity
  8
DEFPOINTS
  6
BYBLOCK
 62
     0
100
AcDbPoint
 10
514.0482439374952
 20
167.407737231484
 30
0.0
  0
POINT
  5
A58
330
971
100
AcDbEntity
  8
DEFPOINTS
  6
BYBLOCK
 62
     0
100
AcDbPoint
 10
532.7654011506783
 20
167.407737231484
 30
0.0
  0
ENDBLK
  5
A59
330
971
100
AcDbEntity
  8
0
100
AcDbBlockEnd
  0
BLOCK
  5
A42
330
980
100
AcDbEntity
  8
0
100
AcDbBlockBegin
  2
*D9
 70
     1
 10
0.0
 20
0.0
 30
0.0
  3
*D9
  1

  0
LINE
  5
A43
330
980
100
AcDbEntity
  8
0
  6
BYBLOCK
 62
     4
100
AcDbLine
 10
525.0482439374953
 20
165.407637231484
 30
0.0
 11
553.9464990644114
 21
165.407637231484
 31
0.0
  0
LINE
  5
A44
330
980
100
AcDbEntity
  8
0
  6
BYBLOCK
 62
     4
100
AcDbLine
 10
502.8840325708883
 20
130.407843792679
 30
0.0
 11
553.9464990644114
 21
130.407843792679
 31
0.0
  0
LINE
  5
A45
330
980
100
AcDbEntity
  8
0
  6
BYBLOCK
 62
     4
100
AcDbLine
 10
550.9464990644114
 20
158.407637231484
 30
0.0
 11
550.9464990644114
 21
137.407843792679
 31
0.0
  0
INSERT
  5
A46
330
980
100
AcDbEntity
  8
0
  6
BYBLOCK
 62
     4
100
AcDbBlockReference
  2
_OPEN
 10
550.9464990644114
 20
165.407637231484
 30
0.0
 41
7.0
 42
7.0
 43
7.0
 50
90.0
  0
INSERT
  5
A47
330
980
100
AcDbEntity
  8
0
  6
BYBLOCK
 62
     4
100
AcDbBlockReference
  2
_OPEN
 10
550.9464990644114
 20
130.407843792679
 30
0.0
 41
7.0
 42
7.0
 43
7.0
 50
270.0
  0
MTEXT
  5
A48
330
980
100
AcDbEntity
  8
0
  6
BYBLOCK
 62
     4
100
AcDbMText
 10
545.9464990644114
 20
147.9077405120815
 30
0.0
 40
6.0
 41
0.0
 71
     5
 72
     1
  1
\A1;35
 11
0.0
 21
1.0
 31
0.0
1001
ACAD
1000
MTEXTBEGIN
1070
    73
1070
     1
1070
    44
1040
1.0
1070
    74
1070
     0
1000
MTEXTEND
1000
MTEXTBEGIN
1070
    73
1070
     1
1070
    44
1040
1.0
1070
    74
1070
     0
1000
MTEXTEND
1000
MTEXTBEGIN
1070
    73
1070
     1
1070
    44
1040
1.0
1070
    74
1070
     0
1000
MTEXTEND
  0
POINT
  5
A49
330
980
100
AcDbEntity
  8
DEFPOINTS
  6
BYBLOCK
 62
     0
100
AcDbPoint
 10
519.0482439374952
 20
165.407637231484
 30
0.0
  0
POINT
  5
A4A
330
980
100
AcDbEntity
  8
DEFPOINTS
  6
BYBLOCK
 62
     0
100
AcDbPoint
 10
496.8840325708884
 20
130.407843792679
 30
0.0
  0
POINT
  5
A4B
330
980
100
AcDbEntity
  8
DEFPOINTS
  6
BYBLOCK
 62
     0
100
AcDbPoint
 10
550.9464990644114
 20
130.407843792679
 30
0.0
  0
ENDBLK
  5
A4C
330
980
100
AcDbEntity
  8
0
100
AcDbBlockEnd
  0
BLOCK
  5
A37
330
98D
100
AcDbEntity
  8
0
100
AcDbBlockBegin
  2
*D10
 70
     1
 10
0.0
 20
0.0
 30
0.0
  3
*D10
  1

  0
LINE
  5
A38
330
98D
100
AcDbEntity
  8
0
  6
BYBLOCK
 62
     4
100
AcDbLine
 10
450.0487439374952
 20
207.8825182250208
 30
0.0
 11
573.4482243613156
 21
207.8825182250208
 31
0.0
  0
LINE
  5
A39
330
98D
100
AcDbEntity
  8
0
  6
BYBLOCK
 62
     4
100
AcDbLine
 10
502.8840325708883
 20
130.407843792679
 30
0.0
 11
573.4482243613156
 21
130.407843792679
 31
0.0
  0
LINE
  5
A3A
330
98D
100
AcDbEntity
  8
0
  6
BYBLOCK
 62
     4
100
AcDbLine
 10
570.4482243613155
 20
200.8825182250208
 30
0.0
 11
570.4482243613155
 21
137.407843792679
 31
0.0
  0
INSERT
  5
A3B
330
98D
100
AcDbEntity
  8
0
  6
BYBLOCK
 62
     4
100
AcDbBlockReference
  2
_OPEN
 10
570.4482243613155
 20
207.8825182250208
 30
0.0
 41
7.0
 42
7.0
 43
7.0
 50
90.0
  0
INSERT
  5
A3C
330
98D
100
AcDbEntity
  8
0
  6
BYBLOCK
 62
     4
100
AcDbBlockReference
  2
_OPEN
 10
570.4482243613155
 20
130.407843792679
 30
0.0
 41
7.0
 42
7.0
 43
7.0
 50
270.0
  0
MTEXT
  5
A3D
330
98D
100
AcDbEntity
  8
0
  6
BYBLOCK
 62
     4
100
AcDbMText
 10
565.4482243613156
 20
169.1451810088499
 30
0.0
 40
6.0
 41
0.0
 71
     5
 72
     1
  1
\A1;77
 11
0.0
 21
1.0
 31
0.0
1001
ACAD
1000
MTEXTBEGIN
1070
    73
1070
     1
1070
    44
1040
1.0
1070
    74
1070
     0
1000
MTEXTEND
1000
MTEXTBEGIN
1070
    73
1070
     1
1070
    44
1040
1.0
1070
    74
1070
     0
1000
MTEXTEND
1000
MTEXTBEGIN
1070
    73
1070
     1
1070
    44
1040
1.0
1070
    74
1070
     0
1000
MTEXTEND
  0
POINT
  5
A3E
330
98D
100
AcDbEntity
  8
DEFPOINTS
  6
BYBLOCK
 62
     0
100
AcDbPoint
 10
444.0487439374952
 20
207.8825182250208
 30
0.0
  0
POINT
  5
A3F
330
98D
100
AcDbEntity
  8
DEFPOINTS
  6
BYBLOCK
 62
     0
100
AcDbPoint
 10
496.8840325708884
 20
130.407843792679
 30
0.0
  0
POINT
  5
A40
330
98D
100
AcDbEntity
  8
DEFPOINTS
  6
BYBLOCK
 62
     0
100
AcDbPoint
 10
570.4482243613155
 20
130.407843792679
 30
0.0
  0
ENDBLK
  5
A41
330
98D
100
AcDbEntity
  8
0
100
AcDbBlockEnd
  0
BLOCK
  5
9EB
330
99A
100
AcDbEntity
  8
0
100
AcDbBlockBegin
  2
*D11
 70
     1
 10
0.0
 20
0.0
 30
0.0
  3
*D11
  1

  0
LINE
  5
9EC
330
99A
100
AcDbEntity
  8
0
  6
BYBLOCK
 62
     4
100
AcDbLine
 10
494.0486439374951
 20
188.875837231484
 30
0.0
 11
494.0486439374951
 21
226.8660834651823
 31
0.0
  0
LINE
  5
9ED
330
99A
100
AcDbEntity
  8
0
  6
BYBLOCK
 62
     4
100
AcDbLine
 10
344.0488439374952
 20
188.876437231484
 30
0.0
 11
344.0488439374952
 21
226.8660834651823
 31
0.0
  0
LINE
  5
9EE
330
99A
100
AcDbEntity
  8
0
  6
BYBLOCK
 62
     4
100
AcDbLine
 10
487.0486439374952
 20
223.8660834651823
 30
0.0
 11
351.0488439374952
 21
223.8660834651823
 31
0.0
  0
INSERT
  5
9EF
330
99A
100
AcDbEntity
  8
0
  6
BYBLOCK
 62
     4
100
AcDbBlockReference
  2
_OPEN
 10
494.0486439374951
 20
223.8660834651823
 30
0.0
 41
7.0
 42
7.0
 43
7.0
  0
INSERT
  5
9F0
330
99A
100
AcDbEntity
  8
0
  6
BYBLOCK
 62
     4
100
AcDbBlockReference
  2
_OPEN
 10
344.0488439374952
 20
223.8660834651823
 30
0.0
 41
7.0
 42
7.0
 43
7.0
 50
180.0
  0
MTEXT
  5
9F1
330
99A
100
AcDbEntity
  8
0
  6
BYBLOCK
 62
     4
100
AcDbMText
 10
419.0487439374952
 20
228.8660834651823
 30
0.0
 40
6.0
 41
0.0
 71
     5
 72
     1
  1
\A1;φ150
1001
ACAD
1000
MTEXTBEGIN
1070
    73
1070
     1
1070
    44
1040
1.0
1070
    74
1070
     0
1000
MTEXTEND
1000
MTEXTBEGIN
1070
    73
1070
     1
1070
    44
1040
1.0
1070
    74
1070
     0
1000
MTEXTEND
1000
MTEXTBEGIN
1070
    73
1070
     1
1070
    44
1040
1.0
1070
    74
1070
     0
1000
MTEXTEND
  0
POINT
  5
9F2
330
99A
100
AcDbEntity
  8
DEFPOINTS
  6
BYBLOCK
 62
     0
100
AcDbPoint
 10
494.0486439374951
 20
182.875837231484
 30
0.0
  0
POINT
  5
9F3
330
99A
100
AcDbEntity
  8
DEFPOINTS
  6
BYBLOCK
 62
     0
100
AcDbPoint
 10
344.0488439374952
 20
182.876437231484
 30
0.0
  0
POINT
  5
9F4
330
99A
100
AcDbEntity
  8
DEFPOINTS
  6
BYBLOCK
 62
     0
100
AcDbPoint
 10
344.0488439374952
 20
223.8660834651823
 30
0.0
  0
ENDBLK
  5
9F5
330
99A
100
AcDbEntity
  8
0
100
AcDbBlockEnd
  0
BLOCK
  5
9CA
330
9A7
100
AcDbEntity
  8
0
100
AcDbBlockBegin
  2
*D12
 70
     1
 10
0.0
 20
0.0
 30
0.0
  3
*D12
  1

  0
LINE
  5
9CB
330
9A7
100
AcDbEntity
  8
0
  6
BYBLOCK
 62
     4
100
AcDbLine
 10
519.0482439374952
 20
172.407637231484
 30
0.0
 11
519.0482439374952
 21
244.8581721548789
 31
0.0
  0
LINE
  5
9CC
330
9A7
100
AcDbEntity
  8
0
  6
BYBLOCK
 62
     4
100
AcDbLine
 10
319.0511440925056
 20
172.408837222483
 30
0.0
 11
319.0511440925056
 21
244.8581721548789
 31
0.0
  0
LINE
  5
9CD
330
9A7
100
AcDbEntity
  8
0
  6
BYBLOCK
 62
     4
100
AcDbLine
 10
512.0482439374952
 20
241.8581721548789
 30
0.0
 11
326.0511440925056
 21
241.8581721548789
 31
0.0
  0
INSERT
  5
9CE
330
9A7
100
AcDbEntity
  8
0
  6
BYBLOCK
 62
     4
100
AcDbBlockReference
  2
_OPEN
 10
519.0482439374952
 20
241.8581721548789
 30
0.0
 41
7.0
 42
7.0
 43
7.0
  0
INSERT
  5
9CF
330
9A7
100
AcDbEntity
  8
0
  6
BYBLOCK
 62
     4
100
AcDbBlockReference
  2
_OPEN
 10
319.0511440925056
 20
241.8581721548789
 30
0.0
 41
7.0
 42
7.0
 43
7.0
 50
180.0
  0
MTEXT
  5
9D0
330
9A7
100
AcDbEntity
  8
0
  6
BYBLOCK
 62
     4
100
AcDbMText
 10
419.0496940150004
 20
246.8581721548789
 30
0.0
 40
6.0
 41
0.0
 71
     5
 72
     1
  1
\A1;φ200
1001
ACAD
1000
MTEXTBEGIN
1070
    73
1070
     1
1070
    44
1040
1.0
1070
    74
1070
     0
1000
MTEXTEND
1000
MTEXTBEGIN
1070
    73
1070
     1
1070
    44
1040
1.0
1070
    74
1070
     0
1000
MTEXTEND
1000
MTEXTBEGIN
1070
    73
1070
     1
1070
    44
1040
1.0
1070
    74
1070
     0
1000
MTEXTEND
  0
POINT
  5
9D1
330
9A7
100
AcDbEntity
  8
DEFPOINTS
  6
BYBLOCK
 62
     0
100
AcDbPoint
 10
519.0482439374952
 20
166.407637231484
 30
0.0
  0
POINT
  5
9D2
330
9A7
100
AcDbEntity
  8
DEFPOINTS
  6
BYBLOCK
 62
     0
100
AcDbPoint
 10
319.0511440925056
 20
166.408837222483
 30
0.0
  0
POINT
  5
9D3
330
9A7
100
AcDbEntity
  8
DEFPOINTS
  6
BYBLOCK
 62
     0
100
AcDbPoint
 10
319.0511440925056
 20
241.8581721548789
 30
0.0
  0
ENDBLK
  5
9D4
330
9A7
100
AcDbEntity
  8
0
100
AcDbBlockEnd
  0
BLOCK
  5
A7F
330
A5C
100
AcDbEntity
  8
0
100
AcDbBlockBegin
  2
*D13
 70
     1
 10
0.0
 20
0.0
 30
0.0
  3
*D13
  1

  0
LINE
  5
A80
330
A5C
100
AcDbEntity
  8
0
  6
BYBLOCK
 62
     4
100
AcDbLine
 10
766.6248086963442
 20
340.9523474857347
 30
0.0
 11
766.6248086963442
 21
287.3584098666458
 31
0.0
  0
LINE
  5
A81
330
A5C
100
AcDbEntity
  8
0
  6
BYBLOCK
 62
     4
100
AcDbLine
 10
605.6248085406057
 20
340.8787807164543
 30
0.0
 11
605.6248085406057
 21
287.3584098666458
 31
0.0
  0
LINE
  5
A82
330
A5C
100
AcDbEntity
  8
0
  6
BYBLOCK
 62
     4
100
AcDbLine
 10
759.6248086963441
 20
290.3584098666458
 30
0.0
 11
612.6248085406057
 21
290.3584098666458
 31
0.0
  0
INSERT
  5
A83
330
A5C
100
AcDbEntity
  8
0
  6
BYBLOCK
 62
     4
100
AcDbBlockReference
  2
_OPEN
 10
766.6248086963442
 20
290.3584098666458
 30
0.0
 41
7.0
 42
7.0
 43
7.0
  0
INSERT
  5
A84
330
A5C
100
AcDbEntity
  8
0
  6
BYBLOCK
 62
     4
100
AcDbBlockReference
  2
_OPEN
 10
605.6248085406057
 20
290.3584098666458
 30
0.0
 41
7.0
 42
7.0
 43
7.0
 50
180.0
  0
MTEXT
  5
A85
330
A5C
100
AcDbEntity
  8
0
  6
BYBLOCK
 62
     4
100
AcDbMText
 10
686.1248086184749
 20
295.3584098666458
 30
0.0
 40
6.0
 41
0.0
 71
     5
 72
     1
  1
\A1;穴径 φ161
1001
ACAD
1000
MTEXTBEGIN
1070
    73
1070
     1
1070
    44
1040
1.0
1070
    74
1070
     0
1000
MTEXTEND
1000
MTEXTBEGIN
1070
    73
1070
     1
1070
    44
1040
1.0
1070
    74
1070
     0
1000
MTEXTEND
1000
MTEXTBEGIN
1070
    73
1070
     1
1070
    44
1040
1.0
1070
    74
1070
     0
1000
MTEXTEND
  0
POINT
  5
A86
330
A5C
100
AcDbEntity
  8
DEFPOINTS
  6
BYBLOCK
 62
     0
100
AcDbPoint
 10
766.6248086963442
 20
346.9523474857347
 30
0.0
  0
POINT
  5
A87
330
A5C
100
AcDbEntity
  8
DEFPOINTS
  6
BYBLOCK
 62
     0
100
AcDbPoint
 10
605.6248085406057
 20
346.8787807164543
 30
0.0
  0
POINT
  5
A88
330
A5C
100
AcDbEntity
  8
DEFPOINTS
  6
BYBLOCK
 62
     0
100
AcDbPoint
 10
605.6248085406057
 20
290.3584098666458
 30
0.0
  0
ENDBLK
  5
A89
330
A5C
100
AcDbEntity
  8
0
100
AcDbBlockEnd
  0
ENDSEC
  0
SECTION
  2
ENTITIES
  0
TEXT
  5
11A
330
1A
100
AcDbEntity
  8
ZUWAKU
 62
     7
 48
10.0
100
AcDbText
 10
795.5579444309237
 20
4.974918402528146
 30
0.0
 40
8.0
  1
A1
100
AcDbText
  0
LINE
  5
11B
330
1A
100
AcDbEntity
  8
ZUWAKU
 62
     7
 48
10.0
100
AcDbLine
 10
10.05047808566086
 20
25.78258628282265
 30
0.0
 11
806.0504780856609
 21
25.78258628282253
 31
0.0
  0
LINE
  5
11C
330
1A
100
AcDbEntity
  8
ZUWAKU
  6
CONTINUOUS
 62
     7
100
AcDbLine
 10
806.0504780856609
 20
563.7825862828226
 30
0.0
 11
10.05047808566086
 21
563.7825862828226
 31
0.0
  0
LINE
  5
11D
330
1A
100
AcDbEntity
  8
ZUWAKU
  6
CONTINUOUS
 62
     7
100
AcDbLine
 10
806.0504780856609
 20
13.78258628282265
 30
0.0
 11
10.05047808566086
 21
13.78258628282265
 31
0.0
  0
LINE
  5
11E
330
1A
100
AcDbEntity
  8
ZUWAKU
  6
CONTINUOUS
 62
     7
100
AcDbLine
 10
10.05047808566086
 20
563.7825862828226
 30
0.0
 11
10.05047808566086
 21
13.78258628282265
 31
0.0
  0
LINE
  5
11F
330
1A
100
AcDbEntity
  8
ZUWAKU
 62
     7
 48
10.0
100
AcDbLine
 10
44.55797523147839
 20
13.78258628282265
 30
0.0
 11
44.5579752314784
 21
25.78258628282265
 31
0.0
  0
TEXT
  5
120
330
1A
100
AcDbEntity
  8
ZUWAKU
 62
     7
100
AcDbText
 10
16.05676551180931
 20
15.52294263804401
 30
0.0
 40
8.0
  1
品 種
100
AcDbText
  0
LINE
  5
121
330
1A
100
AcDbEntity
  8
ZUWAKU
 62
     7
 48
10.0
100
AcDbLine
 10
276.1028387068254
 20
13.78258628282265
 30
0.0
 11
276.1028387068254
 21
25.78258628282261
 31
0.0
  0
LINE
  5
122
330
1A
100
AcDbEntity
  8
ZUWAKU
 62
     7
 48
10.0
100
AcDbLine
 10
209.5138526425484
 20
13.78258628282265
 30
0.0
 11
209.5138526425485
 21
25.78258628282263
 31
0.0
  0
TEXT
  5
124
330
1A
100
AcDbEntity
  8
ZUWAKU
 62
     7
100
AcDbText
 10
215.4560837190756
 20
16.18358115302453
 30
0.0
 40
8.0
  1
品名・ｻ ｲ ｽﾞ
100
AcDbText
  0
LINE
  5
126
330
1A
100
AcDbEntity
  8
ZUWAKU
 62
     7
 48
10.0
100
AcDbLine
 10
768.7231079932794
 20
13.78258628282237
 30
0.0
 11
768.7231079932794
 21
25.78258628282254
 31
0.0
  0
LINE
  5
127
330
1A
100
AcDbEntity
  8
ZUWAKU
 62
     7
 48
10.0
100
AcDbLine
 10
733.8119002376948
 20
13.78258628282242
 30
0.0
 11
733.8119002376946
 21
25.78258628282254
 31
0.0
  0
TEXT
  5
128
330
1A
100
AcDbEntity
  8
ZUWAKU
 62
     7
100
AcDbText
 10
739.6955629973526
 20
15.24227755810852
 30
0.0
 40
8.0
  1
尺 度
100
AcDbText
  0
TEXT
  5
129
330
1A
100
AcDbEntity
  8
ZUWAKU
 62
     7
100
AcDbText
 10
779.7374630323229
 20
15.55488920081529
 30
0.0
 40
8.0
  1
1/2
100
AcDbText
  0
TEXT
  5
12B
330
1A
100
AcDbEntity
  8
ZUWAKU
 62
     7
100
AcDbText
 10
620.3363288383084
 20
15.6519090944263
 30
0.0
 40
8.0
  1
品 番
100
AcDbText
  0
LINE
  5
12C
330
1A
100
AcDbEntity
  8
ZUWAKU
 62
     7
 48
10.0
100
AcDbLine
 10
614.3351028194128
 20
13.78258628282232
 30
0.0
 11
614.3351028194128
 21
25.78258628282256
 31
0.0
  0
LINE
  5
12D
330
1A
100
AcDbEntity
  8
ZUWAKU
 62
     7
 48
10.0
100
AcDbLine
 10
648.7607587371021
 20
13.78258628282232
 30
0.0
 11
648.7607587371021
 21
25.78258628282255
 31
0.0
  0
TEXT
  5
12E
330
1A
100
AcDbEntity
  8
ZUWAKU
 62
     7
 48
10.0
100
AcDbText
 10
646.2758615931216
 20
4.949376903717848
 30
0.0
 40
8.0
  1
積水化学工業株式会社  建材
100
AcDbText
  0
LINE
  5
12F
330
1A
100
AcDbEntity
  8
ZUWAKU
  6
CONTINUOUS
 62
     7
100
AcDbLine
 10
806.0504780856609
 20
563.7825862828226
 30
0.0
 11
806.0504780856609
 21
13.78258628282265
 31
0.0
  0
LINE
  5
442
330
1A
100
AcDbEntity
  8
CENTER_L
 48
5.0
100
AcDbLine
 10
136.1728815180813
 20
284.0387372318856
 30
0.0
 11
136.1733678817177
 21
498.0387372313096
 31
0.0
  0
LINE
  5
443
330
1A
100
AcDbEntity
  8
SEIHIN
  6
CONTINUOUS
100
AcDbLine
 10
36.17277469989955
 20
204.3412812879237
 30
0.0
 11
236.1728746998995
 21
204.3408812873238
 31
0.0
  0
LINE
  5
444
330
1A
100
AcDbEntity
  8
SEIHIN
  6
CONTINUOUS
100
AcDbLine
 10
36.17277469989955
 20
202.8412812879237
 30
0.0
 11
236.1728746998995
 21
202.8408812873238
 31
0.0
  0
LINE
  5
448
330
1A
100
AcDbEntity
  8
SEIHIN
  6
CONTINUOUS
100
AcDbLine
 10
231.1730746946371
 20
201.8408812868712
 30
0.0
 11
41.17277469989955
 21
201.8412812879237
 31
0.0
  0
TEXT
  5
44A
330
1A
100
AcDbEntity
  8
ZUWAKU
 62
     7
100
AcDbText
 10
50.3519382305086
 20
16.10306189639755
 30
0.0
 40
8.0
  1
自在ドレン
100
AcDbText
  0
LINE
  5
44E
330
1A
100
AcDbEntity
  8
SEIHIN
  6
CONTINUOUS
100
AcDbLine
 10
36.17267469989957
 20
202.8412812879237
 30
0.0
 11
41.17237469989959
 21
201.8412812879237
 31
0.0
  0
LINE
  5
44F
330
1A
100
AcDbEntity
  8
SEIHIN
  6
CONTINUOUS
100
AcDbLine
 10
36.17257469989954
 20
202.8412812879237
 30
0.0
 11
36.17257469989954
 21
204.3413812879237
 31
0.0
  0
LINE
  5
453
330
1A
100
AcDbEntity
  8
CENTER_L
 48
5.0
100
AcDbLine
 10
136.1725746998995
 20
127.2500312879237
 30
0.0
 11
136.1727703840349
 21
211.3410812877464
 31
0.0
  0
LINE
  5
456
330
1A
100
AcDbEntity
  8
SEIHIN
  6
CONTINUOUS
100
AcDbLine
 10
65.92247469989956
 20
136.8411812879237
 30
0.0
 11
65.92257469989954
 21
166.8411812879237
 31
0.0
  0
LINE
  5
457
330
1A
100
AcDbEntity
  8
SEIHIN
  6
CONTINUOUS
100
AcDbLine
 10
206.4226746998995
 20
136.8408812879237
 30
0.0
 11
206.4227746998996
 21
166.8408812879237
 31
0.0
  0
TEXT
  5
45E
330
1A
100
AcDbEntity
  8
ZUWAKU
 62
     7
100
AcDbText
 10
282.3131429914078
 20
15.64241700452384
 30
0.0
 40
8.0
  1
ＶＵＴ１５０－１２５
100
AcDbText
  0
LINE
  5
462
330
1A
100
AcDbEntity
  8
SEIHIN
  6
CONTINUOUS
100
AcDbLine
 10
65.92257469989954
 20
136.8411812879237
 30
0.0
 11
206.4226747002328
 21
136.8409812877814
 31
0.0
  0
LINE
  5
487
330
1A
100
AcDbEntity
  8
SEIHIN
  6
CONTINUOUS
100
AcDbLine
 10
53.44757469989957
 20
166.8412812879237
 30
0.0
 11
218.8977746998995
 21
166.8408812879238
 31
0.0
  0
LINE
  5
488
330
1A
100
AcDbEntity
  8
SEIHIN
  6
CONTINUOUS
100
AcDbLine
 10
218.8977746998995
 20
171.8408815293965
 30
0.0
 11
53.34757469989956
 21
171.8412812879237
 31
0.0
  0
LINE
  5
489
330
1A
100
AcDbEntity
  8
SEIHIN
  6
CONTINUOUS
100
AcDbLine
 10
53.34757469989956
 20
171.8411812879237
 30
0.0
 11
53.34767469989959
 21
201.8411812879237
 31
0.0
  0
LINE
  5
48A
330
1A
100
AcDbEntity
  8
SEIHIN
  6
CONTINUOUS
100
AcDbLine
 10
53.44757469989957
 20
171.8412812879237
 30
0.0
 11
53.44757469989957
 21
166.8412812879237
 31
0.0
  0
LINE
  5
4C6
330
1A
100
AcDbEntity
  8
SEIHIN
  6
CONTINUOUS
100
AcDbLine
 10
218.9977746998995
 20
171.8408812879237
 30
0.0
 11
218.9977746998995
 21
201.8408812879237
 31
0.0
  0
LINE
  5
4C7
330
1A
100
AcDbEntity
  8
SEIHIN
  6
CONTINUOUS
100
AcDbLine
 10
218.8977746998995
 20
171.8408812879237
 30
0.0
 11
218.8977746998995
 21
166.8408812879237
 31
0.0
  0
LINE
  5
4D4
330
1A
100
AcDbEntity
  8
SEIHIN
  6
CONTINUOUS
100
AcDbLine
 10
236.1728746998995
 20
202.8408812879237
 30
0.0
 11
231.1730746998995
 21
201.8408812879237
 31
0.0
  0
LINE
  5
4D5
330
1A
100
AcDbEntity
  8
SEIHIN
  6
CONTINUOUS
100
AcDbLine
 10
236.1728746998995
 20
202.8408812879237
 30
0.0
 11
236.1728746998995
 21
204.3409812879238
 31
0.0
  0
LINE
  5
4F9
330
1A
100
AcDbEntity
  8
CENTER_L
 48
5.0
100
AcDbLine
 10
29.17317470030127
 20
391.0390304133022
 30
0.0
 11
243.1731746997252
 21
391.0385440496657
 31
0.0
  0
ARC
  5
4FA
330
1A
100
AcDbEntity
  8
SEIHIN
  6
CONTINUOUS
100
AcDbCircle
 10
136.1731746998996
 20
391.0387372314839
 30
0.0
 40
100.0
100
AcDbArc
 50
0.0
 51
359.9998849999999
  0
TEXT
  5
564
330
1A
100
AcDbEntity
  8
ZUWAKU
 62
     7
100
AcDbText
 10
654.2531733678779
 20
15.90287984531518
 30
0.0
 40
8.0
  1
ＧＢ３９
100
AcDbText
  0
LINE
  5
565
330
1A
100
AcDbEntity
  8
CENTER_L
 48
5.0
100
AcDbLine
 10
686.1246290448657
 20
159.4879045875463
 30
0.0
 11
686.1248290448657
 21
244.7550145875463
 31
0.0
  0
LINE
  5
566
330
1A
100
AcDbEntity
  8
SEIHIN
  6
CONTINUOUS
100
AcDbLine
 10
618.3748290448658
 20
202.0406145875463
 30
0.0
 11
617.8746290448657
 21
170.0405145875463
 31
0.0
  0
LINE
  5
567
330
1A
100
AcDbEntity
  8
SEIHIN
  6
CONTINUOUS
100
AcDbLine
 10
615.8744290448658
 20
170.0405145875463
 30
0.0
 11
615.8747290448657
 21
200.0406145875463
 31
0.0
  0
LINE
  5
568
330
1A
100
AcDbEntity
  8
SEIHIN
  6
CONTINUOUS
100
AcDbLine
 10
756.3747290448658
 20
170.0402145875463
 30
0.0
 11
756.3748290448658
 21
200.0402145875463
 31
0.0
  0
LINE
  5
569
330
1A
100
AcDbEntity
  8
SEIHIN
  6
CONTINUOUS
100
AcDbLine
 10
753.8747290448658
 20
202.0402145875463
 30
0.0
 11
754.3746290448657
 21
170.0402145875463
 31
0.0
  0
LINE
  5
56D
330
1A
100
AcDbEntity
  8
SEIHIN
  6
CONTINUOUS
100
AcDbLine
 10
756.3746290448657
 20
170.0402145875463
 30
0.0
 11
686.1246290448657
 21
170.0404145875463
 31
0.0
  0
LINE
  5
56E
330
1A
100
AcDbEntity
  8
SEIHIN
  6
CONTINUOUS
100
AcDbLine
 10
615.8746290448657
 20
170.0405145875463
 30
0.0
 11
686.1246290448657
 21
170.0404145875463
 31
0.0
  0
LINE
  5
573
330
1A
100
AcDbEntity
  8
SEIHIN
  6
CONTINUOUS
100
AcDbLine
 10
786.1247290448658
 20
237.5402145875463
 30
0.0
 11
686.1247290448658
 21
237.5404145875463
 31
0.0
  0
LINE
  5
574
330
1A
100
AcDbEntity
  8
SEIHIN
  6
CONTINUOUS
100
AcDbLine
 10
766.1247290448658
 20
202.0402145875463
 30
0.0
 11
686.1247290448658
 21
202.0404145875463
 31
0.0
  0
LINE
  5
575
330
1A
100
AcDbEntity
  8
SEIHIN
  6
CONTINUOUS
100
AcDbLine
 10
766.1248290448658
 20
236.7908145875464
 30
0.0
 11
686.1247290448658
 21
236.7909145875463
 31
0.0
  0
LINE
  5
576
330
1A
100
AcDbEntity
  8
SEIHIN
  6
CONTINUOUS
100
AcDbLine
 10
781.1249290448658
 20
237.0402145875463
 30
0.0
 11
686.1247290448658
 21
237.0404145875463
 31
0.0
  0
LINE
  5
577
330
1A
100
AcDbEntity
  8
SEIHIN
  6
CONTINUOUS
100
AcDbLine
 10
586.1249290448657
 20
237.5406145875463
 30
0.0
 11
686.1249290448657
 21
237.5404145875463
 31
0.0
  0
LINE
  5
578
330
1A
100
AcDbEntity
  8
SEIHIN
  6
CONTINUOUS
100
AcDbLine
 10
591.1247290448657
 20
237.0407145875463
 30
0.0
 11
686.1249290448657
 21
237.0404145875463
 31
0.0
  0
LINE
  5
579
330
1A
100
AcDbEntity
  8
SEIHIN
  6
CONTINUOUS
100
AcDbLine
 10
606.1247290448656
 20
202.0406145875463
 30
0.0
 11
686.1247290448658
 21
202.0404145875463
 31
0.0
  0
LINE
  5
57A
330
1A
100
AcDbEntity
  8
SEIHIN
  6
CONTINUOUS
100
AcDbLine
 10
606.1248290448657
 20
236.7912145875463
 30
0.0
 11
686.1249290448657
 21
236.7909145875463
 31
0.0
  0
LINE
  5
57B
330
1A
100
AcDbEntity
  8
SEIHIN
  6
CONTINUOUS
100
AcDbLine
 10
681.6746290448658
 20
234.9559145875463
 30
0.0
 11
619.8450290448658
 21
230.3187145875463
 31
0.0
  0
LINE
  5
57C
330
1A
100
AcDbEntity
  8
SEIHIN
  6
CONTINUOUS
100
AcDbLine
 10
681.6746290448658
 20
226.9561145875463
 30
0.0
 11
619.8450290448658
 21
222.3190145875463
 31
0.0
  0
LINE
  5
57D
330
1A
100
AcDbEntity
  8
SEIHIN
  6
CONTINUOUS
100
AcDbLine
 10
681.6746290448658
 20
230.4571145875463
 30
0.0
 11
619.8450290448658
 21
225.8200145875463
 31
0.0
  0
LINE
  5
57E
330
1A
100
AcDbEntity
  8
SEIHIN
  6
CONTINUOUS
100
AcDbLine
 10
681.6746290448658
 20
230.9560145875463
 30
0.0
 11
619.8450290448658
 21
226.3189145875463
 31
0.0
  0
LINE
  5
57F
330
1A
100
AcDbEntity
  8
SEIHIN
  6
CONTINUOUS
100
AcDbLine
 10
681.6746290448658
 20
234.4570145875463
 30
0.0
 11
619.8450290448658
 21
229.8199145875463
 31
0.0
  0
LINE
  5
580
330
1A
100
AcDbEntity
  8
SEIHIN
  6
CONTINUOUS
100
AcDbLine
 10
681.6746290448658
 20
218.9563145875463
 30
0.0
 11
619.8450290448658
 21
214.3192145875463
 31
0.0
  0
LINE
  5
581
330
1A
100
AcDbEntity
  8
SEIHIN
  6
CONTINUOUS
100
AcDbLine
 10
681.6746290448658
 20
222.4573145875463
 30
0.0
 11
619.8450290448658
 21
217.8202145875463
 31
0.0
  0
LINE
  5
582
330
1A
100
AcDbEntity
  8
SEIHIN
  6
CONTINUOUS
100
AcDbLine
 10
681.6746290448658
 20
222.9562145875463
 30
0.0
 11
619.8450290448658
 21
218.3191145875463
 31
0.0
  0
LINE
  5
583
330
1A
100
AcDbEntity
  8
SEIHIN
  6
CONTINUOUS
100
AcDbLine
 10
681.6746290448658
 20
226.4572145875463
 30
0.0
 11
619.8450290448658
 21
221.8201145875463
 31
0.0
  0
LINE
  5
584
330
1A
100
AcDbEntity
  8
SEIHIN
  6
CONTINUOUS
100
AcDbLine
 10
681.6746290448658
 20
218.4575145875463
 30
0.0
 11
619.8450290448658
 21
213.8203145875463
 31
0.0
  0
LINE
  5
585
330
1A
100
AcDbEntity
  8
SEIHIN
  6
CONTINUOUS
100
AcDbLine
 10
681.6746290448658
 20
214.9564145875463
 30
0.0
 11
619.8450290448658
 21
210.3193145875463
 31
0.0
  0
LINE
  5
586
330
1A
100
AcDbEntity
  8
SEIHIN
  6
CONTINUOUS
100
AcDbLine
 10
681.6746290448658
 20
210.4577145875463
 30
0.0
 11
619.8450290448658
 21
205.8205145875463
 31
0.0
  0
LINE
  5
587
330
1A
100
AcDbEntity
  8
SEIHIN
  6
CONTINUOUS
100
AcDbLine
 10
681.6746290448658
 20
214.4576145875463
 30
0.0
 11
619.8450290448658
 21
209.8204145875463
 31
0.0
  0
LINE
  5
588
330
1A
100
AcDbEntity
  8
SEIHIN
  6
CONTINUOUS
100
AcDbLine
 10
681.6746290448658
 20
210.9565145875464
 30
0.0
 11
619.8450290448658
 21
206.3194145875463
 31
0.0
  0
LINE
  5
589
330
1A
100
AcDbEntity
  8
SEIHIN
  6
CONTINUOUS
100
AcDbLine
 10
681.6746290448658
 20
206.9566145875463
 30
0.0
 11
619.8450290448658
 21
202.3195145875463
 31
0.0
  0
LINE
  5
58A
330
1A
100
AcDbEntity
  8
SEIHIN
  6
CONTINUOUS
100
AcDbLine
 10
619.8450290448658
 20
205.8205145875463
 30
0.0
 11
621.0528290448658
 21
204.8235145875463
 31
0.0
  0
LINE
  5
58B
330
1A
100
AcDbEntity
  8
SEIHIN
  6
CONTINUOUS
100
AcDbLine
 10
621.0528290448658
 20
203.8224145875463
 30
0.0
 11
619.8450290448658
 21
202.3195145875463
 31
0.0
  0
LINE
  5
58C
330
1A
100
AcDbEntity
  8
SEIHIN
  6
CONTINUOUS
100
AcDbLine
 10
652.8107290448657
 20
236.7910145875463
 30
0.0
 11
619.8450290448658
 21
234.3186145875463
 31
0.0
  0
LINE
  5
58D
330
1A
100
AcDbEntity
  8
SEIHIN
  6
CONTINUOUS
100
AcDbLine
 10
659.4620290448658
 20
236.7910145875463
 30
0.0
 11
619.8450290448658
 21
233.8198145875463
 31
0.0
  0
LINE
  5
58E
330
1A
100
AcDbEntity
  8
SEIHIN
  6
CONTINUOUS
100
AcDbLine
 10
621.0528290448658
 20
227.8217145875463
 30
0.0
 11
619.8450290448658
 21
226.3189145875463
 31
0.0
  0
LINE
  5
58F
330
1A
100
AcDbEntity
  8
SEIHIN
  6
CONTINUOUS
100
AcDbLine
 10
621.0528290448658
 20
215.8220145875463
 30
0.0
 11
619.8450290448658
 21
214.3192145875463
 31
0.0
  0
LINE
  5
590
330
1A
100
AcDbEntity
  8
SEIHIN
  6
CONTINUOUS
100
AcDbLine
 10
619.8450290448658
 20
213.8203145875463
 30
0.0
 11
621.0528290448658
 21
212.8233145875463
 31
0.0
  0
LINE
  5
591
330
1A
100
AcDbEntity
  8
SEIHIN
  6
CONTINUOUS
100
AcDbLine
 10
621.0528290448658
 20
211.8222145875463
 30
0.0
 11
619.8450290448658
 21
210.3193145875463
 31
0.0
  0
LINE
  5
592
330
1A
100
AcDbEntity
  8
SEIHIN
  6
CONTINUOUS
100
AcDbLine
 10
621.0528290448658
 20
207.8223145875463
 30
0.0
 11
619.8450290448658
 21
206.3194145875463
 31
0.0
  0
LINE
  5
593
330
1A
100
AcDbEntity
  8
SEIHIN
  6
CONTINUOUS
100
AcDbLine
 10
619.8450290448658
 20
209.8204145875463
 30
0.0
 11
621.0528290448658
 21
208.8234145875463
 31
0.0
  0
LINE
  5
594
330
1A
100
AcDbEntity
  8
SEIHIN
  6
CONTINUOUS
100
AcDbLine
 10
619.8450290448658
 20
225.8200145875463
 30
0.0
 11
621.0528290448658
 21
224.8230145875463
 31
0.0
  0
LINE
  5
595
330
1A
100
AcDbEntity
  8
SEIHIN
  6
CONTINUOUS
100
AcDbLine
 10
621.0528290448658
 20
223.8218145875463
 30
0.0
 11
619.8450290448658
 21
222.3190145875463
 31
0.0
  0
LINE
  5
596
330
1A
100
AcDbEntity
  8
SEIHIN
  6
CONTINUOUS
100
AcDbLine
 10
619.8450290448658
 20
217.8202145875463
 30
0.0
 11
621.0528290448658
 21
216.8232145875463
 31
0.0
  0
LINE
  5
597
330
1A
100
AcDbEntity
  8
SEIHIN
  6
CONTINUOUS
100
AcDbLine
 10
621.0528290448658
 20
219.8219145875463
 30
0.0
 11
619.8450290448658
 21
218.3191145875463
 31
0.0
  0
LINE
  5
598
330
1A
100
AcDbEntity
  8
SEIHIN
  6
CONTINUOUS
100
AcDbLine
 10
619.8450290448658
 20
221.8201145875463
 30
0.0
 11
621.0528290448658
 21
220.8231145875463
 31
0.0
  0
LINE
  5
599
330
1A
100
AcDbEntity
  8
SEIHIN
  6
CONTINUOUS
100
AcDbLine
 10
621.0528290448658
 20
235.8215145875463
 30
0.0
 11
619.8450290448658
 21
234.3186145875463
 31
0.0
  0
LINE
  5
59A
330
1A
100
AcDbEntity
  8
SEIHIN
  6
CONTINUOUS
100
AcDbLine
 10
621.0528290448658
 20
231.8216145875463
 30
0.0
 11
619.8450290448658
 21
230.3187145875463
 31
0.0
  0
LINE
  5
59B
330
1A
100
AcDbEntity
  8
SEIHIN
  6
CONTINUOUS
100
AcDbLine
 10
619.8450290448658
 20
233.8198145875463
 30
0.0
 11
621.0528290448658
 21
232.8227145875463
 31
0.0
  0
LINE
  5
59C
330
1A
100
AcDbEntity
  8
SEIHIN
  6
CONTINUOUS
100
AcDbLine
 10
619.8450290448658
 20
229.8199145875463
 30
0.0
 11
621.0528290448658
 21
228.8229145875463
 31
0.0
  0
LINE
  5
59D
330
1A
100
AcDbEntity
  8
SEIHIN
  6
CONTINUOUS
100
AcDbLine
 10
603.2997290448657
 20
205.0406145875462
 30
0.0
 11
603.2997290448657
 21
235.0406145875463
 31
0.0
  0
LINE
  5
59E
330
1A
100
AcDbEntity
  8
SEIHIN
  6
CONTINUOUS
100
AcDbLine
 10
606.1248290448657
 20
237.0406145875463
 30
0.0
 11
606.1247290448656
 21
202.0406145875463
 31
0.0
  0
LINE
  5
59F
330
1A
100
AcDbEntity
  8
SEIHIN
  6
CONTINUOUS
100
AcDbLine
 10
619.8450290448658
 20
217.8202145875463
 30
0.0
 11
619.8450290448658
 21
214.3192145875463
 31
0.0
  0
LINE
  5
5A0
330
1A
100
AcDbEntity
  8
SEIHIN
  6
CONTINUOUS
100
AcDbLine
 10
603.3996290448657
 20
200.0406145875463
 30
0.0
 11
615.8747290448657
 21
200.0406145875463
 31
0.0
  0
LINE
  5
5A1
330
1A
100
AcDbEntity
  8
SEIHIN
  6
CONTINUOUS
100
AcDbLine
 10
603.3996290448657
 20
205.0406145875462
 30
0.0
 11
603.3996290448657
 21
200.0406145875463
 31
0.0
  0
LINE
  5
5A2
330
1A
100
AcDbEntity
  8
SEIHIN
  6
CONTINUOUS
100
AcDbLine
 10
603.3996290448657
 20
205.0406145875462
 30
0.0
 11
603.2997290448657
 21
205.0406145875462
 31
0.0
  0
LINE
  5
5A3
330
1A
100
AcDbEntity
  8
SEIHIN
  6
CONTINUOUS
100
AcDbLine
 10
619.8450290448658
 20
205.8205145875463
 30
0.0
 11
619.8450290448658
 21
202.3195145875463
 31
0.0
  0
LINE
  5
5A4
330
1A
100
AcDbEntity
  8
SEIHIN
  6
CONTINUOUS
100
AcDbLine
 10
619.8450290448658
 20
209.8204145875463
 30
0.0
 11
619.8450290448658
 21
206.3194145875463
 31
0.0
  0
LINE
  5
5A5
330
1A
100
AcDbEntity
  8
SEIHIN
  6
CONTINUOUS
100
AcDbLine
 10
619.8450290448658
 20
213.8203145875463
 30
0.0
 11
619.8450290448658
 21
210.3193145875463
 31
0.0
  0
LINE
  5
5A6
330
1A
100
AcDbEntity
  8
SEIHIN
  6
CONTINUOUS
100
AcDbLine
 10
586.1247290448657
 20
236.0406145875463
 30
0.0
 11
591.1245290448658
 21
235.0406145875463
 31
0.0
  0
LINE
  5
5A7
330
1A
100
AcDbEntity
  8
SEIHIN
  6
CONTINUOUS
100
AcDbLine
 10
586.1247290448657
 20
236.0406145875463
 30
0.0
 11
586.1247290448657
 21
237.5408145875463
 31
0.0
  0
LINE
  5
5A8
330
1A
100
AcDbEntity
  8
SEIHIN
  6
CONTINUOUS
100
AcDbLine
 10
603.2997290448657
 20
235.0406145875463
 30
0.0
 11
591.1249290448657
 21
235.0406145875463
 31
0.0
  0
LINE
  5
5A9
330
1A
100
AcDbEntity
  8
SEIHIN
  6
CONTINUOUS
100
AcDbLine
 10
591.1247290448657
 20
237.5408145875463
 30
0.0
 11
591.1247290448657
 21
237.0407145875463
 31
0.0
  0
LINE
  5
5AA
330
1A
100
AcDbEntity
  8
SEIHIN
  6
CONTINUOUS
100
AcDbLine
 10
619.8450290448658
 20
229.8199145875463
 30
0.0
 11
619.8450290448658
 21
226.3189145875463
 31
0.0
  0
LINE
  5
5AB
330
1A
100
AcDbEntity
  8
SEIHIN
  6
CONTINUOUS
100
AcDbLine
 10
619.8450290448658
 20
221.8201145875463
 30
0.0
 11
619.8450290448658
 21
218.3191145875463
 31
0.0
  0
LINE
  5
5AC
330
1A
100
AcDbEntity
  8
SEIHIN
  6
CONTINUOUS
100
AcDbLine
 10
619.8450290448658
 20
225.8200145875463
 30
0.0
 11
619.8450290448658
 21
222.3190145875463
 31
0.0
  0
LINE
  5
5AD
330
1A
100
AcDbEntity
  8
SEIHIN
  6
CONTINUOUS
100
AcDbLine
 10
619.8450290448658
 20
233.8198145875463
 30
0.0
 11
619.8450290448658
 21
230.3187145875463
 31
0.0
  0
LINE
  5
5AE
330
1A
100
AcDbEntity
  8
SEIHIN
  6
CONTINUOUS
100
AcDbLine
 10
619.8450290448658
 20
236.7912145875463
 30
0.0
 11
619.8450290448658
 21
234.3186145875463
 31
0.0
  0
LINE
  5
5AF
330
1A
100
AcDbEntity
  8
SEIHIN
  6
CONTINUOUS
100
AcDbLine
 10
680.4668290448658
 20
220.2781145875464
 30
0.0
 11
621.0528290448658
 21
215.8220145875463
 31
0.0
  0
LINE
  5
5B0
330
1A
100
AcDbEntity
  8
SEIHIN
  6
CONTINUOUS
100
AcDbLine
 10
680.4668290448658
 20
221.2792145875463
 30
0.0
 11
621.0528290448658
 21
216.8232145875463
 31
0.0
  0
LINE
  5
5B1
330
1A
100
AcDbEntity
  8
SEIHIN
  6
CONTINUOUS
100
AcDbLine
 10
681.6746290448658
 20
218.4575145875463
 30
0.0
 11
680.4668290448658
 21
217.2793145875463
 31
0.0
  0
LINE
  5
5B2
330
1A
100
AcDbEntity
  8
SEIHIN
  6
CONTINUOUS
100
AcDbLine
 10
680.4668290448658
 20
217.2793145875463
 30
0.0
 11
621.0528290448658
 21
212.8233145875463
 31
0.0
  0
LINE
  5
5B3
330
1A
100
AcDbEntity
  8
SEIHIN
  6
CONTINUOUS
100
AcDbLine
 10
680.4668290448658
 20
216.2782145875463
 30
0.0
 11
621.0528290448658
 21
211.8222145875463
 31
0.0
  0
LINE
  5
5B4
330
1A
100
AcDbEntity
  8
SEIHIN
  6
CONTINUOUS
100
AcDbLine
 10
680.4668290448658
 20
213.2794145875463
 30
0.0
 11
621.0528290448658
 21
208.8234145875463
 31
0.0
  0
LINE
  5
5B5
330
1A
100
AcDbEntity
  8
SEIHIN
  6
CONTINUOUS
100
AcDbLine
 10
680.4668290448658
 20
212.2783145875463
 30
0.0
 11
621.0528290448658
 21
207.8223145875463
 31
0.0
  0
LINE
  5
5B6
330
1A
100
AcDbEntity
  8
SEIHIN
  6
CONTINUOUS
100
AcDbLine
 10
680.4668290448658
 20
209.2795145875463
 30
0.0
 11
621.0528290448658
 21
204.8235145875463
 31
0.0
  0
LINE
  5
5B7
330
1A
100
AcDbEntity
  8
SEIHIN
  6
CONTINUOUS
100
AcDbLine
 10
680.4668290448658
 20
208.2784145875463
 30
0.0
 11
621.0528290448658
 21
203.8224145875463
 31
0.0
  0
LINE
  5
5B8
330
1A
100
AcDbEntity
  8
SEIHIN
  6
CONTINUOUS
100
AcDbLine
 10
681.6746290448658
 20
206.4578145875463
 30
0.0
 11
622.7770290448658
 21
202.0405145875463
 31
0.0
  0
LINE
  5
5B9
330
1A
100
AcDbEntity
  8
SEIHIN
  6
CONTINUOUS
100
AcDbLine
 10
680.4668290448658
 20
205.2796145875463
 30
0.0
 11
637.2783290448658
 21
202.0405145875463
 31
0.0
  0
LINE
  5
5BA
330
1A
100
AcDbEntity
  8
SEIHIN
  6
CONTINUOUS
100
AcDbLine
 10
680.4668290448658
 20
204.2785145875463
 30
0.0
 11
650.6263290448657
 21
202.0405145875463
 31
0.0
  0
LINE
  5
5BB
330
1A
100
AcDbEntity
  8
SEIHIN
  6
CONTINUOUS
100
AcDbLine
 10
621.0528290448658
 20
204.8235145875463
 30
0.0
 11
621.0528290448658
 21
203.8224145875463
 31
0.0
  0
LINE
  5
5BC
330
1A
100
AcDbEntity
  8
SEIHIN
  6
CONTINUOUS
100
AcDbLine
 10
621.0528290448658
 20
216.8232145875463
 30
0.0
 11
621.0528290448658
 21
215.8220145875463
 31
0.0
  0
LINE
  5
5BD
330
1A
100
AcDbEntity
  8
SEIHIN
  6
CONTINUOUS
100
AcDbLine
 10
621.0528290448658
 20
212.8233145875463
 30
0.0
 11
621.0528290448658
 21
211.8222145875463
 31
0.0
  0
LINE
  5
5BE
330
1A
100
AcDbEntity
  8
SEIHIN
  6
CONTINUOUS
100
AcDbLine
 10
621.0528290448658
 20
208.8234145875463
 30
0.0
 11
621.0528290448658
 21
207.8223145875463
 31
0.0
  0
LINE
  5
5BF
330
1A
100
AcDbEntity
  8
SEIHIN
  6
CONTINUOUS
100
AcDbLine
 10
681.6746290448658
 20
202.9567145875463
 30
0.0
 11
669.4568290448658
 21
202.0404145875463
 31
0.0
  0
LINE
  5
5C0
330
1A
100
AcDbEntity
  8
SEIHIN
  6
CONTINUOUS
100
AcDbLine
 10
681.6746290448658
 20
206.4578145875463
 30
0.0
 11
680.4668290448658
 21
205.2796145875463
 31
0.0
  0
LINE
  5
5C1
330
1A
100
AcDbEntity
  8
SEIHIN
  6
CONTINUOUS
100
AcDbLine
 10
681.6746290448658
 20
202.4579145875463
 30
0.0
 11
676.1080290448658
 21
202.0404145875463
 31
0.0
  0
LINE
  5
5C2
330
1A
100
AcDbEntity
  8
SEIHIN
  6
CONTINUOUS
100
AcDbLine
 10
680.4668290448658
 20
204.2785145875463
 30
0.0
 11
681.6746290448658
 21
202.9567145875463
 31
0.0
  0
LINE
  5
5C3
330
1A
100
AcDbEntity
  8
SEIHIN
  6
CONTINUOUS
100
AcDbLine
 10
681.6746290448658
 20
202.9567145875463
 30
0.0
 11
681.6746290448658
 21
202.4579145875463
 31
0.0
  0
LINE
  5
5C4
330
1A
100
AcDbEntity
  8
SEIHIN
  6
CONTINUOUS
100
AcDbLine
 10
681.6746290448658
 20
202.4579145875463
 30
0.0
 11
681.2466290448658
 21
202.0404145875463
 31
0.0
  0
LINE
  5
5C5
330
1A
100
AcDbEntity
  8
SEIHIN
  6
CONTINUOUS
100
AcDbLine
 10
681.6746290448658
 20
214.4576145875463
 30
0.0
 11
680.4668290448658
 21
213.2794145875463
 31
0.0
  0
LINE
  5
5C6
330
1A
100
AcDbEntity
  8
SEIHIN
  6
CONTINUOUS
100
AcDbLine
 10
681.6746290448658
 20
214.9564145875463
 30
0.0
 11
681.6746290448658
 21
214.4576145875463
 31
0.0
  0
LINE
  5
5C7
330
1A
100
AcDbEntity
  8
SEIHIN
  6
CONTINUOUS
100
AcDbLine
 10
680.4668290448658
 20
216.2782145875463
 30
0.0
 11
681.6746290448658
 21
214.9564145875463
 31
0.0
  0
LINE
  5
5C8
330
1A
100
AcDbEntity
  8
SEIHIN
  6
CONTINUOUS
100
AcDbLine
 10
681.6746290448658
 20
210.9565145875464
 30
0.0
 11
681.6746290448658
 21
210.4577145875463
 31
0.0
  0
LINE
  5
5C9
330
1A
100
AcDbEntity
  8
SEIHIN
  6
CONTINUOUS
100
AcDbLine
 10
680.4668290448658
 20
212.2783145875463
 30
0.0
 11
681.6746290448658
 21
210.9565145875464
 31
0.0
  0
LINE
  5
5CA
330
1A
100
AcDbEntity
  8
SEIHIN
  6
CONTINUOUS
100
AcDbLine
 10
681.6746290448658
 20
210.4577145875463
 30
0.0
 11
680.4668290448658
 21
209.2795145875463
 31
0.0
  0
LINE
  5
5CB
330
1A
100
AcDbEntity
  8
SEIHIN
  6
CONTINUOUS
100
AcDbLine
 10
680.4668290448658
 20
208.2784145875463
 30
0.0
 11
681.6746290448658
 21
206.9566145875463
 31
0.0
  0
LINE
  5
5CC
330
1A
100
AcDbEntity
  8
SEIHIN
  6
CONTINUOUS
100
AcDbLine
 10
681.6746290448658
 20
206.9566145875463
 30
0.0
 11
681.6746290448658
 21
206.4578145875463
 31
0.0
  0
LINE
  5
5CD
330
1A
100
AcDbEntity
  8
SEIHIN
  6
CONTINUOUS
100
AcDbLine
 10
680.4668290448658
 20
229.2790145875463
 30
0.0
 11
621.0528290448658
 21
224.8230145875463
 31
0.0
  0
LINE
  5
5CE
330
1A
100
AcDbEntity
  8
SEIHIN
  6
CONTINUOUS
100
AcDbLine
 10
680.4668290448658
 20
228.2778145875463
 30
0.0
 11
621.0528290448658
 21
223.8218145875463
 31
0.0
  0
LINE
  5
5CF
330
1A
100
AcDbEntity
  8
SEIHIN
  6
CONTINUOUS
100
AcDbLine
 10
680.4668290448658
 20
236.2776145875463
 30
0.0
 11
621.0528290448658
 21
231.8216145875463
 31
0.0
  0
LINE
  5
5D0
330
1A
100
AcDbEntity
  8
SEIHIN
  6
CONTINUOUS
100
AcDbLine
 10
673.9627290448658
 20
236.7910145875463
 30
0.0
 11
621.0528290448658
 21
232.8227145875463
 31
0.0
  0
LINE
  5
5D1
330
1A
100
AcDbEntity
  8
SEIHIN
  6
CONTINUOUS
100
AcDbLine
 10
680.4668290448658
 20
232.2777145875463
 30
0.0
 11
621.0528290448658
 21
227.8217145875463
 31
0.0
  0
LINE
  5
5D2
330
1A
100
AcDbEntity
  8
SEIHIN
  6
CONTINUOUS
100
AcDbLine
 10
680.4668290448658
 20
233.2789145875463
 30
0.0
 11
621.0528290448658
 21
228.8229145875463
 31
0.0
  0
LINE
  5
5D3
330
1A
100
AcDbEntity
  8
SEIHIN
  6
CONTINUOUS
100
AcDbLine
 10
680.4668290448658
 20
224.2779145875463
 30
0.0
 11
621.0528290448658
 21
219.8219145875463
 31
0.0
  0
LINE
  5
5D4
330
1A
100
AcDbEntity
  8
SEIHIN
  6
CONTINUOUS
100
AcDbLine
 10
680.4668290448658
 20
225.2791145875463
 30
0.0
 11
621.0528290448658
 21
220.8231145875463
 31
0.0
  0
LINE
  5
5D5
330
1A
100
AcDbEntity
  8
SEIHIN
  6
CONTINUOUS
100
AcDbLine
 10
621.0528290448658
 20
224.8230145875463
 30
0.0
 11
621.0528290448658
 21
223.8218145875463
 31
0.0
  0
LINE
  5
5D6
330
1A
100
AcDbEntity
  8
SEIHIN
  6
CONTINUOUS
100
AcDbLine
 10
621.0528290448658
 20
220.8231145875463
 30
0.0
 11
621.0528290448658
 21
219.8219145875463
 31
0.0
  0
LINE
  5
5D7
330
1A
100
AcDbEntity
  8
SEIHIN
  6
CONTINUOUS
100
AcDbLine
 10
621.0528290448658
 20
228.8229145875463
 30
0.0
 11
621.0528290448658
 21
227.8217145875463
 31
0.0
  0
LINE
  5
5D8
330
1A
100
AcDbEntity
  8
SEIHIN
  6
CONTINUOUS
100
AcDbLine
 10
633.9806290448657
 20
236.7911145875463
 30
0.0
 11
621.0528290448658
 21
235.8215145875463
 31
0.0
  0
LINE
  5
5D9
330
1A
100
AcDbEntity
  8
SEIHIN
  6
CONTINUOUS
100
AcDbLine
 10
621.0528290448658
 20
236.8226145875463
 30
0.0
 11
621.0528290448658
 21
235.8215145875463
 31
0.0
  0
LINE
  5
5DA
330
1A
100
AcDbEntity
  8
SEIHIN
  6
CONTINUOUS
100
AcDbLine
 10
621.0528290448658
 20
232.8227145875463
 30
0.0
 11
621.0528290448658
 21
231.8216145875463
 31
0.0
  0
LINE
  5
5DB
330
1A
100
AcDbEntity
  8
SEIHIN
  6
CONTINUOUS
100
AcDbLine
 10
680.4668290448658
 20
228.2778145875463
 30
0.0
 11
681.6746290448658
 21
226.9561145875463
 31
0.0
  0
LINE
  5
5DC
330
1A
100
AcDbEntity
  8
SEIHIN
  6
CONTINUOUS
100
AcDbLine
 10
681.6746290448658
 20
226.9561145875463
 30
0.0
 11
681.6746290448658
 21
226.4572145875463
 31
0.0
  0
LINE
  5
5DD
330
1A
100
AcDbEntity
  8
SEIHIN
  6
CONTINUOUS
100
AcDbLine
 10
680.4668290448658
 20
220.2781145875464
 30
0.0
 11
681.6746290448658
 21
218.9563145875463
 31
0.0
  0
LINE
  5
5DE
330
1A
100
AcDbEntity
  8
SEIHIN
  6
CONTINUOUS
100
AcDbLine
 10
681.6746290448658
 20
222.4573145875463
 30
0.0
 11
680.4668290448658
 21
221.2792145875463
 31
0.0
  0
LINE
  5
5DF
330
1A
100
AcDbEntity
  8
SEIHIN
  6
CONTINUOUS
100
AcDbLine
 10
681.6746290448658
 20
218.9563145875463
 30
0.0
 11
681.6746290448658
 21
218.4575145875463
 31
0.0
  0
LINE
  5
5E0
330
1A
100
AcDbEntity
  8
SEIHIN
  6
CONTINUOUS
100
AcDbLine
 10
680.4668290448658
 20
224.2779145875463
 30
0.0
 11
681.6746290448658
 21
222.9562145875463
 31
0.0
  0
LINE
  5
5E1
330
1A
100
AcDbEntity
  8
SEIHIN
  6
CONTINUOUS
100
AcDbLine
 10
681.6746290448658
 20
226.4572145875463
 30
0.0
 11
680.4668290448658
 21
225.2791145875463
 31
0.0
  0
LINE
  5
5E2
330
1A
100
AcDbEntity
  8
SEIHIN
  6
CONTINUOUS
100
AcDbLine
 10
681.6746290448658
 20
222.9562145875463
 30
0.0
 11
681.6746290448658
 21
222.4573145875463
 31
0.0
  0
LINE
  5
5E3
330
1A
100
AcDbEntity
  8
SEIHIN
  6
CONTINUOUS
100
AcDbLine
 10
681.6746290448658
 20
234.4570145875463
 30
0.0
 11
680.4668290448658
 21
233.2789145875463
 31
0.0
  0
LINE
  5
5E4
330
1A
100
AcDbEntity
  8
SEIHIN
  6
CONTINUOUS
100
AcDbLine
 10
680.4668290448658
 20
236.2776145875463
 30
0.0
 11
681.6746290448658
 21
234.9559145875463
 31
0.0
  0
LINE
  5
5E5
330
1A
100
AcDbEntity
  8
SEIHIN
  6
CONTINUOUS
100
AcDbLine
 10
681.6746290448658
 20
234.9559145875463
 30
0.0
 11
681.6746290448658
 21
234.4570145875463
 31
0.0
  0
LINE
  5
5E6
330
1A
100
AcDbEntity
  8
SEIHIN
  6
CONTINUOUS
100
AcDbLine
 10
681.6746290448658
 20
230.9560145875463
 30
0.0
 11
681.6746290448658
 21
230.4571145875463
 31
0.0
  0
LINE
  5
5E7
330
1A
100
AcDbEntity
  8
SEIHIN
  6
CONTINUOUS
100
AcDbLine
 10
680.4668290448658
 20
232.2777145875463
 30
0.0
 11
681.6746290448658
 21
230.9560145875463
 31
0.0
  0
LINE
  5
5E8
330
1A
100
AcDbEntity
  8
SEIHIN
  6
CONTINUOUS
100
AcDbLine
 10
681.6746290448658
 20
230.4571145875463
 30
0.0
 11
680.4668290448658
 21
229.2790145875463
 31
0.0
  0
LINE
  5
5EA
330
1A
100
AcDbEntity
  8
SEIHIN
  6
CONTINUOUS
100
AcDbLine
 10
768.9498290448657
 20
205.0402145875463
 30
0.0
 11
768.9499290448658
 21
235.0402145875463
 31
0.0
  0
LINE
  5
5EB
330
1A
100
AcDbEntity
  8
SEIHIN
  6
CONTINUOUS
100
AcDbLine
 10
766.1248290448658
 20
237.0402145875463
 30
0.0
 11
766.1248290448658
 21
202.0402145875463
 31
0.0
  0
LINE
  5
5EC
330
1A
100
AcDbEntity
  8
SEIHIN
  6
CONTINUOUS
100
AcDbLine
 10
755.6465290448658
 20
217.9166145875463
 30
0.0
 11
758.0621290448657
 21
216.6855145875463
 31
0.0
  0
LINE
  5
5ED
330
1A
100
AcDbEntity
  8
SEIHIN
  6
CONTINUOUS
100
AcDbLine
 10
763.9598290448658
 20
218.5401145875463
 30
0.0
 11
766.1248290448658
 21
217.2902145875463
 31
0.0
  0
LINE
  5
5F1
330
1A
100
AcDbEntity
  8
SEIHIN
  6
CONTINUOUS
100
AcDbLine
 10
768.8498290448658
 20
200.0402145875463
 30
0.0
 11
756.3748290448658
 21
200.0402145875463
 31
0.0
  0
LINE
  5
5F2
330
1A
100
AcDbEntity
  8
SEIHIN
  6
CONTINUOUS
100
AcDbLine
 10
763.9598290448658
 20
206.5404145875463
 30
0.0
 11
755.6465290448658
 21
205.9170145875463
 31
0.0
  0
LINE
  5
5F3
330
1A
100
AcDbEntity
  8
SEIHIN
  6
CONTINUOUS
100
AcDbLine
 10
755.6465290448658
 20
206.9181145875463
 30
0.0
 11
755.6465290448658
 21
205.9170145875463
 31
0.0
  0
LINE
  5
5F4
330
1A
100
AcDbEntity
  8
SEIHIN
  6
CONTINUOUS
100
AcDbLine
 10
763.9598290448658
 20
206.5404145875463
 30
0.0
 11
766.1248290448658
 21
205.2905145875463
 31
0.0
  0
LINE
  5
5F5
330
1A
100
AcDbEntity
  8
SEIHIN
  6
CONTINUOUS
100
AcDbLine
 10
766.1248290448658
 20
205.2905145875463
 30
0.0
 11
758.0621290448657
 21
204.6858145875463
 31
0.0
  0
LINE
  5
5F6
330
1A
100
AcDbEntity
  8
SEIHIN
  6
CONTINUOUS
100
AcDbLine
 10
763.9598290448658
 20
203.5417145875463
 30
0.0
 11
755.6465290448658
 21
202.9182145875463
 31
0.0
  0
LINE
  5
5F7
330
1A
100
AcDbEntity
  8
SEIHIN
  6
CONTINUOUS
100
AcDbLine
 10
766.1248290448658
 20
204.7916145875463
 30
0.0
 11
758.0621290448657
 21
204.1869145875462
 31
0.0
  0
LINE
  5
5F8
330
1A
100
AcDbEntity
  8
SEIHIN
  6
CONTINUOUS
100
AcDbLine
 10
763.9598290448658
 20
202.5406145875463
 30
0.0
 11
757.2888290448657
 21
202.0402145875463
 31
0.0
  0
LINE
  5
5F9
330
1A
100
AcDbEntity
  8
SEIHIN
  6
CONTINUOUS
100
AcDbLine
 10
755.6465290448658
 20
205.9170145875463
 30
0.0
 11
758.0621290448657
 21
204.6858145875463
 31
0.0
  0
LINE
  5
5FA
330
1A
100
AcDbEntity
  8
SEIHIN
  6
CONTINUOUS
100
AcDbLine
 10
758.0621290448657
 20
204.1869145875462
 30
0.0
 11
755.6465290448658
 21
202.9182145875463
 31
0.0
  0
LINE
  5
5FB
330
1A
100
AcDbEntity
  8
SEIHIN
  6
CONTINUOUS
100
AcDbLine
 10
755.6465290448658
 20
202.9182145875463
 30
0.0
 11
755.6465290448658
 21
202.0402145875463
 31
0.0
  0
LINE
  5
5FC
330
1A
100
AcDbEntity
  8
SEIHIN
  6
CONTINUOUS
100
AcDbLine
 10
758.0621290448657
 20
204.6858145875463
 30
0.0
 11
758.0621290448657
 21
204.1869145875462
 31
0.0
  0
LINE
  5
5FD
330
1A
100
AcDbEntity
  8
SEIHIN
  6
CONTINUOUS
100
AcDbLine
 10
766.1248290448658
 20
204.7916145875463
 30
0.0
 11
763.9598290448658
 21
203.5417145875463
 31
0.0
  0
LINE
  5
5FE
330
1A
100
AcDbEntity
  8
SEIHIN
  6
CONTINUOUS
100
AcDbLine
 10
763.9598290448658
 20
202.5406145875463
 30
0.0
 11
764.8264290448658
 21
202.0402145875463
 31
0.0
  0
LINE
  5
5FF
330
1A
100
AcDbEntity
  8
SEIHIN
  6
CONTINUOUS
100
AcDbLine
 10
763.9598290448658
 20
202.5406145875463
 30
0.0
 11
763.9598290448658
 21
203.5417145875463
 31
0.0
  0
LINE
  5
600
330
1A
100
AcDbEntity
  8
SEIHIN
  6
CONTINUOUS
100
AcDbLine
 10
763.9598290448658
 20
214.5402145875463
 30
0.0
 11
755.6465290448658
 21
213.9167145875463
 31
0.0
  0
LINE
  5
601
330
1A
100
AcDbEntity
  8
SEIHIN
  6
CONTINUOUS
100
AcDbLine
 10
763.9598290448658
 20
215.5414145875463
 30
0.0
 11
755.6465290448658
 21
214.9179145875462
 31
0.0
  0
LINE
  5
602
330
1A
100
AcDbEntity
  8
SEIHIN
  6
CONTINUOUS
100
AcDbLine
 10
763.9598290448658
 20
210.5403145875464
 30
0.0
 11
755.6465290448658
 21
209.9168145875463
 31
0.0
  0
LINE
  5
603
330
1A
100
AcDbEntity
  8
SEIHIN
  6
CONTINUOUS
100
AcDbLine
 10
763.9598290448658
 20
211.5415145875463
 30
0.0
 11
755.6465290448658
 21
210.9180145875463
 31
0.0
  0
LINE
  5
604
330
1A
100
AcDbEntity
  8
SEIHIN
  6
CONTINUOUS
100
AcDbLine
 10
763.9598290448658
 20
207.5416145875463
 30
0.0
 11
755.6465290448658
 21
206.9181145875463
 31
0.0
  0
LINE
  5
605
330
1A
100
AcDbEntity
  8
SEIHIN
  6
CONTINUOUS
100
AcDbLine
 10
766.1248290448658
 20
216.7913145875463
 30
0.0
 11
758.0621290448657
 21
216.1866145875463
 31
0.0
  0
LINE
  5
606
330
1A
100
AcDbEntity
  8
SEIHIN
  6
CONTINUOUS
100
AcDbLine
 10
766.1248290448658
 20
213.2903145875463
 30
0.0
 11
758.0621290448657
 21
212.6856145875463
 31
0.0
  0
LINE
  5
607
330
1A
100
AcDbEntity
  8
SEIHIN
  6
CONTINUOUS
100
AcDbLine
 10
766.1248290448658
 20
209.2904145875463
 30
0.0
 11
758.0621290448657
 21
208.6857145875463
 31
0.0
  0
LINE
  5
608
330
1A
100
AcDbEntity
  8
SEIHIN
  6
CONTINUOUS
100
AcDbLine
 10
766.1248290448658
 20
212.7914145875463
 30
0.0
 11
758.0621290448657
 21
212.1867145875463
 31
0.0
  0
LINE
  5
609
330
1A
100
AcDbEntity
  8
SEIHIN
  6
CONTINUOUS
100
AcDbLine
 10
766.1248290448658
 20
208.7915145875463
 30
0.0
 11
758.0621290448657
 21
208.1868145875463
 31
0.0
  0
LINE
  5
60A
330
1A
100
AcDbEntity
  8
SEIHIN
  6
CONTINUOUS
100
AcDbLine
 10
766.1248290448658
 20
217.2902145875463
 30
0.0
 11
758.0621290448657
 21
216.6855145875463
 31
0.0
  0
LINE
  5
60B
330
1A
100
AcDbEntity
  8
SEIHIN
  6
CONTINUOUS
100
AcDbLine
 10
758.0621290448657
 20
216.1866145875463
 30
0.0
 11
755.6465290448658
 21
214.9179145875462
 31
0.0
  0
LINE
  5
60C
330
1A
100
AcDbEntity
  8
SEIHIN
  6
CONTINUOUS
100
AcDbLine
 10
755.6465290448658
 20
213.9167145875463
 30
0.0
 11
758.0621290448657
 21
212.6856145875463
 31
0.0
  0
LINE
  5
60D
330
1A
100
AcDbEntity
  8
SEIHIN
  6
CONTINUOUS
100
AcDbLine
 10
758.0621290448657
 20
212.1867145875463
 30
0.0
 11
755.6465290448658
 21
210.9180145875463
 31
0.0
  0
LINE
  5
60E
330
1A
100
AcDbEntity
  8
SEIHIN
  6
CONTINUOUS
100
AcDbLine
 10
758.0621290448657
 20
208.1868145875463
 30
0.0
 11
755.6465290448658
 21
206.9181145875463
 31
0.0
  0
LINE
  5
60F
330
1A
100
AcDbEntity
  8
SEIHIN
  6
CONTINUOUS
100
AcDbLine
 10
755.6465290448658
 20
209.9168145875463
 30
0.0
 11
758.0621290448657
 21
208.6857145875463
 31
0.0
  0
LINE
  5
610
330
1A
100
AcDbEntity
  8
SEIHIN
  6
CONTINUOUS
100
AcDbLine
 10
755.6465290448658
 20
214.9179145875462
 30
0.0
 11
755.6465290448658
 21
213.9167145875463
 31
0.0
  0
LINE
  5
611
330
1A
100
AcDbEntity
  8
SEIHIN
  6
CONTINUOUS
100
AcDbLine
 10
755.6465290448658
 20
210.9180145875463
 30
0.0
 11
755.6465290448658
 21
209.9168145875463
 31
0.0
  0
LINE
  5
612
330
1A
100
AcDbEntity
  8
SEIHIN
  6
CONTINUOUS
100
AcDbLine
 10
758.0621290448657
 20
216.6855145875463
 30
0.0
 11
758.0621290448657
 21
216.1866145875463
 31
0.0
  0
LINE
  5
613
330
1A
100
AcDbEntity
  8
SEIHIN
  6
CONTINUOUS
100
AcDbLine
 10
758.0621290448657
 20
208.6857145875463
 30
0.0
 11
758.0621290448657
 21
208.1868145875463
 31
0.0
  0
LINE
  5
614
330
1A
100
AcDbEntity
  8
SEIHIN
  6
CONTINUOUS
100
AcDbLine
 10
758.0621290448657
 20
212.6856145875463
 30
0.0
 11
758.0621290448657
 21
212.1867145875463
 31
0.0
  0
LINE
  5
615
330
1A
100
AcDbEntity
  8
SEIHIN
  6
CONTINUOUS
100
AcDbLine
 10
766.1248290448658
 20
216.7913145875463
 30
0.0
 11
763.9598290448658
 21
215.5414145875463
 31
0.0
  0
LINE
  5
616
330
1A
100
AcDbEntity
  8
SEIHIN
  6
CONTINUOUS
100
AcDbLine
 10
763.9598290448658
 20
214.5402145875463
 30
0.0
 11
766.1248290448658
 21
213.2903145875463
 31
0.0
  0
LINE
  5
617
330
1A
100
AcDbEntity
  8
SEIHIN
  6
CONTINUOUS
100
AcDbLine
 10
766.1248290448658
 20
212.7914145875463
 30
0.0
 11
763.9598290448658
 21
211.5415145875463
 31
0.0
  0
LINE
  5
618
330
1A
100
AcDbEntity
  8
SEIHIN
  6
CONTINUOUS
100
AcDbLine
 10
763.9598290448658
 20
210.5403145875464
 30
0.0
 11
766.1248290448658
 21
209.2904145875463
 31
0.0
  0
LINE
  5
619
330
1A
100
AcDbEntity
  8
SEIHIN
  6
CONTINUOUS
100
AcDbLine
 10
766.1248290448658
 20
208.7915145875463
 30
0.0
 11
763.9598290448658
 21
207.5416145875463
 31
0.0
  0
LINE
  5
61A
330
1A
100
AcDbEntity
  8
SEIHIN
  6
CONTINUOUS
100
AcDbLine
 10
763.9598290448658
 20
214.5402145875463
 30
0.0
 11
763.9598290448658
 21
215.5414145875463
 31
0.0
  0
LINE
  5
61B
330
1A
100
AcDbEntity
  8
SEIHIN
  6
CONTINUOUS
100
AcDbLine
 10
763.9598290448658
 20
210.5403145875464
 30
0.0
 11
763.9598290448658
 21
211.5415145875463
 31
0.0
  0
LINE
  5
61C
330
1A
100
AcDbEntity
  8
SEIHIN
  6
CONTINUOUS
100
AcDbLine
 10
763.9598290448658
 20
206.5404145875463
 30
0.0
 11
763.9598290448658
 21
207.5416145875463
 31
0.0
  0
LINE
  5
61D
330
1A
100
AcDbEntity
  8
SEIHIN
  6
CONTINUOUS
100
AcDbLine
 10
766.1248290448658
 20
213.2903145875463
 30
0.0
 11
766.1248290448658
 21
212.7914145875463
 31
0.0
  0
LINE
  5
61E
330
1A
100
AcDbEntity
  8
SEIHIN
  6
CONTINUOUS
100
AcDbLine
 10
766.1248290448658
 20
209.2904145875463
 30
0.0
 11
766.1248290448658
 21
208.7915145875463
 31
0.0
  0
LINE
  5
61F
330
1A
100
AcDbEntity
  8
SEIHIN
  6
CONTINUOUS
100
AcDbLine
 10
766.1248290448658
 20
217.2902145875463
 30
0.0
 11
766.1248290448658
 21
216.7913145875463
 31
0.0
  0
LINE
  5
620
330
1A
100
AcDbEntity
  8
SEIHIN
  6
CONTINUOUS
100
AcDbLine
 10
768.8498290448658
 20
205.0402145875463
 30
0.0
 11
768.9498290448657
 21
205.0402145875463
 31
0.0
  0
LINE
  5
621
330
1A
100
AcDbEntity
  8
SEIHIN
  6
CONTINUOUS
100
AcDbLine
 10
768.8498290448658
 20
205.0402145875463
 30
0.0
 11
768.8498290448658
 21
200.0402145875463
 31
0.0
  0
LINE
  5
627
330
1A
100
AcDbEntity
  8
SEIHIN
  6
CONTINUOUS
100
AcDbLine
 10
786.1249290448657
 20
236.0402145875463
 30
0.0
 11
781.1251290448658
 21
235.0402145875463
 31
0.0
  0
LINE
  5
628
330
1A
100
AcDbEntity
  8
SEIHIN
  6
CONTINUOUS
100
AcDbLine
 10
755.6465290448658
 20
229.9163145875463
 30
0.0
 11
758.0621290448657
 21
228.6852145875463
 31
0.0
  0
LINE
  5
629
330
1A
100
AcDbEntity
  8
SEIHIN
  6
CONTINUOUS
100
AcDbLine
 10
766.1248290448658
 20
229.2898145875463
 30
0.0
 11
758.0621290448657
 21
228.6852145875463
 31
0.0
  0
LINE
  5
62A
330
1A
100
AcDbEntity
  8
SEIHIN
  6
CONTINUOUS
100
AcDbLine
 10
766.1248290448658
 20
229.2898145875463
 30
0.0
 11
766.1248290448658
 21
228.7910145875463
 31
0.0
  0
LINE
  5
62B
330
1A
100
AcDbEntity
  8
SEIHIN
  6
CONTINUOUS
100
AcDbLine
 10
763.9598290448658
 20
223.5411145875463
 30
0.0
 11
755.6465290448658
 21
222.9177145875463
 31
0.0
  0
LINE
  5
62C
330
1A
100
AcDbEntity
  8
SEIHIN
  6
CONTINUOUS
100
AcDbLine
 10
763.9598290448658
 20
222.5400145875463
 30
0.0
 11
755.6465290448658
 21
221.9165145875463
 31
0.0
  0
LINE
  5
62D
330
1A
100
AcDbEntity
  8
SEIHIN
  6
CONTINUOUS
100
AcDbLine
 10
763.9598290448658
 20
227.5410145875463
 30
0.0
 11
755.6465290448658
 21
226.9175145875463
 31
0.0
  0
LINE
  5
62E
330
1A
100
AcDbEntity
  8
SEIHIN
  6
CONTINUOUS
100
AcDbLine
 10
763.9598290448658
 20
226.5399145875463
 30
0.0
 11
755.6465290448658
 21
225.9164145875463
 31
0.0
  0
LINE
  5
62F
330
1A
100
AcDbEntity
  8
SEIHIN
  6
CONTINUOUS
100
AcDbLine
 10
763.9598290448658
 20
218.5401145875463
 30
0.0
 11
755.6465290448658
 21
217.9166145875463
 31
0.0
  0
LINE
  5
630
330
1A
100
AcDbEntity
  8
SEIHIN
  6
CONTINUOUS
100
AcDbLine
 10
763.9598290448658
 20
219.5413145875463
 30
0.0
 11
755.6465290448658
 21
218.9178145875463
 31
0.0
  0
LINE
  5
631
330
1A
100
AcDbEntity
  8
SEIHIN
  6
CONTINUOUS
100
AcDbLine
 10
766.1248290448658
 20
221.2901145875463
 30
0.0
 11
758.0621290448657
 21
220.6854145875463
 31
0.0
  0
LINE
  5
632
330
1A
100
AcDbEntity
  8
SEIHIN
  6
CONTINUOUS
100
AcDbLine
 10
766.1248290448658
 20
225.2900145875463
 30
0.0
 11
758.0621290448657
 21
224.6853145875463
 31
0.0
  0
LINE
  5
633
330
1A
100
AcDbEntity
  8
SEIHIN
  6
CONTINUOUS
100
AcDbLine
 10
766.1248290448658
 20
224.7911145875463
 30
0.0
 11
758.0621290448657
 21
224.1864145875463
 31
0.0
  0
LINE
  5
634
330
1A
100
AcDbEntity
  8
SEIHIN
  6
CONTINUOUS
100
AcDbLine
 10
766.1248290448658
 20
220.7912145875463
 30
0.0
 11
758.0621290448657
 21
220.1865145875463
 31
0.0
  0
LINE
  5
635
330
1A
100
AcDbEntity
  8
SEIHIN
  6
CONTINUOUS
100
AcDbLine
 10
766.1248290448658
 20
228.7910145875463
 30
0.0
 11
758.0621290448657
 21
228.1863145875463
 31
0.0
  0
LINE
  5
636
330
1A
100
AcDbEntity
  8
SEIHIN
  6
CONTINUOUS
100
AcDbLine
 10
755.6465290448658
 20
225.9164145875463
 30
0.0
 11
758.0621290448657
 21
224.6853145875463
 31
0.0
  0
LINE
  5
637
330
1A
100
AcDbEntity
  8
SEIHIN
  6
CONTINUOUS
100
AcDbLine
 10
758.0621290448657
 20
228.1863145875463
 30
0.0
 11
755.6465290448658
 21
226.9175145875463
 31
0.0
  0
LINE
  5
638
330
1A
100
AcDbEntity
  8
SEIHIN
  6
CONTINUOUS
100
AcDbLine
 10
758.0621290448657
 20
224.1864145875463
 30
0.0
 11
755.6465290448658
 21
222.9177145875463
 31
0.0
  0
LINE
  5
639
330
1A
100
AcDbEntity
  8
SEIHIN
  6
CONTINUOUS
100
AcDbLine
 10
755.6465290448658
 20
221.9165145875463
 30
0.0
 11
758.0621290448657
 21
220.6854145875463
 31
0.0
  0
LINE
  5
63A
330
1A
100
AcDbEntity
  8
SEIHIN
  6
CONTINUOUS
100
AcDbLine
 10
758.0621290448657
 20
220.1865145875463
 30
0.0
 11
755.6465290448658
 21
218.9178145875463
 31
0.0
  0
LINE
  5
63B
330
1A
100
AcDbEntity
  8
SEIHIN
  6
CONTINUOUS
100
AcDbLine
 10
755.6465290448658
 20
226.9175145875463
 30
0.0
 11
755.6465290448658
 21
225.9164145875463
 31
0.0
  0
LINE
  5
63C
330
1A
100
AcDbEntity
  8
SEIHIN
  6
CONTINUOUS
100
AcDbLine
 10
755.6465290448658
 20
222.9177145875463
 30
0.0
 11
755.6465290448658
 21
221.9165145875463
 31
0.0
  0
LINE
  5
63D
330
1A
100
AcDbEntity
  8
SEIHIN
  6
CONTINUOUS
100
AcDbLine
 10
755.6465290448658
 20
218.9178145875463
 30
0.0
 11
755.6465290448658
 21
217.9166145875463
 31
0.0
  0
LINE
  5
63E
330
1A
100
AcDbEntity
  8
SEIHIN
  6
CONTINUOUS
100
AcDbLine
 10
758.0621290448657
 20
224.6853145875463
 30
0.0
 11
758.0621290448657
 21
224.1864145875463
 31
0.0
  0
LINE
  5
63F
330
1A
100
AcDbEntity
  8
SEIHIN
  6
CONTINUOUS
100
AcDbLine
 10
758.0621290448657
 20
220.6854145875463
 30
0.0
 11
758.0621290448657
 21
220.1865145875463
 31
0.0
  0
LINE
  5
640
330
1A
100
AcDbEntity
  8
SEIHIN
  6
CONTINUOUS
100
AcDbLine
 10
758.0621290448657
 20
228.6852145875463
 30
0.0
 11
758.0621290448657
 21
228.1863145875463
 31
0.0
  0
LINE
  5
641
330
1A
100
AcDbEntity
  8
SEIHIN
  6
CONTINUOUS
100
AcDbLine
 10
763.9598290448658
 20
226.5399145875463
 30
0.0
 11
763.9598290448658
 21
227.5410145875463
 31
0.0
  0
LINE
  5
642
330
1A
100
AcDbEntity
  8
SEIHIN
  6
CONTINUOUS
100
AcDbLine
 10
763.9598290448658
 20
222.5400145875463
 30
0.0
 11
766.1248290448658
 21
221.2901145875463
 31
0.0
  0
LINE
  5
643
330
1A
100
AcDbEntity
  8
SEIHIN
  6
CONTINUOUS
100
AcDbLine
 10
766.1248290448658
 20
224.7911145875463
 30
0.0
 11
763.9598290448658
 21
223.5411145875463
 31
0.0
  0
LINE
  5
644
330
1A
100
AcDbEntity
  8
SEIHIN
  6
CONTINUOUS
100
AcDbLine
 10
763.9598290448658
 20
226.5399145875463
 30
0.0
 11
766.1248290448658
 21
225.2900145875463
 31
0.0
  0
LINE
  5
645
330
1A
100
AcDbEntity
  8
SEIHIN
  6
CONTINUOUS
100
AcDbLine
 10
766.1248290448658
 20
220.7912145875463
 30
0.0
 11
763.9598290448658
 21
219.5413145875463
 31
0.0
  0
LINE
  5
646
330
1A
100
AcDbEntity
  8
SEIHIN
  6
CONTINUOUS
100
AcDbLine
 10
763.9598290448658
 20
222.5400145875463
 30
0.0
 11
763.9598290448658
 21
223.5411145875463
 31
0.0
  0
LINE
  5
647
330
1A
100
AcDbEntity
  8
SEIHIN
  6
CONTINUOUS
100
AcDbLine
 10
763.9598290448658
 20
218.5401145875463
 30
0.0
 11
763.9598290448658
 21
219.5413145875463
 31
0.0
  0
LINE
  5
648
330
1A
100
AcDbEntity
  8
SEIHIN
  6
CONTINUOUS
100
AcDbLine
 10
766.1248290448658
 20
225.2900145875463
 30
0.0
 11
766.1248290448658
 21
224.7911145875463
 31
0.0
  0
LINE
  5
649
330
1A
100
AcDbEntity
  8
SEIHIN
  6
CONTINUOUS
100
AcDbLine
 10
766.1248290448658
 20
221.2901145875463
 30
0.0
 11
766.1248290448658
 21
220.7912145875463
 31
0.0
  0
LINE
  5
64A
330
1A
100
AcDbEntity
  8
SEIHIN
  6
CONTINUOUS
100
AcDbLine
 10
766.1248290448658
 20
228.7910145875463
 30
0.0
 11
763.9598290448658
 21
227.5410145875463
 31
0.0
  0
LINE
  5
64B
330
1A
100
AcDbEntity
  8
SEIHIN
  6
CONTINUOUS
100
AcDbLine
 10
763.9598290448658
 20
230.5398145875463
 30
0.0
 11
755.6465290448658
 21
229.9163145875463
 31
0.0
  0
LINE
  5
64C
330
1A
100
AcDbEntity
  8
SEIHIN
  6
CONTINUOUS
100
AcDbLine
 10
763.9598290448658
 20
234.5397145875462
 30
0.0
 11
755.6465290448658
 21
233.9162145875463
 31
0.0
  0
LINE
  5
64D
330
1A
100
AcDbEntity
  8
SEIHIN
  6
CONTINUOUS
100
AcDbLine
 10
763.9598290448658
 20
235.5408145875463
 30
0.0
 11
755.6465290448658
 21
234.9173145875463
 31
0.0
  0
LINE
  5
64E
330
1A
100
AcDbEntity
  8
SEIHIN
  6
CONTINUOUS
100
AcDbLine
 10
763.9598290448658
 20
231.5409145875463
 30
0.0
 11
755.6465290448658
 21
230.9174145875463
 31
0.0
  0
LINE
  5
64F
330
1A
100
AcDbEntity
  8
SEIHIN
  6
CONTINUOUS
100
AcDbLine
 10
766.1248290448658
 20
233.2897145875463
 30
0.0
 11
758.0621290448657
 21
232.6851145875463
 31
0.0
  0
LINE
  5
650
330
1A
100
AcDbEntity
  8
SEIHIN
  6
CONTINUOUS
100
AcDbLine
 10
766.1248290448658
 20
232.7909145875463
 30
0.0
 11
758.0621290448657
 21
232.1862145875463
 31
0.0
  0
LINE
  5
651
330
1A
100
AcDbEntity
  8
SEIHIN
  6
CONTINUOUS
100
AcDbLine
 10
766.1248290448658
 20
236.7908145875464
 30
0.0
 11
758.0621290448657
 21
236.1861145875463
 31
0.0
  0
LINE
  5
652
330
1A
100
AcDbEntity
  8
SEIHIN
  6
CONTINUOUS
100
AcDbLine
 10
755.6465290448658
 20
233.9162145875463
 30
0.0
 11
758.0621290448657
 21
232.6851145875463
 31
0.0
  0
LINE
  5
653
330
1A
100
AcDbEntity
  8
SEIHIN
  6
CONTINUOUS
100
AcDbLine
 10
758.0621290448657
 20
236.1861145875463
 30
0.0
 11
755.6465290448658
 21
234.9173145875463
 31
0.0
  0
LINE
  5
654
330
1A
100
AcDbEntity
  8
SEIHIN
  6
CONTINUOUS
100
AcDbLine
 10
758.0621290448657
 20
232.1862145875463
 30
0.0
 11
755.6465290448658
 21
230.9174145875463
 31
0.0
  0
LINE
  5
655
330
1A
100
AcDbEntity
  8
SEIHIN
  6
CONTINUOUS
100
AcDbLine
 10
755.6465290448658
 20
234.9173145875463
 30
0.0
 11
755.6465290448658
 21
233.9162145875463
 31
0.0
  0
LINE
  5
656
330
1A
100
AcDbEntity
  8
SEIHIN
  6
CONTINUOUS
100
AcDbLine
 10
755.6465290448658
 20
230.9174145875463
 30
0.0
 11
755.6465290448658
 21
229.9163145875463
 31
0.0
  0
LINE
  5
657
330
1A
100
AcDbEntity
  8
SEIHIN
  6
CONTINUOUS
100
AcDbLine
 10
758.0621290448657
 20
232.6851145875463
 30
0.0
 11
758.0621290448657
 21
232.1862145875463
 31
0.0
  0
LINE
  5
658
330
1A
100
AcDbEntity
  8
SEIHIN
  6
CONTINUOUS
100
AcDbLine
 10
763.9598290448658
 20
230.5398145875463
 30
0.0
 11
766.1248290448658
 21
229.2898145875463
 31
0.0
  0
LINE
  5
659
330
1A
100
AcDbEntity
  8
SEIHIN
  6
CONTINUOUS
100
AcDbLine
 10
766.1248290448658
 20
232.7909145875463
 30
0.0
 11
763.9598290448658
 21
231.5409145875463
 31
0.0
  0
LINE
  5
65A
330
1A
100
AcDbEntity
  8
SEIHIN
  6
CONTINUOUS
100
AcDbLine
 10
763.9598290448658
 20
234.5397145875462
 30
0.0
 11
766.1248290448658
 21
233.2897145875463
 31
0.0
  0
LINE
  5
65B
330
1A
100
AcDbEntity
  8
SEIHIN
  6
CONTINUOUS
100
AcDbLine
 10
766.1248290448658
 20
236.7908145875464
 30
0.0
 11
763.9598290448658
 21
235.5408145875463
 31
0.0
  0
LINE
  5
65C
330
1A
100
AcDbEntity
  8
SEIHIN
  6
CONTINUOUS
100
AcDbLine
 10
763.9598290448658
 20
230.5398145875463
 30
0.0
 11
763.9598290448658
 21
231.5409145875463
 31
0.0
  0
LINE
  5
65D
330
1A
100
AcDbEntity
  8
SEIHIN
  6
CONTINUOUS
100
AcDbLine
 10
763.9598290448658
 20
234.5397145875462
 30
0.0
 11
763.9598290448658
 21
235.5408145875463
 31
0.0
  0
LINE
  5
65E
330
1A
100
AcDbEntity
  8
SEIHIN
  6
CONTINUOUS
100
AcDbLine
 10
766.1248290448658
 20
233.2897145875463
 30
0.0
 11
766.1248290448658
 21
232.7909145875463
 31
0.0
  0
LINE
  5
65F
330
1A
100
AcDbEntity
  8
SEIHIN
  6
CONTINUOUS
100
AcDbLine
 10
768.9499290448658
 20
235.0402145875463
 30
0.0
 11
781.1247290448658
 21
235.0402145875463
 31
0.0
  0
LINE
  5
660
330
1A
100
AcDbEntity
  8
SEIHIN
  6
CONTINUOUS
100
AcDbLine
 10
781.1249290448658
 20
237.5403145875464
 30
0.0
 11
781.1249290448658
 21
237.0402145875463
 31
0.0
  0
LINE
  5
663
330
1A
100
AcDbEntity
  8
SEIHIN
  6
CONTINUOUS
100
AcDbLine
 10
786.1249290448657
 20
236.0402145875463
 30
0.0
 11
786.1249290448657
 21
237.5403145875464
 31
0.0
  0
LINE
  5
666
330
1A
100
AcDbEntity
  8
SEIHIN
  6
CONTINUOUS
100
AcDbLine
 10
763.9601290448658
 20
319.4158722252759
 30
0.0
 11
608.2895290448657
 21
319.4166582354891
 31
0.0
  0
LINE
  5
667
330
1A
100
AcDbEntity
  8
SEIHIN
  6
CONTINUOUS
100
AcDbLine
 10
740.6285054244842
 20
351.4159931464703
 30
0.0
 11
608.2895290448657
 21
341.4905656673898
 31
0.0
  0
LINE
  5
668
330
1A
100
AcDbEntity
  8
SEIHIN
  6
CONTINUOUS
100
AcDbLine
 10
766.1250290448657
 20
342.9150656673897
 30
0.0
 11
606.1246290448657
 21
330.9155656673897
 31
0.0
  0
LINE
  5
669
330
1A
100
AcDbEntity
  8
SEIHIN
  6
CONTINUOUS
100
AcDbLine
 10
763.9601290448657
 20
344.1649656673897
 30
0.0
 11
608.2895290448657
 21
332.4896656673897
 31
0.0
  0
LINE
  5
66A
330
1A
100
AcDbEntity
  8
SEIHIN
  6
CONTINUOUS
100
AcDbLine
 10
763.9601290448657
 20
345.1661656673898
 30
0.0
 11
608.2895290448657
 21
333.4907656673897
 31
0.0
  0
LINE
  5
66B
330
1A
100
AcDbEntity
  8
SEIHIN
  6
CONTINUOUS
100
AcDbLine
 10
766.1250290448657
 20
346.4160656673897
 30
0.0
 11
606.1246290448657
 21
334.4165656673897
 31
0.0
  0
LINE
  5
66C
330
1A
100
AcDbEntity
  8
SEIHIN
  6
CONTINUOUS
100
AcDbLine
 10
766.1250290448657
 20
346.9148656673898
 30
0.0
 11
606.1246290448657
 21
334.9153656673897
 31
0.0
  0
LINE
  5
66D
330
1A
100
AcDbEntity
  8
SEIHIN
  6
CONTINUOUS
100
AcDbLine
 10
766.1250290448657
 20
350.9147656673898
 30
0.0
 11
606.1246290448657
 21
338.9152656673898
 31
0.0
  0
LINE
  5
66E
330
1A
100
AcDbEntity
  8
SEIHIN
  6
CONTINUOUS
100
AcDbLine
 10
726.1259289818657
 20
351.4160656593526
 30
0.0
 11
606.1246290448657
 21
342.4163656673897
 31
0.0
  0
LINE
  5
66F
330
1A
100
AcDbEntity
  8
SEIHIN
  6
CONTINUOUS
100
AcDbLine
 10
753.9756954134339
 20
351.4159264105204
 30
0.0
 11
608.2895290448657
 21
340.4893656673897
 31
0.0
  0
LINE
  5
670
330
1A
100
AcDbEntity
  8
SEIHIN
  6
CONTINUOUS
100
AcDbLine
 10
763.9601290448657
 20
349.1659656673898
 30
0.0
 11
608.2895290448657
 21
337.4906656673898
 31
0.0
  0
LINE
  5
671
330
1A
100
AcDbEntity
  8
SEIHIN
  6
CONTINUOUS
100
AcDbLine
 10
766.1250290448657
 20
350.4159656673897
 30
0.0
 11
606.1246290448657
 21
338.4164656673898
 31
0.0
  0
LINE
  5
672
330
1A
100
AcDbEntity
  8
SEIHIN
  6
CONTINUOUS
100
AcDbLine
 10
763.9601290448657
 20
348.1648656673897
 30
0.0
 11
608.2895290448657
 21
336.4895656673898
 31
0.0
  0
LINE
  5
673
330
1A
100
AcDbEntity
  8
SEIHIN
  6
CONTINUOUS
100
AcDbLine
 10
763.9601290448657
 20
332.1653656673897
 30
0.0
 11
633.9768029402253
 21
322.4165285356378
 31
0.0
  0
LINE
  5
674
330
1A
100
AcDbEntity
  8
SEIHIN
  6
CONTINUOUS
100
AcDbLine
 10
763.9601290448657
 20
333.1664656673897
 30
0.0
 11
620.6285939722306
 21
322.4165959332619
 31
0.0
  0
LINE
  5
675
330
1A
100
AcDbEntity
  8
SEIHIN
  6
CONTINUOUS
100
AcDbLine
 10
766.1250290448657
 20
334.4164656673898
 30
0.0
 11
606.1246290448657
 21
322.4169656673897
 31
0.0
  0
LINE
  5
676
330
1A
100
AcDbEntity
  8
SEIHIN
  6
CONTINUOUS
100
AcDbLine
 10
766.1250290448657
 20
334.9152656673898
 30
0.0
 11
606.1246290448657
 21
322.9157656673898
 31
0.0
  0
LINE
  5
677
330
1A
100
AcDbEntity
  8
SEIHIN
  6
CONTINUOUS
100
AcDbLine
 10
763.9601290448657
 20
336.1652656673898
 30
0.0
 11
608.2895290448657
 21
324.4898656673897
 31
0.0
  0
LINE
  5
678
330
1A
100
AcDbEntity
  8
SEIHIN
  6
CONTINUOUS
100
AcDbLine
 10
763.9601290448657
 20
337.1663656673898
 30
0.0
 11
608.2895290448657
 21
325.4910656673897
 31
0.0
  0
LINE
  5
679
330
1A
100
AcDbEntity
  8
SEIHIN
  6
CONTINUOUS
100
AcDbLine
 10
766.1250290448657
 20
338.4163656673898
 30
0.0
 11
606.1246290448657
 21
326.4167656673897
 31
0.0
  0
LINE
  5
67A
330
1A
100
AcDbEntity
  8
SEIHIN
  6
CONTINUOUS
100
AcDbLine
 10
766.1250290448657
 20
342.4161656673898
 30
0.0
 11
606.1246290448657
 21
330.4166656673897
 31
0.0
  0
LINE
  5
67B
330
1A
100
AcDbEntity
  8
SEIHIN
  6
CONTINUOUS
100
AcDbLine
 10
766.1250290448657
 20
338.9151656673897
 30
0.0
 11
606.1246290448657
 21
326.9156656673897
 31
0.0
  0
LINE
  5
67C
330
1A
100
AcDbEntity
  8
SEIHIN
  6
CONTINUOUS
100
AcDbLine
 10
763.9601290448657
 20
340.1651656673897
 30
0.0
 11
608.2895290448657
 21
328.4897656673898
 31
0.0
  0
LINE
  5
67D
330
1A
100
AcDbEntity
  8
SEIHIN
  6
CONTINUOUS
100
AcDbLine
 10
763.9601290448657
 20
341.1662656673897
 30
0.0
 11
608.2895290448657
 21
329.4908656673898
 31
0.0
  0
LINE
  5
67E
330
1A
100
AcDbEntity
  8
SEIHIN
  6
CONTINUOUS
100
AcDbLine
 10
766.1250290448657
 20
330.9153656673897
 30
0.0
 11
652.8003899618019
 21
322.4164334917974
 31
0.0
  0
LINE
  5
67F
330
1A
100
AcDbEntity
  8
SEIHIN
  6
CONTINUOUS
100
AcDbLine
 10
766.1250290448657
 20
330.4165656673897
 30
0.0
 11
659.4519824516725
 21
322.4163999066527
 31
0.0
  0
LINE
  5
680
330
1A
100
AcDbEntity
  8
SEIHIN
  6
CONTINUOUS
100
AcDbLine
 10
763.9601290448657
 20
329.1666656673898
 30
0.0
 11
673.9561168261777
 21
322.4163266725434
 31
0.0
  0
LINE
  5
681
330
1A
100
AcDbEntity
  8
SEIHIN
  6
CONTINUOUS
100
AcDbLine
 10
763.9601290448657
 20
328.1654656673897
 30
0.0
 11
687.3041314419776
 21
322.4162592759006
 31
0.0
  0
LINE
  5
682
330
1A
100
AcDbEntity
  8
SEIHIN
  6
CONTINUOUS
100
AcDbLine
 10
672.788497268975
 20
351.4163323465111
 30
0.0
 11
606.1246290448657
 21
346.4167656673897
 31
0.0
  0
LINE
  5
683
330
1A
100
AcDbEntity
  8
SEIHIN
  6
CONTINUOUS
100
AcDbLine
 10
719.4673831375499
 20
351.4160989520818
 30
0.0
 11
606.1246290448657
 21
342.9157656673897
 31
0.0
  0
LINE
  5
684
330
1A
100
AcDbEntity
  8
SEIHIN
  6
CONTINUOUS
100
AcDbLine
 10
700.6398635526587
 20
351.4161930896797
 30
0.0
 11
608.2895290448657
 21
344.4898656673897
 31
0.0
  0
LINE
  5
685
330
1A
100
AcDbEntity
  8
SEIHIN
  6
CONTINUOUS
100
AcDbLine
 10
687.2918523212262
 20
351.4162598297358
 30
0.0
 11
608.2895290448657
 21
345.4910656673897
 31
0.0
  0
LINE
  5
686
330
1A
100
AcDbEntity
  8
SEIHIN
  6
CONTINUOUS
100
AcDbLine
 10
647.3036726856364
 20
351.416459770634
 30
0.0
 11
608.2895290448657
 21
348.4903656673897
 31
0.0
  0
LINE
  5
687
330
1A
100
AcDbEntity
  8
SEIHIN
  6
CONTINUOUS
100
AcDbLine
 10
666.1285021897891
 20
351.4163656464866
 30
0.0
 11
606.1246290448657
 21
346.9162656673897
 31
0.0
  0
ARC
  5
688
330
1A
100
AcDbEntity
  8
SEIHIN
  6
CONTINUOUS
100
AcDbCircle
 10
686.1245290448657
 20
274.4161656673897
 30
0.0
 40
118.4700419999999
100
AcDbArc
 50
78.210948
 51
101.7887579999999
  0
ARC
  5
689
330
1A
100
AcDbEntity
  8
SEIHIN
  6
CONTINUOUS
100
AcDbCircle
 10
686.1245290448657
 20
274.4161656673897
 30
0.0
 40
121.970014
100
AcDbArc
 50
78.556706
 51
101.443
  0
ARC
  5
68A
330
1A
100
AcDbEntity
  8
SEIHIN
  6
CONTINUOUS
100
AcDbCircle
 10
686.1245290448657
 20
274.4161656673897
 30
0.0
 40
122.470071
100
AcDbArc
 50
78.79146
 51
101.208301
  0
LINE
  5
68C
330
1A
100
AcDbEntity
  8
SEIHIN
  6
CONTINUOUS
100
AcDbLine
 10
766.1250290448657
 20
326.9155656673897
 30
0.0
 11
706.1306897682283
 21
322.4161642170575
 31
0.0
  0
LINE
  5
68D
330
1A
100
AcDbEntity
  8
SEIHIN
  6
CONTINUOUS
100
AcDbLine
 10
766.1250290448657
 20
326.4166656673897
 30
0.0
 11
712.7818378779793
 21
322.4161306341566
 31
0.0
  0
LINE
  5
68E
330
1A
100
AcDbEntity
  8
SEIHIN
  6
CONTINUOUS
100
AcDbLine
 10
786.1243290448657
 20
354.4157656673898
 30
0.0
 11
586.1252290448658
 21
354.4167656628898
 31
0.0
  0
LINE
  5
68F
330
1A
100
AcDbEntity
  8
SEIHIN
  6
CONTINUOUS
100
AcDbLine
 10
781.1244290448658
 20
356.4157656673898
 30
0.0
 11
591.1267290159186
 21
356.4167656616004
 31
0.0
  0
LINE
  5
690
330
1A
100
AcDbEntity
  8
SEIHIN
  6
CONTINUOUS
100
AcDbLine
 10
786.1244290448658
 20
355.4157656673897
 30
0.0
 11
586.1267290173661
 21
355.4167656618899
 31
0.0
  0
LINE
  5
691
330
1A
100
AcDbEntity
  8
SEIHIN
  6
CONTINUOUS
100
AcDbLine
 10
711.1244290448658
 20
377.8361656673897
 30
0.0
 11
686.1247290448658
 21
377.8362656673897
 31
0.0
  0
LINE
  5
692
330
1A
100
AcDbEntity
  8
SEIHIN
  6
CONTINUOUS
100
AcDbLine
 10
711.1244290448658
 20
369.4160656673897
 30
0.0
 11
686.1246290448657
 21
369.4162656673897
 31
0.0
  0
LINE
  5
693
330
1A
100
AcDbEntity
  8
SEIHIN
  6
CONTINUOUS
100
AcDbLine
 10
608.2895290448657
 20
345.4910656673897
 30
0.0
 11
608.2895290448657
 21
344.4898656673897
 31
0.0
  0
LINE
  5
694
330
1A
100
AcDbEntity
  8
CENTER_L
 48
5.0
100
AcDbLine
 10
686.1247290448658
 20
309.2401656673897
 30
0.0
 11
686.1249290448657
 21
403.9333656673898
 31
0.0
  0
LINE
  5
698
330
1A
100
AcDbEntity
  8
SEIHIN
  6
CONTINUOUS
100
AcDbLine
 10
608.2895290448657
 20
322.4166582355273
 30
0.0
 11
608.2895290448657
 21
319.4166582354891
 31
0.0
  0
LINE
  5
69A
330
1A
100
AcDbEntity
  8
SEIHIN
  6
CONTINUOUS
100
AcDbLine
 10
608.2895290448657
 20
333.4895656673897
 30
0.0
 11
608.2895290448657
 21
332.4884656673897
 31
0.0
  0
LINE
  5
69B
330
1A
100
AcDbEntity
  8
SEIHIN
  6
CONTINUOUS
100
AcDbLine
 10
608.2895290448657
 20
332.4884656673897
 30
0.0
 11
606.1246290448657
 21
330.9142656673898
 31
0.0
  0
LINE
  5
69C
330
1A
100
AcDbEntity
  8
SEIHIN
  6
CONTINUOUS
100
AcDbLine
 10
606.1246290448657
 20
330.9142656673898
 30
0.0
 11
606.1246290448657
 21
330.4148656673898
 31
0.0
  0
LINE
  5
69D
330
1A
100
AcDbEntity
  8
SEIHIN
  6
CONTINUOUS
100
AcDbLine
 10
606.1246290448657
 20
330.4148656673898
 30
0.0
 11
608.2895290448657
 21
329.4890656673898
 31
0.0
  0
LINE
  5
69E
330
1A
100
AcDbEntity
  8
SEIHIN
  6
CONTINUOUS
100
AcDbLine
 10
608.2895290448657
 20
329.4890656673898
 30
0.0
 11
608.2895290448657
 21
328.4879656673898
 31
0.0
  0
LINE
  5
69F
330
1A
100
AcDbEntity
  8
SEIHIN
  6
CONTINUOUS
100
AcDbLine
 10
608.2895290448657
 20
328.4879656673898
 30
0.0
 11
606.1246290448657
 21
326.9137656673898
 31
0.0
  0
LINE
  5
6A0
330
1A
100
AcDbEntity
  8
SEIHIN
  6
CONTINUOUS
100
AcDbLine
 10
606.1246290448657
 20
326.9137656673898
 30
0.0
 11
606.1246290448657
 21
326.4143656673898
 31
0.0
  0
LINE
  5
6A1
330
1A
100
AcDbEntity
  8
SEIHIN
  6
CONTINUOUS
100
AcDbLine
 10
606.1246290448657
 20
326.4143656673898
 30
0.0
 11
608.2895290448657
 21
325.4885656673897
 31
0.0
  0
LINE
  5
6A2
330
1A
100
AcDbEntity
  8
SEIHIN
  6
CONTINUOUS
100
AcDbLine
 10
608.2895290448657
 20
325.4885656673897
 30
0.0
 11
608.2895290448657
 21
324.4874656673898
 31
0.0
  0
LINE
  5
6A3
330
1A
100
AcDbEntity
  8
SEIHIN
  6
CONTINUOUS
100
AcDbLine
 10
608.2895290448657
 20
324.4874656673898
 30
0.0
 11
606.1246290448657
 21
322.9133656673897
 31
0.0
  0
LINE
  5
6A4
330
1A
100
AcDbEntity
  8
SEIHIN
  6
CONTINUOUS
100
AcDbLine
 10
606.1246290448657
 20
322.9133656673897
 30
0.0
 11
606.1246290448657
 21
322.4138656673898
 31
0.0
  0
LINE
  5
6A6
330
1A
100
AcDbEntity
  8
SEIHIN
  6
CONTINUOUS
100
AcDbLine
 10
606.1246290448657
 20
342.9157656673897
 30
0.0
 11
606.1246290448657
 21
342.4163656673897
 31
0.0
  0
LINE
  5
6A7
330
1A
100
AcDbEntity
  8
SEIHIN
  6
CONTINUOUS
100
AcDbLine
 10
606.1246290448657
 20
342.4163656673897
 30
0.0
 11
608.2895290448657
 21
341.4905656673898
 31
0.0
  0
LINE
  5
6A8
330
1A
100
AcDbEntity
  8
SEIHIN
  6
CONTINUOUS
100
AcDbLine
 10
608.2895290448657
 20
341.4905656673898
 30
0.0
 11
608.2895290448657
 21
340.4893656673897
 31
0.0
  0
LINE
  5
6A9
330
1A
100
AcDbEntity
  8
SEIHIN
  6
CONTINUOUS
100
AcDbLine
 10
608.2895290448657
 20
340.4893656673897
 30
0.0
 11
606.1246290448657
 21
338.9152656673898
 31
0.0
  0
LINE
  5
6AA
330
1A
100
AcDbEntity
  8
SEIHIN
  6
CONTINUOUS
100
AcDbLine
 10
606.1246290448657
 20
338.9152656673898
 30
0.0
 11
606.1246290448657
 21
338.4158656673897
 31
0.0
  0
LINE
  5
6AB
330
1A
100
AcDbEntity
  8
SEIHIN
  6
CONTINUOUS
100
AcDbLine
 10
606.1246290448657
 20
338.4158656673897
 30
0.0
 11
608.2895290448657
 21
337.4900656673897
 31
0.0
  0
LINE
  5
6AC
330
1A
100
AcDbEntity
  8
SEIHIN
  6
CONTINUOUS
100
AcDbLine
 10
608.2895290448657
 20
337.4900656673897
 30
0.0
 11
608.2895290448657
 21
336.4889656673897
 31
0.0
  0
LINE
  5
6AD
330
1A
100
AcDbEntity
  8
SEIHIN
  6
CONTINUOUS
100
AcDbLine
 10
608.2895290448657
 20
336.4889656673897
 30
0.0
 11
606.1246290448657
 21
334.9147656673898
 31
0.0
  0
LINE
  5
6AE
330
1A
100
AcDbEntity
  8
SEIHIN
  6
CONTINUOUS
100
AcDbLine
 10
606.1246290448657
 20
334.9147656673898
 30
0.0
 11
606.1246290448657
 21
334.4153656673897
 31
0.0
  0
LINE
  5
6AF
330
1A
100
AcDbEntity
  8
SEIHIN
  6
CONTINUOUS
100
AcDbLine
 10
606.1246290448657
 20
334.4153656673897
 30
0.0
 11
608.2895290448657
 21
333.4895656673897
 31
0.0
  0
LINE
  5
6B0
330
1A
100
AcDbEntity
  8
SEIHIN
  6
CONTINUOUS
100
AcDbLine
 10
608.2895290448657
 20
344.4898656673897
 30
0.0
 11
606.1246290448657
 21
342.9157656673897
 31
0.0
  0
LINE
  5
6B4
330
1A
100
AcDbEntity
  8
SEIHIN
  6
CONTINUOUS
100
AcDbLine
 10
633.9564075515063
 20
351.4165265069598
 30
0.0
 11
608.2895290448657
 21
349.4914656673898
 31
0.0
  0
LINE
  5
6B5
330
1A
100
AcDbEntity
  8
SEIHIN
  6
CONTINUOUS
100
AcDbLine
 10
619.4496654272526
 20
351.4165990406703
 30
0.0
 11
606.1246290448657
 21
350.4172656673897
 31
0.0
  0
LINE
  5
6B7
330
1A
100
AcDbEntity
  8
SEIHIN
  6
CONTINUOUS
100
AcDbLine
 10
612.789779871679
 20
351.4166323400981
 30
0.0
 11
606.1246290448657
 21
350.9167656673897
 31
0.0
  0
ARC
  5
6B8
330
1A
100
AcDbEntity
  8
SEIHIN
  6
CONTINUOUS
100
AcDbCircle
 10
617.6022290448657
 20
359.4163656673898
 30
0.0
 40
3.0
100
AcDbArc
 50
270.0
 51
0.0
  0
LINE
  5
6B9
330
1A
100
AcDbEntity
  8
SEIHIN
  6
CONTINUOUS
100
AcDbLine
 10
620.6022290448657
 20
369.4163656673898
 30
0.0
 11
656.1252290448658
 21
369.4162656673897
 31
0.0
  0
ARC
  5
6BA
330
1A
100
AcDbEntity
  8
SEIHIN
  6
CONTINUOUS
100
AcDbCircle
 10
686.1245290448657
 20
274.4161656673897
 30
0.0
 40
122.470052
100
AcDbArc
 50
104.540859
 51
122.318955
  0
LINE
  5
6BB
330
1A
100
AcDbEntity
  8
SEIHIN
  6
CONTINUOUS
100
AcDbLine
 10
591.1252290448658
 20
356.4164656673897
 30
0.0
 11
586.1252290448658
 21
355.4164656673898
 31
0.0
  0
LINE
  5
6BC
330
1A
100
AcDbEntity
  8
SEIHIN
  6
CONTINUOUS
100
AcDbLine
 10
586.1252290448658
 20
355.4164656673898
 30
0.0
 11
586.1252290448658
 21
354.4164656673897
 31
0.0
  0
LINE
  5
6BD
330
1A
100
AcDbEntity
  8
SEIHIN
  6
CONTINUOUS
100
AcDbLine
 10
617.8290290448657
 20
369.4164656673898
 30
0.0
 11
617.8290290448657
 21
359.4163656673898
 31
0.0
  0
LINE
  5
6BE
330
1A
100
AcDbEntity
  8
SEIHIN
  6
CONTINUOUS
100
AcDbLine
 10
620.6023290448658
 20
369.4163656673898
 30
0.0
 11
620.6022290448657
 21
359.4163656673898
 31
0.0
  0
ARC
  5
6BF
330
1A
100
AcDbEntity
  8
SEIHIN
  6
CONTINUOUS
100
AcDbCircle
 10
614.8290290448657
 20
359.4163656673898
 30
0.0
 40
3.0
100
AcDbArc
 50
270.0
 51
0.0
  0
LINE
  5
6C2
330
1A
100
AcDbEntity
  8
SEIHIN
  6
CONTINUOUS
100
AcDbLine
 10
606.1246290448657
 20
350.4172656673897
 30
0.0
 11
608.2895290448657
 21
349.4914656673898
 31
0.0
  0
LINE
  5
6C3
330
1A
100
AcDbEntity
  8
SEIHIN
  6
CONTINUOUS
100
AcDbLine
 10
608.2895290448657
 20
349.4914656673898
 30
0.0
 11
608.2895290448657
 21
348.4903656673897
 31
0.0
  0
LINE
  5
6C4
330
1A
100
AcDbEntity
  8
SEIHIN
  6
CONTINUOUS
100
AcDbLine
 10
606.8121495738063
 20
351.4166622282495
 30
0.0
 11
606.1246290448657
 21
350.9167656673897
 31
0.0
  0
LINE
  5
6C5
330
1A
100
AcDbEntity
  8
SEIHIN
  6
CONTINUOUS
100
AcDbLine
 10
606.1246290448657
 20
350.9167656673897
 30
0.0
 11
606.1246290448657
 21
350.4172656673897
 31
0.0
  0
LINE
  5
6C6
330
1A
100
AcDbEntity
  8
SEIHIN
  6
CONTINUOUS
100
AcDbLine
 10
608.2895290448655
 20
354.4166548413898
 30
0.0
 11
608.2895290448658
 21
351.4166548413522
 31
0.0
  0
LINE
  5
6C7
330
1A
100
AcDbEntity
  8
SEIHIN
  6
CONTINUOUS
100
AcDbLine
 10
608.2895290448657
 20
348.4903656673897
 30
0.0
 11
606.1246290448657
 21
346.9162656673897
 31
0.0
  0
LINE
  5
6C8
330
1A
100
AcDbEntity
  8
SEIHIN
  6
CONTINUOUS
100
AcDbLine
 10
606.1246290448657
 20
346.9162656673897
 30
0.0
 11
606.1246290448657
 21
346.4167656673897
 31
0.0
  0
LINE
  5
6C9
330
1A
100
AcDbEntity
  8
SEIHIN
  6
CONTINUOUS
100
AcDbLine
 10
606.1246290448657
 20
346.4167656673897
 30
0.0
 11
608.2895290448657
 21
345.4910656673897
 31
0.0
  0
LINE
  5
6CA
330
1A
100
AcDbEntity
  8
SEIHIN
  6
CONTINUOUS
100
AcDbLine
 10
617.8290290448657
 20
369.4163656673898
 30
0.0
 11
611.1249290448657
 21
369.4163656673898
 31
0.0
  0
ARC
  5
6CB
330
1A
100
AcDbEntity
  8
SEIHIN
  6
CONTINUOUS
100
AcDbCircle
 10
616.1249290448657
 20
371.8844656673898
 30
0.0
 40
4.999983999999999
100
AcDbArc
 50
125.6860749999999
 51
180.0
  0
LINE
  5
6CC
330
1A
100
AcDbEntity
  8
SEIHIN
  6
CONTINUOUS
100
AcDbLine
 10
611.1249290448657
 20
371.8845656673897
 30
0.0
 11
611.1249290448657
 21
369.4163656673898
 31
0.0
  0
LINE
  5
6CD
330
1A
100
AcDbEntity
  8
SEIHIN
  6
CONTINUOUS
100
AcDbLine
 10
615.9157290448657
 20
377.8363656673897
 30
0.0
 11
620.3809290448657
 21
377.8363656673897
 31
0.0
  0
ARC
  5
6CE
330
1A
100
AcDbEntity
  8
SEIHIN
  6
CONTINUOUS
100
AcDbCircle
 10
686.1245290448657
 20
274.4161656673897
 30
0.0
 40
125.0
100
AcDbArc
 50
124.171507
 51
125.685184
  0
ARC
  5
6CF
330
1A
100
AcDbEntity
  8
SEIHIN
  6
CONTINUOUS
100
AcDbCircle
 10
620.3809290448657
 20
378.3363656673897
 30
0.0
 40
0.5000200000000001
100
AcDbArc
 50
270.0
 51
302.3138859999999
  0
ARC
  5
6D0
330
1A
100
AcDbEntity
  8
SEIHIN
  6
CONTINUOUS
100
AcDbCircle
 10
686.1245290448657
 20
274.4161656673897
 30
0.0
 40
121.970034
100
AcDbArc
 50
104.8481949999999
 51
121.182708
  0
LINE
  5
6D1
330
1A
100
AcDbEntity
  8
SEIHIN
  6
CONTINUOUS
100
AcDbLine
 10
661.1250290448658
 20
392.9816656673898
 30
0.0
 11
661.1249290448657
 21
377.8361656673897
 31
0.0
  0
LINE
  5
6D2
330
1A
100
AcDbEntity
  8
SEIHIN
  6
CONTINUOUS
100
AcDbLine
 10
656.1249290448658
 20
391.3467656673897
 30
0.0
 11
656.1249290448658
 21
377.8361656673897
 31
0.0
  0
LINE
  5
6D3
330
1A
100
AcDbEntity
  8
SEIHIN
  6
CONTINUOUS
100
AcDbLine
 10
623.2312290448658
 20
377.8363656673897
 30
0.0
 11
656.1252290448658
 21
377.8362656673897
 31
0.0
  0
ARC
  5
6D4
330
1A
100
AcDbEntity
  8
SEIHIN
  6
CONTINUOUS
100
AcDbCircle
 10
686.1245290448657
 20
274.4161656673897
 30
0.0
 40
118.470004
100
AcDbArc
 50
105.301286
 51
119.1950439999999
  0
LINE
  5
6D5
330
1A
100
AcDbEntity
  8
SEIHIN
  6
CONTINUOUS
100
AcDbLine
 10
621.6023290448657
 20
369.4163656673898
 30
0.0
 11
621.6022290448657
 21
356.4163656673898
 31
0.0
  0
ARC
  5
6D6
330
1A
100
AcDbEntity
  8
SEIHIN
  6
CONTINUOUS
100
AcDbCircle
 10
623.2312290448658
 20
378.3363656673897
 30
0.0
 40
0.4999950000000001
100
AcDbArc
 50
121.172075
 51
270.0
  0
LINE
  5
6D7
330
1A
100
AcDbEntity
  8
SEIHIN
  6
CONTINUOUS
100
AcDbLine
 10
655.1298290448658
 20
369.4162656673897
 30
0.0
 11
655.1298290448658
 21
356.4161656673898
 31
0.0
  0
LINE
  5
6D8
330
1A
100
AcDbEntity
  8
SEIHIN
  6
CONTINUOUS
100
AcDbLine
 10
661.1249290448657
 20
369.4162656673897
 30
0.0
 11
661.1249290448657
 21
356.4161656673898
 31
0.0
  0
LINE
  5
6D9
330
1A
100
AcDbEntity
  8
SEIHIN
  6
CONTINUOUS
100
AcDbLine
 10
656.1249290448658
 20
369.4162656673897
 30
0.0
 11
656.1249290448658
 21
356.4161656673898
 31
0.0
  0
LINE
  5
6DA
330
1A
100
AcDbEntity
  8
SEIHIN
  6
CONTINUOUS
100
AcDbLine
 10
661.1252290448658
 20
369.4162656673897
 30
0.0
 11
686.1250290448658
 21
369.4162656673897
 31
0.0
  0
LINE
  5
6DB
330
1A
100
AcDbEntity
  8
SEIHIN
  6
CONTINUOUS
100
AcDbLine
 10
661.1252290448658
 20
377.8362656673897
 30
0.0
 11
686.1250290448658
 21
377.8362656673897
 31
0.0
  0
ARC
  5
6DC
330
1A
100
AcDbEntity
  8
SEIHIN
  6
CONTINUOUS
100
AcDbCircle
 10
662.1249290448657
 20
389.4084656673898
 30
0.0
 40
0.9999959999999997
100
AcDbArc
 50
101.7886219999999
 51
180.0
  0
ARC
  5
6DD
330
1A
100
AcDbEntity
  8
SEIHIN
  6
CONTINUOUS
100
AcDbCircle
 10
655.1249290448658
 20
387.7220656673898
 30
0.0
 40
1.000010999999999
100
AcDbArc
 50
0.0
 51
105.2953189999999
  0
ARC
  5
6DE
330
1A
100
AcDbEntity
  8
SEIHIN
  6
CONTINUOUS
100
AcDbCircle
 10
662.1250290448658
 20
392.9816656673898
 30
0.0
 40
0.99999
100
AcDbArc
 50
101.443651
 51
180.0
  0
ARC
  5
6DF
330
1A
100
AcDbEntity
  8
SEIHIN
  6
CONTINUOUS
100
AcDbCircle
 10
662.1250290448658
 20
395.5312656673898
 30
0.0
 40
0.999979
100
AcDbArc
 50
180.0
 51
281.2043039999999
  0
ARC
  5
6E0
330
1A
100
AcDbEntity
  8
SEIHIN
  6
CONTINUOUS
100
AcDbCircle
 10
655.1249290448658
 20
391.3467656673897
 30
0.0
 40
0.9999879999999999
100
AcDbArc
 50
0.0
 51
104.845052
  0
LINE
  5
6E1
330
1A
100
AcDbEntity
  8
SEIHIN
  6
CONTINUOUS
100
AcDbLine
 10
656.1250290448659
 20
395.7629656673897
 30
0.0
 11
656.1250290448659
 21
393.9313656673898
 31
0.0
  0
LINE
  5
6E2
330
1A
100
AcDbEntity
  8
SEIHIN
  6
CONTINUOUS
100
AcDbLine
 10
661.1250290448658
 20
396.8908656673897
 30
0.0
 11
661.1250290448658
 21
395.5312656673898
 31
0.0
  0
ARC
  5
6E3
330
1A
100
AcDbEntity
  8
SEIHIN
  6
CONTINUOUS
100
AcDbCircle
 10
686.1245290448657
 20
274.4161656673897
 30
0.0
 40
125.000032
100
AcDbArc
 50
101.536814
 51
103.8863969999999
  0
ARC
  5
6E4
330
1A
100
AcDbEntity
  8
SEIHIN
  6
CONTINUOUS
100
AcDbCircle
 10
655.1250290448658
 20
393.9313656673898
 30
0.0
 40
1.000005999999999
100
AcDbArc
 50
284.5365089999999
 51
0.0
  0
LINE
  5
6E5
330
1A
100
AcDbEntity
  8
SEIHIN
  6
CONTINUOUS
100
AcDbLine
 10
763.9601290448657
 20
344.1649656673897
 30
0.0
 11
763.9601290448657
 21
345.1661656673898
 31
0.0
  0
LINE
  5
6E7
330
1A
100
AcDbEntity
  8
SEIHIN
  6
CONTINUOUS
100
AcDbLine
 10
763.9601290448657
 20
325.1667656673897
 30
0.0
 11
727.2842262129069
 21
322.4160574088632
 31
0.0
  0
LINE
  5
6E8
330
1A
100
AcDbEntity
  8
SEIHIN
  6
CONTINUOUS
100
AcDbLine
 10
763.9601290448657
 20
324.1655656673898
 30
0.0
 11
740.6323922360418
 21
322.415990011456
 31
0.0
  0
LINE
  5
6E9
330
1A
100
AcDbEntity
  8
SEIHIN
  6
CONTINUOUS
100
AcDbLine
 10
766.1250290448657
 20
322.9156656673897
 30
0.0
 11
759.4612099107336
 21
322.4158949412051
 31
0.0
  0
LINE
  5
6F2
330
1A
100
AcDbEntity
  8
SEIHIN
  6
CONTINUOUS
100
AcDbLine
 10
763.9601290448658
 20
319.4158722252759
 30
0.0
 11
763.9601290448657
 21
322.415872225314
 31
0.0
  0
LINE
  5
6F4
330
1A
100
AcDbEntity
  8
SEIHIN
  6
CONTINUOUS
100
AcDbLine
 10
763.9601290448657
 20
332.1653656673897
 30
0.0
 11
763.9601290448657
 21
333.1664656673897
 31
0.0
  0
LINE
  5
6F5
330
1A
100
AcDbEntity
  8
SEIHIN
  6
CONTINUOUS
100
AcDbLine
 10
763.9601290448657
 20
332.1653656673897
 30
0.0
 11
766.1250290448657
 21
330.9153656673897
 31
0.0
  0
LINE
  5
6F6
330
1A
100
AcDbEntity
  8
SEIHIN
  6
CONTINUOUS
100
AcDbLine
 10
766.1250290448657
 20
330.4165656673897
 30
0.0
 11
763.9601290448657
 21
329.1666656673898
 31
0.0
  0
LINE
  5
6F7
330
1A
100
AcDbEntity
  8
SEIHIN
  6
CONTINUOUS
100
AcDbLine
 10
763.9601290448657
 20
328.1654656673897
 30
0.0
 11
766.1250290448657
 21
326.9155656673897
 31
0.0
  0
LINE
  5
6F8
330
1A
100
AcDbEntity
  8
SEIHIN
  6
CONTINUOUS
100
AcDbLine
 10
766.1250290448657
 20
326.4166656673897
 30
0.0
 11
763.9601290448657
 21
325.1667656673897
 31
0.0
  0
LINE
  5
6F9
330
1A
100
AcDbEntity
  8
SEIHIN
  6
CONTINUOUS
100
AcDbLine
 10
763.9601290448657
 20
324.1655656673898
 30
0.0
 11
766.1250290448657
 21
322.9156656673897
 31
0.0
  0
LINE
  5
6FA
330
1A
100
AcDbEntity
  8
SEIHIN
  6
CONTINUOUS
100
AcDbLine
 10
763.9601290448657
 20
328.1654656673897
 30
0.0
 11
763.9601290448657
 21
329.1666656673898
 31
0.0
  0
LINE
  5
6FB
330
1A
100
AcDbEntity
  8
SEIHIN
  6
CONTINUOUS
100
AcDbLine
 10
763.9601290448657
 20
324.1655656673898
 30
0.0
 11
763.9601290448657
 21
325.1667656673897
 31
0.0
  0
LINE
  5
6FC
330
1A
100
AcDbEntity
  8
SEIHIN
  6
CONTINUOUS
100
AcDbLine
 10
766.1250290448657
 20
330.9153656673897
 30
0.0
 11
766.1250290448657
 21
330.4165656673897
 31
0.0
  0
LINE
  5
6FD
330
1A
100
AcDbEntity
  8
SEIHIN
  6
CONTINUOUS
100
AcDbLine
 10
766.1250290448657
 20
326.9155656673897
 30
0.0
 11
766.1250290448657
 21
326.4166656673897
 31
0.0
  0
LINE
  5
6FE
330
1A
100
AcDbEntity
  8
SEIHIN
  6
CONTINUOUS
100
AcDbLine
 10
766.1250290448657
 20
322.9156656673897
 30
0.0
 11
766.1250290448657
 21
322.4167656673897
 31
0.0
  0
LINE
  5
6FF
330
1A
100
AcDbEntity
  8
SEIHIN
  6
CONTINUOUS
100
AcDbLine
 10
766.1250290448657
 20
342.9150656673897
 30
0.0
 11
766.1250290448657
 21
342.4161656673898
 31
0.0
  0
LINE
  5
700
330
1A
100
AcDbEntity
  8
SEIHIN
  6
CONTINUOUS
100
AcDbLine
 10
766.1250290448657
 20
334.4164656673898
 30
0.0
 11
763.9601290448657
 21
333.1664656673897
 31
0.0
  0
LINE
  5
701
330
1A
100
AcDbEntity
  8
SEIHIN
  6
CONTINUOUS
100
AcDbLine
 10
763.9601290448657
 20
336.1652656673898
 30
0.0
 11
766.1250290448657
 21
334.9152656673898
 31
0.0
  0
LINE
  5
702
330
1A
100
AcDbEntity
  8
SEIHIN
  6
CONTINUOUS
100
AcDbLine
 10
766.1250290448657
 20
338.4163656673898
 30
0.0
 11
763.9601290448657
 21
337.1663656673898
 31
0.0
  0
LINE
  5
703
330
1A
100
AcDbEntity
  8
SEIHIN
  6
CONTINUOUS
100
AcDbLine
 10
763.9601290448657
 20
340.1651656673897
 30
0.0
 11
766.1250290448657
 21
338.9151656673897
 31
0.0
  0
LINE
  5
704
330
1A
100
AcDbEntity
  8
SEIHIN
  6
CONTINUOUS
100
AcDbLine
 10
766.1250290448657
 20
342.4161656673898
 30
0.0
 11
763.9601290448657
 21
341.1662656673897
 31
0.0
  0
LINE
  5
705
330
1A
100
AcDbEntity
  8
SEIHIN
  6
CONTINUOUS
100
AcDbLine
 10
763.9601290448657
 20
336.1652656673898
 30
0.0
 11
763.9601290448657
 21
337.1663656673898
 31
0.0
  0
LINE
  5
706
330
1A
100
AcDbEntity
  8
SEIHIN
  6
CONTINUOUS
100
AcDbLine
 10
763.9601290448657
 20
340.1651656673897
 30
0.0
 11
763.9601290448657
 21
341.1662656673897
 31
0.0
  0
LINE
  5
707
330
1A
100
AcDbEntity
  8
SEIHIN
  6
CONTINUOUS
100
AcDbLine
 10
766.1250290448657
 20
334.9152656673898
 30
0.0
 11
766.1250290448657
 21
334.4164656673898
 31
0.0
  0
LINE
  5
708
330
1A
100
AcDbEntity
  8
SEIHIN
  6
CONTINUOUS
100
AcDbLine
 10
766.1250290448657
 20
338.9151656673897
 30
0.0
 11
766.1250290448657
 21
338.4163656673898
 31
0.0
  0
LINE
  5
709
330
1A
100
AcDbEntity
  8
SEIHIN
  6
CONTINUOUS
100
AcDbLine
 10
763.9601290448657
 20
344.1649656673897
 30
0.0
 11
766.1250290448657
 21
342.9150656673897
 31
0.0
  0
ARC
  5
70D
330
1A
100
AcDbEntity
  8
SEIHIN
  6
CONTINUOUS
100
AcDbCircle
 10
686.1245290448657
 20
274.4161656673897
 30
0.0
 40
122.470025
100
AcDbArc
 50
57.680772
 51
75.45889100000001
  0
ARC
  5
70E
330
1A
100
AcDbEntity
  8
SEIHIN
  6
CONTINUOUS
100
AcDbCircle
 10
754.6473290448658
 20
359.4159656673898
 30
0.0
 40
3.0
100
AcDbArc
 50
180.0
 51
270.0
  0
LINE
  5
70F
330
1A
100
AcDbEntity
  8
SEIHIN
  6
CONTINUOUS
100
AcDbLine
 10
756.3340290448658
 20
377.8358656673897
 30
0.0
 11
751.8688290448658
 21
377.8358656673897
 31
0.0
  0
ARC
  5
710
330
1A
100
AcDbEntity
  8
SEIHIN
  6
CONTINUOUS
100
AcDbCircle
 10
686.1245290448657
 20
274.4161656673897
 30
0.0
 40
121.970025
100
AcDbArc
 50
58.817058
 51
75.151566
  0
LINE
  5
711
330
1A
100
AcDbEntity
  8
SEIHIN
  6
CONTINUOUS
100
AcDbLine
 10
716.1248290448658
 20
391.3465656673897
 30
0.0
 11
716.1247290448658
 21
377.8359656673898
 31
0.0
  0
LINE
  5
712
330
1A
100
AcDbEntity
  8
SEIHIN
  6
CONTINUOUS
100
AcDbLine
 10
711.1248290448657
 20
392.9814656673897
 30
0.0
 11
711.1247290448658
 21
377.8360656673898
 31
0.0
  0
LINE
  5
713
330
1A
100
AcDbEntity
  8
SEIHIN
  6
CONTINUOUS
100
AcDbLine
 10
751.6474290448658
 20
369.4158656673897
 30
0.0
 11
716.1244290448657
 21
369.4160656673897
 31
0.0
  0
LINE
  5
714
330
1A
100
AcDbEntity
  8
SEIHIN
  6
CONTINUOUS
100
AcDbLine
 10
749.0185290448657
 20
377.8358656673897
 30
0.0
 11
716.1244290448657
 21
377.8360656673898
 31
0.0
  0
ARC
  5
715
330
1A
100
AcDbEntity
  8
SEIHIN
  6
CONTINUOUS
100
AcDbCircle
 10
686.1245290448657
 20
274.4161656673897
 30
0.0
 40
118.47
100
AcDbArc
 50
60.80467500000001
 51
74.698515
  0
LINE
  5
716
330
1A
100
AcDbEntity
  8
SEIHIN
  6
CONTINUOUS
100
AcDbLine
 10
717.1198290448658
 20
369.4159656673897
 30
0.0
 11
717.1197290448657
 21
356.4159656673898
 31
0.0
  0
LINE
  5
717
330
1A
100
AcDbEntity
  8
SEIHIN
  6
CONTINUOUS
100
AcDbLine
 10
716.1247290448658
 20
369.4159656673897
 30
0.0
 11
716.1246290448657
 21
356.4159656673898
 31
0.0
  0
LINE
  5
718
330
1A
100
AcDbEntity
  8
SEIHIN
  6
CONTINUOUS
100
AcDbLine
 10
711.1247290448658
 20
369.4160656673897
 30
0.0
 11
711.1246290448657
 21
356.4159656673898
 31
0.0
  0
ARC
  5
719
330
1A
100
AcDbEntity
  8
SEIHIN
  6
CONTINUOUS
100
AcDbCircle
 10
710.1248290448658
 20
389.4083656673897
 30
0.0
 40
0.9999959999999997
100
AcDbArc
 50
0.0
 51
78.21137799999999
  0
ARC
  5
71A
330
1A
100
AcDbEntity
  8
SEIHIN
  6
CONTINUOUS
100
AcDbCircle
 10
717.1248290448658
 20
387.7218656673898
 30
0.0
 40
1.000024
100
AcDbArc
 50
74.69915400000001
 51
180.0
  0
LINE
  5
71B
330
1A
100
AcDbEntity
  8
SEIHIN
  6
CONTINUOUS
100
AcDbLine
 10
751.6473290448658
 20
369.4158656673897
 30
0.0
 11
751.6473290448658
 21
359.4159656673898
 31
0.0
  0
LINE
  5
71C
330
1A
100
AcDbEntity
  8
SEIHIN
  6
CONTINUOUS
100
AcDbLine
 10
750.6473290448658
 20
369.4159656673897
 30
0.0
 11
750.6473290448658
 21
356.4159656673898
 31
0.0
  0
ARC
  5
71D
330
1A
100
AcDbEntity
  8
SEIHIN
  6
CONTINUOUS
100
AcDbCircle
 10
749.0185290448657
 20
378.3358656673897
 30
0.0
 40
0.5000210000000001
100
AcDbArc
 50
270.0
 51
58.81812099999999
  0
ARC
  5
71E
330
1A
100
AcDbEntity
  8
SEIHIN
  6
CONTINUOUS
100
AcDbCircle
 10
751.8688290448658
 20
378.3358656673897
 30
0.0
 40
0.499978
100
AcDbArc
 50
237.6799879999999
 51
270.0
  0
ARC
  5
71F
330
1A
100
AcDbEntity
  8
SEIHIN
  6
CONTINUOUS
100
AcDbCircle
 10
686.1244290448658
 20
274.4161656673897
 30
0.0
 40
125.0000229999999
100
AcDbArc
 50
76.113414
 51
78.462997
  0
ARC
  5
720
330
1A
100
AcDbEntity
  8
SEIHIN
  6
CONTINUOUS
100
AcDbCircle
 10
710.1248290448658
 20
392.9814656673897
 30
0.0
 40
0.99999
100
AcDbArc
 50
0.0
 51
78.556349
  0
ARC
  5
721
330
1A
100
AcDbEntity
  8
SEIHIN
  6
CONTINUOUS
100
AcDbCircle
 10
710.1248290448658
 20
395.5311656673898
 30
0.0
 40
1.000037999999999
100
AcDbArc
 50
258.7911899999999
 51
0.0
  0
LINE
  5
722
330
1A
100
AcDbEntity
  8
SEIHIN
  6
CONTINUOUS
100
AcDbLine
 10
711.1249290448657
 20
396.8906656673897
 30
0.0
 11
711.1248290448657
 21
395.5311656673898
 31
0.0
  0
LINE
  5
723
330
1A
100
AcDbEntity
  8
SEIHIN
  6
CONTINUOUS
100
AcDbLine
 10
716.1249290448657
 20
395.7627656673897
 30
0.0
 11
716.1248290448658
 21
393.9311656673897
 31
0.0
  0
ARC
  5
724
330
1A
100
AcDbEntity
  8
SEIHIN
  6
CONTINUOUS
100
AcDbCircle
 10
717.1248290448658
 20
391.3465656673897
 30
0.0
 40
1.000000999999999
100
AcDbArc
 50
75.14941
 51
180.0
  0
ARC
  5
725
330
1A
100
AcDbEntity
  8
SEIHIN
  6
CONTINUOUS
100
AcDbCircle
 10
717.1248290448658
 20
393.9311656673897
 30
0.0
 40
1.000018999999999
100
AcDbArc
 50
180.0
 51
255.457945
  0
LINE
  5
726
330
1A
100
AcDbEntity
  8
SEIHIN
  6
CONTINUOUS
100
AcDbLine
 10
781.1244290448658
 20
356.4157656673898
 30
0.0
 11
786.1244290448658
 21
355.4157656673897
 31
0.0
  0
LINE
  5
727
330
1A
100
AcDbEntity
  8
SEIHIN
  6
CONTINUOUS
100
AcDbLine
 10
754.4206290448657
 20
369.4159656673897
 30
0.0
 11
754.4206290448657
 21
359.4159656673898
 31
0.0
  0
ARC
  5
728
330
1A
100
AcDbEntity
  8
SEIHIN
  6
CONTINUOUS
100
AcDbCircle
 10
757.4206290448658
 20
359.4158656673897
 30
0.0
 40
3.0
100
AcDbArc
 50
180.0
 51
270.0
  0
LINE
  5
72A
330
1A
100
AcDbEntity
  8
SEIHIN
  6
CONTINUOUS
100
AcDbLine
 10
765.2571564235627
 20
351.4158700032154
 30
0.0
 11
766.1250290448657
 21
350.9147656673898
 31
0.0
  0
LINE
  5
72B
330
1A
100
AcDbEntity
  8
SEIHIN
  6
CONTINUOUS
100
AcDbLine
 10
763.9601290448657
 20
348.1648656673897
 30
0.0
 11
766.1250290448657
 21
346.9148656673898
 31
0.0
  0
LINE
  5
72C
330
1A
100
AcDbEntity
  8
SEIHIN
  6
CONTINUOUS
100
AcDbLine
 10
766.1250290448657
 20
346.4160656673897
 30
0.0
 11
763.9601290448657
 21
345.1661656673898
 31
0.0
  0
LINE
  5
72D
330
1A
100
AcDbEntity
  8
SEIHIN
  6
CONTINUOUS
100
AcDbLine
 10
766.1250290448657
 20
350.4159656673897
 30
0.0
 11
763.9601290448657
 21
349.1659656673898
 31
0.0
  0
LINE
  5
72E
330
1A
100
AcDbEntity
  8
SEIHIN
  6
CONTINUOUS
100
AcDbLine
 10
763.9601290448656
 20
351.4158764883522
 30
0.0
 11
763.9601290448658
 21
354.4158764883897
 31
0.0
  0
LINE
  5
72F
330
1A
100
AcDbEntity
  8
SEIHIN
  6
CONTINUOUS
100
AcDbLine
 10
763.9601290448657
 20
348.1648656673897
 30
0.0
 11
763.9601290448657
 21
349.1659656673898
 31
0.0
  0
LINE
  5
730
330
1A
100
AcDbEntity
  8
SEIHIN
  6
CONTINUOUS
100
AcDbLine
 10
766.1250290448657
 20
350.9147656673898
 30
0.0
 11
766.1250290448657
 21
350.4159656673897
 31
0.0
  0
LINE
  5
731
330
1A
100
AcDbEntity
  8
SEIHIN
  6
CONTINUOUS
100
AcDbLine
 10
766.1250290448657
 20
346.9148656673898
 30
0.0
 11
766.1250290448657
 21
346.4160656673897
 31
0.0
  0
LINE
  5
732
330
1A
100
AcDbEntity
  8
SEIHIN
  6
CONTINUOUS
100
AcDbLine
 10
754.4206290448657
 20
369.4159656673897
 30
0.0
 11
761.1247290448658
 21
369.4158656673897
 31
0.0
  0
ARC
  5
733
330
1A
100
AcDbEntity
  8
SEIHIN
  6
CONTINUOUS
100
AcDbCircle
 10
756.1247290448658
 20
371.8839656673897
 30
0.0
 40
4.999983999999999
100
AcDbArc
 50
359.998854
 51
54.313925
  0
ARC
  5
734
330
1A
100
AcDbEntity
  8
SEIHIN
  6
CONTINUOUS
100
AcDbCircle
 10
686.1244290448658
 20
274.4161656673897
 30
0.0
 40
124.999984
100
AcDbArc
 50
54.314587
 51
55.828264
  0
LINE
  5
735
330
1A
100
AcDbEntity
  8
SEIHIN
  6
CONTINUOUS
100
AcDbLine
 10
761.1247290448658
 20
371.8839656673897
 30
0.0
 11
761.1247290448658
 21
369.4158656673897
 31
0.0
  0
LINE
  5
737
330
1A
100
AcDbEntity
  8
SEIHIN
  6
CONTINUOUS
100
AcDbLine
 10
786.1244290448658
 20
355.4157656673897
 30
0.0
 11
786.1243290448657
 21
354.4157656673898
 31
0.0
  0
LINE
  5
73B
330
1A
100
AcDbEntity
  8
SEIHIN
  6
CONTINUOUS
100
AcDbLine
 10
434.0483439374952
 20
173.828037231484
 30
0.0
 11
384.0488439374952
 21
173.8282372310839
 31
0.0
  0
LINE
  5
73C
330
1A
100
AcDbEntity
  8
SEIHIN
  6
CONTINUOUS
100
AcDbLine
 10
434.0482439374953
 20
165.408037231484
 30
0.0
 11
384.0488439374952
 21
165.408237231484
 31
0.0
  0
ARC
  5
73D
330
1A
100
AcDbEntity
  8
SEIHIN
  6
CONTINUOUS
100
AcDbCircle
 10
409.0484439374952
 20
70.40813723148403
 30
0.0
 40
118.4699929999999
100
AcDbArc
 50
78.21093799999999
 51
101.7887579999999
  0
ARC
  5
73E
330
1A
100
AcDbEntity
  8
SEIHIN
  6
CONTINUOUS
100
AcDbCircle
 10
409.0484439374952
 20
70.40813723148403
 30
0.0
 40
121.9699749999999
100
AcDbArc
 50
78.556706
 51
101.4430549999999
  0
ARC
  5
73F
330
1A
100
AcDbEntity
  8
SEIHIN
  6
CONTINUOUS
100
AcDbCircle
 10
409.0484439374952
 20
70.40813723148403
 30
0.0
 40
122.4699729999999
100
AcDbArc
 50
78.79145099999999
 51
101.2083099999999
  0
LINE
  5
746
330
1A
100
AcDbEntity
  8
SEIHIN
  6
CONTINUOUS
100
AcDbLine
 10
509.0482439374953
 20
150.407637231484
 30
0.0
 11
309.0491439374952
 21
150.408837226084
 31
0.0
  0
LINE
  5
747
330
1A
100
AcDbEntity
  8
SEIHIN
  6
CONTINUOUS
100
AcDbLine
 10
504.0482439374953
 20
152.407737231484
 30
0.0
 11
314.051144098033
 21
152.4087372235883
 31
0.0
  0
LINE
  5
748
330
1A
100
AcDbEntity
  8
SEIHIN
  6
CONTINUOUS
100
AcDbLine
 10
509.0482439374953
 20
151.407637231484
 30
0.0
 11
309.0511440925056
 21
151.408837222483
 31
0.0
  0
LINE
  5
749
330
1A
100
AcDbEntity
  8
CENTER_L
 48
5.0
100
AcDbLine
 10
409.0486302504801
 20
108.4082367982131
 30
0.0
 11
409.0488439374952
 21
200.235637231484
 31
0.0
  0
ARC
  5
754
330
1A
100
AcDbEntity
  8
SEIHIN
  6
CONTINUOUS
100
AcDbCircle
 10
409.0484439374952
 20
70.40813723148403
 30
0.0
 40
118.470004
100
AcDbArc
 50
105.301286
 51
119.1950439999999
  0
ARC
  5
755
330
1A
100
AcDbEntity
  8
SEIHIN
  6
CONTINUOUS
100
AcDbCircle
 10
409.0484439374952
 20
70.40813723148403
 30
0.0
 40
122.470003
100
AcDbArc
 50
104.540871
 51
122.318955
  0
ARC
  5
756
330
1A
100
AcDbEntity
  8
SEIHIN
  6
CONTINUOUS
100
AcDbCircle
 10
409.0484439374952
 20
70.40813723148403
 30
0.0
 40
121.970034
100
AcDbArc
 50
104.8481949999999
 51
121.182708
  0
LINE
  5
757
330
1A
100
AcDbEntity
  8
SEIHIN
  6
CONTINUOUS
100
AcDbLine
 10
343.5261439374952
 20
165.4083372314839
 30
0.0
 11
379.0491439374952
 21
165.408237231484
 31
0.0
  0
LINE
  5
758
330
1A
100
AcDbEntity
  8
SEIHIN
  6
CONTINUOUS
100
AcDbLine
 10
346.1551439374952
 20
173.828337231484
 30
0.0
 11
379.0491439374952
 21
173.8282372314839
 31
0.0
  0
LINE
  5
75D
330
1A
100
AcDbEntity
  8
SEIHIN
  6
CONTINUOUS
100
AcDbLine
 10
309.0491439374952
 20
151.408437231484
 30
0.0
 11
309.0491439374952
 21
150.408437231484
 31
0.0
  0
LINE
  5
75E
330
1A
100
AcDbEntity
  8
SEIHIN
  6
CONTINUOUS
100
AcDbLine
 10
314.0491439374952
 20
152.4083372314839
 30
0.0
 11
309.0491439374952
 21
151.408437231484
 31
0.0
  0
ARC
  5
760
330
1A
100
AcDbEntity
  8
SEIHIN
  6
CONTINUOUS
100
AcDbCircle
 10
339.0488439374952
 20
167.876437231484
 30
0.0
 40
4.999983999999999
100
AcDbArc
 50
125.6860749999999
 51
180.0
  0
LINE
  5
761
330
1A
100
AcDbEntity
  8
SEIHIN
  6
CONTINUOUS
100
AcDbLine
 10
340.7529439374952
 20
165.408437231484
 30
0.0
 11
340.7529439374952
 21
155.4083372314839
 31
0.0
  0
LINE
  5
762
330
1A
100
AcDbEntity
  8
SEIHIN
  6
CONTINUOUS
100
AcDbLine
 10
343.5262439374952
 20
165.4083372314839
 30
0.0
 11
343.5261439374952
 21
155.4083372314839
 31
0.0
  0
LINE
  5
763
330
1A
100
AcDbEntity
  8
SEIHIN
  6
CONTINUOUS
100
AcDbLine
 10
344.5262439374952
 20
165.4083372314839
 30
0.0
 11
344.5261439374952
 21
152.4083372314839
 31
0.0
  0
ARC
  5
764
330
1A
100
AcDbEntity
  8
SEIHIN
  6
CONTINUOUS
100
AcDbCircle
 10
337.7529439374952
 20
155.4083372314839
 30
0.0
 40
3.0
100
AcDbArc
 50
270.0
 51
0.0
  0
ARC
  5
765
330
1A
100
AcDbEntity
  8
SEIHIN
  6
CONTINUOUS
100
AcDbCircle
 10
340.5261439374952
 20
155.4083372314839
 30
0.0
 40
3.0
100
AcDbArc
 50
270.0
 51
0.0
  0
LINE
  5
766
330
1A
100
AcDbEntity
  8
SEIHIN
  6
CONTINUOUS
100
AcDbLine
 10
340.7529439374952
 20
165.4083372314839
 30
0.0
 11
334.0488439374952
 21
165.4083372314839
 31
0.0
  0
LINE
  5
767
330
1A
100
AcDbEntity
  8
SEIHIN
  6
CONTINUOUS
100
AcDbLine
 10
334.0488439374952
 20
167.876437231484
 30
0.0
 11
334.0488439374952
 21
165.4083372314839
 31
0.0
  0
LINE
  5
768
330
1A
100
AcDbEntity
  8
SEIHIN
  6
CONTINUOUS
100
AcDbLine
 10
338.8395439374952
 20
173.828337231484
 30
0.0
 11
343.3048439374952
 21
173.828337231484
 31
0.0
  0
ARC
  5
769
330
1A
100
AcDbEntity
  8
SEIHIN
  6
CONTINUOUS
100
AcDbCircle
 10
409.0484439374952
 20
70.40813723148403
 30
0.0
 40
125.00003
100
AcDbArc
 50
124.171507
 51
125.6852209999999
  0
ARC
  5
76A
330
1A
100
AcDbEntity
  8
SEIHIN
  6
CONTINUOUS
100
AcDbCircle
 10
346.1551439374952
 20
174.328337231484
 30
0.0
 40
0.499978
100
AcDbArc
 50
121.1878129999999
 51
270.0
  0
ARC
  5
76B
330
1A
100
AcDbEntity
  8
SEIHIN
  6
CONTINUOUS
100
AcDbCircle
 10
343.3048439374952
 20
174.328337231484
 30
0.0
 40
0.5000200000000001
100
AcDbArc
 50
270.0
 51
302.3138859999999
  0
LINE
  5
76E
330
1A
100
AcDbEntity
  8
SEIHIN
  6
CONTINUOUS
100
AcDbLine
 10
378.0537439374952
 20
165.408137231484
 30
0.0
 11
378.0537439374952
 21
152.408137231484
 31
0.0
  0
LINE
  5
76F
330
1A
100
AcDbEntity
  8
SEIHIN
  6
CONTINUOUS
100
AcDbLine
 10
379.0488439374952
 20
165.408137231484
 30
0.0
 11
379.0488439374952
 21
152.408137231484
 31
0.0
  0
LINE
  5
770
330
1A
100
AcDbEntity
  8
SEIHIN
  6
CONTINUOUS
100
AcDbLine
 10
384.0488439374952
 20
165.408137231484
 30
0.0
 11
384.0488439374952
 21
152.408137231484
 31
0.0
  0
ARC
  5
771
330
1A
100
AcDbEntity
  8
SEIHIN
  6
CONTINUOUS
100
AcDbCircle
 10
409.0484439374952
 20
70.40813723148403
 30
0.0
 40
124.999994
100
AcDbArc
 50
101.536868
 51
103.8863969999999
  0
LINE
  5
772
330
1A
100
AcDbEntity
  8
SEIHIN
  6
CONTINUOUS
100
AcDbLine
 10
379.0488439374952
 20
187.3387372314839
 30
0.0
 11
379.0488439374952
 21
173.828137231484
 31
0.0
  0
LINE
  5
773
330
1A
100
AcDbEntity
  8
SEIHIN
  6
CONTINUOUS
100
AcDbLine
 10
379.0489439374951
 20
191.7549372314839
 30
0.0
 11
379.0489439374951
 21
189.9232372314839
 31
0.0
  0
ARC
  5
774
330
1A
100
AcDbEntity
  8
SEIHIN
  6
CONTINUOUS
100
AcDbCircle
 10
378.0489439374952
 20
189.9232372314839
 30
0.0
 40
0.9999579999999999
100
AcDbArc
 50
284.5379470000001
 51
0.0
  0
ARC
  5
775
330
1A
100
AcDbEntity
  8
SEIHIN
  6
CONTINUOUS
100
AcDbCircle
 10
378.0488439374952
 20
187.3387372314839
 30
0.0
 40
0.9999879999999999
100
AcDbArc
 50
0.0
 51
104.845052
  0
ARC
  5
776
330
1A
100
AcDbEntity
  8
SEIHIN
  6
CONTINUOUS
100
AcDbCircle
 10
378.0488439374952
 20
183.7140372314839
 30
0.0
 40
1.000024
100
AcDbArc
 50
0.0
 51
105.300846
  0
LINE
  5
777
330
1A
100
AcDbEntity
  8
SEIHIN
  6
CONTINUOUS
100
AcDbLine
 10
384.0489439374952
 20
188.973537231484
 30
0.0
 11
384.0488439374952
 21
173.828137231484
 31
0.0
  0
LINE
  5
778
330
1A
100
AcDbEntity
  8
SEIHIN
  6
CONTINUOUS
100
AcDbLine
 10
384.0489439374952
 20
192.882737231484
 30
0.0
 11
384.0489439374952
 21
191.523237231484
 31
0.0
  0
ARC
  5
779
330
1A
100
AcDbEntity
  8
SEIHIN
  6
CONTINUOUS
100
AcDbCircle
 10
385.0489439374952
 20
188.973537231484
 30
0.0
 40
0.99999
100
AcDbArc
 50
101.443651
 51
180.0
  0
ARC
  5
77A
330
1A
100
AcDbEntity
  8
SEIHIN
  6
CONTINUOUS
100
AcDbCircle
 10
385.0489439374952
 20
191.523237231484
 30
0.0
 40
0.999979
100
AcDbArc
 50
180.0
 51
281.2043039999999
  0
ARC
  5
77B
330
1A
100
AcDbEntity
  8
SEIHIN
  6
CONTINUOUS
100
AcDbCircle
 10
385.0488439374952
 20
185.400437231484
 30
0.0
 40
0.9999959999999997
100
AcDbArc
 50
101.7886219999999
 51
180.0
  0
LINE
  5
781
330
1A
100
AcDbEntity
  8
SEIHIN
  6
CONTINUOUS
100
AcDbLine
 10
474.5712439374951
 20
165.407837231484
 30
0.0
 11
439.0482439374952
 21
165.408037231484
 31
0.0
  0
LINE
  5
782
330
1A
100
AcDbEntity
  8
SEIHIN
  6
CONTINUOUS
100
AcDbLine
 10
471.9424439374952
 20
173.827837231484
 30
0.0
 11
439.0483439374953
 21
173.828037231484
 31
0.0
  0
ARC
  5
783
330
1A
100
AcDbEntity
  8
SEIHIN
  6
CONTINUOUS
100
AcDbCircle
 10
409.0484439374952
 20
70.40813723148403
 30
0.0
 40
122.469982
100
AcDbArc
 50
57.680747
 51
75.45889100000001
  0
ARC
  5
784
330
1A
100
AcDbEntity
  8
SEIHIN
  6
CONTINUOUS
100
AcDbCircle
 10
409.0484439374952
 20
70.40813723148403
 30
0.0
 40
118.4699759999999
100
AcDbArc
 50
60.80471700000001
 51
74.698515
  0
ARC
  5
785
330
1A
100
AcDbEntity
  8
SEIHIN
  6
CONTINUOUS
100
AcDbCircle
 10
409.0484439374952
 20
70.40813723148403
 30
0.0
 40
121.969934
100
AcDbArc
 50
58.81703399999999
 51
75.15155400000001
  0
LINE
  5
786
330
1A
100
AcDbEntity
  8
SEIHIN
  6
CONTINUOUS
100
AcDbLine
 10
434.0485439374951
 20
165.407937231484
 30
0.0
 11
434.0485439374951
 21
152.407937231484
 31
0.0
  0
LINE
  5
787
330
1A
100
AcDbEntity
  8
SEIHIN
  6
CONTINUOUS
100
AcDbLine
 10
440.0437439374952
 20
165.407937231484
 30
0.0
 11
440.0436439374951
 21
152.407937231484
 31
0.0
  0
LINE
  5
788
330
1A
100
AcDbEntity
  8
SEIHIN
  6
CONTINUOUS
100
AcDbLine
 10
439.0485439374952
 20
165.407937231484
 30
0.0
 11
439.0485439374952
 21
152.407937231484
 31
0.0
  0
LINE
  5
789
330
1A
100
AcDbEntity
  8
SEIHIN
  6
CONTINUOUS
100
AcDbLine
 10
434.0487439374952
 20
188.973437231484
 30
0.0
 11
434.0486439374951
 21
173.827937231484
 31
0.0
  0
LINE
  5
78A
330
1A
100
AcDbEntity
  8
SEIHIN
  6
CONTINUOUS
100
AcDbLine
 10
439.0487439374952
 20
187.3385372314839
 30
0.0
 11
439.0486439374951
 21
173.827937231484
 31
0.0
  0
ARC
  5
78B
330
1A
100
AcDbEntity
  8
SEIHIN
  6
CONTINUOUS
100
AcDbCircle
 10
409.0482439374953
 20
70.40813723148403
 30
0.0
 40
124.999996
100
AcDbArc
 50
76.11336899999999
 51
78.46294300000001
  0
LINE
  5
78C
330
1A
100
AcDbEntity
  8
SEIHIN
  6
CONTINUOUS
100
AcDbLine
 10
434.0487439374952
 20
192.882637231484
 30
0.0
 11
434.0487439374952
 21
191.5230372314839
 31
0.0
  0
ARC
  5
78D
330
1A
100
AcDbEntity
  8
SEIHIN
  6
CONTINUOUS
100
AcDbCircle
 10
433.0487439374953
 20
188.973437231484
 30
0.0
 40
0.99999
100
AcDbArc
 50
0.0
 51
78.556349
  0
ARC
  5
78E
330
1A
100
AcDbEntity
  8
SEIHIN
  6
CONTINUOUS
100
AcDbCircle
 10
433.0487439374953
 20
191.5230372314839
 30
0.0
 40
0.9999889999999998
100
AcDbArc
 50
258.790076
 51
0.0
  0
ARC
  5
78F
330
1A
100
AcDbEntity
  8
SEIHIN
  6
CONTINUOUS
100
AcDbCircle
 10
433.0487439374953
 20
185.4002372314839
 30
0.0
 40
0.9999959999999997
100
AcDbArc
 50
0.0
 51
78.21137799999999
  0
LINE
  5
790
330
1A
100
AcDbEntity
  8
SEIHIN
  6
CONTINUOUS
100
AcDbLine
 10
439.0487439374952
 20
191.754737231484
 30
0.0
 11
439.0487439374952
 21
189.923037231484
 31
0.0
  0
ARC
  5
791
330
1A
100
AcDbEntity
  8
SEIHIN
  6
CONTINUOUS
100
AcDbCircle
 10
440.0487439374952
 20
187.3385372314839
 30
0.0
 40
0.9999879999999999
100
AcDbArc
 50
75.154948
 51
180.0
  0
ARC
  5
792
330
1A
100
AcDbEntity
  8
SEIHIN
  6
CONTINUOUS
100
AcDbCircle
 10
440.0487439374952
 20
189.923037231484
 30
0.0
 40
1.000018999999999
100
AcDbArc
 50
180.0
 51
255.457945
  0
ARC
  5
793
330
1A
100
AcDbEntity
  8
SEIHIN
  6
CONTINUOUS
100
AcDbCircle
 10
440.0487439374952
 20
183.713837231484
 30
0.0
 40
0.9999629999999999
100
AcDbArc
 50
74.703169
 51
180.0
  0
ARC
  5
794
330
1A
100
AcDbEntity
  8
SEIHIN
  6
CONTINUOUS
100
AcDbCircle
 10
479.0486439374951
 20
167.875837231484
 30
0.0
 40
5.000023999999999
100
AcDbArc
 50
0.0
 51
54.31459399999999
  0
LINE
  5
795
330
1A
100
AcDbEntity
  8
SEIHIN
  6
CONTINUOUS
100
AcDbLine
 10
477.3444439374952
 20
165.407837231484
 30
0.0
 11
484.0486439374951
 21
165.407837231484
 31
0.0
  0
ARC
  5
796
330
1A
100
AcDbEntity
  8
SEIHIN
  6
CONTINUOUS
100
AcDbCircle
 10
480.3444439374953
 20
155.4078372314839
 30
0.0
 40
3.0
100
AcDbArc
 50
180.0
 51
270.0
  0
LINE
  5
797
330
1A
100
AcDbEntity
  8
SEIHIN
  6
CONTINUOUS
100
AcDbLine
 10
477.3444439374952
 20
165.407937231484
 30
0.0
 11
477.3444439374952
 21
155.4078372314839
 31
0.0
  0
LINE
  5
798
330
1A
100
AcDbEntity
  8
SEIHIN
  6
CONTINUOUS
100
AcDbLine
 10
474.5712439374951
 20
165.407837231484
 30
0.0
 11
474.5712439374951
 21
155.4078372314839
 31
0.0
  0
LINE
  5
799
330
1A
100
AcDbEntity
  8
SEIHIN
  6
CONTINUOUS
100
AcDbLine
 10
473.5712439374951
 20
165.407837231484
 30
0.0
 11
473.5712439374951
 21
152.407937231484
 31
0.0
  0
ARC
  5
79A
330
1A
100
AcDbEntity
  8
SEIHIN
  6
CONTINUOUS
100
AcDbCircle
 10
477.5712439374951
 20
155.4078372314839
 30
0.0
 40
3.0
100
AcDbArc
 50
180.0
 51
270.0
  0
LINE
  5
79C
330
1A
100
AcDbEntity
  8
SEIHIN
  6
CONTINUOUS
100
AcDbLine
 10
484.0486439374951
 20
167.875837231484
 30
0.0
 11
484.0486439374951
 21
165.407837231484
 31
0.0
  0
ARC
  5
79D
330
1A
100
AcDbEntity
  8
SEIHIN
  6
CONTINUOUS
100
AcDbCircle
 10
409.0482439374953
 20
70.40813723148403
 30
0.0
 40
125.0000409999999
100
AcDbArc
 50
54.31455
 51
55.82822700000001
  0
ARC
  5
79E
330
1A
100
AcDbEntity
  8
SEIHIN
  6
CONTINUOUS
100
AcDbCircle
 10
471.9424439374952
 20
174.327837231484
 30
0.0
 40
0.4999950000000001
100
AcDbArc
 50
270.0
 51
58.827925
  0
ARC
  5
79F
330
1A
100
AcDbEntity
  8
SEIHIN
  6
CONTINUOUS
100
AcDbCircle
 10
474.7927439374952
 20
174.327837231484
 30
0.0
 40
0.499978
100
AcDbArc
 50
237.6799879999999
 51
270.0
  0
LINE
  5
7A0
330
1A
100
AcDbEntity
  8
SEIHIN
  6
CONTINUOUS
100
AcDbLine
 10
479.2579439374953
 20
173.8277372314839
 30
0.0
 11
474.7927439374952
 21
173.827837231484
 31
0.0
  0
LINE
  5
7A1
330
1A
100
AcDbEntity
  8
SEIHIN
  6
CONTINUOUS
100
AcDbLine
 10
504.0482439374953
 20
152.407737231484
 30
0.0
 11
509.0482439374953
 21
151.407637231484
 31
0.0
  0
LINE
  5
7A2
330
1A
100
AcDbEntity
  8
SEIHIN
  6
CONTINUOUS
100
AcDbLine
 10
509.0482439374953
 20
151.407637231484
 30
0.0
 11
509.0482439374953
 21
150.407637231484
 31
0.0
  0
LINE
  5
7A3
330
1A
100
AcDbEntity
  8
SEIHIN
  6
CONTINUOUS
100
AcDbLine
 10
378.6354439374952
 20
481.0387372314839
 30
0.0
 11
439.4632439374952
 21
481.038637231484
 31
0.0
  0
LINE
  5
7A4
330
1A
100
AcDbEntity
  8
SEIHIN
  6
CONTINUOUS
100
AcDbLine
 10
409.0491439374952
 20
416.038737231484
 30
0.0
 11
431.0491439374953
 21
416.038737231484
 31
0.0
  0
LINE
  5
7A5
330
1A
100
AcDbEntity
  8
SEIHIN
  6
CONTINUOUS
100
AcDbLine
 10
409.0491439374952
 20
421.038737231484
 30
0.0
 11
431.0491439374953
 21
421.038737231484
 31
0.0
  0
LINE
  5
7A6
330
1A
100
AcDbEntity
  8
SEIHIN
  6
CONTINUOUS
100
AcDbLine
 10
409.0490439374951
 20
361.038737231484
 30
0.0
 11
431.0490439374952
 21
361.038737231484
 31
0.0
  0
LINE
  5
7A7
330
1A
100
AcDbEntity
  8
SEIHIN
  6
CONTINUOUS
100
AcDbLine
 10
409.0490439374951
 20
366.0387372314839
 30
0.0
 11
431.0490439374952
 21
366.0387372314839
 31
0.0
  0
LINE
  5
7A8
330
1A
100
AcDbEntity
  8
SEIHIN
  6
CONTINUOUS
100
AcDbLine
 10
378.6352439374951
 20
301.0387372314839
 30
0.0
 11
439.4626439374953
 21
301.038637231484
 31
0.0
  0
ARC
  5
7A9
330
1A
100
AcDbEntity
  8
SEIHIN
  6
CONTINUOUS
100
AcDbCircle
 10
409.0491439374952
 20
391.0387372314839
 30
0.0
 40
95.000037
100
AcDbArc
 50
186.042263
 51
353.95755
  0
ARC
  5
7AA
330
1A
100
AcDbEntity
  8
SEIHIN
  6
CONTINUOUS
100
AcDbCircle
 10
409.0491439374952
 20
391.0387372314839
 30
0.0
 40
94.999987
100
AcDbArc
 50
6.042329999999999
 51
173.95761
  0
ARC
  5
7AB
330
1A
100
AcDbEntity
  8
SEIHIN
  6
CONTINUOUS
100
AcDbCircle
 10
409.0491439374952
 20
391.0387372314839
 30
0.0
 40
72.00001
100
AcDbArc
 50
24.624342
 51
108.592781
  0
ARC
  5
7AC
330
1A
100
AcDbEntity
  8
SEIHIN
  6
CONTINUOUS
100
AcDbCircle
 10
409.0491439374952
 20
391.0387372314839
 30
0.0
 40
75.0
100
AcDbArc
 50
0.0
 51
359.999924
  0
ARC
  5
7AD
330
1A
100
AcDbEntity
  8
SEIHIN
  6
CONTINUOUS
100
AcDbCircle
 10
409.0491439374952
 20
391.0387372314839
 30
0.0
 40
72.000019
100
AcDbArc
 50
151.435559
 51
24.624237
  0
LINE
  5
7AE
330
1A
100
AcDbEntity
  8
CENTER_L
 48
5.0
100
AcDbLine
 10
299.0491439374952
 20
391.039037231484
 30
0.0
 11
519.0491439374953
 21
391.038537231484
 31
0.0
  0
ARC
  5
7B0
330
1A
100
AcDbEntity
  8
SEIHIN
  6
CONTINUOUS
100
AcDbCircle
 10
409.0491439374952
 20
391.0387372314839
 30
0.0
 40
100.000017
100
AcDbArc
 50
9.084735
 51
170.915209
  0
LINE
  5
7B3
330
1A
100
AcDbEntity
  8
CENTER_L
 48
5.0
100
AcDbLine
 10
409.0488439374952
 20
281.0387372314839
 30
0.0
 11
409.0493439374951
 21
501.0387372314839
 31
0.0
  0
ARC
  5
7B4
330
1A
100
AcDbEntity
  8
SEIHIN
  6
CONTINUOUS
100
AcDbCircle
 10
409.0491439374952
 20
391.0387372314839
 30
0.0
 40
72.000079
100
AcDbArc
 50
108.592781
 51
151.4280459999999
  0
LINE
  5
7B5
330
1A
100
AcDbEntity
  8
SEIHIN
  6
CONTINUOUS
100
AcDbLine
 10
379.0491439374952
 20
424.0388372314839
 30
0.0
 11
379.0492439374952
 21
451.6358372314839
 31
0.0
  0
LINE
  5
7B6
330
1A
100
AcDbEntity
  8
SEIHIN
  6
CONTINUOUS
100
AcDbLine
 10
384.0491439374952
 20
424.0388372314839
 30
0.0
 11
384.0492439374952
 21
456.437537231484
 31
0.0
  0
LINE
  5
7B7
330
1A
100
AcDbEntity
  8
SEIHIN
  6
CONTINUOUS
100
AcDbLine
 10
379.0490439374952
 20
358.038837231484
 30
0.0
 11
379.0490439374952
 21
330.441837231484
 31
0.0
  0
LINE
  5
7B8
330
1A
100
AcDbEntity
  8
SEIHIN
  6
CONTINUOUS
100
AcDbLine
 10
384.0490439374951
 20
358.0387372314839
 30
0.0
 11
384.0490439374951
 21
325.640037231484
 31
0.0
  0
ARC
  5
7B9
330
1A
100
AcDbEntity
  8
SEIHIN
  6
CONTINUOUS
100
AcDbCircle
 10
387.0490439374951
 20
325.640037231484
 30
0.0
 40
3.000000999999999
100
AcDbArc
 50
180.0
 51
251.405608
  0
LINE
  5
7BA
330
1A
100
AcDbEntity
  8
SEIHIN
  6
CONTINUOUS
100
AcDbLine
 10
379.2026439374952
 20
325.516337231484
 30
0.0
 11
378.0538439374952
 21
322.743137231484
 31
0.0
  0
LINE
  5
7BB
330
1A
100
AcDbEntity
  8
SEIHIN
  6
CONTINUOUS
100
AcDbLine
 10
383.8219439374952
 20
323.602937231484
 30
0.0
 11
382.6732439374952
 21
320.829637231484
 31
0.0
  0
ARC
  5
7BC
330
1A
100
AcDbEntity
  8
SEIHIN
  6
CONTINUOUS
100
AcDbCircle
 10
376.0490439374951
 20
330.441837231484
 30
0.0
 40
3.000024999999999
100
AcDbArc
 50
241.4282549999999
 51
0.0
  0
LINE
  5
7BD
330
1A
100
AcDbEntity
  8
SEIHIN
  6
CONTINUOUS
100
AcDbLine
 10
376.0491439374952
 20
421.0388372314839
 30
0.0
 11
348.4521439374951
 21
421.0388372314839
 31
0.0
  0
LINE
  5
7BE
330
1A
100
AcDbEntity
  8
SEIHIN
  6
CONTINUOUS
100
AcDbLine
 10
376.0491439374952
 20
416.0388372314839
 30
0.0
 11
343.6503439374952
 21
416.0389372314839
 31
0.0
  0
LINE
  5
7BF
330
1A
100
AcDbEntity
  8
SEIHIN
  6
CONTINUOUS
100
AcDbLine
 10
376.0490439374951
 20
361.038837231484
 30
0.0
 11
348.4520439374952
 21
361.038837231484
 31
0.0
  0
LINE
  5
7C0
330
1A
100
AcDbEntity
  8
SEIHIN
  6
CONTINUOUS
100
AcDbLine
 10
376.0490439374951
 20
366.038837231484
 30
0.0
 11
343.6502439374952
 21
366.038937231484
 31
0.0
  0
ARC
  5
7C1
330
1A
100
AcDbEntity
  8
SEIHIN
  6
CONTINUOUS
100
AcDbCircle
 10
409.0491439374952
 20
391.0387372314839
 30
0.0
 40
78.50004799999999
100
AcDbArc
 50
172.68122
 51
187.318635
  0
ARC
  5
7C2
330
1A
100
AcDbEntity
  8
SEIHIN
  6
CONTINUOUS
100
AcDbCircle
 10
409.0491439374952
 20
391.0387372314839
 30
0.0
 40
77.50006899999999
100
AcDbArc
 50
172.586259
 51
187.413594
  0
LINE
  5
7C3
330
1A
100
AcDbEntity
  8
SEIHIN
  6
CONTINUOUS
100
AcDbLine
 10
315.2407439374952
 20
381.038937231484
 30
0.0
 11
334.7187439374952
 21
381.038837231484
 31
0.0
  0
ARC
  5
7C4
330
1A
100
AcDbEntity
  8
SEIHIN
  6
CONTINUOUS
100
AcDbCircle
 10
315.2407439374952
 20
376.038937231484
 30
0.0
 40
4.999963
100
AcDbArc
 50
90.0
 51
189.085162
  0
ARC
  5
7C5
330
1A
100
AcDbEntity
  8
SEIHIN
  6
CONTINUOUS
100
AcDbCircle
 10
348.4520439374952
 20
358.038836231484
 30
0.0
 40
3.000000999999999
100
AcDbArc
 50
89.99999200000001
 51
208.57006
  0
LINE
  5
7C6
330
1A
100
AcDbEntity
  8
SEIHIN
  6
CONTINUOUS
100
AcDbLine
 10
341.6131439374952
 20
365.812137231484
 30
0.0
 11
338.8398439374951
 21
364.663437231484
 31
0.0
  0
ARC
  5
7C7
330
1A
100
AcDbEntity
  8
SEIHIN
  6
CONTINUOUS
100
AcDbCircle
 10
343.6502439374952
 20
369.0389372314839
 30
0.0
 40
2.999984999999999
100
AcDbArc
 50
198.592582
 51
270.0
  0
LINE
  5
7C8
330
1A
100
AcDbEntity
  8
SEIHIN
  6
CONTINUOUS
100
AcDbLine
 10
343.5264439374952
 20
361.192637231484
 30
0.0
 11
340.7532439374952
 21
360.043937231484
 31
0.0
  0
LINE
  5
7C9
330
1A
100
AcDbEntity
  8
SEIHIN
  6
CONTINUOUS
100
AcDbLine
 10
315.2408439374952
 20
401.0389372314839
 30
0.0
 11
334.7188439374952
 21
401.038837231484
 31
0.0
  0
ARC
  5
7CA
330
1A
100
AcDbEntity
  8
SEIHIN
  6
CONTINUOUS
100
AcDbCircle
 10
315.2408439374952
 20
406.0389372314839
 30
0.0
 40
5.000011999999999
100
AcDbArc
 50
170.915019
 51
270.0
  0
LINE
  5
7CB
330
1A
100
AcDbEntity
  8
SEIHIN
  6
CONTINUOUS
100
AcDbLine
 10
341.6132439374952
 20
416.2658372314839
 30
0.0
 11
338.8400439374952
 21
417.414537231484
 31
0.0
  0
ARC
  5
7CC
330
1A
100
AcDbEntity
  8
SEIHIN
  6
CONTINUOUS
100
AcDbCircle
 10
343.6503439374952
 20
413.0389372314839
 30
0.0
 40
2.999984999999999
100
AcDbArc
 50
90.0
 51
161.407418
  0
ARC
  5
7CD
330
1A
100
AcDbEntity
  8
SEIHIN
  6
CONTINUOUS
100
AcDbCircle
 10
348.4521439374951
 20
424.0388372314839
 30
0.0
 40
3.000024999999999
100
AcDbArc
 50
151.428255
 51
270.0
  0
LINE
  5
7CE
330
1A
100
AcDbEntity
  8
SEIHIN
  6
CONTINUOUS
100
AcDbLine
 10
343.5267439374952
 20
420.8852372314839
 30
0.0
 11
340.7534439374952
 21
422.034037231484
 31
0.0
  0
LINE
  5
7CF
330
1A
100
AcDbEntity
  8
SEIHIN
  6
CONTINUOUS
100
AcDbLine
 10
384.0491439374952
 20
391.038837231484
 30
0.0
 11
384.0491439374952
 21
413.0388372314839
 31
0.0
  0
LINE
  5
7D0
330
1A
100
AcDbEntity
  8
SEIHIN
  6
CONTINUOUS
100
AcDbLine
 10
379.0491439374952
 20
391.038837231484
 30
0.0
 11
379.0491439374952
 21
413.0388372314839
 31
0.0
  0
LINE
  5
7D1
330
1A
100
AcDbEntity
  8
SEIHIN
  6
CONTINUOUS
100
AcDbLine
 10
409.0490439374951
 20
361.038737231484
 30
0.0
 11
387.0490439374951
 21
361.038737231484
 31
0.0
  0
LINE
  5
7D2
330
1A
100
AcDbEntity
  8
SEIHIN
  6
CONTINUOUS
100
AcDbLine
 10
409.0490439374951
 20
366.0387372314839
 30
0.0
 11
387.0490439374951
 21
366.038837231484
 31
0.0
  0
LINE
  5
7D3
330
1A
100
AcDbEntity
  8
SEIHIN
  6
CONTINUOUS
100
AcDbLine
 10
384.0491439374952
 20
391.038837231484
 30
0.0
 11
384.0490439374951
 21
369.038837231484
 31
0.0
  0
LINE
  5
7D4
330
1A
100
AcDbEntity
  8
SEIHIN
  6
CONTINUOUS
100
AcDbLine
 10
379.0491439374952
 20
391.038837231484
 30
0.0
 11
379.0490439374952
 21
369.038837231484
 31
0.0
  0
ARC
  5
7D5
330
1A
100
AcDbEntity
  8
SEIHIN
  6
CONTINUOUS
100
AcDbCircle
 10
376.0490439374951
 20
358.038837231484
 30
0.0
 40
3.0
100
AcDbArc
 50
0.0
 51
90.0
  0
ARC
  5
7D6
330
1A
100
AcDbEntity
  8
SEIHIN
  6
CONTINUOUS
100
AcDbCircle
 10
376.0490439374951
 20
369.038837231484
 30
0.0
 40
3.0
100
AcDbArc
 50
270.0
 51
0.0
  0
ARC
  5
7D7
330
1A
100
AcDbEntity
  8
SEIHIN
  6
CONTINUOUS
100
AcDbCircle
 10
387.0490439374951
 20
358.0387372314839
 30
0.0
 40
3.0
100
AcDbArc
 50
90.0
 51
180.0
  0
ARC
  5
7D8
330
1A
100
AcDbEntity
  8
SEIHIN
  6
CONTINUOUS
100
AcDbCircle
 10
387.0490439374951
 20
369.038837231484
 30
0.0
 40
3.0
100
AcDbArc
 50
180.0
 51
270.0
  0
LINE
  5
7D9
330
1A
100
AcDbEntity
  8
SEIHIN
  6
CONTINUOUS
100
AcDbLine
 10
409.0491439374952
 20
416.038737231484
 30
0.0
 11
387.0491439374952
 21
416.0388372314839
 31
0.0
  0
LINE
  5
7DA
330
1A
100
AcDbEntity
  8
SEIHIN
  6
CONTINUOUS
100
AcDbLine
 10
409.0491439374952
 20
421.038737231484
 30
0.0
 11
387.0491439374952
 21
421.0388372314839
 31
0.0
  0
ARC
  5
7DB
330
1A
100
AcDbEntity
  8
SEIHIN
  6
CONTINUOUS
100
AcDbCircle
 10
376.0491439374952
 20
413.0388372314839
 30
0.0
 40
3.0
100
AcDbArc
 50
0.0
 51
90.0
  0
ARC
  5
7DC
330
1A
100
AcDbEntity
  8
SEIHIN
  6
CONTINUOUS
100
AcDbCircle
 10
387.0491439374952
 20
413.0388372314839
 30
0.0
 40
3.0
100
AcDbArc
 50
90.0
 51
180.0
  0
ARC
  5
7DD
330
1A
100
AcDbEntity
  8
SEIHIN
  6
CONTINUOUS
100
AcDbCircle
 10
376.0491439374952
 20
424.0388372314839
 30
0.0
 40
3.0
100
AcDbArc
 50
270.0
 51
0.0
  0
ARC
  5
7DE
330
1A
100
AcDbEntity
  8
SEIHIN
  6
CONTINUOUS
100
AcDbCircle
 10
387.0491439374952
 20
424.0388372314839
 30
0.0
 40
3.0
100
AcDbArc
 50
180.0
 51
270.0
  0
ARC
  5
7DF
330
1A
100
AcDbEntity
  8
SEIHIN
  6
CONTINUOUS
100
AcDbCircle
 10
376.0492439374952
 20
451.6358372314839
 30
0.0
 40
2.999981
100
AcDbArc
 50
0.0
 51
118.572658
  0
LINE
  5
7E0
330
1A
100
AcDbEntity
  8
SEIHIN
  6
CONTINUOUS
100
AcDbLine
 10
379.2029439374952
 20
456.561337231484
 30
0.0
 11
378.0543439374952
 21
459.3346372314839
 31
0.0
  0
LINE
  5
7E1
330
1A
100
AcDbEntity
  8
SEIHIN
  6
CONTINUOUS
100
AcDbLine
 10
383.8224439374952
 20
458.474737231484
 30
0.0
 11
382.6737439374952
 21
461.2479372314839
 31
0.0
  0
ARC
  5
7E2
330
1A
100
AcDbEntity
  8
SEIHIN
  6
CONTINUOUS
100
AcDbCircle
 10
387.0492439374952
 20
456.437537231484
 30
0.0
 40
3.000032
100
AcDbArc
 50
108.591973
 51
180.0
  0
LINE
  5
7E3
330
1A
100
AcDbEntity
  8
SEIHIN
  6
CONTINUOUS
100
AcDbLine
 10
434.0491439374952
 20
424.038737231484
 30
0.0
 11
434.0492439374952
 21
456.437537231484
 31
0.0
  0
LINE
  5
7E4
330
1A
100
AcDbEntity
  8
SEIHIN
  6
CONTINUOUS
100
AcDbLine
 10
439.0491439374953
 20
424.038737231484
 30
0.0
 11
439.0492439374952
 21
451.6357372314839
 31
0.0
  0
LINE
  5
7E5
330
1A
100
AcDbEntity
  8
SEIHIN
  6
CONTINUOUS
100
AcDbLine
 10
434.0490439374952
 20
358.0387372314839
 30
0.0
 11
434.0489439374952
 21
325.6399372314839
 31
0.0
  0
LINE
  5
7E6
330
1A
100
AcDbEntity
  8
SEIHIN
  6
CONTINUOUS
100
AcDbLine
 10
439.0490439374952
 20
358.0387372314839
 30
0.0
 11
439.0490439374952
 21
330.441637231484
 31
0.0
  0
LINE
  5
7E7
330
1A
100
AcDbEntity
  8
SEIHIN
  6
CONTINUOUS
100
AcDbLine
 10
438.8951439374952
 20
325.516137231484
 30
0.0
 11
440.0438439374952
 21
322.742837231484
 31
0.0
  0
ARC
  5
7E8
330
1A
100
AcDbEntity
  8
SEIHIN
  6
CONTINUOUS
100
AcDbCircle
 10
431.0489439374951
 20
325.6399372314839
 30
0.0
 40
2.999984999999999
100
AcDbArc
 50
288.592582
 51
0.0
  0
LINE
  5
7E9
330
1A
100
AcDbEntity
  8
SEIHIN
  6
CONTINUOUS
100
AcDbLine
 10
434.2757439374952
 20
323.602737231484
 30
0.0
 11
435.4244439374951
 21
320.829537231484
 31
0.0
  0
ARC
  5
7EA
330
1A
100
AcDbEntity
  8
SEIHIN
  6
CONTINUOUS
100
AcDbCircle
 10
442.0490439374951
 20
330.441637231484
 30
0.0
 40
2.999956999999999
100
AcDbArc
 50
180.0
 51
298.570981
  0
LINE
  5
7EB
330
1A
100
AcDbEntity
  8
SEIHIN
  6
CONTINUOUS
100
AcDbLine
 10
483.3794439374952
 20
401.038537231484
 30
0.0
 11
502.8574439374952
 21
401.038537231484
 31
0.0
  0
LINE
  5
7EC
330
1A
100
AcDbEntity
  8
SEIHIN
  6
CONTINUOUS
100
AcDbLine
 10
483.3794439374952
 20
381.038537231484
 30
0.0
 11
502.8573439374952
 21
381.038537231484
 31
0.0
  0
ARC
  5
7ED
330
1A
100
AcDbEntity
  8
SEIHIN
  6
CONTINUOUS
100
AcDbCircle
 10
409.0492439374952
 20
391.0387372314839
 30
0.0
 40
77.50001899999999
100
AcDbArc
 50
352.58603
 51
7.413374
  0
ARC
  5
7EE
330
1A
100
AcDbEntity
  8
SEIHIN
  6
CONTINUOUS
100
AcDbCircle
 10
409.0491439374952
 20
391.0387372314839
 30
0.0
 40
78.49994200000001
100
AcDbArc
 50
352.6812109999999
 51
7.318572
  0
ARC
  5
7EF
330
1A
100
AcDbEntity
  8
SEIHIN
  6
CONTINUOUS
100
AcDbCircle
 10
409.0492439374952
 20
391.0387372314839
 30
0.0
 40
78.49994800000001
100
AcDbArc
 50
352.680985
 51
7.318417999999998
  0
ARC
  5
7F0
330
1A
100
AcDbEntity
  8
SEIHIN
  6
CONTINUOUS
100
AcDbCircle
 10
409.0491439374952
 20
391.0387372314839
 30
0.0
 40
77.49996999999999
100
AcDbArc
 50
352.58625
 51
7.413603000000001
  0
LINE
  5
7F1
330
1A
100
AcDbEntity
  8
SEIHIN
  6
CONTINUOUS
100
AcDbLine
 10
434.0491439374952
 20
391.0387372314839
 30
0.0
 11
434.0491439374952
 21
413.038737231484
 31
0.0
  0
LINE
  5
7F2
330
1A
100
AcDbEntity
  8
SEIHIN
  6
CONTINUOUS
100
AcDbLine
 10
439.0491439374953
 20
391.0387372314839
 30
0.0
 11
439.0491439374953
 21
413.038737231484
 31
0.0
  0
LINE
  5
7F3
330
1A
100
AcDbEntity
  8
SEIHIN
  6
CONTINUOUS
100
AcDbLine
 10
442.0490439374951
 20
361.038637231484
 30
0.0
 11
469.6460439374951
 21
361.038637231484
 31
0.0
  0
LINE
  5
7F4
330
1A
100
AcDbEntity
  8
SEIHIN
  6
CONTINUOUS
100
AcDbLine
 10
442.0490439374951
 20
366.0387372314839
 30
0.0
 11
474.4478439374952
 21
366.038637231484
 31
0.0
  0
LINE
  5
7F5
330
1A
100
AcDbEntity
  8
SEIHIN
  6
CONTINUOUS
100
AcDbLine
 10
434.0491439374952
 20
391.0387372314839
 30
0.0
 11
434.0490439374952
 21
369.038737231484
 31
0.0
  0
LINE
  5
7F6
330
1A
100
AcDbEntity
  8
SEIHIN
  6
CONTINUOUS
100
AcDbLine
 10
439.0491439374953
 20
391.0387372314839
 30
0.0
 11
439.0490439374952
 21
369.038737231484
 31
0.0
  0
ARC
  5
7F7
330
1A
100
AcDbEntity
  8
SEIHIN
  6
CONTINUOUS
100
AcDbCircle
 10
442.0490439374951
 20
358.038637231484
 30
0.0
 40
3.0
100
AcDbArc
 50
90.0
 51
180.0
  0
ARC
  5
7F8
330
1A
100
AcDbEntity
  8
SEIHIN
  6
CONTINUOUS
100
AcDbCircle
 10
431.0490439374952
 20
358.0387372314839
 30
0.0
 40
3.0
100
AcDbArc
 50
0.0
 51
90.0
  0
ARC
  5
7F9
330
1A
100
AcDbEntity
  8
SEIHIN
  6
CONTINUOUS
100
AcDbCircle
 10
442.0490439374951
 20
369.038737231484
 30
0.0
 40
3.0
100
AcDbArc
 50
180.0
 51
270.0
  0
ARC
  5
7FA
330
1A
100
AcDbEntity
  8
SEIHIN
  6
CONTINUOUS
100
AcDbCircle
 10
431.0490439374952
 20
369.038737231484
 30
0.0
 40
3.0
100
AcDbArc
 50
270.0
 51
0.0
  0
ARC
  5
7FB
330
1A
100
AcDbEntity
  8
SEIHIN
  6
CONTINUOUS
100
AcDbCircle
 10
469.6460439374951
 20
358.038637231484
 30
0.0
 40
3.000024999999999
100
AcDbArc
 50
331.4282549999999
 51
90.0
  0
ARC
  5
7FC
330
1A
100
AcDbEntity
  8
SEIHIN
  6
CONTINUOUS
100
AcDbCircle
 10
474.4478439374952
 20
369.038637231484
 30
0.0
 40
3.000000999999999
100
AcDbArc
 50
270.0
 51
341.405608
  0
LINE
  5
7FD
330
1A
100
AcDbEntity
  8
SEIHIN
  6
CONTINUOUS
100
AcDbLine
 10
474.5714439374952
 20
361.192237231484
 30
0.0
 11
477.3447439374952
 21
360.043437231484
 31
0.0
  0
LINE
  5
7FE
330
1A
100
AcDbEntity
  8
SEIHIN
  6
CONTINUOUS
100
AcDbLine
 10
476.4848439374953
 20
365.811537231484
 30
0.0
 11
479.2581439374952
 21
364.662837231484
 31
0.0
  0
LINE
  5
7FF
330
1A
100
AcDbEntity
  8
SEIHIN
  6
CONTINUOUS
100
AcDbLine
 10
442.0491439374952
 20
421.038737231484
 30
0.0
 11
469.6462439374952
 21
421.038637231484
 31
0.0
  0
LINE
  5
800
330
1A
100
AcDbEntity
  8
SEIHIN
  6
CONTINUOUS
100
AcDbLine
 10
442.0491439374952
 20
416.038737231484
 30
0.0
 11
474.4479439374952
 21
416.038637231484
 31
0.0
  0
ARC
  5
801
330
1A
100
AcDbEntity
  8
SEIHIN
  6
CONTINUOUS
100
AcDbCircle
 10
442.0491439374952
 20
413.038737231484
 30
0.0
 40
3.0
100
AcDbArc
 50
90.0
 51
180.0
  0
ARC
  5
802
330
1A
100
AcDbEntity
  8
SEIHIN
  6
CONTINUOUS
100
AcDbCircle
 10
431.0491439374953
 20
413.038737231484
 30
0.0
 40
3.0
100
AcDbArc
 50
0.0
 51
90.0
  0
ARC
  5
803
330
1A
100
AcDbEntity
  8
SEIHIN
  6
CONTINUOUS
100
AcDbCircle
 10
442.0491439374952
 20
424.038737231484
 30
0.0
 40
3.0
100
AcDbArc
 50
180.0
 51
270.0
  0
ARC
  5
804
330
1A
100
AcDbEntity
  8
SEIHIN
  6
CONTINUOUS
100
AcDbCircle
 10
431.0491439374953
 20
424.038737231484
 30
0.0
 40
3.0
100
AcDbArc
 50
270.0
 51
0.0
  0
LINE
  5
805
330
1A
100
AcDbEntity
  8
SEIHIN
  6
CONTINUOUS
100
AcDbLine
 10
476.4850439374952
 20
416.265537231484
 30
0.0
 11
479.2583439374952
 21
417.414237231484
 31
0.0
  0
ARC
  5
806
330
1A
100
AcDbEntity
  8
SEIHIN
  6
CONTINUOUS
100
AcDbCircle
 10
474.4479439374952
 20
413.0386372314839
 30
0.0
 40
2.999984999999999
100
AcDbArc
 50
18.592582
 51
90.0
  0
ARC
  5
807
330
1A
100
AcDbEntity
  8
SEIHIN
  6
CONTINUOUS
100
AcDbCircle
 10
469.6462439374952
 20
424.038637231484
 30
0.0
 40
2.999981
100
AcDbArc
 50
270.0
 51
28.572658
  0
LINE
  5
808
330
1A
100
AcDbEntity
  8
SEIHIN
  6
CONTINUOUS
100
AcDbLine
 10
474.5716439374952
 20
420.8849372314839
 30
0.0
 11
477.3449439374952
 21
422.0336372314839
 31
0.0
  0
ARC
  5
809
330
1A
100
AcDbEntity
  8
SEIHIN
  6
CONTINUOUS
100
AcDbCircle
 10
502.8573439374952
 20
376.038537231484
 30
0.0
 40
5.000011999999999
100
AcDbArc
 50
350.9150189999999
 51
90.0
  0
ARC
  5
80A
330
1A
100
AcDbEntity
  8
SEIHIN
  6
CONTINUOUS
100
AcDbCircle
 10
502.8574439374952
 20
406.038537231484
 30
0.0
 40
5.000011999999999
100
AcDbArc
 50
270.0
 51
9.084980999999999
  0
ARC
  5
80B
330
1A
100
AcDbEntity
  8
SEIHIN
  6
CONTINUOUS
100
AcDbCircle
 10
442.0492439374952
 20
451.6357372314839
 30
0.0
 40
2.999981
100
AcDbArc
 50
61.42734200000001
 51
180.0
  0
LINE
  5
80C
330
1A
100
AcDbEntity
  8
SEIHIN
  6
CONTINUOUS
100
AcDbLine
 10
434.2761439374952
 20
458.4746372314839
 30
0.0
 11
435.4249439374951
 21
461.247837231484
 31
0.0
  0
ARC
  5
80D
330
1A
100
AcDbEntity
  8
SEIHIN
  6
CONTINUOUS
100
AcDbCircle
 10
431.0492439374952
 20
456.437537231484
 30
0.0
 40
2.999984999999999
100
AcDbArc
 50
0.0
 51
71.407418
  0
LINE
  5
80E
330
1A
100
AcDbEntity
  8
SEIHIN
  6
CONTINUOUS
100
AcDbLine
 10
438.8955439374951
 20
456.5611372314839
 30
0.0
 11
440.0443439374952
 21
459.334437231484
 31
0.0
  0
ARC
  5
80F
330
1A
100
AcDbEntity
  8
SEIHIN
  6
CONTINUOUS
100
AcDbCircle
 10
409.0491439377226
 20
391.0388372314841
 30
0.0
 40
100.000017
100
AcDbArc
 50
189.0845305646385
 51
350.9150045646386
  0
LINE
  5
812
330
1A
100
AcDbEntity
  8
CENTER_L
 48
5.0
100
AcDbLine
 10
136.1728285809494
 20
284.0387372320437
 30
0.0
 11
136.1728746998995
 21
303.8573644732167
 31
0.0
  0
CIRCLE
  5
81A
330
1A
100
AcDbEntity
  8
SEIHIN
  6
CONTINUOUS
100
AcDbCircle
 10
136.1731247000131
 20
391.0387872315976
 30
0.0
 40
94.9997463172637
  0
CIRCLE
  5
81B
330
1A
100
AcDbEntity
  8
SEIHIN
  6
CONTINUOUS
100
AcDbCircle
 10
136.1731247000131
 20
391.0387872315976
 30
0.0
 40
79.99964631722498
  0
ARC
  5
81C
330
1A
100
AcDbEntity
  8
SEIHIN
  6
CONTINUOUS
100
AcDbCircle
 10
136.1731247000131
 20
391.0387872315976
 30
0.0
 40
77.83464631721942
100
AcDbArc
 50
94.05590177497577
 51
145.9455299871951
  0
CIRCLE
  5
81D
330
1A
100
AcDbEntity
  8
SEIHIN
  6
CONTINUOUS
100
AcDbCircle
 10
136.1731247000131
 20
391.0387872315976
 30
0.0
 40
67.74954631719338
  0
LINE
  5
81E
330
1A
100
AcDbEntity
  8
SEIHIN
  6
CONTINUOUS
100
AcDbLine
 10
130.5147710170315
 20
470.83807572767
 30
0.0
 11
130.66790089057
 21
468.6784979351711
 31
0.0
  0
LINE
  5
81F
330
1A
100
AcDbEntity
  8
SEIHIN
  6
CONTINUOUS
100
AcDbLine
 10
69.89297101703153
 20
435.8370532543069
 30
0.0
 11
71.68668560615628
 21
434.6246948201855
 31
0.0
  0
LINE
  5
820
330
1A
100
AcDbEntity
  8
SEIHIN
  6
CONTINUOUS
100
AcDbLine
 10
69.8940904999821
 20
346.2388649505022
 30
0.0
 11
71.68777479296545
 21
347.4512682073143
 31
0.0
  0
LINE
  5
821
330
1A
100
AcDbEntity
  8
SEIHIN
  6
CONTINUOUS
100
AcDbLine
 10
130.5167651203445
 20
311.2393573640442
 30
0.0
 11
130.6698410282236
 21
313.3989389824257
 31
0.0
  0
LINE
  5
822
330
1A
100
AcDbEntity
  8
SEIHIN
  6
CONTINUOUS
100
AcDbLine
 10
208.1105125830259
 20
356.0394210166208
 30
0.0
 11
206.1636984165039
 21
356.9865955523076
 31
0.0
  0
LINE
  5
823
330
1A
100
AcDbEntity
  8
SEIHIN
  6
CONTINUOUS
100
AcDbLine
 10
208.1096379626634
 20
426.0399510764418
 30
0.0
 11
206.1628474656596
 21
425.0927278921817
 31
0.0
  0
ARC
  5
824
330
1A
100
AcDbEntity
  8
SEIHIN
  6
CONTINUOUS
100
AcDbCircle
 10
136.1731247000131
 20
391.0387872315976
 30
0.0
 40
77.83464631721942
100
AcDbArc
 50
214.0559017749757
 51
265.9455299871952
  0
ARC
  5
825
330
1A
100
AcDbEntity
  8
SEIHIN
  6
CONTINUOUS
100
AcDbCircle
 10
136.1731247000131
 20
391.0387872315976
 30
0.0
 40
77.83464631721942
100
AcDbArc
 50
334.0559017749829
 51
25.94552998718802
  0
LINE
  5
827
330
1A
100
AcDbEntity
  8
SEIHIN
  6
CONTINUOUS
100
AcDbLine
 10
486.8840325708884
 20
115.407843792679
 30
0.0
 11
331.2132605097676
 21
115.4086298037611
 31
0.0
  0
LINE
  5
87B
330
1A
100
AcDbEntity
  8
SEIHIN
  6
CONTINUOUS
100
AcDbLine
 10
486.8840325708884
 20
115.407843792679
 30
0.0
 11
486.8840325708885
 21
118.4078437927172
 31
0.0
  0
LINE
  5
89A
330
1A
100
AcDbEntity
  8
SEIHIN
  6
CONTINUOUS
100
AcDbLine
 10
489.0489325708883
 20
147.4077572272982
 30
0.0
 11
489.0489325708883
 21
118.407832861729
 31
0.0
  0
LINE
  5
89B
330
1A
100
AcDbEntity
  8
SEIHIN
  6
CONTINUOUS
100
AcDbLine
 10
489.0489325708883
 20
147.4077572272982
 30
0.0
 11
329.0485094413949
 21
147.4087172298369
 31
0.0
  0
LINE
  5
89C
330
1A
100
AcDbEntity
  8
SEIHIN
  6
CONTINUOUS
100
AcDbLine
 10
489.0489325708883
 20
118.407832861729
 30
0.0
 11
329.0483744720991
 21
118.4086407347171
 31
0.0
  0
LINE
  5
89D
330
1A
100
AcDbEntity
  8
SEIHIN
  6
CONTINUOUS
100
AcDbLine
 10
486.8840325708884
 20
147.4077702166982
 30
0.0
 11
486.8840325708884
 21
150.4077702167522
 31
0.0
  0
LINE
  5
89E
330
1A
100
AcDbEntity
  8
SEIHIN
  6
CONTINUOUS
 62
     4
100
AcDbLine
 10
486.8840325708884
 20
147.4077702166982
 30
0.0
 11
486.8838861447915
 21
118.4078437934566
 31
0.0
  0
LINE
  5
89F
330
1A
100
AcDbEntity
  8
SEIHIN
  6
CONTINUOUS
 62
     4
100
AcDbLine
 10
331.2134094386968
 20
147.4081324701283
 30
0.0
 11
331.2134208961964
 21
118.4082060465193
 31
0.0
  0
LINE
  5
8A0
330
1A
100
AcDbEntity
  8
SEIHIN
  6
CONTINUOUS
100
AcDbLine
 10
329.0485094386598
 20
147.4081295563923
 30
0.0
 11
329.0483744700721
 21
118.4082051911372
 31
0.0
  0
LINE
  5
8A1
330
1A
100
AcDbEntity
  8
SEIHIN
  6
CONTINUOUS
100
AcDbLine
 10
331.2132605077954
 20
115.4082060464557
 30
0.0
 11
331.2132744700994
 21
118.4082060464614
 31
0.0
  0
LINE
  5
8A2
330
1A
100
AcDbEntity
  8
SEIHIN
  6
CONTINUOUS
100
AcDbLine
 10
331.2134094386968
 20
147.4081324701283
 30
0.0
 11
331.2134234010009
 21
150.4081324701498
 31
0.0
  0
LINE
  5
8A3
330
1A
100
AcDbEntity
  8
SEIHIN
  6
CONTINUOUS
100
AcDbLine
 10
766.1250290448657
 20
322.4158612943257
 30
0.0
 11
740.6323922360398
 21
322.4159900114559
 31
0.0
  0
LINE
  5
8A4
330
1A
100
AcDbEntity
  8
SEIHIN
  6
CONTINUOUS
100
AcDbLine
 10
765.2571564235627
 20
351.4158700032154
 30
0.0
 11
753.9756954134348
 21
351.4159264105205
 31
0.0
  0
LINE
  5
8A5
330
1A
100
AcDbEntity
  8
SEIHIN
  6
CONTINUOUS
100
AcDbLine
 10
727.2842262129061
 20
322.4160574088632
 30
0.0
 11
687.3041314419777
 21
322.4162592759006
 31
0.0
  0
LINE
  5
8A6
330
1A
100
AcDbEntity
  8
SEIHIN
  6
CONTINUOUS
100
AcDbLine
 10
673.9561168261767
 20
322.4163266725432
 30
0.0
 11
633.9768029402245
 21
322.4165285356378
 31
0.0
  0
LINE
  5
8A7
330
1A
100
AcDbEntity
  8
SEIHIN
  6
CONTINUOUS
100
AcDbLine
 10
620.6285939722294
 20
322.4165959332618
 30
0.0
 11
606.1246290448657
 21
322.4166691665157
 31
0.0
  0
LINE
  5
8A8
330
1A
100
AcDbEntity
  8
SEIHIN
  6
CONTINUOUS
100
AcDbLine
 10
633.9564075515032
 20
351.4165265069596
 30
0.0
 11
606.8121495738063
 21
351.4166622282495
 31
0.0
  0
LINE
  5
8A9
330
1A
100
AcDbEntity
  8
SEIHIN
  6
CONTINUOUS
100
AcDbLine
 10
687.2918523212245
 20
351.4162598297358
 30
0.0
 11
647.3036726856356
 21
351.4164597706339
 31
0.0
  0
LINE
  5
8AA
330
1A
100
AcDbEntity
  8
SEIHIN
  6
CONTINUOUS
100
AcDbLine
 10
740.6285054244835
 20
351.4159931464705
 30
0.0
 11
700.6398635526577
 21
351.4161930896796
 31
0.0
  0
DIMENSION
  5
8C0
330
1A
100
AcDbEntity
  8
SUNPOU
  6
CONTINUOUS
100
AcDbDimension
  2
*D1
 10
36.17277469989955
 20
225.6327445824426
 30
0.0
 11
136.1728246998995
 21
230.6327445824426
 31
0.0
 12
0.0
 22
15.0
 32
0.0
 70
    32
  1
φ<>
  3
STANDARD
100
AcDbAlignedDimension
 13
236.1728746998995
 23
204.3408812873238
 33
0.0
 14
36.17277469989955
 24
204.3412812879237
 34
0.0
100
AcDbRotatedDimension
1001
ACAD
1000
DSTYLE
1002
{
1070
   140
1040
6.0
1070
    74
1070
     0
1070
   172
1070
     1
1070
    73
1070
     0
1070
   272
1070
     2
1070
    77
1070
     3
1070
   173
1070
     1
1070
   147
1040
2.0
1070
    42
1040
6.0
1070
    44
1040
3.0
1070
    43
1040
14.0
1070
   271
1070
     0
1070
   178
1070
     4
1070
   177
1070
     4
1070
   176
1070
     4
1070
   141
1040
150.0
1070
     7
1000
_OPEN
1070
     6
1000
_OPEN
1070
    41
1040
7.0
1002
}
  0
DIMENSION
  5
8CD
330
1A
100
AcDbEntity
  8
SUNPOU
  6
CONTINUOUS
100
AcDbDimension
  2
*D2
 10
65.92247469989956
 20
108.5632692539395
 30
0.0
 11
136.1725746998995
 21
113.5632692539395
 31
0.0
 12
0.0
 22
15.0
 32
0.0
 70
    32
  1
φ<>
  3
STANDARD
100
AcDbAlignedDimension
 13
206.4226746998995
 23
136.8408812879237
 33
0.0
 14
65.92247469989956
 24
136.8411812879237
 34
0.0
100
AcDbRotatedDimension
1001
ACAD
1000
DSTYLE
1002
{
1070
   140
1040
6.0
1070
    74
1070
     0
1070
   172
1070
     1
1070
    73
1070
     0
1070
   272
1070
     2
1070
    77
1070
     3
1070
   173
1070
     1
1070
   147
1040
2.0
1070
    42
1040
6.0
1070
    44
1040
3.0
1070
    43
1040
14.0
1070
   271
1070
     0
1070
   178
1070
     4
1070
   177
1070
     4
1070
   176
1070
     4
1070
   141
1040
150.0
1070
     7
1000
_OPEN
1070
     6
1000
_OPEN
1070
    41
1040
7.0
1002
}
  0
DIMENSION
  5
8DA
330
1A
100
AcDbEntity
  8
SUNPOU
  6
CONTINUOUS
100
AcDbDimension
  2
*D3
 10
53.44757469989957
 20
87.43906210871136
 30
0.0
 11
136.1726746998995
 21
92.43906210871136
 31
0.0
 12
0.0
 22
15.0
 32
0.0
 70
    32
  1
φ<>
  3
STANDARD
100
AcDbAlignedDimension
 13
218.8977746998995
 23
166.8408812879238
 33
0.0
 14
53.44757469989957
 24
166.8412812879237
 34
0.0
100
AcDbRotatedDimension
1001
ACAD
1000
DSTYLE
1002
{
1070
   140
1040
6.0
1070
    74
1070
     0
1070
   172
1070
     1
1070
    73
1070
     0
1070
   272
1070
     2
1070
    77
1070
     3
1070
   173
1070
     1
1070
   147
1040
2.0
1070
    42
1040
6.0
1070
    44
1040
3.0
1070
    43
1040
14.0
1070
   271
1070
     0
1070
   178
1070
     4
1070
   177
1070
     4
1070
   176
1070
     4
1070
   141
1040
150.0
1070
     7
1000
_OPEN
1070
     6
1000
_OPEN
1070
    41
1040
7.0
1002
}
  0
DIMENSION
  5
94A
330
1A
100
AcDbEntity
  8
SUNPOU
  6
CONTINUOUS
100
AcDbDimension
  2
*D4
 10
253.0319427071699
 20
166.8408812879238
 30
0.0
 11
248.0319427071699
 21
184.3408812873975
 31
0.0
 12
0.0
 22
15.0
 32
0.0
 70
    32
  3
STANDARD
100
AcDbAlignedDimension
 13
231.1730746946371
 23
201.8408812868712
 33
0.0
 14
218.8977746998995
 24
166.8408812879238
 34
0.0
 50
90.0
100
AcDbRotatedDimension
1001
ACAD
1000
DSTYLE
1002
{
1070
   140
1040
6.0
1070
    74
1070
     0
1070
   172
1070
     1
1070
    73
1070
     0
1070
   272
1070
     2
1070
    77
1070
     3
1070
   173
1070
     1
1070
   147
1040
2.0
1070
    42
1040
6.0
1070
    44
1040
3.0
1070
    43
1040
14.0
1070
   271
1070
     0
1070
   178
1070
     4
1070
   177
1070
     4
1070
   176
1070
     4
1070
   141
1040
150.0
1070
     7
1000
_OPEN
1070
     6
1000
_OPEN
1070
    41
1040
7.0
1002
}
  0
DIMENSION
  5
956
330
1A
100
AcDbEntity
  8
SUNPOU
  6
CONTINUOUS
100
AcDbDimension
  2
*D5
 10
253.0319427071699
 20
136.8409812877814
 30
0.0
 11
248.0319427071699
 21
151.8409312878526
 31
0.0
 70
    32
  3
STANDARD
100
AcDbAlignedDimension
 13
218.8977746998995
 23
166.8408812879238
 33
0.0
 14
206.4226747002328
 24
136.8409812877814
 34
0.0
 50
90.0
100
AcDbRotatedDimension
1001
ACAD
1000
DSTYLE
1002
{
1070
   287
1070
     4
1070
   287
1070
     4
1070
   287
1070
     4
1070
    41
1040
7.0
1070
    42
1040
6.0
1070
    43
1040
14.0
1070
    44
1040
3.0
1070
    73
1070
     0
1070
    74
1070
     0
1070
    75
1070
     1
1070
    77
1070
     3
1070
   140
1040
6.0
1070
   141
1040
150.0
1070
   147
1040
2.0
1070
   172
1070
     1
1070
   173
1070
     1
1070
   176
1070
     4
1070
   177
1070
     4
1070
   178
1070
     4
1070
   271
1070
     0
1070
   272
1070
     2
1070
   279
1070
     1
1070
     6
1000
OPEN
1070
     7
1000
OPEN
1002
}
  0
DIMENSION
  5
963
330
1A
100
AcDbEntity
  8
SUNPOU
  6
CONTINUOUS
100
AcDbDimension
  2
*D6
 10
273.2675905343662
 20
136.8409812877814
 30
0.0
 11
268.2675905343662
 21
170.5909312875526
 31
0.0
 12
0.0
 22
15.0
 32
0.0
 70
    32
  3
STANDARD
100
AcDbAlignedDimension
 13
236.1728746998995
 23
204.3408812873238
 33
0.0
 14
206.4226747002328
 24
136.8409812877814
 34
0.0
 50
90.0
100
AcDbRotatedDimension
1001
ACAD
1000
DSTYLE
1002
{
1070
   140
1040
6.0
1070
    74
1070
     0
1070
   172
1070
     1
1070
    73
1070
     0
1070
   272
1070
     2
1070
    77
1070
     3
1070
   173
1070
     1
1070
   147
1040
2.0
1070
    42
1040
6.0
1070
    44
1040
3.0
1070
    43
1040
14.0
1070
   271
1070
     0
1070
   178
1070
     4
1070
   177
1070
     4
1070
   176
1070
     4
1070
   141
1040
150.0
1070
     7
1000
_OPEN
1070
     6
1000
_OPEN
1070
    41
1040
7.0
1002
}
  0
DIMENSION
  5
970
330
1A
100
AcDbEntity
  8
SUNPOU
  6
CONTINUOUS
100
AcDbDimension
  2
*D7
 10
329.0483744700721
 20
87.18068811725629
 30
0.0
 11
409.0486535204802
 21
92.18068811725629
 31
0.0
 12
-10.0
 22
-15.0
 32
0.0
 70
    32
  1
φ<>
  3
STANDARD
100
AcDbAlignedDimension
 13
489.0489325708883
 23
118.407832861729
 33
0.0
 14
329.0483744700721
 24
118.4082051911372
 34
0.0
100
AcDbRotatedDimension
1001
ACAD
1000
DSTYLE
1002
{
1070
   140
1040
6.0
1070
    74
1070
     0
1070
   172
1070
     1
1070
    73
1070
     0
1070
   272
1070
     2
1070
    77
1070
     3
1070
   173
1070
     1
1070
   147
1040
2.0
1070
    42
1040
6.0
1070
    44
1040
3.0
1070
    43
1040
14.0
1070
   271
1070
     0
1070
   178
1070
     4
1070
   177
1070
     4
1070
   176
1070
     4
1070
   141
1040
150.0
1070
     7
1000
_OPEN
1070
     6
1000
_OPEN
1070
    41
1040
7.0
1002
}
  0
DIMENSION
  5
97F
330
1A
100
AcDbEntity
  8
SUNPOU
  6
CONTINUOUS
100
AcDbDimension
  2
*D8
 10
522.7654011506784
 20
152.407737231484
 30
0.0
 11
517.7654011506783
 21
170.407737231484
 31
0.0
 12
-10.0
 22
-15.0
 32
0.0
 70
    32
  3
STANDARD
100
AcDbAlignedDimension
 13
509.0482439374953
 23
150.407637231484
 33
0.0
 14
504.0482439374953
 24
152.407737231484
 34
0.0
 50
90.0
100
AcDbRotatedDimension
1001
ACAD
1000
DSTYLE
1002
{
1070
   140
1040
6.0
1070
    74
1070
     0
1070
   172
1070
     1
1070
    73
1070
     0
1070
   272
1070
     2
1070
    77
1070
     3
1070
   173
1070
     1
1070
   147
1040
2.0
1070
    42
1040
6.0
1070
    44
1040
3.0
1070
    43
1040
14.0
1070
   271
1070
     0
1070
   178
1070
     4
1070
   177
1070
     4
1070
   176
1070
     4
1070
   141
1040
150.0
1070
     7
1000
_OPEN
1070
     6
1000
_OPEN
1070
    41
1040
7.0
1002
}
  0
DIMENSION
  5
98C
330
1A
100
AcDbEntity
  8
SUNPOU
  6
CONTINUOUS
100
AcDbDimension
  2
*D9
 10
540.9464990644115
 20
115.407843792679
 30
0.0
 11
535.9464990644114
 21
132.9077405120815
 31
0.0
 12
-10.0
 22
-15.0
 32
0.0
 70
    32
  3
STANDARD
100
AcDbAlignedDimension
 13
509.0482439374953
 23
150.407637231484
 33
0.0
 14
486.8840325708884
 24
115.407843792679
 34
0.0
 50
90.0
100
AcDbRotatedDimension
1001
ACAD
1000
DSTYLE
1002
{
1070
   140
1040
6.0
1070
    74
1070
     0
1070
   172
1070
     1
1070
    73
1070
     0
1070
   272
1070
     2
1070
    77
1070
     3
1070
   173
1070
     1
1070
   147
1040
2.0
1070
    42
1040
6.0
1070
    44
1040
3.0
1070
    43
1040
14.0
1070
   271
1070
     0
1070
   178
1070
     4
1070
   177
1070
     4
1070
   176
1070
     4
1070
   141
1040
150.0
1070
     7
1000
_OPEN
1070
     6
1000
_OPEN
1070
    41
1040
7.0
1002
}
  0
DIMENSION
  5
999
330
1A
100
AcDbEntity
  8
SUNPOU
  6
CONTINUOUS
100
AcDbDimension
  2
*D10
 10
560.4482243613156
 20
115.407843792679
 30
0.0
 11
555.4482243613156
 21
154.1451810088499
 31
0.0
 12
-10.0
 22
-15.0
 32
0.0
 70
    32
  3
STANDARD
100
AcDbAlignedDimension
 13
434.0487439374952
 23
192.8825182250208
 33
0.0
 14
486.8840325708884
 24
115.407843792679
 34
0.0
 50
90.0
100
AcDbRotatedDimension
1001
ACAD
1000
DSTYLE
1002
{
1070
   140
1040
6.0
1070
    74
1070
     0
1070
   172
1070
     1
1070
    73
1070
     0
1070
   272
1070
     2
1070
    77
1070
     3
1070
   173
1070
     1
1070
   147
1040
2.0
1070
    42
1040
6.0
1070
    44
1040
3.0
1070
    43
1040
14.0
1070
   271
1070
     0
1070
   178
1070
     4
1070
   177
1070
     4
1070
   176
1070
     4
1070
   141
1040
150.0
1070
     7
1000
_OPEN
1070
     6
1000
_OPEN
1070
    41
1040
7.0
1002
}
  0
DIMENSION
  5
9A6
330
1A
100
AcDbEntity
  8
SUNPOU
  6
CONTINUOUS
100
AcDbDimension
  2
*D11
 10
334.0488439374952
 20
208.8660834651823
 30
0.0
 11
409.0487439374951
 21
213.8660834651823
 31
0.0
 12
-10.0
 22
-15.0
 32
0.0
 70
    32
  1
φ<>
  3
STANDARD
100
AcDbAlignedDimension
 13
484.0486439374951
 23
167.875837231484
 33
0.0
 14
334.0488439374952
 24
167.876437231484
 34
0.0
100
AcDbRotatedDimension
1001
ACAD
1000
DSTYLE
1002
{
1070
   140
1040
6.0
1070
    74
1070
     0
1070
   172
1070
     1
1070
    73
1070
     0
1070
   272
1070
     2
1070
    77
1070
     3
1070
   173
1070
     1
1070
   147
1040
2.0
1070
    42
1040
6.0
1070
    44
1040
3.0
1070
    43
1040
14.0
1070
   271
1070
     0
1070
   178
1070
     4
1070
   177
1070
     4
1070
   176
1070
     4
1070
   141
1040
150.0
1070
     7
1000
_OPEN
1070
     6
1000
_OPEN
1070
    41
1040
7.0
1002
}
  0
DIMENSION
  5
9B3
330
1A
100
AcDbEntity
  8
SUNPOU
  6
CONTINUOUS
100
AcDbDimension
  2
*D12
 10
309.0511440925056
 20
226.8581721548789
 30
0.0
 11
409.0496940150004
 21
231.8581721548789
 31
0.0
 12
-10.0
 22
-15.0
 32
0.0
 70
    32
  1
φ<>
  3
STANDARD
100
AcDbAlignedDimension
 13
509.0482439374953
 23
151.407637231484
 33
0.0
 14
309.0511440925056
 24
151.408837222483
 34
0.0
100
AcDbRotatedDimension
1001
ACAD
1000
DSTYLE
1002
{
1070
   140
1040
6.0
1070
    74
1070
     0
1070
   172
1070
     1
1070
    73
1070
     0
1070
   272
1070
     2
1070
    77
1070
     3
1070
   173
1070
     1
1070
   147
1040
2.0
1070
    42
1040
6.0
1070
    44
1040
3.0
1070
    43
1040
14.0
1070
   271
1070
     0
1070
   178
1070
     4
1070
   177
1070
     4
1070
   176
1070
     4
1070
   141
1040
150.0
1070
     7
1000
_OPEN
1070
     6
1000
_OPEN
1070
    41
1040
7.0
1002
}
  0
DIMENSION
  5
A68
330
1A
100
AcDbEntity
  8
SUNPOU
  6
CONTINUOUS
100
AcDbDimension
  2
*D13
 10
605.6248085406057
 20
290.3584098666458
 30
0.0
 11
686.1248086184749
 21
295.3584098666458
 31
0.0
 70
    32
  1
穴径 φ<>
  3
STANDARD
100
AcDbAlignedDimension
 13
766.6248086963442
 23
346.9523474857347
 33
0.0
 14
605.6248085406057
 24
346.8787807164543
 34
0.0
100
AcDbRotatedDimension
1001
ACAD
1000
DSTYLE
1002
{
1070
   140
1040
6.0
1070
    74
1070
     0
1070
   172
1070
     1
1070
    73
1070
     0
1070
   272
1070
     2
1070
    77
1070
     3
1070
   173
1070
     1
1070
   147
1040
2.0
1070
    42
1040
6.0
1070
    44
1040
3.0
1070
    43
1040
14.0
1070
   271
1070
     0
1070
   178
1070
     4
1070
   177
1070
     4
1070
   176
1070
     4
1070
   141
1040
150.0
1070
     7
1000
_OPEN
1070
     6
1000
_OPEN
1070
    41
1040
7.0
1002
}
  0
LINE
  5
A8A
330
1A
100
AcDbEntity
  8
NOKITOI
  6
CONTINUOUS
 62
     6
100
AcDbLine
 10
605.6246290448658
 20
354.116668165886
 30
0.0
 11
578.6246290448657
 21
354.116803165886
 31
0.0
  0
LINE
  5
A8B
330
1A
100
AcDbEntity
  8
NOKITOI
  6
CONTINUOUS
 62
     6
100
AcDbLine
 10
605.6246290448658
 20
351.6166681658547
 30
0.0
 11
578.6246290448657
 21
351.6168031658547
 31
0.0
  0
LINE
  5
A8C
330
1A
100
AcDbEntity
  8
NOKITOI
  6
CONTINUOUS
 62
     6
100
AcDbLine
 10
605.6246290448657
 20
354.116668165886
 30
0.0
 11
605.6246290448658
 21
351.6166681658547
 31
0.0
  0
LINE
  5
A8E
330
1A
100
AcDbEntity
  8
NOKITOI
  6
CONTINUOUS
 62
     6
100
AcDbLine
 10
766.6250080496198
 20
351.6163281195178
 30
0.0
 11
793.6250080499493
 21
351.6163490669776
 31
0.0
  0
LINE
  5
A8F
330
1A
100
AcDbEntity
  8
NOKITOI
  6
CONTINUOUS
 62
     6
100
AcDbLine
 10
766.6250186100402
 20
354.1163281195267
 30
0.0
 11
793.6250186103697
 21
354.1163490669865
 31
0.0
  0
LINE
  5
A90
330
1A
100
AcDbEntity
  8
NOKITOI
  6
CONTINUOUS
 62
     6
100
AcDbLine
 10
766.6250186100403
 20
354.1163281195267
 30
0.0
 11
766.6250080496198
 21
351.6163281195178
 31
0.0
  0
VIEWPORT
  5
22
330
17
100
AcDbEntity
 67
     1
  8
0
100
AcDbViewport
 10
313.6808219178082
 20
148.5
 30
0.0
 40
627.3616438356165
 41
297.0
 68
     2
 69
     1
1001
ACAD
1000
MVIEW
1002
{
1070
    16
1010
0.0
1020
0.0
1030
0.0
1010
0.0
1020
0.0
1030
1.0
1040
0.0
1040
297.0
1040
313.6808219178082
1040
148.5
1040
50.0
1040
0.0
1040
0.0
1070
     0
1070
   100
1070
     1
1070
     0
1070
     0
1070
     0
1070
     0
1070
     0
1040
0.0
1040
0.0
1040
0.0
1040
1.0
1040
1.0
1040
10.0
1040
10.0
1070
     0
1002
{
1002
}
1002
}
  0
VIEWPORT
  5
64
330
17
100
AcDbEntity
 67
     1
  8
VIEWPORT
100
AcDbViewport
 10
210.0
 20
148.5
 30
0.0
 40
420.0
 41
297.0
 68
     1
 69
     2
1001
ACAD
1000
MVIEW
1002
{
1070
    16
1010
0.0
1020
0.0
1030
0.0
1010
0.0
1020
0.0
1030
1.0
1040
0.0
1040
605.8799999999998
1040
420.0
1040
297.0
1040
50.0
1040
0.0
1040
0.0
1070
     0
1070
   100
1070
     1
1070
     0
1070
     0
1070
     0
1070
     0
1070
     0
1040
0.0
1040
0.0
1040
0.0
1040
10.0
1040
10.0
1040
0.0
1040
0.0
1070
     0
1002
{
1002
}
1002
}
  0
ENDSEC
  0
SECTION
  2
OBJECTS
  0
DICTIONARY
  5
C
330
0
100
AcDbDictionary
  3
ACAD_GROUP
350
D
  3
ACAD_LAYOUT
350
A9E
  3
ACAD_MLINESTYLE
350
E
  3
ACAD_PLOTSETTINGS
350
A9F
1001
ACAD
1000
TREAT_AS_HARD
1070
     0
  0
DICTIONARY
  5
AD0
330
1A
100
AcDbDictionary
  3
ACAD_LAYOUTSELFREF
350
B24
1001
ACAD
1000
TREAT_AS_HARD
1070
     1
  0
DICTIONARY
  5
ACE
330
17
100
AcDbDictionary
  3
ACAD_LAYOUTSELFREF
350
B23
1001
ACAD
1000
TREAT_AS_HARD
1070
     1
  0
DICTIONARY
  5
D
102
{ACAD_REACTORS
330
C
102
}
330
C
100
AcDbDictionary
1001
ACAD
1000
TREAT_AS_HARD
1070
     0
  0
DICTIONARY
  5
A9E
102
{ACAD_REACTORS
330
C
102
}
330
C
100
AcDbDictionary
1001
ACAD
1000
TREAT_AS_HARD
1070
     0
  0
DICTIONARY
  5
E
102
{ACAD_REACTORS
330
C
102
}
330
C
100
AcDbDictionary
  3
STANDARD
350
13
1001
ACAD
1000
TREAT_AS_HARD
1070
     0
  0
DICTIONARY
  5
A9F
102
{ACAD_REACTORS
330
C
102
}
330
C
100
AcDbDictionary
1001
ACAD
1000
TREAT_AS_HARD
1070
     0
  0
XRECORD
  5
B24
102
{ACAD_REACTORS
330
AD0
102
}
330
AD0
100
AcDbXrecord
340
1A
  0
XRECORD
  5
B23
102
{ACAD_REACTORS
330
ACE
102
}
330
ACE
100
AcDbXrecord
340
17
  0
MLINESTYLE
  5
13
102
{ACAD_REACTORS
330
E
102
}
330
E
100
AcDbMlineStyle
  2
STANDARD
 70
     0
  3

 62
     0
 51
90.0
 52
90.0
 71
     2
 49
0.5
 62
   256
  6
BYLAYER
 49
-0.5
 62
   256
  6
BYLAYER
  0
ENDSEC
  0
EOF
