  0
SECTION
  2
HEADER
  9
$ACADVER
  1
AC1012
  9
$DWGCODEPAGE
  3
dos932
  9
$INSBASE
 10
0.0
 20
0.0
 30
0.0
  9
$EXTMIN
 10
10.05047808566086
 20
4.949376903717846
 30
0.0
  9
$EXTMAX
 10
806.2246110975902
 20
563.7825862828226
 30
0.0
  9
$LIMMIN
 10
0.0
 20
0.0
  9
$LIMMAX
 10
840.0
 20
594.0
  9
$ORTHOMODE
 70
     0
  9
$REGENMODE
 70
     1
  9
$FILLMODE
 70
     1
  9
$QTEXTMODE
 70
     0
  9
$MIRRTEXT
 70
     1
  9
$DRAGMODE
 70
     2
  9
$LTSCALE
 40
2.0
  9
$OSMODE
 70
    37
  9
$ATTMODE
 70
     1
  9
$TEXTSIZE
 40
5.0
  9
$TRACEWID
 40
1.0
  9
$TEXTSTYLE
  7
STANDARD
  9
$CLAYER
  8
SUNPOU
  9
$CELTYPE
  6
BYLAYER
  9
$CECOLOR
 62
   256
  9
$CELTSCALE
 40
1.0
  9
$DELOBJ
 70
     1
  9
$DISPSILH
 70
     0
  9
$DIMSCALE
 40
1.0
  9
$DIMASZ
 40
7.0
  9
$DIMEXO
 40
6.0
  9
$DIMDLI
 40
14.0
  9
$DIMRND
 40
0.0
  9
$DIMDLE
 40
0.0
  9
$DIMEXE
 40
3.0
  9
$DIMTP
 40
0.0
  9
$DIMTM
 40
0.0
  9
$DIMTXT
 40
6.0
  9
$DIMCEN
 40
150.0
  9
$DIMTSZ
 40
0.0
  9
$DIMTOL
 70
     0
  9
$DIMLIM
 70
     0
  9
$DIMTIH
 70
     0
  9
$DIMTOH
 70
     0
  9
$DIMSE1
 70
     0
  9
$DIMSE2
 70
     0
  9
$DIMTAD
 70
     3
  9
$DIMZIN
 70
     0
  9
$DIMBLK
  1

  9
$DIMASO
 70
     1
  9
$DIMSHO
 70
     1
  9
$DIMPOST
  1

  9
$DIMAPOST
  1

  9
$DIMALT
 70
     0
  9
$DIMALTD
 70
     2
  9
$DIMALTF
 40
25.4
  9
$DIMLFAC
 40
1.0
  9
$DIMTOFL
 70
     1
  9
$DIMTVP
 40
0.0
  9
$DIMTIX
 70
     0
  9
$DIMSOXD
 70
     0
  9
$DIMSAH
 70
     1
  9
$DIMBLK1
  1
OPEN
  9
$DIMBLK2
  1
OPEN
  9
$DIMSTYLE
  2
STANDARD
  9
$DIMCLRD
 70
   256
  9
$DIMCLRE
 70
   256
  9
$DIMCLRT
 70
   256
  9
$DIMTFAC
 40
1.0
  9
$DIMGAP
 40
2.0
  9
$DIMJUST
 70
     0
  9
$DIMSD1
 70
     0
  9
$DIMSD2
 70
     0
  9
$DIMTOLJ
 70
     1
  9
$DIMTZIN
 70
     0
  9
$DIMALTZ
 70
     0
  9
$DIMALTTZ
 70
     0
  9
$DIMFIT
 70
     3
  9
$DIMUPT
 70
     0
  9
$DIMUNIT
 70
     2
  9
$DIMDEC
 70
     0
  9
$DIMTDEC
 70
     0
  9
$DIMALTU
 70
     2
  9
$DIMALTTD
 70
     2
  9
$DIMTXSTY
  7
STANDARD
  9
$DIMAUNIT
 70
     0
  9
$LUNITS
 70
     2
  9
$LUPREC
 70
     4
  9
$SKETCHINC
 40
1.0
  9
$FILLETRAD
 40
20.0
  9
$AUNITS
 70
     0
  9
$AUPREC
 70
     0
  9
$MENU
  1
.
  9
$ELEVATION
 40
0.0
  9
$PELEVATION
 40
0.0
  9
$THICKNESS
 40
0.0
  9
$LIMCHECK
 70
     0
  9
$BLIPMODE
 70
     0
  9
$CHAMFERA
 40
20.0
  9
$CHAMFERB
 40
20.0
  9
$CHAMFERC
 40
40.0
  9
$CHAMFERD
 40
0.0
  9
$SKPOLY
 70
     0
  9
$TDCREATE
 40
2451274.373897106
  9
$TDUPDATE
 40
2452393.716506122
  9
$TDINDWG
 40
0.0240581944
  9
$TDUSRTIMER
 40
0.0240581944
  9
$USRTIMER
 70
     1
  9
$ANGBASE
 50
0.0
  9
$ANGDIR
 70
     0
  9
$PDMODE
 70
     0
  9
$PDSIZE
 40
0.0
  9
$PLINEWID
 40
0.0
  9
$COORDS
 70
     1
  9
$SPLFRAME
 70
     0
  9
$SPLINETYPE
 70
     6
  9
$SPLINESEGS
 70
     8
  9
$ATTDIA
 70
     0
  9
$ATTREQ
 70
     1
  9
$HANDLING
 70
 10241
  9
$HANDSEED
  5
A6E
  9
$SURFTAB1
 70
     6
  9
$SURFTAB2
 70
     6
  9
$SURFTYPE
 70
     6
  9
$SURFU
 70
     6
  9
$SURFV
 70
     6
  9
$UCSNAME
  2

  9
$UCSORG
 10
0.0
 20
0.0
 30
0.0
  9
$UCSXDIR
 10
1.0
 20
0.0
 30
0.0
  9
$UCSYDIR
 10
0.0
 20
1.0
 30
0.0
  9
$PUCSNAME
  2

  9
$PUCSORG
 10
0.0
 20
0.0
 30
0.0
  9
$PUCSXDIR
 10
1.0
 20
0.0
 30
0.0
  9
$PUCSYDIR
 10
0.0
 20
1.0
 30
0.0
  9
$USERI1
 70
     0
  9
$USERI2
 70
     0
  9
$USERI3
 70
     0
  9
$USERI4
 70
     0
  9
$USERI5
 70
     0
  9
$USERR1
 40
0.0
  9
$USERR2
 40
0.0
  9
$USERR3
 40
0.0
  9
$USERR4
 40
0.0
  9
$USERR5
 40
0.0
  9
$WORLDVIEW
 70
     1
  9
$SHADEDGE
 70
     3
  9
$SHADEDIF
 70
    70
  9
$TILEMODE
 70
     1
  9
$MAXACTVP
 70
    16
  9
$PINSBASE
 10
0.0
 20
0.0
 30
0.0
  9
$PLIMCHECK
 70
     0
  9
$PEXTMIN
 10
0.0
 20
0.0
 30
0.0
  9
$PEXTMAX
 10
420.0
 20
297.0
 30
0.0
  9
$PLIMMIN
 10
0.0
 20
0.0
  9
$PLIMMAX
 10
420.0
 20
297.0
  9
$UNITMODE
 70
     0
  9
$VISRETAIN
 70
     0
  9
$PLINEGEN
 70
     0
  9
$PSLTSCALE
 70
     1
  9
$TREEDEPTH
 70
  3020
  9
$PICKSTYLE
 70
     1
  9
$CMLSTYLE
  2
STANDARD
  9
$CMLJUST
 70
     0
  9
$CMLSCALE
 40
1.0
  9
$SAVEIMAGES
 70
     1
  0
ENDSEC
  0
SECTION
  2
CLASSES
  0
CLASS
  1
ACDBDICTIONARYWDFLT
  2
AcDbDictionaryWithDefault
  3
AutoCAD 2000
 90
    32768
280
     0
281
     0
  0
CLASS
  1
ACDBPLACEHOLDER
  2
AcDbPlaceHolder
  3
AutoCAD 2000
 90
    32768
280
     0
281
     0
  0
CLASS
  1
LAYOUT
  2
AcDbLayout
  3
AutoCAD 2000
 90
    32768
280
     0
281
     0
  0
CLASS
  1
LONG_TRANSACTION
  2
AcDbLongTransaction
  3
AutoCAD 2000
 90
    32768
280
     0
281
     0
  0
CLASS
  1
LWPOLYLINE
  2
AcDbPolyline
  3
AutoCAD 2000
 90
    32768
280
     0
281
     1
  0
CLASS
  1
HATCH
  2
AcDbHatch
  3
AutoCAD 2000
 90
    32768
280
     0
281
     1
  0
CLASS
  1
XRECORD
  2
AcDbXrecord
  3
AutoCAD 2000
 90
    32768
280
     0
281
     0
  0
CLASS
  1
LONG_TRANSACTION
  2
AcDbLongTransaction
  3
AutoCAD 2000
 90
    32768
280
     0
281
     0
  0
CLASS
  1
LWPOLYLINE
  2
AcDbPolyline
  3
AutoCAD 2000
 90
    32768
280
     0
281
     1
  0
CLASS
  1
HATCH
  2
AcDbHatch
  3
AutoCAD 2000
 90
    32768
280
     0
281
     1
  0
CLASS
  1
XRECORD
  2
AcDbXrecord
  3
AutoCAD 2000
 90
    32768
280
     0
281
     0
  0
CLASS
  1
LONG_TRANSACTION
  2
AcDbLongTransaction
  3
AutoCAD 2000
 90
    32768
280
     0
281
     0
  0
CLASS
  1
LWPOLYLINE
  2
AcDbPolyline
  3
AutoCAD 2000
 90
    32768
280
     0
281
     1
  0
CLASS
  1
HATCH
  2
AcDbHatch
  3
AutoCAD 2000
 90
    32768
280
     0
281
     1
  0
CLASS
  1
XRECORD
  2
AcDbXrecord
  3
AutoCAD 2000
 90
    32768
280
     0
281
     0
  0
ENDSEC
  0
SECTION
  2
TABLES
  0
TABLE
  2
VPORT
  5
8
330
0
100
AcDbSymbolTable
 70
     2
  0
VPORT
  5
A6B
330
8
100
AcDbSymbolTableRecord
100
AcDbViewportTableRecord
  2
*ACTIVE
 70
     0
 10
0.0
 20
0.0
 11
1.0
 21
1.0
 12
539.3440905863624
 22
286.4289987306715
 13
0.0
 23
0.0
 14
5.0
 24
5.0
 15
0.0
 25
0.0
 16
0.0
 26
0.0
 36
1.0
 17
0.0
 27
0.0
 37
0.0
 40
584.5543780900247
 41
2.169459962756052
 42
50.0
 43
0.0
 44
0.0
 50
0.0
 51
0.0
 71
     0
 72
   100
 73
     1
 74
     0
 75
     0
 76
     0
 77
     0
 78
     0
  0
ENDTAB
  0
TABLE
  2
LTYPE
  5
5
330
0
100
AcDbSymbolTable
 70
     2
  0
LTYPE
  5
14
330
5
100
AcDbSymbolTableRecord
100
AcDbLinetypeTableRecord
  2
BYBLOCK
 70
     0
  3

 72
    65
 73
     0
 40
0.0
  0
LTYPE
  5
15
330
5
100
AcDbSymbolTableRecord
100
AcDbLinetypeTableRecord
  2
BYLAYER
 70
     0
  3

 72
    65
 73
     0
 40
0.0
  0
LTYPE
  5
16
330
5
100
AcDbSymbolTableRecord
100
AcDbLinetypeTableRecord
  2
CONTINUOUS
 70
     0
  3
Solid line
 72
    65
 73
     0
 40
0.0
  0
LTYPE
  5
135
330
5
100
AcDbSymbolTableRecord
100
AcDbLinetypeTableRecord
  2
CENTER
 70
     0
  3
____ _ ____ _ ____ _ ____ _ ____ _ ____ _ ____ 
 72
    65
 73
     4
 40
2.0
 49
1.25
 74
     0
 49
-0.25
 74
     0
 49
0.25
 74
     0
 49
-0.25
 74
     0
  0
ENDTAB
  0
TABLE
  2
LAYER
  5
2
330
0
100
AcDbSymbolTable
 70
     8
  0
LAYER
  5
F
330
2
100
AcDbSymbolTableRecord
100
AcDbLayerTableRecord
  2
0
 70
     0
 62
     7
  6
CONTINUOUS
  0
LAYER
  5
62
330
2
100
AcDbSymbolTableRecord
100
AcDbLayerTableRecord
  2
VIEWPORT
 70
     0
 62
     7
  6
CONTINUOUS
  0
LAYER
  5
65
330
2
100
AcDbSymbolTableRecord
100
AcDbLayerTableRecord
  2
ZUWAKU
 70
     0
 62
     7
  6
CONTINUOUS
  0
LAYER
  5
143
330
2
100
AcDbSymbolTableRecord
100
AcDbLayerTableRecord
  2
SEIHIN
 70
     0
 62
     3
  6
CONTINUOUS
  0
LAYER
  5
144
330
2
100
AcDbSymbolTableRecord
100
AcDbLayerTableRecord
  2
SUNPOU
 70
     0
 62
     4
  6
CONTINUOUS
  0
LAYER
  5
145
330
2
100
AcDbSymbolTableRecord
100
AcDbLayerTableRecord
  2
CENTER_L
 70
     0
 62
     1
  6
CENTER
  0
LAYER
  5
804
330
2
100
AcDbSymbolTableRecord
100
AcDbLayerTableRecord
  2
DEFPOINTS
 70
     0
 62
     7
  6
CONTINUOUS
  0
LAYER
  5
9E0
330
2
100
AcDbSymbolTableRecord
100
AcDbLayerTableRecord
  2
NOKITOI
 70
     0
 62
     6
  6
CONTINUOUS
  0
ENDTAB
  0
TABLE
  2
STYLE
  5
3
330
0
100
AcDbSymbolTable
 70
     1
  0
STYLE
  5
10
330
3
100
AcDbSymbolTableRecord
100
AcDbTextStyleTableRecord
  2
STANDARD
 70
     0
 40
0.0
 41
1.0
 50
0.0
 71
     0
 42
5.0
  3
TXT
  4
bigfont.shx
  0
ENDTAB
  0
TABLE
  2
VIEW
  5
6
330
0
100
AcDbSymbolTable
 70
     0
  0
ENDTAB
  0
TABLE
  2
UCS
  5
7
330
0
100
AcDbSymbolTable
 70
     0
  0
ENDTAB
  0
TABLE
  2
APPID
  5
9
330
0
100
AcDbSymbolTable
 70
     1
  0
APPID
  5
11
330
9
100
AcDbSymbolTableRecord
100
AcDbRegAppTableRecord
  2
ACAD
 70
     0
  0
ENDTAB
  0
TABLE
  2
DIMSTYLE
  5
A
330
0
100
AcDbSymbolTable
 70
     1
  0
DIMSTYLE
105
1D
102
{ACAD_REACTORS
330
809
330
816
330
823
330
895
330
8A3
330
8C8
330
8E2
330
8EF
330
8FC
330
96E
330
97D
330
98A
330
999
102
}
330
A
100
AcDbSymbolTableRecord
100
AcDbDimStyleTableRecord
  2
STANDARD
 70
     0
  3

  4

  5

  6

  7

 40
1.0
 41
0.18
 42
0.0625
 43
0.38
 44
0.18
 45
0.0
 46
0.0
 47
0.0
 48
0.0
140
0.18
141
0.09
142
0.0
143
25.4
144
1.0
145
0.0
146
1.0
147
0.09
 71
     0
 72
     0
 73
     1
 74
     1
 75
     0
 76
     0
 77
     0
 78
     0
170
     0
171
     2
172
     0
173
     0
174
     0
175
     0
176
     0
177
     0
178
     0
270
     2
271
     4
272
     4
273
     2
274
     2
340
10
275
     0
280
     0
281
     0
282
     0
283
     1
284
     0
285
     0
286
     0
287
     3
288
     0
  0
ENDTAB
  0
TABLE
  2
BLOCK_RECORD
  5
1
330
0
100
AcDbSymbolTable
 70
    14
  0
BLOCK_RECORD
  5
1A
102
{ACAD_XDICTIONARY
360
A29
102
}
330
1
100
AcDbSymbolTableRecord
100
AcDbBlockTableRecord
  2
*MODEL_SPACE
  0
BLOCK_RECORD
  5
17
102
{ACAD_XDICTIONARY
360
A27
102
}
330
1
100
AcDbSymbolTableRecord
100
AcDbBlockTableRecord
  2
*PAPER_SPACE
  0
BLOCK_RECORD
  5
6D
330
1
100
AcDbSymbolTableRecord
100
AcDbBlockTableRecord
  2
_OPEN
  0
BLOCK_RECORD
  5
7FC
330
1
100
AcDbSymbolTableRecord
100
AcDbBlockTableRecord
  2
*D1
  0
BLOCK_RECORD
  5
80A
330
1
100
AcDbSymbolTableRecord
100
AcDbBlockTableRecord
  2
*D2
  0
BLOCK_RECORD
  5
817
330
1
100
AcDbSymbolTableRecord
100
AcDbBlockTableRecord
  2
*D3
  0
BLOCK_RECORD
  5
887
330
1
100
AcDbSymbolTableRecord
100
AcDbBlockTableRecord
  2
*D4
  0
BLOCK_RECORD
  5
896
330
1
100
AcDbSymbolTableRecord
100
AcDbBlockTableRecord
  2
*D5
  0
BLOCK_RECORD
  5
8BC
330
1
100
AcDbSymbolTableRecord
100
AcDbBlockTableRecord
  2
*D6
  0
BLOCK_RECORD
  5
8D6
330
1
100
AcDbSymbolTableRecord
100
AcDbBlockTableRecord
  2
*D7
  0
BLOCK_RECORD
  5
8E3
330
1
100
AcDbSymbolTableRecord
100
AcDbBlockTableRecord
  2
*D8
  0
BLOCK_RECORD
  5
8F0
330
1
100
AcDbSymbolTableRecord
100
AcDbBlockTableRecord
  2
*D9
  0
BLOCK_RECORD
  5
960
330
1
100
AcDbSymbolTableRecord
100
AcDbBlockTableRecord
  2
*D10
  0
BLOCK_RECORD
  5
96F
330
1
100
AcDbSymbolTableRecord
100
AcDbBlockTableRecord
  2
*D11
  0
BLOCK_RECORD
  5
97E
330
1
100
AcDbSymbolTableRecord
100
AcDbBlockTableRecord
  2
*D12
  0
BLOCK_RECORD
  5
98D
330
1
100
AcDbSymbolTableRecord
100
AcDbBlockTableRecord
  2
*D13
  0
ENDTAB
  0
ENDSEC
  0
SECTION
  2
BLOCKS
  0
BLOCK
  5
1B
330
1A
100
AcDbEntity
  8
0
100
AcDbBlockBegin
  2
*MODEL_SPACE
 70
     0
 10
0.0
 20
0.0
 30
0.0
  3
*MODEL_SPACE
  1

  0
ENDBLK
  5
1C
330
1A
100
AcDbEntity
  8
0
100
AcDbBlockEnd
  0
BLOCK
  5
18
330
17
100
AcDbEntity
 67
     1
  8
0
100
AcDbBlockBegin
  2
*PAPER_SPACE
 70
     0
 10
0.0
 20
0.0
 30
0.0
  3
*PAPER_SPACE
  1

  0
ENDBLK
  5
19
330
17
100
AcDbEntity
 67
     1
  8
0
100
AcDbBlockEnd
  0
BLOCK
  5
6E
330
6D
100
AcDbEntity
  8
0
100
AcDbBlockBegin
  2
_OPEN
 70
     0
 10
0.0
 20
0.0
 30
0.0
  3
_OPEN
  1

  0
LINE
  5
6F
330
6D
100
AcDbEntity
  8
0
  6
BYBLOCK
 62
     0
100
AcDbLine
 10
-1.0
 20
0.1666666666666666
 30
0.0
 11
0.0
 21
0.0
 31
0.0
  0
LINE
  5
70
330
6D
100
AcDbEntity
  8
0
  6
BYBLOCK
 62
     0
100
AcDbLine
 10
0.0
 20
0.0
 30
0.0
 11
-1.0
 21
-0.1666666666666666
 31
0.0
  0
LINE
  5
71
330
6D
100
AcDbEntity
  8
0
  6
BYBLOCK
 62
     0
100
AcDbLine
 10
0.0
 20
0.0
 30
0.0
 11
-1.0
 21
0.0
 31
0.0
  0
ENDBLK
  5
72
330
6D
100
AcDbEntity
  8
0
100
AcDbBlockEnd
  0
BLOCK
  5
87C
330
7FC
100
AcDbEntity
  8
0
100
AcDbBlockBegin
  2
*D1
 70
     1
 10
0.0
 20
0.0
 30
0.0
  3
*D1
  1

  0
LINE
  5
87D
330
7FC
100
AcDbEntity
  8
0
  6
BYBLOCK
 62
     4
100
AcDbLine
 10
215.4233894647214
 20
210.8424147118586
 30
0.0
 11
215.4233894647214
 21
231.2792768929023
 31
0.0
  0
LINE
  5
87E
330
7FC
100
AcDbEntity
  8
0
  6
BYBLOCK
 62
     4
100
AcDbLine
 10
115.4233894647214
 20
210.8427147118586
 30
0.0
 11
115.4233894647214
 21
231.2792768929023
 31
0.0
  0
LINE
  5
87F
330
7FC
100
AcDbEntity
  8
0
  6
BYBLOCK
 62
     4
100
AcDbLine
 10
208.4233894647214
 20
228.2792768929023
 30
0.0
 11
122.4233894647214
 21
228.2792768929023
 31
0.0
  0
INSERT
  5
880
330
7FC
100
AcDbEntity
  8
0
  6
BYBLOCK
 62
     4
100
AcDbBlockReference
  2
_OPEN
 10
215.4233894647214
 20
228.2792768929023
 30
0.0
 41
7.0
 42
7.0
 43
7.0
  0
INSERT
  5
881
330
7FC
100
AcDbEntity
  8
0
  6
BYBLOCK
 62
     4
100
AcDbBlockReference
  2
_OPEN
 10
115.4233894647214
 20
228.2792768929023
 30
0.0
 41
7.0
 42
7.0
 43
7.0
 50
180.0
  0
MTEXT
  5
882
330
7FC
100
AcDbEntity
  8
0
  6
BYBLOCK
 62
     4
100
AcDbMText
 10
165.4233894647214
 20
233.2792768929023
 30
0.0
 40
6.0
 41
0.0
 71
     5
 72
     1
  1
\A1;φ100
1001
ACAD
1000
MTEXTBEGIN
1070
    73
1070
     1
1070
    44
1040
1.0
1070
    74
1070
     0
1000
MTEXTEND
1000
MTEXTBEGIN
1070
    73
1070
     1
1070
    44
1040
1.0
1070
    74
1070
     0
1000
MTEXTEND
1000
MTEXTBEGIN
1070
    73
1070
     1
1070
    44
1040
1.0
1070
    74
1070
     0
1000
MTEXTEND
  0
POINT
  5
883
330
7FC
100
AcDbEntity
  8
DEFPOINTS
  6
BYBLOCK
 62
     0
100
AcDbPoint
 10
215.4233894647214
 20
204.8424147118586
 30
0.0
  0
POINT
  5
884
330
7FC
100
AcDbEntity
  8
DEFPOINTS
  6
BYBLOCK
 62
     0
100
AcDbPoint
 10
115.4233894647214
 20
204.8427147118586
 30
0.0
  0
POINT
  5
885
330
7FC
100
AcDbEntity
  8
DEFPOINTS
  6
BYBLOCK
 62
     0
100
AcDbPoint
 10
115.4233894647214
 20
228.2792768929023
 30
0.0
  0
ENDBLK
  5
886
330
7FC
100
AcDbEntity
  8
0
100
AcDbBlockEnd
  0
BLOCK
  5
85B
330
80A
100
AcDbEntity
  8
0
100
AcDbBlockBegin
  2
*D2
 70
     1
 10
0.0
 20
0.0
 30
0.0
  3
*D2
  1

  0
LINE
  5
85C
330
80A
100
AcDbEntity
  8
0
  6
BYBLOCK
 62
     4
100
AcDbLine
 10
195.2731894647213
 20
156.3425147118586
 30
0.0
 11
195.2731894647213
 21
135.977809827732
 31
0.0
  0
LINE
  5
85D
330
80A
100
AcDbEntity
  8
0
  6
BYBLOCK
 62
     4
100
AcDbLine
 10
135.5731894647213
 20
156.3426147118586
 30
0.0
 11
135.5731894647213
 21
135.977809827732
 31
0.0
  0
LINE
  5
85E
330
80A
100
AcDbEntity
  8
0
  6
BYBLOCK
 62
     4
100
AcDbLine
 10
188.2731894647213
 20
138.977809827732
 30
0.0
 11
142.5731894647213
 21
138.977809827732
 31
0.0
  0
INSERT
  5
85F
330
80A
100
AcDbEntity
  8
0
  6
BYBLOCK
 62
     4
100
AcDbBlockReference
  2
_OPEN
 10
195.2731894647213
 20
138.977809827732
 30
0.0
 41
7.0
 42
7.0
 43
7.0
  0
INSERT
  5
860
330
80A
100
AcDbEntity
  8
0
  6
BYBLOCK
 62
     4
100
AcDbBlockReference
  2
_OPEN
 10
135.5731894647213
 20
138.977809827732
 30
0.0
 41
7.0
 42
7.0
 43
7.0
 50
180.0
  0
MTEXT
  5
861
330
80A
100
AcDbEntity
  8
0
  6
BYBLOCK
 62
     4
100
AcDbMText
 10
165.4231894647213
 20
143.977809827732
 30
0.0
 40
6.0
 41
0.0
 71
     5
 72
     1
  1
\A1;φ60
1001
ACAD
1000
MTEXTBEGIN
1070
    73
1070
     1
1070
    44
1040
1.0
1070
    74
1070
     0
1000
MTEXTEND
1000
MTEXTBEGIN
1070
    73
1070
     1
1070
    44
1040
1.0
1070
    74
1070
     0
1000
MTEXTEND
1000
MTEXTBEGIN
1070
    73
1070
     1
1070
    44
1040
1.0
1070
    74
1070
     0
1000
MTEXTEND
  0
POINT
  5
862
330
80A
100
AcDbEntity
  8
DEFPOINTS
  6
BYBLOCK
 62
     0
100
AcDbPoint
 10
195.2731894647213
 20
162.3425147118586
 30
0.0
  0
POINT
  5
863
330
80A
100
AcDbEntity
  8
DEFPOINTS
  6
BYBLOCK
 62
     0
100
AcDbPoint
 10
135.5731894647213
 20
162.3426147118586
 30
0.0
  0
POINT
  5
864
330
80A
100
AcDbEntity
  8
DEFPOINTS
  6
BYBLOCK
 62
     0
100
AcDbPoint
 10
135.5731894647213
 20
138.977809827732
 30
0.0
  0
ENDBLK
  5
865
330
80A
100
AcDbEntity
  8
0
100
AcDbBlockEnd
  0
BLOCK
  5
83A
330
817
100
AcDbEntity
  8
0
100
AcDbBlockBegin
  2
*D3
 70
     1
 10
0.0
 20
0.0
 30
0.0
  3
*D3
  1

  0
LINE
  5
83B
330
817
100
AcDbEntity
  8
0
  6
BYBLOCK
 62
     4
100
AcDbLine
 10
202.2732894647214
 20
176.3424147118586
 30
0.0
 11
202.2732894647214
 21
113.5580431178534
 31
0.0
  0
LINE
  5
83C
330
817
100
AcDbEntity
  8
0
  6
BYBLOCK
 62
     4
100
AcDbLine
 10
128.5732894647213
 20
176.3427147118586
 30
0.0
 11
128.5732894647213
 21
113.5580431178534
 31
0.0
  0
LINE
  5
83D
330
817
100
AcDbEntity
  8
0
  6
BYBLOCK
 62
     4
100
AcDbLine
 10
195.2732894647214
 20
116.5580431178534
 30
0.0
 11
135.5732894647213
 21
116.5580431178534
 31
0.0
  0
INSERT
  5
83E
330
817
100
AcDbEntity
  8
0
  6
BYBLOCK
 62
     4
100
AcDbBlockReference
  2
_OPEN
 10
202.2732894647214
 20
116.5580431178534
 30
0.0
 41
7.0
 42
7.0
 43
7.0
  0
INSERT
  5
83F
330
817
100
AcDbEntity
  8
0
  6
BYBLOCK
 62
     4
100
AcDbBlockReference
  2
_OPEN
 10
128.5732894647213
 20
116.5580431178534
 30
0.0
 41
7.0
 42
7.0
 43
7.0
 50
180.0
  0
MTEXT
  5
840
330
817
100
AcDbEntity
  8
0
  6
BYBLOCK
 62
     4
100
AcDbMText
 10
165.4232894647214
 20
121.5580431178534
 30
0.0
 40
6.0
 41
0.0
 71
     5
 72
     1
  1
\A1;φ74
1001
ACAD
1000
MTEXTBEGIN
1070
    73
1070
     1
1070
    44
1040
1.0
1070
    74
1070
     0
1000
MTEXTEND
1000
MTEXTBEGIN
1070
    73
1070
     1
1070
    44
1040
1.0
1070
    74
1070
     0
1000
MTEXTEND
1000
MTEXTBEGIN
1070
    73
1070
     1
1070
    44
1040
1.0
1070
    74
1070
     0
1000
MTEXTEND
  0
POINT
  5
841
330
817
100
AcDbEntity
  8
DEFPOINTS
  6
BYBLOCK
 62
     0
100
AcDbPoint
 10
202.2732894647214
 20
182.3424147118586
 30
0.0
  0
POINT
  5
842
330
817
100
AcDbEntity
  8
DEFPOINTS
  6
BYBLOCK
 62
     0
100
AcDbPoint
 10
128.5732894647213
 20
182.3427147118586
 30
0.0
  0
POINT
  5
843
330
817
100
AcDbEntity
  8
DEFPOINTS
  6
BYBLOCK
 62
     0
100
AcDbPoint
 10
128.5732894647213
 20
116.5580431178534
 30
0.0
  0
ENDBLK
  5
844
330
817
100
AcDbEntity
  8
0
100
AcDbBlockEnd
  0
BLOCK
  5
888
330
887
100
AcDbEntity
  8
0
100
AcDbBlockBegin
  2
*D4
 70
     1
 10
0.0
 20
0.0
 30
0.0
  3
*D4
  1

  0
LINE
  5
889
330
887
100
AcDbEntity
  8
0
  6
BYBLOCK
 62
     4
100
AcDbLine
 10
217.4233894647214
 20
202.3424147118586
 30
0.0
 11
241.1589638146349
 21
202.3424147118586
 31
0.0
  0
LINE
  5
88A
330
887
100
AcDbEntity
  8
0
  6
BYBLOCK
 62
     4
100
AcDbLine
 10
208.2732894647214
 20
182.3424147118586
 30
0.0
 11
241.1589638146349
 21
182.3424147118586
 31
0.0
  0
LINE
  5
88B
330
887
100
AcDbEntity
  8
0
  6
BYBLOCK
 62
     4
100
AcDbLine
 10
238.1589638146349
 20
209.3424147118586
 30
0.0
 11
238.1589638146349
 21
216.3424147118586
 31
0.0
  0
LINE
  5
88C
330
887
100
AcDbEntity
  8
0
  6
BYBLOCK
 62
     4
100
AcDbLine
 10
238.1589638146349
 20
175.3424147118586
 30
0.0
 11
238.1589638146349
 21
168.3424147118586
 31
0.0
  0
LINE
  5
88D
330
887
100
AcDbEntity
  8
0
  6
BYBLOCK
 62
     4
100
AcDbLine
 10
238.1589638146349
 20
202.3424147118586
 30
0.0
 11
238.1589638146349
 21
182.3424147118586
 31
0.0
  0
INSERT
  5
88E
330
887
100
AcDbEntity
  8
0
  6
BYBLOCK
 62
     4
100
AcDbBlockReference
  2
_OPEN
 10
238.1589638146349
 20
202.3424147118586
 30
0.0
 41
7.0
 42
7.0
 43
7.0
 50
270.0
  0
INSERT
  5
88F
330
887
100
AcDbEntity
  8
0
  6
BYBLOCK
 62
     4
100
AcDbBlockReference
  2
_OPEN
 10
238.1589638146349
 20
182.3424147118586
 30
0.0
 41
7.0
 42
7.0
 43
7.0
 50
90.0
  0
MTEXT
  5
890
330
887
100
AcDbEntity
  8
0
  6
BYBLOCK
 62
     4
100
AcDbMText
 10
233.1589638146349
 20
192.3424147118586
 30
0.0
 40
6.0
 41
0.0
 71
     5
 72
     1
  1
\A1;20
 11
0.0
 21
1.0
 31
0.0
1001
ACAD
1000
MTEXTBEGIN
1070
    73
1070
     1
1070
    44
1040
1.0
1070
    74
1070
     0
1000
MTEXTEND
1000
MTEXTBEGIN
1070
    73
1070
     1
1070
    44
1040
1.0
1070
    74
1070
     0
1000
MTEXTEND
1000
MTEXTBEGIN
1070
    73
1070
     1
1070
    44
1040
1.0
1070
    74
1070
     0
1000
MTEXTEND
  0
POINT
  5
891
330
887
100
AcDbEntity
  8
DEFPOINTS
  6
BYBLOCK
 62
     0
100
AcDbPoint
 10
211.4233894647214
 20
202.3424147118586
 30
0.0
  0
POINT
  5
892
330
887
100
AcDbEntity
  8
DEFPOINTS
  6
BYBLOCK
 62
     0
100
AcDbPoint
 10
202.2732894647214
 20
182.3424147118586
 30
0.0
  0
POINT
  5
893
330
887
100
AcDbEntity
  8
DEFPOINTS
  6
BYBLOCK
 62
     0
100
AcDbPoint
 10
238.1589638146349
 20
182.3424147118586
 30
0.0
  0
ENDBLK
  5
894
330
887
100
AcDbEntity
  8
0
100
AcDbBlockEnd
  0
BLOCK
  5
8B0
330
896
100
AcDbEntity
  8
0
100
AcDbBlockBegin
  2
*D5
 70
     1
 10
0.0
 20
0.0
 30
0.0
  3
*D5
  1

  0
LINE
  5
8B1
330
896
100
AcDbEntity
  8
0
  6
BYBLOCK
 62
     4
100
AcDbLine
 10
201.2731894647213
 20
162.3425147118586
 30
0.0
 11
241.1589638146349
 21
162.3425147118586
 31
0.0
  0
LINE
  5
8B2
330
896
100
AcDbEntity
  8
0
  6
BYBLOCK
 62
     4
100
AcDbLine
 10
238.1589638146349
 20
189.3424147118586
 30
0.0
 11
238.1589638146349
 21
196.3424147118586
 31
0.0
  0
LINE
  5
8B3
330
896
100
AcDbEntity
  8
0
  6
BYBLOCK
 62
     4
100
AcDbLine
 10
238.1589638146349
 20
155.3425147118586
 30
0.0
 11
238.1589638146349
 21
148.3425147118586
 31
0.0
  0
LINE
  5
8B4
330
896
100
AcDbEntity
  8
0
  6
BYBLOCK
 62
     4
100
AcDbLine
 10
238.1589638146349
 20
182.3424147118586
 30
0.0
 11
238.1589638146349
 21
162.3425147118586
 31
0.0
  0
INSERT
  5
8B5
330
896
100
AcDbEntity
  8
0
  6
BYBLOCK
 62
     4
100
AcDbBlockReference
  2
_OPEN
 10
238.1589638146349
 20
182.3424147118586
 30
0.0
 41
7.0
 42
7.0
 43
7.0
 50
270.0
  0
INSERT
  5
8B6
330
896
100
AcDbEntity
  8
0
  6
BYBLOCK
 62
     4
100
AcDbBlockReference
  2
_OPEN
 10
238.1589638146349
 20
162.3425147118586
 30
0.0
 41
7.0
 42
7.0
 43
7.0
 50
90.0
  0
MTEXT
  5
8B7
330
896
100
AcDbEntity
  8
0
  6
BYBLOCK
 62
     4
100
AcDbMText
 10
233.1589638146349
 20
172.3424647118586
 30
0.0
 40
6.0
 41
0.0
 71
     5
 72
     1
  1
\A1;20
 11
0.0
 21
1.0
 31
0.0
1001
ACAD
1000
MTEXTBEGIN
1070
    73
1070
     1
1070
    44
1040
1.0
1070
    74
1070
     0
1000
MTEXTEND
1000
MTEXTBEGIN
1070
    73
1070
     1
1070
    44
1040
1.0
1070
    74
1070
     0
1000
MTEXTEND
1000
MTEXTBEGIN
1070
    73
1070
     1
1070
    44
1040
1.0
1070
    74
1070
     0
1000
MTEXTEND
  0
POINT
  5
8B8
330
896
100
AcDbEntity
  8
DEFPOINTS
  6
BYBLOCK
 62
     0
100
AcDbPoint
 10
202.2732894647214
 20
182.3424147118586
 30
0.0
  0
POINT
  5
8B9
330
896
100
AcDbEntity
  8
DEFPOINTS
  6
BYBLOCK
 62
     0
100
AcDbPoint
 10
195.2731894647213
 20
162.3425147118586
 30
0.0
  0
POINT
  5
8BA
330
896
100
AcDbEntity
  8
DEFPOINTS
  6
BYBLOCK
 62
     0
100
AcDbPoint
 10
238.1589638146349
 20
162.3425147118586
 30
0.0
  0
ENDBLK
  5
8BB
330
896
100
AcDbEntity
  8
0
100
AcDbBlockEnd
  0
BLOCK
  5
8BD
330
8BC
100
AcDbEntity
  8
0
100
AcDbBlockBegin
  2
*D6
 70
     1
 10
0.0
 20
0.0
 30
0.0
  3
*D6
  1

  0
LINE
  5
8BE
330
8BC
100
AcDbEntity
  8
0
  6
BYBLOCK
 62
     4
100
AcDbLine
 10
221.4233894647214
 20
204.8424147118586
 30
0.0
 11
261.4869702847674
 21
204.8424147118586
 31
0.0
  0
LINE
  5
8BF
330
8BC
100
AcDbEntity
  8
0
  6
BYBLOCK
 62
     4
100
AcDbLine
 10
201.2731894647213
 20
162.3425147118586
 30
0.0
 11
261.4869702847674
 21
162.3425147118586
 31
0.0
  0
LINE
  5
8C0
330
8BC
100
AcDbEntity
  8
0
  6
BYBLOCK
 62
     4
100
AcDbLine
 10
258.4869702847675
 20
197.8424147118586
 30
0.0
 11
258.4869702847675
 21
169.3425147118586
 31
0.0
  0
INSERT
  5
8C1
330
8BC
100
AcDbEntity
  8
0
  6
BYBLOCK
 62
     4
100
AcDbBlockReference
  2
_OPEN
 10
258.4869702847675
 20
204.8424147118586
 30
0.0
 41
7.0
 42
7.0
 43
7.0
 50
90.0
  0
INSERT
  5
8C2
330
8BC
100
AcDbEntity
  8
0
  6
BYBLOCK
 62
     4
100
AcDbBlockReference
  2
_OPEN
 10
258.4869702847675
 20
162.3425147118586
 30
0.0
 41
7.0
 42
7.0
 43
7.0
 50
270.0
  0
MTEXT
  5
8C3
330
8BC
100
AcDbEntity
  8
0
  6
BYBLOCK
 62
     4
100
AcDbMText
 10
253.4869702847675
 20
183.5924647118586
 30
0.0
 40
6.0
 41
0.0
 71
     5
 72
     1
  1
\A1;42
 11
0.0
 21
1.0
 31
0.0
1001
ACAD
1000
MTEXTBEGIN
1070
    73
1070
     1
1070
    44
1040
1.0
1070
    74
1070
     0
1000
MTEXTEND
1000
MTEXTBEGIN
1070
    73
1070
     1
1070
    44
1040
1.0
1070
    74
1070
     0
1000
MTEXTEND
1000
MTEXTBEGIN
1070
    73
1070
     1
1070
    44
1040
1.0
1070
    74
1070
     0
1000
MTEXTEND
  0
POINT
  5
8C4
330
8BC
100
AcDbEntity
  8
DEFPOINTS
  6
BYBLOCK
 62
     0
100
AcDbPoint
 10
215.4233894647214
 20
204.8424147118586
 30
0.0
  0
POINT
  5
8C5
330
8BC
100
AcDbEntity
  8
DEFPOINTS
  6
BYBLOCK
 62
     0
100
AcDbPoint
 10
195.2731894647213
 20
162.3425147118586
 30
0.0
  0
POINT
  5
8C6
330
8BC
100
AcDbEntity
  8
DEFPOINTS
  6
BYBLOCK
 62
     0
100
AcDbPoint
 10
258.4869702847675
 20
162.3425147118586
 30
0.0
  0
ENDBLK
  5
8C7
330
8BC
100
AcDbEntity
  8
0
100
AcDbBlockEnd
  0
BLOCK
  5
955
330
8D6
100
AcDbEntity
  8
0
100
AcDbBlockBegin
  2
*D7
 70
     1
 10
0.0
 20
0.0
 30
0.0
  3
*D7
  1

  0
LINE
  5
956
330
8D6
100
AcDbEntity
  8
0
  6
BYBLOCK
 62
     4
100
AcDbLine
 10
427.3121339961023
 20
183.6423939966191
 30
0.0
 11
427.3121339961023
 21
153.6465576986022
 31
0.0
  0
LINE
  5
957
330
8D6
100
AcDbEntity
  8
0
  6
BYBLOCK
 62
     4
100
AcDbLine
 10
357.3118086529865
 20
183.6426206018682
 30
0.0
 11
357.3118086529865
 21
153.6465576986022
 31
0.0
  0
LINE
  5
958
330
8D6
100
AcDbEntity
  8
0
  6
BYBLOCK
 62
     4
100
AcDbLine
 10
420.3121339961023
 20
156.6465576986022
 30
0.0
 11
364.3118086529866
 21
156.6465576986022
 31
0.0
  0
INSERT
  5
959
330
8D6
100
AcDbEntity
  8
0
  6
BYBLOCK
 62
     4
100
AcDbBlockReference
  2
_OPEN
 10
427.3121339961023
 20
156.6465576986022
 30
0.0
 41
7.0
 42
7.0
 43
7.0
  0
INSERT
  5
95A
330
8D6
100
AcDbEntity
  8
0
  6
BYBLOCK
 62
     4
100
AcDbBlockReference
  2
_OPEN
 10
357.3118086529865
 20
156.6465576986022
 30
0.0
 41
7.0
 42
7.0
 43
7.0
 50
180.0
  0
MTEXT
  5
95B
330
8D6
100
AcDbEntity
  8
0
  6
BYBLOCK
 62
     4
100
AcDbMText
 10
392.3119713245444
 20
161.6465576986022
 30
0.0
 40
6.0
 41
0.0
 71
     5
 72
     1
  1
\A1;φ70
1001
ACAD
1000
MTEXTBEGIN
1070
    73
1070
     1
1070
    44
1040
1.0
1070
    74
1070
     0
1000
MTEXTEND
1000
MTEXTBEGIN
1070
    73
1070
     1
1070
    44
1040
1.0
1070
    74
1070
     0
1000
MTEXTEND
1000
MTEXTBEGIN
1070
    73
1070
     1
1070
    44
1040
1.0
1070
    74
1070
     0
1000
MTEXTEND
  0
POINT
  5
95C
330
8D6
100
AcDbEntity
  8
DEFPOINTS
  6
BYBLOCK
 62
     0
100
AcDbPoint
 10
427.3121339961023
 20
189.6423939966191
 30
0.0
  0
POINT
  5
95D
330
8D6
100
AcDbEntity
  8
DEFPOINTS
  6
BYBLOCK
 62
     0
100
AcDbPoint
 10
357.3118086529865
 20
189.6426206018682
 30
0.0
  0
POINT
  5
95E
330
8D6
100
AcDbEntity
  8
DEFPOINTS
  6
BYBLOCK
 62
     0
100
AcDbPoint
 10
357.3118086529865
 20
156.6465576986022
 30
0.0
  0
ENDBLK
  5
95F
330
8D6
100
AcDbEntity
  8
0
100
AcDbBlockEnd
  0
BLOCK
  5
934
330
8E3
100
AcDbEntity
  8
0
100
AcDbBlockBegin
  2
*D8
 70
     1
 10
0.0
 20
0.0
 30
0.0
  3
*D8
  1

  0
LINE
  5
935
330
8E3
100
AcDbEntity
  8
0
  6
BYBLOCK
 62
     4
100
AcDbLine
 10
423.0620625202401
 20
231.9681147118586
 30
0.0
 11
423.0620625202401
 21
264.173817583375
 31
0.0
  0
LINE
  5
936
330
8E3
100
AcDbEntity
  8
0
  6
BYBLOCK
 62
     4
100
AcDbLine
 10
361.56196252024
 20
231.9683147118586
 30
0.0
 11
361.56196252024
 21
264.173817583375
 31
0.0
  0
LINE
  5
937
330
8E3
100
AcDbEntity
  8
0
  6
BYBLOCK
 62
     4
100
AcDbLine
 10
416.06206252024
 20
261.173817583375
 30
0.0
 11
368.56196252024
 21
261.173817583375
 31
0.0
  0
INSERT
  5
938
330
8E3
100
AcDbEntity
  8
0
  6
BYBLOCK
 62
     4
100
AcDbBlockReference
  2
_OPEN
 10
423.0620625202401
 20
261.173817583375
 30
0.0
 41
7.0
 42
7.0
 43
7.0
  0
INSERT
  5
939
330
8E3
100
AcDbEntity
  8
0
  6
BYBLOCK
 62
     4
100
AcDbBlockReference
  2
_OPEN
 10
361.56196252024
 20
261.173817583375
 30
0.0
 41
7.0
 42
7.0
 43
7.0
 50
180.0
  0
MTEXT
  5
93A
330
8E3
100
AcDbEntity
  8
0
  6
BYBLOCK
 62
     4
100
AcDbMText
 10
392.31201252024
 20
266.173817583375
 30
0.0
 40
6.0
 41
0.0
 71
     5
 72
     1
  1
\A1;φ62
1001
ACAD
1000
MTEXTBEGIN
1070
    73
1070
     1
1070
    44
1040
1.0
1070
    74
1070
     0
1000
MTEXTEND
1000
MTEXTBEGIN
1070
    73
1070
     1
1070
    44
1040
1.0
1070
    74
1070
     0
1000
MTEXTEND
1000
MTEXTBEGIN
1070
    73
1070
     1
1070
    44
1040
1.0
1070
    74
1070
     0
1000
MTEXTEND
  0
POINT
  5
93B
330
8E3
100
AcDbEntity
  8
DEFPOINTS
  6
BYBLOCK
 62
     0
100
AcDbPoint
 10
423.0620625202401
 20
225.9681147118586
 30
0.0
  0
POINT
  5
93C
330
8E3
100
AcDbEntity
  8
DEFPOINTS
  6
BYBLOCK
 62
     0
100
AcDbPoint
 10
361.56196252024
 20
225.9683147118586
 30
0.0
  0
POINT
  5
93D
330
8E3
100
AcDbEntity
  8
DEFPOINTS
  6
BYBLOCK
 62
     0
100
AcDbPoint
 10
361.56196252024
 20
261.173817583375
 30
0.0
  0
ENDBLK
  5
93E
330
8E3
100
AcDbEntity
  8
0
100
AcDbBlockEnd
  0
BLOCK
  5
913
330
8F0
100
AcDbEntity
  8
0
100
AcDbBlockBegin
  2
*D9
 70
     1
 10
0.0
 20
0.0
 30
0.0
  3
*D9
  1

  0
LINE
  5
914
330
8F0
100
AcDbEntity
  8
0
  6
BYBLOCK
 62
     4
100
AcDbLine
 10
442.31206252024
 20
213.6424147118586
 30
0.0
 11
442.31206252024
 21
284.322824044804
 31
0.0
  0
LINE
  5
915
330
8F0
100
AcDbEntity
  8
0
  6
BYBLOCK
 62
     4
100
AcDbLine
 10
342.31196252024
 20
213.6427147118586
 30
0.0
 11
342.31196252024
 21
284.322824044804
 31
0.0
  0
LINE
  5
916
330
8F0
100
AcDbEntity
  8
0
  6
BYBLOCK
 62
     4
100
AcDbLine
 10
435.31206252024
 20
281.322824044804
 30
0.0
 11
349.31196252024
 21
281.322824044804
 31
0.0
  0
INSERT
  5
917
330
8F0
100
AcDbEntity
  8
0
  6
BYBLOCK
 62
     4
100
AcDbBlockReference
  2
_OPEN
 10
442.31206252024
 20
281.322824044804
 30
0.0
 41
7.0
 42
7.0
 43
7.0
  0
INSERT
  5
918
330
8F0
100
AcDbEntity
  8
0
  6
BYBLOCK
 62
     4
100
AcDbBlockReference
  2
_OPEN
 10
342.31196252024
 20
281.322824044804
 30
0.0
 41
7.0
 42
7.0
 43
7.0
 50
180.0
  0
MTEXT
  5
919
330
8F0
100
AcDbEntity
  8
0
  6
BYBLOCK
 62
     4
100
AcDbMText
 10
392.31201252024
 20
286.3228240448041
 30
0.0
 40
6.0
 41
0.0
 71
     5
 72
     1
  1
\A1;φ100
1001
ACAD
1000
MTEXTBEGIN
1070
    73
1070
     1
1070
    44
1040
1.0
1070
    74
1070
     0
1000
MTEXTEND
1000
MTEXTBEGIN
1070
    73
1070
     1
1070
    44
1040
1.0
1070
    74
1070
     0
1000
MTEXTEND
1000
MTEXTBEGIN
1070
    73
1070
     1
1070
    44
1040
1.0
1070
    74
1070
     0
1000
MTEXTEND
  0
POINT
  5
91A
330
8F0
100
AcDbEntity
  8
DEFPOINTS
  6
BYBLOCK
 62
     0
100
AcDbPoint
 10
442.31206252024
 20
207.6424147118586
 30
0.0
  0
POINT
  5
91B
330
8F0
100
AcDbEntity
  8
DEFPOINTS
  6
BYBLOCK
 62
     0
100
AcDbPoint
 10
342.31196252024
 20
207.6427147118586
 30
0.0
  0
POINT
  5
91C
330
8F0
100
AcDbEntity
  8
DEFPOINTS
  6
BYBLOCK
 62
     0
100
AcDbPoint
 10
342.31196252024
 20
281.322824044804
 30
0.0
  0
ENDBLK
  5
91D
330
8F0
100
AcDbEntity
  8
0
100
AcDbBlockEnd
  0
BLOCK
  5
961
330
960
100
AcDbEntity
  8
0
100
AcDbBlockBegin
  2
*D10
 70
     1
 10
0.0
 20
0.0
 30
0.0
  3
*D10
  1

  0
LINE
  5
962
330
960
100
AcDbEntity
  8
0
  6
BYBLOCK
 62
     4
100
AcDbLine
 10
448.3120625202401
 20
206.6424147118586
 30
0.0
 11
469.6755079840374
 21
206.6424147118586
 31
0.0
  0
LINE
  5
963
330
960
100
AcDbEntity
  8
0
  6
BYBLOCK
 62
     4
100
AcDbLine
 10
444.3120625202401
 20
208.6424147118586
 30
0.0
 11
469.6755079840374
 21
208.6424147118586
 31
0.0
  0
LINE
  5
964
330
960
100
AcDbEntity
  8
0
  6
BYBLOCK
 62
     4
100
AcDbLine
 10
466.6755079840375
 20
199.6424147118586
 30
0.0
 11
466.6755079840375
 21
192.6424147118586
 31
0.0
  0
LINE
  5
965
330
960
100
AcDbEntity
  8
0
  6
BYBLOCK
 62
     4
100
AcDbLine
 10
466.6755079840375
 20
215.6424147118586
 30
0.0
 11
466.6755079840375
 21
230.6424147118586
 31
0.0
  0
LINE
  5
966
330
960
100
AcDbEntity
  8
0
  6
BYBLOCK
 62
     4
100
AcDbLine
 10
466.6755079840375
 20
206.6424147118586
 30
0.0
 11
466.6755079840375
 21
208.6424147118586
 31
0.0
  0
INSERT
  5
967
330
960
100
AcDbEntity
  8
0
  6
BYBLOCK
 62
     4
100
AcDbBlockReference
  2
_OPEN
 10
466.6755079840375
 20
206.6424147118586
 30
0.0
 41
7.0
 42
7.0
 43
7.0
 50
90.0
  0
INSERT
  5
968
330
960
100
AcDbEntity
  8
0
  6
BYBLOCK
 62
     4
100
AcDbBlockReference
  2
_OPEN
 10
466.6755079840375
 20
208.6424147118586
 30
0.0
 41
7.0
 42
7.0
 43
7.0
 50
270.0
  0
MTEXT
  5
969
330
960
100
AcDbEntity
  8
0
  6
BYBLOCK
 62
     4
100
AcDbMText
 10
461.6755079840374
 20
226.6424147118586
 30
0.0
 40
6.0
 41
0.0
 71
     5
 72
     1
  1
\A1;2
 11
0.0
 21
1.0
 31
0.0
1001
ACAD
1000
MTEXTBEGIN
1070
    73
1070
     1
1070
    44
1040
1.0
1070
    74
1070
     0
1000
MTEXTEND
1000
MTEXTBEGIN
1070
    73
1070
     1
1070
    44
1040
1.0
1070
    74
1070
     0
1000
MTEXTEND
1000
MTEXTBEGIN
1070
    73
1070
     1
1070
    44
1040
1.0
1070
    74
1070
     0
1000
MTEXTEND
  0
POINT
  5
96A
330
960
100
AcDbEntity
  8
DEFPOINTS
  6
BYBLOCK
 62
     0
100
AcDbPoint
 10
442.31206252024
 20
206.6424147118586
 30
0.0
  0
POINT
  5
96B
330
960
100
AcDbEntity
  8
DEFPOINTS
  6
BYBLOCK
 62
     0
100
AcDbPoint
 10
438.31206252024
 20
208.6424147118586
 30
0.0
  0
POINT
  5
96C
330
960
100
AcDbEntity
  8
DEFPOINTS
  6
BYBLOCK
 62
     0
100
AcDbPoint
 10
466.6755079840375
 20
208.6424147118586
 30
0.0
  0
ENDBLK
  5
96D
330
960
100
AcDbEntity
  8
0
100
AcDbBlockEnd
  0
BLOCK
  5
970
330
96F
100
AcDbEntity
  8
0
100
AcDbBlockBegin
  2
*D11
 70
     1
 10
0.0
 20
0.0
 30
0.0
  3
*D11
  1

  0
LINE
  5
971
330
96F
100
AcDbEntity
  8
0
  6
BYBLOCK
 62
     4
100
AcDbLine
 10
448.3120625202401
 20
206.6424147118586
 30
0.0
 11
489.7840589435607
 21
206.6424147118586
 31
0.0
  0
LINE
  5
972
330
96F
100
AcDbEntity
  8
0
  6
BYBLOCK
 62
     4
100
AcDbLine
 10
431.3095145730157
 20
186.6424206012495
 30
0.0
 11
489.7840589435607
 21
186.6424206012495
 31
0.0
  0
LINE
  5
973
330
96F
100
AcDbEntity
  8
0
  6
BYBLOCK
 62
     4
100
AcDbLine
 10
486.7840589435607
 20
213.6424147118586
 30
0.0
 11
486.7840589435607
 21
220.6424147118586
 31
0.0
  0
LINE
  5
974
330
96F
100
AcDbEntity
  8
0
  6
BYBLOCK
 62
     4
100
AcDbLine
 10
486.7840589435607
 20
179.6424206012495
 30
0.0
 11
486.7840589435607
 21
172.6424206012495
 31
0.0
  0
LINE
  5
975
330
96F
100
AcDbEntity
  8
0
  6
BYBLOCK
 62
     4
100
AcDbLine
 10
486.7840589435607
 20
206.6424147118586
 30
0.0
 11
486.7840589435607
 21
186.6424206012495
 31
0.0
  0
INSERT
  5
976
330
96F
100
AcDbEntity
  8
0
  6
BYBLOCK
 62
     4
100
AcDbBlockReference
  2
_OPEN
 10
486.7840589435607
 20
206.6424147118586
 30
0.0
 41
7.0
 42
7.0
 43
7.0
 50
270.0
  0
INSERT
  5
977
330
96F
100
AcDbEntity
  8
0
  6
BYBLOCK
 62
     4
100
AcDbBlockReference
  2
_OPEN
 10
486.7840589435607
 20
186.6424206012495
 30
0.0
 41
7.0
 42
7.0
 43
7.0
 50
90.0
  0
MTEXT
  5
978
330
96F
100
AcDbEntity
  8
0
  6
BYBLOCK
 62
     4
100
AcDbMText
 10
481.7840589435607
 20
196.642417656554
 30
0.0
 40
6.0
 41
0.0
 71
     5
 72
     1
  1
\A1;20
 11
0.0
 21
1.0
 31
0.0
1001
ACAD
1000
MTEXTBEGIN
1070
    73
1070
     1
1070
    44
1040
1.0
1070
    74
1070
     0
1000
MTEXTEND
1000
MTEXTBEGIN
1070
    73
1070
     1
1070
    44
1040
1.0
1070
    74
1070
     0
1000
MTEXTEND
1000
MTEXTBEGIN
1070
    73
1070
     1
1070
    44
1040
1.0
1070
    74
1070
     0
1000
MTEXTEND
  0
POINT
  5
979
330
96F
100
AcDbEntity
  8
DEFPOINTS
  6
BYBLOCK
 62
     0
100
AcDbPoint
 10
442.31206252024
 20
206.6424147118586
 30
0.0
  0
POINT
  5
97A
330
96F
100
AcDbEntity
  8
DEFPOINTS
  6
BYBLOCK
 62
     0
100
AcDbPoint
 10
425.3095145730156
 20
186.6424206012495
 30
0.0
  0
POINT
  5
97B
330
96F
100
AcDbEntity
  8
DEFPOINTS
  6
BYBLOCK
 62
     0
100
AcDbPoint
 10
486.7840589435607
 20
186.6424206012495
 30
0.0
  0
ENDBLK
  5
97C
330
96F
100
AcDbEntity
  8
0
100
AcDbBlockEnd
  0
BLOCK
  5
97F
330
97E
100
AcDbEntity
  8
0
100
AcDbBlockBegin
  2
*D12
 70
     1
 10
0.0
 20
0.0
 30
0.0
  3
*D12
  1

  0
LINE
  5
980
330
97E
100
AcDbEntity
  8
0
  6
BYBLOCK
 62
     4
100
AcDbLine
 10
413.3121625202401
 20
238.55667458953
 30
0.0
 11
509.5160411677218
 21
238.55667458953
 31
0.0
  0
LINE
  5
981
330
97E
100
AcDbEntity
  8
0
  6
BYBLOCK
 62
     4
100
AcDbLine
 10
431.3095145730157
 20
186.6424206012495
 30
0.0
 11
509.5160411677218
 21
186.6424206012495
 31
0.0
  0
LINE
  5
982
330
97E
100
AcDbEntity
  8
0
  6
BYBLOCK
 62
     4
100
AcDbLine
 10
506.5160411677218
 20
231.55667458953
 30
0.0
 11
506.5160411677218
 21
193.6424206012495
 31
0.0
  0
INSERT
  5
983
330
97E
100
AcDbEntity
  8
0
  6
BYBLOCK
 62
     4
100
AcDbBlockReference
  2
_OPEN
 10
506.5160411677218
 20
238.55667458953
 30
0.0
 41
7.0
 42
7.0
 43
7.0
 50
90.0
  0
INSERT
  5
984
330
97E
100
AcDbEntity
  8
0
  6
BYBLOCK
 62
     4
100
AcDbBlockReference
  2
_OPEN
 10
506.5160411677218
 20
186.6424206012495
 30
0.0
 41
7.0
 42
7.0
 43
7.0
 50
270.0
  0
MTEXT
  5
985
330
97E
100
AcDbEntity
  8
0
  6
BYBLOCK
 62
     4
100
AcDbMText
 10
501.5160411677218
 20
212.5995475953897
 30
0.0
 40
6.0
 41
0.0
 71
     5
 72
     1
  1
\A1;52
 11
0.0
 21
1.0
 31
0.0
1001
ACAD
1000
MTEXTBEGIN
1070
    73
1070
     1
1070
    44
1040
1.0
1070
    74
1070
     0
1000
MTEXTEND
1000
MTEXTBEGIN
1070
    73
1070
     1
1070
    44
1040
1.0
1070
    74
1070
     0
1000
MTEXTEND
1000
MTEXTBEGIN
1070
    73
1070
     1
1070
    44
1040
1.0
1070
    74
1070
     0
1000
MTEXTEND
  0
POINT
  5
986
330
97E
100
AcDbEntity
  8
DEFPOINTS
  6
BYBLOCK
 62
     0
100
AcDbPoint
 10
407.31216252024
 20
238.55667458953
 30
0.0
  0
POINT
  5
987
330
97E
100
AcDbEntity
  8
DEFPOINTS
  6
BYBLOCK
 62
     0
100
AcDbPoint
 10
425.3095145730156
 20
186.6424206012495
 30
0.0
  0
POINT
  5
988
330
97E
100
AcDbEntity
  8
DEFPOINTS
  6
BYBLOCK
 62
     0
100
AcDbPoint
 10
506.5160411677218
 20
186.6424206012495
 30
0.0
  0
ENDBLK
  5
989
330
97E
100
AcDbEntity
  8
0
100
AcDbBlockEnd
  0
BLOCK
  5
9E5
330
98D
100
AcDbEntity
  8
0
100
AcDbBlockBegin
  2
*D13
 70
     1
 10
0.0
 20
0.0
 30
0.0
  3
*D13
  1

  0
LINE
  5
9E6
330
98D
100
AcDbEntity
  8
0
  6
BYBLOCK
 62
     4
100
AcDbLine
 10
611.4448860061334
 20
372.0842592687113
 30
0.0
 11
611.4448860061334
 21
330.4584105969547
 31
0.0
  0
LINE
  5
9E7
330
98D
100
AcDbEntity
  8
0
  6
BYBLOCK
 62
     4
100
AcDbLine
 10
682.4448844906277
 20
371.7344257245336
 30
0.0
 11
682.4448844906277
 21
330.4584105969547
 31
0.0
  0
LINE
  5
9E8
330
98D
100
AcDbEntity
  8
0
  6
BYBLOCK
 62
     4
100
AcDbLine
 10
618.4448860061333
 20
333.4584105969547
 30
0.0
 11
675.4448844906277
 21
333.4584105969547
 31
0.0
  0
INSERT
  5
9E9
330
98D
100
AcDbEntity
  8
0
  6
BYBLOCK
 62
     4
100
AcDbBlockReference
  2
_OPEN
 10
611.4448860061334
 20
333.4584105969547
 30
0.0
 41
7.0
 42
7.0
 43
7.0
 50
180.0
  0
INSERT
  5
9EA
330
98D
100
AcDbEntity
  8
0
  6
BYBLOCK
 62
     4
100
AcDbBlockReference
  2
_OPEN
 10
682.4448844906277
 20
333.4584105969547
 30
0.0
 41
7.0
 42
7.0
 43
7.0
  0
MTEXT
  5
9EB
330
98D
100
AcDbEntity
  8
0
  6
BYBLOCK
 62
     4
100
AcDbMText
 10
646.9448852483806
 20
338.4584105969547
 30
0.0
 40
6.0
 41
0.0
 71
     5
 72
     1
  1
\A1;穴径 φ71
1001
ACAD
1000
MTEXTBEGIN
1070
    73
1070
     1
1070
    44
1040
1.0
1070
    74
1070
     0
1000
MTEXTEND
1000
MTEXTBEGIN
1070
    73
1070
     1
1070
    44
1040
1.0
1070
    74
1070
     0
1000
MTEXTEND
1000
MTEXTBEGIN
1070
    73
1070
     1
1070
    44
1040
1.0
1070
    74
1070
     0
1000
MTEXTEND
  0
POINT
  5
9EC
330
98D
100
AcDbEntity
  8
DEFPOINTS
  6
BYBLOCK
 62
     0
100
AcDbPoint
 10
611.4448860061334
 20
378.0842592687113
 30
0.0
  0
POINT
  5
9ED
330
98D
100
AcDbEntity
  8
DEFPOINTS
  6
BYBLOCK
 62
     0
100
AcDbPoint
 10
682.4448844906277
 20
377.7344257245336
 30
0.0
  0
POINT
  5
9EE
330
98D
100
AcDbEntity
  8
DEFPOINTS
  6
BYBLOCK
 62
     0
100
AcDbPoint
 10
682.4448844906277
 20
333.4584105969547
 30
0.0
  0
ENDBLK
  5
9EF
330
98D
100
AcDbEntity
  8
0
100
AcDbBlockEnd
  0
ENDSEC
  0
SECTION
  2
ENTITIES
  0
TEXT
  5
11A
330
1A
100
AcDbEntity
  8
ZUWAKU
 62
     7
 48
10.0
100
AcDbText
 10
795.5579444309237
 20
4.974918402528146
 30
0.0
 40
8.0
  1
A1
100
AcDbText
  0
LINE
  5
11B
330
1A
100
AcDbEntity
  8
ZUWAKU
 62
     7
 48
10.0
100
AcDbLine
 10
10.05047808566086
 20
25.78258628282265
 30
0.0
 11
806.0504780856609
 21
25.78258628282253
 31
0.0
  0
LINE
  5
11C
330
1A
100
AcDbEntity
  8
ZUWAKU
  6
CONTINUOUS
 62
     7
100
AcDbLine
 10
806.0504780856609
 20
563.7825862828226
 30
0.0
 11
10.05047808566086
 21
563.7825862828226
 31
0.0
  0
LINE
  5
11D
330
1A
100
AcDbEntity
  8
ZUWAKU
  6
CONTINUOUS
 62
     7
100
AcDbLine
 10
806.0504780856609
 20
13.78258628282265
 30
0.0
 11
10.05047808566086
 21
13.78258628282265
 31
0.0
  0
LINE
  5
11E
330
1A
100
AcDbEntity
  8
ZUWAKU
  6
CONTINUOUS
 62
     7
100
AcDbLine
 10
10.05047808566086
 20
563.7825862828226
 30
0.0
 11
10.05047808566086
 21
13.78258628282265
 31
0.0
  0
LINE
  5
11F
330
1A
100
AcDbEntity
  8
ZUWAKU
 62
     7
 48
10.0
100
AcDbLine
 10
44.55797523147839
 20
13.78258628282265
 30
0.0
 11
44.5579752314784
 21
25.78258628282265
 31
0.0
  0
TEXT
  5
120
330
1A
100
AcDbEntity
  8
ZUWAKU
 62
     7
100
AcDbText
 10
16.05676551180931
 20
15.52294263804401
 30
0.0
 40
8.0
  1
品 種
100
AcDbText
  0
LINE
  5
121
330
1A
100
AcDbEntity
  8
ZUWAKU
 62
     7
 48
10.0
100
AcDbLine
 10
276.1028387068254
 20
13.78258628282265
 30
0.0
 11
276.1028387068254
 21
25.78258628282261
 31
0.0
  0
LINE
  5
122
330
1A
100
AcDbEntity
  8
ZUWAKU
 62
     7
 48
10.0
100
AcDbLine
 10
209.5138526425484
 20
13.78258628282265
 30
0.0
 11
209.5138526425485
 21
25.78258628282263
 31
0.0
  0
TEXT
  5
124
330
1A
100
AcDbEntity
  8
ZUWAKU
 62
     7
100
AcDbText
 10
215.4560837190756
 20
16.18358115302453
 30
0.0
 40
8.0
  1
品名・ｻ ｲ ｽﾞ
100
AcDbText
  0
LINE
  5
126
330
1A
100
AcDbEntity
  8
ZUWAKU
 62
     7
 48
10.0
100
AcDbLine
 10
768.7231079932794
 20
13.78258628282237
 30
0.0
 11
768.7231079932794
 21
25.78258628282254
 31
0.0
  0
LINE
  5
127
330
1A
100
AcDbEntity
  8
ZUWAKU
 62
     7
 48
10.0
100
AcDbLine
 10
733.8119002376948
 20
13.78258628282242
 30
0.0
 11
733.8119002376946
 21
25.78258628282254
 31
0.0
  0
TEXT
  5
128
330
1A
100
AcDbEntity
  8
ZUWAKU
 62
     7
100
AcDbText
 10
739.6955629973526
 20
15.24227755810852
 30
0.0
 40
8.0
  1
尺 度
100
AcDbText
  0
TEXT
  5
129
330
1A
100
AcDbEntity
  8
ZUWAKU
 62
     7
100
AcDbText
 10
779.7374630323229
 20
15.55488920081529
 30
0.0
 40
8.0
  1
1/2
100
AcDbText
  0
TEXT
  5
12B
330
1A
100
AcDbEntity
  8
ZUWAKU
 62
     7
100
AcDbText
 10
620.3363288383084
 20
15.6519090944263
 30
0.0
 40
8.0
  1
品 番
100
AcDbText
  0
LINE
  5
12C
330
1A
100
AcDbEntity
  8
ZUWAKU
 62
     7
 48
10.0
100
AcDbLine
 10
614.3351028194128
 20
13.78258628282232
 30
0.0
 11
614.3351028194128
 21
25.78258628282256
 31
0.0
  0
LINE
  5
12D
330
1A
100
AcDbEntity
  8
ZUWAKU
 62
     7
 48
10.0
100
AcDbLine
 10
648.7607587371021
 20
13.78258628282232
 30
0.0
 11
648.7607587371021
 21
25.78258628282255
 31
0.0
  0
TEXT
  5
12E
330
1A
100
AcDbEntity
  8
ZUWAKU
 62
     7
 48
10.0
100
AcDbText
 10
646.2758615931216
 20
4.949376903717848
 30
0.0
 40
8.0
  1
積水化学工業株式会社  建材
100
AcDbText
  0
LINE
  5
12F
330
1A
100
AcDbEntity
  8
ZUWAKU
  6
CONTINUOUS
 62
     7
100
AcDbLine
 10
806.0504780856609
 20
563.7825862828226
 30
0.0
 11
806.0504780856609
 21
13.78258628282265
 31
0.0
  0
LINE
  5
36B
330
1A
100
AcDbEntity
  8
SEIHIN
  6
CONTINUOUS
100
AcDbLine
 10
185.4231894647214
 20
182.3425147118586
 30
0.0
 11
155.5731894647214
 21
182.3426147118586
 31
0.0
  0
LINE
  5
36C
330
1A
100
AcDbEntity
  8
SEIHIN
  6
CONTINUOUS
100
AcDbLine
 10
185.4231894647214
 20
202.3425147118586
 30
0.0
 11
148.5732894647213
 21
202.3427147118586
 31
0.0
  0
LINE
  5
36D
330
1A
100
AcDbEntity
  8
SEIHIN
  6
CONTINUOUS
100
AcDbLine
 10
185.4232894647213
 20
222.3425147118586
 30
0.0
 11
139.4232894647213
 21
222.3427147118586
 31
0.0
  0
LINE
  5
36E
330
1A
100
AcDbEntity
  8
SEIHIN
  6
CONTINUOUS
100
AcDbLine
 10
185.4232894647213
 20
224.8425147118586
 30
0.0
 11
135.4233894647214
 21
224.8427147118586
 31
0.0
  0
LINE
  5
36F
330
1A
100
AcDbEntity
  8
SEIHIN
  6
CONTINUOUS
100
AcDbLine
 10
135.4232894647213
 20
223.3427147118586
 30
0.0
 11
185.4232894647213
 21
223.3425147118586
 31
0.0
  0
TEXT
  5
383
330
1A
100
AcDbEntity
  8
ZUWAKU
 62
     7
 48
5.0
100
AcDbText
 10
50.3519382305086
 20
16.10306189639755
 30
0.0
 40
8.0
  1
自在ドレン
100
AcDbText
  0
LINE
  5
385
330
1A
100
AcDbEntity
  8
SEIHIN
  6
CONTINUOUS
100
AcDbLine
 10
148.4732894647214
 20
222.3427147118586
 30
0.0
 11
148.5732894647213
 21
202.3427147118586
 31
0.0
  0
LINE
  5
38E
330
1A
100
AcDbEntity
  8
SEIHIN
  6
CONTINUOUS
100
AcDbLine
 10
155.5732894647213
 20
202.3427147118586
 30
0.0
 11
155.5731894647214
 21
182.3426147118586
 31
0.0
  0
LINE
  5
391
330
1A
100
AcDbEntity
  8
SEIHIN
  6
CONTINUOUS
100
AcDbLine
 10
135.4232894647213
 20
223.3427147118586
 30
0.0
 11
139.4232894647213
 21
222.3427147118586
 31
0.0
  0
LINE
  5
393
330
1A
100
AcDbEntity
  8
SEIHIN
  6
CONTINUOUS
100
AcDbLine
 10
135.4233894647214
 20
224.8427147118586
 30
0.0
 11
135.4232894647213
 21
223.3427147118586
 31
0.0
  0
TEXT
  5
3AD
330
1A
100
AcDbEntity
  8
ZUWAKU
 62
     7
 48
5.0
100
AcDbText
 10
282.3131429914078
 20
15.64241700452384
 30
0.0
 40
8.0
  1
ＵＴ７５－６０
100
AcDbText
  0
LINE
  5
3B1
330
1A
100
AcDbEntity
  8
SEIHIN
  6
CONTINUOUS
100
AcDbLine
 10
222.3733894647214
 20
222.3424147118586
 30
0.0
 11
222.2732894647214
 21
202.3424147118586
 31
0.0
  0
LINE
  5
3B2
330
1A
100
AcDbEntity
  8
CENTER_L
 48
5.0
100
AcDbLine
 10
185.4234076538986
 20
235.2518090390689
 30
0.0
 11
185.4231894647214
 21
176.0319147118586
 31
0.0
  0
LINE
  5
3C4
330
1A
100
AcDbEntity
  8
SEIHIN
  6
CONTINUOUS
100
AcDbLine
 10
185.4231894647214
 20
182.3425147118586
 30
0.0
 11
215.2731894647213
 21
182.3425147118586
 31
0.0
  0
LINE
  5
3C5
330
1A
100
AcDbEntity
  8
SEIHIN
  6
CONTINUOUS
100
AcDbLine
 10
185.4231894647214
 20
202.3425147118586
 30
0.0
 11
222.2732894647214
 21
202.3424147118586
 31
0.0
  0
LINE
  5
3C6
330
1A
100
AcDbEntity
  8
SEIHIN
  6
CONTINUOUS
100
AcDbLine
 10
215.2732894647214
 20
202.3425147118586
 30
0.0
 11
215.2731894647213
 21
182.3425147118586
 31
0.0
  0
LINE
  5
3DF
330
1A
100
AcDbEntity
  8
SEIHIN
  6
CONTINUOUS
100
AcDbLine
 10
185.4232894647213
 20
222.3425147118586
 30
0.0
 11
231.4233894647214
 21
222.3424147118586
 31
0.0
  0
LINE
  5
3E0
330
1A
100
AcDbEntity
  8
SEIHIN
  6
CONTINUOUS
100
AcDbLine
 10
185.4232894647213
 20
224.8425147118586
 30
0.0
 11
235.4233894647214
 21
224.8424147118586
 31
0.0
  0
LINE
  5
3E1
330
1A
100
AcDbEntity
  8
SEIHIN
  6
CONTINUOUS
100
AcDbLine
 10
235.4233894647214
 20
223.3424147118586
 30
0.0
 11
185.4233894647214
 21
223.3425147118586
 31
0.0
  0
LINE
  5
3FA
330
1A
100
AcDbEntity
  8
SEIHIN
  6
CONTINUOUS
100
AcDbLine
 10
235.4233894647214
 20
223.3424147118586
 30
0.0
 11
231.4233894647214
 21
222.3424147118586
 31
0.0
  0
LINE
  5
3FC
330
1A
100
AcDbEntity
  8
SEIHIN
  6
CONTINUOUS
100
AcDbLine
 10
235.4233894647214
 20
224.8424147118586
 30
0.0
 11
235.4233894647214
 21
223.3424147118586
 31
0.0
  0
ARC
  5
422
330
1A
100
AcDbEntity
  8
SEIHIN
  6
CONTINUOUS
100
AcDbCircle
 10
185.4236894647214
 20
382.3425147118586
 30
0.0
 40
50.0
100
AcDbArc
 50
0.0
 51
359.9998849999999
  0
LINE
  5
42A
330
1A
100
AcDbEntity
  8
CENTER_L
 48
5.0
100
AcDbLine
 10
124.7900894647214
 20
382.3427147118586
 30
0.0
 11
243.6722894647214
 21
382.3424147118586
 31
0.0
  0
LINE
  5
43D
330
1A
100
AcDbEntity
  8
CENTER_L
 48
5.0
100
AcDbLine
 10
185.4235894647214
 20
323.8600147118585
 30
0.0
 11
185.4238894647214
 21
439.3717147118586
 31
0.0
  0
LINE
  5
458
330
1A
100
AcDbEntity
  8
SEIHIN
  6
CONTINUOUS
100
AcDbLine
 10
647.534314011315
 20
243.4613788663795
 30
0.0
 11
621.5536140113149
 21
241.2344788663795
 31
0.0
  0
LINE
  5
459
330
1A
100
AcDbEntity
  8
SEIHIN
  6
CONTINUOUS
100
AcDbLine
 10
646.3272140113152
 20
240.9223788663795
 30
0.0
 11
620.346514011315
 21
238.6954788663795
 31
0.0
  0
LINE
  5
45A
330
1A
100
AcDbEntity
  8
SEIHIN
  6
CONTINUOUS
100
AcDbLine
 10
647.534314011315
 20
242.4613788663795
 30
0.0
 11
621.5536140113149
 21
240.2344788663795
 31
0.0
  0
LINE
  5
45B
330
1A
100
AcDbEntity
  8
SEIHIN
  6
CONTINUOUS
100
AcDbLine
 10
646.3272140113152
 20
240.4224788663795
 30
0.0
 11
620.346514011315
 21
238.1955788663795
 31
0.0
  0
LINE
  5
45C
330
1A
100
AcDbEntity
  8
SEIHIN
  6
CONTINUOUS
100
AcDbLine
 10
604.148214011315
 20
243.6643788663796
 30
0.0
 11
649.148214011315
 21
243.6641788663795
 31
0.0
  0
LINE
  5
45D
330
1A
100
AcDbEntity
  8
SEIHIN
  6
CONTINUOUS
100
AcDbLine
 10
649.148214011315
 20
244.1641788663795
 30
0.0
 11
599.148214011315
 21
244.1644788663795
 31
0.0
  0
LINE
  5
45E
330
1A
100
AcDbEntity
  8
SEIHIN
  6
CONTINUOUS
100
AcDbLine
 10
646.3272140113152
 20
224.4230788663795
 30
0.0
 11
637.4744140113151
 21
223.6642788663795
 31
0.0
  0
LINE
  5
45F
330
1A
100
AcDbEntity
  8
SEIHIN
  6
CONTINUOUS
100
AcDbLine
 10
647.534314011315
 20
230.4617788663795
 30
0.0
 11
621.5536140113149
 21
228.2349788663795
 31
0.0
  0
LINE
  5
460
330
1A
100
AcDbEntity
  8
SEIHIN
  6
CONTINUOUS
100
AcDbLine
 10
646.3272140113152
 20
228.4228788663795
 30
0.0
 11
620.346514011315
 21
226.1960788663795
 31
0.0
  0
LINE
  5
461
330
1A
100
AcDbEntity
  8
SEIHIN
  6
CONTINUOUS
100
AcDbLine
 10
646.3272140113152
 20
228.9227788663795
 30
0.0
 11
620.346514011315
 21
226.6959788663795
 31
0.0
  0
LINE
  5
462
330
1A
100
AcDbEntity
  8
SEIHIN
  6
CONTINUOUS
100
AcDbLine
 10
646.3272140113152
 20
224.9229788663796
 30
0.0
 11
631.642014011315
 21
223.6642788663795
 31
0.0
  0
LINE
  5
463
330
1A
100
AcDbEntity
  8
SEIHIN
  6
CONTINUOUS
100
AcDbLine
 10
647.534314011315
 20
226.4619788663795
 30
0.0
 11
621.5536140113149
 21
224.2350788663795
 31
0.0
  0
LINE
  5
464
330
1A
100
AcDbEntity
  8
SEIHIN
  6
CONTINUOUS
100
AcDbLine
 10
647.534314011315
 20
227.4619788663795
 30
0.0
 11
621.5536140113149
 21
225.2350788663795
 31
0.0
  0
LINE
  5
465
330
1A
100
AcDbEntity
  8
SEIHIN
  6
CONTINUOUS
100
AcDbLine
 10
646.3272140113152
 20
236.9224788663795
 30
0.0
 11
620.346514011315
 21
234.6956788663795
 31
0.0
  0
LINE
  5
466
330
1A
100
AcDbEntity
  8
SEIHIN
  6
CONTINUOUS
100
AcDbLine
 10
646.3272140113152
 20
236.4225788663795
 30
0.0
 11
620.346514011315
 21
234.1957788663795
 31
0.0
  0
LINE
  5
467
330
1A
100
AcDbEntity
  8
SEIHIN
  6
CONTINUOUS
100
AcDbLine
 10
646.3272140113152
 20
232.4227788663795
 30
0.0
 11
620.346514011315
 21
230.1958788663795
 31
0.0
  0
LINE
  5
468
330
1A
100
AcDbEntity
  8
SEIHIN
  6
CONTINUOUS
100
AcDbLine
 10
646.3272140113152
 20
232.9226788663795
 30
0.0
 11
620.346514011315
 21
230.6957788663795
 31
0.0
  0
LINE
  5
469
330
1A
100
AcDbEntity
  8
SEIHIN
  6
CONTINUOUS
100
AcDbLine
 10
647.534314011315
 20
234.4616788663795
 30
0.0
 11
621.5536140113149
 21
232.2347788663795
 31
0.0
  0
LINE
  5
46A
330
1A
100
AcDbEntity
  8
SEIHIN
  6
CONTINUOUS
100
AcDbLine
 10
647.534314011315
 20
235.4616788663795
 30
0.0
 11
621.5536140113149
 21
233.2347788663795
 31
0.0
  0
LINE
  5
46B
330
1A
100
AcDbEntity
  8
SEIHIN
  6
CONTINUOUS
100
AcDbLine
 10
647.534314011315
 20
231.4617788663795
 30
0.0
 11
621.5536140113149
 21
229.2349788663795
 31
0.0
  0
LINE
  5
46C
330
1A
100
AcDbEntity
  8
SEIHIN
  6
CONTINUOUS
100
AcDbLine
 10
649.1481140113151
 20
201.6641788663795
 30
0.0
 11
619.298114011315
 21
201.6643788663795
 31
0.0
  0
LINE
  5
46D
330
1A
100
AcDbEntity
  8
SEIHIN
  6
CONTINUOUS
100
AcDbLine
 10
614.148314011315
 20
223.6643788663795
 30
0.0
 11
649.148314011315
 21
223.6641788663795
 31
0.0
  0
LINE
  5
46E
330
1A
100
AcDbEntity
  8
SEIHIN
  6
CONTINUOUS
100
AcDbLine
 10
647.534314011315
 20
239.4614788663795
 30
0.0
 11
621.5536140113149
 21
237.2346788663795
 31
0.0
  0
LINE
  5
46F
330
1A
100
AcDbEntity
  8
SEIHIN
  6
CONTINUOUS
100
AcDbLine
 10
647.534314011315
 20
238.4614788663796
 30
0.0
 11
621.5536140113149
 21
236.2346788663795
 31
0.0
  0
TEXT
  5
471
330
1A
100
AcDbEntity
  8
ZUWAKU
 62
     7
 48
5.0
100
AcDbText
 10
654.2531733678779
 20
15.90287984531518
 30
0.0
 40
8.0
  1
ＧＣ６５
100
AcDbText
  0
LINE
  5
475
330
1A
100
AcDbEntity
  8
SEIHIN
  6
CONTINUOUS
100
AcDbLine
 10
619.2982140113151
 20
221.6643788663795
 30
0.0
 11
619.298114011315
 21
201.6643788663795
 31
0.0
  0
LINE
  5
476
330
1A
100
AcDbEntity
  8
SEIHIN
  6
CONTINUOUS
100
AcDbLine
 10
621.8983140113151
 20
223.6642788663795
 30
0.0
 11
621.148214011315
 21
201.6643788663795
 31
0.0
  0
LINE
  5
477
330
1A
100
AcDbEntity
  8
SEIHIN
  6
CONTINUOUS
100
AcDbLine
 10
619.2982140113151
 20
221.6643788663795
 30
0.0
 11
612.2982140113151
 21
221.6643788663795
 31
0.0
  0
LINE
  5
478
330
1A
100
AcDbEntity
  8
SEIHIN
  6
CONTINUOUS
100
AcDbLine
 10
612.198314011315
 20
241.6643788663796
 30
0.0
 11
612.2982140113151
 21
221.6643788663795
 31
0.0
  0
LINE
  5
479
330
1A
100
AcDbEntity
  8
SEIHIN
  6
CONTINUOUS
100
AcDbLine
 10
612.198314011315
 20
241.6643788663796
 30
0.0
 11
603.148214011315
 21
241.6644788663795
 31
0.0
  0
LINE
  5
47A
330
1A
100
AcDbEntity
  8
SEIHIN
  6
CONTINUOUS
100
AcDbLine
 10
599.148214011315
 20
244.1644788663795
 30
0.0
 11
599.148214011315
 21
242.6644788663795
 31
0.0
  0
LINE
  5
47B
330
1A
100
AcDbEntity
  8
SEIHIN
  6
CONTINUOUS
100
AcDbLine
 10
599.148214011315
 20
242.6644788663795
 30
0.0
 11
603.148214011315
 21
241.6644788663795
 31
0.0
  0
LINE
  5
47C
330
1A
100
AcDbEntity
  8
SEIHIN
  6
CONTINUOUS
100
AcDbLine
 10
604.148214011315
 20
243.6643788663796
 30
0.0
 11
604.148214011315
 21
244.1643788663796
 31
0.0
  0
LINE
  5
47D
330
1A
100
AcDbEntity
  8
SEIHIN
  6
CONTINUOUS
100
AcDbLine
 10
620.346514011315
 20
230.1958788663795
 30
0.0
 11
620.346514011315
 21
226.6959788663795
 31
0.0
  0
LINE
  5
47E
330
1A
100
AcDbEntity
  8
SEIHIN
  6
CONTINUOUS
100
AcDbLine
 10
621.5536140113149
 20
228.2349788663795
 30
0.0
 11
620.346514011315
 21
226.6959788663795
 31
0.0
  0
LINE
  5
47F
330
1A
100
AcDbEntity
  8
SEIHIN
  6
CONTINUOUS
100
AcDbLine
 10
614.148414011315
 20
223.6643788663795
 30
0.0
 11
614.1485140113149
 21
243.6646788663795
 31
0.0
  0
LINE
  5
480
330
1A
100
AcDbEntity
  8
SEIHIN
  6
CONTINUOUS
100
AcDbLine
 10
620.346514011315
 20
226.1960788663795
 30
0.0
 11
621.5536140113149
 21
225.2350788663795
 31
0.0
  0
LINE
  5
481
330
1A
100
AcDbEntity
  8
SEIHIN
  6
CONTINUOUS
100
AcDbLine
 10
620.346514011315
 20
226.1960788663795
 30
0.0
 11
620.346514011315
 21
223.6643788663795
 31
0.0
  0
LINE
  5
482
330
1A
100
AcDbEntity
  8
SEIHIN
  6
CONTINUOUS
100
AcDbLine
 10
621.5536140113149
 20
225.2350788663795
 30
0.0
 11
621.5536140113149
 21
224.2350788663795
 31
0.0
  0
LINE
  5
483
330
1A
100
AcDbEntity
  8
SEIHIN
  6
CONTINUOUS
100
AcDbLine
 10
621.5536140113149
 20
224.2350788663795
 30
0.0
 11
621.105914011315
 21
223.6642788663795
 31
0.0
  0
LINE
  5
484
330
1A
100
AcDbEntity
  8
SEIHIN
  6
CONTINUOUS
100
AcDbLine
 10
631.651014011315
 20
243.6642788663795
 30
0.0
 11
620.346514011315
 21
242.6953788663795
 31
0.0
  0
LINE
  5
485
330
1A
100
AcDbEntity
  8
SEIHIN
  6
CONTINUOUS
100
AcDbLine
 10
637.483514011315
 20
243.6642788663795
 30
0.0
 11
620.346514011315
 21
242.1953788663795
 31
0.0
  0
LINE
  5
486
330
1A
100
AcDbEntity
  8
SEIHIN
  6
CONTINUOUS
100
AcDbLine
 10
621.5536140113149
 20
236.2346788663795
 30
0.0
 11
620.346514011315
 21
234.6956788663795
 31
0.0
  0
LINE
  5
487
330
1A
100
AcDbEntity
  8
SEIHIN
  6
CONTINUOUS
100
AcDbLine
 10
620.346514011315
 20
234.1957788663795
 30
0.0
 11
621.5536140113149
 21
233.2347788663795
 31
0.0
  0
LINE
  5
488
330
1A
100
AcDbEntity
  8
SEIHIN
  6
CONTINUOUS
100
AcDbLine
 10
621.5536140113149
 20
232.2347788663795
 30
0.0
 11
620.346514011315
 21
230.6957788663795
 31
0.0
  0
LINE
  5
489
330
1A
100
AcDbEntity
  8
SEIHIN
  6
CONTINUOUS
100
AcDbLine
 10
620.346514011315
 20
230.1958788663795
 30
0.0
 11
621.5536140113149
 21
229.2349788663795
 31
0.0
  0
LINE
  5
48A
330
1A
100
AcDbEntity
  8
SEIHIN
  6
CONTINUOUS
100
AcDbLine
 10
620.346514011315
 20
238.1955788663795
 30
0.0
 11
621.5536140113149
 21
237.2346788663795
 31
0.0
  0
LINE
  5
48B
330
1A
100
AcDbEntity
  8
SEIHIN
  6
CONTINUOUS
100
AcDbLine
 10
620.346514011315
 20
234.1957788663795
 30
0.0
 11
620.346514011315
 21
230.6957788663795
 31
0.0
  0
LINE
  5
48C
330
1A
100
AcDbEntity
  8
SEIHIN
  6
CONTINUOUS
100
AcDbLine
 10
620.346514011315
 20
238.1955788663795
 30
0.0
 11
620.346514011315
 21
234.6956788663795
 31
0.0
  0
LINE
  5
48D
330
1A
100
AcDbEntity
  8
SEIHIN
  6
CONTINUOUS
100
AcDbLine
 10
621.5536140113149
 20
229.2349788663795
 30
0.0
 11
621.5536140113149
 21
228.2349788663795
 31
0.0
  0
LINE
  5
48E
330
1A
100
AcDbEntity
  8
SEIHIN
  6
CONTINUOUS
100
AcDbLine
 10
621.5536140113149
 20
237.2346788663795
 30
0.0
 11
621.5536140113149
 21
236.2346788663795
 31
0.0
  0
LINE
  5
48F
330
1A
100
AcDbEntity
  8
SEIHIN
  6
CONTINUOUS
100
AcDbLine
 10
621.5536140113149
 20
233.2347788663795
 30
0.0
 11
621.5536140113149
 21
232.2347788663795
 31
0.0
  0
LINE
  5
490
330
1A
100
AcDbEntity
  8
SEIHIN
  6
CONTINUOUS
100
AcDbLine
 10
621.5536140113149
 20
240.2344788663795
 30
0.0
 11
620.346514011315
 21
238.6954788663795
 31
0.0
  0
LINE
  5
491
330
1A
100
AcDbEntity
  8
SEIHIN
  6
CONTINUOUS
100
AcDbLine
 10
620.346514011315
 20
242.1953788663795
 30
0.0
 11
621.5536140113149
 21
241.2344788663795
 31
0.0
  0
LINE
  5
492
330
1A
100
AcDbEntity
  8
SEIHIN
  6
CONTINUOUS
100
AcDbLine
 10
621.106514011315
 20
243.6642788663795
 30
0.0
 11
620.346514011315
 21
242.6953788663795
 31
0.0
  0
LINE
  5
493
330
1A
100
AcDbEntity
  8
SEIHIN
  6
CONTINUOUS
100
AcDbLine
 10
620.346514011315
 20
242.1953788663795
 30
0.0
 11
620.346514011315
 21
238.6954788663795
 31
0.0
  0
LINE
  5
494
330
1A
100
AcDbEntity
  8
SEIHIN
  6
CONTINUOUS
100
AcDbLine
 10
620.346514011315
 20
243.6643788663796
 30
0.0
 11
620.346514011315
 21
242.6953788663795
 31
0.0
  0
LINE
  5
495
330
1A
100
AcDbEntity
  8
SEIHIN
  6
CONTINUOUS
100
AcDbLine
 10
621.5536140113149
 20
241.2344788663795
 30
0.0
 11
621.5536140113149
 21
240.2344788663795
 31
0.0
  0
LINE
  5
499
330
1A
100
AcDbEntity
  8
SEIHIN
  6
CONTINUOUS
100
AcDbLine
 10
678.9982140113149
 20
221.6641788663795
 30
0.0
 11
678.998114011315
 21
201.6641788663795
 31
0.0
  0
LINE
  5
49A
330
1A
100
AcDbEntity
  8
SEIHIN
  6
CONTINUOUS
100
AcDbLine
 10
676.398214011315
 20
223.6640788663795
 30
0.0
 11
677.148114011315
 21
201.6641788663795
 31
0.0
  0
LINE
  5
49B
330
1A
100
AcDbEntity
  8
CENTER_L
 48
5.0
100
AcDbLine
 10
649.148314011315
 20
251.5232788663795
 30
0.0
 11
649.1481140113151
 21
195.3536788663795
 31
0.0
  0
LINE
  5
4A0
330
1A
100
AcDbEntity
  8
SEIHIN
  6
CONTINUOUS
100
AcDbLine
 10
649.1481140113151
 20
201.6641788663795
 30
0.0
 11
678.998114011315
 21
201.6641788663795
 31
0.0
  0
LINE
  5
4A6
330
1A
100
AcDbEntity
  8
SEIHIN
  6
CONTINUOUS
100
AcDbLine
 10
649.148314011315
 20
244.1641788663795
 30
0.0
 11
699.148314011315
 21
244.1640788663795
 31
0.0
  0
LINE
  5
4A7
330
1A
100
AcDbEntity
  8
SEIHIN
  6
CONTINUOUS
100
AcDbLine
 10
694.148314011315
 20
243.6640788663795
 30
0.0
 11
649.148314011315
 21
243.6641788663795
 31
0.0
  0
LINE
  5
4A8
330
1A
100
AcDbEntity
  8
SEIHIN
  6
CONTINUOUS
100
AcDbLine
 10
684.1481140113151
 20
223.6640788663795
 30
0.0
 11
649.148214011315
 21
223.6641788663795
 31
0.0
  0
LINE
  5
4A9
330
1A
100
AcDbEntity
  8
SEIHIN
  6
CONTINUOUS
100
AcDbLine
 10
647.534314011315
 20
227.4619788663795
 30
0.0
 11
647.534314011315
 21
226.4619788663795
 31
0.0
  0
LINE
  5
4AA
330
1A
100
AcDbEntity
  8
SEIHIN
  6
CONTINUOUS
100
AcDbLine
 10
646.327114011315
 20
224.4230788663795
 30
0.0
 11
647.2804140113151
 21
223.6641788663795
 31
0.0
  0
LINE
  5
4AB
330
1A
100
AcDbEntity
  8
SEIHIN
  6
CONTINUOUS
100
AcDbLine
 10
647.534314011315
 20
226.4619788663795
 30
0.0
 11
646.327114011315
 21
224.9229788663796
 31
0.0
  0
LINE
  5
4AC
330
1A
100
AcDbEntity
  8
SEIHIN
  6
CONTINUOUS
100
AcDbLine
 10
647.534314011315
 20
239.4614788663795
 30
0.0
 11
647.534314011315
 21
238.4614788663796
 31
0.0
  0
LINE
  5
4AD
330
1A
100
AcDbEntity
  8
SEIHIN
  6
CONTINUOUS
100
AcDbLine
 10
647.534314011315
 20
230.4617788663795
 30
0.0
 11
646.327114011315
 21
228.9227788663795
 31
0.0
  0
LINE
  5
4AE
330
1A
100
AcDbEntity
  8
SEIHIN
  6
CONTINUOUS
100
AcDbLine
 10
646.327114011315
 20
228.4228788663795
 30
0.0
 11
647.534314011315
 21
227.4619788663795
 31
0.0
  0
LINE
  5
4AF
330
1A
100
AcDbEntity
  8
SEIHIN
  6
CONTINUOUS
100
AcDbLine
 10
646.3272140113152
 20
232.4227788663795
 30
0.0
 11
647.534314011315
 21
231.4617788663795
 31
0.0
  0
LINE
  5
4B0
330
1A
100
AcDbEntity
  8
SEIHIN
  6
CONTINUOUS
100
AcDbLine
 10
647.534314011315
 20
234.4616788663795
 30
0.0
 11
646.3272140113152
 21
232.9226788663795
 31
0.0
  0
LINE
  5
4B1
330
1A
100
AcDbEntity
  8
SEIHIN
  6
CONTINUOUS
100
AcDbLine
 10
647.534314011315
 20
235.4616788663795
 30
0.0
 11
647.534314011315
 21
234.4616788663795
 31
0.0
  0
LINE
  5
4B2
330
1A
100
AcDbEntity
  8
SEIHIN
  6
CONTINUOUS
100
AcDbLine
 10
646.3272140113152
 20
236.4225788663795
 30
0.0
 11
647.534314011315
 21
235.4616788663795
 31
0.0
  0
LINE
  5
4B3
330
1A
100
AcDbEntity
  8
SEIHIN
  6
CONTINUOUS
100
AcDbLine
 10
647.534314011315
 20
231.4617788663795
 30
0.0
 11
647.534314011315
 21
230.4617788663795
 31
0.0
  0
LINE
  5
4B4
330
1A
100
AcDbEntity
  8
SEIHIN
  6
CONTINUOUS
100
AcDbLine
 10
647.534314011315
 20
238.4614788663796
 30
0.0
 11
646.3272140113152
 21
236.9224788663795
 31
0.0
  0
LINE
  5
4B5
330
1A
100
AcDbEntity
  8
SEIHIN
  6
CONTINUOUS
100
AcDbLine
 10
646.3272140113152
 20
240.4224788663795
 30
0.0
 11
647.534314011315
 21
239.4614788663795
 31
0.0
  0
LINE
  5
4B6
330
1A
100
AcDbEntity
  8
SEIHIN
  6
CONTINUOUS
100
AcDbLine
 10
647.279514011315
 20
243.6641788663795
 30
0.0
 11
647.534414011315
 21
243.4613788663795
 31
0.0
  0
LINE
  5
4B7
330
1A
100
AcDbEntity
  8
SEIHIN
  6
CONTINUOUS
100
AcDbLine
 10
647.534414011315
 20
243.4613788663795
 30
0.0
 11
647.534414011315
 21
242.4613788663795
 31
0.0
  0
LINE
  5
4B8
330
1A
100
AcDbEntity
  8
SEIHIN
  6
CONTINUOUS
100
AcDbLine
 10
647.534414011315
 20
242.4613788663795
 30
0.0
 11
646.3272140113152
 21
240.9223788663795
 31
0.0
  0
LINE
  5
4B9
330
1A
100
AcDbEntity
  8
SEIHIN
  6
CONTINUOUS
100
AcDbLine
 10
686.0983140113151
 20
241.6640788663795
 30
0.0
 11
685.9982140113149
 21
221.6640788663795
 31
0.0
  0
LINE
  5
4BA
330
1A
100
AcDbEntity
  8
SEIHIN
  6
CONTINUOUS
100
AcDbLine
 10
680.7710140113151
 20
227.3752788663795
 30
0.0
 11
678.356814011315
 21
226.1039788663795
 31
0.0
  0
LINE
  5
4BB
330
1A
100
AcDbEntity
  8
SEIHIN
  6
CONTINUOUS
100
AcDbLine
 10
684.1481140113151
 20
227.6646788663795
 30
0.0
 11
681.9831140113151
 21
226.4147788663795
 31
0.0
  0
LINE
  5
4BC
330
1A
100
AcDbEntity
  8
SEIHIN
  6
CONTINUOUS
100
AcDbLine
 10
684.1481140113151
 20
224.1647788663795
 30
0.0
 11
684.1481140113151
 21
223.6648788663795
 31
0.0
  0
LINE
  5
4BD
330
1A
100
AcDbEntity
  8
SEIHIN
  6
CONTINUOUS
100
AcDbLine
 10
681.9831140113151
 20
226.4147788663795
 30
0.0
 11
678.356814011315
 21
226.1039788663795
 31
0.0
  0
LINE
  5
4BE
330
1A
100
AcDbEntity
  8
SEIHIN
  6
CONTINUOUS
100
AcDbLine
 10
678.356814011315
 20
225.1039788663795
 30
0.0
 11
680.7710140113151
 21
223.8753788663795
 31
0.0
  0
LINE
  5
4BF
330
1A
100
AcDbEntity
  8
SEIHIN
  6
CONTINUOUS
100
AcDbLine
 10
681.9831140113151
 20
225.4147788663795
 30
0.0
 11
678.356814011315
 21
225.1039788663795
 31
0.0
  0
LINE
  5
4C0
330
1A
100
AcDbEntity
  8
SEIHIN
  6
CONTINUOUS
100
AcDbLine
 10
681.9831140113151
 20
226.4147788663795
 30
0.0
 11
681.9831140113151
 21
225.4147788663795
 31
0.0
  0
LINE
  5
4C1
330
1A
100
AcDbEntity
  8
SEIHIN
  6
CONTINUOUS
100
AcDbLine
 10
678.356814011315
 20
226.1039788663795
 30
0.0
 11
678.356814011315
 21
225.1039788663795
 31
0.0
  0
LINE
  5
4C2
330
1A
100
AcDbEntity
  8
SEIHIN
  6
CONTINUOUS
100
AcDbLine
 10
678.9982140113149
 20
221.6640788663795
 30
0.0
 11
685.9982140113149
 21
221.6640788663795
 31
0.0
  0
LINE
  5
4C3
330
1A
100
AcDbEntity
  8
SEIHIN
  6
CONTINUOUS
100
AcDbLine
 10
684.1481140113151
 20
224.1647788663795
 30
0.0
 11
680.7710140113151
 21
223.8753788663795
 31
0.0
  0
LINE
  5
4C4
330
1A
100
AcDbEntity
  8
SEIHIN
  6
CONTINUOUS
100
AcDbLine
 10
681.9831140113151
 20
225.4147788663795
 30
0.0
 11
684.1481140113151
 21
224.1647788663795
 31
0.0
  0
LINE
  5
4C5
330
1A
100
AcDbEntity
  8
SEIHIN
  6
CONTINUOUS
100
AcDbLine
 10
686.0983140113151
 20
241.6640788663795
 30
0.0
 11
695.148314011315
 21
241.6640788663795
 31
0.0
  0
LINE
  5
4C6
330
1A
100
AcDbEntity
  8
SEIHIN
  6
CONTINUOUS
100
AcDbLine
 10
680.7710140113151
 20
239.3747788663795
 30
0.0
 11
678.356814011315
 21
238.1034788663795
 31
0.0
  0
LINE
  5
4C7
330
1A
100
AcDbEntity
  8
SEIHIN
  6
CONTINUOUS
100
AcDbLine
 10
684.1481140113151
 20
239.6642788663795
 30
0.0
 11
681.9831140113151
 21
238.4142788663795
 31
0.0
  0
LINE
  5
4C8
330
1A
100
AcDbEntity
  8
SEIHIN
  6
CONTINUOUS
100
AcDbLine
 10
684.1481140113151
 20
228.1646788663795
 30
0.0
 11
684.1481140113151
 21
227.6646788663795
 31
0.0
  0
LINE
  5
4C9
330
1A
100
AcDbEntity
  8
SEIHIN
  6
CONTINUOUS
100
AcDbLine
 10
684.1481140113151
 20
232.1644788663795
 30
0.0
 11
684.1481140113151
 21
231.6645788663795
 31
0.0
  0
LINE
  5
4CA
330
1A
100
AcDbEntity
  8
SEIHIN
  6
CONTINUOUS
100
AcDbLine
 10
684.1481140113151
 20
236.1643788663795
 30
0.0
 11
684.1481140113151
 21
235.6643788663796
 31
0.0
  0
LINE
  5
4CB
330
1A
100
AcDbEntity
  8
SEIHIN
  6
CONTINUOUS
100
AcDbLine
 10
681.9831140113151
 20
238.4142788663795
 30
0.0
 11
678.356814011315
 21
238.1034788663795
 31
0.0
  0
LINE
  5
4CC
330
1A
100
AcDbEntity
  8
SEIHIN
  6
CONTINUOUS
100
AcDbLine
 10
678.356814011315
 20
229.1037788663795
 30
0.0
 11
680.7710140113151
 21
227.8751788663795
 31
0.0
  0
LINE
  5
4CD
330
1A
100
AcDbEntity
  8
SEIHIN
  6
CONTINUOUS
100
AcDbLine
 10
681.9831140113151
 20
237.4142788663795
 30
0.0
 11
678.356814011315
 21
237.1034788663795
 31
0.0
  0
LINE
  5
4CE
330
1A
100
AcDbEntity
  8
SEIHIN
  6
CONTINUOUS
100
AcDbLine
 10
678.356814011315
 20
237.1034788663795
 30
0.0
 11
680.7710140113151
 21
235.8748788663795
 31
0.0
  0
LINE
  5
4CF
330
1A
100
AcDbEntity
  8
SEIHIN
  6
CONTINUOUS
100
AcDbLine
 10
678.356814011315
 20
233.1036788663796
 30
0.0
 11
680.7710140113151
 21
231.8750788663795
 31
0.0
  0
LINE
  5
4D0
330
1A
100
AcDbEntity
  8
SEIHIN
  6
CONTINUOUS
100
AcDbLine
 10
681.9831140113151
 20
233.4144788663795
 30
0.0
 11
678.356814011315
 21
233.1036788663796
 31
0.0
  0
LINE
  5
4D1
330
1A
100
AcDbEntity
  8
SEIHIN
  6
CONTINUOUS
100
AcDbLine
 10
681.9831140113151
 20
234.4144788663795
 30
0.0
 11
681.9831140113151
 21
233.4144788663795
 31
0.0
  0
LINE
  5
4D2
330
1A
100
AcDbEntity
  8
SEIHIN
  6
CONTINUOUS
100
AcDbLine
 10
681.9831140113151
 20
234.4144788663795
 30
0.0
 11
678.356814011315
 21
234.1035788663795
 31
0.0
  0
LINE
  5
4D3
330
1A
100
AcDbEntity
  8
SEIHIN
  6
CONTINUOUS
100
AcDbLine
 10
678.356814011315
 20
234.1035788663795
 30
0.0
 11
678.356814011315
 21
233.1036788663796
 31
0.0
  0
LINE
  5
4D4
330
1A
100
AcDbEntity
  8
SEIHIN
  6
CONTINUOUS
100
AcDbLine
 10
680.7710140113151
 20
235.3749788663796
 30
0.0
 11
678.356814011315
 21
234.1035788663795
 31
0.0
  0
LINE
  5
4D5
330
1A
100
AcDbEntity
  8
SEIHIN
  6
CONTINUOUS
100
AcDbLine
 10
681.9831140113151
 20
229.4146788663795
 30
0.0
 11
678.356814011315
 21
229.1037788663795
 31
0.0
  0
LINE
  5
4D6
330
1A
100
AcDbEntity
  8
SEIHIN
  6
CONTINUOUS
100
AcDbLine
 10
681.9831140113151
 20
230.4145788663795
 30
0.0
 11
681.9831140113151
 21
229.4146788663795
 31
0.0
  0
LINE
  5
4D7
330
1A
100
AcDbEntity
  8
SEIHIN
  6
CONTINUOUS
100
AcDbLine
 10
681.9831140113151
 20
230.4145788663795
 30
0.0
 11
678.356814011315
 21
230.1037788663795
 31
0.0
  0
LINE
  5
4D8
330
1A
100
AcDbEntity
  8
SEIHIN
  6
CONTINUOUS
100
AcDbLine
 10
678.356814011315
 20
230.1037788663795
 30
0.0
 11
678.356814011315
 21
229.1037788663795
 31
0.0
  0
LINE
  5
4D9
330
1A
100
AcDbEntity
  8
SEIHIN
  6
CONTINUOUS
100
AcDbLine
 10
680.7710140113151
 20
231.3750788663795
 30
0.0
 11
678.356814011315
 21
230.1037788663795
 31
0.0
  0
LINE
  5
4DA
330
1A
100
AcDbEntity
  8
SEIHIN
  6
CONTINUOUS
100
AcDbLine
 10
681.9831140113151
 20
238.4142788663795
 30
0.0
 11
681.9831140113151
 21
237.4142788663795
 31
0.0
  0
LINE
  5
4DB
330
1A
100
AcDbEntity
  8
SEIHIN
  6
CONTINUOUS
100
AcDbLine
 10
678.356814011315
 20
238.1034788663795
 30
0.0
 11
678.356814011315
 21
237.1034788663795
 31
0.0
  0
LINE
  5
4DC
330
1A
100
AcDbEntity
  8
SEIHIN
  6
CONTINUOUS
100
AcDbLine
 10
681.9831140113151
 20
229.4146788663795
 30
0.0
 11
684.1481140113151
 21
228.1646788663795
 31
0.0
  0
LINE
  5
4DD
330
1A
100
AcDbEntity
  8
SEIHIN
  6
CONTINUOUS
100
AcDbLine
 10
684.1481140113151
 20
227.6646788663795
 30
0.0
 11
680.7710140113151
 21
227.3752788663795
 31
0.0
  0
LINE
  5
4DE
330
1A
100
AcDbEntity
  8
SEIHIN
  6
CONTINUOUS
100
AcDbLine
 10
684.1481140113151
 20
228.1646788663795
 30
0.0
 11
680.7710140113151
 21
227.8751788663795
 31
0.0
  0
LINE
  5
4DF
330
1A
100
AcDbEntity
  8
SEIHIN
  6
CONTINUOUS
100
AcDbLine
 10
684.1481140113151
 20
235.6643788663796
 30
0.0
 11
680.7710140113151
 21
235.3749788663796
 31
0.0
  0
LINE
  5
4E0
330
1A
100
AcDbEntity
  8
SEIHIN
  6
CONTINUOUS
100
AcDbLine
 10
681.9831140113151
 20
237.4142788663795
 30
0.0
 11
684.1481140113151
 21
236.1643788663795
 31
0.0
  0
LINE
  5
4E1
330
1A
100
AcDbEntity
  8
SEIHIN
  6
CONTINUOUS
100
AcDbLine
 10
684.1481140113151
 20
236.1643788663795
 30
0.0
 11
680.7710140113151
 21
235.8748788663795
 31
0.0
  0
LINE
  5
4E2
330
1A
100
AcDbEntity
  8
SEIHIN
  6
CONTINUOUS
100
AcDbLine
 10
684.1481140113151
 20
231.6645788663795
 30
0.0
 11
680.7710140113151
 21
231.3750788663795
 31
0.0
  0
LINE
  5
4E3
330
1A
100
AcDbEntity
  8
SEIHIN
  6
CONTINUOUS
100
AcDbLine
 10
684.1481140113151
 20
232.1644788663795
 30
0.0
 11
680.7710140113151
 21
231.8750788663795
 31
0.0
  0
LINE
  5
4E4
330
1A
100
AcDbEntity
  8
SEIHIN
  6
CONTINUOUS
100
AcDbLine
 10
681.9831140113151
 20
233.4144788663795
 30
0.0
 11
684.1481140113151
 21
232.1644788663795
 31
0.0
  0
LINE
  5
4E5
330
1A
100
AcDbEntity
  8
SEIHIN
  6
CONTINUOUS
100
AcDbLine
 10
684.1481140113151
 20
235.6643788663796
 30
0.0
 11
681.9831140113151
 21
234.4144788663795
 31
0.0
  0
LINE
  5
4E6
330
1A
100
AcDbEntity
  8
SEIHIN
  6
CONTINUOUS
100
AcDbLine
 10
684.1481140113151
 20
231.6645788663795
 30
0.0
 11
681.9831140113151
 21
230.4145788663795
 31
0.0
  0
LINE
  5
4E7
330
1A
100
AcDbEntity
  8
SEIHIN
  6
CONTINUOUS
100
AcDbLine
 10
684.1481140113151
 20
240.1641788663795
 30
0.0
 11
684.1481140113151
 21
239.6642788663795
 31
0.0
  0
LINE
  5
4E8
330
1A
100
AcDbEntity
  8
SEIHIN
  6
CONTINUOUS
100
AcDbLine
 10
678.356814011315
 20
241.1033788663795
 30
0.0
 11
680.7710140113151
 21
239.8747788663795
 31
0.0
  0
LINE
  5
4E9
330
1A
100
AcDbEntity
  8
SEIHIN
  6
CONTINUOUS
100
AcDbLine
 10
681.9831140113151
 20
242.4141788663795
 30
0.0
 11
681.9831140113151
 21
241.4141788663795
 31
0.0
  0
LINE
  5
4EA
330
1A
100
AcDbEntity
  8
SEIHIN
  6
CONTINUOUS
100
AcDbLine
 10
681.9831140113151
 20
241.4141788663795
 30
0.0
 11
678.356814011315
 21
241.1033788663795
 31
0.0
  0
LINE
  5
4EB
330
1A
100
AcDbEntity
  8
SEIHIN
  6
CONTINUOUS
100
AcDbLine
 10
681.9831140113151
 20
242.4141788663795
 30
0.0
 11
678.356814011315
 21
242.1032788663795
 31
0.0
  0
LINE
  5
4EC
330
1A
100
AcDbEntity
  8
SEIHIN
  6
CONTINUOUS
100
AcDbLine
 10
680.7710140113151
 20
243.3746788663795
 30
0.0
 11
678.356814011315
 21
242.1032788663795
 31
0.0
  0
LINE
  5
4ED
330
1A
100
AcDbEntity
  8
SEIHIN
  6
CONTINUOUS
100
AcDbLine
 10
678.356814011315
 20
242.1032788663795
 30
0.0
 11
678.356814011315
 21
241.1033788663795
 31
0.0
  0
LINE
  5
4EE
330
1A
100
AcDbEntity
  8
SEIHIN
  6
CONTINUOUS
100
AcDbLine
 10
684.1481140113151
 20
243.6640788663795
 30
0.0
 11
681.9831140113151
 21
242.4141788663795
 31
0.0
  0
LINE
  5
4EF
330
1A
100
AcDbEntity
  8
SEIHIN
  6
CONTINUOUS
100
AcDbLine
 10
681.9831140113151
 20
241.4141788663795
 30
0.0
 11
684.1481140113151
 21
240.1641788663795
 31
0.0
  0
LINE
  5
4F0
330
1A
100
AcDbEntity
  8
SEIHIN
  6
CONTINUOUS
100
AcDbLine
 10
684.1481140113151
 20
243.6640788663795
 30
0.0
 11
680.7710140113151
 21
243.3746788663795
 31
0.0
  0
LINE
  5
4F1
330
1A
100
AcDbEntity
  8
SEIHIN
  6
CONTINUOUS
100
AcDbLine
 10
684.1481140113151
 20
239.6642788663795
 30
0.0
 11
680.7710140113151
 21
239.3747788663795
 31
0.0
  0
LINE
  5
4F2
330
1A
100
AcDbEntity
  8
SEIHIN
  6
CONTINUOUS
100
AcDbLine
 10
684.1481140113151
 20
240.1641788663795
 30
0.0
 11
680.7710140113151
 21
239.8747788663795
 31
0.0
  0
LINE
  5
4F3
330
1A
100
AcDbEntity
  8
SEIHIN
  6
CONTINUOUS
100
AcDbLine
 10
694.148314011315
 20
243.6640788663795
 30
0.0
 11
694.148314011315
 21
244.1640788663795
 31
0.0
  0
LINE
  5
4F4
330
1A
100
AcDbEntity
  8
SEIHIN
  6
CONTINUOUS
100
AcDbLine
 10
699.148314011315
 20
242.6640788663795
 30
0.0
 11
695.148314011315
 21
241.6640788663795
 31
0.0
  0
LINE
  5
4F5
330
1A
100
AcDbEntity
  8
SEIHIN
  6
CONTINUOUS
100
AcDbLine
 10
699.148314011315
 20
244.1640788663795
 30
0.0
 11
699.148314011315
 21
242.6640788663795
 31
0.0
  0
ARC
  5
4FD
330
1A
100
AcDbEntity
  8
SEIHIN
  6
CONTINUOUS
100
AcDbCircle
 10
649.148314011315
 20
342.9641788663795
 30
0.0
 40
33.000046
100
AcDbArc
 50
90.0
 51
114.793961
  0
ARC
  5
4FE
330
1A
100
AcDbEntity
  8
SEIHIN
  6
CONTINUOUS
100
AcDbCircle
 10
649.148314011315
 20
342.9641788663795
 30
0.0
 40
28.999993
100
AcDbArc
 50
90.0
 51
116.291498
  0
LINE
  5
4FF
330
1A
100
AcDbEntity
  8
SEIHIN
  6
CONTINUOUS
100
AcDbLine
 10
649.148414011315
 20
368.9641788663795
 30
0.0
 11
636.1483140113151
 21
368.9642788663795
 31
0.0
  0
LINE
  5
500
330
1A
100
AcDbEntity
  8
SEIHIN
  6
CONTINUOUS
100
AcDbLine
 10
649.148314011315
 20
362.9641788663795
 30
0.0
 11
636.148214011315
 21
362.9642788663795
 31
0.0
  0
LINE
  5
501
330
1A
100
AcDbEntity
  8
SEIHIN
  6
CONTINUOUS
100
AcDbLine
 10
679.8983140113151
 20
365.2898788663795
 30
0.0
 11
618.398314011315
 21
365.2898788663795
 31
0.0
  0
ARC
  5
502
330
1A
100
AcDbEntity
  8
SEIHIN
  6
CONTINUOUS
100
AcDbCircle
 10
649.148314011315
 20
342.9641788663795
 30
0.0
 40
35.000034
100
AcDbArc
 50
90.0
 51
112.885491
  0
LINE
  5
503
330
1A
100
AcDbEntity
  8
SEIHIN
  6
CONTINUOUS
100
AcDbLine
 10
681.9832140113151
 20
344.7141788663795
 30
0.0
 11
616.3131140113151
 21
339.0853788663795
 31
0.0
  0
LINE
  5
504
330
1A
100
AcDbEntity
  8
SEIHIN
  6
CONTINUOUS
100
AcDbLine
 10
681.9832140113151
 20
343.7141788663795
 30
0.0
 11
616.3131140113151
 21
338.0854788663794
 31
0.0
  0
LINE
  5
505
330
1A
100
AcDbEntity
  8
SEIHIN
  6
CONTINUOUS
100
AcDbLine
 10
681.9832140113151
 20
339.7143788663795
 30
0.0
 11
616.3131140113151
 21
334.0855788663795
 31
0.0
  0
LINE
  5
506
330
1A
100
AcDbEntity
  8
SEIHIN
  6
CONTINUOUS
100
AcDbLine
 10
681.9832140113151
 20
340.7142788663795
 30
0.0
 11
616.3131140113151
 21
335.0855788663795
 31
0.0
  0
LINE
  5
507
330
1A
100
AcDbEntity
  8
SEIHIN
  6
CONTINUOUS
100
AcDbLine
 10
681.9832140113151
 20
336.7144788663795
 30
0.0
 11
616.3131140113151
 21
331.0857788663795
 31
0.0
  0
LINE
  5
508
330
1A
100
AcDbEntity
  8
SEIHIN
  6
CONTINUOUS
100
AcDbLine
 10
678.3157140113151
 20
345.9641788663795
 30
0.0
 11
614.1481140113151
 21
340.4641788663795
 31
0.0
  0
LINE
  5
509
330
1A
100
AcDbEntity
  8
SEIHIN
  6
CONTINUOUS
100
AcDbLine
 10
649.148214011315
 20
345.9641788663795
 30
0.0
 11
599.148214011315
 21
345.9643788663795
 31
0.0
  0
LINE
  5
50A
330
1A
100
AcDbEntity
  8
SEIHIN
  6
CONTINUOUS
100
AcDbLine
 10
649.148214011315
 20
347.9641788663795
 30
0.0
 11
603.148214011315
 21
347.9643788663795
 31
0.0
  0
LINE
  5
50B
330
1A
100
AcDbEntity
  8
SEIHIN
  6
CONTINUOUS
100
AcDbLine
 10
649.148214011315
 20
346.9641788663795
 30
0.0
 11
599.148214011315
 21
346.9643788663795
 31
0.0
  0
LINE
  5
50C
330
1A
100
AcDbEntity
  8
SEIHIN
  6
CONTINUOUS
100
AcDbLine
 10
649.9016140113151
 20
345.9641788663795
 30
0.0
 11
616.3131140113151
 21
343.0852788663795
 31
0.0
  0
LINE
  5
50D
330
1A
100
AcDbEntity
  8
SEIHIN
  6
CONTINUOUS
100
AcDbLine
 10
661.567814011315
 20
345.9641788663795
 30
0.0
 11
616.3131140113151
 21
342.0852788663795
 31
0.0
  0
LINE
  5
50E
330
1A
100
AcDbEntity
  8
SEIHIN
  6
CONTINUOUS
100
AcDbLine
 10
684.148214011315
 20
345.9640788663794
 30
0.0
 11
614.1481140113151
 21
339.9642788663795
 31
0.0
  0
LINE
  5
50F
330
1A
100
AcDbEntity
  8
SEIHIN
  6
CONTINUOUS
100
AcDbLine
 10
684.148214011315
 20
337.9643788663795
 30
0.0
 11
614.1481140113151
 21
331.9645788663795
 31
0.0
  0
LINE
  5
510
330
1A
100
AcDbEntity
  8
SEIHIN
  6
CONTINUOUS
100
AcDbLine
 10
684.148214011315
 20
342.4641788663795
 30
0.0
 11
614.1481140113151
 21
336.4643788663795
 31
0.0
  0
LINE
  5
511
330
1A
100
AcDbEntity
  8
SEIHIN
  6
CONTINUOUS
100
AcDbLine
 10
684.148214011315
 20
341.9642788663795
 30
0.0
 11
614.1481140113151
 21
335.9643788663795
 31
0.0
  0
LINE
  5
512
330
1A
100
AcDbEntity
  8
SEIHIN
  6
CONTINUOUS
100
AcDbLine
 10
684.148214011315
 20
338.4643788663795
 30
0.0
 11
614.1481140113151
 21
332.4644788663795
 31
0.0
  0
LINE
  5
513
330
1A
100
AcDbEntity
  8
SEIHIN
  6
CONTINUOUS
100
AcDbLine
 10
616.1507140113151
 20
325.9642788663795
 30
0.0
 11
684.148214011315
 21
325.9640788663795
 31
0.0
  0
LINE
  5
514
330
1A
100
AcDbEntity
  8
SEIHIN
  6
CONTINUOUS
100
AcDbLine
 10
684.148214011315
 20
329.9646788663795
 30
0.0
 11
637.474614011315
 21
325.9642788663795
 31
0.0
  0
LINE
  5
515
330
1A
100
AcDbEntity
  8
SEIHIN
  6
CONTINUOUS
100
AcDbLine
 10
684.148214011315
 20
333.9645788663795
 30
0.0
 11
614.1481140113151
 21
327.9646788663795
 31
0.0
  0
LINE
  5
516
330
1A
100
AcDbEntity
  8
SEIHIN
  6
CONTINUOUS
100
AcDbLine
 10
684.148214011315
 20
334.4644788663795
 30
0.0
 11
614.1481140113151
 21
328.4646788663795
 31
0.0
  0
LINE
  5
517
330
1A
100
AcDbEntity
  8
SEIHIN
  6
CONTINUOUS
100
AcDbLine
 10
681.9832140113151
 20
335.7144788663795
 30
0.0
 11
616.3131140113151
 21
330.0857788663795
 31
0.0
  0
LINE
  5
518
330
1A
100
AcDbEntity
  8
SEIHIN
  6
CONTINUOUS
100
AcDbLine
 10
684.148214011315
 20
330.4646788663795
 30
0.0
 11
631.642014011315
 21
325.9642788663795
 31
0.0
  0
LINE
  5
519
330
1A
100
AcDbEntity
  8
SEIHIN
  6
CONTINUOUS
100
AcDbLine
 10
681.9832140113151
 20
331.7146788663795
 30
0.0
 11
616.3131140113151
 21
326.0858788663795
 31
0.0
  0
LINE
  5
51A
330
1A
100
AcDbEntity
  8
SEIHIN
  6
CONTINUOUS
100
AcDbLine
 10
681.9832140113151
 20
332.7145788663795
 30
0.0
 11
616.3131140113151
 21
327.0858788663795
 31
0.0
  0
LINE
  5
51D
330
1A
100
AcDbEntity
  8
SEIHIN
  6
CONTINUOUS
100
AcDbLine
 10
616.3131140113151
 20
343.0852788663795
 30
0.0
 11
616.3131140113151
 21
342.0852788663795
 31
0.0
  0
LINE
  5
521
330
1A
100
AcDbEntity
  8
SEIHIN
  6
CONTINUOUS
100
AcDbLine
 10
614.1481140113151
 20
331.9645788663795
 30
0.0
 11
616.3131140113151
 21
331.0857788663795
 31
0.0
  0
LINE
  5
522
330
1A
100
AcDbEntity
  8
SEIHIN
  6
CONTINUOUS
100
AcDbLine
 10
614.1481140113151
 20
328.4646788663795
 30
0.0
 11
614.1481140113151
 21
327.9646788663795
 31
0.0
  0
LINE
  5
523
330
1A
100
AcDbEntity
  8
SEIHIN
  6
CONTINUOUS
100
AcDbLine
 10
616.3131140113151
 20
326.0858788663795
 30
0.0
 11
616.1507140113151
 21
325.9642788663795
 31
0.0
  0
LINE
  5
524
330
1A
100
AcDbEntity
  8
SEIHIN
  6
CONTINUOUS
100
AcDbLine
 10
616.3131140113151
 20
327.0858788663795
 30
0.0
 11
616.3131140113151
 21
326.0858788663795
 31
0.0
  0
LINE
  5
525
330
1A
100
AcDbEntity
  8
SEIHIN
  6
CONTINUOUS
100
AcDbLine
 10
614.1481140113151
 20
327.9646788663795
 30
0.0
 11
616.3131140113151
 21
327.0858788663795
 31
0.0
  0
LINE
  5
526
330
1A
100
AcDbEntity
  8
SEIHIN
  6
CONTINUOUS
100
AcDbLine
 10
616.3131140113151
 20
330.0857788663795
 30
0.0
 11
614.1481140113151
 21
328.4646788663795
 31
0.0
  0
LINE
  5
527
330
1A
100
AcDbEntity
  8
SEIHIN
  6
CONTINUOUS
100
AcDbLine
 10
616.3131140113151
 20
331.0857788663795
 30
0.0
 11
616.3131140113151
 21
330.0857788663795
 31
0.0
  0
LINE
  5
528
330
1A
100
AcDbEntity
  8
SEIHIN
  6
CONTINUOUS
100
AcDbLine
 10
614.1481140113151
 20
339.9642788663795
 30
0.0
 11
616.3131140113151
 21
339.0853788663795
 31
0.0
  0
LINE
  5
529
330
1A
100
AcDbEntity
  8
SEIHIN
  6
CONTINUOUS
100
AcDbLine
 10
616.3131140113151
 20
338.0854788663794
 30
0.0
 11
614.1481140113151
 21
336.4643788663795
 31
0.0
  0
LINE
  5
52A
330
1A
100
AcDbEntity
  8
SEIHIN
  6
CONTINUOUS
100
AcDbLine
 10
616.3131140113151
 20
339.0853788663795
 30
0.0
 11
616.3131140113151
 21
338.0854788663794
 31
0.0
  0
LINE
  5
52B
330
1A
100
AcDbEntity
  8
SEIHIN
  6
CONTINUOUS
100
AcDbLine
 10
614.1481140113151
 20
332.4644788663795
 30
0.0
 11
614.1481140113151
 21
331.9645788663795
 31
0.0
  0
LINE
  5
52C
330
1A
100
AcDbEntity
  8
SEIHIN
  6
CONTINUOUS
100
AcDbLine
 10
614.1481140113151
 20
336.4643788663795
 30
0.0
 11
614.1481140113151
 21
335.9643788663795
 31
0.0
  0
LINE
  5
52D
330
1A
100
AcDbEntity
  8
SEIHIN
  6
CONTINUOUS
100
AcDbLine
 10
616.3131140113151
 20
334.0855788663795
 30
0.0
 11
614.1481140113151
 21
332.4644788663795
 31
0.0
  0
LINE
  5
52E
330
1A
100
AcDbEntity
  8
SEIHIN
  6
CONTINUOUS
100
AcDbLine
 10
616.3131140113151
 20
335.0855788663795
 30
0.0
 11
616.3131140113151
 21
334.0855788663795
 31
0.0
  0
LINE
  5
52F
330
1A
100
AcDbEntity
  8
SEIHIN
  6
CONTINUOUS
100
AcDbLine
 10
614.1481140113151
 20
335.9643788663795
 30
0.0
 11
616.3131140113151
 21
335.0855788663795
 31
0.0
  0
LINE
  5
530
330
1A
100
AcDbEntity
  8
SEIHIN
  6
CONTINUOUS
100
AcDbLine
 10
614.1481140113151
 20
340.4641788663795
 30
0.0
 11
614.1481140113151
 21
339.9642788663795
 31
0.0
  0
LINE
  5
531
330
1A
100
AcDbEntity
  8
SEIHIN
  6
CONTINUOUS
100
AcDbLine
 10
616.3131140113151
 20
342.0852788663795
 30
0.0
 11
614.1481140113151
 21
340.4641788663795
 31
0.0
  0
LINE
  5
532
330
1A
100
AcDbEntity
  8
SEIHIN
  6
CONTINUOUS
100
AcDbLine
 10
599.148214011315
 20
346.9643788663795
 30
0.0
 11
599.148214011315
 21
345.9643788663795
 31
0.0
  0
LINE
  5
533
330
1A
100
AcDbEntity
  8
SEIHIN
  6
CONTINUOUS
100
AcDbLine
 10
603.148214011315
 20
347.9643788663795
 30
0.0
 11
599.148214011315
 21
346.9643788663795
 31
0.0
  0
ARC
  5
534
330
1A
100
AcDbEntity
  8
SEIHIN
  6
CONTINUOUS
100
AcDbCircle
 10
649.148314011315
 20
342.9641788663795
 30
0.0
 40
38.00003199999999
100
AcDbArc
 50
136.8264359999999
 51
144.018975
  0
LINE
  5
535
330
1A
100
AcDbEntity
  8
SEIHIN
  6
CONTINUOUS
100
AcDbLine
 10
637.483514011315
 20
345.9642788663795
 30
0.0
 11
614.1481140113151
 21
343.9640788663794
 31
0.0
  0
LINE
  5
536
330
1A
100
AcDbEntity
  8
SEIHIN
  6
CONTINUOUS
100
AcDbLine
 10
631.6509140113151
 20
345.9642788663795
 30
0.0
 11
614.1481140113151
 21
344.4640788663795
 31
0.0
  0
LINE
  5
537
330
1A
100
AcDbEntity
  8
SEIHIN
  6
CONTINUOUS
100
AcDbLine
 10
625.7175140113152
 20
360.9642788663795
 30
0.0
 11
625.7175140113152
 21
347.9642788663795
 31
0.0
  0
LINE
  5
538
330
1A
100
AcDbEntity
  8
SEIHIN
  6
CONTINUOUS
100
AcDbLine
 10
614.1481140113151
 20
343.9640788663794
 30
0.0
 11
616.3131140113151
 21
343.0852788663795
 31
0.0
  0
LINE
  5
539
330
1A
100
AcDbEntity
  8
SEIHIN
  6
CONTINUOUS
100
AcDbLine
 10
616.1518140113151
 20
345.9643788663795
 30
0.0
 11
614.1481140113151
 21
344.4640788663795
 31
0.0
  0
LINE
  5
53A
330
1A
100
AcDbEntity
  8
SEIHIN
  6
CONTINUOUS
100
AcDbLine
 10
614.1481140113151
 20
344.4640788663795
 30
0.0
 11
614.1481140113151
 21
343.9640788663794
 31
0.0
  0
LINE
  5
53B
330
1A
100
AcDbEntity
  8
SEIHIN
  6
CONTINUOUS
100
AcDbLine
 10
623.7175140113151
 20
362.9642788663795
 30
0.0
 11
618.398314011315
 21
362.9643788663795
 31
0.0
  0
LINE
  5
53C
330
1A
100
AcDbEntity
  8
SEIHIN
  6
CONTINUOUS
100
AcDbLine
 10
618.398314011315
 20
362.9643788663795
 30
0.0
 11
618.398314011315
 21
365.2899788663795
 31
0.0
  0
ARC
  5
53D
330
1A
100
AcDbEntity
  8
SEIHIN
  6
CONTINUOUS
100
AcDbCircle
 10
623.7175140113151
 20
360.9642788663795
 30
0.0
 40
2.0
100
AcDbArc
 50
0.0
 51
90.0
  0
LINE
  5
53E
330
1A
100
AcDbEntity
  8
SEIHIN
  6
CONTINUOUS
100
AcDbLine
 10
634.148214011315
 20
360.9642788663795
 30
0.0
 11
634.148214011315
 21
347.9642788663795
 31
0.0
  0
ARC
  5
53F
330
1A
100
AcDbEntity
  8
SEIHIN
  6
CONTINUOUS
100
AcDbCircle
 10
636.148214011315
 20
360.9642788663795
 30
0.0
 40
2.0
100
AcDbArc
 50
90.0
 51
180.0
  0
ARC
  5
540
330
1A
100
AcDbEntity
  8
SEIHIN
  6
CONTINUOUS
100
AcDbCircle
 10
628.1483140113151
 20
372.2045788663795
 30
0.0
 40
0.9999769999999999
100
AcDbArc
 50
305.6848819999999
 51
0.0
  0
ARC
  5
541
330
1A
100
AcDbEntity
  8
SEIHIN
  6
CONTINUOUS
100
AcDbCircle
 10
649.148314011315
 20
342.9641788663795
 30
0.0
 40
35.00000099999999
100
AcDbArc
 50
125.685427
 51
130.8209009999999
  0
LINE
  5
542
330
1A
100
AcDbEntity
  8
SEIHIN
  6
CONTINUOUS
100
AcDbLine
 10
624.961614011315
 20
368.9643788663795
 30
0.0
 11
621.4356140113149
 21
368.9643788663795
 31
0.0
  0
ARC
  5
543
330
1A
100
AcDbEntity
  8
SEIHIN
  6
CONTINUOUS
100
AcDbCircle
 10
624.961614011315
 20
370.9642788663795
 30
0.0
 40
1.999997
100
AcDbArc
 50
270.0
 51
310.821293
  0
LINE
  5
544
330
1A
100
AcDbEntity
  8
SEIHIN
  6
CONTINUOUS
100
AcDbLine
 10
634.148314011315
 20
377.8783788663795
 30
0.0
 11
634.148314011315
 21
376.1305788663795
 31
0.0
  0
ARC
  5
545
330
1A
100
AcDbEntity
  8
SEIHIN
  6
CONTINUOUS
100
AcDbCircle
 10
649.148314011315
 20
342.9641788663795
 30
0.0
 40
38.00005999999999
100
AcDbArc
 50
113.2496899999999
 51
121.756983
  0
LINE
  5
546
330
1A
100
AcDbEntity
  8
SEIHIN
  6
CONTINUOUS
100
AcDbLine
 10
634.148314011315
 20
371.1067788663795
 30
0.0
 11
634.148314011315
 21
370.9642788663795
 31
0.0
  0
LINE
  5
547
330
1A
100
AcDbEntity
  8
SEIHIN
  6
CONTINUOUS
100
AcDbLine
 10
629.148314011315
 20
375.2751788663795
 30
0.0
 11
629.148314011315
 21
372.2045788663795
 31
0.0
  0
ARC
  5
548
330
1A
100
AcDbEntity
  8
SEIHIN
  6
CONTINUOUS
100
AcDbCircle
 10
636.1483140113151
 20
370.9642788663795
 30
0.0
 40
2.0
100
AcDbArc
 50
180.0
 51
270.0
  0
ARC
  5
549
330
1A
100
AcDbEntity
  8
SEIHIN
  6
CONTINUOUS
100
AcDbCircle
 10
635.148314011315
 20
376.1305788663795
 30
0.0
 40
1.000008999999999
100
AcDbArc
 50
180.0
 51
292.8856249999999
  0
ARC
  5
54A
330
1A
100
AcDbEntity
  8
SEIHIN
  6
CONTINUOUS
100
AcDbCircle
 10
636.1483140113151
 20
371.1067788663795
 30
0.0
 40
1.999977999999999
100
AcDbArc
 50
114.794149
 51
180.0
  0
LINE
  5
54E
330
1A
100
AcDbEntity
  8
SEIHIN
  6
CONTINUOUS
100
AcDbLine
 10
681.9832140113151
 20
343.7141788663795
 30
0.0
 11
684.148214011315
 21
342.4641788663795
 31
0.0
  0
LINE
  5
54F
330
1A
100
AcDbEntity
  8
CENTER_L
 48
5.0
100
AcDbLine
 10
649.148514011315
 20
388.0261788663795
 30
0.0
 11
649.148214011315
 21
318.8057788663795
 31
0.0
  0
LINE
  5
550
330
1A
100
AcDbEntity
  8
SEIHIN
  6
CONTINUOUS
100
AcDbLine
 10
681.9832140113151
 20
327.7147788663794
 30
0.0
 11
661.558914011315
 21
325.9641788663795
 31
0.0
  0
LINE
  5
551
330
1A
100
AcDbEntity
  8
SEIHIN
  6
CONTINUOUS
100
AcDbLine
 10
681.9832140113151
 20
328.7147788663795
 30
0.0
 11
649.8927140113151
 21
325.9641788663795
 31
0.0
  0
LINE
  5
555
330
1A
100
AcDbEntity
  8
SEIHIN
  6
CONTINUOUS
100
AcDbLine
 10
681.9832140113151
 20
331.7146788663795
 30
0.0
 11
684.148214011315
 21
330.4646788663795
 31
0.0
  0
LINE
  5
556
330
1A
100
AcDbEntity
  8
SEIHIN
  6
CONTINUOUS
100
AcDbLine
 10
684.148214011315
 20
326.4647788663795
 30
0.0
 11
684.148214011315
 21
325.9648788663795
 31
0.0
  0
LINE
  5
557
330
1A
100
AcDbEntity
  8
SEIHIN
  6
CONTINUOUS
100
AcDbLine
 10
681.9832140113151
 20
328.7147788663795
 30
0.0
 11
681.9832140113151
 21
327.7147788663794
 31
0.0
  0
LINE
  5
558
330
1A
100
AcDbEntity
  8
SEIHIN
  6
CONTINUOUS
100
AcDbLine
 10
684.148214011315
 20
326.4647788663795
 30
0.0
 11
678.306814011315
 21
325.9641788663795
 31
0.0
  0
LINE
  5
559
330
1A
100
AcDbEntity
  8
SEIHIN
  6
CONTINUOUS
100
AcDbLine
 10
681.9832140113151
 20
327.7147788663794
 30
0.0
 11
684.148214011315
 21
326.4647788663795
 31
0.0
  0
LINE
  5
55A
330
1A
100
AcDbEntity
  8
SEIHIN
  6
CONTINUOUS
100
AcDbLine
 10
684.148214011315
 20
329.9646788663795
 30
0.0
 11
681.9832140113151
 21
328.7147788663795
 31
0.0
  0
LINE
  5
55B
330
1A
100
AcDbEntity
  8
SEIHIN
  6
CONTINUOUS
100
AcDbLine
 10
684.148214011315
 20
330.4646788663795
 30
0.0
 11
684.148214011315
 21
329.9646788663795
 31
0.0
  0
LINE
  5
55C
330
1A
100
AcDbEntity
  8
SEIHIN
  6
CONTINUOUS
100
AcDbLine
 10
684.148214011315
 20
334.4644788663795
 30
0.0
 11
684.148214011315
 21
333.9645788663795
 31
0.0
  0
LINE
  5
55D
330
1A
100
AcDbEntity
  8
SEIHIN
  6
CONTINUOUS
100
AcDbLine
 10
684.148214011315
 20
338.4643788663795
 30
0.0
 11
684.148214011315
 21
337.9643788663795
 31
0.0
  0
LINE
  5
55E
330
1A
100
AcDbEntity
  8
SEIHIN
  6
CONTINUOUS
100
AcDbLine
 10
684.148214011315
 20
342.4641788663795
 30
0.0
 11
684.148214011315
 21
341.9642788663795
 31
0.0
  0
LINE
  5
55F
330
1A
100
AcDbEntity
  8
SEIHIN
  6
CONTINUOUS
100
AcDbLine
 10
681.9832140113151
 20
332.7145788663795
 30
0.0
 11
681.9832140113151
 21
331.7146788663795
 31
0.0
  0
LINE
  5
560
330
1A
100
AcDbEntity
  8
SEIHIN
  6
CONTINUOUS
100
AcDbLine
 10
681.9832140113151
 20
336.7144788663795
 30
0.0
 11
681.9832140113151
 21
335.7144788663795
 31
0.0
  0
LINE
  5
561
330
1A
100
AcDbEntity
  8
SEIHIN
  6
CONTINUOUS
100
AcDbLine
 10
681.9832140113151
 20
340.7142788663795
 30
0.0
 11
681.9832140113151
 21
339.7143788663795
 31
0.0
  0
LINE
  5
562
330
1A
100
AcDbEntity
  8
SEIHIN
  6
CONTINUOUS
100
AcDbLine
 10
681.9832140113151
 20
339.7143788663795
 30
0.0
 11
684.148214011315
 21
338.4643788663795
 31
0.0
  0
LINE
  5
563
330
1A
100
AcDbEntity
  8
SEIHIN
  6
CONTINUOUS
100
AcDbLine
 10
684.148214011315
 20
337.9643788663795
 30
0.0
 11
681.9832140113151
 21
336.7144788663795
 31
0.0
  0
LINE
  5
564
330
1A
100
AcDbEntity
  8
SEIHIN
  6
CONTINUOUS
100
AcDbLine
 10
681.9832140113151
 20
335.7144788663795
 30
0.0
 11
684.148214011315
 21
334.4644788663795
 31
0.0
  0
LINE
  5
565
330
1A
100
AcDbEntity
  8
SEIHIN
  6
CONTINUOUS
100
AcDbLine
 10
684.148214011315
 20
333.9645788663795
 30
0.0
 11
681.9832140113151
 21
332.7145788663795
 31
0.0
  0
LINE
  5
566
330
1A
100
AcDbEntity
  8
SEIHIN
  6
CONTINUOUS
100
AcDbLine
 10
684.148214011315
 20
341.9642788663795
 30
0.0
 11
681.9832140113151
 21
340.7142788663795
 31
0.0
  0
ARC
  5
567
330
1A
100
AcDbEntity
  8
SEIHIN
  6
CONTINUOUS
100
AcDbCircle
 10
649.148314011315
 20
342.9641788663795
 30
0.0
 40
37.99999099999999
100
AcDbArc
 50
35.981114
 51
43.173564
  0
LINE
  5
568
330
1A
100
AcDbEntity
  8
SEIHIN
  6
CONTINUOUS
100
AcDbLine
 10
674.5791140113151
 20
362.9641788663795
 30
0.0
 11
679.8983140113151
 21
362.9641788663795
 31
0.0
  0
LINE
  5
569
330
1A
100
AcDbEntity
  8
SEIHIN
  6
CONTINUOUS
100
AcDbLine
 10
649.148314011315
 20
345.9641788663795
 30
0.0
 11
699.148314011315
 21
345.9640788663794
 31
0.0
  0
LINE
  5
56A
330
1A
100
AcDbEntity
  8
SEIHIN
  6
CONTINUOUS
100
AcDbLine
 10
649.148314011315
 20
347.9641788663795
 30
0.0
 11
695.148314011315
 21
347.9640788663795
 31
0.0
  0
LINE
  5
56B
330
1A
100
AcDbEntity
  8
SEIHIN
  6
CONTINUOUS
100
AcDbLine
 10
649.148314011315
 20
346.9641788663795
 30
0.0
 11
699.148314011315
 21
346.9640788663795
 31
0.0
  0
LINE
  5
56C
330
1A
100
AcDbEntity
  8
SEIHIN
  6
CONTINUOUS
100
AcDbLine
 10
649.148314011315
 20
362.9641788663795
 30
0.0
 11
662.148414011315
 21
362.9641788663795
 31
0.0
  0
LINE
  5
56D
330
1A
100
AcDbEntity
  8
SEIHIN
  6
CONTINUOUS
100
AcDbLine
 10
664.148414011315
 20
360.9641788663795
 30
0.0
 11
664.148314011315
 21
347.9641788663795
 31
0.0
  0
LINE
  5
56E
330
1A
100
AcDbEntity
  8
SEIHIN
  6
CONTINUOUS
100
AcDbLine
 10
672.5791140113151
 20
360.9641788663795
 30
0.0
 11
672.5790140113152
 21
347.9640788663795
 31
0.0
  0
ARC
  5
56F
330
1A
100
AcDbEntity
  8
SEIHIN
  6
CONTINUOUS
100
AcDbCircle
 10
662.148414011315
 20
360.9641788663795
 30
0.0
 40
2.0
100
AcDbArc
 50
0.0
 51
90.0
  0
ARC
  5
570
330
1A
100
AcDbEntity
  8
SEIHIN
  6
CONTINUOUS
100
AcDbCircle
 10
674.5791140113151
 20
360.9641788663795
 30
0.0
 40
2.0
100
AcDbArc
 50
90.0
 51
180.0
  0
LINE
  5
571
330
1A
100
AcDbEntity
  8
SEIHIN
  6
CONTINUOUS
100
AcDbLine
 10
649.148414011315
 20
368.9641788663795
 30
0.0
 11
662.148414011315
 21
368.9641788663795
 31
0.0
  0
ARC
  5
572
330
1A
100
AcDbEntity
  8
SEIHIN
  6
CONTINUOUS
100
AcDbCircle
 10
649.148314011315
 20
342.9641788663795
 30
0.0
 40
32.99998
100
AcDbArc
 50
65.206124
 51
90.0
  0
ARC
  5
573
330
1A
100
AcDbEntity
  8
SEIHIN
  6
CONTINUOUS
100
AcDbCircle
 10
649.148314011315
 20
342.9641788663795
 30
0.0
 40
28.999993
100
AcDbArc
 50
63.70850199999999
 51
90.0
  0
ARC
  5
574
330
1A
100
AcDbEntity
  8
SEIHIN
  6
CONTINUOUS
100
AcDbCircle
 10
649.148314011315
 20
342.9641788663795
 30
0.0
 40
35.000015
100
AcDbArc
 50
67.11466
 51
90.0
  0
ARC
  5
575
330
1A
100
AcDbEntity
  8
SEIHIN
  6
CONTINUOUS
100
AcDbCircle
 10
649.148314011315
 20
342.9641788663795
 30
0.0
 40
38.000014
100
AcDbArc
 50
58.24314499999999
 51
66.750449
  0
LINE
  5
576
330
1A
100
AcDbEntity
  8
SEIHIN
  6
CONTINUOUS
100
AcDbLine
 10
664.148414011315
 20
377.8783788663795
 30
0.0
 11
664.148414011315
 21
376.1303788663795
 31
0.0
  0
ARC
  5
577
330
1A
100
AcDbEntity
  8
SEIHIN
  6
CONTINUOUS
100
AcDbCircle
 10
649.148314011315
 20
342.9641788663795
 30
0.0
 40
35.00000099999999
100
AcDbArc
 50
49.17909899999999
 51
54.31457299999999
  0
LINE
  5
578
330
1A
100
AcDbEntity
  8
SEIHIN
  6
CONTINUOUS
100
AcDbLine
 10
669.148414011315
 20
375.2750788663795
 30
0.0
 11
669.148414011315
 21
372.2044788663795
 31
0.0
  0
ARC
  5
579
330
1A
100
AcDbEntity
  8
SEIHIN
  6
CONTINUOUS
100
AcDbCircle
 10
670.148414011315
 20
372.2044788663795
 30
0.0
 40
0.9999769999999999
100
AcDbArc
 50
180.0
 51
234.315118
  0
ARC
  5
57A
330
1A
100
AcDbEntity
  8
SEIHIN
  6
CONTINUOUS
100
AcDbCircle
 10
662.148414011315
 20
371.1066788663795
 30
0.0
 40
1.999977999999999
100
AcDbArc
 50
0.0
 51
65.20585099999999
  0
LINE
  5
57B
330
1A
100
AcDbEntity
  8
SEIHIN
  6
CONTINUOUS
100
AcDbLine
 10
664.148414011315
 20
371.1066788663795
 30
0.0
 11
664.148414011315
 21
370.9641788663795
 31
0.0
  0
ARC
  5
57C
330
1A
100
AcDbEntity
  8
SEIHIN
  6
CONTINUOUS
100
AcDbCircle
 10
662.148414011315
 20
370.9641788663795
 30
0.0
 40
2.0
100
AcDbArc
 50
270.0
 51
0.0
  0
ARC
  5
57D
330
1A
100
AcDbEntity
  8
SEIHIN
  6
CONTINUOUS
100
AcDbCircle
 10
663.148414011315
 20
376.1303788663795
 30
0.0
 40
1.000008999999999
100
AcDbArc
 50
247.114375
 51
0.0
  0
ARC
  5
57E
330
1A
100
AcDbEntity
  8
SEIHIN
  6
CONTINUOUS
100
AcDbCircle
 10
673.335114011315
 20
370.9641788663795
 30
0.0
 40
2.000035
100
AcDbArc
 50
229.18058
 51
270.0
  0
LINE
  5
57F
330
1A
100
AcDbEntity
  8
SEIHIN
  6
CONTINUOUS
100
AcDbLine
 10
673.335114011315
 20
368.9641788663795
 30
0.0
 11
676.8611140113151
 21
368.9641788663795
 31
0.0
  0
LINE
  5
580
330
1A
100
AcDbEntity
  8
SEIHIN
  6
CONTINUOUS
100
AcDbLine
 10
681.9832140113151
 20
344.7141788663795
 30
0.0
 11
681.9832140113151
 21
343.7141788663795
 31
0.0
  0
LINE
  5
581
330
1A
100
AcDbEntity
  8
SEIHIN
  6
CONTINUOUS
100
AcDbLine
 10
684.148214011315
 20
345.9640788663794
 30
0.0
 11
681.9832140113151
 21
344.7141788663795
 31
0.0
  0
LINE
  5
582
330
1A
100
AcDbEntity
  8
SEIHIN
  6
CONTINUOUS
100
AcDbLine
 10
679.8983140113151
 20
362.9641788663795
 30
0.0
 11
679.8983140113151
 21
365.2897788663795
 31
0.0
  0
LINE
  5
583
330
1A
100
AcDbEntity
  8
SEIHIN
  6
CONTINUOUS
100
AcDbLine
 10
695.148314011315
 20
347.9640788663795
 30
0.0
 11
699.148314011315
 21
346.9640788663795
 31
0.0
  0
LINE
  5
584
330
1A
100
AcDbEntity
  8
SEIHIN
  6
CONTINUOUS
100
AcDbLine
 10
699.148314011315
 20
346.9640788663795
 30
0.0
 11
699.148314011315
 21
345.9640788663794
 31
0.0
  0
ARC
  5
602
330
1A
100
AcDbEntity
  8
SEIHIN
  6
CONTINUOUS
100
AcDbCircle
 10
392.31196252024
 20
183.6425147118586
 30
0.0
 40
28.999993
100
AcDbArc
 50
90.0
 51
116.291498
  0
ARC
  5
603
330
1A
100
AcDbEntity
  8
SEIHIN
  6
CONTINUOUS
100
AcDbCircle
 10
392.31196252024
 20
183.6425147118586
 30
0.0
 40
32.99998
100
AcDbArc
 50
90.0
 51
114.7938759999999
  0
ARC
  5
604
330
1A
100
AcDbEntity
  8
SEIHIN
  6
CONTINUOUS
100
AcDbCircle
 10
392.31196252024
 20
183.6425147118586
 30
0.0
 40
35.000015
100
AcDbArc
 50
90.0
 51
112.8853399999999
  0
LINE
  5
605
330
1A
100
AcDbEntity
  8
SEIHIN
  6
CONTINUOUS
100
AcDbLine
 10
423.0620625202401
 20
205.9681147118586
 30
0.0
 11
361.56196252024
 21
205.9682147118586
 31
0.0
  0
LINE
  5
606
330
1A
100
AcDbEntity
  8
SEIHIN
  6
CONTINUOUS
100
AcDbLine
 10
392.31206252024
 20
209.6425147118586
 30
0.0
 11
379.31206252024
 21
209.6426147118586
 31
0.0
  0
LINE
  5
607
330
1A
100
AcDbEntity
  8
SEIHIN
  6
CONTINUOUS
100
AcDbLine
 10
392.31196252024
 20
203.6425147118586
 30
0.0
 11
379.31196252024
 21
203.6426147118586
 31
0.0
  0
LINE
  5
608
330
1A
100
AcDbEntity
  8
SEIHIN
  6
CONTINUOUS
100
AcDbLine
 10
392.31196252024
 20
187.6425147118586
 30
0.0
 11
342.31196252024
 21
187.6427147118586
 31
0.0
  0
LINE
  5
609
330
1A
100
AcDbEntity
  8
SEIHIN
  6
CONTINUOUS
100
AcDbLine
 10
392.31196252024
 20
188.6425147118586
 30
0.0
 11
346.31196252024
 21
188.6427147118586
 31
0.0
  0
LINE
  5
60A
330
1A
100
AcDbEntity
  8
SEIHIN
  6
CONTINUOUS
100
AcDbLine
 10
392.31196252024
 20
186.6425147118586
 30
0.0
 11
342.31196252024
 21
186.6427147118586
 31
0.0
  0
LINE
  5
611
330
1A
100
AcDbEntity
  8
SEIHIN
  6
CONTINUOUS
100
AcDbLine
 10
368.88126252024
 20
201.6426147118586
 30
0.0
 11
368.88126252024
 21
188.6426147118586
 31
0.0
  0
LINE
  5
612
330
1A
100
AcDbEntity
  8
SEIHIN
  6
CONTINUOUS
100
AcDbLine
 10
377.31196252024
 20
201.6426147118586
 30
0.0
 11
377.31196252024
 21
188.6426147118586
 31
0.0
  0
LINE
  5
613
330
1A
100
AcDbEntity
  8
SEIHIN
  6
CONTINUOUS
100
AcDbLine
 10
346.31196252024
 20
188.6427147118586
 30
0.0
 11
342.31196252024
 21
187.6427147118586
 31
0.0
  0
LINE
  5
615
330
1A
100
AcDbEntity
  8
SEIHIN
  6
CONTINUOUS
100
AcDbLine
 10
342.31196252024
 20
187.6427147118586
 30
0.0
 11
342.31196252024
 21
186.6427147118586
 31
0.0
  0
ARC
  5
619
330
1A
100
AcDbEntity
  8
SEIHIN
  6
CONTINUOUS
100
AcDbCircle
 10
379.31206252024
 20
211.7851147118586
 30
0.0
 40
1.999977999999999
100
AcDbArc
 50
114.794149
 51
180.0
  0
LINE
  5
61A
330
1A
100
AcDbEntity
  8
SEIHIN
  6
CONTINUOUS
100
AcDbLine
 10
372.31206252024
 20
215.9535147118585
 30
0.0
 11
372.31206252024
 21
212.8829147118586
 31
0.0
  0
LINE
  5
61B
330
1A
100
AcDbEntity
  8
SEIHIN
  6
CONTINUOUS
100
AcDbLine
 10
368.12536252024
 20
209.6426147118586
 30
0.0
 11
364.59926252024
 21
209.6427147118586
 31
0.0
  0
ARC
  5
61C
330
1A
100
AcDbEntity
  8
SEIHIN
  6
CONTINUOUS
100
AcDbCircle
 10
366.88126252024
 20
201.6426147118586
 30
0.0
 40
2.0
100
AcDbArc
 50
0.0
 51
90.0
  0
LINE
  5
61D
330
1A
100
AcDbEntity
  8
SEIHIN
  6
CONTINUOUS
100
AcDbLine
 10
361.56196252024
 20
203.6426147118586
 30
0.0
 11
361.56196252024
 21
205.9683147118586
 31
0.0
  0
ARC
  5
61E
330
1A
100
AcDbEntity
  8
SEIHIN
  6
CONTINUOUS
100
AcDbCircle
 10
392.31196252024
 20
183.6425147118586
 30
0.0
 40
37.99999099999999
100
AcDbArc
 50
136.8264359999999
 51
144.018886
  0
LINE
  5
61F
330
1A
100
AcDbEntity
  8
SEIHIN
  6
CONTINUOUS
100
AcDbLine
 10
366.88126252024
 20
203.6426147118586
 30
0.0
 11
361.56196252024
 21
203.6426147118586
 31
0.0
  0
ARC
  5
620
330
1A
100
AcDbEntity
  8
SEIHIN
  6
CONTINUOUS
100
AcDbCircle
 10
392.31196252024
 20
183.6425147118586
 30
0.0
 40
35.00000099999999
100
AcDbArc
 50
125.685427
 51
130.8209009999999
  0
ARC
  5
621
330
1A
100
AcDbEntity
  8
SEIHIN
  6
CONTINUOUS
100
AcDbCircle
 10
371.31206252024
 20
212.8829147118586
 30
0.0
 40
0.9999769999999999
100
AcDbArc
 50
305.6848819999999
 51
0.0
  0
ARC
  5
622
330
1A
100
AcDbEntity
  8
SEIHIN
  6
CONTINUOUS
100
AcDbCircle
 10
368.12536252024
 20
211.6426147118586
 30
0.0
 40
1.999963999999999
100
AcDbArc
 50
270.0
 51
310.8191249999999
  0
ARC
  5
623
330
1A
100
AcDbEntity
  8
SEIHIN
  6
CONTINUOUS
100
AcDbCircle
 10
379.31206252024
 20
211.6426147118586
 30
0.0
 40
2.0
100
AcDbArc
 50
180.0
 51
270.0
  0
LINE
  5
624
330
1A
100
AcDbEntity
  8
SEIHIN
  6
CONTINUOUS
100
AcDbLine
 10
377.31206252024
 20
211.7851147118586
 30
0.0
 11
377.31206252024
 21
211.6426147118586
 31
0.0
  0
ARC
  5
625
330
1A
100
AcDbEntity
  8
SEIHIN
  6
CONTINUOUS
100
AcDbCircle
 10
379.31196252024
 20
201.6426147118586
 30
0.0
 40
2.0
100
AcDbArc
 50
90.0
 51
180.0
  0
ARC
  5
626
330
1A
100
AcDbEntity
  8
SEIHIN
  6
CONTINUOUS
100
AcDbCircle
 10
392.31196252024
 20
183.6425147118586
 30
0.0
 40
38.00005999999999
100
AcDbArc
 50
113.2496899999999
 51
121.756983
  0
ARC
  5
627
330
1A
100
AcDbEntity
  8
SEIHIN
  6
CONTINUOUS
100
AcDbCircle
 10
378.31206252024
 20
216.8088147118586
 30
0.0
 40
0.9999629999999999
100
AcDbArc
 50
180.0
 51
292.8878539999999
  0
LINE
  5
628
330
1A
100
AcDbEntity
  8
SEIHIN
  6
CONTINUOUS
100
AcDbLine
 10
377.31206252024
 20
218.5567147118586
 30
0.0
 11
377.31206252024
 21
216.8088147118586
 31
0.0
  0
LINE
  5
62A
330
1A
100
AcDbEntity
  8
CENTER_L
 48
5.0
100
AcDbLine
 10
392.31216252024
 20
228.7045147118586
 30
0.0
 11
392.31186252024
 21
156.0319147118586
 31
0.0
  0
LINE
  5
62C
330
1A
100
AcDbEntity
  8
SEIHIN
  6
CONTINUOUS
100
AcDbLine
 10
415.7427625202401
 20
201.6425147118586
 30
0.0
 11
415.7427625202401
 21
188.6424147118586
 31
0.0
  0
LINE
  5
62D
330
1A
100
AcDbEntity
  8
SEIHIN
  6
CONTINUOUS
100
AcDbLine
 10
407.3120625202401
 20
201.6425147118586
 30
0.0
 11
407.3120625202401
 21
188.6425147118586
 31
0.0
  0
LINE
  5
62E
330
1A
100
AcDbEntity
  8
SEIHIN
  6
CONTINUOUS
100
AcDbLine
 10
392.31196252024
 20
187.6425147118586
 30
0.0
 11
442.31206252024
 21
187.6424147118586
 31
0.0
  0
LINE
  5
62F
330
1A
100
AcDbEntity
  8
SEIHIN
  6
CONTINUOUS
100
AcDbLine
 10
392.31196252024
 20
188.6425147118586
 30
0.0
 11
438.31206252024
 21
188.6424147118586
 31
0.0
  0
LINE
  5
630
330
1A
100
AcDbEntity
  8
SEIHIN
  6
CONTINUOUS
100
AcDbLine
 10
392.31196252024
 20
186.6425147118586
 30
0.0
 11
442.31206252024
 21
186.6424147118586
 31
0.0
  0
LINE
  5
637
330
1A
100
AcDbEntity
  8
SEIHIN
  6
CONTINUOUS
100
AcDbLine
 10
438.31206252024
 20
188.6424147118586
 30
0.0
 11
442.31206252024
 21
187.6424147118586
 31
0.0
  0
LINE
  5
639
330
1A
100
AcDbEntity
  8
SEIHIN
  6
CONTINUOUS
100
AcDbLine
 10
442.31206252024
 20
187.6424147118586
 30
0.0
 11
442.31206252024
 21
186.6424147118586
 31
0.0
  0
LINE
  5
63B
330
1A
100
AcDbEntity
  8
SEIHIN
  6
CONTINUOUS
100
AcDbLine
 10
416.49876252024
 20
209.6425147118586
 30
0.0
 11
420.02486252024
 21
209.6425147118586
 31
0.0
  0
ARC
  5
63C
330
1A
100
AcDbEntity
  8
SEIHIN
  6
CONTINUOUS
100
AcDbCircle
 10
417.74276252024
 20
201.6425147118586
 30
0.0
 40
2.0
100
AcDbArc
 50
90.0
 51
180.0
  0
ARC
  5
63D
330
1A
100
AcDbEntity
  8
SEIHIN
  6
CONTINUOUS
100
AcDbCircle
 10
405.31216252024
 20
211.7850147118585
 30
0.0
 40
1.999977999999999
100
AcDbArc
 50
0.0
 51
65.20585099999999
  0
LINE
  5
63E
330
1A
100
AcDbEntity
  8
SEIHIN
  6
CONTINUOUS
100
AcDbLine
 10
412.31216252024
 20
215.9534147118586
 30
0.0
 11
412.31216252024
 21
212.8828147118586
 31
0.0
  0
ARC
  5
63F
330
1A
100
AcDbEntity
  8
SEIHIN
  6
CONTINUOUS
100
AcDbCircle
 10
392.31196252024
 20
183.6425147118586
 30
0.0
 40
29.000015
100
AcDbArc
 50
63.708325
 51
90.0
  0
LINE
  5
640
330
1A
100
AcDbEntity
  8
SEIHIN
  6
CONTINUOUS
100
AcDbLine
 10
392.31206252024
 20
203.6425147118586
 30
0.0
 11
405.31206252024
 21
203.6425147118586
 31
0.0
  0
LINE
  5
641
330
1A
100
AcDbEntity
  8
SEIHIN
  6
CONTINUOUS
100
AcDbLine
 10
392.31206252024
 20
209.6425147118586
 30
0.0
 11
405.31216252024
 21
209.6425147118586
 31
0.0
  0
ARC
  5
642
330
1A
100
AcDbEntity
  8
SEIHIN
  6
CONTINUOUS
100
AcDbCircle
 10
405.31216252024
 20
211.6425147118586
 30
0.0
 40
2.0
100
AcDbArc
 50
270.0
 51
0.0
  0
LINE
  5
643
330
1A
100
AcDbEntity
  8
SEIHIN
  6
CONTINUOUS
100
AcDbLine
 10
407.31216252024
 20
211.7850147118585
 30
0.0
 11
407.31216252024
 21
211.6425147118586
 31
0.0
  0
ARC
  5
644
330
1A
100
AcDbEntity
  8
SEIHIN
  6
CONTINUOUS
100
AcDbCircle
 10
405.31206252024
 20
201.6425147118586
 30
0.0
 40
2.0
100
AcDbArc
 50
0.0
 51
90.0
  0
ARC
  5
645
330
1A
100
AcDbEntity
  8
SEIHIN
  6
CONTINUOUS
100
AcDbCircle
 10
416.49886252024
 20
211.6425147118586
 30
0.0
 40
2.000035
100
AcDbArc
 50
229.18058
 51
270.0
  0
ARC
  5
646
330
1A
100
AcDbEntity
  8
SEIHIN
  6
CONTINUOUS
100
AcDbCircle
 10
413.3121625202401
 20
212.8828147118586
 30
0.0
 40
1.000005999999999
100
AcDbArc
 50
180.0
 51
234.310465
  0
ARC
  5
647
330
1A
100
AcDbEntity
  8
SEIHIN
  6
CONTINUOUS
100
AcDbCircle
 10
392.31196252024
 20
183.6425147118586
 30
0.0
 40
35.00002999999999
100
AcDbArc
 50
49.17909899999999
 51
54.31443999999999
  0
ARC
  5
648
330
1A
100
AcDbEntity
  8
SEIHIN
  6
CONTINUOUS
100
AcDbCircle
 10
392.31196252024
 20
183.6425147118586
 30
0.0
 40
34.999988
100
AcDbArc
 50
67.11444499999998
 51
90.0
  0
ARC
  5
649
330
1A
100
AcDbEntity
  8
SEIHIN
  6
CONTINUOUS
100
AcDbCircle
 10
392.31196252024
 20
183.6425147118586
 30
0.0
 40
33.000001
100
AcDbArc
 50
65.205967
 51
90.0
  0
ARC
  5
64A
330
1A
100
AcDbEntity
  8
SEIHIN
  6
CONTINUOUS
100
AcDbCircle
 10
392.31196252024
 20
183.6425147118586
 30
0.0
 40
38.00005999999999
100
AcDbArc
 50
58.243017
 51
66.75031
  0
ARC
  5
64B
330
1A
100
AcDbEntity
  8
SEIHIN
  6
CONTINUOUS
100
AcDbCircle
 10
406.31216252024
 20
216.8087147118586
 30
0.0
 40
1.000008999999999
100
AcDbArc
 50
247.114375
 51
0.0
  0
LINE
  5
64C
330
1A
100
AcDbEntity
  8
SEIHIN
  6
CONTINUOUS
100
AcDbLine
 10
407.31216252024
 20
218.5566147118586
 30
0.0
 11
407.31216252024
 21
216.8087147118586
 31
0.0
  0
ARC
  5
64D
330
1A
100
AcDbEntity
  8
SEIHIN
  6
CONTINUOUS
100
AcDbCircle
 10
392.31196252024
 20
183.6425147118586
 30
0.0
 40
38.00003199999999
100
AcDbArc
 50
35.981025
 51
43.173564
  0
LINE
  5
64E
330
1A
100
AcDbEntity
  8
SEIHIN
  6
CONTINUOUS
100
AcDbLine
 10
423.0620625202401
 20
203.6425147118586
 30
0.0
 11
423.0620625202401
 21
205.9681147118586
 31
0.0
  0
LINE
  5
64F
330
1A
100
AcDbEntity
  8
SEIHIN
  6
CONTINUOUS
100
AcDbLine
 10
417.74276252024
 20
203.6425147118586
 30
0.0
 11
423.0620625202401
 21
203.6425147118586
 31
0.0
  0
LINE
  5
650
330
1A
100
AcDbEntity
  8
CENTER_L
 48
5.0
100
AcDbLine
 10
331.67876252024
 20
382.3427147118586
 30
0.0
 11
450.56096252024
 21
382.3424147118586
 31
0.0
  0
ARC
  5
651
330
1A
100
AcDbEntity
  8
SEIHIN
  6
CONTINUOUS
100
AcDbCircle
 10
392.31236252024
 20
382.3425147118586
 30
0.0
 40
27.749964
100
AcDbArc
 50
238.6899709999999
 51
301.3098519999999
  0
CIRCLE
  5
652
330
1A
100
AcDbEntity
  8
SEIHIN
  6
CONTINUOUS
100
AcDbCircle
 10
392.31236252024
 20
382.3425147118586
 30
0.0
 40
30.75
  0
ARC
  5
653
330
1A
100
AcDbEntity
  8
SEIHIN
  6
CONTINUOUS
100
AcDbCircle
 10
392.31236252024
 20
382.3425147118586
 30
0.0
 40
27.750075
100
AcDbArc
 50
58.690079
 51
121.3099209999999
  0
ARC
  5
654
330
1A
100
AcDbEntity
  8
SEIHIN
  6
CONTINUOUS
100
AcDbCircle
 10
392.31236252024
 20
382.3425147118586
 30
0.0
 40
50.000001
100
AcDbArc
 50
11.282942
 51
168.71708
  0
ARC
  5
655
330
1A
100
AcDbEntity
  8
SEIHIN
  6
CONTINUOUS
100
AcDbCircle
 10
392.31236252024
 20
382.3425147118586
 30
0.0
 40
46.000002
100
AcDbArc
 50
6.240137999999999
 51
173.759751
  0
ARC
  5
656
330
1A
100
AcDbEntity
  8
SEIHIN
  6
CONTINUOUS
100
AcDbCircle
 10
392.31236252024
 20
382.3425147118586
 30
0.0
 40
45.99999099999999
100
AcDbArc
 50
186.240001
 51
353.759862
  0
ARC
  5
657
330
1A
100
AcDbEntity
  8
SEIHIN
  6
CONTINUOUS
100
AcDbCircle
 10
392.31236252024
 20
382.3425147118586
 30
0.0
 40
49.999981
100
AcDbArc
 50
191.282695
 51
348.717058
  0
LINE
  5
659
330
1A
100
AcDbEntity
  8
SEIHIN
  6
CONTINUOUS
100
AcDbLine
 10
378.93096252024
 20
362.3425147118585
 30
0.0
 11
405.69376252024
 21
362.3425147118585
 31
0.0
  0
LINE
  5
65A
330
1A
100
AcDbEntity
  8
SEIHIN
  6
CONTINUOUS
100
AcDbLine
 10
379.31236252024
 20
367.3425147118586
 30
0.0
 11
405.3123625202401
 21
367.3425147118586
 31
0.0
  0
LINE
  5
65B
330
1A
100
AcDbEntity
  8
SEIHIN
  6
CONTINUOUS
100
AcDbLine
 10
378.93096252024
 20
402.3425147118586
 30
0.0
 11
405.69376252024
 21
402.3425147118586
 31
0.0
  0
LINE
  5
65C
330
1A
100
AcDbEntity
  8
SEIHIN
  6
CONTINUOUS
100
AcDbLine
 10
379.31236252024
 20
397.3425147118586
 30
0.0
 11
405.3123625202401
 21
397.3425147118586
 31
0.0
  0
ARC
  5
65D
330
1A
100
AcDbEntity
  8
SEIHIN
  6
CONTINUOUS
100
AcDbCircle
 10
379.31236252024
 20
395.3425147118585
 30
0.0
 40
2.0
100
AcDbArc
 50
90.0
 51
180.0
  0
ARC
  5
65E
330
1A
100
AcDbEntity
  8
SEIHIN
  6
CONTINUOUS
100
AcDbCircle
 10
392.31236252024
 20
382.3425147118586
 30
0.0
 40
27.750006
100
AcDbArc
 50
148.689971
 51
211.309745
  0
LINE
  5
65F
330
1A
100
AcDbEntity
  8
SEIHIN
  6
CONTINUOUS
100
AcDbLine
 10
372.31236252024
 20
368.9611147118586
 30
0.0
 11
372.31236252024
 21
395.7240147118586
 31
0.0
  0
LINE
  5
660
330
1A
100
AcDbEntity
  8
SEIHIN
  6
CONTINUOUS
100
AcDbLine
 10
347.20136252024
 20
387.3426147118586
 30
0.0
 11
361.97156252024
 21
387.3426147118586
 31
0.0
  0
LINE
  5
661
330
1A
100
AcDbEntity
  8
SEIHIN
  6
CONTINUOUS
100
AcDbLine
 10
347.20136252024
 20
377.3426147118586
 30
0.0
 11
361.97156252024
 21
377.3426147118586
 31
0.0
  0
ARC
  5
662
330
1A
100
AcDbEntity
  8
SEIHIN
  6
CONTINUOUS
100
AcDbCircle
 10
347.20136252024
 20
373.3426147118586
 30
0.0
 40
4.000001999999999
100
AcDbArc
 50
90.0
 51
191.282684
  0
ARC
  5
663
330
1A
100
AcDbEntity
  8
SEIHIN
  6
CONTINUOUS
100
AcDbCircle
 10
347.20136252024
 20
391.3426147118586
 30
0.0
 40
4.000001999999999
100
AcDbArc
 50
168.7173159999999
 51
270.0
  0
LINE
  5
664
330
1A
100
AcDbEntity
  8
SEIHIN
  6
CONTINUOUS
100
AcDbLine
 10
377.31236252024
 20
369.3425147118586
 30
0.0
 11
377.31236252024
 21
395.3425147118585
 31
0.0
  0
ARC
  5
665
330
1A
100
AcDbEntity
  8
SEIHIN
  6
CONTINUOUS
100
AcDbCircle
 10
378.93096252024
 20
360.3425147118585
 30
0.0
 40
2.000000999999999
100
AcDbArc
 50
90.0
 51
238.687905
  0
ARC
  5
666
330
1A
100
AcDbEntity
  8
SEIHIN
  6
CONTINUOUS
100
AcDbCircle
 10
370.31236252024
 20
368.9611147118586
 30
0.0
 40
2.000017999999999
100
AcDbArc
 50
211.3081589999999
 51
0.0
  0
ARC
  5
667
330
1A
100
AcDbEntity
  8
SEIHIN
  6
CONTINUOUS
100
AcDbCircle
 10
379.31236252024
 20
369.3425147118586
 30
0.0
 40
2.0
100
AcDbArc
 50
180.0
 51
270.0
  0
ARC
  5
668
330
1A
100
AcDbEntity
  8
SEIHIN
  6
CONTINUOUS
100
AcDbCircle
 10
392.31236252024
 20
382.3425147118586
 30
0.0
 40
34.999984
100
AcDbArc
 50
171.786623
 51
188.213052
  0
ARC
  5
669
330
1A
100
AcDbEntity
  8
SEIHIN
  6
CONTINUOUS
100
AcDbCircle
 10
370.31236252024
 20
395.7240147118586
 30
0.0
 40
1.999975
100
AcDbArc
 50
0.0
 51
148.690352
  0
ARC
  5
66A
330
1A
100
AcDbEntity
  8
SEIHIN
  6
CONTINUOUS
100
AcDbCircle
 10
378.93096252024
 20
404.3425147118585
 30
0.0
 40
2.000017999999999
100
AcDbArc
 50
121.308159
 51
270.0
  0
LINE
  5
66B
330
1A
100
AcDbEntity
  8
CENTER_L
 48
5.0
100
AcDbLine
 10
392.3122625202401
 20
323.8600147118585
 30
0.0
 11
392.31256252024
 21
439.3717147118586
 31
0.0
  0
ARC
  5
66C
330
1A
100
AcDbEntity
  8
SEIHIN
  6
CONTINUOUS
100
AcDbCircle
 10
405.3123625202401
 20
395.3425147118585
 30
0.0
 40
2.0
100
AcDbArc
 50
0.0
 51
90.0
  0
ARC
  5
66D
330
1A
100
AcDbEntity
  8
SEIHIN
  6
CONTINUOUS
100
AcDbCircle
 10
392.31236252024
 20
382.3425147118586
 30
0.0
 40
27.74999
100
AcDbArc
 50
328.689971
 51
31.310029
  0
LINE
  5
66E
330
1A
100
AcDbEntity
  8
SEIHIN
  6
CONTINUOUS
100
AcDbLine
 10
412.31236252024
 20
368.9611147118586
 30
0.0
 11
412.31236252024
 21
395.7239147118585
 31
0.0
  0
LINE
  5
66F
330
1A
100
AcDbEntity
  8
SEIHIN
  6
CONTINUOUS
100
AcDbLine
 10
407.31236252024
 20
369.3425147118586
 30
0.0
 11
407.31236252024
 21
395.3425147118585
 31
0.0
  0
ARC
  5
670
330
1A
100
AcDbEntity
  8
SEIHIN
  6
CONTINUOUS
100
AcDbCircle
 10
405.69376252024
 20
360.3425147118585
 30
0.0
 40
2.000017999999999
100
AcDbArc
 50
301.308159
 51
90.0
  0
ARC
  5
671
330
1A
100
AcDbEntity
  8
SEIHIN
  6
CONTINUOUS
100
AcDbCircle
 10
405.3123625202401
 20
369.3425147118586
 30
0.0
 40
2.0
100
AcDbArc
 50
270.0
 51
0.0
  0
ARC
  5
672
330
1A
100
AcDbEntity
  8
SEIHIN
  6
CONTINUOUS
100
AcDbCircle
 10
414.3123625202401
 20
368.9611147118586
 30
0.0
 40
2.000000999999999
100
AcDbArc
 50
180.0
 51
328.687905
  0
LINE
  5
673
330
1A
100
AcDbEntity
  8
SEIHIN
  6
CONTINUOUS
100
AcDbLine
 10
422.65316252024
 20
387.3425147118585
 30
0.0
 11
437.42336252024
 21
387.3425147118585
 31
0.0
  0
LINE
  5
674
330
1A
100
AcDbEntity
  8
SEIHIN
  6
CONTINUOUS
100
AcDbLine
 10
422.65316252024
 20
377.3425147118586
 30
0.0
 11
437.42336252024
 21
377.3425147118586
 31
0.0
  0
ARC
  5
675
330
1A
100
AcDbEntity
  8
SEIHIN
  6
CONTINUOUS
100
AcDbCircle
 10
392.31236252024
 20
382.3425147118586
 30
0.0
 40
34.999984
100
AcDbArc
 50
351.7867859999999
 51
8.213214
  0
ARC
  5
676
330
1A
100
AcDbEntity
  8
SEIHIN
  6
CONTINUOUS
100
AcDbCircle
 10
437.4232625202401
 20
373.3425147118586
 30
0.0
 40
4.000011999999999
100
AcDbArc
 50
348.715912
 51
90.0
  0
ARC
  5
677
330
1A
100
AcDbEntity
  8
SEIHIN
  6
CONTINUOUS
100
AcDbCircle
 10
437.42336252024
 20
391.3425147118585
 30
0.0
 40
3.999992999999999
100
AcDbArc
 50
270.0
 51
11.28127899999999
  0
ARC
  5
678
330
1A
100
AcDbEntity
  8
SEIHIN
  6
CONTINUOUS
100
AcDbCircle
 10
405.69376252024
 20
404.3425147118585
 30
0.0
 40
2.000043999999999
100
AcDbArc
 50
270.0
 51
58.68939399999999
  0
ARC
  5
679
330
1A
100
AcDbEntity
  8
SEIHIN
  6
CONTINUOUS
100
AcDbCircle
 10
414.3123625202401
 20
395.7239147118585
 30
0.0
 40
2.000043999999999
100
AcDbArc
 50
31.310606
 51
180.0
  0
LINE
  5
681
330
1A
100
AcDbEntity
  8
SEIHIN
  6
CONTINUOUS
100
AcDbLine
 10
359.3144086529866
 20
166.6426147116386
 30
0.0
 11
425.3095145730156
 21
166.6424206012495
 31
0.0
  0
LINE
  5
6BF
330
1A
100
AcDbEntity
  8
SEIHIN
  6
CONTINUOUS
100
AcDbLine
 10
357.3118086529865
 20
183.6426547124501
 30
0.0
 11
357.3118086529865
 21
169.6426206018682
 31
0.0
  0
LINE
  5
6C0
330
1A
100
AcDbEntity
  8
SEIHIN
  6
CONTINUOUS
100
AcDbLine
 10
359.3144086529866
 20
166.6426147116386
 30
0.0
 11
359.3144086529866
 21
169.6426147116516
 31
0.0
  0
LINE
  5
6C1
330
1A
100
AcDbEntity
  8
SEIHIN
  6
CONTINUOUS
100
AcDbLine
 10
357.3118086529866
 20
169.6426206018682
 30
0.0
 11
427.3119174768403
 21
169.6424147116256
 31
0.0
  0
LINE
  5
6C2
330
1A
100
AcDbEntity
  8
SEIHIN
  6
CONTINUOUS
100
AcDbLine
 10
427.3122246376559
 20
183.6423747107861
 30
0.0
 11
357.3118086529866
 21
183.6426547124501
 31
0.0
  0
LINE
  5
6C3
330
1A
100
AcDbEntity
  8
SEIHIN
  6
CONTINUOUS
100
AcDbLine
 10
425.3095145728893
 20
166.6424010720971
 30
0.0
 11
425.3095339962325
 21
169.6424206012053
 31
0.0
  0
LINE
  5
6C4
330
1A
100
AcDbEntity
  8
SEIHIN
  6
CONTINUOUS
100
AcDbLine
 10
427.3122246380014
 20
183.6424281069076
 30
0.0
 11
427.3121339961023
 21
169.6423939966191
 31
0.0
  0
LINE
  5
6C5
330
1A
100
AcDbEntity
  8
SEIHIN
  6
CONTINUOUS
100
AcDbLine
 10
425.3096246376656
 20
183.6423827211861
 30
0.0
 11
425.3096440612083
 21
186.6424330621133
 31
0.0
  0
LINE
  5
6C6
330
1A
100
AcDbEntity
  8
SEIHIN
  6
CONTINUOUS
100
AcDbLine
 10
359.3144086529865
 20
183.64264670205
 30
0.0
 11
359.3144086529866
 21
186.642646702074
 31
0.0
  0
LINE
  5
6C7
330
1A
100
AcDbEntity
  8
SEIHIN
  6
CONTINUOUS
 62
     4
100
AcDbLine
 10
425.3096246376656
 20
183.6423827211861
 30
0.0
 11
425.3095339962325
 21
169.6424206012053
 31
0.0
  0
LINE
  5
6C8
330
1A
100
AcDbEntity
  8
SEIHIN
  6
CONTINUOUS
 62
     4
100
AcDbLine
 10
359.3144086529865
 20
183.6426467020501
 30
0.0
 11
359.3144086529866
 21
169.6426147116516
 31
0.0
  0
ARC
  5
7E4
330
1A
100
AcDbEntity
  8
SEIHIN
  6
CONTINUOUS
100
AcDbCircle
 10
185.4237335606363
 20
382.3425617024659
 30
0.0
 40
32.83418188072324
100
AcDbArc
 50
94.62434232158251
 51
145.3807427306379
  0
CIRCLE
  5
7E5
330
1A
100
AcDbEntity
  8
SEIHIN
  6
CONTINUOUS
100
AcDbCircle
 10
185.4237335606363
 20
382.3425617024659
 30
0.0
 40
34.9991818807301
  0
LINE
  5
7E8
330
1A
100
AcDbEntity
  8
SEIHIN
  6
CONTINUOUS
100
AcDbLine
 10
182.776562942088
 20
415.0698589861205
 30
0.0
 11
182.602015441255
 21
417.2278112955988
 31
0.0
  0
LINE
  5
7E9
330
1A
100
AcDbEntity
  8
SEIHIN
  6
CONTINUOUS
100
AcDbLine
 10
158.4029923799091
 20
400.9963293063728
 30
0.0
 11
156.621315441255
 21
402.2263099104059
 31
0.0
  0
LINE
  5
7EA
330
1A
100
AcDbEntity
  8
SEIHIN
  6
CONTINUOUS
100
AcDbLine
 10
158.4046480250601
 20
363.686396056824
 30
0.0
 11
156.6230802553131
 21
362.4562573321964
 31
0.0
  0
LINE
  5
7EB
330
1A
100
AcDbEntity
  8
SEIHIN
  6
CONTINUOUS
100
AcDbLine
 10
182.7794675297253
 20
349.6150296089183
 30
0.0
 11
182.6051115497975
 21
347.4570618166903
 31
0.0
  0
LINE
  5
7EC
330
1A
100
AcDbEntity
  8
SEIHIN
  6
CONTINUOUS
100
AcDbLine
 10
215.0899897147609
 20
368.2714300644531
 30
0.0
 11
217.0461049853409
 21
367.3436164796024
 31
0.0
  0
LINE
  5
7ED
330
1A
100
AcDbEntity
  8
SEIHIN
  6
CONTINUOUS
100
AcDbLine
 10
215.0887407722745
 20
396.4163261921065
 30
0.0
 11
217.0447736908565
 21
397.3443133803013
 31
0.0
  0
ARC
  5
7EE
330
1A
100
AcDbEntity
  8
SEIHIN
  6
CONTINUOUS
100
AcDbCircle
 10
185.4237335606363
 20
382.3425617024659
 30
0.0
 40
32.83418188072324
100
AcDbArc
 50
334.624342321587
 51
25.38074273063355
  0
ARC
  5
7EF
330
1A
100
AcDbEntity
  8
SEIHIN
  6
CONTINUOUS
100
AcDbCircle
 10
185.4237335606363
 20
382.3425617024659
 30
0.0
 40
32.83418188072324
100
AcDbArc
 50
214.6243423215825
 51
265.380742730638
  0
CIRCLE
  5
7F2
330
1A
100
AcDbEntity
  8
SEIHIN
  6
CONTINUOUS
100
AcDbCircle
 10
185.4237335606363
 20
382.3425617024659
 30
0.0
 40
44.99938188076189
  0
CIRCLE
  5
7F3
330
1A
100
AcDbEntity
  8
SEIHIN
  6
CONTINUOUS
100
AcDbCircle
 10
185.4237335606363
 20
382.3425617024659
 30
0.0
 40
27.2492818807054
  0
DIMENSION
  5
809
330
1A
100
AcDbEntity
  8
SUNPOU
  6
CONTINUOUS
100
AcDbDimension
  2
*D1
 10
135.4233894647214
 20
248.2792768929023
 30
0.0
 11
185.4233894647214
 21
253.2792768929023
 31
0.0
 12
20.0
 22
20.0
 32
0.0
 70
    32
  1
φ<>
  3
STANDARD
100
AcDbAlignedDimension
 13
235.4233894647214
 23
224.8424147118586
 33
0.0
 14
135.4233894647214
 24
224.8427147118586
 34
0.0
100
AcDbRotatedDimension
1001
ACAD
1000
DSTYLE
1002
{
1070
   140
1040
6.0
1070
    74
1070
     0
1070
   172
1070
     1
1070
    73
1070
     0
1070
   272
1070
     2
1070
    77
1070
     3
1070
   173
1070
     1
1070
   147
1040
2.0
1070
    42
1040
6.0
1070
    44
1040
3.0
1070
    43
1040
14.0
1070
   271
1070
     0
1070
   178
1070
     4
1070
   177
1070
     4
1070
   176
1070
     4
1070
   141
1040
150.0
1070
     7
1000
_OPEN
1070
     6
1000
_OPEN
1070
    41
1040
7.0
1002
}
  0
DIMENSION
  5
816
330
1A
100
AcDbEntity
  8
SUNPOU
  6
CONTINUOUS
100
AcDbDimension
  2
*D2
 10
155.5731894647214
 20
158.977809827732
 30
0.0
 11
185.4231894647213
 21
163.977809827732
 31
0.0
 12
20.0
 22
20.0
 32
0.0
 70
    32
  1
φ<>
  3
STANDARD
100
AcDbAlignedDimension
 13
215.2731894647213
 23
182.3425147118586
 33
0.0
 14
155.5731894647214
 24
182.3426147118586
 34
0.0
100
AcDbRotatedDimension
1001
ACAD
1000
DSTYLE
1002
{
1070
   140
1040
6.0
1070
    74
1070
     0
1070
   172
1070
     1
1070
    73
1070
     0
1070
   272
1070
     2
1070
    77
1070
     3
1070
   173
1070
     1
1070
   147
1040
2.0
1070
    42
1040
6.0
1070
    44
1040
3.0
1070
    43
1040
14.0
1070
   271
1070
     0
1070
   178
1070
     4
1070
   177
1070
     4
1070
   176
1070
     4
1070
   141
1040
150.0
1070
     7
1000
_OPEN
1070
     6
1000
_OPEN
1070
    41
1040
7.0
1002
}
  0
DIMENSION
  5
823
330
1A
100
AcDbEntity
  8
SUNPOU
  6
CONTINUOUS
100
AcDbDimension
  2
*D3
 10
148.5732894647213
 20
136.5580431178534
 30
0.0
 11
185.4232894647213
 21
141.5580431178534
 31
0.0
 12
20.0
 22
20.0
 32
0.0
 70
    32
  1
φ<>
  3
STANDARD
100
AcDbAlignedDimension
 13
222.2732894647214
 23
202.3424147118586
 33
0.0
 14
148.5732894647213
 24
202.3427147118586
 34
0.0
100
AcDbRotatedDimension
1001
ACAD
1000
DSTYLE
1002
{
1070
   140
1040
6.0
1070
    74
1070
     0
1070
   172
1070
     1
1070
    73
1070
     0
1070
   272
1070
     2
1070
    77
1070
     3
1070
   173
1070
     1
1070
   147
1040
2.0
1070
    42
1040
6.0
1070
    44
1040
3.0
1070
    43
1040
14.0
1070
   271
1070
     0
1070
   178
1070
     4
1070
   177
1070
     4
1070
   176
1070
     4
1070
   141
1040
150.0
1070
     7
1000
_OPEN
1070
     6
1000
_OPEN
1070
    41
1040
7.0
1002
}
  0
DIMENSION
  5
895
330
1A
100
AcDbEntity
  8
SUNPOU
  6
CONTINUOUS
100
AcDbDimension
  2
*D4
 10
258.1589638146349
 20
202.3424147118586
 30
0.0
 11
253.1589638146349
 21
212.3424147118586
 31
0.0
 12
20.0
 22
20.0
 32
0.0
 70
    32
  3
STANDARD
100
AcDbAlignedDimension
 13
231.4233894647214
 23
222.3424147118586
 33
0.0
 14
222.2732894647214
 24
202.3424147118586
 34
0.0
 50
90.0
100
AcDbRotatedDimension
1001
ACAD
1000
DSTYLE
1002
{
1070
   140
1040
6.0
1070
    74
1070
     0
1070
   172
1070
     1
1070
    73
1070
     0
1070
   272
1070
     2
1070
    77
1070
     3
1070
   173
1070
     1
1070
   147
1040
2.0
1070
    42
1040
6.0
1070
    44
1040
3.0
1070
    43
1040
14.0
1070
   271
1070
     0
1070
   178
1070
     4
1070
   177
1070
     4
1070
   176
1070
     4
1070
   141
1040
150.0
1070
     7
1000
_OPEN
1070
     6
1000
_OPEN
1070
    41
1040
7.0
1002
}
  0
DIMENSION
  5
8A3
330
1A
100
AcDbEntity
  8
SUNPOU
  6
CONTINUOUS
100
AcDbDimension
  2
*D5
 10
258.1589638146349
 20
182.3425147118586
 30
0.0
 11
253.1589638146349
 21
192.3424647118586
 31
0.0
 12
20.0
 22
20.0
 32
0.0
 70
    32
  3
STANDARD
100
AcDbAlignedDimension
 13
222.2732894647214
 23
202.3424147118586
 33
0.0
 14
215.2731894647213
 24
182.3425147118586
 34
0.0
 50
90.0
100
AcDbRotatedDimension
1001
ACAD
1000
DSTYLE
1002
{
1070
   140
1040
6.0
1070
    74
1070
     0
1070
   172
1070
     1
1070
    73
1070
     0
1070
   272
1070
     2
1070
    77
1070
     3
1070
    75
1070
     1
1070
   173
1070
     1
1070
   147
1040
2.0
1070
    42
1040
6.0
1070
    44
1040
3.0
1070
    43
1040
14.0
1070
   271
1070
     0
1070
   178
1070
     4
1070
   177
1070
     4
1070
   176
1070
     4
1070
   141
1040
150.0
1070
     7
1000
_OPEN
1070
     6
1000
_OPEN
1070
    41
1040
7.0
1002
}
  0
DIMENSION
  5
8C8
330
1A
100
AcDbEntity
  8
SUNPOU
  6
CONTINUOUS
100
AcDbDimension
  2
*D6
 10
278.4869702847675
 20
182.3425147118586
 30
0.0
 11
273.4869702847674
 21
203.5924647118586
 31
0.0
 12
20.0
 22
20.0
 32
0.0
 70
    32
  3
STANDARD
100
AcDbAlignedDimension
 13
235.4233894647214
 23
224.8424147118586
 33
0.0
 14
215.2731894647213
 24
182.3425147118586
 34
0.0
 50
90.0
100
AcDbRotatedDimension
1001
ACAD
1000
DSTYLE
1002
{
1070
   140
1040
6.0
1070
    74
1070
     0
1070
   172
1070
     1
1070
    73
1070
     0
1070
   272
1070
     2
1070
    77
1070
     3
1070
   173
1070
     1
1070
   147
1040
2.0
1070
    42
1040
6.0
1070
    44
1040
3.0
1070
    43
1040
14.0
1070
   271
1070
     0
1070
   178
1070
     4
1070
   177
1070
     4
1070
   176
1070
     4
1070
   141
1040
150.0
1070
     7
1000
_OPEN
1070
     6
1000
_OPEN
1070
    41
1040
7.0
1002
}
  0
DIMENSION
  5
8E2
330
1A
100
AcDbEntity
  8
SUNPOU
  6
CONTINUOUS
100
AcDbDimension
  2
*D7
 10
357.3118086529865
 20
136.6465576986022
 30
0.0
 11
392.3119713245444
 21
141.6465576986022
 31
0.0
 12
0.0
 22
-20.0
 32
0.0
 70
    32
  1
φ<>
  3
STANDARD
100
AcDbAlignedDimension
 13
427.3121339961023
 23
169.6423939966191
 33
0.0
 14
357.3118086529865
 24
169.6426206018682
 34
0.0
100
AcDbRotatedDimension
1001
ACAD
1000
DSTYLE
1002
{
1070
   140
1040
6.0
1070
    74
1070
     0
1070
   172
1070
     1
1070
    73
1070
     0
1070
   272
1070
     2
1070
    77
1070
     3
1070
   173
1070
     1
1070
   147
1040
2.0
1070
    42
1040
6.0
1070
    44
1040
3.0
1070
    43
1040
14.0
1070
   271
1070
     0
1070
   178
1070
     4
1070
   177
1070
     4
1070
   176
1070
     4
1070
   141
1040
150.0
1070
     7
1000
_OPEN
1070
     6
1000
_OPEN
1070
    41
1040
7.0
1002
}
  0
DIMENSION
  5
8EF
330
1A
100
AcDbEntity
  8
SUNPOU
  6
CONTINUOUS
100
AcDbDimension
  2
*D8
 10
361.56196252024
 20
241.173817583375
 30
0.0
 11
392.31201252024
 21
246.173817583375
 31
0.0
 12
0.0
 22
-20.0
 32
0.0
 70
    32
  1
φ<>
  3
STANDARD
100
AcDbAlignedDimension
 13
423.0620625202401
 23
205.9681147118586
 33
0.0
 14
361.56196252024
 24
205.9683147118586
 34
0.0
100
AcDbRotatedDimension
1001
ACAD
1000
DSTYLE
1002
{
1070
   140
1040
6.0
1070
    74
1070
     0
1070
   172
1070
     1
1070
    73
1070
     0
1070
   272
1070
     2
1070
    77
1070
     3
1070
   173
1070
     1
1070
   147
1040
2.0
1070
    42
1040
6.0
1070
    44
1040
3.0
1070
    43
1040
14.0
1070
   271
1070
     0
1070
   178
1070
     4
1070
   177
1070
     4
1070
   176
1070
     4
1070
   141
1040
150.0
1070
     7
1000
_OPEN
1070
     6
1000
_OPEN
1070
    41
1040
7.0
1002
}
  0
DIMENSION
  5
8FC
330
1A
100
AcDbEntity
  8
SUNPOU
  6
CONTINUOUS
100
AcDbDimension
  2
*D9
 10
342.31196252024
 20
261.322824044804
 30
0.0
 11
392.31201252024
 21
266.322824044804
 31
0.0
 12
0.0
 22
-20.0
 32
0.0
 70
    32
  1
φ<>
  3
STANDARD
100
AcDbAlignedDimension
 13
442.31206252024
 23
187.6424147118586
 33
0.0
 14
342.31196252024
 24
187.6427147118586
 34
0.0
100
AcDbRotatedDimension
1001
ACAD
1000
DSTYLE
1002
{
1070
   140
1040
6.0
1070
    74
1070
     0
1070
   172
1070
     1
1070
    73
1070
     0
1070
   272
1070
     2
1070
    77
1070
     3
1070
   173
1070
     1
1070
   147
1040
2.0
1070
    42
1040
6.0
1070
    44
1040
3.0
1070
    43
1040
14.0
1070
   271
1070
     0
1070
   178
1070
     4
1070
   177
1070
     4
1070
   176
1070
     4
1070
   141
1040
150.0
1070
     7
1000
_OPEN
1070
     6
1000
_OPEN
1070
    41
1040
7.0
1002
}
  0
DIMENSION
  5
96E
330
1A
100
AcDbEntity
  8
SUNPOU
  6
CONTINUOUS
100
AcDbDimension
  2
*D10
 10
466.6755079840375
 20
188.6424147118586
 30
0.0
 11
461.6755079840374
 21
206.6424147118586
 31
0.0
 12
0.0
 22
-20.0
 32
0.0
 70
    32
  3
STANDARD
100
AcDbAlignedDimension
 13
442.31206252024
 23
186.6424147118586
 33
0.0
 14
438.31206252024
 24
188.6424147118586
 34
0.0
 50
90.0
100
AcDbRotatedDimension
1001
ACAD
1000
DSTYLE
1002
{
1070
   140
1040
6.0
1070
    74
1070
     0
1070
   172
1070
     1
1070
    73
1070
     0
1070
   272
1070
     2
1070
    77
1070
     3
1070
   173
1070
     1
1070
   147
1040
2.0
1070
    42
1040
6.0
1070
    44
1040
3.0
1070
    43
1040
14.0
1070
   271
1070
     0
1070
   178
1070
     4
1070
   177
1070
     4
1070
   176
1070
     4
1070
   141
1040
150.0
1070
     7
1000
_OPEN
1070
     6
1000
_OPEN
1070
    41
1040
7.0
1002
}
  0
DIMENSION
  5
97D
330
1A
100
AcDbEntity
  8
SUNPOU
  6
CONTINUOUS
100
AcDbDimension
  2
*D11
 10
486.7840589435607
 20
166.6424206012495
 30
0.0
 11
481.7840589435607
 21
176.642417656554
 31
0.0
 12
0.0
 22
-20.0
 32
0.0
 70
    32
  3
STANDARD
100
AcDbAlignedDimension
 13
442.31206252024
 23
186.6424147118586
 33
0.0
 14
425.3095145730156
 24
166.6424206012495
 34
0.0
 50
90.0
100
AcDbRotatedDimension
1001
ACAD
1000
DSTYLE
1002
{
1070
   140
1040
6.0
1070
    74
1070
     0
1070
   172
1070
     1
1070
    73
1070
     0
1070
   272
1070
     2
1070
    77
1070
     3
1070
   173
1070
     1
1070
   147
1040
2.0
1070
    42
1040
6.0
1070
    44
1040
3.0
1070
    43
1040
14.0
1070
   271
1070
     0
1070
   178
1070
     4
1070
   177
1070
     4
1070
   176
1070
     4
1070
   141
1040
150.0
1070
     7
1000
_OPEN
1070
     6
1000
_OPEN
1070
    41
1040
7.0
1002
}
  0
DIMENSION
  5
98A
330
1A
100
AcDbEntity
  8
SUNPOU
  6
CONTINUOUS
100
AcDbDimension
  2
*D12
 10
506.5160411677218
 20
166.6424206012495
 30
0.0
 11
501.5160411677218
 21
192.5995475953897
 31
0.0
 12
0.0
 22
-20.0
 32
0.0
 70
    32
  3
STANDARD
100
AcDbAlignedDimension
 13
407.31216252024
 23
218.55667458953
 33
0.0
 14
425.3095145730156
 24
166.6424206012495
 34
0.0
 50
90.0
100
AcDbRotatedDimension
1001
ACAD
1000
DSTYLE
1002
{
1070
   140
1040
6.0
1070
    74
1070
     0
1070
   172
1070
     1
1070
    73
1070
     0
1070
   272
1070
     2
1070
    77
1070
     3
1070
   173
1070
     1
1070
   147
1040
2.0
1070
    42
1040
6.0
1070
    44
1040
3.0
1070
    43
1040
14.0
1070
   271
1070
     0
1070
   178
1070
     4
1070
   177
1070
     4
1070
   176
1070
     4
1070
   141
1040
150.0
1070
     7
1000
_OPEN
1070
     6
1000
_OPEN
1070
    41
1040
7.0
1002
}
  0
DIMENSION
  5
999
330
1A
100
AcDbEntity
  8
SUNPOU
  6
CONTINUOUS
100
AcDbDimension
  2
*D13
 10
684.648316732513
 20
298.231028196232
 30
0.0
 11
649.148317490266
 21
303.231028196232
 31
0.0
 12
2.203432241885366
 22
-35.22738240072271
 32
0.0
 70
    32
  1
穴径 φ<>
  3
STANDARD
100
AcDbAlignedDimension
 13
613.6483182480187
 23
342.8568768679886
 33
0.0
 14
684.648316732513
 24
342.5070433238109
 34
0.0
100
AcDbRotatedDimension
1001
ACAD
1000
DSTYLE
1002
{
1070
   140
1040
6.0
1070
    74
1070
     0
1070
   172
1070
     1
1070
    73
1070
     0
1070
   272
1070
     2
1070
    77
1070
     3
1070
   173
1070
     1
1070
   147
1040
2.0
1070
    42
1040
6.0
1070
    44
1040
3.0
1070
    43
1040
14.0
1070
   271
1070
     0
1070
   178
1070
     4
1070
   177
1070
     4
1070
   176
1070
     4
1070
   141
1040
150.0
1070
     7
1000
_OPEN
1070
     6
1000
_OPEN
1070
    41
1040
7.0
1002
}
  0
LINE
  5
9DC
330
1A
100
AcDbEntity
  8
NOKITOI
  6
CONTINUOUS
 62
     6
100
AcDbLine
 10
613.6481140113151
 20
345.6643208667771
 30
0.0
 11
586.6481140113149
 21
345.664428866777
 31
0.0
  0
LINE
  5
9DD
330
1A
100
AcDbEntity
  8
NOKITOI
  6
CONTINUOUS
 62
     6
100
AcDbLine
 10
613.6481140113151
 20
343.1643208667571
 30
0.0
 11
586.6481140113149
 21
343.1644288667571
 31
0.0
  0
LINE
  5
9DE
330
1A
100
AcDbEntity
  8
NOKITOI
  6
CONTINUOUS
 62
     6
100
AcDbLine
 10
613.6481140113151
 20
345.6643208667771
 30
0.0
 11
613.6481140113151
 21
343.1643208667571
 31
0.0
  0
LINE
  5
9E2
330
1A
100
AcDbEntity
  8
NOKITOI
  6
CONTINUOUS
 62
     6
100
AcDbLine
 10
684.6485468188817
 20
345.6640131521462
 30
0.0
 11
711.6485468188037
 21
345.6638871170929
 31
0.0
  0
LINE
  5
9E3
330
1A
100
AcDbEntity
  8
NOKITOI
  6
CONTINUOUS
 62
     6
100
AcDbLine
 10
684.6485251489694
 20
343.1640131522201
 30
0.0
 11
711.6485251488914
 21
343.1638871171669
 31
0.0
  0
LINE
  5
9E4
330
1A
100
AcDbEntity
  8
NOKITOI
  6
CONTINUOUS
 62
     6
100
AcDbLine
 10
684.6485468188817
 20
345.6640131521462
 30
0.0
 11
684.6485251489694
 21
343.1640131522201
 31
0.0
  0
VIEWPORT
  5
22
330
17
100
AcDbEntity
 67
     1
  8
0
100
AcDbViewport
 10
313.6808219178082
 20
148.5
 30
0.0
 40
627.3616438356165
 41
297.0
 68
     2
 69
     1
1001
ACAD
1000
MVIEW
1002
{
1070
    16
1010
0.0
1020
0.0
1030
0.0
1010
0.0
1020
0.0
1030
1.0
1040
0.0
1040
297.0
1040
313.6808219178082
1040
148.5
1040
50.0
1040
0.0
1040
0.0
1070
     0
1070
   100
1070
     1
1070
     0
1070
     0
1070
     0
1070
     0
1070
     0
1040
0.0
1040
0.0
1040
0.0
1040
1.0
1040
1.0
1040
10.0
1040
10.0
1070
     0
1002
{
1002
}
1002
}
  0
VIEWPORT
  5
64
330
17
100
AcDbEntity
 67
     1
  8
VIEWPORT
100
AcDbViewport
 10
210.0
 20
148.5
 30
0.0
 40
420.0
 41
297.0
 68
     1
 69
     2
1001
ACAD
1000
MVIEW
1002
{
1070
    16
1010
0.0
1020
0.0
1030
0.0
1010
0.0
1020
0.0
1030
1.0
1040
0.0
1040
605.8799999999998
1040
420.0
1040
297.0
1040
50.0
1040
0.0
1040
0.0
1070
     0
1070
   100
1070
     1
1070
     0
1070
     0
1070
     0
1070
     0
1070
     0
1040
0.0
1040
0.0
1040
0.0
1040
10.0
1040
10.0
1040
0.0
1040
0.0
1070
     0
1002
{
1002
}
1002
}
  0
ENDSEC
  0
SECTION
  2
OBJECTS
  0
DICTIONARY
  5
C
330
0
100
AcDbDictionary
  3
ACAD_GROUP
350
D
  3
ACAD_LAYOUT
350
9FC
  3
ACAD_MLINESTYLE
350
E
  3
ACAD_PLOTSETTINGS
350
9FD
1001
ACAD
1000
TREAT_AS_HARD
1070
     0
  0
DICTIONARY
  5
A29
330
1A
100
AcDbDictionary
  3
ACAD_LAYOUTSELFREF
350
A6D
1001
ACAD
1000
TREAT_AS_HARD
1070
     1
  0
DICTIONARY
  5
A27
330
17
100
AcDbDictionary
  3
ACAD_LAYOUTSELFREF
350
A6C
1001
ACAD
1000
TREAT_AS_HARD
1070
     1
  0
DICTIONARY
  5
D
102
{ACAD_REACTORS
330
C
102
}
330
C
100
AcDbDictionary
1001
ACAD
1000
TREAT_AS_HARD
1070
     0
  0
DICTIONARY
  5
9FC
102
{ACAD_REACTORS
330
C
102
}
330
C
100
AcDbDictionary
1001
ACAD
1000
TREAT_AS_HARD
1070
     0
  0
DICTIONARY
  5
E
102
{ACAD_REACTORS
330
C
102
}
330
C
100
AcDbDictionary
  3
STANDARD
350
13
1001
ACAD
1000
TREAT_AS_HARD
1070
     0
  0
DICTIONARY
  5
9FD
102
{ACAD_REACTORS
330
C
102
}
330
C
100
AcDbDictionary
1001
ACAD
1000
TREAT_AS_HARD
1070
     0
  0
XRECORD
  5
A6D
102
{ACAD_REACTORS
330
A29
102
}
330
A29
100
AcDbXrecord
340
1A
  0
XRECORD
  5
A6C
102
{ACAD_REACTORS
330
A27
102
}
330
A27
100
AcDbXrecord
340
17
  0
MLINESTYLE
  5
13
102
{ACAD_REACTORS
330
E
102
}
330
E
100
AcDbMlineStyle
  2
STANDARD
 70
     0
  3

 62
     0
 51
90.0
 52
90.0
 71
     2
 49
0.5
 62
   256
  6
BYLAYER
 49
-0.5
 62
   256
  6
BYLAYER
  0
ENDSEC
  0
EOF
