  0
SECTION
  2
HEADER
  9
$ACADVER
  1
AC1012
  9
$DWGCODEPAGE
  3
dos932
  9
$INSBASE
 10
0.0
 20
0.0
 30
0.0
  9
$EXTMIN
 10
10.05047808566086
 20
4.949376903717846
 30
0.0
  9
$EXTMAX
 10
806.2246110975902
 20
563.7825862828226
 30
0.0
  9
$LIMMIN
 10
0.0
 20
0.0
  9
$LIMMAX
 10
840.0
 20
594.0
  9
$ORTHOMODE
 70
     0
  9
$REGENMODE
 70
     1
  9
$FILLMODE
 70
     1
  9
$QTEXTMODE
 70
     0
  9
$MIRRTEXT
 70
     1
  9
$DRAGMODE
 70
     2
  9
$LTSCALE
 40
2.0
  9
$OSMODE
 70
    37
  9
$ATTMODE
 70
     1
  9
$TEXTSIZE
 40
5.0
  9
$TRACEWID
 40
1.0
  9
$TEXTSTYLE
  7
STANDARD
  9
$CLAYER
  8
SEIHIN
  9
$CELTYPE
  6
BYLAYER
  9
$CECOLOR
 62
   256
  9
$CELTSCALE
 40
1.0
  9
$DELOBJ
 70
     1
  9
$DISPSILH
 70
     0
  9
$DIMSCALE
 40
1.0
  9
$DIMASZ
 40
7.0
  9
$DIMEXO
 40
6.0
  9
$DIMDLI
 40
14.0
  9
$DIMRND
 40
0.0
  9
$DIMDLE
 40
0.0
  9
$DIMEXE
 40
3.0
  9
$DIMTP
 40
0.0
  9
$DIMTM
 40
0.0
  9
$DIMTXT
 40
6.0
  9
$DIMCEN
 40
150.0
  9
$DIMTSZ
 40
0.0
  9
$DIMTOL
 70
     0
  9
$DIMLIM
 70
     0
  9
$DIMTIH
 70
     0
  9
$DIMTOH
 70
     0
  9
$DIMSE1
 70
     0
  9
$DIMSE2
 70
     0
  9
$DIMTAD
 70
     3
  9
$DIMZIN
 70
     0
  9
$DIMBLK
  1

  9
$DIMASO
 70
     1
  9
$DIMSHO
 70
     1
  9
$DIMPOST
  1

  9
$DIMAPOST
  1

  9
$DIMALT
 70
     0
  9
$DIMALTD
 70
     2
  9
$DIMALTF
 40
25.4
  9
$DIMLFAC
 40
1.0
  9
$DIMTOFL
 70
     1
  9
$DIMTVP
 40
0.0
  9
$DIMTIX
 70
     0
  9
$DIMSOXD
 70
     0
  9
$DIMSAH
 70
     1
  9
$DIMBLK1
  1
OPEN
  9
$DIMBLK2
  1
OPEN
  9
$DIMSTYLE
  2
STANDARD
  9
$DIMCLRD
 70
   256
  9
$DIMCLRE
 70
   256
  9
$DIMCLRT
 70
   256
  9
$DIMTFAC
 40
1.0
  9
$DIMGAP
 40
2.0
  9
$DIMJUST
 70
     0
  9
$DIMSD1
 70
     0
  9
$DIMSD2
 70
     0
  9
$DIMTOLJ
 70
     1
  9
$DIMTZIN
 70
     0
  9
$DIMALTZ
 70
     0
  9
$DIMALTTZ
 70
     0
  9
$DIMFIT
 70
     3
  9
$DIMUPT
 70
     0
  9
$DIMUNIT
 70
     2
  9
$DIMDEC
 70
     0
  9
$DIMTDEC
 70
     0
  9
$DIMALTU
 70
     2
  9
$DIMALTTD
 70
     2
  9
$DIMTXSTY
  7
STANDARD
  9
$DIMAUNIT
 70
     0
  9
$LUNITS
 70
     2
  9
$LUPREC
 70
     4
  9
$SKETCHINC
 40
1.0
  9
$FILLETRAD
 40
20.0
  9
$AUNITS
 70
     0
  9
$AUPREC
 70
     0
  9
$MENU
  1
.
  9
$ELEVATION
 40
0.0
  9
$PELEVATION
 40
0.0
  9
$THICKNESS
 40
0.0
  9
$LIMCHECK
 70
     0
  9
$BLIPMODE
 70
     0
  9
$CHAMFERA
 40
20.0
  9
$CHAMFERB
 40
20.0
  9
$CHAMFERC
 40
40.0
  9
$CHAMFERD
 40
0.0
  9
$SKPOLY
 70
     0
  9
$TDCREATE
 40
2451274.387720254
  9
$TDUPDATE
 40
2452393.716727384
  9
$TDINDWG
 40
0.0407447801
  9
$TDUSRTIMER
 40
0.0407447801
  9
$USRTIMER
 70
     1
  9
$ANGBASE
 50
0.0
  9
$ANGDIR
 70
     0
  9
$PDMODE
 70
     0
  9
$PDSIZE
 40
0.0
  9
$PLINEWID
 40
0.0
  9
$COORDS
 70
     1
  9
$SPLFRAME
 70
     0
  9
$SPLINETYPE
 70
     6
  9
$SPLINESEGS
 70
     8
  9
$ATTDIA
 70
     0
  9
$ATTREQ
 70
     1
  9
$HANDLING
 70
 10241
  9
$HANDSEED
  5
A96
  9
$SURFTAB1
 70
     6
  9
$SURFTAB2
 70
     6
  9
$SURFTYPE
 70
     6
  9
$SURFU
 70
     6
  9
$SURFV
 70
     6
  9
$UCSNAME
  2

  9
$UCSORG
 10
0.0
 20
0.0
 30
0.0
  9
$UCSXDIR
 10
1.0
 20
0.0
 30
0.0
  9
$UCSYDIR
 10
0.0
 20
1.0
 30
0.0
  9
$PUCSNAME
  2

  9
$PUCSORG
 10
0.0
 20
0.0
 30
0.0
  9
$PUCSXDIR
 10
1.0
 20
0.0
 30
0.0
  9
$PUCSYDIR
 10
0.0
 20
1.0
 30
0.0
  9
$USERI1
 70
     0
  9
$USERI2
 70
     0
  9
$USERI3
 70
     0
  9
$USERI4
 70
     0
  9
$USERI5
 70
     0
  9
$USERR1
 40
0.0
  9
$USERR2
 40
0.0
  9
$USERR3
 40
0.0
  9
$USERR4
 40
0.0
  9
$USERR5
 40
0.0
  9
$WORLDVIEW
 70
     1
  9
$SHADEDGE
 70
     3
  9
$SHADEDIF
 70
    70
  9
$TILEMODE
 70
     1
  9
$MAXACTVP
 70
    16
  9
$PINSBASE
 10
0.0
 20
0.0
 30
0.0
  9
$PLIMCHECK
 70
     0
  9
$PEXTMIN
 10
0.0
 20
0.0
 30
0.0
  9
$PEXTMAX
 10
420.0
 20
297.0
 30
0.0
  9
$PLIMMIN
 10
0.0
 20
0.0
  9
$PLIMMAX
 10
420.0
 20
297.0
  9
$UNITMODE
 70
     0
  9
$VISRETAIN
 70
     0
  9
$PLINEGEN
 70
     0
  9
$PSLTSCALE
 70
     1
  9
$TREEDEPTH
 70
  3020
  9
$PICKSTYLE
 70
     1
  9
$CMLSTYLE
  2
STANDARD
  9
$CMLJUST
 70
     0
  9
$CMLSCALE
 40
1.0
  9
$SAVEIMAGES
 70
     1
  0
ENDSEC
  0
SECTION
  2
CLASSES
  0
CLASS
  1
ACDBDICTIONARYWDFLT
  2
AcDbDictionaryWithDefault
  3
AutoCAD 2000
 90
    32768
280
     0
281
     0
  0
CLASS
  1
ACDBPLACEHOLDER
  2
AcDbPlaceHolder
  3
AutoCAD 2000
 90
    32768
280
     0
281
     0
  0
CLASS
  1
LAYOUT
  2
AcDbLayout
  3
AutoCAD 2000
 90
    32768
280
     0
281
     0
  0
CLASS
  1
LONG_TRANSACTION
  2
AcDbLongTransaction
  3
AutoCAD 2000
 90
    32768
280
     0
281
     0
  0
CLASS
  1
LWPOLYLINE
  2
AcDbPolyline
  3
AutoCAD 2000
 90
    32768
280
     0
281
     1
  0
CLASS
  1
HATCH
  2
AcDbHatch
  3
AutoCAD 2000
 90
    32768
280
     0
281
     1
  0
CLASS
  1
XRECORD
  2
AcDbXrecord
  3
AutoCAD 2000
 90
    32768
280
     0
281
     0
  0
CLASS
  1
LONG_TRANSACTION
  2
AcDbLongTransaction
  3
AutoCAD 2000
 90
    32768
280
     0
281
     0
  0
CLASS
  1
LWPOLYLINE
  2
AcDbPolyline
  3
AutoCAD 2000
 90
    32768
280
     0
281
     1
  0
CLASS
  1
HATCH
  2
AcDbHatch
  3
AutoCAD 2000
 90
    32768
280
     0
281
     1
  0
CLASS
  1
XRECORD
  2
AcDbXrecord
  3
AutoCAD 2000
 90
    32768
280
     0
281
     0
  0
CLASS
  1
LONG_TRANSACTION
  2
AcDbLongTransaction
  3
AutoCAD 2000
 90
    32768
280
     0
281
     0
  0
CLASS
  1
LWPOLYLINE
  2
AcDbPolyline
  3
AutoCAD 2000
 90
    32768
280
     0
281
     1
  0
CLASS
  1
HATCH
  2
AcDbHatch
  3
AutoCAD 2000
 90
    32768
280
     0
281
     1
  0
CLASS
  1
XRECORD
  2
AcDbXrecord
  3
AutoCAD 2000
 90
    32768
280
     0
281
     0
  0
ENDSEC
  0
SECTION
  2
TABLES
  0
TABLE
  2
VPORT
  5
8
330
0
100
AcDbSymbolTable
 70
     2
  0
VPORT
  5
A93
330
8
100
AcDbSymbolTableRecord
100
AcDbViewportTableRecord
  2
*ACTIVE
 70
     0
 10
0.0
 20
0.0
 11
1.0
 21
1.0
 12
515.0384129544822
 22
288.4346847988059
 13
0.0
 23
0.0
 14
5.0
 24
5.0
 15
0.0
 25
0.0
 16
0.0
 26
0.0
 36
1.0
 17
0.0
 27
0.0
 37
0.0
 40
582.3519274500037
 41
2.169459962756052
 42
50.0
 43
0.0
 44
0.0
 50
0.0
 51
0.0
 71
     0
 72
   100
 73
     1
 74
     0
 75
     0
 76
     0
 77
     0
 78
     0
  0
ENDTAB
  0
TABLE
  2
LTYPE
  5
5
330
0
100
AcDbSymbolTable
 70
     2
  0
LTYPE
  5
14
330
5
100
AcDbSymbolTableRecord
100
AcDbLinetypeTableRecord
  2
BYBLOCK
 70
     0
  3

 72
    65
 73
     0
 40
0.0
  0
LTYPE
  5
15
330
5
100
AcDbSymbolTableRecord
100
AcDbLinetypeTableRecord
  2
BYLAYER
 70
     0
  3

 72
    65
 73
     0
 40
0.0
  0
LTYPE
  5
16
330
5
100
AcDbSymbolTableRecord
100
AcDbLinetypeTableRecord
  2
CONTINUOUS
 70
     0
  3
Solid line
 72
    65
 73
     0
 40
0.0
  0
LTYPE
  5
135
330
5
100
AcDbSymbolTableRecord
100
AcDbLinetypeTableRecord
  2
CENTER
 70
     0
  3
____ _ ____ _ ____ _ ____ _ ____ _ ____ _ ____ 
 72
    65
 73
     4
 40
2.0
 49
1.25
 74
     0
 49
-0.25
 74
     0
 49
0.25
 74
     0
 49
-0.25
 74
     0
  0
ENDTAB
  0
TABLE
  2
LAYER
  5
2
330
0
100
AcDbSymbolTable
 70
     8
  0
LAYER
  5
F
330
2
100
AcDbSymbolTableRecord
100
AcDbLayerTableRecord
  2
0
 70
     0
 62
     7
  6
CONTINUOUS
  0
LAYER
  5
62
330
2
100
AcDbSymbolTableRecord
100
AcDbLayerTableRecord
  2
VIEWPORT
 70
     0
 62
     7
  6
CONTINUOUS
  0
LAYER
  5
65
330
2
100
AcDbSymbolTableRecord
100
AcDbLayerTableRecord
  2
ZUWAKU
 70
     0
 62
     7
  6
CONTINUOUS
  0
LAYER
  5
143
330
2
100
AcDbSymbolTableRecord
100
AcDbLayerTableRecord
  2
SEIHIN
 70
     0
 62
     3
  6
CONTINUOUS
  0
LAYER
  5
144
330
2
100
AcDbSymbolTableRecord
100
AcDbLayerTableRecord
  2
SUNPOU
 70
     0
 62
     4
  6
CONTINUOUS
  0
LAYER
  5
145
330
2
100
AcDbSymbolTableRecord
100
AcDbLayerTableRecord
  2
CENTER_L
 70
     0
 62
     1
  6
CENTER
  0
LAYER
  5
89C
330
2
100
AcDbSymbolTableRecord
100
AcDbLayerTableRecord
  2
NOKITOI
 70
     0
 62
     6
  6
CONTINUOUS
  0
LAYER
  5
8A5
330
2
100
AcDbSymbolTableRecord
100
AcDbLayerTableRecord
  2
DEFPOINTS
 70
     0
 62
     7
  6
CONTINUOUS
  0
ENDTAB
  0
TABLE
  2
STYLE
  5
3
330
0
100
AcDbSymbolTable
 70
     1
  0
STYLE
  5
10
330
3
100
AcDbSymbolTableRecord
100
AcDbTextStyleTableRecord
  2
STANDARD
 70
     0
 40
0.0
 41
1.0
 50
0.0
 71
     0
 42
5.0
  3
TXT
  4
bigfont.shx
  0
ENDTAB
  0
TABLE
  2
VIEW
  5
6
330
0
100
AcDbSymbolTable
 70
     0
  0
ENDTAB
  0
TABLE
  2
UCS
  5
7
330
0
100
AcDbSymbolTable
 70
     0
  0
ENDTAB
  0
TABLE
  2
APPID
  5
9
330
0
100
AcDbSymbolTable
 70
     1
  0
APPID
  5
11
330
9
100
AcDbSymbolTableRecord
100
AcDbRegAppTableRecord
  2
ACAD
 70
     0
  0
ENDTAB
  0
TABLE
  2
DIMSTYLE
  5
A
330
0
100
AcDbSymbolTable
 70
     1
  0
DIMSTYLE
105
1D
102
{ACAD_REACTORS
330
8AA
330
8B7
330
8C4
330
934
330
941
330
94E
330
9C0
330
9CF
330
9DC
330
9F4
102
}
330
A
100
AcDbSymbolTableRecord
100
AcDbDimStyleTableRecord
  2
STANDARD
 70
     0
  3

  4

  5

  6

  7

 40
1.0
 41
0.18
 42
0.0625
 43
0.38
 44
0.18
 45
0.0
 46
0.0
 47
0.0
 48
0.0
140
0.18
141
0.09
142
0.0
143
25.4
144
1.0
145
0.0
146
1.0
147
0.09
 71
     0
 72
     0
 73
     1
 74
     1
 75
     0
 76
     0
 77
     0
 78
     0
170
     0
171
     2
172
     0
173
     0
174
     0
175
     0
176
     0
177
     0
178
     0
270
     2
271
     4
272
     4
273
     2
274
     2
340
10
275
     0
280
     0
281
     0
282
     0
283
     1
284
     0
285
     0
286
     0
287
     3
288
     0
  0
ENDTAB
  0
TABLE
  2
BLOCK_RECORD
  5
1
330
0
100
AcDbSymbolTable
 70
    11
  0
BLOCK_RECORD
  5
1A
102
{ACAD_XDICTIONARY
360
A51
102
}
330
1
100
AcDbSymbolTableRecord
100
AcDbBlockTableRecord
  2
*MODEL_SPACE
  0
BLOCK_RECORD
  5
17
102
{ACAD_XDICTIONARY
360
A4F
102
}
330
1
100
AcDbSymbolTableRecord
100
AcDbBlockTableRecord
  2
*PAPER_SPACE
  0
BLOCK_RECORD
  5
6D
330
1
100
AcDbSymbolTableRecord
100
AcDbBlockTableRecord
  2
_OPEN
  0
BLOCK_RECORD
  5
89D
330
1
100
AcDbSymbolTableRecord
100
AcDbBlockTableRecord
  2
*D1
  0
BLOCK_RECORD
  5
8AB
330
1
100
AcDbSymbolTableRecord
100
AcDbBlockTableRecord
  2
*D2
  0
BLOCK_RECORD
  5
8B8
330
1
100
AcDbSymbolTableRecord
100
AcDbBlockTableRecord
  2
*D3
  0
BLOCK_RECORD
  5
928
330
1
100
AcDbSymbolTableRecord
100
AcDbBlockTableRecord
  2
*D4
  0
BLOCK_RECORD
  5
935
330
1
100
AcDbSymbolTableRecord
100
AcDbBlockTableRecord
  2
*D5
  0
BLOCK_RECORD
  5
942
330
1
100
AcDbSymbolTableRecord
100
AcDbBlockTableRecord
  2
*D6
  0
BLOCK_RECORD
  5
9B2
330
1
100
AcDbSymbolTableRecord
100
AcDbBlockTableRecord
  2
*D7
  0
BLOCK_RECORD
  5
9C1
330
1
100
AcDbSymbolTableRecord
100
AcDbBlockTableRecord
  2
*D8
  0
BLOCK_RECORD
  5
9D0
330
1
100
AcDbSymbolTableRecord
100
AcDbBlockTableRecord
  2
*D9
  0
BLOCK_RECORD
  5
9E8
330
1
100
AcDbSymbolTableRecord
100
AcDbBlockTableRecord
  2
*D10
  0
ENDTAB
  0
ENDSEC
  0
SECTION
  2
BLOCKS
  0
BLOCK
  5
1B
330
1A
100
AcDbEntity
  8
0
100
AcDbBlockBegin
  2
*MODEL_SPACE
 70
     0
 10
0.0
 20
0.0
 30
0.0
  3
*MODEL_SPACE
  1

  0
ENDBLK
  5
1C
330
1A
100
AcDbEntity
  8
0
100
AcDbBlockEnd
  0
BLOCK
  5
18
330
17
100
AcDbEntity
 67
     1
  8
0
100
AcDbBlockBegin
  2
*PAPER_SPACE
 70
     0
 10
0.0
 20
0.0
 30
0.0
  3
*PAPER_SPACE
  1

  0
ENDBLK
  5
19
330
17
100
AcDbEntity
 67
     1
  8
0
100
AcDbBlockEnd
  0
BLOCK
  5
6E
330
6D
100
AcDbEntity
  8
0
100
AcDbBlockBegin
  2
_OPEN
 70
     0
 10
0.0
 20
0.0
 30
0.0
  3
_OPEN
  1

  0
LINE
  5
6F
330
6D
100
AcDbEntity
  8
0
  6
BYBLOCK
 62
     0
100
AcDbLine
 10
-1.0
 20
0.1666666666666666
 30
0.0
 11
0.0
 21
0.0
 31
0.0
  0
LINE
  5
70
330
6D
100
AcDbEntity
  8
0
  6
BYBLOCK
 62
     0
100
AcDbLine
 10
0.0
 20
0.0
 30
0.0
 11
-1.0
 21
-0.1666666666666666
 31
0.0
  0
LINE
  5
71
330
6D
100
AcDbEntity
  8
0
  6
BYBLOCK
 62
     0
100
AcDbLine
 10
0.0
 20
0.0
 30
0.0
 11
-1.0
 21
0.0
 31
0.0
  0
ENDBLK
  5
72
330
6D
100
AcDbEntity
  8
0
100
AcDbBlockEnd
  0
BLOCK
  5
8DB
330
89D
100
AcDbEntity
  8
0
100
AcDbBlockBegin
  2
*D1
 70
     1
 10
0.0
 20
0.0
 30
0.0
  3
*D1
  1

  0
LINE
  5
8DC
330
89D
100
AcDbEntity
  8
0
  6
BYBLOCK
 62
     4
100
AcDbLine
 10
241.9463683613822
 20
246.6195219448207
 30
0.0
 11
241.9463683613822
 21
265.4667284956537
 31
0.0
  0
LINE
  5
8DD
330
89D
100
AcDbEntity
  8
0
  6
BYBLOCK
 62
     4
100
AcDbLine
 10
131.9463683613821
 20
246.6199219448208
 30
0.0
 11
131.9463683613821
 21
265.4667284956537
 31
0.0
  0
LINE
  5
8DE
330
89D
100
AcDbEntity
  8
0
  6
BYBLOCK
 62
     4
100
AcDbLine
 10
234.9463683613822
 20
262.4667284956538
 30
0.0
 11
138.9463683613821
 21
262.4667284956538
 31
0.0
  0
INSERT
  5
8DF
330
89D
100
AcDbEntity
  8
0
  6
BYBLOCK
 62
     4
100
AcDbBlockReference
  2
_OPEN
 10
241.9463683613822
 20
262.4667284956538
 30
0.0
 41
7.0
 42
7.0
 43
7.0
  0
INSERT
  5
8E0
330
89D
100
AcDbEntity
  8
0
  6
BYBLOCK
 62
     4
100
AcDbBlockReference
  2
_OPEN
 10
131.9463683613821
 20
262.4667284956538
 30
0.0
 41
7.0
 42
7.0
 43
7.0
 50
180.0
  0
MTEXT
  5
8E1
330
89D
100
AcDbEntity
  8
0
  6
BYBLOCK
 62
     4
100
AcDbMText
 10
186.9463683613822
 20
267.4667284956537
 30
0.0
 40
6.0
 41
0.0
 71
     5
 72
     1
  1
\A1;φ110
1001
ACAD
1000
MTEXTBEGIN
1070
    73
1070
     1
1070
    44
1040
1.0
1070
    74
1070
     0
1000
MTEXTEND
1000
MTEXTBEGIN
1070
    73
1070
     1
1070
    44
1040
1.0
1070
    74
1070
     0
1000
MTEXTEND
1000
MTEXTBEGIN
1070
    73
1070
     1
1070
    44
1040
1.0
1070
    74
1070
     0
1000
MTEXTEND
  0
POINT
  5
8E2
330
89D
100
AcDbEntity
  8
DEFPOINTS
  6
BYBLOCK
 62
     0
100
AcDbPoint
 10
241.9463683613822
 20
240.6195219448207
 30
0.0
  0
POINT
  5
8E3
330
89D
100
AcDbEntity
  8
DEFPOINTS
  6
BYBLOCK
 62
     0
100
AcDbPoint
 10
131.9463683613821
 20
240.6199219448208
 30
0.0
  0
POINT
  5
8E4
330
89D
100
AcDbEntity
  8
DEFPOINTS
  6
BYBLOCK
 62
     0
100
AcDbPoint
 10
131.9463683613821
 20
262.4667284956538
 30
0.0
  0
ENDBLK
  5
8E5
330
89D
100
AcDbEntity
  8
0
100
AcDbBlockEnd
  0
BLOCK
  5
8FC
330
8AB
100
AcDbEntity
  8
0
100
AcDbBlockBegin
  2
*D2
 70
     1
 10
0.0
 20
0.0
 30
0.0
  3
*D2
  1

  0
LINE
  5
8FD
330
8AB
100
AcDbEntity
  8
0
  6
BYBLOCK
 62
     4
100
AcDbLine
 10
223.7462683613821
 20
185.6195219448207
 30
0.0
 11
223.7462683613821
 21
162.419127929365
 31
0.0
  0
LINE
  5
8FE
330
8AB
100
AcDbEntity
  8
0
  6
BYBLOCK
 62
     4
100
AcDbLine
 10
150.1462683613822
 20
185.6198219448206
 30
0.0
 11
150.1462683613822
 21
162.419127929365
 31
0.0
  0
LINE
  5
8FF
330
8AB
100
AcDbEntity
  8
0
  6
BYBLOCK
 62
     4
100
AcDbLine
 10
216.7462683613821
 20
165.419127929365
 30
0.0
 11
157.1462683613822
 21
165.419127929365
 31
0.0
  0
INSERT
  5
900
330
8AB
100
AcDbEntity
  8
0
  6
BYBLOCK
 62
     4
100
AcDbBlockReference
  2
_OPEN
 10
223.7462683613821
 20
165.419127929365
 30
0.0
 41
7.0
 42
7.0
 43
7.0
  0
INSERT
  5
901
330
8AB
100
AcDbEntity
  8
0
  6
BYBLOCK
 62
     4
100
AcDbBlockReference
  2
_OPEN
 10
150.1462683613822
 20
165.419127929365
 30
0.0
 41
7.0
 42
7.0
 43
7.0
 50
180.0
  0
MTEXT
  5
902
330
8AB
100
AcDbEntity
  8
0
  6
BYBLOCK
 62
     4
100
AcDbMText
 10
186.9462683613822
 20
170.419127929365
 30
0.0
 40
6.0
 41
0.0
 71
     5
 72
     1
  1
\A1;φ74
1001
ACAD
1000
MTEXTBEGIN
1070
    73
1070
     1
1070
    44
1040
1.0
1070
    74
1070
     0
1000
MTEXTEND
1000
MTEXTBEGIN
1070
    73
1070
     1
1070
    44
1040
1.0
1070
    74
1070
     0
1000
MTEXTEND
1000
MTEXTBEGIN
1070
    73
1070
     1
1070
    44
1040
1.0
1070
    74
1070
     0
1000
MTEXTEND
  0
POINT
  5
903
330
8AB
100
AcDbEntity
  8
DEFPOINTS
  6
BYBLOCK
 62
     0
100
AcDbPoint
 10
223.7462683613821
 20
191.6195219448207
 30
0.0
  0
POINT
  5
904
330
8AB
100
AcDbEntity
  8
DEFPOINTS
  6
BYBLOCK
 62
     0
100
AcDbPoint
 10
150.1462683613822
 20
191.6198219448206
 30
0.0
  0
POINT
  5
905
330
8AB
100
AcDbEntity
  8
DEFPOINTS
  6
BYBLOCK
 62
     0
100
AcDbPoint
 10
150.1462683613822
 20
165.419127929365
 30
0.0
  0
ENDBLK
  5
906
330
8AB
100
AcDbEntity
  8
0
100
AcDbBlockEnd
  0
BLOCK
  5
91D
330
8B8
100
AcDbEntity
  8
0
100
AcDbBlockBegin
  2
*D3
 70
     1
 10
0.0
 20
0.0
 30
0.0
  3
*D3
  1

  0
LINE
  5
91E
330
8B8
100
AcDbEntity
  8
0
  6
BYBLOCK
 62
     4
100
AcDbLine
 10
232.5463683613822
 20
205.6195219448207
 30
0.0
 11
232.5463683613822
 21
139.8441487965294
 31
0.0
  0
LINE
  5
91F
330
8B8
100
AcDbEntity
  8
0
  6
BYBLOCK
 62
     4
100
AcDbLine
 10
141.3462683613821
 20
205.6198219448207
 30
0.0
 11
141.3462683613821
 21
139.8441487965294
 31
0.0
  0
LINE
  5
920
330
8B8
100
AcDbEntity
  8
0
  6
BYBLOCK
 62
     4
100
AcDbLine
 10
225.5463683613823
 20
142.8441487965294
 30
0.0
 11
148.3462683613821
 21
142.8441487965294
 31
0.0
  0
INSERT
  5
921
330
8B8
100
AcDbEntity
  8
0
  6
BYBLOCK
 62
     4
100
AcDbBlockReference
  2
_OPEN
 10
232.5463683613822
 20
142.8441487965294
 30
0.0
 41
7.0
 42
7.0
 43
7.0
  0
INSERT
  5
922
330
8B8
100
AcDbEntity
  8
0
  6
BYBLOCK
 62
     4
100
AcDbBlockReference
  2
_OPEN
 10
141.3462683613821
 20
142.8441487965294
 30
0.0
 41
7.0
 42
7.0
 43
7.0
 50
180.0
  0
MTEXT
  5
923
330
8B8
100
AcDbEntity
  8
0
  6
BYBLOCK
 62
     4
100
AcDbMText
 10
186.9463183613822
 20
147.8441487965294
 30
0.0
 40
6.0
 41
0.0
 71
     5
 72
     1
  1
\A1;φ91
1001
ACAD
1000
MTEXTBEGIN
1070
    73
1070
     1
1070
    44
1040
1.0
1070
    74
1070
     0
1000
MTEXTEND
1000
MTEXTBEGIN
1070
    73
1070
     1
1070
    44
1040
1.0
1070
    74
1070
     0
1000
MTEXTEND
1000
MTEXTBEGIN
1070
    73
1070
     1
1070
    44
1040
1.0
1070
    74
1070
     0
1000
MTEXTEND
  0
POINT
  5
924
330
8B8
100
AcDbEntity
  8
DEFPOINTS
  6
BYBLOCK
 62
     0
100
AcDbPoint
 10
232.5463683613822
 20
211.6195219448207
 30
0.0
  0
POINT
  5
925
330
8B8
100
AcDbEntity
  8
DEFPOINTS
  6
BYBLOCK
 62
     0
100
AcDbPoint
 10
141.3462683613821
 20
211.6198219448207
 30
0.0
  0
POINT
  5
926
330
8B8
100
AcDbEntity
  8
DEFPOINTS
  6
BYBLOCK
 62
     0
100
AcDbPoint
 10
141.3462683613821
 20
142.8441487965294
 30
0.0
  0
ENDBLK
  5
927
330
8B8
100
AcDbEntity
  8
0
100
AcDbBlockEnd
  0
BLOCK
  5
9A7
330
928
100
AcDbEntity
  8
0
100
AcDbBlockBegin
  2
*D4
 70
     1
 10
0.0
 20
0.0
 30
0.0
  3
*D4
  1

  0
LINE
  5
9A8
330
928
100
AcDbEntity
  8
0
  6
BYBLOCK
 62
     4
100
AcDbLine
 10
420.8548090366559
 20
183.4194084534114
 30
0.0
 11
420.8548090366559
 21
156.9156492556585
 31
0.0
  0
LINE
  5
9A9
330
928
100
AcDbEntity
  8
0
  6
BYBLOCK
 62
     4
100
AcDbLine
 10
332.8550090366943
 20
183.4198275060644
 30
0.0
 11
332.8550090366943
 21
156.9156492556585
 31
0.0
  0
LINE
  5
9AA
330
928
100
AcDbEntity
  8
0
  6
BYBLOCK
 62
     4
100
AcDbLine
 10
413.8548090366559
 20
159.9156492556585
 30
0.0
 11
339.8550090366942
 21
159.9156492556585
 31
0.0
  0
INSERT
  5
9AB
330
928
100
AcDbEntity
  8
0
  6
BYBLOCK
 62
     4
100
AcDbBlockReference
  2
_OPEN
 10
420.8548090366559
 20
159.9156492556585
 30
0.0
 41
7.0
 42
7.0
 43
7.0
  0
INSERT
  5
9AC
330
928
100
AcDbEntity
  8
0
  6
BYBLOCK
 62
     4
100
AcDbBlockReference
  2
_OPEN
 10
332.8550090366943
 20
159.9156492556585
 30
0.0
 41
7.0
 42
7.0
 43
7.0
 50
180.0
  0
MTEXT
  5
9AD
330
928
100
AcDbEntity
  8
0
  6
BYBLOCK
 62
     4
100
AcDbMText
 10
376.8549090366751
 20
164.9156492556585
 30
0.0
 40
6.0
 41
0.0
 71
     5
 72
     1
  1
\A1;φ88
1001
ACAD
1000
MTEXTBEGIN
1070
    73
1070
     1
1070
    44
1040
1.0
1070
    74
1070
     0
1000
MTEXTEND
1000
MTEXTBEGIN
1070
    73
1070
     1
1070
    44
1040
1.0
1070
    74
1070
     0
1000
MTEXTEND
1000
MTEXTBEGIN
1070
    73
1070
     1
1070
    44
1040
1.0
1070
    74
1070
     0
1000
MTEXTEND
  0
POINT
  5
9AE
330
928
100
AcDbEntity
  8
DEFPOINTS
  6
BYBLOCK
 62
     0
100
AcDbPoint
 10
420.8548090366559
 20
189.4194084534114
 30
0.0
  0
POINT
  5
9AF
330
928
100
AcDbEntity
  8
DEFPOINTS
  6
BYBLOCK
 62
     0
100
AcDbPoint
 10
332.8550090366943
 20
189.4198275060644
 30
0.0
  0
POINT
  5
9B0
330
928
100
AcDbEntity
  8
DEFPOINTS
  6
BYBLOCK
 62
     0
100
AcDbPoint
 10
332.8550090366943
 20
159.9156492556585
 30
0.0
  0
ENDBLK
  5
9B1
330
928
100
AcDbEntity
  8
0
100
AcDbBlockEnd
  0
BLOCK
  5
986
330
935
100
AcDbEntity
  8
0
100
AcDbBlockBegin
  2
*D5
 70
     1
 10
0.0
 20
0.0
 30
0.0
  3
*D5
  1

  0
LINE
  5
987
330
935
100
AcDbEntity
  8
0
  6
BYBLOCK
 62
     4
100
AcDbLine
 10
415.3553181036695
 20
239.1268219448207
 30
0.0
 11
415.3553181036695
 21
268.0413031623475
 31
0.0
  0
LINE
  5
988
330
935
100
AcDbEntity
  8
0
  6
BYBLOCK
 62
     4
100
AcDbLine
 10
338.3553181036694
 20
239.1271219448207
 30
0.0
 11
338.3553181036694
 21
268.0413031623475
 31
0.0
  0
LINE
  5
989
330
935
100
AcDbEntity
  8
0
  6
BYBLOCK
 62
     4
100
AcDbLine
 10
408.3553181036695
 20
265.0413031623475
 30
0.0
 11
345.3553181036694
 21
265.0413031623475
 31
0.0
  0
INSERT
  5
98A
330
935
100
AcDbEntity
  8
0
  6
BYBLOCK
 62
     4
100
AcDbBlockReference
  2
_OPEN
 10
415.3553181036695
 20
265.0413031623475
 30
0.0
 41
7.0
 42
7.0
 43
7.0
  0
INSERT
  5
98B
330
935
100
AcDbEntity
  8
0
  6
BYBLOCK
 62
     4
100
AcDbBlockReference
  2
_OPEN
 10
338.3553181036694
 20
265.0413031623475
 30
0.0
 41
7.0
 42
7.0
 43
7.0
 50
180.0
  0
MTEXT
  5
98C
330
935
100
AcDbEntity
  8
0
  6
BYBLOCK
 62
     4
100
AcDbMText
 10
376.8553181036694
 20
270.0413031623475
 30
0.0
 40
6.0
 41
0.0
 71
     5
 72
     1
  1
\A1;φ77
1001
ACAD
1000
MTEXTBEGIN
1070
    73
1070
     1
1070
    44
1040
1.0
1070
    74
1070
     0
1000
MTEXTEND
1000
MTEXTBEGIN
1070
    73
1070
     1
1070
    44
1040
1.0
1070
    74
1070
     0
1000
MTEXTEND
1000
MTEXTBEGIN
1070
    73
1070
     1
1070
    44
1040
1.0
1070
    74
1070
     0
1000
MTEXTEND
  0
POINT
  5
98D
330
935
100
AcDbEntity
  8
DEFPOINTS
  6
BYBLOCK
 62
     0
100
AcDbPoint
 10
415.3553181036695
 20
233.1268219448208
 30
0.0
  0
POINT
  5
98E
330
935
100
AcDbEntity
  8
DEFPOINTS
  6
BYBLOCK
 62
     0
100
AcDbPoint
 10
338.3553181036694
 20
233.1271219448207
 30
0.0
  0
POINT
  5
98F
330
935
100
AcDbEntity
  8
DEFPOINTS
  6
BYBLOCK
 62
     0
100
AcDbPoint
 10
338.3553181036694
 20
265.0413031623475
 30
0.0
  0
ENDBLK
  5
990
330
935
100
AcDbEntity
  8
0
100
AcDbBlockEnd
  0
BLOCK
  5
965
330
942
100
AcDbEntity
  8
0
100
AcDbBlockBegin
  2
*D6
 70
     1
 10
0.0
 20
0.0
 30
0.0
  3
*D6
  1

  0
LINE
  5
966
330
942
100
AcDbEntity
  8
0
  6
BYBLOCK
 62
     4
100
AcDbLine
 10
426.8553181036694
 20
219.4195219448207
 30
0.0
 11
426.8553181036694
 21
286.9320672732735
 31
0.0
  0
LINE
  5
967
330
942
100
AcDbEntity
  8
0
  6
BYBLOCK
 62
     4
100
AcDbLine
 10
326.8552181036694
 20
219.4198219448207
 30
0.0
 11
326.8552181036694
 21
286.9320672732735
 31
0.0
  0
LINE
  5
968
330
942
100
AcDbEntity
  8
0
  6
BYBLOCK
 62
     4
100
AcDbLine
 10
419.8553181036695
 20
283.9320672732735
 30
0.0
 11
333.8552181036694
 21
283.9320672732735
 31
0.0
  0
INSERT
  5
969
330
942
100
AcDbEntity
  8
0
  6
BYBLOCK
 62
     4
100
AcDbBlockReference
  2
_OPEN
 10
426.8553181036694
 20
283.9320672732735
 30
0.0
 41
7.0
 42
7.0
 43
7.0
  0
INSERT
  5
96A
330
942
100
AcDbEntity
  8
0
  6
BYBLOCK
 62
     4
100
AcDbBlockReference
  2
_OPEN
 10
326.8552181036694
 20
283.9320672732735
 30
0.0
 41
7.0
 42
7.0
 43
7.0
 50
180.0
  0
MTEXT
  5
96B
330
942
100
AcDbEntity
  8
0
  6
BYBLOCK
 62
     4
100
AcDbMText
 10
376.8552681036694
 20
288.9320672732735
 30
0.0
 40
6.0
 41
0.0
 71
     5
 72
     1
  1
\A1;φ100
1001
ACAD
1000
MTEXTBEGIN
1070
    73
1070
     1
1070
    44
1040
1.0
1070
    74
1070
     0
1000
MTEXTEND
1000
MTEXTBEGIN
1070
    73
1070
     1
1070
    44
1040
1.0
1070
    74
1070
     0
1000
MTEXTEND
1000
MTEXTBEGIN
1070
    73
1070
     1
1070
    44
1040
1.0
1070
    74
1070
     0
1000
MTEXTEND
  0
POINT
  5
96C
330
942
100
AcDbEntity
  8
DEFPOINTS
  6
BYBLOCK
 62
     0
100
AcDbPoint
 10
426.8553181036694
 20
213.4195219448207
 30
0.0
  0
POINT
  5
96D
330
942
100
AcDbEntity
  8
DEFPOINTS
  6
BYBLOCK
 62
     0
100
AcDbPoint
 10
326.8552181036694
 20
213.4198219448207
 30
0.0
  0
POINT
  5
96E
330
942
100
AcDbEntity
  8
DEFPOINTS
  6
BYBLOCK
 62
     0
100
AcDbPoint
 10
326.8552181036694
 20
283.9320672732735
 30
0.0
  0
ENDBLK
  5
96F
330
942
100
AcDbEntity
  8
0
100
AcDbBlockEnd
  0
BLOCK
  5
9B3
330
9B2
100
AcDbEntity
  8
0
100
AcDbBlockBegin
  2
*D7
 70
     1
 10
0.0
 20
0.0
 30
0.0
  3
*D7
  1

  0
LINE
  5
9B4
330
9B2
100
AcDbEntity
  8
0
  6
BYBLOCK
 62
     4
100
AcDbLine
 10
432.8553181036695
 20
212.4195219448207
 30
0.0
 11
451.5450598418428
 21
212.4195219448207
 31
0.0
  0
LINE
  5
9B5
330
9B2
100
AcDbEntity
  8
0
  6
BYBLOCK
 62
     4
100
AcDbLine
 10
428.8553181036695
 20
214.4195219448207
 30
0.0
 11
451.5450598418428
 21
214.4195219448207
 31
0.0
  0
LINE
  5
9B6
330
9B2
100
AcDbEntity
  8
0
  6
BYBLOCK
 62
     4
100
AcDbLine
 10
448.5450598418428
 20
205.4195219448208
 30
0.0
 11
448.5450598418428
 21
198.4195219448207
 31
0.0
  0
LINE
  5
9B7
330
9B2
100
AcDbEntity
  8
0
  6
BYBLOCK
 62
     4
100
AcDbLine
 10
448.5450598418428
 20
221.4195219448207
 30
0.0
 11
448.5450598418428
 21
236.4195219448208
 31
0.0
  0
LINE
  5
9B8
330
9B2
100
AcDbEntity
  8
0
  6
BYBLOCK
 62
     4
100
AcDbLine
 10
448.5450598418428
 20
212.4195219448207
 30
0.0
 11
448.5450598418428
 21
214.4195219448207
 31
0.0
  0
INSERT
  5
9B9
330
9B2
100
AcDbEntity
  8
0
  6
BYBLOCK
 62
     4
100
AcDbBlockReference
  2
_OPEN
 10
448.5450598418428
 20
212.4195219448207
 30
0.0
 41
7.0
 42
7.0
 43
7.0
 50
90.0
  0
INSERT
  5
9BA
330
9B2
100
AcDbEntity
  8
0
  6
BYBLOCK
 62
     4
100
AcDbBlockReference
  2
_OPEN
 10
448.5450598418428
 20
214.4195219448207
 30
0.0
 41
7.0
 42
7.0
 43
7.0
 50
270.0
  0
MTEXT
  5
9BB
330
9B2
100
AcDbEntity
  8
0
  6
BYBLOCK
 62
     4
100
AcDbMText
 10
443.5450598418428
 20
232.4195219448208
 30
0.0
 40
6.0
 41
0.0
 71
     5
 72
     1
  1
\A1;2
 11
0.0
 21
1.0
 31
0.0
1001
ACAD
1000
MTEXTBEGIN
1070
    73
1070
     1
1070
    44
1040
1.0
1070
    74
1070
     0
1000
MTEXTEND
1000
MTEXTBEGIN
1070
    73
1070
     1
1070
    44
1040
1.0
1070
    74
1070
     0
1000
MTEXTEND
1000
MTEXTBEGIN
1070
    73
1070
     1
1070
    44
1040
1.0
1070
    74
1070
     0
1000
MTEXTEND
  0
POINT
  5
9BC
330
9B2
100
AcDbEntity
  8
DEFPOINTS
  6
BYBLOCK
 62
     0
100
AcDbPoint
 10
426.8553181036694
 20
212.4195219448207
 30
0.0
  0
POINT
  5
9BD
330
9B2
100
AcDbEntity
  8
DEFPOINTS
  6
BYBLOCK
 62
     0
100
AcDbPoint
 10
422.8553181036694
 20
214.4195219448207
 30
0.0
  0
POINT
  5
9BE
330
9B2
100
AcDbEntity
  8
DEFPOINTS
  6
BYBLOCK
 62
     0
100
AcDbPoint
 10
448.5450598418428
 20
214.4195219448207
 30
0.0
  0
ENDBLK
  5
9BF
330
9B2
100
AcDbEntity
  8
0
100
AcDbBlockEnd
  0
BLOCK
  5
9C2
330
9C1
100
AcDbEntity
  8
0
100
AcDbBlockBegin
  2
*D8
 70
     1
 10
0.0
 20
0.0
 30
0.0
  3
*D8
  1

  0
LINE
  5
9C3
330
9C1
100
AcDbEntity
  8
0
  6
BYBLOCK
 62
     4
100
AcDbLine
 10
432.8553181036695
 20
212.4195219448207
 30
0.0
 11
472.6123877051677
 21
212.4195219448207
 31
0.0
  0
LINE
  5
9C4
330
9C1
100
AcDbEntity
  8
0
  6
BYBLOCK
 62
     4
100
AcDbLine
 10
425.6647090366942
 20
187.4195219446822
 30
0.0
 11
472.6123877051677
 21
187.4195219446822
 31
0.0
  0
LINE
  5
9C5
330
9C1
100
AcDbEntity
  8
0
  6
BYBLOCK
 62
     4
100
AcDbLine
 10
469.6123877051677
 20
219.4195219448207
 30
0.0
 11
469.6123877051677
 21
226.4195219448208
 31
0.0
  0
LINE
  5
9C6
330
9C1
100
AcDbEntity
  8
0
  6
BYBLOCK
 62
     4
100
AcDbLine
 10
469.6123877051677
 20
180.4195219446821
 30
0.0
 11
469.6123877051677
 21
173.4195219446822
 31
0.0
  0
LINE
  5
9C7
330
9C1
100
AcDbEntity
  8
0
  6
BYBLOCK
 62
     4
100
AcDbLine
 10
469.6123877051677
 20
212.4195219448207
 30
0.0
 11
469.6123877051677
 21
187.4195219446822
 31
0.0
  0
INSERT
  5
9C8
330
9C1
100
AcDbEntity
  8
0
  6
BYBLOCK
 62
     4
100
AcDbBlockReference
  2
_OPEN
 10
469.6123877051677
 20
212.4195219448207
 30
0.0
 41
7.0
 42
7.0
 43
7.0
 50
270.0
  0
INSERT
  5
9C9
330
9C1
100
AcDbEntity
  8
0
  6
BYBLOCK
 62
     4
100
AcDbBlockReference
  2
_OPEN
 10
469.6123877051677
 20
187.4195219446822
 30
0.0
 41
7.0
 42
7.0
 43
7.0
 50
90.0
  0
MTEXT
  5
9CA
330
9C1
100
AcDbEntity
  8
0
  6
BYBLOCK
 62
     4
100
AcDbMText
 10
464.6123877051677
 20
199.9195219447514
 30
0.0
 40
6.0
 41
0.0
 71
     5
 72
     1
  1
\A1;25
 11
0.0
 21
1.0
 31
0.0
1001
ACAD
1000
MTEXTBEGIN
1070
    73
1070
     1
1070
    44
1040
1.0
1070
    74
1070
     0
1000
MTEXTEND
1000
MTEXTBEGIN
1070
    73
1070
     1
1070
    44
1040
1.0
1070
    74
1070
     0
1000
MTEXTEND
1000
MTEXTBEGIN
1070
    73
1070
     1
1070
    44
1040
1.0
1070
    74
1070
     0
1000
MTEXTEND
  0
POINT
  5
9CB
330
9C1
100
AcDbEntity
  8
DEFPOINTS
  6
BYBLOCK
 62
     0
100
AcDbPoint
 10
426.8553181036694
 20
212.4195219448207
 30
0.0
  0
POINT
  5
9CC
330
9C1
100
AcDbEntity
  8
DEFPOINTS
  6
BYBLOCK
 62
     0
100
AcDbPoint
 10
419.6647090366942
 20
187.4195219446822
 30
0.0
  0
POINT
  5
9CD
330
9C1
100
AcDbEntity
  8
DEFPOINTS
  6
BYBLOCK
 62
     0
100
AcDbPoint
 10
469.6123877051677
 20
187.4195219446822
 30
0.0
  0
ENDBLK
  5
9CE
330
9C1
100
AcDbEntity
  8
0
100
AcDbBlockEnd
  0
BLOCK
  5
9D1
330
9D0
100
AcDbEntity
  8
0
100
AcDbBlockBegin
  2
*D9
 70
     1
 10
0.0
 20
0.0
 30
0.0
  3
*D9
  1

  0
LINE
  5
9D2
330
9D0
100
AcDbEntity
  8
0
  6
BYBLOCK
 62
     4
100
AcDbLine
 10
397.8554181036694
 20
245.4808693700261
 30
0.0
 11
494.4430264013635
 21
245.4808693700261
 31
0.0
  0
LINE
  5
9D3
330
9D0
100
AcDbEntity
  8
0
  6
BYBLOCK
 62
     4
100
AcDbLine
 10
425.6647090366942
 20
187.4195219446822
 30
0.0
 11
494.4430264013635
 21
187.4195219446822
 31
0.0
  0
LINE
  5
9D4
330
9D0
100
AcDbEntity
  8
0
  6
BYBLOCK
 62
     4
100
AcDbLine
 10
491.4430264013636
 20
238.4808693700261
 30
0.0
 11
491.4430264013636
 21
194.4195219446822
 31
0.0
  0
INSERT
  5
9D5
330
9D0
100
AcDbEntity
  8
0
  6
BYBLOCK
 62
     4
100
AcDbBlockReference
  2
_OPEN
 10
491.4430264013636
 20
245.4808693700261
 30
0.0
 41
7.0
 42
7.0
 43
7.0
 50
90.0
  0
INSERT
  5
9D6
330
9D0
100
AcDbEntity
  8
0
  6
BYBLOCK
 62
     4
100
AcDbBlockReference
  2
_OPEN
 10
491.4430264013636
 20
187.4195219446822
 30
0.0
 41
7.0
 42
7.0
 43
7.0
 50
270.0
  0
MTEXT
  5
9D7
330
9D0
100
AcDbEntity
  8
0
  6
BYBLOCK
 62
     4
100
AcDbMText
 10
486.4430264013635
 20
216.4501956573541
 30
0.0
 40
6.0
 41
0.0
 71
     5
 72
     1
  1
\A1;58
 11
0.0
 21
1.0
 31
0.0
1001
ACAD
1000
MTEXTBEGIN
1070
    73
1070
     1
1070
    44
1040
1.0
1070
    74
1070
     0
1000
MTEXTEND
1000
MTEXTBEGIN
1070
    73
1070
     1
1070
    44
1040
1.0
1070
    74
1070
     0
1000
MTEXTEND
1000
MTEXTBEGIN
1070
    73
1070
     1
1070
    44
1040
1.0
1070
    74
1070
     0
1000
MTEXTEND
  0
POINT
  5
9D8
330
9D0
100
AcDbEntity
  8
DEFPOINTS
  6
BYBLOCK
 62
     0
100
AcDbPoint
 10
391.8554181036694
 20
245.4808693700261
 30
0.0
  0
POINT
  5
9D9
330
9D0
100
AcDbEntity
  8
DEFPOINTS
  6
BYBLOCK
 62
     0
100
AcDbPoint
 10
419.6647090366942
 20
187.4195219446822
 30
0.0
  0
POINT
  5
9DA
330
9D0
100
AcDbEntity
  8
DEFPOINTS
  6
BYBLOCK
 62
     0
100
AcDbPoint
 10
491.4430264013636
 20
187.4195219446822
 30
0.0
  0
ENDBLK
  5
9DB
330
9D0
100
AcDbEntity
  8
0
100
AcDbBlockEnd
  0
BLOCK
  5
A0B
330
9E8
100
AcDbEntity
  8
0
100
AcDbBlockBegin
  2
*D10
 70
     1
 10
0.0
 20
0.0
 30
0.0
  3
*D10
  1

  0
LINE
  5
A0C
330
9E8
100
AcDbEntity
  8
0
  6
BYBLOCK
 62
     4
100
AcDbLine
 10
697.1910790693978
 20
295.7536919175103
 30
0.0
 11
697.1910790693978
 21
254.5825444930933
 31
0.0
  0
LINE
  5
A0D
330
9E8
100
AcDbEntity
  8
0
  6
BYBLOCK
 62
     4
100
AcDbLine
 10
608.1910786708556
 20
295.6161631159356
 30
0.0
 11
608.1910786708556
 21
254.5825444930933
 31
0.0
  0
LINE
  5
A0E
330
9E8
100
AcDbEntity
  8
0
  6
BYBLOCK
 62
     4
100
AcDbLine
 10
690.1910790693977
 20
257.5825444930933
 30
0.0
 11
615.1910786708556
 21
257.5825444930933
 31
0.0
  0
INSERT
  5
A0F
330
9E8
100
AcDbEntity
  8
0
  6
BYBLOCK
 62
     4
100
AcDbBlockReference
  2
_OPEN
 10
697.1910790693978
 20
257.5825444930933
 30
0.0
 41
7.0
 42
7.0
 43
7.0
  0
INSERT
  5
A10
330
9E8
100
AcDbEntity
  8
0
  6
BYBLOCK
 62
     4
100
AcDbBlockReference
  2
_OPEN
 10
608.1910786708556
 20
257.5825444930933
 30
0.0
 41
7.0
 42
7.0
 43
7.0
 50
180.0
  0
MTEXT
  5
A11
330
9E8
100
AcDbEntity
  8
0
  6
BYBLOCK
 62
     4
100
AcDbMText
 10
652.6910788701266
 20
262.5825444930933
 30
0.0
 40
6.0
 41
0.0
 71
     5
 72
     1
  1
\A1;穴径 φ89
1001
ACAD
1000
MTEXTBEGIN
1070
    73
1070
     1
1070
    44
1040
1.0
1070
    74
1070
     0
1000
MTEXTEND
1000
MTEXTBEGIN
1070
    73
1070
     1
1070
    44
1040
1.0
1070
    74
1070
     0
1000
MTEXTEND
1000
MTEXTBEGIN
1070
    73
1070
     1
1070
    44
1040
1.0
1070
    74
1070
     0
1000
MTEXTEND
  0
POINT
  5
A12
330
9E8
100
AcDbEntity
  8
DEFPOINTS
  6
BYBLOCK
 62
     0
100
AcDbPoint
 10
697.1910790693978
 20
301.7536919175103
 30
0.0
  0
POINT
  5
A13
330
9E8
100
AcDbEntity
  8
DEFPOINTS
  6
BYBLOCK
 62
     0
100
AcDbPoint
 10
608.1910786708556
 20
301.6161631159356
 30
0.0
  0
POINT
  5
A14
330
9E8
100
AcDbEntity
  8
DEFPOINTS
  6
BYBLOCK
 62
     0
100
AcDbPoint
 10
608.1910786708556
 20
257.5825444930933
 30
0.0
  0
ENDBLK
  5
A15
330
9E8
100
AcDbEntity
  8
0
100
AcDbBlockEnd
  0
ENDSEC
  0
SECTION
  2
ENTITIES
  0
TEXT
  5
11A
330
1A
100
AcDbEntity
  8
ZUWAKU
 62
     7
 48
10.0
100
AcDbText
 10
795.5579444309237
 20
4.974918402528146
 30
0.0
 40
8.0
  1
A1
100
AcDbText
  0
LINE
  5
11B
330
1A
100
AcDbEntity
  8
ZUWAKU
 62
     7
 48
10.0
100
AcDbLine
 10
10.05047808566086
 20
25.78258628282265
 30
0.0
 11
806.0504780856609
 21
25.78258628282253
 31
0.0
  0
LINE
  5
11C
330
1A
100
AcDbEntity
  8
ZUWAKU
  6
CONTINUOUS
 62
     7
100
AcDbLine
 10
806.0504780856609
 20
563.7825862828226
 30
0.0
 11
10.05047808566086
 21
563.7825862828226
 31
0.0
  0
LINE
  5
11D
330
1A
100
AcDbEntity
  8
ZUWAKU
  6
CONTINUOUS
 62
     7
100
AcDbLine
 10
806.0504780856609
 20
13.78258628282265
 30
0.0
 11
10.05047808566086
 21
13.78258628282265
 31
0.0
  0
LINE
  5
11E
330
1A
100
AcDbEntity
  8
ZUWAKU
  6
CONTINUOUS
 62
     7
100
AcDbLine
 10
10.05047808566086
 20
563.7825862828226
 30
0.0
 11
10.05047808566086
 21
13.78258628282265
 31
0.0
  0
LINE
  5
11F
330
1A
100
AcDbEntity
  8
ZUWAKU
 62
     7
 48
10.0
100
AcDbLine
 10
44.55797523147839
 20
13.78258628282265
 30
0.0
 11
44.5579752314784
 21
25.78258628282265
 31
0.0
  0
TEXT
  5
120
330
1A
100
AcDbEntity
  8
ZUWAKU
 62
     7
100
AcDbText
 10
16.05676551180931
 20
15.52294263804401
 30
0.0
 40
8.0
  1
品 種
100
AcDbText
  0
LINE
  5
121
330
1A
100
AcDbEntity
  8
ZUWAKU
 62
     7
 48
10.0
100
AcDbLine
 10
276.1028387068254
 20
13.78258628282265
 30
0.0
 11
276.1028387068254
 21
25.78258628282261
 31
0.0
  0
LINE
  5
122
330
1A
100
AcDbEntity
  8
ZUWAKU
 62
     7
 48
10.0
100
AcDbLine
 10
209.5138526425484
 20
13.78258628282265
 30
0.0
 11
209.5138526425485
 21
25.78258628282263
 31
0.0
  0
TEXT
  5
124
330
1A
100
AcDbEntity
  8
ZUWAKU
 62
     7
100
AcDbText
 10
215.4560837190756
 20
16.18358115302453
 30
0.0
 40
8.0
  1
品名・ｻ ｲ ｽﾞ
100
AcDbText
  0
LINE
  5
126
330
1A
100
AcDbEntity
  8
ZUWAKU
 62
     7
 48
10.0
100
AcDbLine
 10
768.7231079932794
 20
13.78258628282237
 30
0.0
 11
768.7231079932794
 21
25.78258628282254
 31
0.0
  0
LINE
  5
127
330
1A
100
AcDbEntity
  8
ZUWAKU
 62
     7
 48
10.0
100
AcDbLine
 10
733.8119002376948
 20
13.78258628282242
 30
0.0
 11
733.8119002376946
 21
25.78258628282254
 31
0.0
  0
TEXT
  5
128
330
1A
100
AcDbEntity
  8
ZUWAKU
 62
     7
100
AcDbText
 10
739.6955629973526
 20
15.24227755810852
 30
0.0
 40
8.0
  1
尺 度
100
AcDbText
  0
TEXT
  5
129
330
1A
100
AcDbEntity
  8
ZUWAKU
 62
     7
100
AcDbText
 10
779.7374630323229
 20
15.55488920081529
 30
0.0
 40
8.0
  1
1/2
100
AcDbText
  0
TEXT
  5
12B
330
1A
100
AcDbEntity
  8
ZUWAKU
 62
     7
100
AcDbText
 10
620.3363288383084
 20
15.6519090944263
 30
0.0
 40
8.0
  1
品 番
100
AcDbText
  0
LINE
  5
12C
330
1A
100
AcDbEntity
  8
ZUWAKU
 62
     7
 48
10.0
100
AcDbLine
 10
614.3351028194128
 20
13.78258628282232
 30
0.0
 11
614.3351028194128
 21
25.78258628282256
 31
0.0
  0
LINE
  5
12D
330
1A
100
AcDbEntity
  8
ZUWAKU
 62
     7
 48
10.0
100
AcDbLine
 10
648.7607587371021
 20
13.78258628282232
 30
0.0
 11
648.7607587371021
 21
25.78258628282255
 31
0.0
  0
TEXT
  5
12E
330
1A
100
AcDbEntity
  8
ZUWAKU
 62
     7
 48
10.0
100
AcDbText
 10
646.2758615931216
 20
4.949376903717848
 30
0.0
 40
8.0
  1
積水化学工業株式会社  建材
100
AcDbText
  0
LINE
  5
12F
330
1A
100
AcDbEntity
  8
ZUWAKU
  6
CONTINUOUS
 62
     7
100
AcDbLine
 10
806.0504780856609
 20
563.7825862828226
 30
0.0
 11
806.0504780856609
 21
13.78258628282265
 31
0.0
  0
TEXT
  5
3A7
330
1A
100
AcDbEntity
  8
ZUWAKU
 62
     7
100
AcDbText
 10
50.3519382305086
 20
16.10306189639755
 30
0.0
 40
8.0
  1
自在ドレン
100
AcDbText
  0
TEXT
  5
3B1
330
1A
100
AcDbEntity
  8
ZUWAKU
 62
     7
100
AcDbText
 10
282.3131429914078
 20
15.64241700452384
 30
0.0
 40
8.0
  1
ＵＴ９０－７５
100
AcDbText
  0
LINE
  5
3C5
330
1A
100
AcDbEntity
  8
SEIHIN
  6
CONTINUOUS
100
AcDbLine
 10
241.9463683613822
 20
240.6309890267722
 30
0.0
 11
131.9463683613821
 21
240.6310890267722
 31
0.0
  0
LINE
  5
3CE
330
1A
100
AcDbEntity
  8
SEIHIN
  6
CONTINUOUS
100
AcDbLine
 10
131.9463683613821
 20
240.6313890267722
 30
0.0
 11
135.9463683613822
 21
239.1312890267721
 31
0.0
  0
LINE
  5
3CF
330
1A
100
AcDbEntity
  8
CENTER_L
 48
5.0
100
AcDbLine
 10
186.9464630168033
 20
250.1310890266116
 30
0.0
 11
186.9462683613823
 21
187.9092890267721
 31
0.0
  0
LINE
  5
3D6
330
1A
100
AcDbEntity
  8
SEIHIN
  6
CONTINUOUS
100
AcDbLine
 10
237.9462017031253
 20
239.1308890274258
 30
0.0
 11
135.9463683613822
 21
239.1312890267721
 31
0.0
  0
LINE
  5
3D7
330
1A
100
AcDbEntity
  8
SEIHIN
  6
CONTINUOUS
100
AcDbLine
 10
232.546368066486
 20
214.130841872972
 30
0.0
 11
141.3462682672621
 21
214.1313361811164
 31
0.0
  0
LINE
  5
3D8
330
1A
100
AcDbEntity
  8
SEIHIN
  6
CONTINUOUS
100
AcDbLine
 10
223.7462678608821
 20
194.1308890267748
 30
0.0
 11
150.1462683613822
 21
194.1312890267721
 31
0.0
  0
LINE
  5
3D9
330
1A
100
AcDbEntity
  8
SEIHIN
  6
CONTINUOUS
100
AcDbLine
 10
141.2963683613822
 20
239.1312890267721
 30
0.0
 11
141.3462683613821
 21
214.1312890267722
 31
0.0
  0
LINE
  5
3DB
330
1A
100
AcDbEntity
  8
SEIHIN
  6
CONTINUOUS
100
AcDbLine
 10
150.0462683613822
 20
214.1312890267722
 30
0.0
 11
150.1462683613822
 21
194.1312890267721
 31
0.0
  0
LINE
  5
3E7
330
1A
100
AcDbEntity
  8
SEIHIN
  6
CONTINUOUS
100
AcDbLine
 10
241.9463683613823
 20
243.130789027863
 30
0.0
 11
131.9463683613821
 21
243.1313890267722
 31
0.0
  0
LINE
  5
3EB
330
1A
100
AcDbEntity
  8
SEIHIN
  6
CONTINUOUS
100
AcDbLine
 10
131.9463683613821
 20
243.1313890267722
 30
0.0
 11
131.9463683613821
 21
240.6313890267722
 31
0.0
  0
LINE
  5
40F
330
1A
100
AcDbEntity
  8
SEIHIN
  6
CONTINUOUS
100
AcDbLine
 10
241.9463683613822
 20
240.6309890267722
 30
0.0
 11
237.9464683613822
 21
239.1309890267721
 31
0.0
  0
LINE
  5
41F
330
1A
100
AcDbEntity
  8
SEIHIN
  6
CONTINUOUS
100
AcDbLine
 10
223.8463683613821
 20
214.1309890267721
 30
0.0
 11
223.7462683613821
 21
194.1309890267721
 31
0.0
  0
LINE
  5
420
330
1A
100
AcDbEntity
  8
SEIHIN
  6
CONTINUOUS
100
AcDbLine
 10
232.5964683613822
 20
239.1309890267721
 30
0.0
 11
232.5463683613822
 21
214.1309890267721
 31
0.0
  0
LINE
  5
452
330
1A
100
AcDbEntity
  8
SEIHIN
  6
CONTINUOUS
100
AcDbLine
 10
241.9463683613822
 20
243.1309890267721
 30
0.0
 11
241.9463683613822
 21
240.6309890267722
 31
0.0
  0
LINE
  5
467
330
1A
100
AcDbEntity
  8
CENTER_L
 48
5.0
100
AcDbLine
 10
129.2956683613822
 20
394.1907438116219
 30
0.0
 11
244.4761683613823
 21
394.1905438116218
 31
0.0
  0
ARC
  5
470
330
1A
100
AcDbEntity
  8
SEIHIN
  6
CONTINUOUS
100
AcDbCircle
 10
186.9466683919547
 20
394.1905938116218
 30
0.0
 40
54.99989996945011
100
AcDbArc
 50
0.0000520871669452
 51
359.999947912833
  0
ARC
  5
471
330
1A
100
AcDbEntity
  8
SEIHIN
  6
CONTINUOUS
100
AcDbCircle
 10
186.9466684243814
 20
394.1905938116218
 30
0.0
 40
51.99989993702491
100
AcDbArc
 50
0.0000550922016225
 51
359.9999449077983
  0
LINE
  5
476
330
1A
100
AcDbEntity
  8
CENTER_L
 48
5.0
100
AcDbLine
 10
186.9466683613823
 20
452.4505438116217
 30
0.0
 11
186.9465683613822
 21
337.9011438116218
 31
0.0
  0
LINE
  5
4CA
330
1A
100
AcDbEntity
  8
SEIHIN
  6
CONTINUOUS
100
AcDbLine
 10
641.5934411907665
 20
237.5573042914708
 30
0.0
 11
696.5934411907667
 21
237.5572042914707
 31
0.0
  0
LINE
  5
4CB
330
1A
100
AcDbEntity
  8
SEIHIN
  6
CONTINUOUS
100
AcDbLine
 10
641.5933411907665
 20
188.5573042914707
 30
0.0
 11
678.3933411907664
 21
188.5572042914708
 31
0.0
  0
LINE
  5
4CC
330
1A
100
AcDbEntity
  8
SEIHIN
  6
CONTINUOUS
100
AcDbLine
 10
685.5933411907662
 20
210.5572042914707
 30
0.0
 11
641.5934411907665
 21
210.5573042914708
 31
0.0
  0
LINE
  5
4CD
330
1A
100
AcDbEntity
  8
SEIHIN
  6
CONTINUOUS
100
AcDbLine
 10
693.5934411907664
 20
236.0572042914707
 30
0.0
 11
641.5934411907665
 21
236.0573042914706
 31
0.0
  0
TEXT
  5
4CF
330
1A
100
AcDbEntity
  8
ZUWAKU
 62
     7
100
AcDbText
 10
654.2531733678779
 20
15.90287984531518
 30
0.0
 40
8.0
  1
ＧＤ１０
100
AcDbText
  0
LINE
  5
4D3
330
1A
100
AcDbEntity
  8
SEIHIN
  6
CONTINUOUS
100
AcDbLine
 10
597.5936411907667
 20
210.5574042914708
 30
0.0
 11
597.5937411907664
 21
236.0574042914707
 31
0.0
  0
LINE
  5
4D4
330
1A
100
AcDbEntity
  8
SEIHIN
  6
CONTINUOUS
100
AcDbLine
 10
586.5936411907664
 20
237.5575042914707
 30
0.0
 11
586.5936411907664
 21
235.0575042914708
 31
0.0
  0
LINE
  5
4D5
330
1A
100
AcDbEntity
  8
CENTER_L
 48
5.0
100
AcDbLine
 10
641.5934411907665
 20
241.7429042914707
 30
0.0
 11
641.5933411907665
 21
182.3355042914707
 31
0.0
  0
LINE
  5
4D6
330
1A
100
AcDbEntity
  8
SEIHIN
  6
CONTINUOUS
100
AcDbLine
 10
604.6771411907664
 20
224.5232042914708
 30
0.0
 11
605.3478411907665
 21
223.9654042914708
 31
0.0
  0
LINE
  5
4D7
330
1A
100
AcDbEntity
  8
SEIHIN
  6
CONTINUOUS
100
AcDbLine
 10
605.3478411907665
 20
226.5892042914707
 30
0.0
 11
604.6771411907664
 21
225.7725042914707
 31
0.0
  0
LINE
  5
4D8
330
1A
100
AcDbEntity
  8
SEIHIN
  6
CONTINUOUS
100
AcDbLine
 10
605.3478411907665
 20
222.5896042914707
 30
0.0
 11
604.6771411907664
 21
221.7728042914708
 31
0.0
  0
LINE
  5
4D9
330
1A
100
AcDbEntity
  8
SEIHIN
  6
CONTINUOUS
100
AcDbLine
 10
604.6771411907664
 20
220.5235042914708
 30
0.0
 11
605.3478411907665
 21
219.9658042914707
 31
0.0
  0
LINE
  5
4DA
330
1A
100
AcDbEntity
  8
SEIHIN
  6
CONTINUOUS
100
AcDbLine
 10
605.3478411907665
 20
218.5899042914706
 30
0.0
 11
604.6771411907664
 21
217.7732042914708
 31
0.0
  0
LINE
  5
4DB
330
1A
100
AcDbEntity
  8
SEIHIN
  6
CONTINUOUS
100
AcDbLine
 10
604.6771411907664
 20
216.5238042914707
 30
0.0
 11
605.3478411907665
 21
215.9661042914708
 31
0.0
  0
LINE
  5
4DC
330
1A
100
AcDbEntity
  8
SEIHIN
  6
CONTINUOUS
100
AcDbLine
 10
605.3478411907665
 20
214.5902042914708
 30
0.0
 11
604.6771411907664
 21
213.7735042914708
 31
0.0
  0
LINE
  5
4DD
330
1A
100
AcDbEntity
  8
SEIHIN
  6
CONTINUOUS
100
AcDbLine
 10
604.6771411907664
 20
225.7725042914707
 30
0.0
 11
617.7669411907666
 21
227.5573042914708
 31
0.0
  0
LINE
  5
4DE
330
1A
100
AcDbEntity
  8
SEIHIN
  6
CONTINUOUS
100
AcDbLine
 10
639.9887411907664
 20
212.5573042914707
 30
0.0
 11
604.6771411907664
 21
212.5574042914707
 31
0.0
  0
LINE
  5
4DF
330
1A
100
AcDbEntity
  8
SEIHIN
  6
CONTINUOUS
100
AcDbLine
 10
597.5936411907667
 20
210.5574042914708
 30
0.0
 11
641.5935411907664
 21
210.5573042914708
 31
0.0
  0
LINE
  5
4E0
330
1A
100
AcDbEntity
  8
SEIHIN
  6
CONTINUOUS
100
AcDbLine
 10
639.9888411907665
 20
227.5573042914708
 30
0.0
 11
604.6935411907663
 21
227.5574042914707
 31
0.0
  0
LINE
  5
4E1
330
1A
100
AcDbEntity
  8
SEIHIN
  6
CONTINUOUS
100
AcDbLine
 10
626.9280411907666
 20
227.5573042914708
 30
0.0
 11
604.6771411907664
 21
224.5232042914708
 31
0.0
  0
LINE
  5
4E2
330
1A
100
AcDbEntity
  8
SEIHIN
  6
CONTINUOUS
100
AcDbLine
 10
604.6771411907664
 20
220.5235042914708
 30
0.0
 11
639.3181411907664
 21
225.2470042914708
 31
0.0
  0
LINE
  5
4E3
330
1A
100
AcDbEntity
  8
SEIHIN
  6
CONTINUOUS
100
AcDbLine
 10
604.6771411907664
 20
221.7728042914708
 30
0.0
 11
639.3181411907664
 21
226.4963042914707
 31
0.0
  0
LINE
  5
4E4
330
1A
100
AcDbEntity
  8
SEIHIN
  6
CONTINUOUS
100
AcDbLine
 10
604.6771411907664
 20
217.7732042914708
 30
0.0
 11
639.3181411907664
 21
222.4966042914708
 31
0.0
  0
LINE
  5
4E5
330
1A
100
AcDbEntity
  8
SEIHIN
  6
CONTINUOUS
100
AcDbLine
 10
604.6771411907664
 20
216.5238042914707
 30
0.0
 11
639.3181411907664
 21
221.2473042914708
 31
0.0
  0
LINE
  5
4E6
330
1A
100
AcDbEntity
  8
SEIHIN
  6
CONTINUOUS
100
AcDbLine
 10
604.6771411907664
 20
212.5242042914708
 30
0.0
 11
639.3181411907664
 21
217.2476042914707
 31
0.0
  0
LINE
  5
4E7
330
1A
100
AcDbEntity
  8
SEIHIN
  6
CONTINUOUS
100
AcDbLine
 10
604.6771411907664
 20
213.7735042914708
 30
0.0
 11
639.3181411907664
 21
218.4970042914708
 31
0.0
  0
LINE
  5
4E8
330
1A
100
AcDbEntity
  8
SEIHIN
  6
CONTINUOUS
100
AcDbLine
 10
641.5934411907665
 20
188.5573042914707
 30
0.0
 11
604.7934411907665
 21
188.5574042914707
 31
0.0
  0
LINE
  5
4E9
330
1A
100
AcDbEntity
  8
SEIHIN
  6
CONTINUOUS
100
AcDbLine
 10
604.6935411907663
 20
208.5574042914707
 30
0.0
 11
604.7934411907665
 21
188.5574042914707
 31
0.0
  0
LINE
  5
4EA
330
1A
100
AcDbEntity
  8
SEIHIN
  6
CONTINUOUS
100
AcDbLine
 10
595.9435411907666
 20
233.5575042914707
 30
0.0
 11
595.9935411907665
 21
208.5575042914708
 31
0.0
  0
LINE
  5
4EB
330
1A
100
AcDbEntity
  8
SEIHIN
  6
CONTINUOUS
100
AcDbLine
 10
595.9935411907665
 20
208.5575042914708
 30
0.0
 11
604.6935411907663
 21
208.5574042914707
 31
0.0
  0
LINE
  5
4EC
330
1A
100
AcDbEntity
  8
SEIHIN
  6
CONTINUOUS
100
AcDbLine
 10
586.5936411907664
 20
235.0575042914708
 30
0.0
 11
590.5935411907667
 21
233.5575042914707
 31
0.0
  0
LINE
  5
4ED
330
1A
100
AcDbEntity
  8
SEIHIN
  6
CONTINUOUS
100
AcDbLine
 10
604.6771411907664
 20
224.5232042914708
 30
0.0
 11
604.6771411907664
 21
221.7728042914708
 31
0.0
  0
LINE
  5
4EE
330
1A
100
AcDbEntity
  8
SEIHIN
  6
CONTINUOUS
100
AcDbLine
 10
604.6771411907664
 20
216.5238042914707
 30
0.0
 11
604.6771411907664
 21
213.7735042914708
 31
0.0
  0
LINE
  5
4EF
330
1A
100
AcDbEntity
  8
SEIHIN
  6
CONTINUOUS
100
AcDbLine
 10
604.6771411907664
 20
220.5235042914708
 30
0.0
 11
604.6771411907664
 21
217.7732042914708
 31
0.0
  0
LINE
  5
4F0
330
1A
100
AcDbEntity
  8
SEIHIN
  6
CONTINUOUS
100
AcDbLine
 10
595.9435411907666
 20
233.5575042914707
 30
0.0
 11
590.5935411907667
 21
233.5575042914707
 31
0.0
  0
LINE
  5
4F1
330
1A
100
AcDbEntity
  8
SEIHIN
  6
CONTINUOUS
100
AcDbLine
 10
604.6771411907664
 20
227.5573042914708
 30
0.0
 11
604.6771411907664
 21
225.7725042914707
 31
0.0
  0
LINE
  5
4F2
330
1A
100
AcDbEntity
  8
SEIHIN
  6
CONTINUOUS
100
AcDbLine
 10
607.0936411907664
 20
210.5574042914708
 30
0.0
 11
606.5934411907664
 21
188.5575042914707
 31
0.0
  0
LINE
  5
4F3
330
1A
100
AcDbEntity
  8
SEIHIN
  6
CONTINUOUS
100
AcDbLine
 10
634.2527411907665
 20
212.5573042914707
 30
0.0
 11
639.3181411907664
 21
213.2480042914707
 31
0.0
  0
LINE
  5
4F4
330
1A
100
AcDbEntity
  8
SEIHIN
  6
CONTINUOUS
100
AcDbLine
 10
625.0906411907664
 20
212.5573042914707
 30
0.0
 11
639.3181411907664
 21
214.4973042914707
 31
0.0
  0
LINE
  5
4F5
330
1A
100
AcDbEntity
  8
SEIHIN
  6
CONTINUOUS
100
AcDbLine
 10
639.9888411907665
 20
227.4445042914708
 30
0.0
 11
605.3478411907665
 21
222.5896042914707
 31
0.0
  0
LINE
  5
4F6
330
1A
100
AcDbEntity
  8
SEIHIN
  6
CONTINUOUS
100
AcDbLine
 10
605.3478411907665
 20
219.9658042914707
 30
0.0
 11
639.9888411907665
 21
224.8207042914708
 31
0.0
  0
LINE
  5
4F7
330
1A
100
AcDbEntity
  8
SEIHIN
  6
CONTINUOUS
100
AcDbLine
 10
639.9888411907665
 20
223.4448042914707
 30
0.0
 11
605.3478411907665
 21
218.5899042914706
 31
0.0
  0
LINE
  5
4F8
330
1A
100
AcDbEntity
  8
SEIHIN
  6
CONTINUOUS
100
AcDbLine
 10
639.9888411907665
 20
219.4452042914708
 30
0.0
 11
605.3478411907665
 21
214.5902042914708
 31
0.0
  0
LINE
  5
4F9
330
1A
100
AcDbEntity
  8
SEIHIN
  6
CONTINUOUS
100
AcDbLine
 10
605.3478411907665
 20
215.9661042914708
 30
0.0
 11
639.9888411907665
 21
220.8211042914707
 31
0.0
  0
LINE
  5
4FA
330
1A
100
AcDbEntity
  8
SEIHIN
  6
CONTINUOUS
100
AcDbLine
 10
639.9888411907665
 20
215.4455042914708
 30
0.0
 11
619.3811411907666
 21
212.5574042914707
 31
0.0
  0
LINE
  5
4FB
330
1A
100
AcDbEntity
  8
SEIHIN
  6
CONTINUOUS
100
AcDbLine
 10
609.5642411907665
 20
212.5574042914707
 30
0.0
 11
639.9888411907665
 21
216.8214042914708
 31
0.0
  0
LINE
  5
4FC
330
1A
100
AcDbEntity
  8
SEIHIN
  6
CONTINUOUS
100
AcDbLine
 10
605.3478411907665
 20
223.9654042914708
 30
0.0
 11
630.9765411907663
 21
227.5573042914708
 31
0.0
  0
LINE
  5
4FD
330
1A
100
AcDbEntity
  8
SEIHIN
  6
CONTINUOUS
100
AcDbLine
 10
605.3478411907665
 20
223.9654042914708
 30
0.0
 11
605.3478411907665
 21
222.5896042914707
 31
0.0
  0
LINE
  5
4FE
330
1A
100
AcDbEntity
  8
SEIHIN
  6
CONTINUOUS
100
AcDbLine
 10
605.3478411907665
 20
219.9658042914707
 30
0.0
 11
605.3478411907665
 21
218.5899042914706
 31
0.0
  0
LINE
  5
4FF
330
1A
100
AcDbEntity
  8
SEIHIN
  6
CONTINUOUS
100
AcDbLine
 10
605.3478411907665
 20
215.9661042914708
 30
0.0
 11
605.3478411907665
 21
214.5902042914708
 31
0.0
  0
LINE
  5
500
330
1A
100
AcDbEntity
  8
SEIHIN
  6
CONTINUOUS
100
AcDbLine
 10
605.3478411907665
 20
227.5573042914708
 30
0.0
 11
605.3478411907665
 21
226.5892042914707
 31
0.0
  0
LINE
  5
501
330
1A
100
AcDbEntity
  8
SEIHIN
  6
CONTINUOUS
100
AcDbLine
 10
612.2558411907666
 20
227.5574042914707
 30
0.0
 11
605.3478411907665
 21
226.5892042914707
 31
0.0
  0
LINE
  5
502
330
1A
100
AcDbEntity
  8
SEIHIN
  6
CONTINUOUS
100
AcDbLine
 10
639.9888411907665
 20
224.8207042914708
 30
0.0
 11
639.9888411907665
 21
223.4448042914707
 31
0.0
  0
LINE
  5
503
330
1A
100
AcDbEntity
  8
SEIHIN
  6
CONTINUOUS
100
AcDbLine
 10
639.9888411907665
 20
223.4448042914707
 30
0.0
 11
639.3180411907665
 21
222.4966042914708
 31
0.0
  0
LINE
  5
504
330
1A
100
AcDbEntity
  8
SEIHIN
  6
CONTINUOUS
100
AcDbLine
 10
639.9887411907664
 20
220.8211042914707
 30
0.0
 11
639.9887411907664
 21
219.4452042914708
 31
0.0
  0
LINE
  5
505
330
1A
100
AcDbEntity
  8
SEIHIN
  6
CONTINUOUS
100
AcDbLine
 10
639.9887411907664
 20
216.8214042914708
 30
0.0
 11
639.9887411907664
 21
215.4455042914708
 31
0.0
  0
LINE
  5
506
330
1A
100
AcDbEntity
  8
SEIHIN
  6
CONTINUOUS
100
AcDbLine
 10
639.3180411907665
 20
217.2476042914707
 30
0.0
 11
639.9887411907664
 21
216.8214042914708
 31
0.0
  0
LINE
  5
507
330
1A
100
AcDbEntity
  8
SEIHIN
  6
CONTINUOUS
100
AcDbLine
 10
639.9887411907664
 20
219.4452042914708
 30
0.0
 11
639.3180411907665
 21
218.4970042914708
 31
0.0
  0
LINE
  5
508
330
1A
100
AcDbEntity
  8
SEIHIN
  6
CONTINUOUS
100
AcDbLine
 10
639.9887411907664
 20
212.8217042914707
 30
0.0
 11
639.9887411907664
 21
212.5573042914707
 31
0.0
  0
LINE
  5
509
330
1A
100
AcDbEntity
  8
SEIHIN
  6
CONTINUOUS
100
AcDbLine
 10
639.3180411907665
 20
213.2480042914707
 30
0.0
 11
639.9887411907664
 21
212.8217042914707
 31
0.0
  0
LINE
  5
50A
330
1A
100
AcDbEntity
  8
SEIHIN
  6
CONTINUOUS
100
AcDbLine
 10
639.9887411907664
 20
215.4455042914708
 30
0.0
 11
639.3180411907665
 21
214.4973042914707
 31
0.0
  0
LINE
  5
50B
330
1A
100
AcDbEntity
  8
SEIHIN
  6
CONTINUOUS
100
AcDbLine
 10
639.3180411907665
 20
221.2473042914708
 30
0.0
 11
639.9887411907664
 21
220.8211042914707
 31
0.0
  0
LINE
  5
50C
330
1A
100
AcDbEntity
  8
SEIHIN
  6
CONTINUOUS
100
AcDbLine
 10
639.3181411907664
 20
225.2470042914708
 30
0.0
 11
639.9888411907665
 21
224.8207042914708
 31
0.0
  0
LINE
  5
50D
330
1A
100
AcDbEntity
  8
SEIHIN
  6
CONTINUOUS
100
AcDbLine
 10
639.9888411907665
 20
227.4445042914708
 30
0.0
 11
639.3181411907664
 21
226.4963042914707
 31
0.0
  0
LINE
  5
50E
330
1A
100
AcDbEntity
  8
SEIHIN
  6
CONTINUOUS
100
AcDbLine
 10
639.9888411907665
 20
227.5573042914708
 30
0.0
 11
639.9888411907665
 21
227.4445042914708
 31
0.0
  0
LINE
  5
50F
330
1A
100
AcDbEntity
  8
SEIHIN
  6
CONTINUOUS
100
AcDbLine
 10
641.5936411907664
 20
237.5573042914708
 30
0.0
 11
586.5936411907664
 21
237.5575042914707
 31
0.0
  0
LINE
  5
510
330
1A
100
AcDbEntity
  8
SEIHIN
  6
CONTINUOUS
100
AcDbLine
 10
589.5936411907666
 20
236.0575042914708
 30
0.0
 11
641.5936411907664
 21
236.0573042914706
 31
0.0
  0
LINE
  5
511
330
1A
100
AcDbEntity
  8
SEIHIN
  6
CONTINUOUS
100
AcDbLine
 10
589.5936411907666
 20
237.5575042914707
 30
0.0
 11
589.5936411907666
 21
236.0575042914708
 31
0.0
  0
LINE
  5
518
330
1A
100
AcDbEntity
  8
SEIHIN
  6
CONTINUOUS
100
AcDbLine
 10
696.5934411907667
 20
237.5572042914707
 30
0.0
 11
696.5934411907667
 21
235.0572042914708
 31
0.0
  0
LINE
  5
519
330
1A
100
AcDbEntity
  8
SEIHIN
  6
CONTINUOUS
100
AcDbLine
 10
685.5933411907662
 20
227.5573042914708
 30
0.0
 11
685.5933411907662
 21
236.0572042914707
 31
0.0
  0
LINE
  5
51C
330
1A
100
AcDbEntity
  8
SEIHIN
  6
CONTINUOUS
100
AcDbLine
 10
678.4934411907665
 20
208.5572042914707
 30
0.0
 11
678.3933411907664
 21
188.5572042914708
 31
0.0
  0
LINE
  5
51D
330
1A
100
AcDbEntity
  8
SEIHIN
  6
CONTINUOUS
100
AcDbLine
 10
676.0933411907663
 20
210.5572042914707
 30
0.0
 11
676.5933411907663
 21
188.5573042914707
 31
0.0
  0
LINE
  5
522
330
1A
100
AcDbEntity
  8
SEIHIN
  6
CONTINUOUS
100
AcDbLine
 10
685.5933411907662
 20
212.8070042914707
 30
0.0
 11
685.5933411907662
 21
210.5572042914707
 31
0.0
  0
LINE
  5
523
330
1A
100
AcDbEntity
  8
SEIHIN
  6
CONTINUOUS
100
AcDbLine
 10
687.2435411907665
 20
233.5572042914707
 30
0.0
 11
687.1934411907663
 21
208.5572042914707
 31
0.0
  0
LINE
  5
524
330
1A
100
AcDbEntity
  8
SEIHIN
  6
CONTINUOUS
100
AcDbLine
 10
687.1934411907663
 20
208.5572042914707
 30
0.0
 11
678.4934411907665
 21
208.5572042914707
 31
0.0
  0
LINE
  5
525
330
1A
100
AcDbEntity
  8
SEIHIN
  6
CONTINUOUS
100
AcDbLine
 10
687.2435411907665
 20
233.5572042914707
 30
0.0
 11
692.5935411907665
 21
233.5572042914707
 31
0.0
  0
LINE
  5
526
330
1A
100
AcDbEntity
  8
SEIHIN
  6
CONTINUOUS
100
AcDbLine
 10
685.5933411907662
 20
224.8067042914708
 30
0.0
 11
685.5933411907662
 21
223.5574042914707
 31
0.0
  0
LINE
  5
527
330
1A
100
AcDbEntity
  8
SEIHIN
  6
CONTINUOUS
100
AcDbLine
 10
685.5933411907662
 20
220.8068042914708
 30
0.0
 11
685.5933411907662
 21
219.5575042914708
 31
0.0
  0
LINE
  5
528
330
1A
100
AcDbEntity
  8
SEIHIN
  6
CONTINUOUS
100
AcDbLine
 10
685.5933411907662
 20
216.8069042914708
 30
0.0
 11
685.5933411907662
 21
215.5576042914708
 31
0.0
  0
LINE
  5
529
330
1A
100
AcDbEntity
  8
SEIHIN
  6
CONTINUOUS
100
AcDbLine
 10
684.4028411907665
 20
222.8700042914707
 30
0.0
 11
679.4438411907663
 21
222.1750042914708
 31
0.0
  0
LINE
  5
52A
330
1A
100
AcDbEntity
  8
SEIHIN
  6
CONTINUOUS
100
AcDbLine
 10
684.4028411907665
 20
222.8700042914707
 30
0.0
 11
684.4028411907665
 21
221.4941042914708
 31
0.0
  0
LINE
  5
52B
330
1A
100
AcDbEntity
  8
SEIHIN
  6
CONTINUOUS
100
AcDbLine
 10
680.7853411907663
 20
222.9018042914707
 30
0.0
 11
679.4438411907663
 21
222.1751042914708
 31
0.0
  0
LINE
  5
52C
330
1A
100
AcDbEntity
  8
SEIHIN
  6
CONTINUOUS
100
AcDbLine
 10
684.4028411907665
 20
218.8701042914707
 30
0.0
 11
684.4028411907665
 21
217.4942042914708
 31
0.0
  0
LINE
  5
52D
330
1A
100
AcDbEntity
  8
SEIHIN
  6
CONTINUOUS
100
AcDbLine
 10
684.4028411907665
 20
218.8701042914707
 30
0.0
 11
679.4438411907663
 21
218.1751042914708
 31
0.0
  0
LINE
  5
52E
330
1A
100
AcDbEntity
  8
SEIHIN
  6
CONTINUOUS
100
AcDbLine
 10
679.4438411907663
 20
220.7992042914708
 30
0.0
 11
680.7853411907663
 21
220.1512042914707
 31
0.0
  0
LINE
  5
52F
330
1A
100
AcDbEntity
  8
SEIHIN
  6
CONTINUOUS
100
AcDbLine
 10
680.7853411907663
 20
218.9019042914708
 30
0.0
 11
679.4438411907663
 21
218.1751042914708
 31
0.0
  0
LINE
  5
530
330
1A
100
AcDbEntity
  8
SEIHIN
  6
CONTINUOUS
100
AcDbLine
 10
684.4028411907665
 20
214.8702042914708
 30
0.0
 11
684.4028411907665
 21
213.4943042914708
 31
0.0
  0
LINE
  5
531
330
1A
100
AcDbEntity
  8
SEIHIN
  6
CONTINUOUS
100
AcDbLine
 10
684.4028411907665
 20
214.8702042914708
 30
0.0
 11
679.4438411907663
 21
214.1752042914707
 31
0.0
  0
LINE
  5
532
330
1A
100
AcDbEntity
  8
SEIHIN
  6
CONTINUOUS
100
AcDbLine
 10
684.4028411907665
 20
217.4942042914708
 30
0.0
 11
679.4438411907663
 21
216.7992042914708
 31
0.0
  0
LINE
  5
533
330
1A
100
AcDbEntity
  8
SEIHIN
  6
CONTINUOUS
100
AcDbLine
 10
679.4438411907663
 20
216.7993042914708
 30
0.0
 11
680.7853411907663
 21
216.1513042914707
 31
0.0
  0
LINE
  5
534
330
1A
100
AcDbEntity
  8
SEIHIN
  6
CONTINUOUS
100
AcDbLine
 10
680.7853411907663
 20
214.9020042914707
 30
0.0
 11
679.4438411907663
 21
214.1752042914707
 31
0.0
  0
LINE
  5
535
330
1A
100
AcDbEntity
  8
SEIHIN
  6
CONTINUOUS
100
AcDbLine
 10
684.4028411907665
 20
213.4943042914708
 30
0.0
 11
679.4438411907663
 21
212.7994042914707
 31
0.0
  0
LINE
  5
536
330
1A
100
AcDbEntity
  8
SEIHIN
  6
CONTINUOUS
100
AcDbLine
 10
679.4438411907663
 20
212.7994042914707
 30
0.0
 11
679.9452411907664
 21
212.5572042914708
 31
0.0
  0
LINE
  5
537
330
1A
100
AcDbEntity
  8
SEIHIN
  6
CONTINUOUS
100
AcDbLine
 10
679.4438411907663
 20
218.1751042914708
 30
0.0
 11
679.4438411907663
 21
216.7993042914708
 31
0.0
  0
LINE
  5
538
330
1A
100
AcDbEntity
  8
SEIHIN
  6
CONTINUOUS
100
AcDbLine
 10
679.4438411907663
 20
214.1752042914707
 30
0.0
 11
679.4438411907663
 21
212.7994042914707
 31
0.0
  0
LINE
  5
539
330
1A
100
AcDbEntity
  8
SEIHIN
  6
CONTINUOUS
100
AcDbLine
 10
684.4028411907665
 20
221.4941042914708
 30
0.0
 11
679.4438411907663
 21
220.7992042914708
 31
0.0
  0
LINE
  5
53A
330
1A
100
AcDbEntity
  8
SEIHIN
  6
CONTINUOUS
100
AcDbLine
 10
679.4438411907663
 20
222.1751042914708
 30
0.0
 11
679.4438411907663
 21
220.7992042914708
 31
0.0
  0
LINE
  5
53B
330
1A
100
AcDbEntity
  8
SEIHIN
  6
CONTINUOUS
100
AcDbLine
 10
679.9452411907664
 20
212.5572042914708
 30
0.0
 11
685.5933411907662
 21
212.5572042914708
 31
0.0
  0
LINE
  5
53C
330
1A
100
AcDbEntity
  8
SEIHIN
  6
CONTINUOUS
100
AcDbLine
 10
685.5933411907662
 20
223.5574042914707
 30
0.0
 11
684.4028411907665
 21
222.8700042914707
 31
0.0
  0
LINE
  5
53D
330
1A
100
AcDbEntity
  8
SEIHIN
  6
CONTINUOUS
100
AcDbLine
 10
680.7853411907663
 20
222.9018042914707
 30
0.0
 11
685.5933411907662
 21
223.5574042914707
 31
0.0
  0
LINE
  5
53E
330
1A
100
AcDbEntity
  8
SEIHIN
  6
CONTINUOUS
100
AcDbLine
 10
685.5933411907662
 20
219.5575042914708
 30
0.0
 11
684.4028411907665
 21
218.8701042914707
 31
0.0
  0
LINE
  5
53F
330
1A
100
AcDbEntity
  8
SEIHIN
  6
CONTINUOUS
100
AcDbLine
 10
680.7853411907663
 20
218.9019042914708
 30
0.0
 11
685.5933411907662
 21
219.5575042914708
 31
0.0
  0
LINE
  5
540
330
1A
100
AcDbEntity
  8
SEIHIN
  6
CONTINUOUS
100
AcDbLine
 10
680.7853411907663
 20
220.1512042914707
 30
0.0
 11
685.5933411907662
 21
220.8068042914708
 31
0.0
  0
LINE
  5
541
330
1A
100
AcDbEntity
  8
SEIHIN
  6
CONTINUOUS
100
AcDbLine
 10
684.4028411907665
 20
221.4941042914708
 30
0.0
 11
685.5933411907662
 21
220.8068042914708
 31
0.0
  0
LINE
  5
542
330
1A
100
AcDbEntity
  8
SEIHIN
  6
CONTINUOUS
100
AcDbLine
 10
685.5933411907662
 20
215.5576042914708
 30
0.0
 11
684.4028411907665
 21
214.8702042914708
 31
0.0
  0
LINE
  5
543
330
1A
100
AcDbEntity
  8
SEIHIN
  6
CONTINUOUS
100
AcDbLine
 10
680.7853411907663
 20
214.9020042914707
 30
0.0
 11
685.5933411907662
 21
215.5576042914708
 31
0.0
  0
LINE
  5
544
330
1A
100
AcDbEntity
  8
SEIHIN
  6
CONTINUOUS
100
AcDbLine
 10
680.7853411907663
 20
216.1513042914707
 30
0.0
 11
685.5933411907662
 21
216.8069042914708
 31
0.0
  0
LINE
  5
545
330
1A
100
AcDbEntity
  8
SEIHIN
  6
CONTINUOUS
100
AcDbLine
 10
684.4028411907665
 20
217.4942042914708
 30
0.0
 11
685.5933411907662
 21
216.8069042914708
 31
0.0
  0
LINE
  5
546
330
1A
100
AcDbEntity
  8
SEIHIN
  6
CONTINUOUS
100
AcDbLine
 10
683.7611411907665
 20
212.5572042914708
 30
0.0
 11
685.5933411907662
 21
212.8070042914707
 31
0.0
  0
LINE
  5
547
330
1A
100
AcDbEntity
  8
SEIHIN
  6
CONTINUOUS
100
AcDbLine
 10
684.4028411907665
 20
213.4943042914708
 30
0.0
 11
685.5933411907662
 21
212.8070042914707
 31
0.0
  0
LINE
  5
548
330
1A
100
AcDbEntity
  8
SEIHIN
  6
CONTINUOUS
100
AcDbLine
 10
679.4438411907663
 20
226.1750042914708
 30
0.0
 11
679.4438411907663
 21
224.7991042914708
 31
0.0
  0
LINE
  5
549
330
1A
100
AcDbEntity
  8
SEIHIN
  6
CONTINUOUS
100
AcDbLine
 10
680.7853411907663
 20
226.9016042914707
 30
0.0
 11
679.4438411907663
 21
226.1750042914708
 31
0.0
  0
LINE
  5
54A
330
1A
100
AcDbEntity
  8
SEIHIN
  6
CONTINUOUS
100
AcDbLine
 10
684.4028411907665
 20
225.4941042914708
 30
0.0
 11
679.4438411907663
 21
224.7991042914708
 31
0.0
  0
LINE
  5
54B
330
1A
100
AcDbEntity
  8
SEIHIN
  6
CONTINUOUS
100
AcDbLine
 10
679.4438411907663
 20
226.1749042914707
 30
0.0
 11
684.4028411907665
 21
226.8699042914708
 31
0.0
  0
LINE
  5
54C
330
1A
100
AcDbEntity
  8
SEIHIN
  6
CONTINUOUS
100
AcDbLine
 10
684.4028411907665
 20
226.8699042914708
 30
0.0
 11
684.4028411907665
 21
225.4941042914708
 31
0.0
  0
LINE
  5
54D
330
1A
100
AcDbEntity
  8
SEIHIN
  6
CONTINUOUS
100
AcDbLine
 10
679.4438411907663
 20
224.7991042914708
 30
0.0
 11
680.7853411907663
 21
224.1511042914707
 31
0.0
  0
LINE
  5
54E
330
1A
100
AcDbEntity
  8
SEIHIN
  6
CONTINUOUS
100
AcDbLine
 10
684.4028411907665
 20
225.4941042914708
 30
0.0
 11
685.5933411907662
 21
224.8067042914708
 31
0.0
  0
LINE
  5
54F
330
1A
100
AcDbEntity
  8
SEIHIN
  6
CONTINUOUS
100
AcDbLine
 10
685.5933411907662
 20
227.5573042914708
 30
0.0
 11
684.4028411907665
 21
226.8699042914708
 31
0.0
  0
LINE
  5
550
330
1A
100
AcDbEntity
  8
SEIHIN
  6
CONTINUOUS
100
AcDbLine
 10
685.5933411907662
 20
227.5573042914708
 30
0.0
 11
680.7853411907663
 21
226.9016042914707
 31
0.0
  0
LINE
  5
551
330
1A
100
AcDbEntity
  8
SEIHIN
  6
CONTINUOUS
100
AcDbLine
 10
680.7853411907663
 20
224.1511042914707
 30
0.0
 11
685.5933411907662
 21
224.8067042914708
 31
0.0
  0
LINE
  5
552
330
1A
100
AcDbEntity
  8
SEIHIN
  6
CONTINUOUS
100
AcDbLine
 10
696.5934411907667
 20
235.0572042914708
 30
0.0
 11
692.5935411907665
 21
233.5572042914707
 31
0.0
  0
LINE
  5
55A
330
1A
100
AcDbEntity
  8
SEIHIN
  6
CONTINUOUS
100
AcDbLine
 10
693.5934411907664
 20
237.5572042914707
 30
0.0
 11
693.5934411907664
 21
236.0572042914707
 31
0.0
  0
ARC
  5
55B
330
1A
100
AcDbEntity
  8
SEIHIN
  6
CONTINUOUS
100
AcDbCircle
 10
641.5933446254582
 20
309.2048252236425
 30
0.0
 40
56.99998830067169
100
AcDbArc
 50
54.44511744296731
 51
68.77250416924887
  0
LINE
  5
562
330
1A
100
AcDbEntity
  8
SEIHIN
  6
CONTINUOUS
100
AcDbLine
 10
334.0455090366942
 20
179.9311890271005
 30
0.0
 11
419.6647090366942
 21
179.9309890266336
 31
0.0
  0
LINE
  5
563
330
1A
100
AcDbEntity
  8
SEIHIN
  6
CONTINUOUS
100
AcDbLine
 10
691.5935411907664
 20
333.2046730304033
 30
0.0
 11
641.5934411907665
 21
333.2047730304032
 31
0.0
  0
LINE
  5
564
330
1A
100
AcDbEntity
  8
SEIHIN
  6
CONTINUOUS
100
AcDbLine
 10
687.5935411907664
 20
335.2046730304033
 30
0.0
 11
641.5935411907664
 21
335.2048730304033
 31
0.0
  0
LINE
  5
566
330
1A
100
AcDbEntity
  8
SEIHIN
  6
CONTINUOUS
100
AcDbLine
 10
675.5936411907664
 20
349.2047730304033
 30
0.0
 11
641.5935411907664
 21
349.2048730304032
 31
0.0
  0
LINE
  5
567
330
1A
100
AcDbEntity
  8
SEIHIN
  6
CONTINUOUS
100
AcDbLine
 10
691.5935411907664
 20
334.2046730304031
 30
0.0
 11
641.5935411907664
 21
334.2047730304031
 31
0.0
  0
LINE
  5
578
330
1A
100
AcDbEntity
  8
SEIHIN
  6
CONTINUOUS
100
AcDbLine
 10
680.0936411907664
 20
353.9119730304032
 30
0.0
 11
641.5935411907664
 21
353.9120730304033
 31
0.0
  0
ARC
  5
57A
330
1A
100
AcDbEntity
  8
SEIHIN
  6
CONTINUOUS
100
AcDbCircle
 10
655.593653660922
 20
365.4896827784957
 30
0.0
 40
0.999987529892074
100
AcDbArc
 50
256.0299017641769
 51
359.9994414684808
  0
ARC
  5
57B
330
1A
100
AcDbEntity
  8
SEIHIN
  6
CONTINUOUS
100
AcDbCircle
 10
641.5936041565067
 20
309.2047223605766
 30
0.0
 40
58.99993941792875
100
AcDbArc
 50
70.1852188716256
 51
75.27175256892623
  0
ARC
  5
57C
330
1A
100
AcDbEntity
  8
SEIHIN
  6
CONTINUOUS
100
AcDbCircle
 10
627.593528720611
 20
365.4897827784958
 30
0.0
 40
0.9999875298919882
100
AcDbArc
 50
180.000558531524
 51
283.9700982358298
  0
ARC
  5
57D
330
1A
100
AcDbEntity
  8
SEIHIN
  6
CONTINUOUS
100
AcDbCircle
 10
641.5932807684871
 20
309.2047532431573
 30
0.0
 40
55.50001978747771
100
AcDbArc
 50
89.99983438709415
 51
104.0630691459194
  0
ARC
  5
57E
330
1A
100
AcDbEntity
  8
SEIHIN
  6
CONTINUOUS
100
AcDbCircle
 10
641.5931977689884
 20
309.2047432109011
 30
0.0
 40
57.0000298200219
100
AcDbArc
 50
89.99975531520636
 51
103.9677852295938
  0
ARC
  5
57F
330
1A
100
AcDbEntity
  8
SEIHIN
  6
CONTINUOUS
100
AcDbCircle
 10
641.5931870402064
 20
309.2046940086532
 30
0.0
 40
58.99996907940512
100
AcDbArc
 50
104.7282487105091
 51
109.8147798489394
  0
LINE
  5
580
330
1A
100
AcDbEntity
  8
CENTER_L
 48
5.0
100
AcDbLine
 10
641.5936411907664
 20
372.0782730304031
 30
0.0
 11
641.5934411907665
 21
302.9976730304033
 31
0.0
  0
ARC
  5
581
330
1A
100
AcDbEntity
  8
SEIHIN
  6
CONTINUOUS
100
AcDbCircle
 10
641.5935031124281
 20
309.2047653927467
 30
0.0
 40
55.50000763769105
100
AcDbArc
 50
75.93692930783544
 51
90.00006392521397
  0
ARC
  5
582
330
1A
100
AcDbEntity
  8
SEIHIN
  6
CONTINUOUS
100
AcDbCircle
 10
641.5936846125448
 20
309.2047432109016
 30
0.0
 40
57.00002982002139
100
AcDbArc
 50
76.03221477040605
 51
90.00024468479365
  0
LINE
  5
583
330
1A
100
AcDbEntity
  8
SEIHIN
  6
CONTINUOUS
100
AcDbLine
 10
604.6477411907665
 20
355.2049730304031
 30
0.0
 11
607.2862411907665
 21
355.2049730304031
 31
0.0
  0
ARC
  5
584
330
1A
100
AcDbEntity
  8
SEIHIN
  6
CONTINUOUS
100
AcDbCircle
 10
607.5935411907667
 20
347.2049730304031
 30
0.0
 40
2.0
100
AcDbArc
 50
90.0
 51
180.0
  0
LINE
  5
585
330
1A
100
AcDbEntity
  8
SEIHIN
  6
CONTINUOUS
100
AcDbLine
 10
591.5934411907667
 20
333.2050730304033
 30
0.0
 11
641.5934411907665
 21
333.2047730304032
 31
0.0
  0
LINE
  5
586
330
1A
100
AcDbEntity
  8
SEIHIN
  6
CONTINUOUS
100
AcDbLine
 10
595.5934411907667
 20
335.2049730304031
 30
0.0
 11
641.5934411907665
 21
335.2047730304032
 31
0.0
  0
LINE
  5
587
330
1A
100
AcDbEntity
  8
SEIHIN
  6
CONTINUOUS
100
AcDbLine
 10
591.5934411907667
 20
334.2050730304033
 30
0.0
 11
641.5934411907665
 21
334.2047730304031
 31
0.0
  0
LINE
  5
588
330
1A
100
AcDbEntity
  8
SEIHIN
  6
CONTINUOUS
100
AcDbLine
 10
603.0931411907666
 20
353.9121730304032
 30
0.0
 11
641.5932411907665
 21
353.9120730304033
 31
0.0
  0
LINE
  5
589
330
1A
100
AcDbEntity
  8
SEIHIN
  6
CONTINUOUS
100
AcDbLine
 10
420.8548090367314
 20
181.930883465251
 30
0.0
 11
332.8550090366943
 21
181.9312945880158
 31
0.0
  0
LINE
  5
59A
330
1A
100
AcDbEntity
  8
SEIHIN
  6
CONTINUOUS
100
AcDbLine
 10
332.8550090366942
 20
202.9309945884831
 30
0.0
 11
332.8550090366943
 21
181.9312945880158
 31
0.0
  0
LINE
  5
59F
330
1A
100
AcDbEntity
  8
SEIHIN
  6
CONTINUOUS
100
AcDbLine
 10
334.045509036694
 20
181.9312890261662
 30
0.0
 11
334.0455090366941
 21
179.9310890266334
 31
0.0
  0
LINE
  5
5A0
330
1A
100
AcDbEntity
  8
SEIHIN
  6
CONTINUOUS
100
AcDbLine
 10
603.0933411907665
 20
335.2049730304031
 30
0.0
 11
603.0935411907667
 21
353.9122730304033
 31
0.0
  0
LINE
  5
5AD
330
1A
100
AcDbEntity
  8
SEIHIN
  6
CONTINUOUS
100
AcDbLine
 10
591.5934411907667
 20
334.2050730304033
 30
0.0
 11
591.5934411907667
 21
333.2050730304033
 31
0.0
  0
LINE
  5
5AE
330
1A
100
AcDbEntity
  8
SEIHIN
  6
CONTINUOUS
100
AcDbLine
 10
591.5934411907667
 20
334.2050730304033
 30
0.0
 11
595.5934411907667
 21
335.2049730304031
 31
0.0
  0
LINE
  5
5B0
330
1A
100
AcDbEntity
  8
SEIHIN
  6
CONTINUOUS
100
AcDbLine
 10
334.0455090366941
 20
202.9309890266336
 30
0.0
 11
334.0455090366941
 21
204.9313890266336
 31
0.0
  0
ARC
  5
5B2
330
1A
100
AcDbEntity
  8
SEIHIN
  6
CONTINUOUS
100
AcDbCircle
 10
641.5932802247573
 20
309.2046391465676
 30
0.0
 40
58.99999957710644
100
AcDbArc
 50
128.7702429563592
 51
130.7334835082611
  0
LINE
  5
5B4
330
1A
100
AcDbEntity
  8
SEIHIN
  6
CONTINUOUS
100
AcDbLine
 10
628.5935411907664
 20
355.2048730304032
 30
0.0
 11
641.5935411907664
 21
355.2048730304032
 31
0.0
  0
ARC
  5
5B5
330
1A
100
AcDbEntity
  8
SEIHIN
  6
CONTINUOUS
100
AcDbCircle
 10
641.5935106281601
 20
309.2047828681363
 30
0.0
 40
53.99999016231161
100
AcDbArc
 50
90.00007367537619
 51
106.127810375173
  0
LINE
  5
5B6
330
1A
100
AcDbEntity
  8
SEIHIN
  6
CONTINUOUS
100
AcDbLine
 10
607.5935411907667
 20
349.2049730304031
 30
0.0
 11
641.5935411907664
 21
349.2048730304032
 31
0.0
  0
LINE
  5
5B7
330
1A
100
AcDbEntity
  8
SEIHIN
  6
CONTINUOUS
100
AcDbLine
 10
607.5935411907667
 20
349.2049730304031
 30
0.0
 11
607.5934411907667
 21
335.2049730304031
 31
0.0
  0
LINE
  5
5B8
330
1A
100
AcDbEntity
  8
SEIHIN
  6
CONTINUOUS
100
AcDbLine
 10
605.5934411907665
 20
335.2049730304031
 30
0.0
 11
605.5935411907666
 21
347.2049730304031
 31
0.0
  0
ARC
  5
5B9
330
1A
100
AcDbEntity
  8
SEIHIN
  6
CONTINUOUS
100
AcDbCircle
 10
619.5935367695263
 20
357.9721758862485
 30
0.0
 40
2.000004421242344
100
AcDbArc
 50
359.9999181862368
 51
114.2800431565312
  0
ARC
  5
5BA
330
1A
100
AcDbEntity
  8
SEIHIN
  6
CONTINUOUS
100
AcDbCircle
 10
619.5935411907667
 20
357.2048730304032
 30
0.0
 40
2.0
100
AcDbArc
 50
270.0
 51
0.0
  0
ARC
  5
5BB
330
1A
100
AcDbEntity
  8
SEIHIN
  6
CONTINUOUS
100
AcDbCircle
 10
620.5935594861013
 20
363.2695997650948
 30
0.0
 40
0.9999817050226226
100
AcDbArc
 50
291.2285029698796
 51
359.9984681869848
  0
ARC
  5
5BC
330
1A
100
AcDbEntity
  8
SEIHIN
  6
CONTINUOUS
100
AcDbCircle
 10
641.5934603649514
 20
309.204783394026
 30
0.0
 40
57.00003547819529
100
AcDbArc
 50
111.2275017910538
 51
125.5548765967297
  0
ARC
  5
5BD
330
1A
100
AcDbEntity
  8
SEIHIN
  6
CONTINUOUS
100
AcDbCircle
 10
607.2861596364885
 20
357.2049468825614
 30
0.0
 40
1.999973853821031
100
AcDbArc
 50
270.0023363885142
 51
305.5559997964745
  0
LINE
  5
5BE
330
1A
100
AcDbEntity
  8
SEIHIN
  6
CONTINUOUS
100
AcDbLine
 10
621.5935411907667
 20
357.9720730304032
 30
0.0
 11
621.5935411907667
 21
357.2048730304032
 31
0.0
  0
LINE
  5
5BF
330
1A
100
AcDbEntity
  8
SEIHIN
  6
CONTINUOUS
100
AcDbLine
 10
615.9080411907664
 20
355.2049730304031
 30
0.0
 11
619.5935411907667
 21
355.2048730304032
 31
0.0
  0
ARC
  5
5C0
330
1A
100
AcDbEntity
  8
SEIHIN
  6
CONTINUOUS
100
AcDbCircle
 10
641.5933001233822
 20
309.2047031825349
 30
0.0
 40
55.50000137905448
100
AcDbArc
 50
114.2812113745693
 51
118.4020123612512
  0
ARC
  5
5C1
330
1A
100
AcDbEntity
  8
SEIHIN
  6
CONTINUOUS
100
AcDbCircle
 10
641.5933837082711
 20
309.2047448633012
 30
0.0
 40
54.00003186174174
100
AcDbArc
 50
112.2168790477653
 51
119.9937843774457
  0
ARC
  5
5C2
330
1A
100
AcDbEntity
  8
SEIHIN
  6
CONTINUOUS
100
AcDbCircle
 10
615.9080514847071
 20
356.7049323492999
 30
0.0
 40
1.499959318932117
100
AcDbArc
 50
118.3997103263948
 51
269.9996067897623
  0
LINE
  5
5C3
330
1A
100
AcDbEntity
  8
SEIHIN
  6
CONTINUOUS
100
AcDbLine
 10
621.5935411907667
 20
364.7115730304032
 30
0.0
 11
621.5935411907667
 21
363.2695730304033
 31
0.0
  0
LINE
  5
5C4
330
1A
100
AcDbEntity
  8
SEIHIN
  6
CONTINUOUS
100
AcDbLine
 10
626.5935411907665
 20
361.1013730304033
 30
0.0
 11
626.5935411907665
 21
357.2048730304032
 31
0.0
  0
ARC
  5
5C5
330
1A
100
AcDbEntity
  8
SEIHIN
  6
CONTINUOUS
100
AcDbCircle
 10
628.5935156904413
 20
361.101340353853
 30
0.0
 40
1.999974499941732
100
AcDbArc
 50
104.0631005869994
 51
179.9990638738523
  0
ARC
  5
5C6
330
1A
100
AcDbEntity
  8
SEIHIN
  6
CONTINUOUS
100
AcDbCircle
 10
628.5935411907664
 20
357.2048730304032
 30
0.0
 40
2.0
100
AcDbArc
 50
180.0
 51
270.0
  0
LINE
  5
5C7
330
1A
100
AcDbEntity
  8
SEIHIN
  6
CONTINUOUS
100
AcDbLine
 10
654.5935411907664
 20
355.2047730304032
 30
0.0
 11
641.5935411907664
 21
355.2048730304032
 31
0.0
  0
ARC
  5
5C8
330
1A
100
AcDbEntity
  8
SEIHIN
  6
CONTINUOUS
100
AcDbCircle
 10
641.593371753373
 20
309.2047828681368
 30
0.0
 40
53.99999016231117
100
AcDbArc
 50
73.87218962482695
 51
89.99992632462383
  0
ARC
  5
5C9
330
1A
100
AcDbEntity
  8
SEIHIN
  6
CONTINUOUS
100
AcDbCircle
 10
641.5934180352901
 20
309.2047843768118
 30
0.0
 40
53.99998796069962
100
AcDbArc
 50
60.00621245644797
 51
67.78312411834054
  0
ARC
  5
5CA
330
1A
100
AcDbEntity
  8
SEIHIN
  6
CONTINUOUS
100
AcDbCircle
 10
663.5936456120066
 20
357.9719758862486
 30
0.0
 40
2.000004421242319
100
AcDbArc
 50
65.7199568434633
 51
180.000081813759
  0
ARC
  5
5CB
330
1A
100
AcDbEntity
  8
SEIHIN
  6
CONTINUOUS
100
AcDbCircle
 10
663.5936411907664
 20
357.2047730304033
 30
0.0
 40
2.000000000000113
100
AcDbArc
 50
180.0000000000024
 51
270.0000000000016
  0
LINE
  5
5CC
330
1A
100
AcDbEntity
  8
SEIHIN
  6
CONTINUOUS
100
AcDbLine
 10
661.5936411907664
 20
357.9719730304033
 30
0.0
 11
661.5936411907664
 21
357.2047730304031
 31
0.0
  0
ARC
  5
5CD
330
1A
100
AcDbEntity
  8
SEIHIN
  6
CONTINUOUS
100
AcDbCircle
 10
662.5936695024649
 20
363.2694316605603
 30
0.0
 40
1.000028312554307
100
AcDbArc
 50
179.9976297497031
 51
248.7696696054266
  0
LINE
  5
5CE
330
1A
100
AcDbEntity
  8
SEIHIN
  6
CONTINUOUS
100
AcDbLine
 10
656.5935411907664
 20
361.1012730304031
 30
0.0
 11
656.5935411907664
 21
357.2047730304031
 31
0.0
  0
ARC
  5
5CF
330
1A
100
AcDbEntity
  8
SEIHIN
  6
CONTINUOUS
100
AcDbCircle
 10
654.5935181897809
 20
361.101302503888
 30
0.0
 40
2.000023001202718
100
AcDbArc
 50
359.999155656563
 51
75.93581508887986
  0
ARC
  5
5D0
330
1A
100
AcDbEntity
  8
SEIHIN
  6
CONTINUOUS
100
AcDbCircle
 10
654.5935411907664
 20
357.2047730304031
 30
0.0
 40
2.0
100
AcDbArc
 50
270.0
 51
0.0
  0
LINE
  5
5D1
330
1A
100
AcDbEntity
  8
SEIHIN
  6
CONTINUOUS
100
AcDbLine
 10
661.5936411907664
 20
364.7114730304033
 30
0.0
 11
661.5936411907664
 21
363.2694730304033
 31
0.0
  0
LINE
  5
5D2
330
1A
100
AcDbEntity
  8
SEIHIN
  6
CONTINUOUS
100
AcDbLine
 10
667.2790411907662
 20
355.2047730304032
 30
0.0
 11
663.5936411907664
 21
355.2047730304032
 31
0.0
  0
ARC
  5
5D3
330
1A
100
AcDbEntity
  8
SEIHIN
  6
CONTINUOUS
100
AcDbCircle
 10
641.5940947425418
 20
309.2044494325544
 30
0.0
 40
55.49998082274957
100
AcDbArc
 50
61.59857762554435
 51
65.71947271540857
  0
ARC
  5
5D4
330
1A
100
AcDbEntity
  8
SEIHIN
  6
CONTINUOUS
100
AcDbCircle
 10
667.2790369142392
 20
356.7047561318795
 30
0.0
 40
1.499983101482442
100
AcDbArc
 50
270.0001633531485
 51
61.59669973404409
  0
LINE
  5
5D5
330
1A
100
AcDbEntity
  8
SEIHIN
  6
CONTINUOUS
100
AcDbLine
 10
626.5935411907665
 20
366.2661730304033
 30
0.0
 11
626.5935411907665
 21
365.4897730304032
 31
0.0
  0
LINE
  5
5D6
330
1A
100
AcDbEntity
  8
SEIHIN
  6
CONTINUOUS
100
AcDbLine
 10
656.5936411907664
 20
366.2660730304031
 30
0.0
 11
656.5936411907664
 21
365.4896730304033
 31
0.0
  0
LINE
  5
5E3
330
1A
100
AcDbEntity
  8
SEIHIN
  6
CONTINUOUS
100
AcDbLine
 10
419.6647090366942
 20
181.9308890252318
 30
0.0
 11
419.6647090366942
 21
179.9310890266334
 31
0.0
  0
LINE
  5
5EB
330
1A
100
AcDbEntity
  8
SEIHIN
  6
CONTINUOUS
100
AcDbLine
 10
677.5935411907664
 20
335.2046730304033
 30
0.0
 11
677.5935411907664
 21
347.2047730304033
 31
0.0
  0
LINE
  5
5EC
330
1A
100
AcDbEntity
  8
SEIHIN
  6
CONTINUOUS
100
AcDbLine
 10
675.5936411907664
 20
349.2047730304033
 30
0.0
 11
675.5935411907664
 21
335.2046730304033
 31
0.0
  0
LINE
  5
5ED
330
1A
100
AcDbEntity
  8
SEIHIN
  6
CONTINUOUS
100
AcDbLine
 10
680.0935411907665
 20
335.2046730304033
 30
0.0
 11
680.0936411907664
 21
353.9119730304032
 31
0.0
  0
LINE
  5
5FA
330
1A
100
AcDbEntity
  8
SEIHIN
  6
CONTINUOUS
100
AcDbLine
 10
419.6647090366942
 20
204.9309890266336
 30
0.0
 11
419.6647090366942
 21
202.9309890266336
 31
0.0
  0
LINE
  5
5FC
330
1A
100
AcDbEntity
  8
SEIHIN
  6
CONTINUOUS
100
AcDbLine
 10
691.5935411907664
 20
334.2046730304031
 30
0.0
 11
691.5935411907664
 21
333.2046730304033
 31
0.0
  0
LINE
  5
5FD
330
1A
100
AcDbEntity
  8
SEIHIN
  6
CONTINUOUS
100
AcDbLine
 10
691.5935411907664
 20
334.2046730304031
 30
0.0
 11
687.5935411907664
 21
335.2046730304033
 31
0.0
  0
ARC
  5
5FE
330
1A
100
AcDbEntity
  8
SEIHIN
  6
CONTINUOUS
100
AcDbCircle
 10
675.5935411907664
 20
347.2047730304033
 30
0.0
 40
2.0
100
AcDbArc
 50
0.0
 51
90.0
  0
ARC
  5
5FF
330
1A
100
AcDbEntity
  8
SEIHIN
  6
CONTINUOUS
100
AcDbCircle
 10
641.5935430484823
 20
309.2046883102468
 30
0.0
 40
58.99993563964585
100
AcDbArc
 50
49.26651542786664
 51
51.22975810751502
  0
ARC
  5
600
330
1A
100
AcDbEntity
  8
SEIHIN
  6
CONTINUOUS
100
AcDbCircle
 10
675.9009320645386
 20
357.2047759566488
 30
0.0
 40
2.000002926266518
100
AcDbArc
 50
234.4442673356337
 51
270.0002614467881
  0
LINE
  5
601
330
1A
100
AcDbEntity
  8
SEIHIN
  6
CONTINUOUS
100
AcDbLine
 10
678.5394411907664
 20
355.2047730304032
 30
0.0
 11
675.9009411907666
 21
355.2047730304032
 31
0.0
  0
ARC
  5
604
330
1A
100
AcDbEntity
  8
SEIHIN
  6
CONTINUOUS
100
AcDbCircle
 10
376.8552372778539
 20
180.9310993903951
 30
0.0
 40
57.00003547819498
100
AcDbArc
 50
111.2275017910534
 51
125.5548765967293
  0
LINE
  5
60F
330
1A
100
AcDbEntity
  8
SEIHIN
  6
CONTINUOUS
100
AcDbLine
 10
326.8552181036694
 20
205.9312890267721
 30
0.0
 11
326.8552181036694
 21
204.9312890267722
 31
0.0
  0
LINE
  5
616
330
1A
100
AcDbEntity
  8
SEIHIN
  6
CONTINUOUS
100
AcDbLine
 10
326.8552181036694
 20
205.9312890267721
 30
0.0
 11
330.8552181036693
 21
206.9312890267722
 31
0.0
  0
LINE
  5
617
330
1A
100
AcDbEntity
  8
SEIHIN
  6
CONTINUOUS
100
AcDbLine
 10
338.3552181036694
 20
206.9312890267722
 30
0.0
 11
338.3553181036694
 21
225.6385890267722
 31
0.0
  0
LINE
  5
618
330
1A
100
AcDbEntity
  8
SEIHIN
  6
CONTINUOUS
100
AcDbLine
 10
340.8552181036693
 20
206.9312890267722
 30
0.0
 11
340.8552181036693
 21
218.9312890267722
 31
0.0
  0
LINE
  5
619
330
1A
100
AcDbEntity
  8
SEIHIN
  6
CONTINUOUS
100
AcDbLine
 10
342.8553181036694
 20
220.9312890267722
 30
0.0
 11
342.8552181036694
 21
206.9311890267722
 31
0.0
  0
ARC
  5
61A
330
1A
100
AcDbEntity
  8
SEIHIN
  6
CONTINUOUS
100
AcDbCircle
 10
376.8550571376639
 20
180.930955142937
 30
0.0
 40
58.99999957710843
100
AcDbArc
 50
128.7702429563623
 51
130.7334835082643
  0
ARC
  5
61B
330
1A
100
AcDbEntity
  8
SEIHIN
  6
CONTINUOUS
100
AcDbCircle
 10
342.5479365493915
 20
228.9312628789303
 30
0.0
 40
1.99997385382095
100
AcDbArc
 50
270.0023363885065
 51
305.5559997964655
  0
ARC
  5
61C
330
1A
100
AcDbEntity
  8
SEIHIN
  6
CONTINUOUS
100
AcDbCircle
 10
342.8553181036694
 20
218.9312890267722
 30
0.0
 40
2.0
100
AcDbArc
 50
90.0
 51
180.0
  0
LINE
  5
61D
330
1A
100
AcDbEntity
  8
SEIHIN
  6
CONTINUOUS
100
AcDbLine
 10
339.9095181036694
 20
226.9312890267722
 30
0.0
 11
342.5480181036695
 21
226.9312890267722
 31
0.0
  0
LINE
  5
61E
330
1A
100
AcDbEntity
  8
SEIHIN
  6
CONTINUOUS
100
AcDbLine
 10
426.8553181036694
 20
205.9309890267721
 30
0.0
 11
426.8553181036694
 21
204.9309890267722
 31
0.0
  0
LINE
  5
61F
330
1A
100
AcDbEntity
  8
CENTER_L
 48
5.0
100
AcDbLine
 10
376.8554181036694
 20
243.8045890267722
 30
0.0
 11
376.8551963821669
 21
172.9310890247474
 31
0.0
  0
LINE
  5
624
330
1A
100
AcDbEntity
  8
SEIHIN
  6
CONTINUOUS
100
AcDbLine
 10
426.8553181036694
 20
204.9309890267722
 30
0.0
 11
326.8552181036695
 21
204.931189026572
 31
0.0
  0
ARC
  5
62B
330
1A
100
AcDbEntity
  8
SEIHIN
  6
CONTINUOUS
100
AcDbCircle
 10
410.8553181036695
 20
218.9309890267721
 30
0.0
 40
2.0
100
AcDbArc
 50
0.0
 51
90.0
  0
LINE
  5
62C
330
1A
100
AcDbEntity
  8
SEIHIN
  6
CONTINUOUS
100
AcDbLine
 10
413.8011181036693
 20
226.9309890267721
 30
0.0
 11
411.1627181036694
 21
226.9309890267721
 31
0.0
  0
LINE
  5
62D
330
1A
100
AcDbEntity
  8
SEIHIN
  6
CONTINUOUS
100
AcDbLine
 10
422.8553181036694
 20
206.9309890267722
 30
0.0
 11
330.855618098452
 21
206.9313890254679
 31
0.0
  0
LINE
  5
62E
330
1A
100
AcDbEntity
  8
SEIHIN
  6
CONTINUOUS
100
AcDbLine
 10
426.8553181036694
 20
205.9309890267721
 30
0.0
 11
326.8552181036695
 21
205.9311890269722
 31
0.0
  0
LINE
  5
62F
330
1A
100
AcDbEntity
  8
SEIHIN
  6
CONTINUOUS
100
AcDbLine
 10
415.3554181036694
 20
225.6382890267722
 30
0.0
 11
338.3550019805856
 21
225.6382890267722
 31
0.0
  0
LINE
  5
630
330
1A
100
AcDbEntity
  8
SEIHIN
  6
CONTINUOUS
100
AcDbLine
 10
389.8553181036693
 20
226.9310890267722
 30
0.0
 11
351.1454602034323
 21
226.93138679491
 31
0.0
  0
LINE
  5
631
330
1A
100
AcDbEntity
  8
SEIHIN
  6
CONTINUOUS
100
AcDbLine
 10
410.8553181036695
 20
220.9309890267721
 30
0.0
 11
342.8553181043836
 21
220.9313890267722
 31
0.0
  0
ARC
  5
632
330
1A
100
AcDbEntity
  8
SEIHIN
  6
CONTINUOUS
100
AcDbCircle
 10
376.8548868046838
 20
180.9311298905407
 30
0.0
 40
55.49995913722028
100
AcDbArc
 50
75.93649827838544
 51
89.99965798112418
  0
ARC
  5
633
330
1A
100
AcDbEntity
  8
SEIHIN
  6
CONTINUOUS
100
AcDbCircle
 10
376.8550654360672
 20
180.9311077287954
 30
0.0
 40
56.9999812981811
100
AcDbArc
 50
76.03179236243438
 51
89.99984654013784
  0
ARC
  5
634
330
1A
100
AcDbEntity
  8
SEIHIN
  6
CONTINUOUS
100
AcDbCircle
 10
376.8551486662756
 20
180.9310988645054
 30
0.0
 40
53.99999016231138
100
AcDbArc
 50
73.87218962482673
 51
89.9999263246236
  0
ARC
  5
635
330
1A
100
AcDbEntity
  8
SEIHIN
  6
CONTINUOUS
100
AcDbCircle
 10
363.8553181036694
 20
228.9311890267722
 30
0.0
 40
2.0
100
AcDbArc
 50
180.0
 51
270.0
  0
ARC
  5
636
330
1A
100
AcDbEntity
  8
SEIHIN
  6
CONTINUOUS
100
AcDbCircle
 10
376.8554916089269
 20
180.9312230473056
 30
0.0
 40
54.0000068672393
100
AcDbArc
 50
112.2172692323006
 51
119.9940826681163
  0
ARC
  5
637
330
1A
100
AcDbEntity
  8
SEIHIN
  6
CONTINUOUS
100
AcDbCircle
 10
351.1698172682736
 20
228.4311923284316
 30
0.0
 40
1.500003301659603
100
AcDbArc
 50
118.3983186976047
 51
270.0000319096986
  0
ARC
  5
638
330
1A
100
AcDbEntity
  8
SEIHIN
  6
CONTINUOUS
100
AcDbCircle
 10
354.8553181036694
 20
228.9311890267721
 30
0.0
 40
1.999999999999957
100
AcDbArc
 50
270.0000000000012
 51
0.0000000000012245
  0
LINE
  5
639
330
1A
100
AcDbEntity
  8
SEIHIN
  6
CONTINUOUS
100
AcDbLine
 10
351.1698181036695
 20
226.9311890267722
 30
0.0
 11
354.8553181036694
 21
226.9311890267722
 31
0.0
  0
ARC
  5
63B
330
1A
100
AcDbEntity
  8
SEIHIN
  6
CONTINUOUS
100
AcDbCircle
 10
376.8550576813904
 20
180.9310692395271
 30
0.0
 40
55.50001978747695
100
AcDbArc
 50
89.99983438709461
 51
104.0630691459199
  0
ARC
  5
63C
330
1A
100
AcDbEntity
  8
SEIHIN
  6
CONTINUOUS
100
AcDbCircle
 10
376.8553707712716
 20
180.9311077287959
 30
0.0
 40
56.99998129818063
100
AcDbArc
 50
90.0001534598622
 51
103.9682076375656
  0
ARC
  5
63D
330
1A
100
AcDbEntity
  8
SEIHIN
  6
CONTINUOUS
100
AcDbCircle
 10
376.8552875410631
 20
180.9310988645055
 30
0.0
 40
53.99999016231127
100
AcDbArc
 50
90.00007367537639
 51
106.1278103751732
  0
ARC
  5
63E
330
1A
100
AcDbEntity
  8
SEIHIN
  6
CONTINUOUS
100
AcDbCircle
 10
354.8553386976315
 20
229.6984757253228
 30
0.0
 40
1.999979406082127
100
AcDbArc
 50
0.0003810623769162
 51
114.2842954935778
  0
ARC
  5
63F
330
1A
100
AcDbEntity
  8
SEIHIN
  6
CONTINUOUS
100
AcDbCircle
 10
376.8550770362833
 20
180.9310191789064
 30
0.0
 40
55.50000137905119
100
AcDbArc
 50
114.2812113745685
 51
118.4020123612505
  0
ARC
  5
640
330
1A
100
AcDbEntity
  8
SEIHIN
  6
CONTINUOUS
100
AcDbCircle
 10
363.8552804542107
 20
232.8276407845276
 30
0.0
 40
1.999962351123095
100
AcDbArc
 50
104.0598756278241
 51
179.9986179354783
  0
LINE
  5
641
330
1A
100
AcDbEntity
  8
SEIHIN
  6
CONTINUOUS
100
AcDbLine
 10
361.8553181036694
 20
232.8276890267721
 30
0.0
 11
361.8553181036694
 21
228.9311890267722
 31
0.0
  0
LINE
  5
642
330
1A
100
AcDbEntity
  8
SEIHIN
  6
CONTINUOUS
100
AcDbLine
 10
361.8553181036694
 20
237.9924890267722
 30
0.0
 11
361.8553181036694
 21
237.2160890267722
 31
0.0
  0
ARC
  5
643
330
1A
100
AcDbEntity
  8
SEIHIN
  6
CONTINUOUS
100
AcDbCircle
 10
362.8553056335139
 20
237.2160987748646
 30
0.0
 40
0.9999875298920166
100
AcDbArc
 50
180.0005585315229
 51
283.9700982358273
  0
ARC
  5
644
330
1A
100
AcDbEntity
  8
SEIHIN
  6
CONTINUOUS
100
AcDbCircle
 10
355.8553363990041
 20
234.9959157614637
 30
0.0
 40
0.9999817050226543
100
AcDbArc
 50
291.2285029698798
 51
359.9984681869832
  0
LINE
  5
645
330
1A
100
AcDbEntity
  8
SEIHIN
  6
CONTINUOUS
100
AcDbLine
 10
356.8553181036694
 20
229.6983890267722
 30
0.0
 11
356.8553181036694
 21
228.9311890267722
 31
0.0
  0
LINE
  5
646
330
1A
100
AcDbEntity
  8
SEIHIN
  6
CONTINUOUS
100
AcDbLine
 10
356.8553181036694
 20
236.4378890267722
 30
0.0
 11
356.8553181036694
 21
234.9958890267722
 31
0.0
  0
ARC
  5
647
330
1A
100
AcDbEntity
  8
SEIHIN
  6
CONTINUOUS
100
AcDbCircle
 10
376.8549639531111
 20
180.9310100050245
 30
0.0
 40
58.99996907940334
100
AcDbArc
 50
104.7282487105114
 51
109.8147798489417
  0
ARC
  5
648
330
1A
100
AcDbEntity
  8
SEIHIN
  6
CONTINUOUS
100
AcDbCircle
 10
376.8551949481945
 20
180.9311003731807
 30
0.0
 40
53.99998796069905
100
AcDbArc
 50
60.00621245644914
 51
67.78312411834177
  0
ARC
  5
649
330
1A
100
AcDbEntity
  8
SEIHIN
  6
CONTINUOUS
100
AcDbCircle
 10
398.8554181036694
 20
228.9310890267722
 30
0.0
 40
2.0
100
AcDbArc
 50
180.0
 51
270.0
  0
ARC
  5
64A
330
1A
100
AcDbEntity
  8
SEIHIN
  6
CONTINUOUS
100
AcDbCircle
 10
402.5408138271421
 20
228.4310721282484
 30
0.0
 40
1.499983101482378
100
AcDbArc
 50
270.000163353152
 51
61.59669973404581
  0
ARC
  5
64B
330
1A
100
AcDbEntity
  8
SEIHIN
  6
CONTINUOUS
100
AcDbCircle
 10
376.8551215383618
 20
180.9311412200112
 30
0.0
 40
56.99998830067161
100
AcDbArc
 50
54.44511744296789
 51
68.77250416924953
  0
ARC
  5
64C
330
1A
100
AcDbEntity
  8
SEIHIN
  6
CONTINUOUS
100
AcDbCircle
 10
389.8553181036693
 20
228.9310890267722
 30
0.0
 40
2.0
100
AcDbArc
 50
270.0
 51
0.0000000000000032
  0
LINE
  5
64D
330
1A
100
AcDbEntity
  8
SEIHIN
  6
CONTINUOUS
100
AcDbLine
 10
412.8553181036695
 20
206.9309890267722
 30
0.0
 11
412.8553181036695
 21
218.9309890267721
 31
0.0
  0
LINE
  5
64E
330
1A
100
AcDbEntity
  8
SEIHIN
  6
CONTINUOUS
100
AcDbLine
 10
410.8553181036695
 20
220.9309890267721
 30
0.0
 11
410.8553181036695
 21
206.9309890267722
 31
0.0
  0
LINE
  5
64F
330
1A
100
AcDbEntity
  8
SEIHIN
  6
CONTINUOUS
100
AcDbLine
 10
402.5408181036694
 20
226.9310890267722
 30
0.0
 11
398.8554181036694
 21
226.9310890267722
 31
0.0
  0
ARC
  5
650
330
1A
100
AcDbEntity
  8
SEIHIN
  6
CONTINUOUS
100
AcDbCircle
 10
411.1627089774416
 20
228.9309919530179
 30
0.0
 40
2.000002926266652
100
AcDbArc
 50
234.4442673356327
 51
270.0002614467866
  0
ARC
  5
651
330
1A
100
AcDbEntity
  8
SEIHIN
  6
CONTINUOUS
100
AcDbCircle
 10
376.8553810694078
 20
180.931038356948
 30
0.0
 40
58.99993941792686
100
AcDbArc
 50
70.18521887162307
 51
75.27175256892371
  0
ARC
  5
652
330
1A
100
AcDbEntity
  8
SEIHIN
  6
CONTINUOUS
100
AcDbCircle
 10
398.8554225249096
 20
229.6982918826174
 30
0.0
 40
2.000004421242289
100
AcDbArc
 50
65.71995684346475
 51
180.0000818137601
  0
LINE
  5
653
330
1A
100
AcDbEntity
  8
SEIHIN
  6
CONTINUOUS
100
AcDbLine
 10
391.8553181036693
 20
232.8275890267722
 30
0.0
 11
391.8553181036693
 21
228.9310890267722
 31
0.0
  0
LINE
  5
654
330
1A
100
AcDbEntity
  8
SEIHIN
  6
CONTINUOUS
100
AcDbLine
 10
391.8554181036694
 20
237.9923890267721
 30
0.0
 11
391.8554181036694
 21
237.2159890267722
 31
0.0
  0
ARC
  5
655
330
1A
100
AcDbEntity
  8
SEIHIN
  6
CONTINUOUS
100
AcDbCircle
 10
390.8554305738249
 20
237.2159987748647
 30
0.0
 40
0.9999875298920786
100
AcDbArc
 50
256.0299017641722
 51
359.9994414684768
  0
ARC
  5
656
330
1A
100
AcDbEntity
  8
SEIHIN
  6
CONTINUOUS
100
AcDbCircle
 10
389.8553436039945
 20
232.8275563502218
 30
0.0
 40
1.999974499941793
100
AcDbArc
 50
0.000936126148326
 51
75.93689941300303
  0
ARC
  5
657
330
1A
100
AcDbEntity
  8
SEIHIN
  6
CONTINUOUS
100
AcDbCircle
 10
376.8547754044372
 20
180.9313082239007
 30
0.0
 40
55.49993683864418
100
AcDbArc
 50
61.59726648438532
 51
65.71821067913697
  0
ARC
  5
658
330
1A
100
AcDbEntity
  8
SEIHIN
  6
CONTINUOUS
100
AcDbCircle
 10
397.8554464153679
 20
234.9957476569293
 30
0.0
 40
1.000028312554243
100
AcDbArc
 50
179.9976297497095
 51
248.769669605433
  0
LINE
  5
659
330
1A
100
AcDbEntity
  8
SEIHIN
  6
CONTINUOUS
100
AcDbLine
 10
396.8554181036694
 20
229.6982890267722
 30
0.0
 11
396.8554181036694
 21
228.9310890267722
 31
0.0
  0
LINE
  5
65A
330
1A
100
AcDbEntity
  8
SEIHIN
  6
CONTINUOUS
100
AcDbLine
 10
396.8554181036694
 20
236.4376890267722
 30
0.0
 11
396.8554181036694
 21
234.9957890267721
 31
0.0
  0
LINE
  5
65B
330
1A
100
AcDbEntity
  8
SEIHIN
  6
CONTINUOUS
100
AcDbLine
 10
415.3553181036695
 20
206.9309890267722
 30
0.0
 11
415.3553181036695
 21
225.6382890267722
 31
0.0
  0
LINE
  5
65C
330
1A
100
AcDbEntity
  8
SEIHIN
  6
CONTINUOUS
100
AcDbLine
 10
426.8553181036694
 20
205.9309890267721
 30
0.0
 11
422.8553181036694
 21
206.9309890267722
 31
0.0
  0
ARC
  5
65D
330
1A
100
AcDbEntity
  8
SEIHIN
  6
CONTINUOUS
100
AcDbCircle
 10
376.855319961381
 20
180.9310043066174
 30
0.0
 40
58.99993563964723
100
AcDbArc
 50
49.2665154278625
 51
51.22975810751089
  0
LINE
  5
65E
330
1A
100
AcDbEntity
  8
SEIHIN
  6
CONTINUOUS
100
AcDbLine
 10
354.8555181036695
 20
409.1907438116219
 30
0.0
 11
345.4390181036694
 21
409.1907438116219
 31
0.0
  0
LINE
  5
65F
330
1A
100
AcDbEntity
  8
SEIHIN
  6
CONTINUOUS
100
AcDbLine
 10
354.8554181036694
 20
379.1907438116219
 30
0.0
 11
345.4389181036694
 21
379.1907438116219
 31
0.0
  0
LINE
  5
660
330
1A
100
AcDbEntity
  8
CENTER_L
 48
5.0
100
AcDbLine
 10
319.2045181036694
 20
394.1907438116219
 30
0.0
 11
434.3850181036694
 21
394.1905438116218
 31
0.0
  0
ARC
  5
661
330
1A
100
AcDbEntity
  8
SEIHIN
  6
CONTINUOUS
100
AcDbCircle
 10
376.8555181292712
 20
394.1905938116218
 30
0.0
 40
45.99989997442544
100
AcDbArc
 50
0.0000622781565454
 51
359.9999377218434
  0
ARC
  5
662
330
1A
100
AcDbEntity
  8
SEIHIN
  6
CONTINUOUS
100
AcDbCircle
 10
376.8555181512218
 20
394.1905938116218
 30
0.0
 40
38.49999995247996
100
AcDbArc
 50
0.0000744101032523
 51
359.9999255898967
  0
ARC
  5
665
330
1A
100
AcDbEntity
  8
SEIHIN
  6
CONTINUOUS
100
AcDbCircle
 10
376.8555181443506
 20
394.1905938116218
 30
0.0
 40
49.99989995934387
100
AcDbArc
 50
0.0000572958940719
 51
359.9999427041059
  0
ARC
  5
666
330
1A
100
AcDbEntity
  8
SEIHIN
  6
CONTINUOUS
100
AcDbCircle
 10
376.8555221261135
 20
394.1906235703539
 30
0.0
 40
36.00000402264496
100
AcDbArc
 50
179.9998086300997
 51
202.4794579642125
  0
ARC
  5
667
330
1A
100
AcDbEntity
  8
SEIHIN
  6
CONTINUOUS
100
AcDbCircle
 10
345.4388732804032
 20
381.190773773673
 30
0.0
 40
2.000029962553366
100
AcDbArc
 50
202.4798969765678
 51
270.0012840727523
  0
ARC
  5
668
330
1A
100
AcDbEntity
  8
SEIHIN
  6
CONTINUOUS
100
AcDbCircle
 10
376.8555412441867
 20
394.1907602541471
 30
0.0
 40
36.00002314052106
100
AcDbArc
 50
157.52054808325
 51
180.0000261690746
  0
ARC
  5
669
330
1A
100
AcDbEntity
  8
SEIHIN
  6
CONTINUOUS
100
AcDbCircle
 10
345.4389423975598
 20
407.1907600505037
 30
0.0
 40
1.999983761265708
100
AcDbArc
 50
90.00069597434295
 51
157.5209877334932
  0
LINE
  5
66A
330
1A
100
AcDbEntity
  8
SEIHIN
  6
CONTINUOUS
100
AcDbLine
 10
396.8554181036694
 20
394.1906438116217
 30
0.0
 11
396.8554181036694
 21
381.1906438116217
 31
0.0
  0
LINE
  5
66B
330
1A
100
AcDbEntity
  8
SEIHIN
  6
CONTINUOUS
100
AcDbLine
 10
391.8555181036694
 20
394.1906438116217
 30
0.0
 11
391.8555181036694
 21
381.1906438116217
 31
0.0
  0
ARC
  5
66C
330
1A
100
AcDbEntity
  8
SEIHIN
  6
CONTINUOUS
100
AcDbCircle
 10
376.8555102818728
 20
394.1906044523774
 30
0.0
 40
35.99990782184772
100
AcDbArc
 50
337.5205116097447
 51
359.9999034869928
  0
LINE
  5
66D
330
1A
100
AcDbEntity
  8
SEIHIN
  6
CONTINUOUS
100
AcDbLine
 10
361.8555181036693
 20
394.1907438116219
 30
0.0
 11
361.8554181036695
 21
381.1907438116219
 31
0.0
  0
LINE
  5
66E
330
1A
100
AcDbEntity
  8
SEIHIN
  6
CONTINUOUS
100
AcDbLine
 10
356.8555181036695
 20
394.1907438116219
 30
0.0
 11
356.8554181036694
 21
381.1907438116219
 31
0.0
  0
LINE
  5
66F
330
1A
100
AcDbEntity
  8
CENTER_L
 48
5.0
100
AcDbLine
 10
376.8555181036695
 20
452.4505438116217
 30
0.0
 11
376.8554181036694
 21
337.9011438116218
 31
0.0
  0
LINE
  5
670
330
1A
100
AcDbEntity
  8
SEIHIN
  6
CONTINUOUS
100
AcDbLine
 10
376.8554181036694
 20
374.1906438116218
 30
0.0
 11
389.8554181036694
 21
374.1906438116218
 31
0.0
  0
LINE
  5
671
330
1A
100
AcDbEntity
  8
SEIHIN
  6
CONTINUOUS
100
AcDbLine
 10
376.8554181036694
 20
379.1906438116218
 30
0.0
 11
389.8555181036695
 21
379.1906438116218
 31
0.0
  0
ARC
  5
672
330
1A
100
AcDbEntity
  8
SEIHIN
  6
CONTINUOUS
100
AcDbCircle
 10
376.8554421445488
 20
394.1906287167568
 30
0.0
 40
35.99998490514302
100
AcDbArc
 50
269.9999617377361
 51
292.479464009939
  0
LINE
  5
673
330
1A
100
AcDbEntity
  8
SEIHIN
  6
CONTINUOUS
100
AcDbLine
 10
361.8554181036695
 20
372.1907438116219
 30
0.0
 11
361.8554181036695
 21
362.7741438116219
 31
0.0
  0
ARC
  5
674
330
1A
100
AcDbEntity
  8
SEIHIN
  6
CONTINUOUS
100
AcDbCircle
 10
376.8556901401887
 20
394.1904700063056
 30
0.0
 40
35.99999933748418
100
AcDbArc
 50
219.7339020788447
 51
229.6792530098276
  0
LINE
  5
675
330
1A
100
AcDbEntity
  8
SEIHIN
  6
CONTINUOUS
100
AcDbLine
 10
356.8554181036694
 20
372.1907438116219
 30
0.0
 11
356.8554181036694
 21
368.2677438116219
 31
0.0
  0
ARC
  5
676
330
1A
100
AcDbEntity
  8
SEIHIN
  6
CONTINUOUS
100
AcDbCircle
 10
376.8556341452052
 20
394.1906207507294
 30
0.0
 40
35.99997693975576
100
AcDbArc
 50
247.5201172193946
 51
269.9996561589964
  0
ARC
  5
677
330
1A
100
AcDbEntity
  8
SEIHIN
  6
CONTINUOUS
100
AcDbCircle
 10
354.855454373077
 20
368.2677606006722
 30
0.0
 40
1.999963730662782
100
AcDbArc
 50
229.6782033670975
 51
359.9995190204177
  0
ARC
  5
678
330
1A
100
AcDbEntity
  8
SEIHIN
  6
CONTINUOUS
100
AcDbCircle
 10
363.8554018647876
 20
362.7741681055121
 30
0.0
 40
1.999983761265704
100
AcDbArc
 50
180.0006959743388
 51
247.5209877334885
  0
ARC
  5
679
330
1A
100
AcDbEntity
  8
SEIHIN
  6
CONTINUOUS
100
AcDbCircle
 10
363.8554181036695
 20
372.1907438116219
 30
0.0
 40
2.0
100
AcDbArc
 50
90.0
 51
180.0
  0
ARC
  5
67A
330
1A
100
AcDbEntity
  8
SEIHIN
  6
CONTINUOUS
100
AcDbCircle
 10
363.8554181036695
 20
381.1907438116219
 30
0.0
 40
2.0
100
AcDbArc
 50
180.0
 51
270.0
  0
ARC
  5
67B
330
1A
100
AcDbEntity
  8
SEIHIN
  6
CONTINUOUS
100
AcDbCircle
 10
354.8554181036694
 20
381.1907438116219
 30
0.0
 40
2.0
100
AcDbArc
 50
270.0
 51
0.0
  0
ARC
  5
67C
330
1A
100
AcDbEntity
  8
SEIHIN
  6
CONTINUOUS
100
AcDbCircle
 10
354.8554181036694
 20
372.1907438116219
 30
0.0
 40
2.0
100
AcDbArc
 50
0.0
 51
90.0
  0
LINE
  5
67D
330
1A
100
AcDbEntity
  8
SEIHIN
  6
CONTINUOUS
100
AcDbLine
 10
354.8554181036694
 20
374.1907438116219
 30
0.0
 11
350.9324181036694
 21
374.1907438116219
 31
0.0
  0
ARC
  5
67E
330
1A
100
AcDbEntity
  8
SEIHIN
  6
CONTINUOUS
100
AcDbCircle
 10
350.9324172461146
 20
372.1907419591236
 30
0.0
 40
2.000001852498498
100
AcDbArc
 50
89.99997543288591
 51
220.3194373606999
  0
LINE
  5
67F
330
1A
100
AcDbEntity
  8
SEIHIN
  6
CONTINUOUS
100
AcDbLine
 10
376.8554181036694
 20
379.1906438116218
 30
0.0
 11
363.8554181036695
 21
379.1907438116219
 31
0.0
  0
LINE
  5
680
330
1A
100
AcDbEntity
  8
SEIHIN
  6
CONTINUOUS
100
AcDbLine
 10
376.8554181036694
 20
374.1906438116218
 30
0.0
 11
363.8554181036695
 21
374.1907438116219
 31
0.0
  0
ARC
  5
681
330
1A
100
AcDbEntity
  8
SEIHIN
  6
CONTINUOUS
100
AcDbCircle
 10
376.8553793375111
 20
394.1905064579169
 30
0.0
 40
35.99996121529226
100
AcDbArc
 50
309.7345994066448
 51
319.6798473545528
  0
LINE
  5
682
330
1A
100
AcDbEntity
  8
SEIHIN
  6
CONTINUOUS
100
AcDbLine
 10
391.8554181036694
 20
372.1906438116218
 30
0.0
 11
391.8554181036694
 21
362.7740438116217
 31
0.0
  0
LINE
  5
683
330
1A
100
AcDbEntity
  8
SEIHIN
  6
CONTINUOUS
100
AcDbLine
 10
396.8554181036694
 20
372.1906438116218
 30
0.0
 11
396.8554181036694
 21
368.2676438116217
 31
0.0
  0
ARC
  5
684
330
1A
100
AcDbEntity
  8
SEIHIN
  6
CONTINUOUS
100
AcDbCircle
 10
398.8554141886617
 20
368.2676456237819
 30
0.0
 40
1.999996084993132
100
AcDbArc
 50
180.0000519146682
 51
310.3235517708744
  0
ARC
  5
685
330
1A
100
AcDbEntity
  8
SEIHIN
  6
CONTINUOUS
100
AcDbCircle
 10
389.8554343425514
 20
362.7740681055121
 30
0.0
 40
1.999983761265621
100
AcDbArc
 50
292.4790122665051
 51
359.9993040256546
  0
ARC
  5
686
330
1A
100
AcDbEntity
  8
SEIHIN
  6
CONTINUOUS
100
AcDbCircle
 10
398.8554181036694
 20
372.1906438116218
 30
0.0
 40
2.0
100
AcDbArc
 50
90.0
 51
180.0
  0
ARC
  5
687
330
1A
100
AcDbEntity
  8
SEIHIN
  6
CONTINUOUS
100
AcDbCircle
 10
398.8554181036693
 20
381.1906438116218
 30
0.0
 40
1.999999999999943
100
AcDbArc
 50
180.0000000000016
 51
270.0000000000016
  0
ARC
  5
688
330
1A
100
AcDbEntity
  8
SEIHIN
  6
CONTINUOUS
100
AcDbCircle
 10
389.8555181036695
 20
381.1906438116218
 30
0.0
 40
1.999999999999943
100
AcDbArc
 50
269.9999999999983
 51
359.9999999999983
  0
ARC
  5
689
330
1A
100
AcDbEntity
  8
SEIHIN
  6
CONTINUOUS
100
AcDbCircle
 10
389.8554181036694
 20
372.1906438116218
 30
0.0
 40
2.0
100
AcDbArc
 50
0.0
 51
90.0
  0
ARC
  5
68A
330
1A
100
AcDbEntity
  8
SEIHIN
  6
CONTINUOUS
100
AcDbCircle
 10
402.7784339372968
 20
372.1906096059567
 30
0.0
 40
2.00003420572773
100
AcDbArc
 50
319.6788074848427
 51
90.000453592253
  0
LINE
  5
68B
330
1A
100
AcDbEntity
  8
SEIHIN
  6
CONTINUOUS
100
AcDbLine
 10
398.8554181036694
 20
379.1906438116218
 30
0.0
 11
408.2720181036695
 21
379.1906438116218
 31
0.0
  0
LINE
  5
68C
330
1A
100
AcDbEntity
  8
SEIHIN
  6
CONTINUOUS
100
AcDbLine
 10
398.8554181036694
 20
374.1906438116218
 30
0.0
 11
402.7784181036694
 21
374.1906438116218
 31
0.0
  0
ARC
  5
68D
330
1A
100
AcDbEntity
  8
SEIHIN
  6
CONTINUOUS
100
AcDbCircle
 10
408.2719938097792
 20
381.1906275727399
 30
0.0
 40
1.999983761265594
100
AcDbArc
 50
270.0006959743419
 51
337.5209877334918
  0
ARC
  5
68E
330
1A
100
AcDbEntity
  8
SEIHIN
  6
CONTINUOUS
100
AcDbCircle
 10
376.8555102819124
 20
394.1906831709514
 30
0.0
 40
35.9999078217786
100
AcDbArc
 50
359.9999373575208
 51
22.47948839015415
  0
LINE
  5
68F
330
1A
100
AcDbEntity
  8
SEIHIN
  6
CONTINUOUS
100
AcDbLine
 10
376.8555181036695
 20
409.1906438116218
 30
0.0
 11
389.8555181036695
 21
409.1906438116218
 31
0.0
  0
LINE
  5
690
330
1A
100
AcDbEntity
  8
SEIHIN
  6
CONTINUOUS
100
AcDbLine
 10
376.8555181036695
 20
414.1906438116218
 30
0.0
 11
389.8555181036695
 21
414.1906438116218
 31
0.0
  0
ARC
  5
691
330
1A
100
AcDbEntity
  8
SEIHIN
  6
CONTINUOUS
100
AcDbCircle
 10
376.8555383454232
 20
394.1906397890529
 30
0.0
 40
36.00000402257462
100
AcDbArc
 50
67.52054203657774
 51
90.00003221574802
  0
ARC
  5
692
330
1A
100
AcDbEntity
  8
SEIHIN
  6
CONTINUOUS
100
AcDbCircle
 10
363.8555181036693
 20
416.1907438116219
 30
0.0
 40
2.0
100
AcDbArc
 50
180.0
 51
270.0
  0
ARC
  5
693
330
1A
100
AcDbEntity
  8
SEIHIN
  6
CONTINUOUS
100
AcDbCircle
 10
350.9325348927198
 20
416.1907075422142
 30
0.0
 40
1.999963730662727
100
AcDbArc
 50
139.6782033670944
 51
269.9995190204136
  0
ARC
  5
694
330
1A
100
AcDbEntity
  8
SEIHIN
  6
CONTINUOUS
100
AcDbCircle
 10
354.8555181036695
 20
416.1907438116219
 30
0.0
 40
2.0
100
AcDbArc
 50
270.0
 51
0.0
  0
ARC
  5
695
330
1A
100
AcDbEntity
  8
SEIHIN
  6
CONTINUOUS
100
AcDbCircle
 10
363.8555181036695
 20
407.1907438116218
 30
0.0
 40
2.000000000000113
100
AcDbArc
 50
90.00000000000325
 51
180.0000000000032
  0
LINE
  5
696
330
1A
100
AcDbEntity
  8
SEIHIN
  6
CONTINUOUS
100
AcDbLine
 10
361.8555181036693
 20
394.1907438116219
 30
0.0
 11
361.8555181036693
 21
407.1907438116217
 31
0.0
  0
LINE
  5
697
330
1A
100
AcDbEntity
  8
SEIHIN
  6
CONTINUOUS
100
AcDbLine
 10
356.8555181036695
 20
394.1907438116219
 30
0.0
 11
356.8555181036695
 21
407.1907438116217
 31
0.0
  0
ARC
  5
698
330
1A
100
AcDbEntity
  8
SEIHIN
  6
CONTINUOUS
100
AcDbCircle
 10
354.8555181036693
 20
407.1907438116218
 30
0.0
 40
2.000000000000113
100
AcDbArc
 50
359.9999999999967
 51
89.99999999999674
  0
LINE
  5
699
330
1A
100
AcDbEntity
  8
SEIHIN
  6
CONTINUOUS
100
AcDbLine
 10
354.8555181036695
 20
414.1907438116219
 30
0.0
 11
350.9325181036694
 21
414.1907438116219
 31
0.0
  0
LINE
  5
69A
330
1A
100
AcDbEntity
  8
SEIHIN
  6
CONTINUOUS
100
AcDbLine
 10
376.8555181036695
 20
409.1906438116218
 30
0.0
 11
363.8555181036693
 21
409.1907438116219
 31
0.0
  0
LINE
  5
69B
330
1A
100
AcDbEntity
  8
SEIHIN
  6
CONTINUOUS
100
AcDbLine
 10
376.8555181036695
 20
414.1906438116218
 30
0.0
 11
363.8555181036693
 21
414.1907438116219
 31
0.0
  0
ARC
  5
69C
330
1A
100
AcDbEntity
  8
SEIHIN
  6
CONTINUOUS
100
AcDbCircle
 10
376.8554978619157
 20
394.1906397890526
 30
0.0
 40
36.00000402257493
100
AcDbArc
 50
89.9999677842519
 51
112.4794579634221
  0
ARC
  5
69D
330
1A
100
AcDbEntity
  8
SEIHIN
  6
CONTINUOUS
100
AcDbCircle
 10
363.8555018647875
 20
425.6072195177316
 30
0.0
 40
1.999983761265749
100
AcDbArc
 50
112.4790122665096
 51
179.9993040256595
  0
ARC
  5
69E
330
1A
100
AcDbEntity
  8
SEIHIN
  6
CONTINUOUS
100
AcDbCircle
 10
354.8555543730772
 20
420.1137270225715
 30
0.0
 40
1.999963730662739
100
AcDbArc
 50
0.0004809795871497
 51
130.3217966329085
  0
ARC
  5
69F
330
1A
100
AcDbEntity
  8
SEIHIN
  6
CONTINUOUS
100
AcDbCircle
 10
376.8552937870177
 20
394.1904217769408
 30
0.0
 40
36.00006942143447
100
AcDbArc
 50
129.7339117838907
 51
139.6792433047772
  0
LINE
  5
6A0
330
1A
100
AcDbEntity
  8
SEIHIN
  6
CONTINUOUS
100
AcDbLine
 10
361.8555181036693
 20
416.1907438116219
 30
0.0
 11
361.8555181036693
 21
425.6072438116218
 31
0.0
  0
LINE
  5
6A1
330
1A
100
AcDbEntity
  8
SEIHIN
  6
CONTINUOUS
100
AcDbLine
 10
356.8555181036695
 20
416.1907438116219
 30
0.0
 11
356.8555181036695
 21
420.1137438116218
 31
0.0
  0
ARC
  5
6A2
330
1A
100
AcDbEntity
  8
SEIHIN
  6
CONTINUOUS
100
AcDbCircle
 10
398.8555181036693
 20
416.1906438116218
 30
0.0
 40
1.999999999999943
100
AcDbArc
 50
180.0000000000016
 51
270.0000000000016
  0
ARC
  5
6A3
330
1A
100
AcDbEntity
  8
SEIHIN
  6
CONTINUOUS
100
AcDbCircle
 10
402.7785339372967
 20
416.1905780172868
 30
0.0
 40
2.000034205727762
100
AcDbArc
 50
269.999546407747
 51
40.32119251515722
  0
ARC
  5
6A4
330
1A
100
AcDbEntity
  8
SEIHIN
  6
CONTINUOUS
100
AcDbCircle
 10
389.8555181036695
 20
416.1906438116218
 30
0.0
 40
1.999999999999943
100
AcDbArc
 50
269.9999999999983
 51
359.9999999999983
  0
ARC
  5
6A5
330
1A
100
AcDbEntity
  8
SEIHIN
  6
CONTINUOUS
100
AcDbCircle
 10
398.8555181036695
 20
407.1906438116218
 30
0.0
 40
2.000000000000056
100
AcDbArc
 50
90.00000000000161
 51
180.0000000000016
  0
LINE
  5
6A6
330
1A
100
AcDbEntity
  8
SEIHIN
  6
CONTINUOUS
100
AcDbLine
 10
391.8555181036694
 20
394.1906438116217
 30
0.0
 11
391.8555181036694
 21
407.1906438116217
 31
0.0
  0
ARC
  5
6A7
330
1A
100
AcDbEntity
  8
SEIHIN
  6
CONTINUOUS
100
AcDbCircle
 10
389.8555181036694
 20
407.1906438116218
 30
0.0
 40
2.000000000000056
100
AcDbArc
 50
359.9999999999983
 51
89.99999999999838
  0
LINE
  5
6A8
330
1A
100
AcDbEntity
  8
SEIHIN
  6
CONTINUOUS
100
AcDbLine
 10
396.8554181036694
 20
394.1906438116217
 30
0.0
 11
396.8555181036694
 21
407.1906438116217
 31
0.0
  0
LINE
  5
6A9
330
1A
100
AcDbEntity
  8
SEIHIN
  6
CONTINUOUS
100
AcDbLine
 10
398.8555181036694
 20
409.1906438116218
 30
0.0
 11
408.2721181036694
 21
409.1905438116218
 31
0.0
  0
LINE
  5
6AA
330
1A
100
AcDbEntity
  8
SEIHIN
  6
CONTINUOUS
100
AcDbLine
 10
398.8555181036694
 20
414.1906438116218
 30
0.0
 11
402.7785181036693
 21
414.1905438116217
 31
0.0
  0
ARC
  5
6AB
330
1A
100
AcDbEntity
  8
SEIHIN
  6
CONTINUOUS
100
AcDbCircle
 10
408.2720938097792
 20
407.1905600505037
 30
0.0
 40
1.999983761265672
100
AcDbArc
 50
22.47901226650992
 51
89.99930402566011
  0
ARC
  5
6AC
330
1A
100
AcDbEntity
  8
SEIHIN
  6
CONTINUOUS
100
AcDbCircle
 10
398.8555199561677
 20
420.1135446691767
 30
0.0
 40
2.000001852498458
100
AcDbArc
 50
49.68056263930023
 51
180.0000245671149
  0
ARC
  5
6AD
330
1A
100
AcDbEntity
  8
SEIHIN
  6
CONTINUOUS
100
AcDbCircle
 10
389.8554881416182
 20
425.607188634888
 30
0.0
 40
2.000029962553531
100
AcDbArc
 50
359.9987159272469
 51
67.52010302343103
  0
LINE
  5
6AE
330
1A
100
AcDbEntity
  8
SEIHIN
  6
CONTINUOUS
100
AcDbLine
 10
391.8555181036694
 20
416.1906438116217
 30
0.0
 11
391.8555181036694
 21
425.6071438116217
 31
0.0
  0
ARC
  5
6AF
330
1A
100
AcDbEntity
  8
SEIHIN
  6
CONTINUOUS
100
AcDbCircle
 10
376.8552465801271
 20
394.1909181246895
 30
0.0
 40
35.9999986184272
100
AcDbArc
 50
39.73390197926893
 51
49.67925310939904
  0
LINE
  5
6B0
330
1A
100
AcDbEntity
  8
SEIHIN
  6
CONTINUOUS
100
AcDbLine
 10
396.8555181036694
 20
416.1906438116217
 30
0.0
 11
396.8555181036694
 21
420.1135438116218
 31
0.0
  0
ARC
  5
72F
330
1A
100
AcDbEntity
  8
SEIHIN
  6
CONTINUOUS
100
AcDbCircle
 10
186.9466175013165
 20
394.1906437062236
 30
0.0
 40
42.80886926560343
100
AcDbArc
 50
212.9648995288525
 51
267.0379269143882
  0
CIRCLE
  5
731
330
1A
100
AcDbEntity
  8
SEIHIN
  6
CONTINUOUS
100
AcDbCircle
 10
186.9466175013165
 20
394.1906437062236
 30
0.0
 40
43.99936926560493
  0
LINE
  5
732
330
1A
100
AcDbEntity
  8
SEIHIN
  6
CONTINUOUS
100
AcDbLine
 10
184.6707867668553
 20
438.1311158274826
 30
0.0
 11
184.7323643879577
 21
436.9422094196511
 31
0.0
  0
LINE
  5
733
330
1A
100
AcDbEntity
  8
SEIHIN
  6
CONTINUOUS
100
AcDbLine
 10
150.0297867668552
 20
418.1299858921358
 30
0.0
 11
151.0286530625089
 21
417.4822541780668
 31
0.0
  0
LINE
  5
734
330
1A
100
AcDbEntity
  8
SEIHIN
  6
CONTINUOUS
100
AcDbLine
 10
150.030967757255
 20
370.2494804148372
 30
0.0
 11
151.029802098608
 21
370.8972614029322
 31
0.0
  0
LINE
  5
735
330
1A
100
AcDbEntity
  8
SEIHIN
  6
CONTINUOUS
100
AcDbLine
 10
184.6729543856588
 20
350.2500593700139
 30
0.0
 11
184.7344733570525
 21
351.4389688140685
 31
0.0
  0
LINE
  5
736
330
1A
100
AcDbEntity
  8
SEIHIN
  6
CONTINUOUS
100
AcDbLine
 10
226.1380979798393
 20
374.1913348763509
 30
0.0
 11
225.0776860173839
 21
374.7324602960873
 31
0.0
  0
LINE
  5
737
330
1A
100
AcDbEntity
  8
SEIHIN
  6
CONTINUOUS
100
AcDbLine
 10
226.1371113514357
 20
414.191885856521
 30
0.0
 11
225.0767260843883
 21
413.6507081265354
 31
0.0
  0
ARC
  5
738
330
1A
100
AcDbEntity
  8
SEIHIN
  6
CONTINUOUS
100
AcDbCircle
 10
186.9466175013165
 20
394.1906437062236
 30
0.0
 40
42.80886926560343
100
AcDbArc
 50
92.96489952885249
 51
147.0379269143882
  0
ARC
  5
739
330
1A
100
AcDbEntity
  8
SEIHIN
  6
CONTINUOUS
100
AcDbCircle
 10
186.9466175013165
 20
394.1906437062236
 30
0.0
 40
42.80886926560343
100
AcDbArc
 50
332.9648995288522
 51
27.037926914388
  0
LINE
  5
73B
330
1A
100
AcDbEntity
  8
SEIHIN
  6
CONTINUOUS
100
AcDbLine
 10
420.8550090367315
 20
202.9305834647839
 30
0.0
 11
332.8550090366943
 21
202.9309945884832
 31
0.0
  0
LINE
  5
73C
330
1A
100
AcDbEntity
  8
SEIHIN
  6
CONTINUOUS
100
AcDbLine
 10
420.8550090367315
 20
202.9305834647839
 30
0.0
 11
420.8548090366559
 21
181.9308755353628
 31
0.0
  0
LINE
  5
73D
330
1A
100
AcDbEntity
  8
SEIHIN
  6
CONTINUOUS
 62
     4
100
AcDbLine
 10
334.0455090366941
 20
202.9309890266336
 30
0.0
 11
334.045509036694
 21
181.9312890261662
 31
0.0
  0
LINE
  5
73E
330
1A
100
AcDbEntity
  8
SEIHIN
  6
CONTINUOUS
 62
     4
100
AcDbLine
 10
419.6647090366942
 20
202.9309890266336
 30
0.0
 11
419.6647090366942
 21
181.9308890252318
 31
0.0
  0
LINE
  5
7ED
330
1A
100
AcDbEntity
  8
SEIHIN
  6
CONTINUOUS
100
AcDbLine
 10
684.4029411907666
 20
314.5177730304033
 30
0.0
 11
653.6287411907665
 21
310.2047730304032
 31
0.0
  0
LINE
  5
7EE
330
1A
100
AcDbEntity
  8
SEIHIN
  6
CONTINUOUS
100
AcDbLine
 10
684.4029411907666
 20
313.1418730304033
 30
0.0
 11
663.4459411907664
 21
310.2047730304032
 31
0.0
  0
LINE
  5
7EF
330
1A
100
AcDbEntity
  8
SEIHIN
  6
CONTINUOUS
100
AcDbLine
 10
669.0942411907665
 20
310.2047730304032
 30
0.0
 11
685.5934411907664
 21
312.4544730304031
 31
0.0
  0
LINE
  5
7F0
330
1A
100
AcDbEntity
  8
SEIHIN
  6
CONTINUOUS
100
AcDbLine
 10
685.5934411907664
 20
331.2046730304033
 30
0.0
 11
597.5932411907664
 21
331.2049730304031
 31
0.0
  0
LINE
  5
7F1
330
1A
100
AcDbEntity
  8
SEIHIN
  6
CONTINUOUS
100
AcDbLine
 10
641.5934411907665
 20
310.2047730304032
 30
0.0
 11
684.4029411907666
 21
310.2046730304033
 31
0.0
  0
LINE
  5
7F2
330
1A
100
AcDbEntity
  8
SEIHIN
  6
CONTINUOUS
100
AcDbLine
 10
685.5934411907664
 20
331.2046730304033
 30
0.0
 11
597.5932411907664
 21
319.2048730304033
 31
0.0
  0
LINE
  5
7F3
330
1A
100
AcDbEntity
  8
SEIHIN
  6
CONTINUOUS
100
AcDbLine
 10
641.5934411907665
 20
308.2047730304032
 30
0.0
 11
684.4029411907666
 21
308.2046730304033
 31
0.0
  0
LINE
  5
7F6
330
1A
100
AcDbEntity
  8
SEIHIN
  6
CONTINUOUS
100
AcDbLine
 10
684.4029411907666
 20
322.5175730304033
 30
0.0
 11
598.7837411907665
 21
310.5181730304032
 31
0.0
  0
LINE
  5
7F9
330
1A
100
AcDbEntity
  8
SEIHIN
  6
CONTINUOUS
100
AcDbLine
 10
684.4029411907666
 20
326.5174730304031
 30
0.0
 11
598.7837411907665
 21
314.5180730304033
 31
0.0
  0
LINE
  5
7FA
330
1A
100
AcDbEntity
  8
SEIHIN
  6
CONTINUOUS
100
AcDbLine
 10
597.5932411907664
 20
316.4547730304032
 30
0.0
 11
685.5934411907664
 21
328.4541730304032
 31
0.0
  0
LINE
  5
7FB
330
1A
100
AcDbEntity
  8
SEIHIN
  6
CONTINUOUS
100
AcDbLine
 10
597.5932411907664
 20
315.2054730304032
 30
0.0
 11
685.5934411907664
 21
327.2047730304032
 31
0.0
  0
LINE
  5
7FC
330
1A
100
AcDbEntity
  8
SEIHIN
  6
CONTINUOUS
100
AcDbLine
 10
684.4029411907666
 20
329.1414730304032
 30
0.0
 11
598.7837411907665
 21
317.1420730304033
 31
0.0
  0
LINE
  5
7FD
330
1A
100
AcDbEntity
  8
SEIHIN
  6
CONTINUOUS
100
AcDbLine
 10
598.7837411907665
 20
318.5179730304031
 30
0.0
 11
684.4029411907666
 21
330.5173730304033
 31
0.0
  0
LINE
  5
7FE
330
1A
100
AcDbEntity
  8
SEIHIN
  6
CONTINUOUS
100
AcDbLine
 10
597.5932411907664
 20
320.4541730304032
 30
0.0
 11
676.4351411907664
 21
331.2047730304032
 31
0.0
  0
LINE
  5
7FF
330
1A
100
AcDbEntity
  8
SEIHIN
  6
CONTINUOUS
100
AcDbLine
 10
597.5932411907664
 20
311.2055730304031
 30
0.0
 11
685.5934411907664
 21
323.2048730304031
 31
0.0
  0
LINE
  5
800
330
1A
100
AcDbEntity
  8
SEIHIN
  6
CONTINUOUS
100
AcDbLine
 10
597.5932411907664
 20
312.4548730304033
 30
0.0
 11
685.5934411907664
 21
324.4542730304033
 31
0.0
  0
LINE
  5
801
330
1A
100
AcDbEntity
  8
SEIHIN
  6
CONTINUOUS
100
AcDbLine
 10
684.4029411907666
 20
325.1415730304031
 30
0.0
 11
598.7837411907665
 21
313.1421730304033
 31
0.0
  0
LINE
  5
802
330
1A
100
AcDbEntity
  8
SEIHIN
  6
CONTINUOUS
100
AcDbLine
 10
684.4029411907666
 20
318.5176730304031
 30
0.0
 11
625.0886411907663
 21
310.2048730304033
 31
0.0
  0
LINE
  5
803
330
1A
100
AcDbEntity
  8
SEIHIN
  6
CONTINUOUS
100
AcDbLine
 10
619.5886411907665
 20
310.2048730304033
 30
0.0
 11
685.5934411907664
 21
319.2049730304032
 31
0.0
  0
LINE
  5
804
330
1A
100
AcDbEntity
  8
SEIHIN
  6
CONTINUOUS
100
AcDbLine
 10
610.4264411907664
 20
310.2048730304033
 30
0.0
 11
685.5934411907664
 21
320.4542730304033
 31
0.0
  0
LINE
  5
805
330
1A
100
AcDbEntity
  8
SEIHIN
  6
CONTINUOUS
100
AcDbLine
 10
684.4029411907666
 20
321.1416730304033
 30
0.0
 11
606.3657411907666
 21
310.2048730304033
 31
0.0
  0
LINE
  5
806
330
1A
100
AcDbEntity
  8
SEIHIN
  6
CONTINUOUS
100
AcDbLine
 10
648.9225411907664
 20
310.2047730304032
 30
0.0
 11
685.5934411907664
 21
315.2050730304033
 31
0.0
  0
LINE
  5
807
330
1A
100
AcDbEntity
  8
SEIHIN
  6
CONTINUOUS
100
AcDbLine
 10
639.7603411907664
 20
310.2047730304032
 30
0.0
 11
685.5934411907664
 21
316.4543730304032
 31
0.0
  0
LINE
  5
808
330
1A
100
AcDbEntity
  8
SEIHIN
  6
CONTINUOUS
100
AcDbLine
 10
684.4029411907666
 20
317.1417730304033
 30
0.0
 11
634.9058411907665
 21
310.2047730304032
 31
0.0
  0
LINE
  5
81A
330
1A
100
AcDbEntity
  8
SEIHIN
  6
CONTINUOUS
100
AcDbLine
 10
641.5931411907664
 20
310.2047730304032
 30
0.0
 11
598.7836411907664
 21
310.2049730304031
 31
0.0
  0
LINE
  5
81B
330
1A
100
AcDbEntity
  8
SEIHIN
  6
CONTINUOUS
100
AcDbLine
 10
641.5930411907663
 20
308.2047730304032
 30
0.0
 11
598.7835411907665
 21
308.2049730304031
 31
0.0
  0
LINE
  5
81C
330
1A
100
AcDbEntity
  8
SEIHIN
  6
CONTINUOUS
100
AcDbLine
 10
626.9359411907664
 20
331.2048730304033
 30
0.0
 11
597.5932411907664
 21
327.2036730304033
 31
0.0
  0
LINE
  5
81D
330
1A
100
AcDbEntity
  8
SEIHIN
  6
CONTINUOUS
100
AcDbLine
 10
598.7837411907665
 20
326.5167730304033
 30
0.0
 11
632.2345411907662
 21
331.2048730304033
 31
0.0
  0
LINE
  5
81E
330
1A
100
AcDbEntity
  8
SEIHIN
  6
CONTINUOUS
100
AcDbLine
 10
642.0517411907665
 20
331.2047730304032
 30
0.0
 11
598.7837411907665
 21
325.1408730304031
 31
0.0
  0
LINE
  5
81F
330
1A
100
AcDbEntity
  8
SEIHIN
  6
CONTINUOUS
100
AcDbLine
 10
597.5932411907664
 20
324.4535730304032
 30
0.0
 11
647.1051411907665
 21
331.2047730304032
 31
0.0
  0
LINE
  5
820
330
1A
100
AcDbEntity
  8
SEIHIN
  6
CONTINUOUS
100
AcDbLine
 10
613.5154411907665
 20
331.2048730304033
 30
0.0
 11
598.7837411907665
 21
329.1402730304033
 31
0.0
  0
LINE
  5
821
330
1A
100
AcDbEntity
  8
SEIHIN
  6
CONTINUOUS
100
AcDbLine
 10
597.5932411907664
 20
328.4529730304031
 30
0.0
 11
617.7750411907664
 21
331.2048730304033
 31
0.0
  0
LINE
  5
822
330
1A
100
AcDbEntity
  8
SEIHIN
  6
CONTINUOUS
100
AcDbLine
 10
656.2647411907664
 20
331.2047730304032
 30
0.0
 11
597.5932411907664
 21
323.2042730304033
 31
0.0
  0
LINE
  5
823
330
1A
100
AcDbEntity
  8
SEIHIN
  6
CONTINUOUS
100
AcDbLine
 10
598.7837411907665
 20
322.5173730304031
 30
0.0
 11
660.7710411907665
 21
331.2047730304032
 31
0.0
  0
LINE
  5
824
330
1A
100
AcDbEntity
  8
SEIHIN
  6
CONTINUOUS
100
AcDbLine
 10
670.5881411907665
 20
331.2047730304032
 30
0.0
 11
598.7837411907665
 21
321.1414730304032
 31
0.0
  0
LINE
  5
825
330
1A
100
AcDbEntity
  8
SEIHIN
  6
CONTINUOUS
100
AcDbLine
 10
598.7837411907665
 20
318.5179730304031
 30
0.0
 11
598.7837411907665
 21
317.1420730304033
 31
0.0
  0
LINE
  5
829
330
1A
100
AcDbEntity
  8
SEIHIN
  6
CONTINUOUS
100
AcDbLine
 10
598.7837411907665
 20
314.5180730304033
 30
0.0
 11
598.7837411907665
 21
313.1421730304033
 31
0.0
  0
LINE
  5
82A
330
1A
100
AcDbEntity
  8
SEIHIN
  6
CONTINUOUS
100
AcDbLine
 10
597.5932411907664
 20
316.4547730304032
 30
0.0
 11
597.5932411907664
 21
315.2054730304032
 31
0.0
  0
LINE
  5
82B
330
1A
100
AcDbEntity
  8
SEIHIN
  6
CONTINUOUS
100
AcDbLine
 10
597.5932411907664
 20
312.4548730304033
 30
0.0
 11
597.5932411907664
 21
311.2055730304031
 31
0.0
  0
LINE
  5
82C
330
1A
100
AcDbEntity
  8
SEIHIN
  6
CONTINUOUS
100
AcDbLine
 10
598.7837411907665
 20
317.1420730304033
 30
0.0
 11
597.5932411907664
 21
316.4547730304032
 31
0.0
  0
LINE
  5
82D
330
1A
100
AcDbEntity
  8
SEIHIN
  6
CONTINUOUS
100
AcDbLine
 10
597.5932411907664
 20
315.2054730304032
 30
0.0
 11
598.7837411907665
 21
314.5180730304033
 31
0.0
  0
LINE
  5
82E
330
1A
100
AcDbEntity
  8
SEIHIN
  6
CONTINUOUS
100
AcDbLine
 10
598.7837411907665
 20
313.1421730304033
 30
0.0
 11
597.5932411907664
 21
312.4548730304033
 31
0.0
  0
LINE
  5
82F
330
1A
100
AcDbEntity
  8
SEIHIN
  6
CONTINUOUS
100
AcDbLine
 10
597.5932411907664
 20
311.2055730304031
 30
0.0
 11
598.7837411907665
 21
310.5181730304032
 31
0.0
  0
LINE
  5
830
330
1A
100
AcDbEntity
  8
SEIHIN
  6
CONTINUOUS
100
AcDbLine
 10
598.7837411907665
 20
310.5181730304032
 30
0.0
 11
598.7837411907665
 21
308.2047730304032
 31
0.0
  0
LINE
  5
832
330
1A
100
AcDbEntity
  8
SEIHIN
  6
CONTINUOUS
100
AcDbLine
 10
598.7837411907665
 20
330.5161730304033
 30
0.0
 11
598.7837411907665
 21
329.1402730304033
 31
0.0
  0
LINE
  5
833
330
1A
100
AcDbEntity
  8
SEIHIN
  6
CONTINUOUS
100
AcDbLine
 10
598.7837411907665
 20
322.5173730304031
 30
0.0
 11
598.7837411907665
 21
321.1414730304032
 31
0.0
  0
LINE
  5
834
330
1A
100
AcDbEntity
  8
SEIHIN
  6
CONTINUOUS
100
AcDbLine
 10
598.7837411907665
 20
326.5167730304033
 30
0.0
 11
598.7837411907665
 21
325.1408730304031
 31
0.0
  0
LINE
  5
835
330
1A
100
AcDbEntity
  8
SEIHIN
  6
CONTINUOUS
100
AcDbLine
 10
597.5932411907664
 20
324.4535730304032
 30
0.0
 11
597.5932411907664
 21
323.2042730304033
 31
0.0
  0
LINE
  5
836
330
1A
100
AcDbEntity
  8
SEIHIN
  6
CONTINUOUS
100
AcDbLine
 10
597.5932411907664
 20
328.4529730304031
 30
0.0
 11
597.5932411907664
 21
327.2036730304033
 31
0.0
  0
LINE
  5
837
330
1A
100
AcDbEntity
  8
SEIHIN
  6
CONTINUOUS
100
AcDbLine
 10
597.5932411907664
 20
323.2047730304032
 30
0.0
 11
598.7837411907665
 21
322.5173730304031
 31
0.0
  0
LINE
  5
838
330
1A
100
AcDbEntity
  8
SEIHIN
  6
CONTINUOUS
100
AcDbLine
 10
598.7837411907665
 20
321.1414730304032
 30
0.0
 11
597.5932411907664
 21
320.4541730304032
 31
0.0
  0
LINE
  5
839
330
1A
100
AcDbEntity
  8
SEIHIN
  6
CONTINUOUS
100
AcDbLine
 10
597.5932411907664
 20
327.2041730304032
 30
0.0
 11
598.7837411907665
 21
326.5167730304033
 31
0.0
  0
LINE
  5
83A
330
1A
100
AcDbEntity
  8
SEIHIN
  6
CONTINUOUS
100
AcDbLine
 10
598.7837411907665
 20
325.1408730304031
 30
0.0
 11
597.5932411907664
 21
324.4535730304032
 31
0.0
  0
LINE
  5
83B
330
1A
100
AcDbEntity
  8
SEIHIN
  6
CONTINUOUS
100
AcDbLine
 10
598.7837411907665
 20
329.1402730304033
 30
0.0
 11
597.5932411907664
 21
328.4529730304031
 31
0.0
  0
LINE
  5
83C
330
1A
100
AcDbEntity
  8
SEIHIN
  6
CONTINUOUS
100
AcDbLine
 10
597.5932411907664
 20
319.2053730304032
 30
0.0
 11
598.7837411907665
 21
318.5179730304031
 31
0.0
  0
LINE
  5
83D
330
1A
100
AcDbEntity
  8
SEIHIN
  6
CONTINUOUS
100
AcDbLine
 10
597.5932411907664
 20
320.4541730304032
 30
0.0
 11
597.5932411907664
 21
319.2048730304033
 31
0.0
  0
LINE
  5
840
330
1A
100
AcDbEntity
  8
SEIHIN
  6
CONTINUOUS
100
AcDbLine
 10
598.7837411907665
 20
330.5161730304033
 30
0.0
 11
603.6982411907665
 21
331.2049730304031
 31
0.0
  0
LINE
  5
841
330
1A
100
AcDbEntity
  8
SEIHIN
  6
CONTINUOUS
100
AcDbLine
 10
598.7837411907665
 20
331.2046730304033
 30
0.0
 11
598.7837411907665
 21
333.2050730304033
 31
0.0
  0
LINE
  5
842
330
1A
100
AcDbEntity
  8
SEIHIN
  6
CONTINUOUS
100
AcDbLine
 10
597.5932411907664
 20
331.2035730304031
 30
0.0
 11
598.7837411907665
 21
330.5161730304033
 31
0.0
  0
LINE
  5
869
330
1A
100
AcDbEntity
  8
SEIHIN
  6
CONTINUOUS
100
AcDbLine
 10
684.4029411907666
 20
318.5176730304031
 30
0.0
 11
684.4029411907666
 21
317.1417730304033
 31
0.0
  0
LINE
  5
86F
330
1A
100
AcDbEntity
  8
SEIHIN
  6
CONTINUOUS
100
AcDbLine
 10
678.2563411907663
 20
310.2046730304033
 30
0.0
 11
685.5934411907664
 21
311.2051730304031
 31
0.0
  0
LINE
  5
870
330
1A
100
AcDbEntity
  8
SEIHIN
  6
CONTINUOUS
100
AcDbLine
 10
685.5934411907664
 20
316.4543730304032
 30
0.0
 11
685.5934411907664
 21
315.2050730304033
 31
0.0
  0
LINE
  5
871
330
1A
100
AcDbEntity
  8
SEIHIN
  6
CONTINUOUS
100
AcDbLine
 10
685.5934411907664
 20
312.4544730304031
 30
0.0
 11
685.5934411907664
 21
311.2051730304031
 31
0.0
  0
LINE
  5
872
330
1A
100
AcDbEntity
  8
SEIHIN
  6
CONTINUOUS
100
AcDbLine
 10
684.4029411907666
 20
310.5178730304033
 30
0.0
 11
682.1688411907664
 21
310.2046730304033
 31
0.0
  0
LINE
  5
873
330
1A
100
AcDbEntity
  8
SEIHIN
  6
CONTINUOUS
100
AcDbLine
 10
684.4029411907666
 20
314.5177730304033
 30
0.0
 11
684.4029411907666
 21
313.1418730304033
 31
0.0
  0
LINE
  5
874
330
1A
100
AcDbEntity
  8
SEIHIN
  6
CONTINUOUS
100
AcDbLine
 10
684.4029411907666
 20
310.5178730304033
 30
0.0
 11
684.4029411907666
 21
308.2047730304032
 31
0.0
  0
LINE
  5
875
330
1A
100
AcDbEntity
  8
SEIHIN
  6
CONTINUOUS
100
AcDbLine
 10
685.5934411907664
 20
315.2050730304033
 30
0.0
 11
684.4029411907666
 21
314.5177730304033
 31
0.0
  0
LINE
  5
876
330
1A
100
AcDbEntity
  8
SEIHIN
  6
CONTINUOUS
100
AcDbLine
 10
684.4029411907666
 20
317.1417730304033
 30
0.0
 11
685.5934411907664
 21
316.4543730304032
 31
0.0
  0
LINE
  5
877
330
1A
100
AcDbEntity
  8
SEIHIN
  6
CONTINUOUS
100
AcDbLine
 10
685.5934411907664
 20
311.2051730304031
 30
0.0
 11
684.4029411907666
 21
310.5178730304033
 31
0.0
  0
LINE
  5
878
330
1A
100
AcDbEntity
  8
SEIHIN
  6
CONTINUOUS
100
AcDbLine
 10
684.4029411907666
 20
313.1418730304033
 30
0.0
 11
685.5934411907664
 21
312.4544730304031
 31
0.0
  0
LINE
  5
87F
330
1A
100
AcDbEntity
  8
SEIHIN
  6
CONTINUOUS
100
AcDbLine
 10
684.4029411907666
 20
330.5173730304033
 30
0.0
 11
684.4029411907666
 21
329.1414730304032
 31
0.0
  0
LINE
  5
880
330
1A
100
AcDbEntity
  8
SEIHIN
  6
CONTINUOUS
100
AcDbLine
 10
685.5934411907664
 20
328.4541730304032
 30
0.0
 11
685.5934411907664
 21
327.2047730304032
 31
0.0
  0
LINE
  5
881
330
1A
100
AcDbEntity
  8
SEIHIN
  6
CONTINUOUS
100
AcDbLine
 10
685.5934411907664
 20
324.4542730304033
 30
0.0
 11
685.5934411907664
 21
323.2048730304031
 31
0.0
  0
LINE
  5
882
330
1A
100
AcDbEntity
  8
SEIHIN
  6
CONTINUOUS
100
AcDbLine
 10
685.5934411907664
 20
320.4542730304033
 30
0.0
 11
685.5934411907664
 21
319.2049730304032
 31
0.0
  0
LINE
  5
883
330
1A
100
AcDbEntity
  8
SEIHIN
  6
CONTINUOUS
100
AcDbLine
 10
684.4029411907666
 20
326.5174730304031
 30
0.0
 11
684.4029411907666
 21
325.1415730304031
 31
0.0
  0
LINE
  5
884
330
1A
100
AcDbEntity
  8
SEIHIN
  6
CONTINUOUS
100
AcDbLine
 10
684.4029411907666
 20
322.5175730304033
 30
0.0
 11
684.4029411907666
 21
321.1416730304033
 31
0.0
  0
LINE
  5
885
330
1A
100
AcDbEntity
  8
SEIHIN
  6
CONTINUOUS
100
AcDbLine
 10
685.5934411907664
 20
327.2047730304032
 30
0.0
 11
684.4029411907666
 21
326.5174730304031
 31
0.0
  0
LINE
  5
886
330
1A
100
AcDbEntity
  8
SEIHIN
  6
CONTINUOUS
100
AcDbLine
 10
684.4029411907666
 20
329.1414730304032
 30
0.0
 11
685.5934411907664
 21
328.4541730304032
 31
0.0
  0
LINE
  5
887
330
1A
100
AcDbEntity
  8
SEIHIN
  6
CONTINUOUS
100
AcDbLine
 10
685.5934411907664
 20
323.2048730304031
 30
0.0
 11
684.4029411907666
 21
322.5175730304033
 31
0.0
  0
LINE
  5
888
330
1A
100
AcDbEntity
  8
SEIHIN
  6
CONTINUOUS
100
AcDbLine
 10
684.4029411907666
 20
325.1415730304031
 30
0.0
 11
685.5934411907664
 21
324.4542730304033
 31
0.0
  0
LINE
  5
889
330
1A
100
AcDbEntity
  8
SEIHIN
  6
CONTINUOUS
100
AcDbLine
 10
685.5934411907664
 20
319.2049730304032
 30
0.0
 11
684.4029411907666
 21
318.5176730304031
 31
0.0
  0
LINE
  5
88A
330
1A
100
AcDbEntity
  8
SEIHIN
  6
CONTINUOUS
100
AcDbLine
 10
684.4029411907666
 20
321.1416730304033
 30
0.0
 11
685.5934411907664
 21
320.4542730304033
 31
0.0
  0
LINE
  5
88B
330
1A
100
AcDbEntity
  8
SEIHIN
  6
CONTINUOUS
100
AcDbLine
 10
684.4029411907666
 20
333.2046730304033
 30
0.0
 11
684.4029411907666
 21
331.2046730304033
 31
0.0
  0
LINE
  5
88C
330
1A
100
AcDbEntity
  8
SEIHIN
  6
CONTINUOUS
100
AcDbLine
 10
685.5934411907664
 20
331.2046730304033
 30
0.0
 11
684.4029411907666
 21
330.5173730304033
 31
0.0
  0
CIRCLE
  5
895
330
1A
100
AcDbEntity
  8
SEIHIN
  6
CONTINUOUS
100
AcDbCircle
 10
186.9466175013165
 20
394.1906437062236
 30
0.0
 40
34.49995249461515
  0
DIMENSION
  5
8AA
330
1A
100
AcDbEntity
  8
SUNPOU
  6
CONTINUOUS
100
AcDbDimension
  2
*D1
 10
131.9463683613821
 20
264.9781955776052
 30
0.0
 11
186.9463683613822
 21
269.9781955776052
 31
0.0
 12
0.0
 22
2.511467081951423
 32
0.0
 70
    32
  1
φ<>
  3
STANDARD
100
AcDbAlignedDimension
 13
241.9463683613822
 23
243.1309890267721
 33
0.0
 14
131.9463683613821
 24
243.1313890267722
 34
0.0
100
AcDbRotatedDimension
1001
ACAD
1000
DSTYLE
1002
{
1070
   140
1040
6.0
1070
    74
1070
     0
1070
   172
1070
     1
1070
    73
1070
     0
1070
   272
1070
     2
1070
    77
1070
     3
1070
   173
1070
     1
1070
   147
1040
2.0
1070
    42
1040
6.0
1070
    44
1040
3.0
1070
    43
1040
14.0
1070
   271
1070
     0
1070
   178
1070
     4
1070
   177
1070
     4
1070
   176
1070
     4
1070
   141
1040
150.0
1070
     7
1000
_OPEN
1070
     6
1000
_OPEN
1070
    41
1040
7.0
1002
}
  0
DIMENSION
  5
8B7
330
1A
100
AcDbEntity
  8
SUNPOU
  6
CONTINUOUS
100
AcDbDimension
  2
*D2
 10
150.1462683613822
 20
167.9305950113164
 30
0.0
 11
186.9462683613822
 21
172.9305950113164
 31
0.0
 12
0.0
 22
2.511467081951423
 32
0.0
 70
    32
  1
φ<>
  3
STANDARD
100
AcDbAlignedDimension
 13
223.7462683613821
 23
194.1309890267721
 33
0.0
 14
150.1462683613822
 24
194.1312890267721
 34
0.0
100
AcDbRotatedDimension
1001
ACAD
1000
DSTYLE
1002
{
1070
   140
1040
6.0
1070
    74
1070
     0
1070
   172
1070
     1
1070
    73
1070
     0
1070
   272
1070
     2
1070
    77
1070
     3
1070
   173
1070
     1
1070
   147
1040
2.0
1070
    42
1040
6.0
1070
    44
1040
3.0
1070
    43
1040
14.0
1070
   271
1070
     0
1070
   178
1070
     4
1070
   177
1070
     4
1070
   176
1070
     4
1070
   141
1040
150.0
1070
     7
1000
_OPEN
1070
     6
1000
_OPEN
1070
    41
1040
7.0
1002
}
  0
DIMENSION
  5
8C4
330
1A
100
AcDbEntity
  8
SUNPOU
  6
CONTINUOUS
100
AcDbDimension
  2
*D3
 10
141.3462683613821
 20
145.3556158784808
 30
0.0
 11
186.9463183613822
 21
150.3556158784808
 31
0.0
 12
0.0
 22
2.511467081951423
 32
0.0
 70
    32
  1
φ<>
  3
STANDARD
100
AcDbAlignedDimension
 13
232.5463683613822
 23
214.1309890267721
 33
0.0
 14
141.3462683613821
 24
214.1312890267722
 34
0.0
100
AcDbRotatedDimension
1001
ACAD
1000
DSTYLE
1002
{
1070
   140
1040
6.0
1070
    74
1070
     0
1070
   172
1070
     1
1070
    73
1070
     0
1070
   272
1070
     2
1070
    77
1070
     3
1070
   173
1070
     1
1070
   147
1040
2.0
1070
    42
1040
6.0
1070
    44
1040
3.0
1070
    43
1040
14.0
1070
   271
1070
     0
1070
   178
1070
     4
1070
   177
1070
     4
1070
   176
1070
     4
1070
   141
1040
150.0
1070
     7
1000
_OPEN
1070
     6
1000
_OPEN
1070
    41
1040
7.0
1002
}
  0
DIMENSION
  5
934
330
1A
100
AcDbEntity
  8
SUNPOU
  6
CONTINUOUS
100
AcDbDimension
  2
*D4
 10
332.8550090366943
 20
152.4271163376099
 30
0.0
 11
376.8549090366751
 21
157.4271163376099
 31
0.0
 12
0.0
 22
-7.488532918048576
 32
0.0
 70
    32
  1
φ<>
  3
STANDARD
100
AcDbAlignedDimension
 13
420.8548090366559
 23
181.9308755353628
 33
0.0
 14
332.8550090366943
 24
181.9312945880158
 34
0.0
100
AcDbRotatedDimension
1001
ACAD
1000
DSTYLE
1002
{
1070
   140
1040
6.0
1070
    74
1070
     0
1070
   172
1070
     1
1070
    73
1070
     0
1070
   272
1070
     2
1070
    77
1070
     3
1070
   173
1070
     1
1070
   147
1040
2.0
1070
    42
1040
6.0
1070
    44
1040
3.0
1070
    43
1040
14.0
1070
   271
1070
     0
1070
   178
1070
     4
1070
   177
1070
     4
1070
   176
1070
     4
1070
   141
1040
150.0
1070
     7
1000
_OPEN
1070
     6
1000
_OPEN
1070
    41
1040
7.0
1002
}
  0
DIMENSION
  5
941
330
1A
100
AcDbEntity
  8
SUNPOU
  6
CONTINUOUS
100
AcDbDimension
  2
*D5
 10
338.3553181036694
 20
257.5527702442989
 30
0.0
 11
376.8553181036694
 21
262.5527702442989
 31
0.0
 12
0.0
 22
-7.488532918048576
 32
0.0
 70
    32
  1
φ<>
  3
STANDARD
100
AcDbAlignedDimension
 13
415.3553181036695
 23
225.6382890267722
 33
0.0
 14
338.3553181036694
 24
225.6385890267722
 34
0.0
100
AcDbRotatedDimension
1001
ACAD
1000
DSTYLE
1002
{
1070
   140
1040
6.0
1070
    74
1070
     0
1070
   172
1070
     1
1070
    73
1070
     0
1070
   272
1070
     2
1070
    77
1070
     3
1070
   173
1070
     1
1070
   147
1040
2.0
1070
    42
1040
6.0
1070
    44
1040
3.0
1070
    43
1040
14.0
1070
   271
1070
     0
1070
   178
1070
     4
1070
   177
1070
     4
1070
   176
1070
     4
1070
   141
1040
150.0
1070
     7
1000
_OPEN
1070
     6
1000
_OPEN
1070
    41
1040
7.0
1002
}
  0
DIMENSION
  5
94E
330
1A
100
AcDbEntity
  8
SUNPOU
  6
CONTINUOUS
100
AcDbDimension
  2
*D6
 10
326.8552181036694
 20
276.4435343552249
 30
0.0
 11
376.8552681036694
 21
281.4435343552249
 31
0.0
 12
0.0
 22
-7.488532918048576
 32
0.0
 70
    32
  1
φ<>
  3
STANDARD
100
AcDbAlignedDimension
 13
426.8553181036694
 23
205.9309890267721
 33
0.0
 14
326.8552181036694
 24
205.9312890267721
 34
0.0
100
AcDbRotatedDimension
1001
ACAD
1000
DSTYLE
1002
{
1070
   140
1040
6.0
1070
    74
1070
     0
1070
   172
1070
     1
1070
    73
1070
     0
1070
   272
1070
     2
1070
    77
1070
     3
1070
   173
1070
     1
1070
   147
1040
2.0
1070
    42
1040
6.0
1070
    44
1040
3.0
1070
    43
1040
14.0
1070
   271
1070
     0
1070
   178
1070
     4
1070
   177
1070
     4
1070
   176
1070
     4
1070
   141
1040
150.0
1070
     7
1000
_OPEN
1070
     6
1000
_OPEN
1070
    41
1040
7.0
1002
}
  0
DIMENSION
  5
9C0
330
1A
100
AcDbEntity
  8
SUNPOU
  6
CONTINUOUS
100
AcDbDimension
  2
*D7
 10
448.5450598418428
 20
206.9309890267722
 30
0.0
 11
443.5450598418428
 21
224.9309890267721
 31
0.0
 12
0.0
 22
-7.488532918048576
 32
0.0
 70
    32
  3
STANDARD
100
AcDbAlignedDimension
 13
426.8553181036694
 23
204.9309890267722
 33
0.0
 14
422.8553181036694
 24
206.9309890267722
 34
0.0
 50
90.0
100
AcDbRotatedDimension
1001
ACAD
1000
DSTYLE
1002
{
1070
   140
1040
6.0
1070
    74
1070
     0
1070
   172
1070
     1
1070
    73
1070
     0
1070
   272
1070
     2
1070
    77
1070
     3
1070
   173
1070
     1
1070
   147
1040
2.0
1070
    42
1040
6.0
1070
    44
1040
3.0
1070
    43
1040
14.0
1070
   271
1070
     0
1070
   178
1070
     4
1070
   177
1070
     4
1070
   176
1070
     4
1070
   141
1040
150.0
1070
     7
1000
_OPEN
1070
     6
1000
_OPEN
1070
    41
1040
7.0
1002
}
  0
DIMENSION
  5
9CF
330
1A
100
AcDbEntity
  8
SUNPOU
  6
CONTINUOUS
100
AcDbDimension
  2
*D8
 10
469.6123877051677
 20
179.9309890266336
 30
0.0
 11
464.6123877051677
 21
192.4309890267029
 31
0.0
 12
0.0
 22
-7.488532918048576
 32
0.0
 70
    32
  3
STANDARD
100
AcDbAlignedDimension
 13
426.8553181036694
 23
204.9309890267722
 33
0.0
 14
419.6647090366942
 24
179.9309890266336
 34
0.0
 50
90.0
100
AcDbRotatedDimension
1001
ACAD
1000
DSTYLE
1002
{
1070
   140
1040
6.0
1070
    74
1070
     0
1070
   172
1070
     1
1070
    73
1070
     0
1070
   272
1070
     2
1070
    77
1070
     3
1070
   173
1070
     1
1070
   147
1040
2.0
1070
    42
1040
6.0
1070
    44
1040
3.0
1070
    43
1040
14.0
1070
   271
1070
     0
1070
   178
1070
     4
1070
   177
1070
     4
1070
   176
1070
     4
1070
   141
1040
150.0
1070
     7
1000
_OPEN
1070
     6
1000
_OPEN
1070
    41
1040
7.0
1002
}
  0
DIMENSION
  5
9DC
330
1A
100
AcDbEntity
  8
SUNPOU
  6
CONTINUOUS
100
AcDbDimension
  2
*D9
 10
491.4430264013636
 20
179.9309890266336
 30
0.0
 11
486.4430264013635
 21
208.9616627393056
 31
0.0
 12
0.0
 22
-7.488532918048576
 32
0.0
 70
    32
  3
STANDARD
100
AcDbAlignedDimension
 13
391.8554181036694
 23
237.9923364519775
 33
0.0
 14
419.6647090366942
 24
179.9309890266336
 34
0.0
 50
90.0
100
AcDbRotatedDimension
1001
ACAD
1000
DSTYLE
1002
{
1070
   140
1040
6.0
1070
    74
1070
     0
1070
   172
1070
     1
1070
    73
1070
     0
1070
   272
1070
     2
1070
    77
1070
     3
1070
   173
1070
     1
1070
   147
1040
2.0
1070
    42
1040
6.0
1070
    44
1040
3.0
1070
    43
1040
14.0
1070
   271
1070
     0
1070
   178
1070
     4
1070
   177
1070
     4
1070
   176
1070
     4
1070
   141
1040
150.0
1070
     7
1000
_OPEN
1070
     6
1000
_OPEN
1070
    41
1040
7.0
1002
}
  0
LINE
  5
9DD
330
1A
100
AcDbEntity
  8
NOKITOI
  6
CONTINUOUS
 62
     6
100
AcDbLine
 10
570.0932411907665
 20
332.905202031598
 30
0.0
 11
597.0932411907665
 21
332.9050400315979
 31
0.0
  0
LINE
  5
9DE
330
1A
100
AcDbEntity
  8
NOKITOI
  6
CONTINUOUS
 62
     6
100
AcDbLine
 10
570.0932411907664
 20
330.405202031553
 30
0.0
 11
597.0932411907665
 21
330.4050400315529
 31
0.0
  0
LINE
  5
9E0
330
1A
100
AcDbEntity
  8
NOKITOI
  6
CONTINUOUS
 62
     6
100
AcDbLine
 10
597.0932411907665
 20
332.9050400315979
 30
0.0
 11
597.0932411907664
 21
330.4050400315529
 31
0.0
  0
LINE
  5
9E3
330
1A
100
AcDbEntity
  8
NOKITOI
  6
CONTINUOUS
 62
     6
100
AcDbLine
 10
713.0937998884154
 20
330.4047880207927
 30
0.0
 11
686.0937998879299
 21
330.4047823599094
 31
0.0
  0
LINE
  5
9E4
330
1A
100
AcDbEntity
  8
NOKITOI
  6
CONTINUOUS
 62
     6
100
AcDbLine
 10
713.0938143642595
 20
332.9047880207957
 30
0.0
 11
686.093814363774
 21
332.9047823599125
 31
0.0
  0
LINE
  5
9E5
330
1A
100
AcDbEntity
  8
NOKITOI
  6
CONTINUOUS
 62
     6
100
AcDbLine
 10
686.093814363774
 20
332.9047823599125
 30
0.0
 11
686.09379988793
 21
330.4047823599095
 31
0.0
  0
DIMENSION
  5
9F4
330
1A
100
AcDbEntity
  8
SUNPOU
  6
CONTINUOUS
100
AcDbDimension
  2
*D10
 10
597.0935146906929
 20
284.3512139366637
 30
0.0
 11
641.593514889964
 21
289.3512139366637
 31
0.0
 12
-11.0975639801627
 22
26.76866944357039
 32
0.0
 70
    32
  1
穴径 φ<>
  3
STANDARD
100
AcDbAlignedDimension
 13
686.0935150892351
 23
328.5223613610806
 33
0.0
 14
597.0935146906929
 24
328.384832559506
 34
0.0
100
AcDbRotatedDimension
1001
ACAD
1000
DSTYLE
1002
{
1070
   140
1040
6.0
1070
    74
1070
     0
1070
   172
1070
     1
1070
    73
1070
     0
1070
   272
1070
     2
1070
    77
1070
     3
1070
   173
1070
     1
1070
   147
1040
2.0
1070
    42
1040
6.0
1070
    44
1040
3.0
1070
    43
1040
14.0
1070
   271
1070
     0
1070
   178
1070
     4
1070
   177
1070
     4
1070
   176
1070
     4
1070
   141
1040
150.0
1070
     7
1000
_OPEN
1070
     6
1000
_OPEN
1070
    41
1040
7.0
1002
}
  0
VIEWPORT
  5
22
330
17
100
AcDbEntity
 67
     1
  8
0
100
AcDbViewport
 10
313.6808219178082
 20
148.5
 30
0.0
 40
627.3616438356165
 41
297.0
 68
     2
 69
     1
1001
ACAD
1000
MVIEW
1002
{
1070
    16
1010
0.0
1020
0.0
1030
0.0
1010
0.0
1020
0.0
1030
1.0
1040
0.0
1040
297.0
1040
313.6808219178082
1040
148.5
1040
50.0
1040
0.0
1040
0.0
1070
     0
1070
   100
1070
     1
1070
     0
1070
     0
1070
     0
1070
     0
1070
     0
1040
0.0
1040
0.0
1040
0.0
1040
1.0
1040
1.0
1040
10.0
1040
10.0
1070
     0
1002
{
1002
}
1002
}
  0
VIEWPORT
  5
64
330
17
100
AcDbEntity
 67
     1
  8
VIEWPORT
100
AcDbViewport
 10
210.0
 20
148.5
 30
0.0
 40
420.0
 41
297.0
 68
     1
 69
     2
1001
ACAD
1000
MVIEW
1002
{
1070
    16
1010
0.0
1020
0.0
1030
0.0
1010
0.0
1020
0.0
1030
1.0
1040
0.0
1040
605.8799999999998
1040
420.0
1040
297.0
1040
50.0
1040
0.0
1040
0.0
1070
     0
1070
   100
1070
     1
1070
     0
1070
     0
1070
     0
1070
     0
1070
     0
1040
0.0
1040
0.0
1040
0.0
1040
10.0
1040
10.0
1040
0.0
1040
0.0
1070
     0
1002
{
1002
}
1002
}
  0
ENDSEC
  0
SECTION
  2
OBJECTS
  0
DICTIONARY
  5
C
330
0
100
AcDbDictionary
  3
ACAD_GROUP
350
D
  3
ACAD_LAYOUT
350
A24
  3
ACAD_MLINESTYLE
350
E
  3
ACAD_PLOTSETTINGS
350
A25
1001
ACAD
1000
TREAT_AS_HARD
1070
     0
  0
DICTIONARY
  5
A51
330
1A
100
AcDbDictionary
  3
ACAD_LAYOUTSELFREF
350
A95
1001
ACAD
1000
TREAT_AS_HARD
1070
     1
  0
DICTIONARY
  5
A4F
330
17
100
AcDbDictionary
  3
ACAD_LAYOUTSELFREF
350
A94
1001
ACAD
1000
TREAT_AS_HARD
1070
     1
  0
DICTIONARY
  5
D
102
{ACAD_REACTORS
330
C
102
}
330
C
100
AcDbDictionary
1001
ACAD
1000
TREAT_AS_HARD
1070
     0
  0
DICTIONARY
  5
A24
102
{ACAD_REACTORS
330
C
102
}
330
C
100
AcDbDictionary
1001
ACAD
1000
TREAT_AS_HARD
1070
     0
  0
DICTIONARY
  5
E
102
{ACAD_REACTORS
330
C
102
}
330
C
100
AcDbDictionary
  3
STANDARD
350
13
1001
ACAD
1000
TREAT_AS_HARD
1070
     0
  0
DICTIONARY
  5
A25
102
{ACAD_REACTORS
330
C
102
}
330
C
100
AcDbDictionary
1001
ACAD
1000
TREAT_AS_HARD
1070
     0
  0
XRECORD
  5
A95
102
{ACAD_REACTORS
330
A51
102
}
330
A51
100
AcDbXrecord
340
1A
  0
XRECORD
  5
A94
102
{ACAD_REACTORS
330
A4F
102
}
330
A4F
100
AcDbXrecord
340
17
  0
MLINESTYLE
  5
13
102
{ACAD_REACTORS
330
E
102
}
330
E
100
AcDbMlineStyle
  2
STANDARD
 70
     0
  3

 62
     0
 51
90.0
 52
90.0
 71
     2
 49
0.5
 62
   256
  6
BYLAYER
 49
-0.5
 62
   256
  6
BYLAYER
  0
ENDSEC
  0
EOF
