  0
SECTION
  2
HEADER
  9
$ACADVER
  1
AC1012
  9
$DWGCODEPAGE
  3
dos932
  9
$INSBASE
 10
0.0
 20
0.0
 30
0.0
  9
$EXTMIN
 10
10.05047808566086
 20
4.949376903717846
 30
-0.00000001
  9
$EXTMAX
 10
806.2246110975902
 20
563.7825862828226
 30
0.00000001
  9
$LIMMIN
 10
0.0
 20
0.0
  9
$LIMMAX
 10
840.0
 20
594.0
  9
$ORTHOMODE
 70
     0
  9
$REGENMODE
 70
     1
  9
$FILLMODE
 70
     1
  9
$QTEXTMODE
 70
     0
  9
$MIRRTEXT
 70
     1
  9
$DRAGMODE
 70
     2
  9
$LTSCALE
 40
2.0
  9
$OSMODE
 70
   319
  9
$ATTMODE
 70
     1
  9
$TEXTSIZE
 40
5.0
  9
$TRACEWID
 40
1.0
  9
$TEXTSTYLE
  7
STANDARD
  9
$CLAYER
  8
NOKITOI
  9
$CELTYPE
  6
BYLAYER
  9
$CECOLOR
 62
   256
  9
$CELTSCALE
 40
1.0
  9
$DELOBJ
 70
     1
  9
$DISPSILH
 70
     0
  9
$DIMSCALE
 40
1.0
  9
$DIMASZ
 40
7.0
  9
$DIMEXO
 40
6.0
  9
$DIMDLI
 40
14.0
  9
$DIMRND
 40
0.0
  9
$DIMDLE
 40
0.0
  9
$DIMEXE
 40
3.0
  9
$DIMTP
 40
0.0
  9
$DIMTM
 40
0.0
  9
$DIMTXT
 40
6.0
  9
$DIMCEN
 40
150.0
  9
$DIMTSZ
 40
0.0
  9
$DIMTOL
 70
     0
  9
$DIMLIM
 70
     0
  9
$DIMTIH
 70
     0
  9
$DIMTOH
 70
     0
  9
$DIMSE1
 70
     0
  9
$DIMSE2
 70
     0
  9
$DIMTAD
 70
     3
  9
$DIMZIN
 70
     0
  9
$DIMBLK
  1

  9
$DIMASO
 70
     1
  9
$DIMSHO
 70
     1
  9
$DIMPOST
  1

  9
$DIMAPOST
  1

  9
$DIMALT
 70
     0
  9
$DIMALTD
 70
     2
  9
$DIMALTF
 40
25.4
  9
$DIMLFAC
 40
1.0
  9
$DIMTOFL
 70
     1
  9
$DIMTVP
 40
0.0
  9
$DIMTIX
 70
     0
  9
$DIMSOXD
 70
     0
  9
$DIMSAH
 70
     1
  9
$DIMBLK1
  1
OPEN
  9
$DIMBLK2
  1
OPEN
  9
$DIMSTYLE
  2
STANDARD
  9
$DIMCLRD
 70
   256
  9
$DIMCLRE
 70
   256
  9
$DIMCLRT
 70
   256
  9
$DIMTFAC
 40
1.0
  9
$DIMGAP
 40
2.0
  9
$DIMJUST
 70
     0
  9
$DIMSD1
 70
     0
  9
$DIMSD2
 70
     0
  9
$DIMTOLJ
 70
     1
  9
$DIMTZIN
 70
     0
  9
$DIMALTZ
 70
     0
  9
$DIMALTTZ
 70
     0
  9
$DIMFIT
 70
     3
  9
$DIMUPT
 70
     0
  9
$DIMUNIT
 70
     2
  9
$DIMDEC
 70
     0
  9
$DIMTDEC
 70
     0
  9
$DIMALTU
 70
     2
  9
$DIMALTTD
 70
     2
  9
$DIMTXSTY
  7
STANDARD
  9
$DIMAUNIT
 70
     0
  9
$LUNITS
 70
     2
  9
$LUPREC
 70
     4
  9
$SKETCHINC
 40
1.0
  9
$FILLETRAD
 40
20.0
  9
$AUNITS
 70
     0
  9
$AUPREC
 70
     0
  9
$MENU
  1
.
  9
$ELEVATION
 40
0.0
  9
$PELEVATION
 40
0.0
  9
$THICKNESS
 40
0.0
  9
$LIMCHECK
 70
     0
  9
$BLIPMODE
 70
     0
  9
$CHAMFERA
 40
20.0
  9
$CHAMFERB
 40
20.0
  9
$CHAMFERC
 40
40.0
  9
$CHAMFERD
 40
0.0
  9
$SKPOLY
 70
     0
  9
$TDCREATE
 40
2451186.443366204
  9
$TDUPDATE
 40
2452422.707632870
  9
$TDINDWG
 40
0.0049199074
  9
$TDUSRTIMER
 40
0.0049199074
  9
$USRTIMER
 70
     1
  9
$ANGBASE
 50
0.0
  9
$ANGDIR
 70
     0
  9
$PDMODE
 70
     0
  9
$PDSIZE
 40
0.0
  9
$PLINEWID
 40
0.0
  9
$COORDS
 70
     1
  9
$SPLFRAME
 70
     0
  9
$SPLINETYPE
 70
     6
  9
$SPLINESEGS
 70
     8
  9
$ATTDIA
 70
     0
  9
$ATTREQ
 70
     1
  9
$HANDLING
 70
 10241
  9
$HANDSEED
  5
41A
  9
$SURFTAB1
 70
     6
  9
$SURFTAB2
 70
     6
  9
$SURFTYPE
 70
     6
  9
$SURFU
 70
     6
  9
$SURFV
 70
     6
  9
$UCSNAME
  2

  9
$UCSORG
 10
0.0
 20
0.0
 30
0.0
  9
$UCSXDIR
 10
1.0
 20
0.0
 30
0.0
  9
$UCSYDIR
 10
0.0
 20
1.0
 30
0.0
  9
$PUCSNAME
  2

  9
$PUCSORG
 10
0.0
 20
0.0
 30
0.0
  9
$PUCSXDIR
 10
1.0
 20
0.0
 30
0.0
  9
$PUCSYDIR
 10
0.0
 20
1.0
 30
0.0
  9
$USERI1
 70
     0
  9
$USERI2
 70
     0
  9
$USERI3
 70
     0
  9
$USERI4
 70
     0
  9
$USERI5
 70
     0
  9
$USERR1
 40
0.0
  9
$USERR2
 40
0.0
  9
$USERR3
 40
0.0
  9
$USERR4
 40
0.0
  9
$USERR5
 40
0.0
  9
$WORLDVIEW
 70
     1
  9
$SHADEDGE
 70
     3
  9
$SHADEDIF
 70
    70
  9
$TILEMODE
 70
     1
  9
$MAXACTVP
 70
    16
  9
$PINSBASE
 10
0.0
 20
0.0
 30
0.0
  9
$PLIMCHECK
 70
     0
  9
$PEXTMIN
 10
0.0
 20
0.0
 30
0.0
  9
$PEXTMAX
 10
420.0
 20
297.0
 30
0.0
  9
$PLIMMIN
 10
0.0
 20
0.0
  9
$PLIMMAX
 10
420.0
 20
297.0
  9
$UNITMODE
 70
     0
  9
$VISRETAIN
 70
     0
  9
$PLINEGEN
 70
     0
  9
$PSLTSCALE
 70
     1
  9
$TREEDEPTH
 70
  3020
  9
$PICKSTYLE
 70
     1
  9
$CMLSTYLE
  2
STANDARD
  9
$CMLJUST
 70
     0
  9
$CMLSCALE
 40
1.0
  9
$SAVEIMAGES
 70
     1
  0
ENDSEC
  0
SECTION
  2
CLASSES
  0
CLASS
  1
ACDBDICTIONARYWDFLT
  2
AcDbDictionaryWithDefault
  3
AutoCAD 2000
 90
    32768
280
     0
281
     0
  0
CLASS
  1
ACDBPLACEHOLDER
  2
AcDbPlaceHolder
  3
AutoCAD 2000
 90
    32768
280
     0
281
     0
  0
CLASS
  1
LAYOUT
  2
AcDbLayout
  3
AutoCAD 2000
 90
    32768
280
     0
281
     0
  0
CLASS
  1
LONG_TRANSACTION
  2
AcDbLongTransaction
  3
AutoCAD 2000
 90
    32768
280
     0
281
     0
  0
CLASS
  1
LWPOLYLINE
  2
AcDbPolyline
  3
AutoCAD 2000
 90
    32768
280
     0
281
     1
  0
CLASS
  1
HATCH
  2
AcDbHatch
  3
AutoCAD 2000
 90
    32768
280
     0
281
     1
  0
CLASS
  1
XRECORD
  2
AcDbXrecord
  3
AutoCAD 2000
 90
    32768
280
     0
281
     0
  0
CLASS
  1
LONG_TRANSACTION
  2
AcDbLongTransaction
  3
AutoCAD 2000
 90
    32768
280
     0
281
     0
  0
CLASS
  1
LWPOLYLINE
  2
AcDbPolyline
  3
AutoCAD 2000
 90
    32768
280
     0
281
     1
  0
CLASS
  1
HATCH
  2
AcDbHatch
  3
AutoCAD 2000
 90
    32768
280
     0
281
     1
  0
CLASS
  1
XRECORD
  2
AcDbXrecord
  3
AutoCAD 2000
 90
    32768
280
     0
281
     0
  0
ENDSEC
  0
SECTION
  2
TABLES
  0
TABLE
  2
VPORT
  5
8
330
0
100
AcDbSymbolTable
 70
     2
  0
VPORT
  5
40C
330
8
100
AcDbSymbolTableRecord
100
AcDbViewportTableRecord
  2
*ACTIVE
 70
     0
 10
0.0
 20
0.0
 11
1.0
 21
1.0
 12
410.5580553632862
 22
302.5065505156358
 13
0.0
 23
0.0
 14
5.0
 24
5.0
 15
0.0
 25
0.0
 16
0.0
 26
0.0
 36
1.0
 17
0.0
 27
0.0
 37
0.0
 40
618.917377598616
 41
1.709909909909909
 42
50.0
 43
0.0
 44
0.0
 50
0.0
 51
0.0
 71
     0
 72
   100
 73
     1
 74
     0
 75
     0
 76
     0
 77
     0
 78
     0
  0
ENDTAB
  0
TABLE
  2
LTYPE
  5
5
330
0
100
AcDbSymbolTable
 70
     3
  0
LTYPE
  5
14
330
5
100
AcDbSymbolTableRecord
100
AcDbLinetypeTableRecord
  2
BYBLOCK
 70
     0
  3

 72
    65
 73
     0
 40
0.0
  0
LTYPE
  5
15
330
5
100
AcDbSymbolTableRecord
100
AcDbLinetypeTableRecord
  2
BYLAYER
 70
     0
  3

 72
    65
 73
     0
 40
0.0
  0
LTYPE
  5
16
330
5
100
AcDbSymbolTableRecord
100
AcDbLinetypeTableRecord
  2
CONTINUOUS
 70
     0
  3
Solid line
 72
    65
 73
     0
 40
0.0
  0
LTYPE
  5
115
330
5
100
AcDbSymbolTableRecord
100
AcDbLinetypeTableRecord
  2
PHANTOM
 70
     0
  3
______  __  __  ______  __  __  ______  __  __ 
 72
    65
 73
     6
 40
2.5
 49
1.25
 74
     0
 49
-0.25
 74
     0
 49
0.25
 74
     0
 49
-0.25
 74
     0
 49
0.25
 74
     0
 49
-0.25
 74
     0
  0
LTYPE
  5
135
330
5
100
AcDbSymbolTableRecord
100
AcDbLinetypeTableRecord
  2
CENTER
 70
     0
  3
____ _ ____ _ ____ _ ____ _ ____ _ ____ _ ____ 
 72
    65
 73
     4
 40
2.0
 49
1.25
 74
     0
 49
-0.25
 74
     0
 49
0.25
 74
     0
 49
-0.25
 74
     0
  0
ENDTAB
  0
TABLE
  2
LAYER
  5
2
330
0
100
AcDbSymbolTable
 70
     8
  0
LAYER
  5
F
330
2
100
AcDbSymbolTableRecord
100
AcDbLayerTableRecord
  2
0
 70
     0
 62
     7
  6
CONTINUOUS
  0
LAYER
  5
62
330
2
100
AcDbSymbolTableRecord
100
AcDbLayerTableRecord
  2
VIEWPORT
 70
     0
 62
     7
  6
CONTINUOUS
  0
LAYER
  5
65
330
2
100
AcDbSymbolTableRecord
100
AcDbLayerTableRecord
  2
ZUWAKU
 70
     0
 62
     7
  6
CONTINUOUS
  0
LAYER
  5
182
330
2
100
AcDbSymbolTableRecord
100
AcDbLayerTableRecord
  2
SEIHIN
 70
     0
 62
     3
  6
CONTINUOUS
  0
LAYER
  5
183
330
2
100
AcDbSymbolTableRecord
100
AcDbLayerTableRecord
  2
SUNPOU
 70
     0
 62
     4
  6
CONTINUOUS
  0
LAYER
  5
184
330
2
100
AcDbSymbolTableRecord
100
AcDbLayerTableRecord
  2
CENTER_L
 70
     0
 62
     1
  6
CENTER
  0
LAYER
  5
185
330
2
100
AcDbSymbolTableRecord
100
AcDbLayerTableRecord
  2
NOKITOI
 70
     0
 62
     8
  6
PHANTOM
  0
LAYER
  5
186
330
2
100
AcDbSymbolTableRecord
100
AcDbLayerTableRecord
  2
DEFPOINTS
 70
     0
 62
     7
  6
CONTINUOUS
  0
ENDTAB
  0
TABLE
  2
STYLE
  5
3
330
0
100
AcDbSymbolTable
 70
     1
  0
STYLE
  5
10
330
3
100
AcDbSymbolTableRecord
100
AcDbTextStyleTableRecord
  2
STANDARD
 70
     0
 40
0.0
 41
1.0
 50
0.0
 71
     0
 42
5.0
  3
TXT
  4
bigfont.shx
  0
ENDTAB
  0
TABLE
  2
VIEW
  5
6
330
0
100
AcDbSymbolTable
 70
     0
  0
ENDTAB
  0
TABLE
  2
UCS
  5
7
330
0
100
AcDbSymbolTable
 70
     0
  0
ENDTAB
  0
TABLE
  2
APPID
  5
9
330
0
100
AcDbSymbolTable
 70
     1
  0
APPID
  5
11
330
9
100
AcDbSymbolTableRecord
100
AcDbRegAppTableRecord
  2
ACAD
 70
     0
  0
ENDTAB
  0
TABLE
  2
DIMSTYLE
  5
A
330
0
100
AcDbSymbolTable
 70
     1
  0
DIMSTYLE
105
1D
102
{ACAD_REACTORS
330
263
330
264
330
27C
330
27D
330
2ED
102
}
330
A
100
AcDbSymbolTableRecord
100
AcDbDimStyleTableRecord
  2
STANDARD
 70
     0
  3

  4

  5

  6

  7

 40
1.0
 41
0.18
 42
0.0625
 43
0.38
 44
0.18
 45
0.0
 46
0.0
 47
0.0
 48
0.0
140
0.18
141
0.09
142
0.0
143
25.4
144
1.0
145
0.0
146
1.0
147
0.09
 71
     0
 72
     0
 73
     1
 74
     1
 75
     0
 76
     0
 77
     0
 78
     0
170
     0
171
     2
172
     0
173
     0
174
     0
175
     0
176
     0
177
     0
178
     0
270
     2
271
     4
272
     4
273
     2
274
     2
340
10
275
     0
280
     0
281
     0
282
     0
283
     1
284
     0
285
     0
286
     0
287
     3
288
     0
  0
ENDTAB
  0
TABLE
  2
BLOCK_RECORD
  5
1
330
0
100
AcDbSymbolTable
 70
     6
  0
BLOCK_RECORD
  5
1A
102
{ACAD_XDICTIONARY
360
3F3
102
}
330
1
100
AcDbSymbolTableRecord
100
AcDbBlockTableRecord
  2
*MODEL_SPACE
  0
BLOCK_RECORD
  5
17
102
{ACAD_XDICTIONARY
360
3F1
102
}
330
1
100
AcDbSymbolTableRecord
100
AcDbBlockTableRecord
  2
*PAPER_SPACE
  0
BLOCK_RECORD
  5
6D
330
1
100
AcDbSymbolTableRecord
100
AcDbBlockTableRecord
  2
_OPEN
  0
BLOCK_RECORD
  5
337
330
1
100
AcDbSymbolTableRecord
100
AcDbBlockTableRecord
  2
*D1
  0
BLOCK_RECORD
  5
343
330
1
100
AcDbSymbolTableRecord
100
AcDbBlockTableRecord
  2
*D2
  0
BLOCK_RECORD
  5
350
330
1
100
AcDbSymbolTableRecord
100
AcDbBlockTableRecord
  2
*D3
  0
BLOCK_RECORD
  5
35C
330
1
100
AcDbSymbolTableRecord
100
AcDbBlockTableRecord
  2
*D4
  0
BLOCK_RECORD
  5
36A
330
1
100
AcDbSymbolTableRecord
100
AcDbBlockTableRecord
  2
*D5
  0
ENDTAB
  0
ENDSEC
  0
SECTION
  2
BLOCKS
  0
BLOCK
  5
1B
330
1A
100
AcDbEntity
  8
0
100
AcDbBlockBegin
  2
*MODEL_SPACE
 70
     0
 10
0.0
 20
0.0
 30
0.0
  3
*MODEL_SPACE
  1

  0
ENDBLK
  5
1C
330
1A
100
AcDbEntity
  8
0
100
AcDbBlockEnd
  0
BLOCK
  5
18
330
17
100
AcDbEntity
 67
     1
  8
0
100
AcDbBlockBegin
  2
*PAPER_SPACE
 70
     0
 10
0.0
 20
0.0
 30
0.0
  3
*PAPER_SPACE
  1

  0
ENDBLK
  5
19
330
17
100
AcDbEntity
 67
     1
  8
0
100
AcDbBlockEnd
  0
BLOCK
  5
6E
330
6D
100
AcDbEntity
  8
0
100
AcDbBlockBegin
  2
_OPEN
 70
     0
 10
0.0
 20
0.0
 30
0.0
  3
_OPEN
  1

  0
LINE
  5
6F
330
6D
100
AcDbEntity
  8
0
  6
BYBLOCK
 62
     0
100
AcDbLine
 10
-1.0
 20
0.1666666666666666
 30
0.0
 11
0.0
 21
0.0
 31
0.0
  0
LINE
  5
70
330
6D
100
AcDbEntity
  8
0
  6
BYBLOCK
 62
     0
100
AcDbLine
 10
0.0
 20
0.0
 30
0.0
 11
-1.0
 21
-0.1666666666666666
 31
0.0
  0
LINE
  5
71
330
6D
100
AcDbEntity
  8
0
  6
BYBLOCK
 62
     0
100
AcDbLine
 10
0.0
 20
0.0
 30
0.0
 11
-1.0
 21
0.0
 31
0.0
  0
ENDBLK
  5
72
330
6D
100
AcDbEntity
  8
0
100
AcDbBlockEnd
  0
BLOCK
  5
376
330
337
100
AcDbEntity
  8
0
100
AcDbBlockBegin
  2
*D1
 70
     1
 10
0.0
 20
0.0
 30
0.0
  3
*D1
  1

  0
LINE
  5
377
330
337
100
AcDbEntity
  8
0
  6
BYBLOCK
 62
     4
100
AcDbLine
 10
479.5539616888939
 20
204.8881711112566
 30
0.0
 11
479.5539616888939
 21
231.7008312188768
 31
0.0
  0
LINE
  5
378
330
337
100
AcDbEntity
  8
0
  6
BYBLOCK
 62
     4
100
AcDbLine
 10
362.2540616888942
 20
199.4881711112567
 30
0.0
 11
362.2540616888942
 21
231.7008312188768
 31
0.0
  0
LINE
  5
379
330
337
100
AcDbEntity
  8
0
  6
BYBLOCK
 62
     4
100
AcDbLine
 10
472.553961688894
 20
228.7008312188767
 30
0.0
 11
369.2540616888941
 21
228.7008312188767
 31
0.0
  0
INSERT
  5
37A
330
337
100
AcDbEntity
  8
0
  6
BYBLOCK
 62
     4
100
AcDbBlockReference
  2
_OPEN
 10
479.5539616888939
 20
228.7008312188767
 30
0.0
 41
7.0
 42
7.0
 43
7.0
  0
INSERT
  5
37B
330
337
100
AcDbEntity
  8
0
  6
BYBLOCK
 62
     4
100
AcDbBlockReference
  2
_OPEN
 10
362.2540616888942
 20
228.7008312188767
 30
0.0
 41
7.0
 42
7.0
 43
7.0
 50
180.0
  0
MTEXT
  5
37C
330
337
100
AcDbEntity
  8
0
  6
BYBLOCK
 62
     4
100
AcDbMText
 10
420.9040116888941
 20
233.7008312188768
 30
0.0
 40
6.0
 41
0.0
 71
     5
 72
     1
  1
\A1;117
1001
ACAD
1000
MTEXTBEGIN
1070
    73
1070
     1
1070
    44
1040
1.0
1070
    74
1070
     0
1000
MTEXTEND
1000
MTEXTBEGIN
1070
    73
1070
     1
1070
    44
1040
1.0
1070
    74
1070
     0
1000
MTEXTEND
  0
POINT
  5
37D
330
337
100
AcDbEntity
  8
DEFPOINTS
  6
BYBLOCK
 62
     0
100
AcDbPoint
 10
479.5539616888939
 20
198.8881711112566
 30
0.0
  0
POINT
  5
37E
330
337
100
AcDbEntity
  8
DEFPOINTS
  6
BYBLOCK
 62
     0
100
AcDbPoint
 10
362.2540616888942
 20
193.4881711112567
 30
0.0
  0
POINT
  5
37F
330
337
100
AcDbEntity
  8
DEFPOINTS
  6
BYBLOCK
 62
     0
100
AcDbPoint
 10
362.2540616888942
 20
228.7008312188767
 30
0.0
  0
ENDBLK
  5
380
330
337
100
AcDbEntity
  8
0
100
AcDbBlockEnd
  0
BLOCK
  5
381
330
343
100
AcDbEntity
  8
0
100
AcDbBlockBegin
  2
*D2
 70
     1
 10
0.0
 20
0.0
 30
0.0
  3
*D2
  1

  0
ARC
  5
40F
330
343
100
AcDbEntity
  8
SUNPOU
 62
     4
100
AcDbCircle
 10
420.9040616888939
 20
361.9704160090965
 30
0.0
 40
24.88569870052701
100
AcDbArc
 50
73.82988568088684
 51
90.00000000000007
  0
LINE
  5
410
330
343
100
AcDbEntity
  8
SUNPOU
 62
     4
100
AcDbLine
 10
427.8344842882506
 20
385.8716135190068
 30
0.0
 11
450.1166708928073
 21
379.4106414466546
 31
0.0
  0
ARC
  5
411
330
343
100
AcDbEntity
  8
SUNPOU
 62
     4
100
AcDbCircle
 10
420.9040616888939
 20
361.9704160090965
 30
0.0
 40
24.88569870052701
100
AcDbArc
 50
106.1701143191133
 51
118.8299458946872
  0
INSERT
  5
412
330
343
100
AcDbEntity
  8
SUNPOU
 62
     4
100
AcDbBlockReference
  2
_OPEN
 10
420.9040616888938
 20
386.8561147096236
 30
0.0
 41
7.0
 42
7.0
 43
7.0
 50
8.085057159556713
  0
INSERT
  5
413
330
343
100
AcDbEntity
  8
SUNPOU
 62
     4
100
AcDbBlockReference
  2
_OPEN
 10
403.3071968901584
 20
379.5672438217574
 30
0.0
 41
7.0
 42
7.0
 43
7.0
 50
216.9150030542438
  0
MTEXT
  5
414
330
343
100
AcDbEntity
  8
SUNPOU
 62
     4
100
AcDbMText
 10
440.368028468191
 20
387.4433228717438
 30
0.0
 40
6.0
 41
0.0
 71
     5
 72
     1
  1
\A1;45°
 11
0.9604390777826159
 21
-0.2784901755324203
 31
0.0
  0
POINT
  5
415
330
343
100
AcDbEntity
  8
DEFPOINTS
 62
     0
100
AcDbPoint
 10
408.4611972391317
 20
383.5220545569716
 30
0.0
  0
POINT
  5
416
330
343
100
AcDbEntity
  8
DEFPOINTS
 62
     0
100
AcDbPoint
 10
420.904061688894
 20
294.6863160093066
 30
0.0
  0
POINT
  5
417
330
343
100
AcDbEntity
  8
DEFPOINTS
 62
     0
100
AcDbPoint
 10
373.3271616888941
 20
409.5472160093066
 30
0.0
  0
POINT
  5
418
330
343
100
AcDbEntity
  8
DEFPOINTS
 62
     0
100
AcDbPoint
 10
420.904161688894
 20
361.9703160093065
 30
0.0
  0
POINT
  5
419
330
343
100
AcDbEntity
  8
DEFPOINTS
 62
     0
100
AcDbPoint
 10
420.9040616888938
 20
387.2100160093066
 30
0.0
  0
ENDBLK
  5
38C
330
343
100
AcDbEntity
  8
0
100
AcDbBlockEnd
  0
BLOCK
  5
38D
330
350
100
AcDbEntity
  8
0
100
AcDbBlockBegin
  2
*D3
 70
     1
 10
0.0
 20
0.0
 30
0.0
  3
*D3
  1

  0
LINE
  5
38E
330
350
100
AcDbEntity
  8
0
  6
BYBLOCK
 62
     4
100
AcDbLine
 10
356.2540616888941
 20
337.6765125819522
 30
0.0
 11
310.1784447213213
 21
337.6765125819522
 31
0.0
  0
LINE
  5
38F
330
350
100
AcDbEntity
  8
0
  6
BYBLOCK
 62
     4
100
AcDbLine
 10
356.7540616888941
 20
307.6766160093066
 30
0.0
 11
310.1784447213213
 21
307.6766160093066
 31
0.0
  0
LINE
  5
390
330
350
100
AcDbEntity
  8
0
  6
BYBLOCK
 62
     4
100
AcDbLine
 10
313.1784447213212
 20
330.6765125819522
 30
0.0
 11
313.1784447213212
 21
314.6766160093065
 31
0.0
  0
INSERT
  5
391
330
350
100
AcDbEntity
  8
0
  6
BYBLOCK
 62
     4
100
AcDbBlockReference
  2
_OPEN
 10
313.1784447213212
 20
337.6765125819522
 30
0.0
 41
7.0
 42
7.0
 43
7.0
 50
90.0
  0
INSERT
  5
392
330
350
100
AcDbEntity
  8
0
  6
BYBLOCK
 62
     4
100
AcDbBlockReference
  2
_OPEN
 10
313.1784447213212
 20
307.6766160093066
 30
0.0
 41
7.0
 42
7.0
 43
7.0
 50
270.0
  0
MTEXT
  5
393
330
350
100
AcDbEntity
  8
0
  6
BYBLOCK
 62
     4
100
AcDbMText
 10
308.1784447213212
 20
322.6765642956294
 30
0.0
 40
6.0
 41
0.0
 71
     5
 72
     1
  1
\A1;30
 11
0.0
 21
1.0
 31
0.0
1001
ACAD
1000
MTEXTBEGIN
1070
    73
1070
     1
1070
    44
1040
1.0
1070
    74
1070
     0
1000
MTEXTEND
1000
MTEXTBEGIN
1070
    73
1070
     1
1070
    44
1040
1.0
1070
    74
1070
     0
1000
MTEXTEND
  0
POINT
  5
394
330
350
100
AcDbEntity
  8
DEFPOINTS
  6
BYBLOCK
 62
     0
100
AcDbPoint
 10
362.2540616888941
 20
337.6765125819522
 30
0.0
  0
POINT
  5
395
330
350
100
AcDbEntity
  8
DEFPOINTS
  6
BYBLOCK
 62
     0
100
AcDbPoint
 10
362.7540616888941
 20
307.6766160093066
 30
0.0
  0
POINT
  5
396
330
350
100
AcDbEntity
  8
DEFPOINTS
  6
BYBLOCK
 62
     0
100
AcDbPoint
 10
313.1784447213212
 20
307.6766160093066
 30
0.0
  0
ENDBLK
  5
397
330
350
100
AcDbEntity
  8
0
100
AcDbBlockEnd
  0
BLOCK
  5
398
330
35C
100
AcDbEntity
  8
0
100
AcDbBlockBegin
  2
*D4
 70
     1
 10
0.0
 20
0.0
 30
0.0
  3
*D4
  1

  0
LINE
  5
399
330
35C
100
AcDbEntity
  8
0
  6
BYBLOCK
 62
     4
100
AcDbLine
 10
365.7739616888941
 20
332.6767160093066
 30
0.0
 11
328.3105393602531
 21
332.6767160093066
 31
0.0
  0
LINE
  5
39A
330
35C
100
AcDbEntity
  8
0
  6
BYBLOCK
 62
     4
100
AcDbLine
 10
356.7540616888941
 20
307.6766160093066
 30
0.0
 11
328.3105393602531
 21
307.6766160093066
 31
0.0
  0
LINE
  5
39B
330
35C
100
AcDbEntity
  8
0
  6
BYBLOCK
 62
     4
100
AcDbLine
 10
331.3105393602532
 20
339.6767160093066
 30
0.0
 11
331.3105393602532
 21
346.6767160093066
 31
0.0
  0
LINE
  5
39C
330
35C
100
AcDbEntity
  8
0
  6
BYBLOCK
 62
     4
100
AcDbLine
 10
331.3105393602532
 20
300.6766160093066
 30
0.0
 11
331.3105393602532
 21
293.6766160093065
 31
0.0
  0
LINE
  5
39D
330
35C
100
AcDbEntity
  8
0
  6
BYBLOCK
 62
     4
100
AcDbLine
 10
331.3105393602532
 20
332.6767160093066
 30
0.0
 11
331.3105393602532
 21
307.6766160093066
 31
0.0
  0
INSERT
  5
39E
330
35C
100
AcDbEntity
  8
0
  6
BYBLOCK
 62
     4
100
AcDbBlockReference
  2
_OPEN
 10
331.3105393602532
 20
332.6767160093066
 30
0.0
 41
7.0
 42
7.0
 43
7.0
 50
270.0
  0
INSERT
  5
39F
330
35C
100
AcDbEntity
  8
0
  6
BYBLOCK
 62
     4
100
AcDbBlockReference
  2
_OPEN
 10
331.3105393602532
 20
307.6766160093066
 30
0.0
 41
7.0
 42
7.0
 43
7.0
 50
90.0
  0
MTEXT
  5
3A0
330
35C
100
AcDbEntity
  8
0
  6
BYBLOCK
 62
     4
100
AcDbMText
 10
326.3105393602531
 20
320.1766660093066
 30
0.0
 40
6.0
 41
0.0
 71
     5
 72
     1
  1
\A1;※25
 11
0.0
 21
1.0
 31
0.0
1001
ACAD
1000
MTEXTBEGIN
1070
    73
1070
     1
1070
    44
1040
1.0
1070
    74
1070
     0
1000
MTEXTEND
1000
MTEXTBEGIN
1070
    73
1070
     1
1070
    44
1040
1.0
1070
    74
1070
     0
1000
MTEXTEND
  0
POINT
  5
3A1
330
35C
100
AcDbEntity
  8
DEFPOINTS
  6
BYBLOCK
 62
     0
100
AcDbPoint
 10
371.7739616888941
 20
332.6767160093066
 30
0.0
  0
POINT
  5
3A2
330
35C
100
AcDbEntity
  8
DEFPOINTS
  6
BYBLOCK
 62
     0
100
AcDbPoint
 10
362.7540616888941
 20
307.6766160093066
 30
0.0
  0
POINT
  5
3A3
330
35C
100
AcDbEntity
  8
DEFPOINTS
  6
BYBLOCK
 62
     0
100
AcDbPoint
 10
331.3105393602532
 20
307.6766160093066
 30
0.0
  0
ENDBLK
  5
3A4
330
35C
100
AcDbEntity
  8
0
100
AcDbBlockEnd
  0
BLOCK
  5
3A5
330
36A
100
AcDbEntity
  8
0
100
AcDbBlockBegin
  2
*D5
 70
     1
 10
0.0
 20
0.0
 30
0.0
  3
*D5
  1

  0
LINE
  5
3A6
330
36A
100
AcDbEntity
  8
0
  6
BYBLOCK
 62
     4
100
AcDbLine
 10
485.553961688894
 20
198.8881711112566
 30
0.0
 11
519.5347974262654
 21
198.8881711112566
 31
0.0
  0
LINE
  5
3A7
330
36A
100
AcDbEntity
  8
0
  6
BYBLOCK
 62
     4
100
AcDbLine
 10
426.903961688894
 20
147.6881711112566
 30
0.0
 11
519.5347974262654
 21
147.6881711112566
 31
0.0
  0
LINE
  5
3A8
330
36A
100
AcDbEntity
  8
0
  6
BYBLOCK
 62
     4
100
AcDbLine
 10
516.5347974262654
 20
191.8881711112566
 30
0.0
 11
516.5347974262654
 21
154.6881711112566
 31
0.0
  0
INSERT
  5
3A9
330
36A
100
AcDbEntity
  8
0
  6
BYBLOCK
 62
     4
100
AcDbBlockReference
  2
_OPEN
 10
516.5347974262654
 20
198.8881711112566
 30
0.0
 41
7.0
 42
7.0
 43
7.0
 50
90.0
  0
INSERT
  5
3AA
330
36A
100
AcDbEntity
  8
0
  6
BYBLOCK
 62
     4
100
AcDbBlockReference
  2
_OPEN
 10
516.5347974262654
 20
147.6881711112566
 30
0.0
 41
7.0
 42
7.0
 43
7.0
 50
270.0
  0
MTEXT
  5
3AB
330
36A
100
AcDbEntity
  8
0
  6
BYBLOCK
 62
     4
100
AcDbMText
 10
511.5347974262654
 20
173.2881711112566
 30
0.0
 40
6.0
 41
0.0
 71
     5
 72
     1
  1
\A1;51
 11
0.0
 21
1.0
 31
0.0
1001
ACAD
1000
MTEXTBEGIN
1070
    73
1070
     1
1070
    44
1040
1.0
1070
    74
1070
     0
1000
MTEXTEND
1000
MTEXTBEGIN
1070
    73
1070
     1
1070
    44
1040
1.0
1070
    74
1070
     0
1000
MTEXTEND
  0
POINT
  5
3AC
330
36A
100
AcDbEntity
  8
DEFPOINTS
  6
BYBLOCK
 62
     0
100
AcDbPoint
 10
479.5539616888939
 20
198.8881711112566
 30
0.0
  0
POINT
  5
3AD
330
36A
100
AcDbEntity
  8
DEFPOINTS
  6
BYBLOCK
 62
     0
100
AcDbPoint
 10
420.903961688894
 20
147.6881711112566
 30
0.0
  0
POINT
  5
3AE
330
36A
100
AcDbEntity
  8
DEFPOINTS
  6
BYBLOCK
 62
     0
100
AcDbPoint
 10
516.5347974262654
 20
147.6881711112566
 30
0.0
  0
ENDBLK
  5
3AF
330
36A
100
AcDbEntity
  8
0
100
AcDbBlockEnd
  0
ENDSEC
  0
SECTION
  2
ENTITIES
  0
TEXT
  5
11A
330
1A
100
AcDbEntity
  8
ZUWAKU
 62
     7
 48
10.0
100
AcDbText
 10
795.5579444309237
 20
4.974918402528146
 30
0.0
 40
8.0
  1
A1
100
AcDbText
  0
LINE
  5
11B
330
1A
100
AcDbEntity
  8
ZUWAKU
 62
     7
 48
10.0
100
AcDbLine
 10
10.05047808566086
 20
25.78258628282265
 30
0.0
 11
806.0504780856609
 21
25.78258628282253
 31
0.0
  0
LINE
  5
11C
330
1A
100
AcDbEntity
  8
ZUWAKU
  6
CONTINUOUS
 62
     7
100
AcDbLine
 10
806.0504780856609
 20
563.7825862828226
 30
0.0
 11
10.05047808566086
 21
563.7825862828226
 31
0.0
  0
LINE
  5
11D
330
1A
100
AcDbEntity
  8
ZUWAKU
  6
CONTINUOUS
 62
     7
100
AcDbLine
 10
806.0504780856609
 20
13.78258628282265
 30
0.0
 11
10.05047808566086
 21
13.78258628282265
 31
0.0
  0
LINE
  5
11E
330
1A
100
AcDbEntity
  8
ZUWAKU
  6
CONTINUOUS
 62
     7
100
AcDbLine
 10
10.05047808566086
 20
563.7825862828226
 30
0.0
 11
10.05047808566086
 21
13.78258628282265
 31
0.0
  0
LINE
  5
11F
330
1A
100
AcDbEntity
  8
ZUWAKU
 62
     7
 48
10.0
100
AcDbLine
 10
44.55797523147839
 20
13.78258628282265
 30
0.0
 11
44.5579752314784
 21
25.78258628282265
 31
0.0
  0
TEXT
  5
120
330
1A
100
AcDbEntity
  8
ZUWAKU
 62
     7
100
AcDbText
 10
16.05676551180931
 20
15.52294263804401
 30
0.0
 40
8.0
  1
品 種
100
AcDbText
  0
LINE
  5
121
330
1A
100
AcDbEntity
  8
ZUWAKU
 62
     7
 48
10.0
100
AcDbLine
 10
276.1028387068254
 20
13.78258628282265
 30
0.0
 11
276.1028387068254
 21
25.78258628282261
 31
0.0
  0
LINE
  5
122
330
1A
100
AcDbEntity
  8
ZUWAKU
 62
     7
 48
10.0
100
AcDbLine
 10
209.5138526425484
 20
13.78258628282265
 30
0.0
 11
209.5138526425485
 21
25.78258628282263
 31
0.0
  0
TEXT
  5
124
330
1A
100
AcDbEntity
  8
ZUWAKU
 62
     7
100
AcDbText
 10
215.4560837190756
 20
16.18358115302453
 30
0.0
 40
8.0
  1
品名・ｻ ｲ ｽﾞ
100
AcDbText
  0
LINE
  5
126
330
1A
100
AcDbEntity
  8
ZUWAKU
 62
     7
 48
10.0
100
AcDbLine
 10
768.7231079932794
 20
13.78258628282237
 30
0.0
 11
768.7231079932794
 21
25.78258628282254
 31
0.0
  0
LINE
  5
127
330
1A
100
AcDbEntity
  8
ZUWAKU
 62
     7
 48
10.0
100
AcDbLine
 10
733.8119002376948
 20
13.78258628282242
 30
0.0
 11
733.8119002376946
 21
25.78258628282254
 31
0.0
  0
TEXT
  5
128
330
1A
100
AcDbEntity
  8
ZUWAKU
 62
     7
100
AcDbText
 10
739.6955629973526
 20
15.24227755810852
 30
0.0
 40
8.0
  1
尺 度
100
AcDbText
  0
TEXT
  5
129
330
1A
100
AcDbEntity
  8
ZUWAKU
 62
     7
100
AcDbText
 10
779.7374630323229
 20
15.55488920081529
 30
0.0
 40
8.0
  1
1/2
100
AcDbText
  0
TEXT
  5
12B
330
1A
100
AcDbEntity
  8
ZUWAKU
 62
     7
100
AcDbText
 10
620.3363288383084
 20
15.6519090944263
 30
0.0
 40
8.0
  1
品 番
100
AcDbText
  0
LINE
  5
12C
330
1A
100
AcDbEntity
  8
ZUWAKU
 62
     7
 48
10.0
100
AcDbLine
 10
614.3351028194128
 20
13.78258628282232
 30
0.0
 11
614.3351028194128
 21
25.78258628282256
 31
0.0
  0
LINE
  5
12D
330
1A
100
AcDbEntity
  8
ZUWAKU
 62
     7
 48
10.0
100
AcDbLine
 10
648.7607587371021
 20
13.78258628282232
 30
0.0
 11
648.7607587371021
 21
25.78258628282255
 31
0.0
  0
TEXT
  5
12E
330
1A
100
AcDbEntity
  8
ZUWAKU
 62
     7
 48
10.0
100
AcDbText
 10
646.2758615931216
 20
4.949376903717848
 30
0.0
 40
8.0
  1
積水化学工業株式会社  建材
100
AcDbText
  0
LINE
  5
12F
330
1A
100
AcDbEntity
  8
ZUWAKU
  6
CONTINUOUS
 62
     7
100
AcDbLine
 10
806.0504780856609
 20
563.7825862828226
 30
0.0
 11
806.0504780856609
 21
13.78258628282265
 31
0.0
  0
LINE
  5
261
330
1A
100
AcDbEntity
  8
SEIHIN
  6
CONTINUOUS
 62
     3
 48
16.0
100
AcDbLine
 10
420.904061688894
 20
332.6766160093066
 30
0.0
 11
405.9039616888941
 21
332.6766484553546
 31
0.0
  0
ELLIPSE
  5
262
330
1A
100
AcDbEntity
  8
SEIHIN
  6
CONTINUOUS
 48
16.0
100
AcDbEllipse
 10
400.1904399201448
 20
199.4881794159722
 30
0.0
 11
0.0
 21
-48.8000083047155
 31
0.0
210
0.0
220
0.0
230
1.0
 40
0.7097673497266359
 41
0.4035853024084898
 42
1.364416226368929
  0
DIMENSION
  5
263
330
1A
100
AcDbEntity
  8
SUNPOU
100
AcDbDimension
  2
*D1
 10
362.2540616888942
 20
228.7008312188767
 30
0.0
 11
420.9040116888941
 21
233.7008312188768
 31
0.0
 70
    32
  3
STANDARD
100
AcDbAlignedDimension
 13
479.5539616888939
 23
198.8881711112566
 33
0.0
 14
362.2540616888942
 24
193.4881711112567
 34
0.0
100
AcDbRotatedDimension
1001
ACAD
1000
DSTYLE
1002
{
1070
   140
1040
6.0
1070
    74
1070
     0
1070
   172
1070
     1
1070
    73
1070
     0
1070
   272
1070
     2
1070
    77
1070
     3
1070
   173
1070
     1
1070
   147
1040
2.0
1070
    42
1040
6.0
1070
    44
1040
3.0
1070
    43
1040
14.0
1070
   271
1070
     0
1070
   178
1070
     4
1070
   177
1070
     4
1070
   176
1070
     4
1070
   141
1040
150.0
1070
     7
1000
_OPEN
1070
     6
1000
_OPEN
1070
    41
1040
7.0
1002
}
  0
DIMENSION
  5
264
330
1A
100
AcDbEntity
  8
SUNPOU
100
AcDbDimension
  2
*D2
 10
420.9040616888939
 20
387.2100160093066
 30
0.0
 11
440.3680284681909
 21
387.4433228717437
 31
0.0
 70
    34
  3
STANDARD
100
AcDb2LineAngularDimension
 13
373.3271616888941
 23
409.5472160093067
 33
0.0
 14
420.9041616888941
 24
361.9703160093066
 34
0.0
 15
420.904061688894
 25
294.6863160093066
 35
0.0
 16
408.4611972391317
 26
383.5220545569716
 36
0.0
1001
ACAD
1000
DSTYLE
1002
{
1070
   271
1070
     0
1070
   271
1070
     0
1070
   140
1040
6.0
1070
    74
1070
     0
1070
   172
1070
     1
1070
    73
1070
     0
1070
   272
1070
     2
1070
    77
1070
     3
1070
   173
1070
     1
1070
   147
1040
2.0
1070
    42
1040
6.0
1070
    44
1040
3.0
1070
    43
1040
14.0
1070
   271
1070
     0
1070
   178
1070
     4
1070
   177
1070
     4
1070
   176
1070
     4
1070
   141
1040
150.0
1070
     7
1000
_OPEN
1070
     6
1000
_OPEN
1070
    41
1040
7.0
1002
}
  0
LINE
  5
265
330
1A
100
AcDbEntity
  8
CENTER_L
100
AcDbLine
 10
485.0540628470615
 20
388.5420176964054
 30
0.0
 11
355.2540733622336
 21
334.7770179673532
 31
0.0
  0
ARC
  5
266
330
1A
100
AcDbEntity
  8
NOKITOI
  6
CONTINUOUS
 62
     8
 48
5.0
100
AcDbCircle
 10
420.903961688894
 20
199.4881831112567
 30
0.0
 40
50.300012
100
AcDbArc
 50
188.6764639999999
 51
351.2914929999999
  0
ARC
  5
267
330
1A
100
AcDbEntity
  8
NOKITOI
  6
CONTINUOUS
 62
     8
 48
5.0
100
AcDbCircle
 10
420.903961688894
 20
199.4881831112567
 30
0.0
 40
49.00000099999999
100
AcDbArc
 50
185.413376
 51
354.5863799999999
  0
LINE
  5
268
330
1A
100
AcDbEntity
  8
SEIHIN
  6
CONTINUOUS
 62
     3
 48
16.0
100
AcDbLine
 10
418.9234616888941
 20
189.4881711112567
 30
0.0
 11
417.402045578782
 21
189.4881711112567
 31
0.0
  0
LINE
  5
269
330
1A
100
AcDbEntity
  8
SEIHIN
  6
CONTINUOUS
 62
     3
 48
16.0
100
AcDbLine
 10
415.073461688894
 20
171.7685711112566
 30
0.0
 11
427.521235673212
 21
169.5102683233597
 31
0.0
  0
LINE
  5
26A
330
1A
100
AcDbEntity
  8
SEIHIN
  6
CONTINUOUS
 62
     3
 48
16.0
100
AcDbLine
 10
427.2631360991761
 20
169.048927695541
 30
0.0
 11
414.8541616888941
 21
171.3001711112567
 31
0.0
  0
ELLIPSE
  5
26B
330
1A
100
AcDbEntity
  8
SEIHIN
  6
CONTINUOUS
 48
16.0
100
AcDbEllipse
 10
403.7259436358243
 20
199.4881794159722
 30
0.0
 11
0.0
 21
-50.3000083047155
 31
0.0
210
0.0
220
0.0
230
1.0
 40
0.6727869199095315
 41
0.3750011547812954
 42
1.370655560326194
  0
ELLIPSE
  5
26C
330
1A
100
AcDbEntity
  8
SEIHIN
  6
CONTINUOUS
 48
16.0
100
AcDbEllipse
 10
388.1696272872565
 20
199.4881794159722
 30
0.0
 11
0.0
 21
-47.3000083047155
 31
0.0
210
0.0
220
0.0
230
1.0
 40
0.7061309542448904
 41
0.931763576324975
 42
1.357772202735215
  0
LINE
  5
26D
330
1A
100
AcDbEntity
  8
SEIHIN
  6
CONTINUOUS
 62
     3
 48
16.0
100
AcDbLine
 10
407.6590729809624
 20
161.0757764736104
 30
0.0
 11
423.0753494800281
 21
162.8570371717452
 31
0.0
  0
LINE
  5
26E
330
1A
100
AcDbEntity
  8
SEIHIN
  6
CONTINUOUS
 62
     3
 48
16.0
100
AcDbLine
 10
420.903961688894
 20
147.6881711112566
 30
0.0
 11
382.5126713422032
 21
147.6882812534996
 31
0.0
  0
ARC
  5
26F
330
1A
100
AcDbEntity
  8
SEIHIN
  6
CONTINUOUS
 62
     3
 48
16.0
100
AcDbCircle
 10
420.9040126513115
 20
199.4881301229528
 30
0.0
 40
50.29995901172193
100
AcDbArc
 50
192.3815509617282
 51
269.9999419496258
  0
ARC
  5
270
330
1A
100
AcDbEntity
  8
SEIHIN
  6
CONTINUOUS
 62
     3
 48
16.0
100
AcDbCircle
 10
420.9040030652095
 20
199.4881386064099
 30
0.0
 40
51.79996749516982
100
AcDbArc
 50
193.6942612118547
 51
269.9999542337887
  0
ARC
  5
271
330
1A
100
AcDbEntity
  8
SEIHIN
  6
CONTINUOUS
 62
     3
 48
16.0
100
AcDbCircle
 10
420.9041647403467
 20
199.4881415191275
 30
0.0
 40
48.79997040829326
100
AcDbArc
 50
253.4162703912659
 51
269.999761598395
  0
LINE
  5
272
330
1A
100
AcDbEntity
  8
SEIHIN
  6
CONTINUOUS
 62
     3
 48
16.0
100
AcDbLine
 10
420.6756616888941
 20
427.2109160093067
 30
0.0
 11
416.2397616888941
 21
422.7750160093067
 31
0.0
  0
LINE
  5
273
330
1A
100
AcDbEntity
  8
SEIHIN
  6
CONTINUOUS
 62
     3
 48
16.0
100
AcDbLine
 10
426.2078616888941
 20
408.7015160093066
 30
0.0
 11
416.1488616888941
 21
420.7532160093067
 31
0.0
  0
LINE
  5
274
330
1A
100
AcDbEntity
  8
SEIHIN
  6
CONTINUOUS
 62
     3
 48
16.0
100
AcDbLine
 10
417.2528616888939
 20
435.1019160093067
 30
0.0
 11
434.9304616888941
 21
417.4242160093067
 31
0.0
  0
LINE
  5
275
330
1A
100
AcDbEntity
  8
SEIHIN
  6
CONTINUOUS
 62
     3
 48
16.0
100
AcDbLine
 10
414.3324616888941
 20
389.7550160093067
 30
0.0
 11
437.2926616888941
 21
412.7152160093065
 31
0.0
  0
LINE
  5
276
330
1A
100
AcDbEntity
  8
SEIHIN
  6
CONTINUOUS
 62
     3
 48
16.0
100
AcDbLine
 10
433.587561688894
 20
414.6670160093067
 30
0.0
 11
411.5040616888941
 21
392.5835160093066
 31
0.0
  0
LINE
  5
277
330
1A
100
AcDbEntity
  8
SEIHIN
  6
CONTINUOUS
 62
     3
 48
16.0
100
AcDbLine
 10
373.4333616888941
 20
342.3072160093066
 30
0.0
 11
468.2224616888939
 21
381.5702160093067
 31
0.0
  0
LINE
  5
278
330
1A
100
AcDbEntity
  8
SEIHIN
  6
CONTINUOUS
 62
     3
 48
16.0
100
AcDbLine
 10
362.7540616888941
 20
307.6766160093066
 30
0.0
 11
420.904061688894
 21
307.6766160093066
 31
0.0
  0
LINE
  5
279
330
1A
100
AcDbEntity
  8
SEIHIN
  6
CONTINUOUS
 62
     3
 48
16.0
100
AcDbLine
 10
423.6308616888941
 20
441.4799160093067
 30
0.0
 11
382.5126616888941
 21
400.3617160093067
 31
0.0
  0
LINE
  5
27A
330
1A
100
AcDbEntity
  8
SEIHIN
  6
CONTINUOUS
 62
     3
 48
16.0
100
AcDbLine
 10
421.2078616888941
 20
403.7015160093066
 30
0.0
 11
408.8173616888941
 21
413.4796160093067
 31
0.0
  0
LINE
  5
27B
330
1A
100
AcDbEntity
  8
CENTER_L
  6
CENTER
 62
     1
 48
5.0
100
AcDbLine
 10
373.3271616888941
 20
409.5472160093067
 30
0.0
 11
420.9041616888941
 21
361.9703160093066
 31
0.0
  0
DIMENSION
  5
27C
330
1A
100
AcDbEntity
  8
SUNPOU
100
AcDbDimension
  2
*D3
 10
313.1784447213212
 20
307.6766160093066
 30
0.0
 11
308.1784447213212
 21
322.6765642956294
 31
0.0
 70
    32
  3
STANDARD
100
AcDbAlignedDimension
 13
362.2540616888941
 23
337.6765125819522
 33
0.0
 14
362.7540616888941
 24
307.6766160093066
 34
0.0
 50
90.0
100
AcDbRotatedDimension
1001
ACAD
1000
DSTYLE
1002
{
1070
   140
1040
6.0
1070
    74
1070
     0
1070
   172
1070
     1
1070
    73
1070
     0
1070
   272
1070
     2
1070
    77
1070
     3
1070
   173
1070
     1
1070
   147
1040
2.0
1070
    42
1040
6.0
1070
    44
1040
3.0
1070
    43
1040
14.0
1070
   271
1070
     0
1070
   178
1070
     4
1070
   177
1070
     4
1070
   176
1070
     4
1070
   141
1040
150.0
1070
     7
1000
_OPEN
1070
     6
1000
_OPEN
1070
    41
1040
7.0
1002
}
  0
DIMENSION
  5
27D
330
1A
100
AcDbEntity
  8
SUNPOU
100
AcDbDimension
  2
*D4
 10
331.3105393602532
 20
307.6766160093066
 30
0.0
 11
326.3105393602531
 21
320.1766660093066
 31
0.0
 70
    32
  1
※<>
  3
STANDARD
100
AcDbAlignedDimension
 13
371.7739616888941
 23
332.6767160093066
 33
0.0
 14
362.7540616888941
 24
307.6766160093066
 34
0.0
 50
90.0
100
AcDbRotatedDimension
1001
ACAD
1000
DSTYLE
1002
{
1070
   140
1040
6.0
1070
    74
1070
     0
1070
   172
1070
     1
1070
    73
1070
     0
1070
   272
1070
     2
1070
    77
1070
     3
1070
   173
1070
     1
1070
   147
1040
2.0
1070
    42
1040
6.0
1070
    44
1040
3.0
1070
    43
1040
14.0
1070
   271
1070
     0
1070
   178
1070
     4
1070
   177
1070
     4
1070
   176
1070
     4
1070
   141
1040
150.0
1070
     7
1000
_OPEN
1070
     6
1000
_OPEN
1070
    41
1040
7.0
1002
}
  0
LINE
  5
27E
330
1A
100
AcDbEntity
  8
SEIHIN
  6
CONTINUOUS
 62
     3
 48
16.0
100
AcDbLine
 10
405.9039616888941
 20
317.1766160093066
 30
0.0
 11
405.9039616888941
 21
337.6766160093065
 31
0.0
  0
LINE
  5
27F
330
1A
100
AcDbEntity
  8
SEIHIN
  6
CONTINUOUS
 62
     3
 48
16.0
100
AcDbLine
 10
373.4333616888941
 20
317.1767160093067
 30
0.0
 11
373.4333616888941
 21
332.6767160093066
 31
0.0
  0
LINE
  5
280
330
1A
100
AcDbEntity
  8
SEIHIN
  6
CONTINUOUS
 62
     3
 48
16.0
100
AcDbLine
 10
362.2540616888941
 20
312.6766160093065
 30
0.0
 11
362.2540616888941
 21
336.8482160093066
 31
0.0
  0
LINE
  5
281
330
1A
100
AcDbEntity
  8
SEIHIN
  6
CONTINUOUS
 62
     3
 48
16.0
100
AcDbLine
 10
363.7540616888941
 20
307.6766160093066
 30
0.0
 11
363.7540616888941
 21
338.2979160093066
 31
0.0
  0
LINE
  5
282
330
1A
100
AcDbEntity
  8
SEIHIN
  6
CONTINUOUS
 62
     3
 48
16.0
100
AcDbLine
 10
371.7739616888941
 20
307.6766160093066
 30
0.0
 11
371.7739616888941
 21
332.6766160093066
 31
0.0
  0
LINE
  5
283
330
1A
100
AcDbEntity
  8
SEIHIN
  6
CONTINUOUS
 62
     3
 48
16.0
100
AcDbLine
 10
391.1806616888941
 20
332.6767160093066
 30
0.0
 11
393.0280616888941
 21
317.0011160093066
 31
0.0
  0
LINE
  5
284
330
1A
100
AcDbEntity
  8
SEIHIN
  6
CONTINUOUS
 62
     3
 48
16.0
100
AcDbLine
 10
384.1096616888941
 20
332.6767160093066
 30
0.0
 11
382.7006616888941
 21
317.0421160093067
 31
0.0
  0
LINE
  5
285
330
1A
100
AcDbEntity
  8
SEIHIN
  6
CONTINUOUS
 62
     3
 48
16.0
100
AcDbLine
 10
374.6731616888941
 20
315.6994160093067
 30
0.0
 11
374.6731616888941
 21
333.6767160093067
 31
0.0
  0
TEXT
  5
286
330
1A
100
AcDbEntity
  8
ZUWAKU
 62
     7
100
AcDbText
 10
50.3519382305086
 20
16.10306189639755
 30
0.0
 40
8.0
  1
丸トップ　のきとい
100
AcDbText
  0
TEXT
  5
288
330
1A
100
AcDbEntity
  8
ZUWAKU
 62
     7
100
AcDbText
 10
282.3131429914078
 20
15.64241700452384
 30
0.0
 40
8.0
  1
４５°曲り　１０５
100
AcDbText
  0
LINE
  5
28C
330
1A
100
AcDbEntity
  8
SEIHIN
  6
CONTINUOUS
 62
     3
 48
16.0
100
AcDbLine
 10
343.394161688894
 20
187.9881711112567
 30
0.0
 11
369.604961688894
 21
187.9881711112567
 31
0.0
  0
LINE
  5
28D
330
1A
100
AcDbEntity
  8
SEIHIN
  6
CONTINUOUS
 62
     3
 48
16.0
100
AcDbLine
 10
363.7540616888941
 20
198.8881711112566
 30
0.0
 11
341.3944616888942
 21
198.8881711112566
 31
0.0
  0
ELLIPSE
  5
28E
330
1A
100
AcDbEntity
  8
SEIHIN
  6
CONTINUOUS
 48
16.0
100
AcDbEllipse
 10
382.5126713422032
 20
199.4881794159722
 30
0.0
 11
0.0
 21
-51.79999999999999
 31
0.0
210
0.0
220
0.0
230
1.0
 40
0.7065637065637071
 41
-1.346923065666724
 42
0.000000000000014
  0
ELLIPSE
  5
28F
330
1A
100
AcDbEntity
  8
SEIHIN
  6
CONTINUOUS
 48
16.0
100
AcDbEllipse
 10
386.0482250578155
 20
199.4881794159722
 30
0.0
 11
0.0
 21
-51.799908305758
 31
0.0
210
0.0
220
0.0
230
1.0
 40
0.706564957296104
 41
-1.346922662618617
 42
0.0
  0
LINE
  5
290
330
1A
100
AcDbEntity
  8
SEIHIN
  6
CONTINUOUS
 62
     3
 48
16.0
100
AcDbLine
 10
341.394161688894
 20
198.8882711112566
 30
0.0
 11
341.394161688894
 21
189.9881711112567
 31
0.0
  0
ARC
  5
291
330
1A
100
AcDbEntity
  8
SEIHIN
  6
CONTINUOUS
 62
     3
 48
16.0
100
AcDbCircle
 10
343.394161688894
 20
189.9881711112567
 30
0.0
 40
2.0
100
AcDbArc
 50
180.0
 51
270.0
  0
ELLIPSE
  5
292
330
1A
100
AcDbEntity
  8
SEIHIN
  6
CONTINUOUS
 48
16.0
100
AcDbEllipse
 10
403.7259436358243
 20
199.4881794159722
 30
0.0
 11
0.0
 21
-51.79995902204177
 31
0.0
210
0.0
220
0.0
230
1.0
 40
0.6576444024271271
 41
-1.319736769716929
 42
0.0
  0
ARC
  5
293
330
1A
100
AcDbEntity
  8
SEIHIN
  6
CONTINUOUS
 62
     3
 48
16.0
100
AcDbCircle
 10
420.9040019429622
 20
199.4880857961988
 30
0.0
 40
48.79994543673358
100
AcDbArc
 50
193.4038980557921
 51
217.1144243630328
  0
ARC
  5
294
330
1A
100
AcDbEntity
  8
SEIHIN
  6
CONTINUOUS
 62
     3
 48
16.0
100
AcDbCircle
 10
420.9039565432491
 20
199.4881768368642
 30
0.0
 40
47.29995117930934
100
AcDbArc
 50
192.3816884801249
 51
251.5108568925375
  0
ELLIPSE
  5
295
330
1A
100
AcDbEntity
  8
SEIHIN
  6
CONTINUOUS
 48
16.0
100
AcDbEllipse
 10
400.1904399202644
 20
199.4881794159722
 30
0.0
 11
0.0
 21
-51.79994887889979
 31
0.0
210
0.0
220
0.0
230
1.0
 40
0.6613813966985292
 41
-1.346922840960728
 42
0.0
  0
ELLIPSE
  5
296
330
1A
100
AcDbEntity
  8
SEIHIN
  6
CONTINUOUS
 48
16.0
100
AcDbEllipse
 10
382.5126713422032
 20
199.4881794159722
 30
0.0
 11
0.0
 21
-50.3000083047155
 31
0.0
210
0.0
220
0.0
230
1.0
 40
0.7077533622725582
 41
0.5479661696881771
 42
1.370655560326194
  0
ARC
  5
297
330
1A
100
AcDbEntity
  8
SEIHIN
  6
CONTINUOUS
 62
     3
 48
16.0
100
AcDbCircle
 10
420.9040718617502
 20
199.4880609375895
 30
0.0
 40
48.79993172463159
100
AcDbArc
 50
218.9315913242632
 51
231.0676233017703
  0
ARC
  5
298
330
1A
100
AcDbEntity
  8
SEIHIN
  6
CONTINUOUS
 62
     3
 48
16.0
100
AcDbCircle
 10
420.9037118597534
 20
199.4884978263322
 30
0.0
 40
48.79992622093656
100
AcDbArc
 50
215.8768110809283
 51
218.9322559524919
  0
ARC
  5
299
330
1A
100
AcDbEntity
  8
SEIHIN
  6
CONTINUOUS
 62
     3
 48
16.0
100
AcDbCircle
 10
383.1856282906402
 20
170.946862960587
 30
0.0
 40
1.500001931617945
100
AcDbArc
 50
217.1133485355051
 51
308.9288459366627
  0
ARC
  5
29A
330
1A
100
AcDbEntity
  8
SEIHIN
  6
CONTINUOUS
 62
     3
 48
16.0
100
AcDbCircle
 10
381.7178084142468
 20
172.9979805361993
 30
0.0
 40
1.49998490989331
100
AcDbArc
 50
214.0612325507034
 51
305.8765951152807
  0
ELLIPSE
  5
29B
330
1A
100
AcDbEntity
  8
SEIHIN
  6
CONTINUOUS
 48
16.0
100
AcDbEllipse
 10
388.1696272872565
 20
199.4881794159722
 30
0.0
 11
0.0
 21
-47.3000083047155
 31
0.0
210
0.0
220
0.0
230
1.0
 40
0.7061309542448904
 41
0.4176696005912747
 42
0.6230519144038841
  0
ARC
  5
29C
330
1A
100
AcDbEntity
  8
SEIHIN
  6
CONTINUOUS
 62
     3
 48
16.0
100
AcDbCircle
 10
420.9039634547198
 20
199.4881701440676
 30
0.0
 40
48.79992630773081
100
AcDbArc
 50
232.8851359586868
 51
249.6935308891107
  0
LINE
  5
29D
330
1A
100
AcDbEntity
  8
SEIHIN
  6
CONTINUOUS
 62
     3
 48
16.0
100
AcDbLine
 10
413.060561688894
 20
154.1296711112566
 30
0.0
 11
405.9039616888941
 21
154.1296711112566
 31
0.0
  0
LINE
  5
29E
330
1A
100
AcDbEntity
  8
SEIHIN
  6
CONTINUOUS
 62
     3
 48
16.0
100
AcDbLine
 10
413.7676616888941
 20
154.6296711112566
 30
0.0
 11
405.9039616888941
 21
154.6296711112566
 31
0.0
  0
ARC
  5
29F
330
1A
100
AcDbEntity
  8
SEIHIN
  6
CONTINUOUS
 62
     3
 48
16.0
100
AcDbCircle
 10
407.4039555838693
 20
154.1556792992254
 30
0.0
 40
1.499993894997495
100
AcDbArc
 50
180.0003127586409
 51
253.4174138873944
  0
ARC
  5
2A0
330
1A
100
AcDbEntity
  8
SEIHIN
  6
CONTINUOUS
 62
     3
 48
16.0
100
AcDbCircle
 10
404.4890144244611
 20
155.1278963789753
 30
0.0
 40
1.499985083223068
100
AcDbArc
 50
249.6896373011031
 51
341.5091424425111
  0
LINE
  5
2A1
330
1A
100
AcDbEntity
  8
SEIHIN
  6
CONTINUOUS
 62
     3
 48
16.0
100
AcDbLine
 10
405.9039616888941
 20
154.1556711112567
 30
0.0
 11
405.9039616888941
 21
154.6296711112566
 31
0.0
  0
LINE
  5
2A2
330
1A
100
AcDbEntity
  8
SEIHIN
  6
CONTINUOUS
 62
     3
 48
16.0
100
AcDbLine
 10
413.7676616888941
 20
154.6296711112566
 30
0.0
 11
413.060561688894
 21
154.6296711112566
 31
0.0
  0
LINE
  5
2A3
330
1A
100
AcDbEntity
  8
SEIHIN
  6
CONTINUOUS
 62
     3
 48
16.0
100
AcDbLine
 10
413.060561688894
 20
154.1296711112566
 30
0.0
 11
413.060561688894
 21
152.7180711112567
 31
0.0
  0
LINE
  5
2A4
330
1A
100
AcDbEntity
  8
SEIHIN
  6
CONTINUOUS
 62
     3
 48
16.0
100
AcDbLine
 10
416.1797330060328
 20
152.7180711112567
 30
0.0
 11
413.060561688894
 21
152.7180711112567
 31
0.0
  0
ARC
  5
2A5
330
1A
100
AcDbEntity
  8
SEIHIN
  6
CONTINUOUS
 62
     3
 48
16.0
100
AcDbCircle
 10
394.5494163135382
 20
199.4879717908427
 30
0.0
 40
50.29992455726778
100
AcDbArc
 50
288.5602425943393
 51
291.5931495017735
  0
LINE
  5
2A6
330
1A
100
AcDbEntity
  8
SEIHIN
  6
CONTINUOUS
 62
     3
 48
16.0
100
AcDbLine
 10
413.7676616888941
 20
154.6296711112566
 30
0.0
 11
416.1210773903293
 21
152.6836595813391
 31
0.0
  0
ARC
  5
2A7
330
1A
100
AcDbEntity
  8
SEIHIN
  6
CONTINUOUS
 62
     3
 48
16.0
100
AcDbCircle
 10
394.4135640060631
 20
160.3021580113572
 30
0.0
 40
1.500014211597522
100
AcDbArc
 50
144.1213941763447
 51
235.9398518333152
  0
ARC
  5
2A8
330
1A
100
AcDbEntity
  8
SEIHIN
  6
CONTINUOUS
 62
     3
 48
16.0
100
AcDbCircle
 10
420.90400259063
 20
199.4881398344609
 30
0.0
 40
48.7999495675238
100
AcDbArc
 50
231.0677447785694
 51
234.1231881880185
  0
ARC
  5
2A9
330
1A
100
AcDbEntity
  8
SEIHIN
  6
CONTINUOUS
 62
     3
 48
16.0
100
AcDbCircle
 10
392.3624601168066
 20
161.7698839595218
 30
0.0
 40
1.499963036209428
100
AcDbArc
 50
141.0673144611111
 51
232.8852121375288
  0
ARC
  5
2AA
330
1A
100
AcDbEntity
  8
NOKITOI
  6
CONTINUOUS
 62
     8
 48
5.0
100
AcDbCircle
 10
368.1423616888939
 20
194.4882831112568
 30
0.0
 40
3.999994
100
AcDbArc
 50
5.413986
 51
185.413851
  0
CIRCLE
  5
2AB
330
1A
100
AcDbEntity
  8
NOKITOI
  6
CONTINUOUS
 62
     8
 48
5.0
100
AcDbCircle
 10
368.1423616888939
 20
194.4882831112568
 30
0.0
 40
2.7
  0
ARC
  5
2AC
330
1A
100
AcDbEntity
  8
NOKITOI
  6
CONTINUOUS
 62
     8
 48
5.0
100
AcDbCircle
 10
368.1423616888939
 20
194.4882831112568
 30
0.0
 40
4.000029
100
AcDbArc
 50
185.413851
 51
319.252818
  0
LINE
  5
2AD
330
1A
100
AcDbEntity
  8
SEIHIN
  6
CONTINUOUS
 62
     3
 48
16.0
100
AcDbLine
 10
374.6731616888942
 20
189.4881711112567
 30
0.0
 11
367.7540616888941
 21
189.4881711112567
 31
0.0
  0
ARC
  5
2AE
330
1A
100
AcDbEntity
  8
SEIHIN
  6
CONTINUOUS
 62
     3
 48
16.0
100
AcDbCircle
 10
367.7540616888941
 20
193.4881711112567
 30
0.0
 40
4.0
100
AcDbArc
 50
180.0
 51
270.0
  0
ARC
  5
2AF
330
1A
100
AcDbEntity
  8
SEIHIN
  6
CONTINUOUS
 62
     3
 48
16.0
100
AcDbCircle
 10
367.7540616888941
 20
193.4881711112567
 30
0.0
 40
5.5
100
AcDbArc
 50
180.0
 51
270.0
  0
LINE
  5
2B0
330
1A
100
AcDbEntity
  8
SEIHIN
  6
CONTINUOUS
 62
     3
 48
16.0
100
AcDbLine
 10
363.7540616888941
 20
193.4881711112567
 30
0.0
 11
363.7540616888941
 21
198.8881711112566
 31
0.0
  0
LINE
  5
2B1
330
1A
100
AcDbEntity
  8
SEIHIN
  6
CONTINUOUS
 62
     3
 48
16.0
100
AcDbLine
 10
362.2540616888942
 20
193.4881711112567
 30
0.0
 11
362.2540616888942
 21
198.8881711112566
 31
0.0
  0
ARC
  5
2B2
330
1A
100
AcDbEntity
  8
SEIHIN
  6
CONTINUOUS
 62
     3
 48
16.0
100
AcDbCircle
 10
370.7972471217193
 20
188.4881828263939
 30
0.0
 40
0.9999882849688985
100
AcDbArc
 50
12.38565524449623
 51
89.99916535257915
  0
ARC
  5
2B3
330
1A
100
AcDbEntity
  8
SEIHIN
  6
CONTINUOUS
 62
     3
 48
16.0
100
AcDbCircle
 10
374.4060761959013
 20
188.4073941541868
 30
0.0
 40
0.9999809048098022
100
AcDbArc
 50
102.2054955103878
 51
193.4105766629317
  0
ARC
  5
2B4
330
1A
100
AcDbEntity
  8
SEIHIN
  6
CONTINUOUS
 62
     3
 48
16.0
100
AcDbCircle
 10
369.6049874028416
 20
186.9881509116646
 30
0.0
 40
1.000020199922658
100
AcDbArc
 50
13.69865952571526
 51
90.00147327091111
  0
LINE
  5
2B5
330
1A
100
AcDbEntity
  8
SEIHIN
  6
CONTINUOUS
 62
     3
 48
16.0
100
AcDbLine
 10
362.2540616888941
 20
312.6766160093065
 30
0.0
 11
362.7540616888941
 21
307.6766160093066
 31
0.0
  0
LINE
  5
2B6
330
1A
100
AcDbEntity
  8
SEIHIN
  6
CONTINUOUS
 62
     3
 48
16.0
100
AcDbLine
 10
374.9333616888941
 20
315.6767160093066
 30
0.0
 11
381.2066616888941
 21
315.6767160093066
 31
0.0
  0
ARC
  5
2B7
330
1A
100
AcDbEntity
  8
SEIHIN
  6
CONTINUOUS
 62
     3
 48
16.0
100
AcDbCircle
 10
374.9333616888942
 20
317.1767160093066
 30
0.0
 40
1.500000000000056
100
AcDbArc
 50
179.9999999999978
 51
269.9999999999977
  0
ARC
  5
2B8
330
1A
100
AcDbEntity
  8
SEIHIN
  6
CONTINUOUS
 62
     3
 48
16.0
100
AcDbCircle
 10
381.2066945311567
 20
317.1767460237061
 30
0.0
 40
1.50003001475903
100
AcDbArc
 50
269.9987455430753
 51
354.8468509294335
  0
LINE
  5
2B9
330
1A
100
AcDbEntity
  8
SEIHIN
  6
CONTINUOUS
 62
     3
 48
16.0
100
AcDbLine
 10
394.517761688894
 20
315.6767160093066
 30
0.0
 11
404.4039616888941
 21
315.6767160093066
 31
0.0
  0
ARC
  5
2BA
330
1A
100
AcDbEntity
  8
SEIHIN
  6
CONTINUOUS
 62
     3
 48
16.0
100
AcDbCircle
 10
394.5178163508313
 20
317.1765674093986
 30
0.0
 40
1.499951401088041
100
AcDbArc
 50
186.7173448946168
 51
269.9979120001423
  0
ARC
  5
2BB
330
1A
100
AcDbEntity
  8
SEIHIN
  6
CONTINUOUS
 62
     3
 48
16.0
100
AcDbCircle
 10
404.4039616888941
 20
317.1766160093066
 30
0.0
 40
1.5
100
AcDbArc
 50
270.0
 51
0.0
  0
LINE
  5
2BC
330
1A
100
AcDbEntity
  8
SEIHIN
  6
CONTINUOUS
 62
     3
 48
16.0
100
AcDbLine
 10
406.8273616888939
 20
413.3626160093067
 30
0.0
 11
399.8367616888941
 21
406.3720160093065
 31
0.0
  0
LINE
  5
2BD
330
1A
100
AcDbEntity
  8
SEIHIN
  6
CONTINUOUS
 62
     3
 48
16.0
100
AcDbLine
 10
342.1014616888941
 20
359.9506160093066
 30
0.0
 11
363.7540616888941
 21
338.2979160093066
 31
0.0
  0
LINE
  5
2BE
330
1A
100
AcDbEntity
  8
SEIHIN
  6
CONTINUOUS
 62
     3
 48
16.0
100
AcDbLine
 10
344.5763616888941
 20
355.3543160093066
 30
0.0
 11
361.6682616888941
 21
338.2623160093067
 31
0.0
  0
LINE
  5
2BF
330
1A
100
AcDbEntity
  8
SEIHIN
  6
CONTINUOUS
 62
     3
 48
16.0
100
AcDbLine
 10
341.3944616888941
 20
359.2434160093067
 30
0.0
 11
382.5126616888941
 21
400.3617160093067
 31
0.0
  0
LINE
  5
2C0
330
1A
100
AcDbEntity
  8
SEIHIN
  6
CONTINUOUS
 62
     3
 48
16.0
100
AcDbLine
 10
347.7724616888941
 20
365.6215160093067
 30
0.0
 11
365.4501616888941
 21
347.9438160093065
 31
0.0
  0
LINE
  5
2C1
330
1A
100
AcDbEntity
  8
SEIHIN
  6
CONTINUOUS
 62
     3
 48
16.0
100
AcDbLine
 10
344.5763616888941
 20
355.3543160093066
 30
0.0
 11
341.3944616888941
 21
359.2434160093067
 31
0.0
  0
ARC
  5
2C2
330
1A
100
AcDbEntity
  8
SEIHIN
  6
CONTINUOUS
 62
     3
 48
16.0
100
AcDbCircle
 10
361.1598940574572
 20
365.5738174640781
 30
0.0
 40
1.500007475012704
100
AcDbArc
 50
50.15034940200592
 51
134.9982126109555
  0
LINE
  5
2C3
330
1A
100
AcDbEntity
  8
SEIHIN
  6
CONTINUOUS
 62
     3
 48
16.0
100
AcDbLine
 10
379.1728616888939
 20
361.6663160093067
 30
0.0
 11
369.394761688894
 21
374.0570160093067
 31
0.0
  0
LINE
  5
2C4
330
1A
100
AcDbEntity
  8
SEIHIN
  6
CONTINUOUS
 62
     3
 48
16.0
100
AcDbLine
 10
393.1192616888939
 20
368.5418160093066
 30
0.0
 11
370.1590616888939
 21
345.5816160093067
 31
0.0
  0
LINE
  5
2C5
330
1A
100
AcDbEntity
  8
SEIHIN
  6
CONTINUOUS
 62
     3
 48
16.0
100
AcDbLine
 10
368.2073616888941
 20
349.2866160093066
 30
0.0
 11
390.2907616888941
 21
371.3702160093065
 31
0.0
  0
LINE
  5
2C6
330
1A
100
AcDbEntity
  8
SEIHIN
  6
CONTINUOUS
 62
     3
 48
16.0
100
AcDbLine
 10
374.172861688894
 20
356.6664160093066
 30
0.0
 11
362.1211616888941
 21
366.7254160093065
 31
0.0
  0
LINE
  5
2C7
330
1A
100
AcDbEntity
  8
SEIHIN
  6
CONTINUOUS
 62
     3
 48
16.0
100
AcDbLine
 10
391.180665896992
 20
332.6766803026598
 30
0.0
 11
384.1096598493816
 21
332.6766955976379
 31
0.0
  0
LINE
  5
2C8
330
1A
100
AcDbEntity
  8
SEIHIN
  6
CONTINUOUS
 62
     3
 48
16.0
100
AcDbLine
 10
374.6731616888941
 20
333.6767160093067
 30
0.0
 11
405.9039616888941
 21
333.6766160093067
 31
0.0
  0
LINE
  5
2C9
330
1A
100
AcDbEntity
  8
SEIHIN
  6
CONTINUOUS
 62
     3
 48
16.0
100
AcDbLine
 10
405.9039616888941
 20
337.6766160093065
 30
0.0
 11
373.4333616888941
 21
337.6767160093067
 31
0.0
  0
LINE
  5
2CA
330
1A
100
AcDbEntity
  8
SEIHIN
  6
CONTINUOUS
 62
     3
 48
16.0
100
AcDbLine
 10
370.1590616888939
 20
345.5816160093067
 30
0.0
 11
373.4334616888939
 21
342.3072160093066
 31
0.0
  0
ARC
  5
2CB
330
1A
100
AcDbEntity
  8
SEIHIN
  6
CONTINUOUS
 62
     3
 48
16.0
100
AcDbCircle
 10
360.254106633654
 20
336.8481074976317
 30
0.0
 40
1.999955058183883
100
AcDbArc
 50
0.0031087003569516
 51
45.00108289759654
  0
LINE
  5
2CC
330
1A
100
AcDbEntity
  8
SEIHIN
  6
CONTINUOUS
 62
     3
 48
16.0
100
AcDbLine
 10
374.6731616888941
 20
333.6767160093067
 30
0.0
 11
373.4333616888941
 21
337.6767160093067
 31
0.0
  0
LINE
  5
2CD
330
1A
100
AcDbEntity
  8
SEIHIN
  6
CONTINUOUS
 62
     3
 48
16.0
100
AcDbLine
 10
373.4333616888941
 20
332.6767160093066
 30
0.0
 11
371.7739616888941
 21
332.6767160093066
 31
0.0
  0
LINE
  5
2CE
330
1A
100
AcDbEntity
  8
SEIHIN
  6
CONTINUOUS
 62
     3
 48
16.0
100
AcDbLine
 10
373.4333616888941
 20
337.6767160093067
 30
0.0
 11
373.4333616888941
 21
342.3072160093066
 31
0.0
  0
LINE
  5
2CF
330
1A
100
AcDbEntity
  8
SEIHIN
  6
CONTINUOUS
 62
     3
 48
16.0
100
AcDbLine
 10
368.2072616888941
 20
349.2866160093066
 30
0.0
 11
370.1590616888939
 21
345.5816160093067
 31
0.0
  0
LINE
  5
2D0
330
1A
100
AcDbEntity
  8
SEIHIN
  6
CONTINUOUS
 62
     3
 48
16.0
100
AcDbLine
 10
355.6634616888941
 20
360.0772160093067
 30
0.0
 11
366.6235616888939
 21
349.1172160093066
 31
0.0
  0
LINE
  5
2D1
330
1A
100
AcDbEntity
  8
SEIHIN
  6
CONTINUOUS
 62
     3
 48
16.0
100
AcDbLine
 10
355.495561688894
 20
361.9985160093065
 30
0.0
 11
368.2073616888941
 21
349.2866160093066
 31
0.0
  0
LINE
  5
2D2
330
1A
100
AcDbEntity
  8
SEIHIN
  6
CONTINUOUS
 62
     3
 48
16.0
100
AcDbLine
 10
366.6235616888939
 20
349.1172160093066
 30
0.0
 11
365.4501616888941
 21
347.9438160093065
 31
0.0
  0
LINE
  5
2D3
330
1A
100
AcDbEntity
  8
SEIHIN
  6
CONTINUOUS
 62
     3
 48
16.0
100
AcDbLine
 10
355.6634616888941
 20
362.1986160093067
 30
0.0
 11
360.0993616888941
 21
366.6345160093067
 31
0.0
  0
ARC
  5
2D4
330
1A
100
AcDbEntity
  8
SEIHIN
  6
CONTINUOUS
 62
     3
 48
16.0
100
AcDbCircle
 10
356.723961688894
 20
361.1379160093067
 30
0.0
 40
1.499985616597719
100
AcDbArc
 50
134.9972990251517
 51
225.0027009748482
  0
LINE
  5
2D5
330
1A
100
AcDbEntity
  8
SEIHIN
  6
CONTINUOUS
 62
     3
 48
16.0
100
AcDbLine
 10
379.1728175814096
 20
361.6663719018224
 30
0.0
 11
374.172861688894
 21
356.6664160093067
 31
0.0
  0
LINE
  5
2D6
330
1A
100
AcDbEntity
  8
SEIHIN
  6
CONTINUOUS
 62
     3
 48
16.0
100
AcDbLine
 10
378.6235616888939
 20
383.0375160093066
 30
0.0
 11
393.1192616888939
 21
368.5418160093066
 31
0.0
  0
ARC
  5
2D7
330
1A
100
AcDbEntity
  8
SEIHIN
  6
CONTINUOUS
 62
     3
 48
16.0
100
AcDbCircle
 10
370.5722622473475
 20
374.9862255146672
 30
0.0
 40
1.49997928986059
100
AcDbArc
 50
134.9975708359907
 51
218.278284867567
  0
LINE
  5
2D8
330
1A
100
AcDbEntity
  8
SEIHIN
  6
CONTINUOUS
 62
     3
 48
16.0
100
AcDbLine
 10
369.5116616888939
 20
376.0468160093067
 30
0.0
 11
376.5022616888941
 21
383.0374160093067
 31
0.0
  0
ARC
  5
2D9
330
1A
100
AcDbEntity
  8
SEIHIN
  6
CONTINUOUS
 62
     3
 48
16.0
100
AcDbCircle
 10
377.562911688894
 20
381.9769160081282
 30
0.0
 40
1.499950260841856
100
AcDbArc
 50
44.99864951257541
 51
135.0013504874245
  0
LINE
  5
2DA
330
1A
100
AcDbEntity
  8
SEIHIN
  6
CONTINUOUS
 62
     3
 48
16.0
100
AcDbLine
 10
400.1903616888939
 20
382.6839160093067
 30
0.0
 11
410.7969832709854
 21
393.2905700373729
 31
0.0
  0
LINE
  5
2DB
330
1A
100
AcDbEntity
  8
SEIHIN
  6
CONTINUOUS
 62
     3
 48
16.0
100
AcDbLine
 10
399.8367616888941
 20
404.2507160093067
 30
0.0
 11
414.3324616888941
 21
389.7551160093067
 31
0.0
  0
LINE
  5
2DC
330
1A
100
AcDbEntity
  8
SEIHIN
  6
CONTINUOUS
 62
     3
 48
16.0
100
AcDbLine
 10
400.1903616888939
 20
382.6839160093067
 30
0.0
 11
389.583761688894
 21
372.0773160093066
 31
0.0
  0
ARC
  5
2DD
330
1A
100
AcDbEntity
  8
SEIHIN
  6
CONTINUOUS
 62
     3
 48
16.0
100
AcDbCircle
 10
400.8974616900726
 20
405.3113660093066
 30
0.0
 40
1.500020971520006
100
AcDbArc
 50
135.0013504874248
 51
224.9986495125751
  0
ARC
  5
2DE
330
1A
100
AcDbEntity
  8
SEIHIN
  6
CONTINUOUS
 62
     3
 48
16.0
100
AcDbCircle
 10
407.8880518398388
 20
412.3020213013043
 30
0.0
 40
1.499974910108174
100
AcDbArc
 50
51.721566388159
 51
135.0025779082741
  0
ARC
  5
2DF
330
1A
100
AcDbEntity
  8
SEIHIN
  6
CONTINUOUS
 62
     3
 48
16.0
100
AcDbCircle
 10
417.3003627893955
 20
421.7143404813203
 30
0.0
 40
1.499969089699524
100
AcDbArc
 50
134.9979897102002
 51
219.8537025740947
  0
LINE
  5
2E0
330
1A
100
AcDbEntity
  8
SEIHIN
  6
CONTINUOUS
 62
     3
 48
16.0
100
AcDbLine
 10
479.5540616888941
 20
312.6765160093066
 30
0.0
 11
479.5540616888941
 21
332.6766160093066
 31
0.0
  0
LINE
  5
2E1
330
1A
100
AcDbEntity
  8
SEIHIN
  6
CONTINUOUS
 62
     3
 48
16.0
100
AcDbLine
 10
478.0540616888941
 20
307.6765160093067
 30
0.0
 11
478.0540616888941
 21
332.4564160093067
 31
0.0
  0
LINE
  5
2E2
330
1A
100
AcDbEntity
  8
SEIHIN
  6
CONTINUOUS
 62
     3
 48
16.0
100
AcDbLine
 10
468.3746616888941
 20
317.1766160093066
 30
0.0
 11
468.3746616888941
 21
332.6766160093066
 31
0.0
  0
LINE
  5
2E3
330
1A
100
AcDbEntity
  8
SEIHIN
  6
CONTINUOUS
 62
     3
 48
16.0
100
AcDbLine
 10
435.9040616888941
 20
317.1766160093066
 30
0.0
 11
435.9040616888941
 21
337.6766160093065
 31
0.0
  0
LINE
  5
2E4
330
1A
100
AcDbEntity
  8
SEIHIN
  6
CONTINUOUS
 62
     3
 48
16.0
100
AcDbLine
 10
470.0340616888939
 20
307.6765160093067
 30
0.0
 11
470.0340616888939
 21
332.6765160093067
 31
0.0
  0
LINE
  5
2E5
330
1A
100
AcDbEntity
  8
SEIHIN
  6
CONTINUOUS
 62
     3
 48
16.0
100
AcDbLine
 10
467.1348616888939
 20
315.6993160093067
 30
0.0
 11
467.1348616888939
 21
333.6766160093067
 31
0.0
  0
LINE
  5
2E6
330
1A
100
AcDbEntity
  8
SEIHIN
  6
CONTINUOUS
 62
     3
 48
16.0
100
AcDbLine
 10
457.6983616888941
 20
332.6766160093066
 30
0.0
 11
459.1073616888941
 21
317.0420160093067
 31
0.0
  0
LINE
  5
2E7
330
1A
100
AcDbEntity
  8
SEIHIN
  6
CONTINUOUS
 62
     3
 48
16.0
100
AcDbLine
 10
450.6273616888941
 20
332.6766160093066
 30
0.0
 11
448.7799616888939
 21
317.0010160093067
 31
0.0
  0
LINE
  5
2E8
330
1A
100
AcDbEntity
  8
CENTER_L
  6
CENTER
 62
     1
 48
5.0
100
AcDbLine
 10
420.904061688894
 20
294.6863160093066
 30
0.0
 11
420.904061688894
 21
387.2100160093067
 31
0.0
  0
TEXT
  5
2E9
330
1A
100
AcDbEntity
  8
ZUWAKU
 62
     7
100
AcDbText
 10
654.2531733678779
 20
15.90287984531518
 30
0.0
 40
8.0
  1
ＧＤ５５
100
AcDbText
  0
DIMENSION
  5
2ED
330
1A
100
AcDbEntity
  8
SUNPOU
100
AcDbDimension
  2
*D5
 10
516.5347974262654
 20
147.6881711112566
 30
0.0
 11
511.5347974262654
 21
173.2881711112566
 31
0.0
 70
    32
  3
STANDARD
100
AcDbAlignedDimension
 13
479.5539616888939
 23
198.8881711112566
 33
0.0
 14
420.903961688894
 24
147.6881711112566
 34
0.0
 50
90.0
100
AcDbRotatedDimension
1001
ACAD
1000
DSTYLE
1002
{
1070
   140
1040
6.0
1070
    74
1070
     0
1070
   172
1070
     1
1070
    73
1070
     0
1070
   272
1070
     2
1070
    77
1070
     3
1070
   173
1070
     1
1070
   147
1040
2.0
1070
    42
1040
6.0
1070
    44
1040
3.0
1070
    43
1040
14.0
1070
   271
1070
     0
1070
   178
1070
     4
1070
   177
1070
     4
1070
   176
1070
     4
1070
   141
1040
150.0
1070
     7
1000
_OPEN
1070
     6
1000
_OPEN
1070
    41
1040
7.0
1002
}
  0
LINE
  5
2EE
330
1A
100
AcDbEntity
  8
CENTER_L
  6
CENTER
 62
     1
 48
5.0
100
AcDbLine
 10
420.903961688894
 20
137.0601711112566
 30
0.0
 11
420.903961688894
 21
205.8881711112567
 31
0.0
  0
ARC
  5
2EF
330
1A
100
AcDbEntity
  8
SEIHIN
  6
CONTINUOUS
 62
     3
 48
16.0
100
AcDbCircle
 10
420.9039972174901
 20
199.4881990221489
 30
0.0
 40
51.80002791090453
100
AcDbArc
 50
269.9999607019784
 51
346.3055724446233
  0
ARC
  5
2F0
330
1A
100
AcDbEntity
  8
SEIHIN
  6
CONTINUOUS
 62
     3
 48
16.0
100
AcDbCircle
 10
420.9039981078164
 20
199.488200402343
 30
0.0
 40
50.30002929109949
100
AcDbArc
 50
269.9999585159178
 51
347.618151410952
  0
ARC
  5
2F1
330
1A
100
AcDbEntity
  8
SEIHIN
  6
CONTINUOUS
 62
     3
 48
16.0
100
AcDbCircle
 10
420.9039813590124
 20
199.4881929983362
 30
0.0
 40
47.29996190051784
100
AcDbArc
 50
288.489120213382
 51
347.6181703104492
  0
ARC
  5
2F2
330
1A
100
AcDbEntity
  8
SEIHIN
  6
CONTINUOUS
 62
     3
 48
16.0
100
AcDbCircle
 10
420.9040079438722
 20
199.4882691440783
 30
0.0
 40
48.80004742703416
100
AcDbArc
 50
322.8852490619135
 51
346.5956677904018
  0
ARC
  5
2F3
330
1A
100
AcDbEntity
  8
SEIHIN
  6
CONTINUOUS
 62
     3
 48
16.0
100
AcDbCircle
 10
420.9038725341326
 20
199.4881029364446
 30
0.0
 40
48.800028976148
100
AcDbArc
 50
305.8768142985212
 51
308.9322527348981
  0
ARC
  5
2F4
330
1A
100
AcDbEntity
  8
SEIHIN
  6
CONTINUOUS
 62
     3
 48
16.0
100
AcDbCircle
 10
420.9036785290209
 20
199.4880160173775
 30
0.0
 40
48.79997320127107
100
AcDbArc
 50
290.3068010151303
 51
307.1152366914667
  0
ARC
  5
2F5
330
1A
100
AcDbEntity
  8
SEIHIN
  6
CONTINUOUS
 62
     3
 48
16.0
100
AcDbCircle
 10
434.403967793919
 20
154.1556792992254
 30
0.0
 40
1.499993894997496
100
AcDbArc
 50
286.5825861126035
 51
359.9996872413591
  0
ARC
  5
2F6
330
1A
100
AcDbEntity
  8
SEIHIN
  6
CONTINUOUS
 62
     3
 48
16.0
100
AcDbCircle
 10
420.9037586374414
 20
199.4881415191287
 30
0.0
 40
48.79997040829444
100
AcDbArc
 50
270.0002384016048
 51
286.5837296087338
  0
ARC
  5
2F7
330
1A
100
AcDbEntity
  8
SEIHIN
  6
CONTINUOUS
 62
     3
 48
16.0
100
AcDbCircle
 10
437.3189871644199
 20
155.1279068217766
 30
0.0
 40
1.499967731247435
100
AcDbArc
 50
198.4914998229451
 51
290.3074224774596
  0
LINE
  5
2F8
330
1A
100
AcDbEntity
  8
SEIHIN
  6
CONTINUOUS
 62
     3
 48
16.0
100
AcDbLine
 10
435.9039616888941
 20
154.1556711112567
 30
0.0
 11
435.9039616888941
 21
154.6296711112566
 31
0.0
  0
ARC
  5
2F9
330
1A
100
AcDbEntity
  8
SEIHIN
  6
CONTINUOUS
 62
     3
 48
16.0
100
AcDbCircle
 10
449.4455632609816
 20
161.7698839595219
 30
0.0
 40
1.499963036209466
100
AcDbArc
 50
307.1147878624691
 51
38.93268553888434
  0
ARC
  5
2FA
330
1A
100
AcDbEntity
  8
SEIHIN
  6
CONTINUOUS
 62
     3
 48
16.0
100
AcDbCircle
 10
447.394459371725
 20
160.3021580113571
 30
0.0
 40
1.50001421159751
100
AcDbArc
 50
304.0601481666862
 51
35.87860582365678
  0
ARC
  5
2FB
330
1A
100
AcDbEntity
  8
SEIHIN
  6
CONTINUOUS
 62
     3
 48
16.0
100
AcDbCircle
 10
420.903447413733
 20
199.4874985692011
 30
0.0
 40
48.80001836803902
100
AcDbArc
 50
321.0690377783301
 51
324.1245701791042
  0
ARC
  5
2FC
330
1A
100
AcDbEntity
  8
SEIHIN
  6
CONTINUOUS
 62
     3
 48
16.0
100
AcDbCircle
 10
458.6223950871478
 20
170.946862960587
 30
0.0
 40
1.500001931617978
100
AcDbArc
 50
231.0711540633379
 51
322.8866514644952
  0
ARC
  5
2FD
330
1A
100
AcDbEntity
  8
SEIHIN
  6
CONTINUOUS
 62
     3
 48
16.0
100
AcDbCircle
 10
420.9037515122348
 20
199.4879609342617
 30
0.0
 40
48.79999456476742
100
AcDbArc
 50
308.9324680355401
 51
321.0683173491888
  0
ARC
  5
2FE
330
1A
100
AcDbEntity
  8
SEIHIN
  6
CONTINUOUS
 62
     3
 48
16.0
100
AcDbCircle
 10
460.0901747887934
 20
172.9979734284256
 30
0.0
 40
1.500014211597466
100
AcDbArc
 50
234.1213941763458
 51
325.9398518333164
  0
LINE
  5
2FF
330
1A
100
AcDbEntity
  8
SEIHIN
  6
CONTINUOUS
 62
     3
 48
16.0
100
AcDbLine
 10
422.9234616888941
 20
198.8881711112566
 30
0.0
 11
479.5539616888939
 21
198.8881711112566
 31
0.0
  0
LINE
  5
300
330
1A
100
AcDbEntity
  8
SEIHIN
  6
CONTINUOUS
 62
     3
 48
16.0
100
AcDbLine
 10
418.9234616888941
 20
189.4881711112567
 30
0.0
 11
472.5539616888942
 21
189.4881711112567
 31
0.0
  0
ARC
  5
301
330
1A
100
AcDbEntity
  8
SEIHIN
  6
CONTINUOUS
 62
     3
 48
16.0
100
AcDbCircle
 10
418.9234616888941
 20
193.4881711112567
 30
0.0
 40
4.0
100
AcDbArc
 50
270.0
 51
0.0
  0
LINE
  5
302
330
1A
100
AcDbEntity
  8
SEIHIN
  6
CONTINUOUS
 62
     3
 48
16.0
100
AcDbLine
 10
422.9234616888941
 20
198.8881711112566
 30
0.0
 11
422.9234616888941
 21
193.4881711112567
 31
0.0
  0
ARC
  5
303
330
1A
100
AcDbEntity
  8
SEIHIN
  6
CONTINUOUS
 62
     3
 48
16.0
100
AcDbCircle
 10
436.4454616888941
 20
193.4881711112567
 30
0.0
 40
4.0
100
AcDbArc
 50
270.0
 51
0.0
  0
ARC
  5
304
330
1A
100
AcDbEntity
  8
SEIHIN
  6
CONTINUOUS
 62
     3
 48
16.0
100
AcDbCircle
 10
438.9203616888941
 20
193.4881711112567
 30
0.0
 40
4.0
100
AcDbArc
 50
270.0
 51
0.0
  0
LINE
  5
305
330
1A
100
AcDbEntity
  8
SEIHIN
  6
CONTINUOUS
 62
     3
 48
16.0
100
AcDbLine
 10
442.9203616888941
 20
198.8881711112566
 30
0.0
 11
442.9203616888941
 21
193.4881711112567
 31
0.0
  0
LINE
  5
306
330
1A
100
AcDbEntity
  8
SEIHIN
  6
CONTINUOUS
 62
     3
 48
16.0
100
AcDbLine
 10
440.4454616888942
 20
198.8881711112566
 30
0.0
 11
440.4454616888942
 21
193.4881711112567
 31
0.0
  0
ARC
  5
307
330
1A
100
AcDbEntity
  8
SEIHIN
  6
CONTINUOUS
 62
     3
 48
16.0
100
AcDbCircle
 10
467.4018916166319
 20
188.4073430600919
 30
0.0
 40
1.000023106805812
100
AcDbArc
 50
346.5930092839213
 51
107.1169535431034
  0
CIRCLE
  5
308
330
1A
100
AcDbEntity
  8
NOKITOI
  6
CONTINUOUS
 62
     8
 48
5.0
100
AcDbCircle
 10
473.6655616888939
 20
194.4880831112567
 30
0.0
 40
2.7
  0
ARC
  5
309
330
1A
100
AcDbEntity
  8
NOKITOI
  6
CONTINUOUS
 62
     8
 48
5.0
100
AcDbCircle
 10
473.6655616888939
 20
194.4880831112567
 30
0.0
 40
3.999994
100
AcDbArc
 50
220.269583
 51
121.7840119999999
  0
ARC
  5
30A
330
1A
100
AcDbEntity
  8
SEIHIN
  6
CONTINUOUS
 62
     3
 48
16.0
100
AcDbCircle
 10
474.0539616888939
 20
193.4881711112567
 30
0.0
 40
4.0
100
AcDbArc
 50
270.0
 51
0.0
  0
ARC
  5
30B
330
1A
100
AcDbEntity
  8
SEIHIN
  6
CONTINUOUS
 62
     3
 48
16.0
100
AcDbCircle
 10
472.5539616888942
 20
193.4881711112567
 30
0.0
 40
4.0
100
AcDbArc
 50
270.0
 51
0.0
  0
ARC
  5
30C
330
1A
100
AcDbEntity
  8
SEIHIN
  6
CONTINUOUS
 62
     3
 48
16.0
100
AcDbCircle
 10
474.0539616888939
 20
193.4881711112567
 30
0.0
 40
5.5
100
AcDbArc
 50
270.0
 51
0.0
  0
LINE
  5
30D
330
1A
100
AcDbEntity
  8
SEIHIN
  6
CONTINUOUS
 62
     3
 48
16.0
100
AcDbLine
 10
474.0539616888939
 20
187.9881711112567
 30
0.0
 11
472.2030616888941
 21
187.9881711112567
 31
0.0
  0
ARC
  5
30E
330
1A
100
AcDbEntity
  8
SEIHIN
  6
CONTINUOUS
 62
     3
 48
16.0
100
AcDbCircle
 10
471.0107762560689
 20
188.4881828263939
 30
0.0
 40
0.9999882849688972
100
AcDbArc
 50
90.00083464742084
 51
167.6143447555037
  0
ARC
  5
30F
330
1A
100
AcDbEntity
  8
SEIHIN
  6
CONTINUOUS
 62
     3
 48
16.0
100
AcDbCircle
 10
472.2030359749465
 20
186.9881509116646
 30
0.0
 40
1.000020199922697
100
AcDbArc
 50
89.99852672908806
 51
166.3013404742829
  0
ARC
  5
310
330
1A
100
AcDbEntity
  8
NOKITOI
  6
CONTINUOUS
 62
     8
 48
5.0
100
AcDbCircle
 10
473.6655616888939
 20
194.4880831112567
 30
0.0
 40
3.999958
100
AcDbArc
 50
121.784767
 51
174.584588
  0
LINE
  5
311
330
1A
100
AcDbEntity
  8
SEIHIN
  6
CONTINUOUS
 62
     3
 48
16.0
100
AcDbLine
 10
476.5539616888942
 20
198.8881711112566
 30
0.0
 11
476.5539616888942
 21
193.4881711112567
 31
0.0
  0
LINE
  5
312
330
1A
100
AcDbEntity
  8
SEIHIN
  6
CONTINUOUS
 62
     3
 48
16.0
100
AcDbLine
 10
478.053961688894
 20
193.4881711112567
 30
0.0
 11
478.053961688894
 21
198.8881711112566
 31
0.0
  0
LINE
  5
313
330
1A
100
AcDbEntity
  8
SEIHIN
  6
CONTINUOUS
 62
     3
 48
16.0
100
AcDbLine
 10
479.5539616888939
 20
193.4881711112567
 30
0.0
 11
479.5539616888939
 21
198.8881711112566
 31
0.0
  0
LINE
  5
314
330
1A
100
AcDbEntity
  8
SEIHIN
  6
CONTINUOUS
 62
     3
 48
16.0
100
AcDbLine
 10
479.0540616888941
 20
307.6765160093067
 30
0.0
 11
420.904061688894
 21
307.6766160093066
 31
0.0
  0
LINE
  5
315
330
1A
100
AcDbEntity
  8
SEIHIN
  6
CONTINUOUS
 62
     3
 48
16.0
100
AcDbLine
 10
447.2902616888941
 20
315.6766160093066
 30
0.0
 11
437.4040616888939
 21
315.6766160093066
 31
0.0
  0
ARC
  5
316
330
1A
100
AcDbEntity
  8
SEIHIN
  6
CONTINUOUS
 62
     3
 48
16.0
100
AcDbCircle
 10
437.4040616888939
 20
317.1766160093064
 30
0.0
 40
1.499999999999914
100
AcDbArc
 50
179.9999999999967
 51
269.9999999999967
  0
ARC
  5
317
330
1A
100
AcDbEntity
  8
SEIHIN
  6
CONTINUOUS
 62
     3
 48
16.0
100
AcDbCircle
 10
447.290269459348
 20
317.176622917608
 30
0.0
 40
1.500006908321584
100
AcDbArc
 50
269.9997031918905
 51
353.2769237832126
  0
ARC
  5
318
330
1A
100
AcDbEntity
  8
SEIHIN
  6
CONTINUOUS
 62
     3
 48
16.0
100
AcDbCircle
 10
466.8746616888941
 20
317.1766160093066
 30
0.0
 40
1.5
100
AcDbArc
 50
270.0
 51
0.0
  0
ARC
  5
319
330
1A
100
AcDbEntity
  8
SEIHIN
  6
CONTINUOUS
 62
     3
 48
16.0
100
AcDbCircle
 10
460.6013337595216
 20
317.1766415355388
 30
0.0
 40
1.500025526492266
100
AcDbArc
 50
185.1491572608818
 51
270.0010668052845
  0
LINE
  5
31A
330
1A
100
AcDbEntity
  8
SEIHIN
  6
CONTINUOUS
 62
     3
 48
16.0
100
AcDbLine
 10
466.8746616888941
 20
315.6766160093066
 30
0.0
 11
460.6013616888939
 21
315.6766160093066
 31
0.0
  0
LINE
  5
31B
330
1A
100
AcDbEntity
  8
SEIHIN
  6
CONTINUOUS
 62
     3
 48
16.0
100
AcDbLine
 10
479.5540616888941
 20
312.6765160093066
 30
0.0
 11
479.0540616888941
 21
307.6765160093067
 31
0.0
  0
LINE
  5
31C
330
1A
100
AcDbEntity
  8
SEIHIN
  6
CONTINUOUS
 62
     3
 48
16.0
100
AcDbLine
 10
433.587561688894
 20
414.6670160093067
 30
0.0
 11
437.2926616888941
 21
412.7152160093065
 31
0.0
  0
LINE
  5
31D
330
1A
100
AcDbEntity
  8
SEIHIN
  6
CONTINUOUS
 62
     3
 48
16.0
100
AcDbLine
 10
442.9206616888939
 20
418.6545160093065
 30
0.0
 11
476.5540616888941
 21
385.0212160093067
 31
0.0
  0
LINE
  5
31E
330
1A
100
AcDbEntity
  8
SEIHIN
  6
CONTINUOUS
 62
     3
 48
16.0
100
AcDbLine
 10
444.1369616888941
 20
419.5595160093067
 30
0.0
 11
477.4682616888941
 21
386.2283160093067
 31
0.0
  0
LINE
  5
31F
330
1A
100
AcDbEntity
  8
SEIHIN
  6
CONTINUOUS
 62
     3
 48
16.0
100
AcDbLine
 10
476.5540616888941
 20
337.4565160093067
 30
0.0
 11
476.5540616888941
 21
385.0212160093067
 31
0.0
  0
LINE
  5
320
330
1A
100
AcDbEntity
  8
SEIHIN
  6
CONTINUOUS
 62
     3
 48
16.0
100
AcDbLine
 10
478.0540616888941
 20
337.6766160093065
 30
0.0
 11
478.0540616888941
 21
384.8141160093067
 31
0.0
  0
LINE
  5
321
330
1A
100
AcDbEntity
  8
SEIHIN
  6
CONTINUOUS
 62
     3
 48
16.0
100
AcDbLine
 10
468.3746616888941
 20
337.6766160093065
 30
0.0
 11
468.3746616888941
 21
380.8048160093067
 31
0.0
  0
LINE
  5
322
330
1A
100
AcDbEntity
  8
SEIHIN
  6
CONTINUOUS
 62
     3
 48
16.0
100
AcDbLine
 10
450.6273616888941
 20
332.6766160093066
 30
0.0
 11
457.6983616888941
 21
332.6766160093066
 31
0.0
  0
LINE
  5
323
330
1A
100
AcDbEntity
  8
SEIHIN
  6
CONTINUOUS
 62
     3
 48
16.0
100
AcDbLine
 10
435.9040616888941
 20
337.6766160093065
 30
0.0
 11
468.3746616888941
 21
337.6766160093065
 31
0.0
  0
LINE
  5
324
330
1A
100
AcDbEntity
  8
SEIHIN
  6
CONTINUOUS
 62
     3
 48
16.0
100
AcDbLine
 10
467.1348616888939
 20
333.6766160093067
 30
0.0
 11
435.9040616888941
 21
333.6766160093067
 31
0.0
  0
LINE
  5
325
330
1A
100
AcDbEntity
  8
SEIHIN
  6
CONTINUOUS
 62
     3
 48
16.0
100
AcDbLine
 10
420.9039616888939
 20
332.6766160093066
 30
0.0
 11
435.9040616888941
 21
332.6766160093066
 31
0.0
  0
LINE
  5
326
330
1A
100
AcDbEntity
  8
SEIHIN
  6
CONTINUOUS
 62
     3
 48
16.0
100
AcDbLine
 10
467.1348616888939
 20
333.6766160093067
 30
0.0
 11
468.3746616888941
 21
337.6766160093065
 31
0.0
  0
LINE
  5
327
330
1A
100
AcDbEntity
  8
SEIHIN
  6
CONTINUOUS
 62
     3
 48
16.0
100
AcDbLine
 10
468.3746616888941
 20
332.6766160093066
 30
0.0
 11
470.0340616888939
 21
332.6766160093066
 31
0.0
  0
LINE
  5
328
330
1A
100
AcDbEntity
  8
SEIHIN
  6
CONTINUOUS
 62
     3
 48
16.0
100
AcDbLine
 10
478.0540616888941
 20
337.6766160093065
 30
0.0
 11
479.5540616888941
 21
332.6766160093066
 31
0.0
  0
LINE
  5
329
330
1A
100
AcDbEntity
  8
SEIHIN
  6
CONTINUOUS
 62
     3
 48
16.0
100
AcDbLine
 10
476.5540616888941
 20
337.4565160093067
 30
0.0
 11
478.0540616888941
 21
332.4564160093067
 31
0.0
  0
LINE
  5
32A
330
1A
100
AcDbEntity
  8
SEIHIN
  6
CONTINUOUS
 62
     3
 48
16.0
100
AcDbLine
 10
437.2926616888941
 20
412.7152160093065
 30
0.0
 11
467.7889616888941
 21
382.2190160093067
 31
0.0
  0
LINE
  5
32B
330
1A
100
AcDbEntity
  8
SEIHIN
  6
CONTINUOUS
 62
     3
 48
16.0
100
AcDbLine
 10
421.2078816461659
 20
403.701500259805
 30
0.0
 11
426.2078709749341
 21
408.7015048836909
 31
0.0
  0
ARC
  5
32C
330
1A
100
AcDbEntity
  8
SEIHIN
  6
CONTINUOUS
 62
     3
 48
16.0
100
AcDbCircle
 10
466.374635922976
 20
380.8048782168458
 30
0.0
 40
2.000025766885485
100
AcDbArc
 50
359.9982179082365
 51
44.99619224871737
  0
ARC
  5
32D
330
1A
100
AcDbEntity
  8
SEIHIN
  6
CONTINUOUS
 62
     3
 48
16.0
100
AcDbCircle
 10
476.0540712789401
 20
384.8140928568876
 30
0.0
 40
1.999990410088032
100
AcDbArc
 50
0.0006632711300427
 51
45.0006632711298
  0
LINE
  5
32E
330
1A
100
AcDbEntity
  8
SEIHIN
  6
CONTINUOUS
 62
     3
 48
16.0
100
AcDbLine
 10
422.9238616888941
 20
440.7728160093066
 30
0.0
 11
440.4458616888939
 21
423.2508160093066
 31
0.0
  0
LINE
  5
32F
330
1A
100
AcDbEntity
  8
SEIHIN
  6
CONTINUOUS
 62
     3
 48
16.0
100
AcDbLine
 10
427.5200616888939
 20
438.2980160093065
 30
0.0
 11
441.6621616888939
 21
424.1558160093068
 31
0.0
  0
LINE
  5
330
330
1A
100
AcDbEntity
  8
SEIHIN
  6
CONTINUOUS
 62
     3
 48
16.0
100
AcDbLine
 10
422.7969616888941
 20
427.2109160093067
 30
0.0
 11
433.7571616888939
 21
416.2508160093065
 31
0.0
  0
LINE
  5
331
330
1A
100
AcDbEntity
  8
SEIHIN
  6
CONTINUOUS
 62
     3
 48
16.0
100
AcDbLine
 10
420.8757616888941
 20
427.3788160093066
 30
0.0
 11
433.587561688894
 21
414.6670160093067
 31
0.0
  0
LINE
  5
332
330
1A
100
AcDbEntity
  8
SEIHIN
  6
CONTINUOUS
 62
     3
 48
16.0
100
AcDbLine
 10
433.7571616888939
 20
416.2508160093065
 30
0.0
 11
434.9304616888941
 21
417.4241160093066
 31
0.0
  0
ARC
  5
333
330
1A
100
AcDbEntity
  8
SEIHIN
  6
CONTINUOUS
 62
     3
 48
16.0
100
AcDbCircle
 10
421.7363116888941
 20
426.1502160081282
 30
0.0
 40
1.500020971520117
100
AcDbArc
 50
45.00135048742445
 51
134.9986495125755
  0
LINE
  5
334
330
1A
100
AcDbEntity
  8
SEIHIN
  6
CONTINUOUS
 62
     3
 48
16.0
100
AcDbLine
 10
444.1369616888941
 20
419.5595160093067
 30
0.0
 11
441.6621616888939
 21
424.1557160093067
 31
0.0
  0
LINE
  5
335
330
1A
100
AcDbEntity
  8
SEIHIN
  6
CONTINUOUS
 62
     3
 48
16.0
100
AcDbLine
 10
442.9206616888939
 20
418.6545160093065
 30
0.0
 11
440.4458616888939
 21
423.2508160093066
 31
0.0
  0
LINE
  5
336
330
1A
100
AcDbEntity
  8
SEIHIN
  6
CONTINUOUS
 62
     3
 48
16.0
100
AcDbLine
 10
427.5200616888939
 20
438.2980160093065
 30
0.0
 11
423.6308616888941
 21
441.4799160093067
 31
0.0
  0
TEXT
  5
3BA
330
1A
100
AcDbEntity
  8
SUNPOU
 62
     4
100
AcDbText
 10
629.5763818347791
 20
43.68132267490617
 30
0.0
 40
8.0
  1
※　のきといの差込み寸法を示す。
100
AcDbText
  0
VIEWPORT
  5
22
330
17
100
AcDbEntity
 67
     1
  8
0
100
AcDbViewport
 10
313.6808219178082
 20
148.5
 30
0.0
 40
627.3616438356165
 41
297.0
 68
     2
 69
     1
1001
ACAD
1000
MVIEW
1002
{
1070
    16
1010
0.0
1020
0.0
1030
0.0
1010
0.0
1020
0.0
1030
1.0
1040
0.0
1040
297.0
1040
313.6808219178082
1040
148.5
1040
50.0
1040
0.0
1040
0.0
1070
     0
1070
   100
1070
     1
1070
     0
1070
     0
1070
     0
1070
     0
1070
     0
1040
0.0
1040
0.0
1040
0.0
1040
1.0
1040
1.0
1040
10.0
1040
10.0
1070
     0
1002
{
1002
}
1002
}
  0
VIEWPORT
  5
64
330
17
100
AcDbEntity
 67
     1
  8
VIEWPORT
100
AcDbViewport
 10
210.0
 20
148.5
 30
0.0
 40
420.0
 41
297.0
 68
     1
 69
     2
1001
ACAD
1000
MVIEW
1002
{
1070
    16
1010
0.0
1020
0.0
1030
0.0
1010
0.0
1020
0.0
1030
1.0
1040
0.0
1040
605.8799999999998
1040
420.0
1040
297.0
1040
50.0
1040
0.0
1040
0.0
1070
     0
1070
   100
1070
     1
1070
     0
1070
     0
1070
     0
1070
     0
1070
     0
1040
0.0
1040
0.0
1040
0.0
1040
10.0
1040
10.0
1040
0.0
1040
0.0
1070
     0
1002
{
1002
}
1002
}
  0
ENDSEC
  0
SECTION
  2
OBJECTS
  0
DICTIONARY
  5
C
330
0
100
AcDbDictionary
  3
ACAD_GROUP
350
D
  3
ACAD_LAYOUT
350
3C4
  3
ACAD_MLINESTYLE
350
E
  3
ACAD_PLOTSETTINGS
350
3C5
1001
ACAD
1000
TREAT_AS_HARD
1070
     0
  0
DICTIONARY
  5
3F3
330
1A
100
AcDbDictionary
  3
ACAD_LAYOUTSELFREF
350
40E
1001
ACAD
1000
TREAT_AS_HARD
1070
     1
  0
DICTIONARY
  5
3F1
330
17
100
AcDbDictionary
  3
ACAD_LAYOUTSELFREF
350
40D
1001
ACAD
1000
TREAT_AS_HARD
1070
     1
  0
DICTIONARY
  5
D
102
{ACAD_REACTORS
330
C
102
}
330
C
100
AcDbDictionary
1001
ACAD
1000
TREAT_AS_HARD
1070
     0
  0
DICTIONARY
  5
3C4
102
{ACAD_REACTORS
330
C
102
}
330
C
100
AcDbDictionary
1001
ACAD
1000
TREAT_AS_HARD
1070
     0
  0
DICTIONARY
  5
E
102
{ACAD_REACTORS
330
C
102
}
330
C
100
AcDbDictionary
  3
STANDARD
350
13
1001
ACAD
1000
TREAT_AS_HARD
1070
     0
  0
DICTIONARY
  5
3C5
102
{ACAD_REACTORS
330
C
102
}
330
C
100
AcDbDictionary
1001
ACAD
1000
TREAT_AS_HARD
1070
     0
  0
XRECORD
  5
40E
102
{ACAD_REACTORS
330
3F3
102
}
330
3F3
100
AcDbXrecord
340
1A
  0
XRECORD
  5
40D
102
{ACAD_REACTORS
330
3F1
102
}
330
3F1
100
AcDbXrecord
340
17
  0
MLINESTYLE
  5
13
102
{ACAD_REACTORS
330
E
102
}
330
E
100
AcDbMlineStyle
  2
STANDARD
 70
     0
  3

 62
     0
 51
90.0
 52
90.0
 71
     2
 49
0.5
 62
   256
  6
BYLAYER
 49
-0.5
 62
   256
  6
BYLAYER
  0
ENDSEC
  0
EOF
