  0
SECTION
  2
HEADER
  9
$ACADVER
  1
AC1012
  9
$DWGCODEPAGE
  3
dos932
  9
$INSBASE
 10
0.0
 20
0.0
 30
0.0
  9
$EXTMIN
 10
10.05047808566086
 20
4.949376903717846
 30
-0.00000001
  9
$EXTMAX
 10
806.2246110975902
 20
563.7825862828226
 30
0.00000001
  9
$LIMMIN
 10
0.0
 20
0.0
  9
$LIMMAX
 10
840.0
 20
594.0
  9
$ORTHOMODE
 70
     0
  9
$REGENMODE
 70
     1
  9
$FILLMODE
 70
     1
  9
$QTEXTMODE
 70
     0
  9
$MIRRTEXT
 70
     1
  9
$DRAGMODE
 70
     2
  9
$LTSCALE
 40
2.0
  9
$OSMODE
 70
   319
  9
$ATTMODE
 70
     1
  9
$TEXTSIZE
 40
5.0
  9
$TRACEWID
 40
1.0
  9
$TEXTSTYLE
  7
STANDARD
  9
$CLAYER
  8
CENTER_L
  9
$CELTYPE
  6
BYLAYER
  9
$CECOLOR
 62
   256
  9
$CELTSCALE
 40
1.0
  9
$DELOBJ
 70
     1
  9
$DISPSILH
 70
     0
  9
$DIMSCALE
 40
1.0
  9
$DIMASZ
 40
7.0
  9
$DIMEXO
 40
6.0
  9
$DIMDLI
 40
14.0
  9
$DIMRND
 40
0.0
  9
$DIMDLE
 40
0.0
  9
$DIMEXE
 40
3.0
  9
$DIMTP
 40
0.0
  9
$DIMTM
 40
0.0
  9
$DIMTXT
 40
6.0
  9
$DIMCEN
 40
150.0
  9
$DIMTSZ
 40
0.0
  9
$DIMTOL
 70
     0
  9
$DIMLIM
 70
     0
  9
$DIMTIH
 70
     0
  9
$DIMTOH
 70
     0
  9
$DIMSE1
 70
     0
  9
$DIMSE2
 70
     0
  9
$DIMTAD
 70
     3
  9
$DIMZIN
 70
     0
  9
$DIMBLK
  1

  9
$DIMASO
 70
     1
  9
$DIMSHO
 70
     1
  9
$DIMPOST
  1

  9
$DIMAPOST
  1

  9
$DIMALT
 70
     0
  9
$DIMALTD
 70
     2
  9
$DIMALTF
 40
25.4
  9
$DIMLFAC
 40
1.0
  9
$DIMTOFL
 70
     1
  9
$DIMTVP
 40
0.0
  9
$DIMTIX
 70
     0
  9
$DIMSOXD
 70
     0
  9
$DIMSAH
 70
     1
  9
$DIMBLK1
  1
OPEN
  9
$DIMBLK2
  1
OPEN
  9
$DIMSTYLE
  2
STANDARD
  9
$DIMCLRD
 70
   256
  9
$DIMCLRE
 70
   256
  9
$DIMCLRT
 70
   256
  9
$DIMTFAC
 40
1.0
  9
$DIMGAP
 40
2.0
  9
$DIMJUST
 70
     0
  9
$DIMSD1
 70
     0
  9
$DIMSD2
 70
     0
  9
$DIMTOLJ
 70
     1
  9
$DIMTZIN
 70
     0
  9
$DIMALTZ
 70
     0
  9
$DIMALTTZ
 70
     0
  9
$DIMFIT
 70
     3
  9
$DIMUPT
 70
     0
  9
$DIMUNIT
 70
     2
  9
$DIMDEC
 70
     0
  9
$DIMTDEC
 70
     0
  9
$DIMALTU
 70
     2
  9
$DIMALTTD
 70
     2
  9
$DIMTXSTY
  7
STANDARD
  9
$DIMAUNIT
 70
     0
  9
$LUNITS
 70
     2
  9
$LUPREC
 70
     4
  9
$SKETCHINC
 40
1.0
  9
$FILLETRAD
 40
1.0
  9
$AUNITS
 70
     0
  9
$AUPREC
 70
     0
  9
$MENU
  1
.
  9
$ELEVATION
 40
0.0
  9
$PELEVATION
 40
0.0
  9
$THICKNESS
 40
0.0
  9
$LIMCHECK
 70
     0
  9
$BLIPMODE
 70
     0
  9
$CHAMFERA
 40
20.0
  9
$CHAMFERB
 40
20.0
  9
$CHAMFERC
 40
40.0
  9
$CHAMFERD
 40
0.0
  9
$SKPOLY
 70
     0
  9
$TDCREATE
 40
2451187.397211342
  9
$TDUPDATE
 40
2452423.335670949
  9
$TDINDWG
 40
0.0269385417
  9
$TDUSRTIMER
 40
0.0269385417
  9
$USRTIMER
 70
     1
  9
$ANGBASE
 50
0.0
  9
$ANGDIR
 70
     0
  9
$PDMODE
 70
     1
  9
$PDSIZE
 40
0.0
  9
$PLINEWID
 40
0.0
  9
$COORDS
 70
     1
  9
$SPLFRAME
 70
     0
  9
$SPLINETYPE
 70
     6
  9
$SPLINESEGS
 70
     8
  9
$ATTDIA
 70
     0
  9
$ATTREQ
 70
     1
  9
$HANDLING
 70
 10241
  9
$HANDSEED
  5
4BD
  9
$SURFTAB1
 70
     6
  9
$SURFTAB2
 70
     6
  9
$SURFTYPE
 70
     6
  9
$SURFU
 70
     6
  9
$SURFV
 70
     6
  9
$UCSNAME
  2

  9
$UCSORG
 10
0.0
 20
0.0
 30
0.0
  9
$UCSXDIR
 10
1.0
 20
0.0
 30
0.0
  9
$UCSYDIR
 10
0.0
 20
1.0
 30
0.0
  9
$PUCSNAME
  2

  9
$PUCSORG
 10
0.0
 20
0.0
 30
0.0
  9
$PUCSXDIR
 10
1.0
 20
0.0
 30
0.0
  9
$PUCSYDIR
 10
0.0
 20
1.0
 30
0.0
  9
$USERI1
 70
     0
  9
$USERI2
 70
     0
  9
$USERI3
 70
     0
  9
$USERI4
 70
     0
  9
$USERI5
 70
     0
  9
$USERR1
 40
0.0
  9
$USERR2
 40
0.0
  9
$USERR3
 40
0.0
  9
$USERR4
 40
0.0
  9
$USERR5
 40
0.0
  9
$WORLDVIEW
 70
     1
  9
$SHADEDGE
 70
     3
  9
$SHADEDIF
 70
    70
  9
$TILEMODE
 70
     1
  9
$MAXACTVP
 70
    16
  9
$PINSBASE
 10
0.0
 20
0.0
 30
0.0
  9
$PLIMCHECK
 70
     0
  9
$PEXTMIN
 10
0.0
 20
0.0
 30
0.0
  9
$PEXTMAX
 10
420.0
 20
297.0
 30
0.0
  9
$PLIMMIN
 10
0.0
 20
0.0
  9
$PLIMMAX
 10
420.0
 20
297.0
  9
$UNITMODE
 70
     0
  9
$VISRETAIN
 70
     0
  9
$PLINEGEN
 70
     0
  9
$PSLTSCALE
 70
     1
  9
$TREEDEPTH
 70
  3020
  9
$PICKSTYLE
 70
     1
  9
$CMLSTYLE
  2
STANDARD
  9
$CMLJUST
 70
     0
  9
$CMLSCALE
 40
1.0
  9
$SAVEIMAGES
 70
     1
  0
ENDSEC
  0
SECTION
  2
CLASSES
  0
CLASS
  1
ACDBDICTIONARYWDFLT
  2
AcDbDictionaryWithDefault
  3
AutoCAD 2000
 90
    32768
280
     0
281
     0
  0
CLASS
  1
ACDBPLACEHOLDER
  2
AcDbPlaceHolder
  3
AutoCAD 2000
 90
    32768
280
     0
281
     0
  0
CLASS
  1
LAYOUT
  2
AcDbLayout
  3
AutoCAD 2000
 90
    32768
280
     0
281
     0
  0
CLASS
  1
LONG_TRANSACTION
  2
AcDbLongTransaction
  3
AutoCAD 2000
 90
    32768
280
     0
281
     0
  0
CLASS
  1
LWPOLYLINE
  2
AcDbPolyline
  3
AutoCAD 2000
 90
    32768
280
     0
281
     1
  0
CLASS
  1
HATCH
  2
AcDbHatch
  3
AutoCAD 2000
 90
    32768
280
     0
281
     1
  0
CLASS
  1
XRECORD
  2
AcDbXrecord
  3
AutoCAD 2000
 90
    32768
280
     0
281
     0
  0
CLASS
  1
LONG_TRANSACTION
  2
AcDbLongTransaction
  3
AutoCAD 2000
 90
    32768
280
     0
281
     0
  0
CLASS
  1
LWPOLYLINE
  2
AcDbPolyline
  3
AutoCAD 2000
 90
    32768
280
     0
281
     1
  0
CLASS
  1
HATCH
  2
AcDbHatch
  3
AutoCAD 2000
 90
    32768
280
     0
281
     1
  0
CLASS
  1
XRECORD
  2
AcDbXrecord
  3
AutoCAD 2000
 90
    32768
280
     0
281
     0
  0
ENDSEC
  0
SECTION
  2
TABLES
  0
TABLE
  2
VPORT
  5
8
330
0
100
AcDbSymbolTable
 70
     2
  0
VPORT
  5
4AE
330
8
100
AcDbSymbolTableRecord
100
AcDbViewportTableRecord
  2
*ACTIVE
 70
     0
 10
0.0
 20
0.0
 11
1.0
 21
1.0
 12
435.8998775135586
 22
295.7626684598967
 13
0.0
 23
0.0
 14
5.0
 24
5.0
 15
0.0
 25
0.0
 16
0.0
 26
0.0
 36
1.0
 17
0.0
 27
0.0
 37
0.0
 40
603.6189159512385
 41
1.709909909909909
 42
50.0
 43
0.0
 44
0.0
 50
0.0
 51
0.0
 71
     0
 72
   100
 73
     1
 74
     0
 75
     0
 76
     0
 77
     0
 78
     0
  0
ENDTAB
  0
TABLE
  2
LTYPE
  5
5
330
0
100
AcDbSymbolTable
 70
     3
  0
LTYPE
  5
14
330
5
100
AcDbSymbolTableRecord
100
AcDbLinetypeTableRecord
  2
BYBLOCK
 70
     0
  3

 72
    65
 73
     0
 40
0.0
  0
LTYPE
  5
15
330
5
100
AcDbSymbolTableRecord
100
AcDbLinetypeTableRecord
  2
BYLAYER
 70
     0
  3

 72
    65
 73
     0
 40
0.0
  0
LTYPE
  5
16
330
5
100
AcDbSymbolTableRecord
100
AcDbLinetypeTableRecord
  2
CONTINUOUS
 70
     0
  3
Solid line
 72
    65
 73
     0
 40
0.0
  0
LTYPE
  5
115
330
5
100
AcDbSymbolTableRecord
100
AcDbLinetypeTableRecord
  2
PHANTOM
 70
     0
  3
______  __  __  ______  __  __  ______  __  __ 
 72
    65
 73
     6
 40
2.5
 49
1.25
 74
     0
 49
-0.25
 74
     0
 49
0.25
 74
     0
 49
-0.25
 74
     0
 49
0.25
 74
     0
 49
-0.25
 74
     0
  0
LTYPE
  5
135
330
5
100
AcDbSymbolTableRecord
100
AcDbLinetypeTableRecord
  2
CENTER
 70
     0
  3
____ _ ____ _ ____ _ ____ _ ____ _ ____ _ ____ 
 72
    65
 73
     4
 40
2.0
 49
1.25
 74
     0
 49
-0.25
 74
     0
 49
0.25
 74
     0
 49
-0.25
 74
     0
  0
ENDTAB
  0
TABLE
  2
LAYER
  5
2
330
0
100
AcDbSymbolTable
 70
     8
  0
LAYER
  5
F
330
2
100
AcDbSymbolTableRecord
100
AcDbLayerTableRecord
  2
0
 70
     0
 62
     7
  6
CONTINUOUS
  0
LAYER
  5
62
330
2
100
AcDbSymbolTableRecord
100
AcDbLayerTableRecord
  2
VIEWPORT
 70
     0
 62
     7
  6
CONTINUOUS
  0
LAYER
  5
65
330
2
100
AcDbSymbolTableRecord
100
AcDbLayerTableRecord
  2
ZUWAKU
 70
     0
 62
     7
  6
CONTINUOUS
  0
LAYER
  5
143
330
2
100
AcDbSymbolTableRecord
100
AcDbLayerTableRecord
  2
SEIHIN
 70
     0
 62
     3
  6
CONTINUOUS
  0
LAYER
  5
144
330
2
100
AcDbSymbolTableRecord
100
AcDbLayerTableRecord
  2
SUNPOU
 70
     0
 62
     4
  6
CONTINUOUS
  0
LAYER
  5
145
330
2
100
AcDbSymbolTableRecord
100
AcDbLayerTableRecord
  2
CENTER_L
 70
     0
 62
     1
  6
CENTER
  0
LAYER
  5
146
330
2
100
AcDbSymbolTableRecord
100
AcDbLayerTableRecord
  2
NIKITOI
 70
     0
 62
     8
  6
PHANTOM
  0
LAYER
  5
3E8
330
2
100
AcDbSymbolTableRecord
100
AcDbLayerTableRecord
  2
DEFPOINTS
 70
     0
 62
     7
  6
CONTINUOUS
  0
ENDTAB
  0
TABLE
  2
STYLE
  5
3
330
0
100
AcDbSymbolTable
 70
     1
  0
STYLE
  5
10
330
3
100
AcDbSymbolTableRecord
100
AcDbTextStyleTableRecord
  2
STANDARD
 70
     0
 40
0.0
 41
1.0
 50
0.0
 71
     0
 42
5.0
  3
TXT
  4
bigfont.shx
  0
ENDTAB
  0
TABLE
  2
VIEW
  5
6
330
0
100
AcDbSymbolTable
 70
     0
  0
ENDTAB
  0
TABLE
  2
UCS
  5
7
330
0
100
AcDbSymbolTable
 70
     0
  0
ENDTAB
  0
TABLE
  2
APPID
  5
9
330
0
100
AcDbSymbolTable
 70
     1
  0
APPID
  5
11
330
9
100
AcDbSymbolTableRecord
100
AcDbRegAppTableRecord
  2
ACAD
 70
     0
  0
ENDTAB
  0
TABLE
  2
DIMSTYLE
  5
A
330
0
100
AcDbSymbolTable
 70
     1
  0
DIMSTYLE
105
1D
102
{ACAD_REACTORS
330
3ED
330
3FA
330
40B
330
41A
330
44E
102
}
330
A
100
AcDbSymbolTableRecord
100
AcDbDimStyleTableRecord
  2
STANDARD
 70
     0
  3

  4

  5

  6

  7

 40
1.0
 41
0.18
 42
0.0625
 43
0.38
 44
0.18
 45
0.0
 46
0.0
 47
0.0
 48
0.0
140
0.18
141
0.09
142
0.0
143
25.4
144
1.0
145
0.0
146
1.0
147
0.09
 71
     0
 72
     0
 73
     1
 74
     1
 75
     0
 76
     0
 77
     0
 78
     0
170
     0
171
     2
172
     0
173
     0
174
     0
175
     0
176
     0
177
     0
178
     0
270
     2
271
     4
272
     4
273
     2
274
     2
340
10
275
     0
280
     0
281
     0
282
     0
283
     1
284
     0
285
     0
286
     0
287
     3
288
     0
  0
ENDTAB
  0
TABLE
  2
BLOCK_RECORD
  5
1
330
0
100
AcDbSymbolTable
 70
     6
  0
BLOCK_RECORD
  5
1A
102
{ACAD_XDICTIONARY
360
494
102
}
330
1
100
AcDbSymbolTableRecord
100
AcDbBlockTableRecord
  2
*MODEL_SPACE
  0
BLOCK_RECORD
  5
17
102
{ACAD_XDICTIONARY
360
492
102
}
330
1
100
AcDbSymbolTableRecord
100
AcDbBlockTableRecord
  2
*PAPER_SPACE
  0
BLOCK_RECORD
  5
6D
330
1
100
AcDbSymbolTableRecord
100
AcDbBlockTableRecord
  2
_OPEN
  0
BLOCK_RECORD
  5
3E0
330
1
100
AcDbSymbolTableRecord
100
AcDbBlockTableRecord
  2
*D1
  0
BLOCK_RECORD
  5
3EE
330
1
100
AcDbSymbolTableRecord
100
AcDbBlockTableRecord
  2
*D2
  0
BLOCK_RECORD
  5
3FD
330
1
100
AcDbSymbolTableRecord
100
AcDbBlockTableRecord
  2
*D3
  0
BLOCK_RECORD
  5
40C
330
1
100
AcDbSymbolTableRecord
100
AcDbBlockTableRecord
  2
*D4
  0
BLOCK_RECORD
  5
442
330
1
100
AcDbSymbolTableRecord
100
AcDbBlockTableRecord
  2
*D5
  0
ENDTAB
  0
ENDSEC
  0
SECTION
  2
BLOCKS
  0
BLOCK
  5
1B
330
1A
100
AcDbEntity
  8
0
100
AcDbBlockBegin
  2
*MODEL_SPACE
 70
     0
 10
0.0
 20
0.0
 30
0.0
  3
*MODEL_SPACE
  1

  0
ENDBLK
  5
1C
330
1A
100
AcDbEntity
  8
0
100
AcDbBlockEnd
  0
BLOCK
  5
18
330
17
100
AcDbEntity
 67
     1
  8
0
100
AcDbBlockBegin
  2
*PAPER_SPACE
 70
     0
 10
0.0
 20
0.0
 30
0.0
  3
*PAPER_SPACE
  1

  0
ENDBLK
  5
19
330
17
100
AcDbEntity
 67
     1
  8
0
100
AcDbBlockEnd
  0
BLOCK
  5
6E
330
6D
100
AcDbEntity
  8
0
100
AcDbBlockBegin
  2
_OPEN
 70
     0
 10
0.0
 20
0.0
 30
0.0
  3
_OPEN
  1

  0
LINE
  5
6F
330
6D
100
AcDbEntity
  8
0
  6
BYBLOCK
 62
     0
100
AcDbLine
 10
-1.0
 20
0.1666666666666666
 30
0.0
 11
0.0
 21
0.0
 31
0.0
  0
LINE
  5
70
330
6D
100
AcDbEntity
  8
0
  6
BYBLOCK
 62
     0
100
AcDbLine
 10
0.0
 20
0.0
 30
0.0
 11
-1.0
 21
-0.1666666666666666
 31
0.0
  0
LINE
  5
71
330
6D
100
AcDbEntity
  8
0
  6
BYBLOCK
 62
     0
100
AcDbLine
 10
0.0
 20
0.0
 30
0.0
 11
-1.0
 21
0.0
 31
0.0
  0
ENDBLK
  5
72
330
6D
100
AcDbEntity
  8
0
100
AcDbBlockEnd
  0
BLOCK
  5
3E1
330
3E0
100
AcDbEntity
  8
0
100
AcDbBlockBegin
  2
*D1
 70
     1
 10
0.0
 20
0.0
 30
0.0
  3
*D1
  1

  0
LINE
  5
3E2
330
3E0
100
AcDbEntity
  8
0
  6
BYBLOCK
 62
     4
100
AcDbLine
 10
192.9989409695559
 20
221.0902455465703
 30
0.0
 11
192.9989409695559
 21
252.896024483628
 31
0.0
  0
LINE
  5
3E3
330
3E0
100
AcDbEntity
  8
0
  6
BYBLOCK
 62
     4
100
AcDbLine
 10
323.9989409695559
 20
221.0902455465703
 30
0.0
 11
323.9989409695559
 21
252.896024483628
 31
0.0
  0
LINE
  5
3E4
330
3E0
100
AcDbEntity
  8
0
  6
BYBLOCK
 62
     4
100
AcDbLine
 10
199.9989409695559
 20
249.896024483628
 30
0.0
 11
316.9989409695559
 21
249.896024483628
 31
0.0
  0
INSERT
  5
3E5
330
3E0
100
AcDbEntity
  8
0
  6
BYBLOCK
 62
     4
100
AcDbBlockReference
  2
_OPEN
 10
192.9989409695559
 20
249.896024483628
 30
0.0
 41
7.0
 42
7.0
 43
7.0
 50
180.0
  0
INSERT
  5
3E6
330
3E0
100
AcDbEntity
  8
0
  6
BYBLOCK
 62
     4
100
AcDbBlockReference
  2
_OPEN
 10
323.9989409695559
 20
249.896024483628
 30
0.0
 41
7.0
 42
7.0
 43
7.0
  0
MTEXT
  5
3E7
330
3E0
100
AcDbEntity
  8
0
  6
BYBLOCK
 62
     4
100
AcDbMText
 10
258.4989409695559
 20
254.896024483628
 30
0.0
 40
6.0
 41
0.0
 71
     5
 72
     1
  1
\A1;131
1001
ACAD
1000
MTEXTBEGIN
1070
    73
1070
     1
1070
    44
1040
1.0
1070
    74
1070
     0
1000
MTEXTEND
1000
MTEXTBEGIN
1070
    73
1070
     1
1070
    44
1040
1.0
1070
    74
1070
     0
1000
MTEXTEND
  0
POINT
  5
3E9
330
3E0
100
AcDbEntity
  8
DEFPOINTS
  6
BYBLOCK
 62
     0
100
AcDbPoint
 10
192.9989409695559
 20
215.0902455465703
 30
0.0
  0
POINT
  5
3EA
330
3E0
100
AcDbEntity
  8
DEFPOINTS
  6
BYBLOCK
 62
     0
100
AcDbPoint
 10
323.9989409695559
 20
215.0902455465703
 30
0.0
  0
POINT
  5
3EB
330
3E0
100
AcDbEntity
  8
DEFPOINTS
  6
BYBLOCK
 62
     0
100
AcDbPoint
 10
323.9989409695559
 20
249.896024483628
 30
0.0
  0
ENDBLK
  5
3EC
330
3E0
100
AcDbEntity
  8
0
100
AcDbBlockEnd
  0
BLOCK
  5
3EF
330
3EE
100
AcDbEntity
  8
0
100
AcDbBlockBegin
  2
*D2
 70
     1
 10
0.0
 20
0.0
 30
0.0
  3
*D2
  1

  0
LINE
  5
3F0
330
3EE
100
AcDbEntity
  8
0
  6
BYBLOCK
 62
     4
100
AcDbLine
 10
329.9989409695559
 20
215.0902455465703
 30
0.0
 11
360.9607467947198
 21
215.0902455465703
 31
0.0
  0
LINE
  5
3F1
330
3EE
100
AcDbEntity
  8
0
  6
BYBLOCK
 62
     4
100
AcDbLine
 10
264.4989409695559
 20
155.8902455464094
 30
0.0
 11
360.9607467947198
 21
155.8902455464094
 31
0.0
  0
LINE
  5
3F2
330
3EE
100
AcDbEntity
  8
0
  6
BYBLOCK
 62
     4
100
AcDbLine
 10
357.9607467947198
 20
208.0902455465703
 30
0.0
 11
357.9607467947198
 21
162.8902455464094
 31
0.0
  0
INSERT
  5
3F3
330
3EE
100
AcDbEntity
  8
0
  6
BYBLOCK
 62
     4
100
AcDbBlockReference
  2
_OPEN
 10
357.9607467947198
 20
215.0902455465703
 30
0.0
 41
7.0
 42
7.0
 43
7.0
 50
90.0
  0
INSERT
  5
3F4
330
3EE
100
AcDbEntity
  8
0
  6
BYBLOCK
 62
     4
100
AcDbBlockReference
  2
_OPEN
 10
357.9607467947198
 20
155.8902455464094
 30
0.0
 41
7.0
 42
7.0
 43
7.0
 50
270.0
  0
MTEXT
  5
3F5
330
3EE
100
AcDbEntity
  8
0
  6
BYBLOCK
 62
     4
100
AcDbMText
 10
352.9607467947198
 20
185.4902455464899
 30
0.0
 40
6.0
 41
0.0
 71
     5
 72
     1
  1
\A1;59
 11
0.0
 21
1.0
 31
0.0
1001
ACAD
1000
MTEXTBEGIN
1070
    73
1070
     1
1070
    44
1040
1.0
1070
    74
1070
     0
1000
MTEXTEND
1000
MTEXTBEGIN
1070
    73
1070
     1
1070
    44
1040
1.0
1070
    74
1070
     0
1000
MTEXTEND
  0
POINT
  5
3F6
330
3EE
100
AcDbEntity
  8
DEFPOINTS
  6
BYBLOCK
 62
     0
100
AcDbPoint
 10
323.9989409695559
 20
215.0902455465703
 30
0.0
  0
POINT
  5
3F7
330
3EE
100
AcDbEntity
  8
DEFPOINTS
  6
BYBLOCK
 62
     0
100
AcDbPoint
 10
258.4989409695559
 20
155.8902455464094
 30
0.0
  0
POINT
  5
3F8
330
3EE
100
AcDbEntity
  8
DEFPOINTS
  6
BYBLOCK
 62
     0
100
AcDbPoint
 10
357.9607467947198
 20
155.8902455464094
 30
0.0
  0
ENDBLK
  5
3F9
330
3EE
100
AcDbEntity
  8
0
100
AcDbBlockEnd
  0
BLOCK
  5
3FE
330
3FD
100
AcDbEntity
  8
0
100
AcDbBlockBegin
  2
*D3
 70
     1
 10
0.0
 20
0.0
 30
0.0
  3
*D3
  1

  0
LINE
  5
4B1
330
3FD
100
AcDbEntity
  8
SEIHIN
 62
     4
100
AcDbLine
 10
319.5815834108906
 20
385.6517468071433
 30
0.0
 11
319.5815834108906
 21
399.7072848235843
 31
0.0
  0
ARC
  5
4B2
330
3FD
100
AcDbEntity
  8
SEIHIN
 62
     4
100
AcDbCircle
 10
319.5815834108906
 20
372.1517468071431
 30
0.0
 40
24.55553801644122
100
AcDbArc
 50
73.61098644206696
 51
89.99999999999996
  0
LINE
  5
4B3
330
3FD
100
AcDbEntity
  8
SEIHIN
 62
     4
100
AcDbLine
 10
326.5101127170389
 20
395.7095465543762
 30
0.0
 11
348.7674525387063
 21
389.1634924709747
 31
0.0
  0
ARC
  5
4B4
330
3FD
100
AcDbEntity
  8
SEIHIN
 62
     4
100
AcDbCircle
 10
319.5815834108906
 20
372.1517468071431
 30
0.0
 40
24.55553801644122
100
AcDbArc
 50
106.3890135579329
 51
118.6104755304058
  0
INSERT
  5
4B5
330
3FD
100
AcDbEntity
  8
SEIHIN
 62
     4
100
AcDbBlockReference
  2
_OPEN
 10
319.5815834108906
 20
396.7072848235843
 30
0.0
 41
7.0
 42
7.0
 43
7.0
 50
8.194506778966458
  0
INSERT
  5
4B6
330
3FD
100
AcDbEntity
  8
SEIHIN
 62
     4
100
AcDbBlockReference
  2
_OPEN
 10
302.2183507953715
 20
389.5152890844627
 30
0.0
 41
7.0
 42
7.0
 43
7.0
 50
216.8049823093723
  0
MTEXT
  5
4B7
330
3FD
100
AcDbEntity
  8
SEIHIN
 62
     4
100
AcDbMText
 10
339.0495701458471
 20
397.2333599914831
 30
0.0
 40
6.0
 41
0.0
 71
     5
 72
     1
  1
\A1;45°
 11
0.9593680957615282
 21
-0.2821575035948879
 31
0.0
  0
POINT
  5
4B8
330
3FD
100
AcDbEntity
  8
DEFPOINTS
 62
     0
100
AcDbPoint
 10
307.3039408217876
 20
393.4175395205863
 30
0.0
  0
POINT
  5
4B9
330
3FD
100
AcDbEntity
  8
DEFPOINTS
 62
     0
100
AcDbPoint
 10
319.5815834108905
 20
308.0210866636754
 30
0.0
  0
POINT
  5
4BA
330
3FD
100
AcDbEntity
  8
DEFPOINTS
 62
     0
100
AcDbPoint
 10
274.2347203805571
 20
417.4994185688669
 30
0.0
  0
POINT
  5
4BB
330
3FD
100
AcDbEntity
  8
DEFPOINTS
 62
     0
100
AcDbPoint
 10
324.8848369795641
 20
366.8483986584403
 30
0.0
  0
POINT
  5
4BC
330
3FD
100
AcDbEntity
  8
DEFPOINTS
 62
     0
100
AcDbPoint
 10
319.5815834108906
 20
379.6517468071433
 30
0.0
  0
ENDBLK
  5
40A
330
3FD
100
AcDbEntity
  8
0
100
AcDbBlockEnd
  0
BLOCK
  5
435
330
40C
100
AcDbEntity
  8
0
100
AcDbBlockBegin
  2
*D4
 70
     1
 10
0.0
 20
0.0
 30
0.0
  3
*D4
  1

  0
LINE
  5
436
330
40C
100
AcDbEntity
  8
0
  6
BYBLOCK
 62
     4
100
AcDbLine
 10
329.4990409695558
 20
319.5415455465703
 30
0.0
 11
366.2880317777662
 21
319.5415455465703
 31
0.0
  0
LINE
  5
437
330
40C
100
AcDbEntity
  8
0
  6
BYBLOCK
 62
     4
100
AcDbLine
 10
320.6962409695558
 20
344.5416455465703
 30
0.0
 11
366.2880317777662
 21
344.5416455465703
 31
0.0
  0
LINE
  5
438
330
40C
100
AcDbEntity
  8
0
  6
BYBLOCK
 62
     4
100
AcDbLine
 10
363.2880317777662
 20
312.5415455465703
 30
0.0
 11
363.2880317777662
 21
305.5415455465703
 31
0.0
  0
LINE
  5
439
330
40C
100
AcDbEntity
  8
0
  6
BYBLOCK
 62
     4
100
AcDbLine
 10
363.2880317777662
 20
351.5416455465703
 30
0.0
 11
363.2880317777662
 21
358.5416455465703
 31
0.0
  0
LINE
  5
43A
330
40C
100
AcDbEntity
  8
0
  6
BYBLOCK
 62
     4
100
AcDbLine
 10
363.2880317777662
 20
319.5415455465703
 30
0.0
 11
363.2880317777662
 21
344.5416455465703
 31
0.0
  0
INSERT
  5
43B
330
40C
100
AcDbEntity
  8
0
  6
BYBLOCK
 62
     4
100
AcDbBlockReference
  2
_OPEN
 10
363.2880317777662
 20
319.5415455465703
 30
0.0
 41
7.0
 42
7.0
 43
7.0
 50
90.0
  0
INSERT
  5
43C
330
40C
100
AcDbEntity
  8
0
  6
BYBLOCK
 62
     4
100
AcDbBlockReference
  2
_OPEN
 10
363.2880317777662
 20
344.5416455465703
 30
0.0
 41
7.0
 42
7.0
 43
7.0
 50
270.0
  0
MTEXT
  5
43D
330
40C
100
AcDbEntity
  8
0
  6
BYBLOCK
 62
     4
100
AcDbMText
 10
358.2880317777662
 20
332.0415955465703
 30
0.0
 40
6.0
 41
0.0
 71
     5
 72
     1
  1
\A1;※25
 11
0.0
 21
1.0
 31
0.0
1001
ACAD
1000
MTEXTBEGIN
1070
    73
1070
     1
1070
    44
1040
1.0
1070
    74
1070
     0
1000
MTEXTEND
1000
MTEXTBEGIN
1070
    73
1070
     1
1070
    44
1040
1.0
1070
    74
1070
     0
1000
MTEXTEND
  0
POINT
  5
43E
330
40C
100
AcDbEntity
  8
DEFPOINTS
  6
BYBLOCK
 62
     0
100
AcDbPoint
 10
323.4990409695558
 20
319.5415455465703
 30
0.0
  0
POINT
  5
43F
330
40C
100
AcDbEntity
  8
DEFPOINTS
  6
BYBLOCK
 62
     0
100
AcDbPoint
 10
314.6962409695558
 20
344.5416455465703
 30
0.0
  0
POINT
  5
440
330
40C
100
AcDbEntity
  8
DEFPOINTS
  6
BYBLOCK
 62
     0
100
AcDbPoint
 10
363.2880317777662
 20
344.5416455465703
 30
0.0
  0
ENDBLK
  5
441
330
40C
100
AcDbEntity
  8
0
100
AcDbBlockEnd
  0
BLOCK
  5
443
330
442
100
AcDbEntity
  8
0
100
AcDbBlockBegin
  2
*D5
 70
     1
 10
0.0
 20
0.0
 30
0.0
  3
*D5
  1

  0
LINE
  5
444
330
442
100
AcDbEntity
  8
0
  6
BYBLOCK
 62
     4
100
AcDbLine
 10
187.4990409695559
 20
319.5416455465703
 30
0.0
 11
142.4516573355676
 21
319.5416455465703
 31
0.0
  0
LINE
  5
445
330
442
100
AcDbEntity
  8
0
  6
BYBLOCK
 62
     4
100
AcDbLine
 10
186.999040969556
 20
349.5416455465703
 30
0.0
 11
142.4516573355676
 21
349.5416455465703
 31
0.0
  0
LINE
  5
446
330
442
100
AcDbEntity
  8
0
  6
BYBLOCK
 62
     4
100
AcDbLine
 10
145.4516573355676
 20
326.5416455465703
 30
0.0
 11
145.4516573355676
 21
342.5416455465703
 31
0.0
  0
INSERT
  5
447
330
442
100
AcDbEntity
  8
0
  6
BYBLOCK
 62
     4
100
AcDbBlockReference
  2
_OPEN
 10
145.4516573355676
 20
319.5416455465703
 30
0.0
 41
7.0
 42
7.0
 43
7.0
 50
270.0
  0
INSERT
  5
448
330
442
100
AcDbEntity
  8
0
  6
BYBLOCK
 62
     4
100
AcDbBlockReference
  2
_OPEN
 10
145.4516573355676
 20
349.5416455465703
 30
0.0
 41
7.0
 42
7.0
 43
7.0
 50
90.0
  0
MTEXT
  5
449
330
442
100
AcDbEntity
  8
0
  6
BYBLOCK
 62
     4
100
AcDbMText
 10
140.4516573355676
 20
334.5416455465703
 30
0.0
 40
6.0
 41
0.0
 71
     5
 72
     1
  1
\A1;30
 11
0.0
 21
1.0
 31
0.0
1001
ACAD
1000
MTEXTBEGIN
1070
    73
1070
     1
1070
    44
1040
1.0
1070
    74
1070
     0
1000
MTEXTEND
1000
MTEXTBEGIN
1070
    73
1070
     1
1070
    44
1040
1.0
1070
    74
1070
     0
1000
MTEXTEND
  0
POINT
  5
44A
330
442
100
AcDbEntity
  8
DEFPOINTS
  6
BYBLOCK
 62
     0
100
AcDbPoint
 10
193.499040969556
 20
319.5416455465703
 30
0.0
  0
POINT
  5
44B
330
442
100
AcDbEntity
  8
DEFPOINTS
  6
BYBLOCK
 62
     0
100
AcDbPoint
 10
192.999040969556
 20
349.5416455465703
 30
0.0
  0
POINT
  5
44C
330
442
100
AcDbEntity
  8
DEFPOINTS
  6
BYBLOCK
 62
     0
100
AcDbPoint
 10
145.4516573355676
 20
349.5416455465703
 30
0.0
  0
ENDBLK
  5
44D
330
442
100
AcDbEntity
  8
0
100
AcDbBlockEnd
  0
ENDSEC
  0
SECTION
  2
ENTITIES
  0
TEXT
  5
11A
330
1A
100
AcDbEntity
  8
ZUWAKU
 62
     7
 48
10.0
100
AcDbText
 10
795.5579444309237
 20
4.974918402528146
 30
0.0
 40
8.0
  1
A1
100
AcDbText
  0
LINE
  5
11B
330
1A
100
AcDbEntity
  8
ZUWAKU
 62
     7
 48
10.0
100
AcDbLine
 10
10.05047808566086
 20
25.78258628282265
 30
0.0
 11
806.0504780856609
 21
25.78258628282253
 31
0.0
  0
LINE
  5
11C
330
1A
100
AcDbEntity
  8
ZUWAKU
  6
CONTINUOUS
 62
     7
100
AcDbLine
 10
806.0504780856609
 20
563.7825862828226
 30
0.0
 11
10.05047808566086
 21
563.7825862828226
 31
0.0
  0
LINE
  5
11D
330
1A
100
AcDbEntity
  8
ZUWAKU
  6
CONTINUOUS
 62
     7
100
AcDbLine
 10
806.0504780856609
 20
13.78258628282265
 30
0.0
 11
10.05047808566086
 21
13.78258628282265
 31
0.0
  0
LINE
  5
11E
330
1A
100
AcDbEntity
  8
ZUWAKU
  6
CONTINUOUS
 62
     7
100
AcDbLine
 10
10.05047808566086
 20
563.7825862828226
 30
0.0
 11
10.05047808566086
 21
13.78258628282265
 31
0.0
  0
LINE
  5
11F
330
1A
100
AcDbEntity
  8
ZUWAKU
 62
     7
 48
10.0
100
AcDbLine
 10
44.55797523147839
 20
13.78258628282265
 30
0.0
 11
44.5579752314784
 21
25.78258628282265
 31
0.0
  0
TEXT
  5
120
330
1A
100
AcDbEntity
  8
ZUWAKU
 62
     7
100
AcDbText
 10
16.05676551180931
 20
15.52294263804401
 30
0.0
 40
8.0
  1
品 種
100
AcDbText
  0
LINE
  5
121
330
1A
100
AcDbEntity
  8
ZUWAKU
 62
     7
 48
10.0
100
AcDbLine
 10
276.1028387068254
 20
13.78258628282265
 30
0.0
 11
276.1028387068254
 21
25.78258628282261
 31
0.0
  0
LINE
  5
122
330
1A
100
AcDbEntity
  8
ZUWAKU
 62
     7
 48
10.0
100
AcDbLine
 10
209.5138526425484
 20
13.78258628282265
 30
0.0
 11
209.5138526425485
 21
25.78258628282263
 31
0.0
  0
TEXT
  5
124
330
1A
100
AcDbEntity
  8
ZUWAKU
 62
     7
100
AcDbText
 10
215.4560837190756
 20
16.18358115302453
 30
0.0
 40
8.0
  1
品名・ｻ ｲ ｽﾞ
100
AcDbText
  0
LINE
  5
126
330
1A
100
AcDbEntity
  8
ZUWAKU
 62
     7
 48
10.0
100
AcDbLine
 10
768.7231079932794
 20
13.78258628282237
 30
0.0
 11
768.7231079932794
 21
25.78258628282254
 31
0.0
  0
LINE
  5
127
330
1A
100
AcDbEntity
  8
ZUWAKU
 62
     7
 48
10.0
100
AcDbLine
 10
733.8119002376948
 20
13.78258628282242
 30
0.0
 11
733.8119002376946
 21
25.78258628282254
 31
0.0
  0
TEXT
  5
128
330
1A
100
AcDbEntity
  8
ZUWAKU
 62
     7
100
AcDbText
 10
739.6955629973526
 20
15.24227755810852
 30
0.0
 40
8.0
  1
尺 度
100
AcDbText
  0
TEXT
  5
129
330
1A
100
AcDbEntity
  8
ZUWAKU
 62
     7
100
AcDbText
 10
779.7374630323229
 20
15.55488920081529
 30
0.0
 40
8.0
  1
1/2
100
AcDbText
  0
TEXT
  5
12B
330
1A
100
AcDbEntity
  8
ZUWAKU
 62
     7
100
AcDbText
 10
620.3363288383084
 20
15.6519090944263
 30
0.0
 40
8.0
  1
品 番
100
AcDbText
  0
LINE
  5
12C
330
1A
100
AcDbEntity
  8
ZUWAKU
 62
     7
 48
10.0
100
AcDbLine
 10
614.3351028194128
 20
13.78258628282232
 30
0.0
 11
614.3351028194128
 21
25.78258628282256
 31
0.0
  0
LINE
  5
12D
330
1A
100
AcDbEntity
  8
ZUWAKU
 62
     7
 48
10.0
100
AcDbLine
 10
648.7607587371021
 20
13.78258628282232
 30
0.0
 11
648.7607587371021
 21
25.78258628282255
 31
0.0
  0
TEXT
  5
12E
330
1A
100
AcDbEntity
  8
ZUWAKU
 62
     7
 48
10.0
100
AcDbText
 10
646.2758615931216
 20
4.949376903717848
 30
0.0
 40
8.0
  1
積水化学工業株式会社  建材
100
AcDbText
  0
LINE
  5
12F
330
1A
100
AcDbEntity
  8
ZUWAKU
  6
CONTINUOUS
 62
     7
100
AcDbLine
 10
806.0504780856609
 20
563.7825862828226
 30
0.0
 11
806.0504780856609
 21
13.78258628282265
 31
0.0
  0
ARC
  5
237
330
1A
100
AcDbEntity
  8
NIKITOI
  6
CONTINUOUS
 62
     8
 48
5.0
100
AcDbCircle
 10
319.5813835357458
 20
209.8696854791294
 30
0.0
 40
56.99999881544602
100
AcDbArc
 50
186.7561500022946
 51
353.2434543568847
  0
LINE
  5
238
330
1A
100
AcDbEntity
  8
CENTER_L
  6
CENTER
 62
     1
 48
5.0
100
AcDbLine
 10
274.2347203805571
 20
417.4994185688669
 30
0.0
 11
324.8848369795641
 21
366.8483986584403
 31
0.0
  0
ARC
  5
239
330
1A
100
AcDbEntity
  8
NIKITOI
  6
CONTINUOUS
 62
     8
 48
5.0
100
AcDbCircle
 10
319.5813338955669
 20
209.8696872918781
 30
0.0
 40
55.69997777445496
100
AcDbArc
 50
183.4893828011791
 51
356.5101019184219
  0
ELLIPSE
  5
23A
330
1A
100
AcDbEntity
  8
SEIHIN
  6
CONTINUOUS
100
AcDbEllipse
 10
283.1380661959633
 20
201.1696866636836
 30
0.0
 11
0.0
 21
46.0078879573159
 31
0.0
210
0.0
220
0.0
230
1.0
 40
0.8107569999634353
 41
-2.689936211458289
 42
-2.414460244980008
  0
ELLIPSE
  5
23B
330
1A
100
AcDbEntity
  8
SEIHIN
  6
CONTINUOUS
100
AcDbEllipse
 10
279.1825070030308
 20
201.07914591008
 30
0.0
 11
-0.1105576661201681
 21
48.13383019753864
 31
0.0
210
0.0
220
0.0
230
1.0
 40
0.8189459562689812
 41
-2.604622669157985
 42
-1.570796326794896
  0
ARC
  5
23E
330
1A
100
AcDbEntity
  8
SEIHIN
  6
CONTINUOUS
 62
     3
100
AcDbCircle
 10
301.9039214930273
 20
209.8696551871912
 30
0.0
 40
58.49996852367064
100
AcDbArc
 50
190.8497258544943
 51
269.9998647602064
  0
ARC
  5
23F
330
1A
100
AcDbEntity
  8
SEIHIN
  6
CONTINUOUS
 62
     3
100
AcDbCircle
 10
319.5813703027673
 20
209.8697432350907
 30
0.0
 40
55.50001241666687
100
AcDbArc
 50
234.5753316776022
 51
252.2807660093711
  0
ARC
  5
240
330
1A
100
AcDbEntity
  8
SEIHIN
  6
CONTINUOUS
 62
     3
100
AcDbCircle
 10
319.5815496380086
 20
209.8696119965591
 30
0.0
 40
53.99999527902085
100
AcDbArc
 50
189.2713155016561
 51
253.8723051905332
  0
ARC
  5
241
330
1A
100
AcDbEntity
  8
SEIHIN
  6
CONTINUOUS
 62
     3
100
AcDbCircle
 10
319.5815214930273
 20
209.8696551871914
 30
0.0
 40
58.49996852367074
100
AcDbArc
 50
190.8497258544944
 51
269.9998647602066
  0
ARC
  5
242
330
1A
100
AcDbEntity
  8
SEIHIN
  6
CONTINUOUS
 62
     3
100
AcDbCircle
 10
319.5814955765525
 20
209.8696763878709
 30
0.0
 40
56.9999897242977
100
AcDbArc
 50
189.6273970875245
 51
269.9998872522773
  0
LINE
  5
243
330
1A
100
AcDbEntity
  8
SEIHIN
  6
CONTINUOUS
 62
     3
100
AcDbLine
 10
306.8851834108906
 20
428.9361866636836
 30
0.0
 11
296.5086834108906
 21
418.5597866636836
 31
0.0
  0
LINE
  5
244
330
1A
100
AcDbEntity
  8
SEIHIN
  6
CONTINUOUS
 62
     3
100
AcDbLine
 10
296.5086834108906
 20
416.4385866636835
 30
0.0
 11
311.0041834108906
 21
401.9426866636837
 31
0.0
  0
LINE
  5
245
330
1A
100
AcDbEntity
  8
SEIHIN
  6
CONTINUOUS
 62
     3
100
AcDbLine
 10
325.1467834108907
 20
458.5111866636836
 30
0.0
 11
279.1843834108906
 21
412.5495866636836
 31
0.0
  0
LINE
  5
246
330
1A
100
AcDbEntity
  8
SEIHIN
  6
CONTINUOUS
 62
     3
100
AcDbLine
 10
319.5816834108906
 20
340.0210866636836
 30
0.0
 11
266.2870834108905
 21
340.0211866636835
 31
0.0
  0
LINE
  5
247
330
1A
100
AcDbEntity
  8
SEIHIN
  6
CONTINUOUS
 62
     3
100
AcDbLine
 10
254.5815834108906
 20
315.0210866636836
 30
0.0
 11
319.5815834108905
 21
315.0210866636836
 31
0.0
  0
LINE
  5
248
330
1A
100
AcDbEntity
  8
SEIHIN
  6
CONTINUOUS
 62
     3
100
AcDbLine
 10
266.2870834108905
 20
341.0211866636836
 30
0.0
 11
304.5815834108906
 21
341.0210866636836
 31
0.0
  0
LINE
  5
249
330
1A
100
AcDbEntity
  8
SEIHIN
  6
CONTINUOUS
 62
     3
100
AcDbLine
 10
304.5815834108906
 20
345.0210866636836
 30
0.0
 11
264.7869834108906
 21
345.0211866636836
 31
0.0
  0
LINE
  5
24A
330
1A
100
AcDbEntity
  8
SEIHIN
  6
CONTINUOUS
 62
     3
100
AcDbLine
 10
288.4069834108906
 20
323.0210866636836
 30
0.0
 11
303.0815834108906
 21
323.0210866636836
 31
0.0
  0
LINE
  5
24B
330
1A
100
AcDbEntity
  8
SEIHIN
  6
CONTINUOUS
 62
     3
100
AcDbLine
 10
264.7869834108906
 20
349.4553866636836
 30
0.0
 11
305.7233274479102
 21
366.4115704946848
 31
0.0
  0
LINE
  5
24C
330
1A
100
AcDbEntity
  8
SEIHIN
  6
CONTINUOUS
 62
     3
100
AcDbLine
 10
312.5814834108906
 20
151.3696866636836
 30
0.0
 11
298.7218834108905
 21
151.3696866636836
 31
0.0
  0
LINE
  5
24D
330
1A
100
AcDbEntity
  8
SEIHIN
  6
CONTINUOUS
 62
     3
100
AcDbLine
 10
296.8619834108906
 20
394.8716866636834
 30
0.0
 11
334.5471834108906
 21
432.5563866636836
 31
0.0
  0
LINE
  5
252
330
1A
100
AcDbEntity
  8
SEIHIN
  6
CONTINUOUS
 62
     3
100
AcDbLine
 10
263.3843834108906
 20
315.0210866636836
 30
0.0
 11
263.3843834108906
 21
340.0211866636835
 31
0.0
  0
LINE
  5
253
330
1A
100
AcDbEntity
  8
SEIHIN
  6
CONTINUOUS
 62
     3
100
AcDbLine
 10
255.5815834108906
 20
345.6423866636835
 30
0.0
 11
255.5815834108906
 21
315.0210866636836
 31
0.0
  0
LINE
  5
254
330
1A
100
AcDbEntity
  8
SEIHIN
  6
CONTINUOUS
 62
     3
100
AcDbLine
 10
254.0815834108907
 20
320.0210866636836
 30
0.0
 11
254.5815834108906
 21
315.0210866636836
 31
0.0
  0
TEXT
  5
258
330
1A
100
AcDbEntity
  8
ZUWAKU
 62
     7
100
AcDbText
 10
50.3519382305086
 20
16.10306189639755
 30
0.0
 40
8.0
  1
丸トップ　のきとい
100
AcDbText
  0
TEXT
  5
25A
330
1A
100
AcDbEntity
  8
ZUWAKU
 62
     7
100
AcDbText
 10
282.3131429914078
 20
15.64241700452384
 30
0.0
 40
8.0
  1
４５°曲り　１２０
100
AcDbText
  0
ARC
  5
25F
330
1A
100
AcDbEntity
  8
SEIHIN
  6
CONTINUOUS
 62
     3
100
AcDbCircle
 10
298.7219620812934
 20
209.8697042935011
 30
0.0
 40
58.50001762987041
100
AcDbArc
 50
190.8497656073876
 51
269.9999229490478
  0
ARC
  5
260
330
1A
100
AcDbEntity
  8
SEIHIN
  6
CONTINUOUS
 62
     3
100
AcDbCircle
 10
238.7219834108907
 20
205.1696866636835
 30
0.0
 40
5.500000000000042
100
AcDbArc
 50
179.9999999999995
 51
269.9999999999995
  0
LINE
  5
262
330
1A
100
AcDbEntity
  8
SEIHIN
  6
CONTINUOUS
100
AcDbLine
 10
233.2219834108907
 20
210.5850613334775
 30
0.0
 11
255.8066047056203
 21
210.5850613334774
 31
0.0
  0
LINE
  5
26A
330
1A
100
AcDbEntity
  8
SEIHIN
  6
CONTINUOUS
 62
     3
100
AcDbLine
 10
233.2219834108907
 20
205.1695866636836
 30
0.0
 11
233.2219834108907
 21
210.5696866636836
 31
0.0
  0
ARC
  5
26B
330
1A
100
AcDbEntity
  8
SEIHIN
  6
CONTINUOUS
 62
     3
100
AcDbCircle
 10
319.5815313771007
 20
209.8695744464931
 30
0.0
 40
55.49997148272721
100
AcDbArc
 50
190.8629915773008
 51
215.4244461333599
  0
ARC
  5
26C
330
1A
100
AcDbEntity
  8
SEIHIN
  6
CONTINUOUS
 62
     3
100
AcDbCircle
 10
319.5815566078591
 20
209.8696134664242
 30
0.0
 40
55.50001465986447
100
AcDbArc
 50
215.424463861089
 51
234.5750972976026
  0
ARC
  5
26D
330
1A
100
AcDbEntity
  8
SEIHIN
  6
CONTINUOUS
 62
     3
100
AcDbCircle
 10
286.2648871117428
 20
167.3725520802357
 30
0.0
 40
1.50001856654054
100
AcDbArc
 50
140.311367856715
 51
231.9029883664975
  0
ARC
  5
26E
330
1A
100
AcDbEntity
  8
SEIHIN
  6
CONTINUOUS
 62
     3
100
AcDbCircle
 10
277.0843034059928
 20
176.5531845243789
 30
0.0
 40
1.499979218185645
100
AcDbArc
 50
218.0979065596798
 51
309.6871703161064
  0
ARC
  5
26F
330
1A
100
AcDbEntity
  8
SEIHIN
  6
CONTINUOUS
 62
     3
100
AcDbCircle
 10
275.5780319821774
 20
178.5695946088956
 30
0.0
 40
1.500002068306897
100
AcDbArc
 50
215.4227299148092
 51
307.0156724213513
  0
ARC
  5
270
330
1A
100
AcDbEntity
  8
SEIHIN
  6
CONTINUOUS
 62
     3
100
AcDbCircle
 10
319.5812142712464
 20
209.8700367072834
 30
0.0
 40
55.49999688837456
100
AcDbArc
 50
217.016700460822
 51
218.0957508366063
  0
ARC
  5
271
330
1A
100
AcDbEntity
  8
SEIHIN
  6
CONTINUOUS
 62
     3
100
AcDbCircle
 10
288.2812762693167
 20
165.8663329045894
 30
0.0
 40
1.499991424955222
100
AcDbArc
 50
142.9839095656924
 51
234.5776880981493
  0
ARC
  5
272
330
1A
100
AcDbEntity
  8
SEIHIN
  6
CONTINUOUS
 62
     3
100
AcDbCircle
 10
319.5815482708196
 20
209.8696367938621
 30
0.0
 40
55.50002119469644
100
AcDbArc
 50
231.9042493996803
 51
232.9832993028789
  0
ARC
  5
273
330
1A
100
AcDbEntity
  8
NIKITOI
  6
CONTINUOUS
 62
     8
 48
5.0
100
AcDbCircle
 10
260.031314350093
 20
205.8698731409708
 30
0.0
 40
4.000015298737716
100
AcDbArc
 50
8.764757762685649
 51
317.431501414648
  0
ARC
  5
274
330
1A
100
AcDbEntity
  8
SEIHIN
  6
CONTINUOUS
 62
     3
100
AcDbCircle
 10
259.5814834108906
 20
205.1696866636835
 30
0.0
 40
5.499999999999985
100
AcDbArc
 50
179.9999999999989
 51
269.9999999999989
  0
ARC
  5
275
330
1A
100
AcDbEntity
  8
SEIHIN
  6
CONTINUOUS
 62
     3
100
AcDbCircle
 10
259.5814834108905
 20
205.1696866636836
 30
0.0
 40
4.0
100
AcDbArc
 50
180.0
 51
270.0
  0
LINE
  5
276
330
1A
100
AcDbEntity
  8
SEIHIN
  6
CONTINUOUS
 62
     3
100
AcDbLine
 10
238.7219834108906
 20
199.6696866636835
 30
0.0
 11
261.1451834108907
 21
199.6696866636835
 31
0.0
  0
ARC
  5
277
330
1A
100
AcDbEntity
  8
SEIHIN
  6
CONTINUOUS
 62
     3
100
AcDbCircle
 10
243.4675651573698
 20
198.6697017514111
 30
0.0
 40
0.9999849124390276
100
AcDbArc
 50
10.84704230793049
 51
89.99895413452504
  0
ARC
  5
278
330
1A
100
AcDbEntity
  8
SEIHIN
  6
CONTINUOUS
 62
     3
100
AcDbCircle
 10
240.2855651573698
 20
198.6697017514113
 30
0.0
 40
0.9999849124388573
100
AcDbArc
 50
10.84704230792283
 51
89.99895413451689
  0
LINE
  5
279
330
1A
100
AcDbEntity
  8
SEIHIN
  6
CONTINUOUS
 62
     3
100
AcDbLine
 10
259.5814834108905
 20
201.1696866636836
 30
0.0
 11
266.2869834108906
 21
201.1696866636836
 31
0.0
  0
ARC
  5
27A
330
1A
100
AcDbEntity
  8
SEIHIN
  6
CONTINUOUS
 62
     3
100
AcDbCircle
 10
266.5491849845121
 20
199.6925889165819
 30
0.0
 40
1.49998293656963
100
AcDbArc
 50
99.26898205350141
 51
190.8635268349856
  0
ARC
  5
27B
330
1A
100
AcDbEntity
  8
SEIHIN
  6
CONTINUOUS
 62
     3
100
AcDbCircle
 10
262.3983699886136
 20
200.1696980013122
 30
0.0
 40
0.9999886624615154
100
AcDbArc
 50
9.624512142943684
 51
89.99923095145282
  0
ARC
  5
27C
330
1A
100
AcDbEntity
  8
SEIHIN
  6
CONTINUOUS
 62
     3
100
AcDbCircle
 10
261.1451651573698
 20
198.6697017514113
 30
0.0
 40
0.9999849124388573
100
AcDbArc
 50
10.84704230792283
 51
89.99895413451689
  0
CIRCLE
  5
27E
330
1A
100
AcDbEntity
  8
NIKITOI
100
AcDbCircle
 10
260.0313186502825
 20
205.8698872919461
 30
0.0
 40
2.7
  0
LINE
  5
27F
330
1A
100
AcDbEntity
  8
SEIHIN
  6
CONTINUOUS
 62
     3
100
AcDbLine
 10
254.0814834108906
 20
205.1695866636836
 30
0.0
 11
254.0814834108906
 21
210.5696866636836
 31
0.0
  0
LINE
  5
280
330
1A
100
AcDbEntity
  8
SEIHIN
  6
CONTINUOUS
 62
     3
100
AcDbLine
 10
255.5814834108905
 20
205.1695866636836
 30
0.0
 11
255.5814834108905
 21
210.5696866636836
 31
0.0
  0
LINE
  5
284
330
1A
100
AcDbEntity
  8
SEIHIN
  6
CONTINUOUS
 62
     3
100
AcDbLine
 10
233.2221834108906
 20
366.5880866636836
 30
0.0
 11
279.1843834108906
 21
412.5495866636836
 31
0.0
  0
LINE
  5
285
330
1A
100
AcDbEntity
  8
SEIHIN
  6
CONTINUOUS
 62
     3
100
AcDbLine
 10
255.5816834108906
 20
345.6424866636836
 30
0.0
 11
233.9292834108906
 21
367.2951866636836
 31
0.0
  0
LINE
  5
286
330
1A
100
AcDbEntity
  8
SEIHIN
  6
CONTINUOUS
 62
     3
100
AcDbLine
 10
236.4040834108906
 20
362.6989866636835
 30
0.0
 11
233.2221834108906
 21
366.5880866636836
 31
0.0
  0
LINE
  5
28B
330
1A
100
AcDbEntity
  8
SEIHIN
  6
CONTINUOUS
 62
     3
100
AcDbLine
 10
296.8620834108906
 20
394.8717866636835
 30
0.0
 11
259.1767834108905
 21
357.1871866636835
 31
0.0
  0
LINE
  5
28C
330
1A
100
AcDbEntity
  8
SEIHIN
  6
CONTINUOUS
 62
     3
100
AcDbLine
 10
247.3604834108905
 20
367.2911866636836
 30
0.0
 11
258.3205834108905
 21
356.3308866636836
 31
0.0
  0
LINE
  5
28D
330
1A
100
AcDbEntity
  8
SEIHIN
  6
CONTINUOUS
 62
     3
100
AcDbLine
 10
239.4466834108905
 20
372.8125866636836
 30
0.0
 11
257.1243834108906
 21
355.1346866636835
 31
0.0
  0
LINE
  5
28E
330
1A
100
AcDbEntity
  8
SEIHIN
  6
CONTINUOUS
 62
     3
100
AcDbLine
 10
248.2166834108905
 20
368.1473866636835
 30
0.0
 11
259.8838834108907
 21
356.4799866636836
 31
0.0
  0
LINE
  5
28F
330
1A
100
AcDbEntity
  8
SEIHIN
  6
CONTINUOUS
 62
     3
100
AcDbLine
 10
289.7908834108907
 20
380.7296866636836
 30
0.0
 11
261.6515834108906
 21
352.5908866636836
 31
0.0
  0
LINE
  5
290
330
1A
100
AcDbEntity
  8
SEIHIN
  6
CONTINUOUS
 62
     3
100
AcDbLine
 10
259.8838834108907
 20
356.4800866636836
 30
0.0
 11
286.9624834108906
 21
383.5581866636836
 31
0.0
  0
LINE
  5
291
330
1A
100
AcDbEntity
  8
SEIHIN
  6
CONTINUOUS
 62
     3
100
AcDbLine
 10
266.5761834108906
 20
323.0211866636835
 30
0.0
 11
275.0959834108905
 21
323.0211866636835
 31
0.0
  0
LINE
  5
292
330
1A
100
AcDbEntity
  8
SEIHIN
  6
CONTINUOUS
 62
     3
100
AcDbLine
 10
264.7869834108906
 20
345.0211866636836
 30
0.0
 11
266.2869834108906
 21
341.0211866636836
 31
0.0
  0
LINE
  5
293
330
1A
100
AcDbEntity
  8
SEIHIN
  6
CONTINUOUS
 62
     3
100
AcDbLine
 10
254.0815834108907
 20
320.0210866636836
 30
0.0
 11
254.0815834108907
 21
345.0210866636836
 31
0.0
  0
LINE
  5
294
330
1A
100
AcDbEntity
  8
SEIHIN
  6
CONTINUOUS
 62
     3
100
AcDbLine
 10
265.0761834108906
 20
324.5211866636836
 30
0.0
 11
265.0761834108906
 21
340.0211866636835
 31
0.0
  0
LINE
  5
295
330
1A
100
AcDbEntity
  8
SEIHIN
  6
CONTINUOUS
 62
     3
100
AcDbLine
 10
266.2869834108906
 20
324.5211866636836
 30
0.0
 11
266.2869834108906
 21
341.0211866636836
 31
0.0
  0
ARC
  5
296
330
1A
100
AcDbEntity
  8
SEIHIN
  6
CONTINUOUS
 62
     3
100
AcDbCircle
 10
266.5761834108907
 20
324.5211866636835
 30
0.0
 40
1.500000000000056
100
AcDbArc
 50
179.9999999999978
 51
269.9999999999977
  0
ARC
  5
297
330
1A
100
AcDbEntity
  8
SEIHIN
  6
CONTINUOUS
 62
     3
100
AcDbCircle
 10
267.7869834108907
 20
324.5211866636835
 30
0.0
 40
1.500000000000056
100
AcDbArc
 50
179.9999999999978
 51
269.9999999999977
  0
LINE
  5
298
330
1A
100
AcDbEntity
  8
SEIHIN
  6
CONTINUOUS
 62
     3
100
AcDbLine
 10
265.0761834108906
 20
340.0211866636835
 30
0.0
 11
263.3844834108905
 21
340.0211866636835
 31
0.0
  0
LINE
  5
299
330
1A
100
AcDbEntity
  8
SEIHIN
  6
CONTINUOUS
 62
     3
100
AcDbLine
 10
236.4040834108906
 20
362.6989866636835
 30
0.0
 11
254.0815834108907
 21
345.0210866636836
 31
0.0
  0
LINE
  5
29A
330
1A
100
AcDbEntity
  8
SEIHIN
  6
CONTINUOUS
 62
     3
100
AcDbLine
 10
261.6515834108906
 20
352.5908866636836
 30
0.0
 11
259.8838834108907
 21
356.4799866636836
 31
0.0
  0
LINE
  5
29B
330
1A
100
AcDbEntity
  8
SEIHIN
  6
CONTINUOUS
 62
     3
100
AcDbLine
 10
261.6516834108905
 20
352.5908866636836
 30
0.0
 11
264.7870834108906
 21
349.4553866636836
 31
0.0
  0
LINE
  5
29C
330
1A
100
AcDbEntity
  8
SEIHIN
  6
CONTINUOUS
 62
     3
100
AcDbLine
 10
264.7869834108906
 20
345.0211866636836
 30
0.0
 11
264.7869834108906
 21
349.4553866636836
 31
0.0
  0
LINE
  5
29D
330
1A
100
AcDbEntity
  8
SEIHIN
  6
CONTINUOUS
 62
     3
100
AcDbLine
 10
258.3205834108905
 20
356.3308866636836
 30
0.0
 11
257.1243834108906
 21
355.1346866636835
 31
0.0
  0
LINE
  5
29E
330
1A
100
AcDbEntity
  8
SEIHIN
  6
CONTINUOUS
 62
     3
100
AcDbLine
 10
278.0262834108906
 20
340.0211866636835
 30
0.0
 11
276.5896834108905
 21
324.3838866636835
 31
0.0
  0
ARC
  5
29F
330
1A
100
AcDbEntity
  8
SEIHIN
  6
CONTINUOUS
 62
     3
100
AcDbCircle
 10
275.0959817630324
 20
324.5211851603487
 30
0.0
 40
1.499998496666061
100
AcDbArc
 50
270.0000629436054
 51
354.7482276125458
  0
LINE
  5
2A0
330
1A
100
AcDbEntity
  8
SEIHIN
  6
CONTINUOUS
 62
     3
100
AcDbLine
 10
286.9169834108906
 20
324.3480866636836
 30
0.0
 11
285.0972834108906
 21
340.0210866636836
 31
0.0
  0
ARC
  5
2A1
330
1A
100
AcDbEntity
  8
SEIHIN
  6
CONTINUOUS
 62
     3
100
AcDbCircle
 10
288.4069779839193
 20
324.5210914970014
 30
0.0
 40
1.500004833327582
100
AcDbArc
 50
186.623015994845
 51
270.0002072943687
  0
LINE
  5
2A2
330
1A
100
AcDbEntity
  8
SEIHIN
  6
CONTINUOUS
 62
     3
100
AcDbLine
 10
262.6820834108905
 20
382.8571866636834
 30
0.0
 11
272.4776834108906
 21
370.4878866636836
 31
0.0
  0
LINE
  5
2A3
330
1A
100
AcDbEntity
  8
SEIHIN
  6
CONTINUOUS
 62
     3
100
AcDbLine
 10
262.7973834108906
 20
384.8490866636836
 30
0.0
 11
273.1738834108906
 21
395.2254866636835
 31
0.0
  0
LINE
  5
2A4
330
1A
100
AcDbEntity
  8
SEIHIN
  6
CONTINUOUS
 62
     3
100
AcDbLine
 10
247.3604834108905
 20
369.4124866636836
 30
0.0
 11
253.3849834108906
 21
375.4367866636834
 31
0.0
  0
ARC
  5
2A5
330
1A
100
AcDbEntity
  8
SEIHIN
  6
CONTINUOUS
 62
     3
100
AcDbCircle
 10
249.2773834108906
 20
369.2079866636835
 30
0.0
 40
1.499985616597779
100
AcDbArc
 50
134.9972990251463
 51
224.9972990251479
  0
ARC
  5
2A6
330
1A
100
AcDbEntity
  8
SEIHIN
  6
CONTINUOUS
 62
     3
100
AcDbCircle
 10
248.4211834108906
 20
368.3517866636835
 30
0.0
 40
1.499985616597679
100
AcDbArc
 50
134.9972990251471
 51
224.9972990251471
  0
LINE
  5
2A7
330
1A
100
AcDbEntity
  8
SEIHIN
  6
CONTINUOUS
 62
     3
100
AcDbLine
 10
267.4776834108906
 20
365.4878866636835
 30
0.0
 11
255.4048834108905
 21
375.5294866636836
 31
0.0
  0
ARC
  5
2A8
330
1A
100
AcDbEntity
  8
SEIHIN
  6
CONTINUOUS
 62
     3
100
AcDbCircle
 10
254.4456779839088
 20
374.3761864148753
 30
0.0
 40
1.499981954892256
100
AcDbArc
 50
50.24709538860423
 51
135.0025476794084
  0
ARC
  5
2A9
330
1A
100
AcDbEntity
  8
SEIHIN
  6
CONTINUOUS
 62
     3
100
AcDbCircle
 10
263.8579788410562
 20
383.7884076621783
 30
0.0
 40
1.499967536556164
100
AcDbArc
 50
134.9977427319272
 51
218.3765833781395
  0
LINE
  5
2AA
330
1A
100
AcDbEntity
  8
SEIHIN
  6
CONTINUOUS
 62
     3
100
AcDbLine
 10
275.2952834108906
 20
395.2254866636835
 30
0.0
 11
289.7907834108906
 21
380.7296866636836
 31
0.0
  0
ARC
  5
2AB
330
1A
100
AcDbEntity
  8
SEIHIN
  6
CONTINUOUS
 62
     3
100
AcDbCircle
 10
274.2345334108906
 20
394.164886662505
 30
0.0
 40
1.499950260841876
100
AcDbArc
 50
44.99864951257465
 51
135.0013504874253
  0
ARC
  5
2AC
330
1A
100
AcDbEntity
  8
SEIHIN
  6
CONTINUOUS
 62
     3
100
AcDbCircle
 10
297.5692834120692
 20
417.4991366636836
 30
0.0
 40
1.499950260841946
100
AcDbArc
 50
134.9986495125742
 51
225.0013504874257
  0
LINE
  5
2AD
330
1A
100
AcDbEntity
  8
CENTER_L
  6
CENTER
 62
     1
 48
5.0
100
AcDbLine
 10
319.5815834108905
 20
308.0210866636753
 30
0.0
 11
319.5815834108905
 21
379.6517468071432
 31
0.0
  0
LINE
  5
2AE
330
1A
100
AcDbEntity
  8
SEIHIN
  6
CONTINUOUS
 62
     3
100
AcDbLine
 10
375.7787834108905
 20
315.0209866636836
 30
0.0
 11
375.7787834108905
 21
340.0210866636836
 31
0.0
  0
LINE
  5
2AF
330
1A
100
AcDbEntity
  8
SEIHIN
  6
CONTINUOUS
 62
     3
100
AcDbLine
 10
383.5815834108906
 20
339.8010866636835
 30
0.0
 11
383.5815834108906
 21
315.0209866636836
 31
0.0
  0
LINE
  5
2B0
330
1A
100
AcDbEntity
  8
SEIHIN
  6
CONTINUOUS
 62
     3
100
AcDbLine
 10
385.0815834108905
 20
320.0210866636836
 30
0.0
 11
384.5815834108904
 21
315.0209866636836
 31
0.0
  0
TEXT
  5
2B1
330
1A
100
AcDbEntity
  8
ZUWAKU
 62
     7
100
AcDbText
 10
654.2531733678779
 20
15.90287984531518
 30
0.0
 40
8.0
  1
ＧＤ５６
100
AcDbText
  0
ARC
  5
2B6
330
1A
100
AcDbEntity
  8
SEIHIN
  6
CONTINUOUS
 62
     3
100
AcDbCircle
 10
319.5815074536113
 20
209.869742911387
 30
0.0
 40
55.50006841467338
100
AcDbArc
 50
324.5752849326801
 51
349.1366402982723
  0
ARC
  5
2B7
330
1A
100
AcDbEntity
  8
SEIHIN
  6
CONTINUOUS
 62
     3
100
AcDbCircle
 10
319.581515715668
 20
209.8697230852045
 30
0.0
 40
54.00004684822988
100
AcDbArc
 50
286.1274597094178
 51
350.7283589862231
  0
ARC
  5
2B8
330
1A
100
AcDbEntity
  8
SEIHIN
  6
CONTINUOUS
 62
     3
100
AcDbCircle
 10
319.5815009455257
 20
209.8697014743069
 30
0.0
 40
57.00001481074446
100
AcDbArc
 50
269.9998818554949
 51
350.3722757485722
  0
ARC
  5
2B9
330
1A
100
AcDbEntity
  8
SEIHIN
  6
CONTINUOUS
 62
     3
100
AcDbCircle
 10
319.5815275145291
 20
209.8697231169615
 30
0.0
 40
58.50003645345537
100
AcDbArc
 50
269.9998588628179
 51
349.1500197062844
  0
LINE
  5
2BA
330
1A
100
AcDbEntity
  8
SEIHIN
  6
CONTINUOUS
 62
     3
100
AcDbLine
 10
372.8760834108906
 20
201.1696866636836
 30
0.0
 11
318.6015126030428
 21
201.1696866636836
 31
0.0
  0
LINE
  5
2BB
330
1A
100
AcDbEntity
  8
SEIHIN
  6
CONTINUOUS
 62
     3
100
AcDbLine
 10
385.0814834108906
 20
210.5696866636836
 30
0.0
 11
324.4392834108905
 21
210.5696866636836
 31
0.0
  0
LINE
  5
2BC
330
1A
100
AcDbEntity
  8
CENTER_L
  6
CENTER
 62
     1
 48
5.0
100
AcDbLine
 10
319.5814834108906
 20
138.6867866636836
 30
0.0
 11
319.5814834108906
 21
223.2895866636835
 31
0.0
  0
ELLIPSE
  5
2BD
330
1A
100
AcDbEntity
  8
SEIHIN
  6
CONTINUOUS
100
AcDbEllipse
 10
283.1380661959633
 20
201.1696866636836
 30
0.0
 11
0.0
 21
46.0078879573159
 31
0.0
210
0.0
220
0.0
230
1.0
 40
0.8107569999634353
 41
-2.139139352534936
 42
-1.570796326794868
  0
ELLIPSE
  5
2BE
330
1A
100
AcDbEntity
  8
SEIHIN
  6
CONTINUOUS
100
AcDbEllipse
 10
296.8620160770857
 20
201.1696866636836
 30
0.0
 11
0.0
 21
46.0078879573159
 31
0.0
210
0.0
220
0.0
230
1.0
 40
0.8107569999634353
 41
-2.914903452263017
 42
-1.570796326794882
  0
ELLIPSE
  5
2BF
330
1A
100
AcDbEntity
  8
SEIHIN
  6
CONTINUOUS
100
AcDbEllipse
 10
296.8620160770857
 20
201.1696866636836
 30
0.0
 11
0.0
 21
47.64845034665144
 31
0.0
210
0.0
220
0.0
230
1.0
 40
0.8131606078049784
 41
-2.847282613298993
 42
-1.570796326794867
  0
ARC
  5
2C0
330
1A
100
AcDbEntity
  8
SEIHIN
  6
CONTINUOUS
 62
     3
100
AcDbCircle
 10
333.0814682843763
 20
157.5843671355428
 30
0.0
 40
1.500015126641254
100
AcDbArc
 50
284.4779597350403
 51
0.0007459125086809
  0
ARC
  5
2C1
330
1A
100
AcDbEntity
  8
SEIHIN
  6
CONTINUOUS
 62
     3
100
AcDbCircle
 10
319.5815987143642
 20
209.8697013089225
 30
0.0
 40
55.50001464565651
100
AcDbArc
 50
269.9997777301423
 51
284.4772787228842
  0
ARC
  5
2C2
330
1A
100
AcDbEntity
  8
SEIHIN
  6
CONTINUOUS
 62
     3
100
AcDbCircle
 10
319.5815524320861
 20
209.8696778967108
 30
0.0
 40
55.49999123328452
100
AcDbArc
 50
255.5223052645579
 51
269.9998255098616
  0
LINE
  5
2C3
330
1A
100
AcDbEntity
  8
SEIHIN
  6
CONTINUOUS
 62
     3
100
AcDbLine
 10
314.9350834108907
 20
177.3593866636835
 30
0.0
 11
327.6377915499239
 21
175.1732135235933
 31
0.0
  0
LINE
  5
2C4
330
1A
100
AcDbEntity
  8
SEIHIN
  6
CONTINUOUS
 62
     3
100
AcDbLine
 10
314.4351834108906
 20
176.4306866636835
 30
0.0
 11
327.1110855001222
 21
174.2491574147661
 31
0.0
  0
LINE
  5
2C5
330
1A
100
AcDbEntity
  8
SEIHIN
  6
CONTINUOUS
 62
     3
100
AcDbLine
 10
307.5320834108907
 20
166.7526866636836
 30
0.0
 11
323.1368480069656
 21
168.5129606444677
 31
0.0
  0
ARC
  5
2C6
330
1A
100
AcDbEntity
  8
SEIHIN
  6
CONTINUOUS
 62
     3
100
AcDbCircle
 10
306.0814985374047
 20
157.5843671355428
 30
0.0
 40
1.500015126641257
100
AcDbArc
 50
179.9992540874913
 51
255.5220402649597
  0
ARC
  5
2C7
330
1A
100
AcDbEntity
  8
SEIHIN
  6
CONTINUOUS
 62
     3
100
AcDbCircle
 10
303.1462999055662
 20
158.4314421234276
 30
0.0
 40
1.500011744871196
100
AcDbArc
 50
252.2814217598943
 51
343.8729551133443
  0
LINE
  5
2C8
330
1A
100
AcDbEntity
  8
SEIHIN
  6
CONTINUOUS
 62
     3
100
AcDbLine
 10
304.5814834108906
 20
157.5843866636836
 30
0.0
 11
304.5814834108906
 21
157.9947866636835
 31
0.0
  0
ARC
  5
2C9
330
1A
100
AcDbEntity
  8
SEIHIN
  6
CONTINUOUS
 62
     3
100
AcDbCircle
 10
306.0814985374049
 20
157.5843671355428
 30
0.0
 40
1.500015126641257
100
AcDbArc
 50
179.9992540874913
 51
255.5220402649597
  0
LINE
  5
2CA
330
1A
100
AcDbEntity
  8
SEIHIN
  6
CONTINUOUS
 62
     3
100
AcDbLine
 10
307.5253834108906
 20
157.9947866636835
 30
0.0
 11
304.5814834108907
 21
157.9947866636835
 31
0.0
  0
LINE
  5
2CB
330
1A
100
AcDbEntity
  8
SEIHIN
  6
CONTINUOUS
 62
     3
100
AcDbLine
 10
304.5814834108907
 20
157.5843866636836
 30
0.0
 11
304.5814834108907
 21
157.9947866636835
 31
0.0
  0
ARC
  5
2CC
330
1A
100
AcDbEntity
  8
SEIHIN
  6
CONTINUOUS
 62
     3
100
AcDbCircle
 10
303.1462999055662
 20
158.4314421234276
 30
0.0
 40
1.500011744871196
100
AcDbArc
 50
252.2814217598943
 51
343.8729551133443
  0
ARC
  5
2CD
330
1A
100
AcDbEntity
  8
SEIHIN
  6
CONTINUOUS
 62
     3
100
AcDbCircle
 10
319.5813880822037
 20
209.8696389849035
 30
0.0
 40
55.50007180680806
100
AcDbArc
 50
287.7194402985186
 51
305.4247620874388
  0
ARC
  5
2CE
330
1A
100
AcDbEntity
  8
SEIHIN
  6
CONTINUOUS
 62
     3
100
AcDbCircle
 10
336.0167077965164
 20
158.4314736565341
 30
0.0
 40
1.500059775468556
100
AcDbArc
 50
196.1277681970112
 51
287.7203626797141
  0
LINE
  5
2CF
330
1A
100
AcDbEntity
  8
SEIHIN
  6
CONTINUOUS
 62
     3
100
AcDbLine
 10
334.5814834108905
 20
157.5843866636836
 30
0.0
 11
334.5814834108905
 21
157.9947866636835
 31
0.0
  0
ARC
  5
2D0
330
1A
100
AcDbEntity
  8
SEIHIN
  6
CONTINUOUS
 62
     3
100
AcDbCircle
 10
319.5814834108908
 20
209.8696866636837
 30
0.0
 40
55.50005540357584
100
AcDbArc
 50
305.4246533624538
 51
324.5753466375454
  0
ARC
  5
2D1
330
1A
100
AcDbEntity
  8
SEIHIN
  6
CONTINUOUS
 62
     3
100
AcDbCircle
 10
352.8981797100385
 20
167.3725520802356
 30
0.0
 40
1.500018566540533
100
AcDbArc
 50
308.0970116335085
 51
39.68863214329108
  0
ARC
  5
2D2
330
1A
100
AcDbEntity
  8
SEIHIN
  6
CONTINUOUS
 62
     3
100
AcDbCircle
 10
319.5813073827577
 20
209.8695513190134
 30
0.0
 40
55.50003951624208
100
AcDbArc
 50
307.016700875233
 51
308.0957504222076
  0
ARC
  5
2D3
330
1A
100
AcDbEntity
  8
SEIHIN
  6
CONTINUOUS
 62
     3
100
AcDbCircle
 10
350.8817905524644
 20
165.8663329045893
 30
0.0
 40
1.499991424955183
100
AcDbArc
 50
305.4223119018542
 51
37.01609043431277
  0
ARC
  5
2D4
330
1A
100
AcDbEntity
  8
SEIHIN
  6
CONTINUOUS
 62
     3
100
AcDbCircle
 10
363.5849371699847
 20
178.5695795221097
 30
0.0
 40
1.499991424955097
100
AcDbArc
 50
232.9839095656915
 51
324.5776880981502
  0
ARC
  5
2D5
330
1A
100
AcDbEntity
  8
SEIHIN
  6
CONTINUOUS
 62
     3
100
AcDbCircle
 10
362.0787179943385
 20
176.5531903645356
 30
0.0
 40
1.500018566540431
100
AcDbArc
 50
230.3113678567158
 51
321.9029883664968
  0
ARC
  5
2D6
330
1A
100
AcDbEntity
  8
SEIHIN
  6
CONTINUOUS
 62
     3
100
AcDbCircle
 10
319.5816187555607
 20
209.8698626918241
 30
0.0
 40
55.50003951624667
100
AcDbArc
 50
321.9042495777861
 51
322.9832991247607
  0
ARC
  5
2D7
330
1A
100
AcDbEntity
  8
SEIHIN
  6
CONTINUOUS
 62
     3
100
AcDbCircle
 10
320.4392834108907
 20
205.1696866636835
 30
0.0
 40
3.999999999999943
100
AcDbArc
 50
270.0000000000008
 51
0.0000000000008142
  0
LINE
  5
2D8
330
1A
100
AcDbEntity
  8
SEIHIN
  6
CONTINUOUS
 62
     3
100
AcDbLine
 10
324.4392834108905
 20
210.5697866636836
 30
0.0
 11
324.4392834108905
 21
205.1696866636836
 31
0.0
  0
ARC
  5
2D9
330
1A
100
AcDbEntity
  8
SEIHIN
  6
CONTINUOUS
 62
     3
100
AcDbCircle
 10
340.4361834108907
 20
205.1696866636836
 30
0.0
 40
4.0
100
AcDbArc
 50
270.0
 51
0.0
  0
ARC
  5
2DA
330
1A
100
AcDbEntity
  8
SEIHIN
  6
CONTINUOUS
 62
     3
100
AcDbCircle
 10
337.9612834108906
 20
205.1696866636836
 30
0.0
 40
4.0
100
AcDbArc
 50
270.0
 51
0.0
  0
LINE
  5
2DB
330
1A
100
AcDbEntity
  8
SEIHIN
  6
CONTINUOUS
 62
     3
100
AcDbLine
 10
341.9612834108906
 20
210.5696866636836
 30
0.0
 11
341.9612834108906
 21
205.1696866636836
 31
0.0
  0
LINE
  5
2DC
330
1A
100
AcDbEntity
  8
SEIHIN
  6
CONTINUOUS
 62
     3
100
AcDbLine
 10
344.4361834108907
 20
210.5696866636836
 30
0.0
 11
344.4361834108907
 21
205.1696866636836
 31
0.0
  0
ARC
  5
2DD
330
1A
100
AcDbEntity
  8
NIKITOI
  6
CONTINUOUS
 62
     8
 48
5.0
100
AcDbCircle
 10
379.1313002459402
 20
205.8697478585821
 30
0.0
 40
3.999981474645155
100
AcDbArc
 50
222.570219189405
 51
171.2362504387284
  0
ARC
  5
2DE
330
1A
100
AcDbEntity
  8
SEIHIN
  6
CONTINUOUS
 62
     3
100
AcDbCircle
 10
378.0814834115156
 20
205.1696866643086
 30
0.0
 40
4.000000000625
100
AcDbArc
 50
269.9999999910472
 51
359.9985675965597
  0
ARC
  5
2DF
330
1A
100
AcDbEntity
  8
SEIHIN
  6
CONTINUOUS
 62
     3
100
AcDbCircle
 10
379.5814834108905
 20
205.1696866636835
 30
0.0
 40
5.499999999999985
100
AcDbArc
 50
270.0000000000012
 51
0.0000000000010363
  0
ARC
  5
2E0
330
1A
100
AcDbEntity
  8
SEIHIN
  6
CONTINUOUS
 62
     3
100
AcDbCircle
 10
379.5814834108906
 20
205.1696866636836
 30
0.0
 40
4.0
100
AcDbArc
 50
270.0
 51
0.0
  0
LINE
  5
2E1
330
1A
100
AcDbEntity
  8
SEIHIN
  6
CONTINUOUS
 62
     3
100
AcDbLine
 10
379.5814834108906
 20
201.1696866636836
 30
0.0
 11
372.8760834108906
 21
201.1696866636836
 31
0.0
  0
ARC
  5
2E2
330
1A
100
AcDbEntity
  8
SEIHIN
  6
CONTINUOUS
 62
     3
100
AcDbCircle
 10
372.6138818372691
 20
199.6925889165819
 30
0.0
 40
1.499982936569642
100
AcDbArc
 50
349.1364731650155
 51
80.73101794650037
  0
ARC
  5
2E3
330
1A
100
AcDbEntity
  8
SEIHIN
  6
CONTINUOUS
 62
     3
100
AcDbCircle
 10
376.7646968331676
 20
200.1696980013121
 30
0.0
 40
0.9999886624616152
100
AcDbArc
 50
90.00076904854228
 51
170.3754878570514
  0
ARC
  5
2E4
330
1A
100
AcDbEntity
  8
SEIHIN
  6
CONTINUOUS
 62
     3
100
AcDbCircle
 10
378.0179016644113
 20
198.6697017514111
 30
0.0
 40
0.9999849124390294
100
AcDbArc
 50
90.00104586547497
 51
169.1529576920695
  0
LINE
  5
2E5
330
1A
100
AcDbEntity
  8
SEIHIN
  6
CONTINUOUS
 62
     3
100
AcDbLine
 10
379.5814834108906
 20
199.6696866636835
 30
0.0
 11
378.0178834108906
 21
199.6696866636835
 31
0.0
  0
CIRCLE
  5
2E6
330
1A
100
AcDbEntity
  8
NIKITOI
100
AcDbCircle
 10
379.1313186502825
 20
205.8696872919463
 30
0.0
 40
2.7
  0
LINE
  5
2E7
330
1A
100
AcDbEntity
  8
SEIHIN
  6
CONTINUOUS
 62
     3
100
AcDbLine
 10
382.0814834108906
 20
210.5696866636836
 30
0.0
 11
382.0814834108906
 21
205.1696866636836
 31
0.0
  0
LINE
  5
2E8
330
1A
100
AcDbEntity
  8
SEIHIN
  6
CONTINUOUS
 62
     3
100
AcDbLine
 10
385.0814834108905
 20
205.1695866636836
 30
0.0
 11
385.0814834108905
 21
210.5696866636836
 31
0.0
  0
LINE
  5
2E9
330
1A
100
AcDbEntity
  8
SEIHIN
  6
CONTINUOUS
 62
     3
100
AcDbLine
 10
383.5814834108906
 20
205.1695866636836
 30
0.0
 11
383.5814834108906
 21
210.5696866636836
 31
0.0
  0
LINE
  5
2EA
330
1A
100
AcDbEntity
  8
SEIHIN
  6
CONTINUOUS
 62
     3
100
AcDbLine
 10
384.5815834108904
 20
315.0209866636836
 30
0.0
 11
319.5815834108905
 21
315.0210866636836
 31
0.0
  0
LINE
  5
2EE
330
1A
100
AcDbEntity
  8
SEIHIN
  6
CONTINUOUS
 62
     3
100
AcDbLine
 10
345.6527834108906
 20
436.5906866636835
 30
0.0
 11
383.5815834108906
 21
398.6610866636834
 31
0.0
  0
LINE
  5
2EF
330
1A
100
AcDbEntity
  8
SEIHIN
  6
CONTINUOUS
 62
     3
100
AcDbLine
 10
344.4364834108906
 20
435.6856866636836
 30
0.0
 11
381.4957834108906
 21
398.6256866636836
 31
0.0
  0
LINE
  5
2F0
330
1A
100
AcDbEntity
  8
SEIHIN
  6
CONTINUOUS
 62
     3
100
AcDbLine
 10
339.1433834108906
 20
430.0813866636836
 30
0.0
 11
373.7903834108907
 21
395.4338866636836
 31
0.0
  0
LINE
  5
2F1
330
1A
100
AcDbEntity
  8
SEIHIN
  6
CONTINUOUS
 62
     3
100
AcDbLine
 10
311.0041834108906
 20
401.9426866636837
 30
0.0
 11
339.1434834108906
 21
430.0814866636835
 31
0.0
  0
LINE
  5
2F2
330
1A
100
AcDbEntity
  8
SEIHIN
  6
CONTINUOUS
 62
     3
100
AcDbLine
 10
335.2543834108907
 20
431.8492866636836
 30
0.0
 11
308.1757834108906
 21
404.7711866636835
 31
0.0
  0
LINE
  5
2F3
330
1A
100
AcDbEntity
  8
SEIHIN
  6
CONTINUOUS
 62
     3
100
AcDbLine
 10
372.8760834108906
 20
341.0210866636836
 30
0.0
 11
334.5815834108906
 21
341.0210866636836
 31
0.0
  0
LINE
  5
2F4
330
1A
100
AcDbEntity
  8
SEIHIN
  6
CONTINUOUS
 62
     3
100
AcDbLine
 10
319.5814834108906
 20
340.0210866636836
 30
0.0
 11
372.8760834108906
 21
340.0210866636836
 31
0.0
  0
LINE
  5
2F5
330
1A
100
AcDbEntity
  8
SEIHIN
  6
CONTINUOUS
 62
     3
100
AcDbLine
 10
334.5815834108906
 20
345.0210866636836
 30
0.0
 11
374.3761834108906
 21
345.0210866636836
 31
0.0
  0
LINE
  5
2F6
330
1A
100
AcDbEntity
  8
SEIHIN
  6
CONTINUOUS
 62
     3
100
AcDbLine
 10
372.5869834108905
 20
323.0210866636836
 30
0.0
 11
364.0671834108906
 21
323.0210866636836
 31
0.0
  0
LINE
  5
2F7
330
1A
100
AcDbEntity
  8
SEIHIN
  6
CONTINUOUS
 62
     3
100
AcDbLine
 10
304.5815834108906
 20
324.5210866636836
 30
0.0
 11
304.5815834108906
 21
345.0210866636836
 31
0.0
  0
ARC
  5
2F8
330
1A
100
AcDbEntity
  8
SEIHIN
  6
CONTINUOUS
 62
     3
100
AcDbCircle
 10
303.0815834108906
 20
324.5210866636836
 30
0.0
 40
1.5
100
AcDbArc
 50
270.0
 51
0.0
  0
LINE
  5
2F9
330
1A
100
AcDbEntity
  8
SEIHIN
  6
CONTINUOUS
 62
     3
100
AcDbLine
 10
334.5815834108906
 20
324.5210866636836
 30
0.0
 11
334.5815834108906
 21
345.0210866636836
 31
0.0
  0
LINE
  5
2FA
330
1A
100
AcDbEntity
  8
SEIHIN
  6
CONTINUOUS
 62
     3
100
AcDbLine
 10
350.7561834108905
 20
323.0210866636836
 30
0.0
 11
336.0815834108906
 21
323.0210866636836
 31
0.0
  0
ARC
  5
2FB
330
1A
100
AcDbEntity
  8
SEIHIN
  6
CONTINUOUS
 62
     3
100
AcDbCircle
 10
336.0815834108906
 20
324.5210866636836
 30
0.0
 40
1.5
100
AcDbArc
 50
180.0
 51
270.0
  0
LINE
  5
2FC
330
1A
100
AcDbEntity
  8
SEIHIN
  6
CONTINUOUS
 62
     3
100
AcDbLine
 10
352.2460834108905
 20
324.3480866636836
 30
0.0
 11
354.0658834108905
 21
340.0210866636836
 31
0.0
  0
LINE
  5
2FD
330
1A
100
AcDbEntity
  8
SEIHIN
  6
CONTINUOUS
 62
     3
100
AcDbLine
 10
361.1368834108906
 20
340.0210866636836
 30
0.0
 11
362.5734834108906
 21
324.3838866636835
 31
0.0
  0
ARC
  5
2FE
330
1A
100
AcDbEntity
  8
SEIHIN
  6
CONTINUOUS
 62
     3
100
AcDbCircle
 10
350.7561330708675
 20
324.521041830677
 30
0.0
 40
1.499955167838048
100
AcDbArc
 50
270.0019229047089
 51
353.3786736398539
  0
ARC
  5
2FF
330
1A
100
AcDbEntity
  8
SEIHIN
  6
CONTINUOUS
 62
     3
100
AcDbCircle
 10
364.0671900731479
 20
324.5210805853256
 30
0.0
 40
1.49999392165675
100
AcDbArc
 50
185.2477771362768
 51
269.9997455194871
  0
LINE
  5
304
330
1A
100
AcDbEntity
  8
SEIHIN
  6
CONTINUOUS
 62
     3
100
AcDbLine
 10
374.3761834108906
 20
345.0211866636836
 30
0.0
 11
374.3761834108906
 21
394.0195866636834
 31
0.0
  0
LINE
  5
305
330
1A
100
AcDbEntity
  8
SEIHIN
  6
CONTINUOUS
 62
     3
100
AcDbLine
 10
382.0815834108906
 20
344.8009866636836
 30
0.0
 11
382.0815834108906
 21
397.2114866636836
 31
0.0
  0
LINE
  5
306
330
1A
100
AcDbEntity
  8
SEIHIN
  6
CONTINUOUS
 62
     3
100
AcDbLine
 10
383.5815834108906
 20
345.0210866636836
 30
0.0
 11
383.5815834108906
 21
398.6610866636834
 31
0.0
  0
LINE
  5
307
330
1A
100
AcDbEntity
  8
SEIHIN
  6
CONTINUOUS
 62
     3
100
AcDbLine
 10
374.3761834108906
 20
345.0210866636836
 30
0.0
 11
372.8761834108906
 21
341.0210866636836
 31
0.0
  0
LINE
  5
308
330
1A
100
AcDbEntity
  8
SEIHIN
  6
CONTINUOUS
 62
     3
100
AcDbLine
 10
382.0815834108906
 20
344.8009866636836
 30
0.0
 11
383.5815834108906
 21
339.8010866636835
 31
0.0
  0
LINE
  5
309
330
1A
100
AcDbEntity
  8
SEIHIN
  6
CONTINUOUS
 62
     3
100
AcDbLine
 10
383.5815834108906
 20
345.0210866636836
 30
0.0
 11
385.0815834108905
 21
340.0210866636836
 31
0.0
  0
LINE
  5
30A
330
1A
100
AcDbEntity
  8
SEIHIN
  6
CONTINUOUS
 62
     3
100
AcDbLine
 10
372.8761834108906
 20
324.5210866636836
 30
0.0
 11
372.8761834108906
 21
341.0210866636836
 31
0.0
  0
LINE
  5
30B
330
1A
100
AcDbEntity
  8
SEIHIN
  6
CONTINUOUS
 62
     3
100
AcDbLine
 10
374.0869834108906
 20
324.5210866636836
 30
0.0
 11
374.0869834108906
 21
340.0210866636836
 31
0.0
  0
ARC
  5
30C
330
1A
100
AcDbEntity
  8
SEIHIN
  6
CONTINUOUS
 62
     3
100
AcDbCircle
 10
372.5869834108905
 20
324.5210866636837
 30
0.0
 40
1.500000000000056
100
AcDbArc
 50
269.9999999999977
 51
359.9999999999977
  0
ARC
  5
30D
330
1A
100
AcDbEntity
  8
SEIHIN
  6
CONTINUOUS
 62
     3
100
AcDbCircle
 10
371.3761834108907
 20
324.5210866636836
 30
0.0
 40
1.5
100
AcDbArc
 50
270.0
 51
0.0
  0
LINE
  5
30E
330
1A
100
AcDbEntity
  8
SEIHIN
  6
CONTINUOUS
 62
     3
100
AcDbLine
 10
374.0869834108906
 20
340.0210866636836
 30
0.0
 11
375.7786834108906
 21
340.0210866636836
 31
0.0
  0
LINE
  5
30F
330
1A
100
AcDbEntity
  8
SEIHIN
  6
CONTINUOUS
 62
     3
100
AcDbLine
 10
385.0815834108905
 20
320.0210866636836
 30
0.0
 11
385.0815834108905
 21
340.0211866636835
 31
0.0
  0
ARC
  5
310
330
1A
100
AcDbEntity
  8
SEIHIN
  6
CONTINUOUS
 62
     3
100
AcDbCircle
 10
372.3761576449724
 20
394.0196488650024
 30
0.0
 40
2.000025766885519
100
AcDbArc
 50
359.9982180864299
 51
45.00024374594921
  0
ARC
  5
311
330
1A
100
AcDbEntity
  8
SEIHIN
  6
CONTINUOUS
 62
     3
100
AcDbCircle
 10
380.0815930009366
 20
397.2114635112646
 30
0.0
 40
1.999990410088032
100
AcDbArc
 50
0.0006632711300427
 51
45.0006632711298
  0
LINE
  5
312
330
1A
100
AcDbEntity
  8
SEIHIN
  6
CONTINUOUS
 62
     3
100
AcDbLine
 10
341.9615834108906
 20
440.2817866636836
 30
0.0
 11
324.4395834108907
 21
457.8040866636834
 31
0.0
  0
LINE
  5
313
330
1A
100
AcDbEntity
  8
SEIHIN
  6
CONTINUOUS
 62
     3
100
AcDbLine
 10
329.0358834108906
 20
455.3290866636836
 30
0.0
 11
325.1467834108907
 21
458.5111866636836
 31
0.0
  0
LINE
  5
314
330
1A
100
AcDbEntity
  8
SEIHIN
  6
CONTINUOUS
 62
     3
100
AcDbLine
 10
318.9221834108906
 20
452.2866866636836
 30
0.0
 11
336.5997834108906
 21
434.6087866636836
 31
0.0
  0
LINE
  5
315
330
1A
100
AcDbEntity
  8
SEIHIN
  6
CONTINUOUS
 62
     3
100
AcDbLine
 10
329.0358834108906
 20
455.3290866636836
 30
0.0
 11
343.1778834108906
 21
441.1867866636835
 31
0.0
  0
LINE
  5
316
330
1A
100
AcDbEntity
  8
SEIHIN
  6
CONTINUOUS
 62
     3
100
AcDbLine
 10
324.4434834108906
 20
444.3727866636835
 30
0.0
 11
335.4034834108906
 21
433.4125866636835
 31
0.0
  0
LINE
  5
317
330
1A
100
AcDbEntity
  8
SEIHIN
  6
CONTINUOUS
 62
     3
100
AcDbLine
 10
323.5871834108905
 20
443.5165866636836
 30
0.0
 11
335.2543834108907
 21
431.8492866636836
 31
0.0
  0
LINE
  5
318
330
1A
100
AcDbEntity
  8
SEIHIN
  6
CONTINUOUS
 62
     3
100
AcDbLine
 10
326.2463834108905
 20
424.2555866636836
 30
0.0
 11
316.2050834108906
 21
436.3286866636836
 31
0.0
  0
LINE
  5
319
330
1A
100
AcDbEntity
  8
SEIHIN
  6
CONTINUOUS
 62
     3
100
AcDbLine
 10
308.8770834108907
 20
429.0514866636836
 30
0.0
 11
321.2462834108906
 21
419.2555866636835
 31
0.0
  0
ARC
  5
31A
330
1A
100
AcDbEntity
  8
SEIHIN
  6
CONTINUOUS
 62
     3
100
AcDbCircle
 10
307.9459624123957
 20
427.8755912335181
 30
0.0
 40
1.499967536555946
100
AcDbArc
 50
51.6234166218588
 51
135.0022572680693
  0
LINE
  5
31B
330
1A
100
AcDbEntity
  8
SEIHIN
  6
CONTINUOUS
 62
     3
100
AcDbLine
 10
322.3220834108906
 20
444.3728866636835
 30
0.0
 11
316.2976834108906
 21
438.3484866636835
 31
0.0
  0
ARC
  5
31C
330
1A
100
AcDbEntity
  8
SEIHIN
  6
CONTINUOUS
 62
     3
100
AcDbCircle
 10
317.3582836596988
 20
437.2877920906653
 30
0.0
 40
1.499981954892244
100
AcDbArc
 50
134.9974523205919
 51
219.7529046113944
  0
ARC
  5
31D
330
1A
100
AcDbEntity
  8
SEIHIN
  6
CONTINUOUS
 62
     3
100
AcDbCircle
 10
322.5266334108906
 20
442.4558866625051
 30
0.0
 40
1.500020971520117
100
AcDbArc
 50
45.00135048742445
 51
134.9986495125755
  0
ARC
  5
31E
330
1A
100
AcDbEntity
  8
SEIHIN
  6
CONTINUOUS
 62
     3
100
AcDbCircle
 10
323.3828334108906
 20
443.3121866625049
 30
0.0
 40
1.500020971520117
100
AcDbArc
 50
45.00135048742445
 51
134.9986495125755
  0
LINE
  5
31F
330
1A
100
AcDbEntity
  8
SEIHIN
  6
CONTINUOUS
 62
     3
100
AcDbLine
 10
335.4034834108906
 20
433.4125866636835
 30
0.0
 11
336.5996834108906
 21
434.6087866636836
 31
0.0
  0
LINE
  5
320
330
1A
100
AcDbEntity
  8
SEIHIN
  6
CONTINUOUS
 62
     3
100
AcDbLine
 10
339.1434834108906
 20
430.0814866636835
 30
0.0
 11
335.2543834108907
 21
431.8492866636836
 31
0.0
  0
LINE
  5
321
330
1A
100
AcDbEntity
  8
SEIHIN
  6
CONTINUOUS
 62
     3
100
AcDbLine
 10
344.4364834108906
 20
435.6856866636836
 30
0.0
 11
341.9615834108906
 21
440.2817866636836
 31
0.0
  0
LINE
  5
322
330
1A
100
AcDbEntity
  8
SEIHIN
  6
CONTINUOUS
 62
     3
100
AcDbLine
 10
345.6527834108906
 20
436.5906866636835
 30
0.0
 11
343.1778834108906
 21
441.1867866636835
 31
0.0
  0
LINE
  5
32A
330
1A
100
AcDbEntity
  8
SEIHIN
  6
CONTINUOUS
 62
     3
100
AcDbLine
 10
333.439762510488
 20
377.8919549578423
 30
0.0
 11
374.2238834108906
 21
394.7850866636836
 31
0.0
  0
LINE
  5
32B
330
1A
100
AcDbEntity
  8
CENTER_L
100
AcDbLine
 10
390.5815779191837
 20
401.5605438484312
 30
0.0
 11
247.081591128567
 21
342.1216304009513
 31
0.0
  0
ARC
  5
330
330
1A
100
AcDbEntity
  8
SEIHIN
  6
CONTINUOUS
 62
     3
100
AcDbCircle
 10
241.9040834108907
 20
205.1696866636835
 30
0.0
 40
5.500000000000042
100
AcDbArc
 50
179.9999999999995
 51
269.9999999999995
  0
LINE
  5
331
330
1A
100
AcDbEntity
  8
SEIHIN
  6
CONTINUOUS
 62
     3
100
AcDbLine
 10
236.4040834108906
 20
205.1695866636836
 30
0.0
 11
236.4040834108906
 21
210.5696866636836
 31
0.0
  0
LINE
  5
332
330
1A
100
AcDbEntity
  8
SEIHIN
  6
CONTINUOUS
 62
     3
100
AcDbLine
 10
254.7814834108906
 20
205.1695866636836
 30
0.0
 11
254.7814834108906
 21
210.5696866636836
 31
0.0
  0
ARC
  5
333
330
1A
100
AcDbEntity
  8
SEIHIN
  6
CONTINUOUS
 62
     3
100
AcDbCircle
 10
259.5814834108906
 20
205.1696866636835
 30
0.0
 40
4.799999999999985
100
AcDbArc
 50
179.9999999999989
 51
269.9999999999989
  0
LINE
  5
335
330
1A
100
AcDbEntity
  8
SEIHIN
  6
CONTINUOUS
 62
     3
100
AcDbLine
 10
259.5814834108906
 20
200.3696866636835
 30
0.0
 11
261.1451834108907
 21
200.3696866636835
 31
0.0
  0
ARC
  5
336
330
1A
100
AcDbEntity
  8
SEIHIN
  6
CONTINUOUS
 62
     3
100
AcDbCircle
 10
319.5815214930273
 20
209.8696551871914
 30
0.0
 40
57.79996852367074
100
AcDbArc
 50
190.8497258544944
 51
269.9998647602066
  0
ARC
  5
337
330
1A
100
AcDbEntity
  8
SEIHIN
  6
CONTINUOUS
 62
     3
100
AcDbCircle
 10
261.1451651573698
 20
198.6697017514113
 30
0.0
 40
1.699984912438857
100
AcDbArc
 50
10.84704230792283
 51
89.99895413451689
  0
LINE
  5
338
330
1A
100
AcDbEntity
  8
SEIHIN
  6
CONTINUOUS
 62
     3
100
AcDbLine
 10
384.3814834108905
 20
205.1695866636836
 30
0.0
 11
384.3814834108905
 21
210.5696866636836
 31
0.0
  0
ARC
  5
339
330
1A
100
AcDbEntity
  8
SEIHIN
  6
CONTINUOUS
 62
     3
100
AcDbCircle
 10
379.5814834108905
 20
205.1696866636835
 30
0.0
 40
4.799999999999985
100
AcDbArc
 50
270.0000000000012
 51
0.0000000000010363
  0
LINE
  5
33A
330
1A
100
AcDbEntity
  8
SEIHIN
  6
CONTINUOUS
 62
     3
100
AcDbLine
 10
379.5814834108906
 20
200.3696866636835
 30
0.0
 11
378.0178834108906
 21
200.3696866636835
 31
0.0
  0
ARC
  5
33B
330
1A
100
AcDbEntity
  8
SEIHIN
  6
CONTINUOUS
 62
     3
100
AcDbCircle
 10
378.0179016644113
 20
198.6697017514111
 30
0.0
 40
1.699984912439029
100
AcDbArc
 50
90.00104586547497
 51
169.1529576920695
  0
ARC
  5
33C
330
1A
100
AcDbEntity
  8
SEIHIN
  6
CONTINUOUS
 62
     3
100
AcDbCircle
 10
319.5815275145291
 20
209.8697231169615
 30
0.0
 40
57.80003645345536
100
AcDbArc
 50
269.9998588628179
 51
349.1500197062844
  0
LINE
  5
346
330
1A
100
AcDbEntity
  8
SEIHIN
100
AcDbLine
 10
498.6425388218667
 20
199.6696866636835
 30
0.0
 11
641.1327667894948
 21
199.6696866636836
 31
0.0
  0
LINE
  5
377
330
1A
100
AcDbEntity
  8
SEIHIN
100
AcDbLine
 10
503.6425388218669
 20
199.6696866636835
 30
0.0
 11
503.6425388218669
 21
151.3696866635228
 31
0.0
  0
LINE
  5
378
330
1A
100
AcDbEntity
  8
SEIHIN
100
AcDbLine
 10
498.6425388218667
 20
210.5696866636836
 30
0.0
 11
498.6425388218667
 21
152.0696866635228
 31
0.0
  0
LINE
  5
3B4
330
1A
100
AcDbEntity
  8
SEIHIN
100
AcDbLine
 10
503.6425388218669
 20
151.3696866635228
 30
0.0
 11
523.6426667894948
 21
151.3696866635228
 31
0.0
  0
LINE
  5
3B5
330
1A
100
AcDbEntity
  8
SEIHIN
100
AcDbLine
 10
498.6425388218667
 20
210.5696866636836
 30
0.0
 11
642.1327667894948
 21
210.5696866636836
 31
0.0
  0
LINE
  5
3B6
330
1A
100
AcDbEntity
  8
SEIHIN
100
AcDbLine
 10
498.6425388218669
 20
152.0696866635228
 30
0.0
 11
503.6425388218669
 21
151.3696866635228
 31
0.0
  0
LINE
  5
3BE
330
1A
100
AcDbEntity
  8
SEIHIN
100
AcDbLine
 10
642.1327667894948
 20
210.5696866636836
 30
0.0
 11
642.1327667894948
 21
200.6696866636835
 31
0.0
  0
LINE
  5
3BF
330
1A
100
AcDbEntity
  8
SEIHIN
100
AcDbLine
 10
638.9506667894947
 20
210.5696866636836
 30
0.0
 11
638.9506667894948
 21
200.6696866636835
 31
0.0
  0
LINE
  5
3C0
330
1A
100
AcDbEntity
  8
SEIHIN
100
AcDbLine
 10
523.6426667894948
 20
210.5696866636836
 30
0.0
 11
523.6426667894948
 21
151.3696866635228
 31
0.0
  0
LINE
  5
3C1
330
1A
100
AcDbEntity
  8
SEIHIN
100
AcDbLine
 10
528.6426667894947
 20
210.5696866636836
 30
0.0
 11
528.6426667894947
 21
152.8696866635228
 31
0.0
  0
LINE
  5
3C2
330
1A
100
AcDbEntity
  8
SEIHIN
100
AcDbLine
 10
528.6426667894947
 20
152.8696866635228
 30
0.0
 11
574.9576681468563
 21
152.8696866635228
 31
0.0
  0
LINE
  5
3C3
330
1A
100
AcDbEntity
  8
SEIHIN
100
AcDbLine
 10
528.6426667894947
 20
152.8696866635228
 30
0.0
 11
523.6426667894948
 21
151.3696866635228
 31
0.0
  0
LINE
  5
3C7
330
1A
100
AcDbEntity
  8
SEIHIN
100
AcDbLine
 10
578.4932994552559
 20
151.3696866635228
 30
0.0
 11
592.9891070892219
 21
151.3696866635228
 31
0.0
  0
ELLIPSE
  5
3CC
330
1A
100
AcDbEntity
  8
SEIHIN
100
AcDbEllipse
 10
555.7733269329544
 20
199.6696866636835
 30
0.0
 11
0.0
 21
-46.80000000016071
 31
0.0
210
0.0
220
0.0
230
1.0
 40
0.5008954745018929
 41
0.0
 42
1.549653540312292
  0
ELLIPSE
  5
3CE
330
1A
100
AcDbEntity
  8
SEIHIN
100
AcDbEllipse
 10
574.9576681468563
 20
199.6696866636835
 30
0.0
 11
0.0
 21
46.80000000016071
 31
0.0
210
0.0
220
0.0
230
1.0
 40
0.855087169688401
 41
3.141592653589793
 42
4.691403343792975
  0
SPLINE
  5
3CF
330
1A
100
AcDbEntity
  8
SEIHIN
100
AcDbSpline
210
0.0
220
0.0
230
1.0
 70
     8
 71
     3
 72
    18
 73
    14
 74
     0
 42
0.0000000001
 43
0.0000000001
 40
3.225358000279955
 40
3.225358000279955
 40
3.225358000279955
 40
3.225358000279955
 40
3.403392041388947
 40
3.403392041388947
 40
3.665191429188101
 40
3.665191429188101
 40
3.926990816987255
 40
3.926990816987255
 40
4.188790204786409
 40
4.188790204786409
 40
4.450589592585563
 40
4.450589592585563
 40
4.689791791311971
 40
4.689791791311971
 40
4.689791791311971
 40
4.689791791311971
 10
578.1539240797295
 20
151.5136674745536
 30
0.0
 10
580.4473503599464
 20
151.7200578681962
 30
0.0
 10
582.7947882938109
 20
152.1533663734777
 30
0.0
 10
588.6076013259327
 20
153.8641439146856
 30
0.0
 10
592.0759419033898
 20
155.44634400431
 30
0.0
 10
598.625374506021
 20
159.7406500566271
 30
0.0
 10
601.701450984482
 20
162.4524994097725
 30
0.0
 10
607.0880803403304
 20
168.7520084502502
 30
0.0
 10
609.3952073092375
 20
172.3351879269945
 30
0.0
 10
613.0376906619065
 20
179.9329813234978
 30
0.0
 10
614.3733744875957
 20
183.9419152397594
 30
0.0
 10
616.0167335569967
 20
191.5785936055253
 30
0.0
 10
616.4057735564973
 20
195.2066433002908
 30
0.0
 10
616.467087843283
 20
198.687299656582
 30
0.0
  0
ARC
  5
3D2
330
1A
100
AcDbEntity
  8
SEIHIN
100
AcDbCircle
 10
641.1327667894948
 20
200.6696866636835
 30
0.0
 40
1.0
100
AcDbArc
 50
270.0
 51
0.0
  0
ARC
  5
3D4
330
1A
100
AcDbEntity
  8
SEIHIN
100
AcDbCircle
 10
617.466932722492
 20
198.6696866636838
 30
0.0
 40
1.0
100
AcDbArc
 50
90.0
 51
178.9907976593704
  0
ARC
  5
3D5
330
1A
100
AcDbEntity
  8
SEIHIN
100
AcDbCircle
 10
615.9667750800519
 20
198.6696866636837
 30
0.0
 40
1.0
100
AcDbArc
 50
89.99999999998697
 51
178.9718125266545
  0
ARC
  5
3D6
330
1A
100
AcDbEntity
  8
SEIHIN
100
AcDbCircle
 10
580.2099397747324
 20
198.6696866636838
 30
0.0
 40
1.0
100
AcDbArc
 50
89.99999999999023
 51
179.393151275739
  0
LINE
  5
3D9
330
1A
100
AcDbEntity
  8
SEIHIN
100
AcDbLine
 10
578.4932994552561
 20
151.3696866635228
 30
0.0
 11
574.9576681468563
 21
152.8696866635228
 31
0.0
  0
SPLINE
  5
3DA
330
1A
100
AcDbEntity
  8
SEIHIN
100
AcDbSpline
210
0.0
220
0.0
230
1.0
 70
     8
 71
     3
 72
    18
 73
    14
 74
     0
 42
0.0000000001
 43
0.0000000001
 40
3.141592653589793
 40
3.141592653589793
 40
3.141592653589793
 40
3.141592653589793
 40
3.403392041388947
 40
3.403392041388947
 40
3.665191429188101
 40
3.665191429188101
 40
3.926990816987255
 40
3.926990816987255
 40
4.188790204786409
 40
4.188790204786409
 40
4.450589592585563
 40
4.450589592585563
 40
4.712388980384718
 40
4.712388980384718
 40
4.712388980384718
 40
4.712388980384718
 10
592.9891070892219
 20
151.3696866635228
 30
0.0
 10
596.2710478851097
 20
151.3696866635228
 30
0.0
 10
599.7191892829917
 20
151.8275524074842
 30
0.0
 10
606.6390402682984
 20
153.8641439146856
 30
0.0
 10
610.1073808457555
 20
155.44634400431
 30
0.0
 10
616.6568134483866
 20
159.7406500566271
 30
0.0
 10
619.7328899268476
 20
162.4524994097725
 30
0.0
 10
625.119519282696
 20
168.7520084502502
 30
0.0
 10
627.4266462516031
 20
172.3351879269945
 30
0.0
 10
631.0691296042721
 20
179.9329813234978
 30
0.0
 10
632.4048134299613
 20
183.9419152397594
 30
0.0
 10
634.1222946111569
 20
191.9230385525278
 30
0.0
 10
634.5071866307766
 20
195.8919584121367
 30
0.0
 10
634.5071866307765
 20
199.6696866636849
 30
0.0
  0
SPLINE
  5
3DC
330
1A
100
AcDbEntity
  8
SEIHIN
100
AcDbSpline
210
0.0
220
0.0
230
1.0
 70
     8
 71
     3
 72
    18
 73
    14
 74
     0
 42
0.0000000001
 43
0.0000000001
 40
3.306824291612471
 40
3.306824291612471
 40
3.306824291612471
 40
3.306824291612471
 40
3.403392041388947
 40
3.403392041388947
 40
3.665191429188101
 40
3.665191429188101
 40
3.926990816987255
 40
3.926990816987255
 40
4.188790204786409
 40
4.188790204786409
 40
4.450589592585563
 40
4.450589592585563
 40
4.712388980384718
 40
4.712388980384718
 40
4.712388980384718
 40
4.712388980384718
 10
602.4207315170013
 20
152.6315150023273
 30
0.0
 10
603.6616257080424
 20
152.8553627986678
 30
0.0
 10
604.9118079679661
 20
153.1489583270483
 30
0.0
 10
609.5571833110889
 20
154.5161455673017
 30
0.0
 10
612.9635746310072
 20
156.069707331177
 30
0.0
 10
619.3971704011715
 20
160.2880619475569
 30
0.0
 10
622.4250860799913
 20
162.9566758091072
 30
0.0
 10
627.7274838346756
 20
169.1576784000087
 30
0.0
 10
630.0028504099862
 20
172.6906021515561
 30
0.0
 10
633.5947043735171
 20
180.1827885757783
 30
0.0
 10
634.9137006833842
 20
184.1408606155868
 30
0.0
 10
636.6089388807123
 20
192.0186209343181
 30
0.0
 10
636.9892866307767
 20
195.9395045202372
 30
0.0
 10
636.9892866307766
 20
199.6696866636849
 30
0.0
  0
ARC
  5
3DD
330
1A
100
AcDbEntity
  8
SEIHIN
100
AcDbCircle
 10
637.9506667894948
 20
200.6696866636835
 30
0.0
 40
1.0
100
AcDbArc
 50
270.0
 51
0.0
  0
LINE
  5
3DE
330
1A
100
AcDbEntity
  8
SEIHIN
100
AcDbLine
 10
582.2826667894946
 20
210.5696866636836
 30
0.0
 11
582.2826667894946
 21
200.6696866636835
 31
0.0
  0
ARC
  5
3DF
330
1A
100
AcDbEntity
  8
SEIHIN
100
AcDbCircle
 10
581.2826667894946
 20
200.6696866636835
 30
0.0
 40
1.0
100
AcDbArc
 50
270.0
 51
0.0
  0
DIMENSION
  5
3ED
330
1A
100
AcDbEntity
  8
SEIHIN
100
AcDbDimension
  2
*D1
 10
385.0814834108906
 20
245.3754656007413
 30
0.0
 11
319.5814834108906
 21
250.3754656007413
 31
0.0
 12
61.08254244133468
 22
-4.520558882886689
 32
0.0
 70
    32
  3
STANDARD
100
AcDbAlignedDimension
 13
254.0814834108906
 23
210.5696866636836
 33
0.0
 14
385.0814834108906
 24
210.5696866636836
 34
0.0
100
AcDbRotatedDimension
1001
ACAD
1000
DSTYLE
1002
{
1070
   140
1040
6.0
1070
    74
1070
     0
1070
   172
1070
     1
1070
    73
1070
     0
1070
   272
1070
     2
1070
    77
1070
     3
1070
   173
1070
     1
1070
   147
1040
2.0
1070
    42
1040
6.0
1070
    44
1040
3.0
1070
    43
1040
14.0
1070
   271
1070
     0
1070
   178
1070
     4
1070
   177
1070
     4
1070
   176
1070
     4
1070
   141
1040
150.0
1070
     7
1000
_OPEN
1070
     6
1000
_OPEN
1070
    41
1040
7.0
1002
}
  0
DIMENSION
  5
3FA
330
1A
100
AcDbEntity
  8
SEIHIN
100
AcDbDimension
  2
*D2
 10
419.0432892360545
 20
151.3696866635227
 30
0.0
 11
414.0432892360545
 21
180.9696866636032
 31
0.0
 12
61.08254244133468
 22
-4.520558882886689
 32
0.0
 70
    32
  3
STANDARD
100
AcDbAlignedDimension
 13
385.0814834108906
 23
210.5696866636836
 33
0.0
 14
319.5814834108906
 24
151.3696866635227
 34
0.0
 50
90.0
100
AcDbRotatedDimension
1001
ACAD
1000
DSTYLE
1002
{
1070
   140
1040
6.0
1070
    74
1070
     0
1070
   172
1070
     1
1070
    73
1070
     0
1070
   272
1070
     2
1070
    77
1070
     3
1070
   173
1070
     1
1070
   147
1040
2.0
1070
    42
1040
6.0
1070
    44
1040
3.0
1070
    43
1040
14.0
1070
   271
1070
     0
1070
   178
1070
     4
1070
   177
1070
     4
1070
   176
1070
     4
1070
   141
1040
150.0
1070
     7
1000
_OPEN
1070
     6
1000
_OPEN
1070
    41
1040
7.0
1002
}
  0
DIMENSION
  5
40B
330
1A
100
AcDbEntity
  8
SEIHIN
100
AcDbDimension
  2
*D3
 10
319.5815834108906
 20
379.6517468071433
 30
0.0
 11
339.049570145847
 21
397.233359991483
 31
0.0
 70
    34
  3
STANDARD
100
AcDb2LineAngularDimension
 13
274.2347203805571
 23
417.4994185688669
 33
0.0
 14
324.8848369795641
 24
366.8483986584403
 34
0.0
 15
319.5815834108905
 25
308.0210866636754
 35
0.0
 16
307.3039408217876
 26
393.4175395205863
 36
0.0
1001
ACAD
1000
DSTYLE
1002
{
1070
   271
1070
     0
1070
   271
1070
     0
1070
   140
1040
6.0
1070
    74
1070
     0
1070
   172
1070
     1
1070
    73
1070
     0
1070
   272
1070
     2
1070
    77
1070
     3
1070
   173
1070
     1
1070
   147
1040
2.0
1070
    42
1040
6.0
1070
    44
1040
3.0
1070
    43
1040
14.0
1070
   271
1070
     0
1070
   178
1070
     4
1070
   177
1070
     4
1070
   176
1070
     4
1070
   141
1040
150.0
1070
     7
1000
_OPEN
1070
     6
1000
_OPEN
1070
    41
1040
7.0
1002
}
  0
DIMENSION
  5
41A
330
1A
100
AcDbEntity
  8
SEIHIN
100
AcDbDimension
  2
*D4
 10
424.3705742191009
 20
340.0210866636836
 30
0.0
 11
419.3705742191009
 21
327.5210366636836
 31
0.0
 12
61.08254244133468
 22
-4.520558882886689
 32
0.0
 70
    32
  1
※<>
  3
STANDARD
100
AcDbAlignedDimension
 13
384.5815834108904
 23
315.0209866636836
 33
0.0
 14
375.7787834108905
 24
340.0210866636836
 34
0.0
 50
90.0
100
AcDbRotatedDimension
1001
ACAD
1000
DSTYLE
1002
{
1070
   140
1040
6.0
1070
    74
1070
     0
1070
   172
1070
     1
1070
    73
1070
     0
1070
   272
1070
     2
1070
    77
1070
     3
1070
   173
1070
     1
1070
   147
1040
2.0
1070
    42
1040
6.0
1070
    44
1040
3.0
1070
    43
1040
14.0
1070
   271
1070
     0
1070
   178
1070
     4
1070
   177
1070
     4
1070
   176
1070
     4
1070
   141
1040
150.0
1070
     7
1000
_OPEN
1070
     6
1000
_OPEN
1070
    41
1040
7.0
1002
}
  0
DIMENSION
  5
44E
330
1A
100
AcDbEntity
  8
SEIHIN
100
AcDbDimension
  2
*D5
 10
206.5341997769023
 20
345.0210866636836
 30
0.0
 11
201.5341997769023
 21
330.0210866636836
 31
0.0
 12
61.08254244133468
 22
-4.520558882886689
 32
0.0
 70
    32
  3
STANDARD
100
AcDbAlignedDimension
 13
254.5815834108906
 23
315.0210866636836
 33
0.0
 14
254.0815834108907
 24
345.0210866636836
 34
0.0
 50
90.0
100
AcDbRotatedDimension
1001
ACAD
1000
DSTYLE
1002
{
1070
   140
1040
6.0
1070
    74
1070
     0
1070
   172
1070
     1
1070
    73
1070
     0
1070
   272
1070
     2
1070
    77
1070
     3
1070
   173
1070
     1
1070
   147
1040
2.0
1070
    42
1040
6.0
1070
    44
1040
3.0
1070
    43
1040
14.0
1070
   271
1070
     0
1070
   178
1070
     4
1070
   177
1070
     4
1070
   176
1070
     4
1070
   141
1040
150.0
1070
     7
1000
_OPEN
1070
     6
1000
_OPEN
1070
    41
1040
7.0
1002
}
  0
TEXT
  5
44F
330
1A
100
AcDbEntity
  8
SUNPOU
 62
     4
100
AcDbText
 10
592.798129943721
 20
59.54234278406911
 30
0.0
 40
8.0
  1
※　のきといの差込み寸法を示す。
100
AcDbText
  0
VIEWPORT
  5
22
330
17
100
AcDbEntity
 67
     1
  8
0
100
AcDbViewport
 10
313.6808219178082
 20
148.5
 30
0.0
 40
627.3616438356165
 41
297.0
 68
     2
 69
     1
1001
ACAD
1000
MVIEW
1002
{
1070
    16
1010
0.0
1020
0.0
1030
0.0
1010
0.0
1020
0.0
1030
1.0
1040
0.0
1040
297.0
1040
313.6808219178082
1040
148.5
1040
50.0
1040
0.0
1040
0.0
1070
     0
1070
   100
1070
     1
1070
     0
1070
     0
1070
     0
1070
     0
1070
     0
1040
0.0
1040
0.0
1040
0.0
1040
1.0
1040
1.0
1040
10.0
1040
10.0
1070
     0
1002
{
1002
}
1002
}
  0
VIEWPORT
  5
64
330
17
100
AcDbEntity
 67
     1
  8
VIEWPORT
100
AcDbViewport
 10
210.0
 20
148.5
 30
0.0
 40
420.0
 41
297.0
 68
     1
 69
     2
1001
ACAD
1000
MVIEW
1002
{
1070
    16
1010
0.0
1020
0.0
1030
0.0
1010
0.0
1020
0.0
1030
1.0
1040
0.0
1040
605.8799999999998
1040
420.0
1040
297.0
1040
50.0
1040
0.0
1040
0.0
1070
     0
1070
   100
1070
     1
1070
     0
1070
     0
1070
     0
1070
     0
1070
     0
1040
0.0
1040
0.0
1040
0.0
1040
10.0
1040
10.0
1040
0.0
1040
0.0
1070
     0
1002
{
1002
}
1002
}
  0
ENDSEC
  0
SECTION
  2
OBJECTS
  0
DICTIONARY
  5
C
330
0
100
AcDbDictionary
  3
ACAD_GROUP
350
D
  3
ACAD_LAYOUT
350
465
  3
ACAD_MLINESTYLE
350
E
  3
ACAD_PLOTSETTINGS
350
466
1001
ACAD
1000
TREAT_AS_HARD
1070
     0
  0
DICTIONARY
  5
494
330
1A
100
AcDbDictionary
  3
ACAD_LAYOUTSELFREF
350
4B0
1001
ACAD
1000
TREAT_AS_HARD
1070
     1
  0
DICTIONARY
  5
492
330
17
100
AcDbDictionary
  3
ACAD_LAYOUTSELFREF
350
4AF
1001
ACAD
1000
TREAT_AS_HARD
1070
     1
  0
DICTIONARY
  5
D
102
{ACAD_REACTORS
330
C
102
}
330
C
100
AcDbDictionary
1001
ACAD
1000
TREAT_AS_HARD
1070
     0
  0
DICTIONARY
  5
465
102
{ACAD_REACTORS
330
C
102
}
330
C
100
AcDbDictionary
1001
ACAD
1000
TREAT_AS_HARD
1070
     0
  0
DICTIONARY
  5
E
102
{ACAD_REACTORS
330
C
102
}
330
C
100
AcDbDictionary
  3
STANDARD
350
13
1001
ACAD
1000
TREAT_AS_HARD
1070
     0
  0
DICTIONARY
  5
466
102
{ACAD_REACTORS
330
C
102
}
330
C
100
AcDbDictionary
1001
ACAD
1000
TREAT_AS_HARD
1070
     0
  0
XRECORD
  5
4B0
102
{ACAD_REACTORS
330
494
102
}
330
494
100
AcDbXrecord
340
1A
  0
XRECORD
  5
4AF
102
{ACAD_REACTORS
330
492
102
}
330
492
100
AcDbXrecord
340
17
  0
MLINESTYLE
  5
13
102
{ACAD_REACTORS
330
E
102
}
330
E
100
AcDbMlineStyle
  2
STANDARD
 70
     0
  3

 62
     0
 51
90.0
 52
90.0
 71
     2
 49
0.5
 62
   256
  6
BYLAYER
 49
-0.5
 62
   256
  6
BYLAYER
  0
ENDSEC
  0
EOF
