  0
SECTION
  2
HEADER
  9
$ACADVER
  1
AC1012
  9
$DWGCODEPAGE
  3
dos932
  9
$INSBASE
 10
0.0
 20
0.0
 30
0.0
  9
$EXTMIN
 10
10.05047808566086
 20
4.949376903717846
 30
0.0
  9
$EXTMAX
 10
806.2246110975902
 20
563.7825862828226
 30
0.0
  9
$LIMMIN
 10
0.0
 20
0.0
  9
$LIMMAX
 10
840.0
 20
594.0
  9
$ORTHOMODE
 70
     0
  9
$REGENMODE
 70
     1
  9
$FILLMODE
 70
     1
  9
$QTEXTMODE
 70
     0
  9
$MIRRTEXT
 70
     1
  9
$DRAGMODE
 70
     2
  9
$LTSCALE
 40
2.0
  9
$OSMODE
 70
   319
  9
$ATTMODE
 70
     1
  9
$TEXTSIZE
 40
5.0
  9
$TRACEWID
 40
1.0
  9
$TEXTSTYLE
  7
STANDARD
  9
$CLAYER
  8
ZIWAKU
  9
$CELTYPE
  6
BYLAYER
  9
$CECOLOR
 62
   256
  9
$CELTSCALE
 40
1.0
  9
$DELOBJ
 70
     1
  9
$DISPSILH
 70
     0
  9
$DIMSCALE
 40
1.0
  9
$DIMASZ
 40
7.0
  9
$DIMEXO
 40
6.0
  9
$DIMDLI
 40
14.0
  9
$DIMRND
 40
0.0
  9
$DIMDLE
 40
0.0
  9
$DIMEXE
 40
3.0
  9
$DIMTP
 40
0.0
  9
$DIMTM
 40
0.0
  9
$DIMTXT
 40
6.0
  9
$DIMCEN
 40
150.0
  9
$DIMTSZ
 40
0.0
  9
$DIMTOL
 70
     0
  9
$DIMLIM
 70
     0
  9
$DIMTIH
 70
     0
  9
$DIMTOH
 70
     0
  9
$DIMSE1
 70
     0
  9
$DIMSE2
 70
     0
  9
$DIMTAD
 70
     3
  9
$DIMZIN
 70
     0
  9
$DIMBLK
  1

  9
$DIMASO
 70
     1
  9
$DIMSHO
 70
     1
  9
$DIMPOST
  1

  9
$DIMAPOST
  1

  9
$DIMALT
 70
     0
  9
$DIMALTD
 70
     2
  9
$DIMALTF
 40
25.4
  9
$DIMLFAC
 40
1.0
  9
$DIMTOFL
 70
     1
  9
$DIMTVP
 40
0.0
  9
$DIMTIX
 70
     0
  9
$DIMSOXD
 70
     0
  9
$DIMSAH
 70
     1
  9
$DIMBLK1
  1
OPEN
  9
$DIMBLK2
  1
OPEN
  9
$DIMSTYLE
  2
STANDARD
  9
$DIMCLRD
 70
   256
  9
$DIMCLRE
 70
   256
  9
$DIMCLRT
 70
   256
  9
$DIMTFAC
 40
1.0
  9
$DIMGAP
 40
2.0
  9
$DIMJUST
 70
     0
  9
$DIMSD1
 70
     0
  9
$DIMSD2
 70
     0
  9
$DIMTOLJ
 70
     1
  9
$DIMTZIN
 70
     0
  9
$DIMALTZ
 70
     0
  9
$DIMALTTZ
 70
     0
  9
$DIMFIT
 70
     3
  9
$DIMUPT
 70
     0
  9
$DIMUNIT
 70
     2
  9
$DIMDEC
 70
     0
  9
$DIMTDEC
 70
     0
  9
$DIMALTU
 70
     2
  9
$DIMALTTD
 70
     2
  9
$DIMTXSTY
  7
STANDARD
  9
$DIMAUNIT
 70
     0
  9
$LUNITS
 70
     2
  9
$LUPREC
 70
     4
  9
$SKETCHINC
 40
1.0
  9
$FILLETRAD
 40
20.0
  9
$AUNITS
 70
     0
  9
$AUPREC
 70
     0
  9
$MENU
  1
.
  9
$ELEVATION
 40
0.0
  9
$PELEVATION
 40
0.0
  9
$THICKNESS
 40
0.0
  9
$LIMCHECK
 70
     0
  9
$BLIPMODE
 70
     0
  9
$CHAMFERA
 40
20.0
  9
$CHAMFERB
 40
20.0
  9
$CHAMFERC
 40
40.0
  9
$CHAMFERD
 40
0.0
  9
$SKPOLY
 70
     0
  9
$TDCREATE
 40
2450994.354346065
  9
$TDUPDATE
 40
2452423.333521643
  9
$TDINDWG
 40
0.0065709491
  9
$TDUSRTIMER
 40
0.0065709491
  9
$USRTIMER
 70
     1
  9
$ANGBASE
 50
0.0
  9
$ANGDIR
 70
     0
  9
$PDMODE
 70
     1
  9
$PDSIZE
 40
0.0
  9
$PLINEWID
 40
0.0
  9
$COORDS
 70
     1
  9
$SPLFRAME
 70
     0
  9
$SPLINETYPE
 70
     6
  9
$SPLINESEGS
 70
     8
  9
$ATTDIA
 70
     0
  9
$ATTREQ
 70
     1
  9
$HANDLING
 70
 10241
  9
$HANDSEED
  5
5A4
  9
$SURFTAB1
 70
     6
  9
$SURFTAB2
 70
     6
  9
$SURFTYPE
 70
     6
  9
$SURFU
 70
     6
  9
$SURFV
 70
     6
  9
$UCSNAME
  2

  9
$UCSORG
 10
0.0
 20
0.0
 30
0.0
  9
$UCSXDIR
 10
1.0
 20
0.0
 30
0.0
  9
$UCSYDIR
 10
0.0
 20
1.0
 30
0.0
  9
$PUCSNAME
  2

  9
$PUCSORG
 10
0.0
 20
0.0
 30
0.0
  9
$PUCSXDIR
 10
1.0
 20
0.0
 30
0.0
  9
$PUCSYDIR
 10
0.0
 20
1.0
 30
0.0
  9
$USERI1
 70
     0
  9
$USERI2
 70
     0
  9
$USERI3
 70
     0
  9
$USERI4
 70
     0
  9
$USERI5
 70
     0
  9
$USERR1
 40
0.0
  9
$USERR2
 40
0.0
  9
$USERR3
 40
0.0
  9
$USERR4
 40
0.0
  9
$USERR5
 40
0.0
  9
$WORLDVIEW
 70
     1
  9
$SHADEDGE
 70
     3
  9
$SHADEDIF
 70
    70
  9
$TILEMODE
 70
     1
  9
$MAXACTVP
 70
    16
  9
$PINSBASE
 10
0.0
 20
0.0
 30
0.0
  9
$PLIMCHECK
 70
     0
  9
$PEXTMIN
 10
0.0
 20
0.0
 30
0.0
  9
$PEXTMAX
 10
420.0
 20
297.0
 30
0.0
  9
$PLIMMIN
 10
0.0
 20
0.0
  9
$PLIMMAX
 10
420.0
 20
297.0
  9
$UNITMODE
 70
     0
  9
$VISRETAIN
 70
     0
  9
$PLINEGEN
 70
     0
  9
$PSLTSCALE
 70
     1
  9
$TREEDEPTH
 70
  3020
  9
$PICKSTYLE
 70
     1
  9
$CMLSTYLE
  2
STANDARD
  9
$CMLJUST
 70
     0
  9
$CMLSCALE
 40
1.0
  9
$SAVEIMAGES
 70
     1
  0
ENDSEC
  0
SECTION
  2
CLASSES
  0
CLASS
  1
ACDBDICTIONARYWDFLT
  2
AcDbDictionaryWithDefault
  3
AutoCAD 2000
 90
    32768
280
     0
281
     0
  0
CLASS
  1
ACDBPLACEHOLDER
  2
AcDbPlaceHolder
  3
AutoCAD 2000
 90
    32768
280
     0
281
     0
  0
CLASS
  1
LAYOUT
  2
AcDbLayout
  3
AutoCAD 2000
 90
    32768
280
     0
281
     0
  0
CLASS
  1
LONG_TRANSACTION
  2
AcDbLongTransaction
  3
AutoCAD 2000
 90
    32768
280
     0
281
     0
  0
CLASS
  1
LWPOLYLINE
  2
AcDbPolyline
  3
AutoCAD 2000
 90
    32768
280
     0
281
     1
  0
CLASS
  1
HATCH
  2
AcDbHatch
  3
AutoCAD 2000
 90
    32768
280
     0
281
     1
  0
CLASS
  1
XRECORD
  2
AcDbXrecord
  3
AutoCAD 2000
 90
    32768
280
     0
281
     0
  0
CLASS
  1
LONG_TRANSACTION
  2
AcDbLongTransaction
  3
AutoCAD 2000
 90
    32768
280
     0
281
     0
  0
CLASS
  1
LWPOLYLINE
  2
AcDbPolyline
  3
AutoCAD 2000
 90
    32768
280
     0
281
     1
  0
CLASS
  1
HATCH
  2
AcDbHatch
  3
AutoCAD 2000
 90
    32768
280
     0
281
     1
  0
CLASS
  1
XRECORD
  2
AcDbXrecord
  3
AutoCAD 2000
 90
    32768
280
     0
281
     0
  0
ENDSEC
  0
SECTION
  2
TABLES
  0
TABLE
  2
VPORT
  5
8
330
0
100
AcDbSymbolTable
 70
     2
  0
VPORT
  5
596
330
8
100
AcDbSymbolTableRecord
100
AcDbViewportTableRecord
  2
*ACTIVE
 70
     0
 10
0.0
 20
0.0
 11
1.0
 21
1.0
 12
415.2149443566274
 22
305.2288449173372
 13
0.0
 23
0.0
 14
5.0
 24
5.0
 15
0.0
 25
0.0
 16
0.0
 26
0.0
 36
1.0
 17
0.0
 27
0.0
 37
0.0
 40
612.8588334127974
 41
1.709909909909909
 42
50.0
 43
0.0
 44
0.0
 50
0.0
 51
0.0
 71
     0
 72
   100
 73
     1
 74
     0
 75
     0
 76
     0
 77
     0
 78
     0
  0
ENDTAB
  0
TABLE
  2
LTYPE
  5
5
330
0
100
AcDbSymbolTable
 70
     3
  0
LTYPE
  5
14
330
5
100
AcDbSymbolTableRecord
100
AcDbLinetypeTableRecord
  2
BYBLOCK
 70
     0
  3

 72
    65
 73
     0
 40
0.0
  0
LTYPE
  5
15
330
5
100
AcDbSymbolTableRecord
100
AcDbLinetypeTableRecord
  2
BYLAYER
 70
     0
  3

 72
    65
 73
     0
 40
0.0
  0
LTYPE
  5
16
330
5
100
AcDbSymbolTableRecord
100
AcDbLinetypeTableRecord
  2
CONTINUOUS
 70
     0
  3
Solid line
 72
    65
 73
     0
 40
0.0
  0
LTYPE
  5
115
330
5
100
AcDbSymbolTableRecord
100
AcDbLinetypeTableRecord
  2
PHANTOM
 70
     0
  3
______  __  __  ______  __  __  ______  __  __ 
 72
    65
 73
     6
 40
2.5
 49
1.25
 74
     0
 49
-0.25
 74
     0
 49
0.25
 74
     0
 49
-0.25
 74
     0
 49
0.25
 74
     0
 49
-0.25
 74
     0
  0
LTYPE
  5
135
330
5
100
AcDbSymbolTableRecord
100
AcDbLinetypeTableRecord
  2
CENTER
 70
     0
  3
____ _ ____ _ ____ _ ____ _ ____ _ ____ _ ____ 
 72
    65
 73
     4
 40
2.0
 49
1.25
 74
     0
 49
-0.25
 74
     0
 49
0.25
 74
     0
 49
-0.25
 74
     0
  0
ENDTAB
  0
TABLE
  2
LAYER
  5
2
330
0
100
AcDbSymbolTable
 70
     8
  0
LAYER
  5
F
330
2
100
AcDbSymbolTableRecord
100
AcDbLayerTableRecord
  2
0
 70
     0
 62
     7
  6
CONTINUOUS
  0
LAYER
  5
62
330
2
100
AcDbSymbolTableRecord
100
AcDbLayerTableRecord
  2
VIEWPORT
 70
     0
 62
     7
  6
CONTINUOUS
  0
LAYER
  5
65
330
2
100
AcDbSymbolTableRecord
100
AcDbLayerTableRecord
  2
ZIWAKU
 70
     0
 62
     7
  6
CONTINUOUS
  0
LAYER
  5
14E
330
2
100
AcDbSymbolTableRecord
100
AcDbLayerTableRecord
  2
SEIHIN
 70
     0
 62
     3
  6
CONTINUOUS
  0
LAYER
  5
14F
330
2
100
AcDbSymbolTableRecord
100
AcDbLayerTableRecord
  2
SUNPOU
 70
     0
 62
     4
  6
CONTINUOUS
  0
LAYER
  5
150
330
2
100
AcDbSymbolTableRecord
100
AcDbLayerTableRecord
  2
CENTER_L
 70
     0
 62
     1
  6
CENTER
  0
LAYER
  5
30D
330
2
100
AcDbSymbolTableRecord
100
AcDbLayerTableRecord
  2
NOKITOI
 70
     0
 62
     8
  6
PHANTOM
  0
LAYER
  5
30E
330
2
100
AcDbSymbolTableRecord
100
AcDbLayerTableRecord
  2
DEFPOINTS
 70
     0
 62
     7
  6
CONTINUOUS
  0
ENDTAB
  0
TABLE
  2
STYLE
  5
3
330
0
100
AcDbSymbolTable
 70
     1
  0
STYLE
  5
10
330
3
100
AcDbSymbolTableRecord
100
AcDbTextStyleTableRecord
  2
STANDARD
 70
     0
 40
0.0
 41
1.0
 50
0.0
 71
     0
 42
5.0
  3
TXT
  4
bigfont.shx
  0
ENDTAB
  0
TABLE
  2
VIEW
  5
6
330
0
100
AcDbSymbolTable
 70
     0
  0
ENDTAB
  0
TABLE
  2
UCS
  5
7
330
0
100
AcDbSymbolTable
 70
     0
  0
ENDTAB
  0
TABLE
  2
APPID
  5
9
330
0
100
AcDbSymbolTable
 70
     1
  0
APPID
  5
11
330
9
100
AcDbSymbolTableRecord
100
AcDbRegAppTableRecord
  2
ACAD
 70
     0
  0
ENDTAB
  0
TABLE
  2
DIMSTYLE
  5
A
330
0
100
AcDbSymbolTable
 70
     1
  0
DIMSTYLE
105
1D
102
{ACAD_REACTORS
330
3BD
330
3C9
330
3CA
330
3CD
330
3CE
330
3D0
330
3D1
330
460
102
}
330
A
100
AcDbSymbolTableRecord
100
AcDbDimStyleTableRecord
  2
STANDARD
 70
     0
  3

  4

  5

  6

  7

 40
1.0
 41
0.18
 42
0.0625
 43
0.38
 44
0.18
 45
0.0
 46
0.0
 47
0.0
 48
0.0
140
0.18
141
0.09
142
0.0
143
25.4
144
1.0
145
0.0
146
1.0
147
0.09
 71
     0
 72
     0
 73
     1
 74
     1
 75
     0
 76
     0
 77
     0
 78
     0
170
     0
171
     2
172
     0
173
     0
174
     0
175
     0
176
     0
177
     0
178
     0
270
     2
271
     4
272
     4
273
     2
274
     2
340
10
275
     0
280
     0
281
     0
282
     0
283
     1
284
     0
285
     0
286
     0
287
     3
288
     0
  0
ENDTAB
  0
TABLE
  2
BLOCK_RECORD
  5
1
330
0
100
AcDbSymbolTable
 70
     9
  0
BLOCK_RECORD
  5
1A
102
{ACAD_XDICTIONARY
360
57D
102
}
330
1
100
AcDbSymbolTableRecord
100
AcDbBlockTableRecord
  2
*MODEL_SPACE
  0
BLOCK_RECORD
  5
17
102
{ACAD_XDICTIONARY
360
57B
102
}
330
1
100
AcDbSymbolTableRecord
100
AcDbBlockTableRecord
  2
*PAPER_SPACE
  0
BLOCK_RECORD
  5
6D
330
1
100
AcDbSymbolTableRecord
100
AcDbBlockTableRecord
  2
_OPEN
  0
BLOCK_RECORD
  5
467
330
1
100
AcDbSymbolTableRecord
100
AcDbBlockTableRecord
  2
*D1
  0
BLOCK_RECORD
  5
473
330
1
100
AcDbSymbolTableRecord
100
AcDbBlockTableRecord
  2
*D2
  0
BLOCK_RECORD
  5
481
330
1
100
AcDbSymbolTableRecord
100
AcDbBlockTableRecord
  2
*D3
  0
BLOCK_RECORD
  5
48D
330
1
100
AcDbSymbolTableRecord
100
AcDbBlockTableRecord
  2
*D4
  0
BLOCK_RECORD
  5
499
330
1
100
AcDbSymbolTableRecord
100
AcDbBlockTableRecord
  2
*D5
  0
BLOCK_RECORD
  5
4A5
330
1
100
AcDbSymbolTableRecord
100
AcDbBlockTableRecord
  2
*D6
  0
BLOCK_RECORD
  5
4B1
330
1
100
AcDbSymbolTableRecord
100
AcDbBlockTableRecord
  2
*D7
  0
BLOCK_RECORD
  5
4BD
330
1
100
AcDbSymbolTableRecord
100
AcDbBlockTableRecord
  2
*D8
  0
ENDTAB
  0
ENDSEC
  0
SECTION
  2
BLOCKS
  0
BLOCK
  5
1B
330
1A
100
AcDbEntity
  8
0
100
AcDbBlockBegin
  2
*MODEL_SPACE
 70
     0
 10
0.0
 20
0.0
 30
0.0
  3
*MODEL_SPACE
  1

  0
ENDBLK
  5
1C
330
1A
100
AcDbEntity
  8
0
100
AcDbBlockEnd
  0
BLOCK
  5
18
330
17
100
AcDbEntity
 67
     1
  8
0
100
AcDbBlockBegin
  2
*PAPER_SPACE
 70
     0
 10
0.0
 20
0.0
 30
0.0
  3
*PAPER_SPACE
  1

  0
ENDBLK
  5
19
330
17
100
AcDbEntity
 67
     1
  8
0
100
AcDbBlockEnd
  0
BLOCK
  5
6E
330
6D
100
AcDbEntity
  8
0
100
AcDbBlockBegin
  2
_OPEN
 70
     0
 10
0.0
 20
0.0
 30
0.0
  3
_OPEN
  1

  0
LINE
  5
6F
330
6D
100
AcDbEntity
  8
0
  6
BYBLOCK
 62
     0
100
AcDbLine
 10
-1.0
 20
0.1666666666666666
 30
0.0
 11
0.0
 21
0.0
 31
0.0
  0
LINE
  5
70
330
6D
100
AcDbEntity
  8
0
  6
BYBLOCK
 62
     0
100
AcDbLine
 10
0.0
 20
0.0
 30
0.0
 11
-1.0
 21
-0.1666666666666666
 31
0.0
  0
LINE
  5
71
330
6D
100
AcDbEntity
  8
0
  6
BYBLOCK
 62
     0
100
AcDbLine
 10
0.0
 20
0.0
 30
0.0
 11
-1.0
 21
0.0
 31
0.0
  0
ENDBLK
  5
72
330
6D
100
AcDbEntity
  8
0
100
AcDbBlockEnd
  0
BLOCK
  5
4C9
330
467
100
AcDbEntity
  8
0
100
AcDbBlockBegin
  2
*D1
 70
     1
 10
0.0
 20
0.0
 30
0.0
  3
*D1
  1

  0
ARC
  5
599
330
467
100
AcDbEntity
  8
SUNPOU
 62
     4
100
AcDbCircle
 10
452.5527141349152
 20
203.3489861292306
 30
0.0
 40
63.51778872151616
100
AcDbArc
 50
184.3649714969074
 51
190.6824725387746
  0
ARC
  5
59A
330
467
100
AcDbEntity
  8
SUNPOU
 62
     4
100
AcDbCircle
 10
452.5527141349152
 20
203.3489861292306
 30
0.0
 40
63.51778872151616
100
AcDbArc
 50
233.3174746225088
 51
239.634975664376
  0
ARC
  5
59B
330
467
100
AcDbEntity
  8
SUNPOU
 62
     4
100
AcDbCircle
 10
452.5527141349152
 20
203.3489861292306
 30
0.0
 40
63.51778872151616
100
AcDbArc
 50
196.9999735806417
 51
226.9999735806417
  0
INSERT
  5
59C
330
467
100
AcDbEntity
  8
SUNPOU
 62
     4
100
AcDbBlockReference
  2
_OPEN
 10
391.8103421291938
 20
184.7782099690989
 30
0.0
 41
7.0
 42
7.0
 43
7.0
 50
283.8412230597081
  0
INSERT
  5
59D
330
467
100
AcDbEntity
  8
SUNPOU
 62
     4
100
AcDbBlockReference
  2
_OPEN
 10
409.2336649719015
 20
156.8950362037014
 30
0.0
 41
7.0
 42
7.0
 43
7.0
 50
140.1587241015753
  0
MTEXT
  5
59E
330
467
100
AcDbEntity
  8
SUNPOU
 62
     4
100
AcDbMText
 10
402.9268005196319
 20
172.3393054681137
 30
0.0
 40
6.0
 41
0.0
 71
     5
 72
     1
  1
\A1;30°
 11
0.529918873194111
 21
-0.8480483405046459
 31
0.0
  0
POINT
  5
59F
330
467
100
AcDbEntity
  8
DEFPOINTS
 62
     0
100
AcDbPoint
 10
395.9579366853963
 20
174.5125395813183
 30
0.0
  0
POINT
  5
5A0
330
467
100
AcDbEntity
  8
DEFPOINTS
 62
     0
100
AcDbPoint
 10
315.1955548226526
 20
161.3547574656
 30
0.0
  0
POINT
  5
5A1
330
467
100
AcDbEntity
  8
DEFPOINTS
 62
     0
100
AcDbPoint
 10
404.8721365740346
 20
152.2178739458031
 30
0.0
  0
POINT
  5
5A2
330
467
100
AcDbEntity
  8
DEFPOINTS
 62
     0
100
AcDbPoint
 10
460.4079087008358
 20
211.7726432055296
 30
0.0
  0
POINT
  5
5A3
330
467
100
AcDbEntity
  8
DEFPOINTS
 62
     0
100
AcDbPoint
 10
429.5061548226528
 20
196.3029574656
 30
0.0
  0
ENDBLK
  5
4D3
330
467
100
AcDbEntity
  8
0
100
AcDbBlockEnd
  0
BLOCK
  5
532
330
473
100
AcDbEntity
  8
0
100
AcDbBlockBegin
  2
*D2
 70
     1
 10
0.0
 20
0.0
 30
0.0
  3
*D2
  1

  0
LINE
  5
533
330
473
100
AcDbEntity
  8
0
  6
BYBLOCK
 62
     4
100
AcDbLine
 10
422.3646589413262
 20
203.2019010328556
 30
0.0
 11
527.2075332340683
 21
203.2019010328556
 31
0.0
  0
LINE
  5
534
330
473
100
AcDbEntity
  8
0
  6
BYBLOCK
 62
     4
100
AcDbLine
 10
422.0902548226526
 20
192.2013119805793
 30
0.0
 11
527.2075332340683
 21
192.2013119805793
 31
0.0
  0
LINE
  5
535
330
473
100
AcDbEntity
  8
0
  6
BYBLOCK
 62
     4
100
AcDbLine
 10
524.2075332340682
 20
210.2019010328556
 30
0.0
 11
524.2075332340682
 21
217.2019010328555
 31
0.0
  0
LINE
  5
536
330
473
100
AcDbEntity
  8
0
  6
BYBLOCK
 62
     4
100
AcDbLine
 10
524.2075332340682
 20
185.2013119805793
 30
0.0
 11
524.2075332340682
 21
178.2013119805793
 31
0.0
  0
LINE
  5
537
330
473
100
AcDbEntity
  8
0
  6
BYBLOCK
 62
     4
100
AcDbLine
 10
524.2075332340682
 20
203.2019010328556
 30
0.0
 11
524.2075332340682
 21
192.2013119805793
 31
0.0
  0
INSERT
  5
538
330
473
100
AcDbEntity
  8
0
  6
BYBLOCK
 62
     4
100
AcDbBlockReference
  2
_OPEN
 10
524.2075332340682
 20
203.2019010328556
 30
0.0
 41
7.0
 42
7.0
 43
7.0
 50
270.0
  0
INSERT
  5
539
330
473
100
AcDbEntity
  8
0
  6
BYBLOCK
 62
     4
100
AcDbBlockReference
  2
_OPEN
 10
524.2075332340682
 20
192.2013119805793
 30
0.0
 41
7.0
 42
7.0
 43
7.0
 50
90.0
  0
MTEXT
  5
53A
330
473
100
AcDbEntity
  8
0
  6
BYBLOCK
 62
     4
100
AcDbMText
 10
519.2075332340682
 20
197.7016065067174
 30
0.0
 40
6.0
 41
0.0
 71
     5
 72
     1
  1
\A1;11
 11
0.0
 21
1.0
 31
0.0
1001
ACAD
1000
MTEXTBEGIN
1070
    73
1070
     1
1070
    44
1040
1.0
1070
    74
1070
     0
1000
MTEXTEND
1000
MTEXTBEGIN
1070
    73
1070
     1
1070
    44
1040
1.0
1070
    74
1070
     0
1000
MTEXTEND
  0
POINT
  5
53B
330
473
100
AcDbEntity
  8
DEFPOINTS
  6
BYBLOCK
 62
     0
100
AcDbPoint
 10
416.3646589413263
 20
203.2019010328556
 30
0.0
  0
POINT
  5
53C
330
473
100
AcDbEntity
  8
DEFPOINTS
  6
BYBLOCK
 62
     0
100
AcDbPoint
 10
416.0902548226526
 20
192.2013119805793
 30
0.0
  0
POINT
  5
53D
330
473
100
AcDbEntity
  8
DEFPOINTS
  6
BYBLOCK
 62
     0
100
AcDbPoint
 10
524.2075332340682
 20
192.2013119805793
 30
0.0
  0
ENDBLK
  5
53E
330
473
100
AcDbEntity
  8
0
100
AcDbBlockEnd
  0
BLOCK
  5
527
330
481
100
AcDbEntity
  8
0
100
AcDbBlockBegin
  2
*D3
 70
     1
 10
0.0
 20
0.0
 30
0.0
  3
*D3
  1

  0
LINE
  5
528
330
481
100
AcDbEntity
  8
0
  6
BYBLOCK
 62
     4
100
AcDbLine
 10
479.1587548226526
 20
267.8553574655999
 30
0.0
 11
527.2075332340683
 21
267.8553574655999
 31
0.0
  0
LINE
  5
529
330
481
100
AcDbEntity
  8
0
  6
BYBLOCK
 62
     4
100
AcDbLine
 10
422.3646589413262
 20
203.2019010328556
 30
0.0
 11
527.2075332340683
 21
203.2019010328556
 31
0.0
  0
LINE
  5
52A
330
481
100
AcDbEntity
  8
0
  6
BYBLOCK
 62
     4
100
AcDbLine
 10
524.2075332340682
 20
260.8553574655999
 30
0.0
 11
524.2075332340682
 21
210.2019010328556
 31
0.0
  0
INSERT
  5
52B
330
481
100
AcDbEntity
  8
0
  6
BYBLOCK
 62
     4
100
AcDbBlockReference
  2
_OPEN
 10
524.2075332340682
 20
267.8553574655999
 30
0.0
 41
7.0
 42
7.0
 43
7.0
 50
90.0
  0
INSERT
  5
52C
330
481
100
AcDbEntity
  8
0
  6
BYBLOCK
 62
     4
100
AcDbBlockReference
  2
_OPEN
 10
524.2075332340682
 20
203.2019010328556
 30
0.0
 41
7.0
 42
7.0
 43
7.0
 50
270.0
  0
MTEXT
  5
52D
330
481
100
AcDbEntity
  8
0
  6
BYBLOCK
 62
     4
100
AcDbMText
 10
519.2075332340682
 20
235.5286292492277
 30
0.0
 40
6.0
 41
0.0
 71
     5
 72
     1
  1
\A1;65
 11
0.0
 21
1.0
 31
0.0
1001
ACAD
1000
MTEXTBEGIN
1070
    73
1070
     1
1070
    44
1040
1.0
1070
    74
1070
     0
1000
MTEXTEND
1000
MTEXTBEGIN
1070
    73
1070
     1
1070
    44
1040
1.0
1070
    74
1070
     0
1000
MTEXTEND
  0
POINT
  5
52E
330
481
100
AcDbEntity
  8
DEFPOINTS
  6
BYBLOCK
 62
     0
100
AcDbPoint
 10
473.1587548226526
 20
267.8553574655999
 30
0.0
  0
POINT
  5
52F
330
481
100
AcDbEntity
  8
DEFPOINTS
  6
BYBLOCK
 62
     0
100
AcDbPoint
 10
416.3646589413263
 20
203.2019010328556
 30
0.0
  0
POINT
  5
530
330
481
100
AcDbEntity
  8
DEFPOINTS
  6
BYBLOCK
 62
     0
100
AcDbPoint
 10
524.2075332340682
 20
203.2019010328556
 30
0.0
  0
ENDBLK
  5
531
330
481
100
AcDbEntity
  8
0
100
AcDbBlockEnd
  0
BLOCK
  5
4EC
330
48D
100
AcDbEntity
  8
0
100
AcDbBlockBegin
  2
*D4
 70
     1
 10
0.0
 20
0.0
 30
0.0
  3
*D4
  1

  0
LINE
  5
4ED
330
48D
100
AcDbEntity
  8
0
  6
BYBLOCK
 62
     4
100
AcDbLine
 10
365.1718539273526
 20
161.376309526084
 30
0.0
 11
374.7461297988117
 21
130.0602125759687
 31
0.0
  0
LINE
  5
4EE
330
48D
100
AcDbEntity
  8
0
  6
BYBLOCK
 62
     4
100
AcDbLine
 10
336.6358080366707
 20
152.6519791578003
 30
0.0
 11
346.2100839081298
 21
121.335882207685
 31
0.0
  0
LINE
  5
4EF
330
48D
100
AcDbEntity
  8
0
  6
BYBLOCK
 62
     4
100
AcDbLine
 10
367.1748817720752
 20
130.8825284019375
 30
0.0
 11
352.0271043522702
 21
126.2513957263778
 31
0.0
  0
INSERT
  5
4F0
330
48D
100
AcDbEntity
  8
0
  6
BYBLOCK
 62
     4
100
AcDbBlockReference
  2
_OPEN
 10
373.8690160075137
 20
132.9291272482995
 30
0.0
 41
7.0
 42
7.0
 43
7.0
 50
16.99997358064171
  0
INSERT
  5
4F1
330
48D
100
AcDbEntity
  8
0
  6
BYBLOCK
 62
     4
100
AcDbBlockReference
  2
_OPEN
 10
345.3329701168318
 20
124.2047968800158
 30
0.0
 41
7.0
 42
7.0
 43
7.0
 50
196.9999735806417
  0
MTEXT
  5
4F2
330
48D
100
AcDbEntity
  8
0
  6
BYBLOCK
 62
     4
100
AcDbMText
 10
358.1391367433427
 20
133.3484865180423
 30
0.0
 40
6.0
 41
0.0
 71
     5
 72
     1
  1
\A1;30
 11
0.9563048907769269
 21
0.2923712637660031
 31
0.0
1001
ACAD
1000
MTEXTBEGIN
1070
    73
1070
     1
1070
    44
1040
1.0
1070
    74
1070
     0
1000
MTEXTEND
1000
MTEXTBEGIN
1070
    73
1070
     1
1070
    44
1040
1.0
1070
    74
1070
     0
1000
MTEXTEND
  0
POINT
  5
4F3
330
48D
100
AcDbEntity
  8
DEFPOINTS
  6
BYBLOCK
 62
     0
100
AcDbPoint
 10
363.4176263447565
 20
167.1141388707455
 30
0.0
  0
POINT
  5
4F4
330
48D
100
AcDbEntity
  8
DEFPOINTS
  6
BYBLOCK
 62
     0
100
AcDbPoint
 10
334.8815804540747
 20
158.3898085024618
 30
0.0
  0
POINT
  5
4F5
330
48D
100
AcDbEntity
  8
DEFPOINTS
  6
BYBLOCK
 62
     0
100
AcDbPoint
 10
345.3329701168318
 20
124.2047968800158
 30
0.0
  0
ENDBLK
  5
4F6
330
48D
100
AcDbEntity
  8
0
100
AcDbBlockEnd
  0
BLOCK
  5
4F7
330
499
100
AcDbEntity
  8
0
100
AcDbBlockBegin
  2
*D5
 70
     1
 10
0.0
 20
0.0
 30
0.0
  3
*D5
  1

  0
LINE
  5
4F8
330
499
100
AcDbEntity
  8
0
  6
BYBLOCK
 62
     4
100
AcDbLine
 10
335.7148312669792
 20
155.664302598173
 30
0.0
 11
346.2099232512856
 21
121.3358619988599
 31
0.0
  0
LINE
  5
4F9
330
499
100
AcDbEntity
  8
0
  6
BYBLOCK
 62
     4
100
AcDbLine
 10
307.0255842206874
 20
146.8932579059375
 30
0.0
 11
317.5206762049938
 21
112.5648173066245
 31
0.0
  0
LINE
  5
4FA
330
499
100
AcDbEntity
  8
0
  6
BYBLOCK
 62
     4
100
AcDbLine
 10
338.6386784721729
 20
122.1582077258865
 30
0.0
 11
323.3377160618839
 21
117.4803078521704
 31
0.0
  0
INSERT
  5
4FB
330
499
100
AcDbEntity
  8
0
  6
BYBLOCK
 62
     4
100
AcDbBlockReference
  2
_OPEN
 10
345.3328207901743
 20
124.2047801351462
 30
0.0
 41
7.0
 42
7.0
 43
7.0
 50
16.9997473029154
  0
INSERT
  5
4FC
330
499
100
AcDbEntity
  8
0
  6
BYBLOCK
 62
     4
100
AcDbBlockReference
  2
_OPEN
 10
316.6435737438825
 20
115.4337354429108
 30
0.0
 41
7.0
 42
7.0
 43
7.0
 50
196.9997473029153
  0
MTEXT
  5
4FD
330
499
100
AcDbEntity
  8
0
  6
BYBLOCK
 62
     4
100
AcDbMText
 10
329.526359831843
 20
124.6007880161724
 30
0.0
 40
6.0
 41
0.0
 71
     5
 72
     1
  1
\A1;30
 11
0.9563060454287715
 21
0.2923674870370925
 31
0.0
1001
ACAD
1000
MTEXTBEGIN
1070
    73
1070
     1
1070
    44
1040
1.0
1070
    74
1070
     0
1000
MTEXTEND
1000
MTEXTBEGIN
1070
    73
1070
     1
1070
    44
1040
1.0
1070
    74
1070
     0
1000
MTEXTEND
  0
POINT
  5
4FE
330
499
100
AcDbEntity
  8
DEFPOINTS
  6
BYBLOCK
 62
     0
100
AcDbPoint
 10
333.9606263447567
 20
161.4021388707456
 30
0.0
  0
POINT
  5
4FF
330
499
100
AcDbEntity
  8
DEFPOINTS
  6
BYBLOCK
 62
     0
100
AcDbPoint
 10
305.2713792984649
 20
152.6310941785102
 30
0.0
  0
POINT
  5
500
330
499
100
AcDbEntity
  8
DEFPOINTS
  6
BYBLOCK
 62
     0
100
AcDbPoint
 10
316.6435737438825
 20
115.4337354429108
 30
0.0
  0
ENDBLK
  5
501
330
499
100
AcDbEntity
  8
0
100
AcDbBlockEnd
  0
BLOCK
  5
502
330
4A5
100
AcDbEntity
  8
0
100
AcDbBlockBegin
  2
*D6
 70
     1
 10
0.0
 20
0.0
 30
0.0
  3
*D6
  1

  0
LINE
  5
503
330
4A5
100
AcDbEntity
  8
0
  6
BYBLOCK
 62
     4
100
AcDbLine
 10
312.1860972109084
 20
212.1013099292512
 30
0.0
 11
226.1035998920938
 21
185.7831299509943
 31
0.0
  0
LINE
  5
504
330
4A5
100
AcDbEntity
  8
0
  6
BYBLOCK
 62
     4
100
AcDbLine
 10
328.851392380351
 20
157.5918329089556
 30
0.0
 11
242.7688950615364
 21
131.2736529306988
 31
0.0
  0
LINE
  5
505
330
4A5
100
AcDbEntity
  8
0
  6
BYBLOCK
 62
     4
100
AcDbLine
 10
231.0191234724797
 20
179.9661180092264
 30
0.0
 11
243.591197791516
 21
138.8449023797836
 31
0.0
  0
INSERT
  5
506
330
4A5
100
AcDbEntity
  8
0
  6
BYBLOCK
 62
     4
100
AcDbBlockReference
  2
_OPEN
 10
228.9725130472765
 20
186.6602487046528
 30
0.0
 41
7.0
 42
7.0
 43
7.0
 50
107.0000726851529
  0
INSERT
  5
507
330
4A5
100
AcDbEntity
  8
0
  6
BYBLOCK
 62
     4
100
AcDbBlockReference
  2
_OPEN
 10
245.6378082167191
 20
132.1507716843572
 30
0.0
 41
7.0
 42
7.0
 43
7.0
 50
287.0000726851529
  0
MTEXT
  5
508
330
4A5
100
AcDbEntity
  8
0
  6
BYBLOCK
 62
     4
100
AcDbMText
 10
242.0866825573024
 20
160.8673747839358
 30
0.0
 40
6.0
 41
0.0
 71
     5
 72
     1
  1
\A1;φ57
 11
0.2923729178861601
 21
-0.956304385060914
 31
0.0
1001
ACAD
1000
MTEXTBEGIN
1070
    73
1070
     1
1070
    44
1040
1.0
1070
    74
1070
     0
1000
MTEXTEND
1000
MTEXTBEGIN
1070
    73
1070
     1
1070
    44
1040
1.0
1070
    74
1070
     0
1000
MTEXTEND
  0
POINT
  5
509
330
4A5
100
AcDbEntity
  8
DEFPOINTS
  6
BYBLOCK
 62
     0
100
AcDbPoint
 10
317.9239235212739
 20
213.8555474365681
 30
0.0
  0
POINT
  5
50A
330
4A5
100
AcDbEntity
  8
DEFPOINTS
  6
BYBLOCK
 62
     0
100
AcDbPoint
 10
334.5892186907164
 20
159.3460704162725
 30
0.0
  0
POINT
  5
50B
330
4A5
100
AcDbEntity
  8
DEFPOINTS
  6
BYBLOCK
 62
     0
100
AcDbPoint
 10
245.6378082167191
 20
132.1507716843572
 30
0.0
  0
ENDBLK
  5
50C
330
4A5
100
AcDbEntity
  8
0
100
AcDbBlockEnd
  0
BLOCK
  5
50D
330
4B1
100
AcDbEntity
  8
0
100
AcDbBlockBegin
  2
*D7
 70
     1
 10
0.0
 20
0.0
 30
0.0
  3
*D7
  1

  0
LINE
  5
50E
330
4B1
100
AcDbEntity
  8
0
  6
BYBLOCK
 62
     4
100
AcDbLine
 10
284.1256251802682
 20
201.2740176886703
 30
0.0
 11
247.3635816383692
 21
190.0347553665979
 31
0.0
  0
LINE
  5
50F
330
4B1
100
AcDbEntity
  8
0
  6
BYBLOCK
 62
     4
100
AcDbLine
 10
299.5335700586251
 20
150.8768008360172
 30
0.0
 11
262.771526516726
 21
139.6375385139448
 31
0.0
  0
LINE
  5
510
330
4B1
100
AcDbEntity
  8
0
  6
BYBLOCK
 62
     4
100
AcDbLine
 10
252.2790946120601
 20
184.2177344619186
 30
0.0
 11
263.5938430520519
 21
147.2087864636378
 31
0.0
  0
INSERT
  5
511
330
4B1
100
AcDbEntity
  8
0
  6
BYBLOCK
 62
     4
100
AcDbBlockReference
  2
_OPEN
 10
250.2324963928776
 20
190.9118688891047
 30
0.0
 41
7.0
 42
7.0
 43
7.0
 50
106.9999682125482
  0
INSERT
  5
512
330
4B1
100
AcDbEntity
  8
0
  6
BYBLOCK
 62
     4
100
AcDbBlockReference
  2
_OPEN
 10
265.6404412712344
 20
140.5146520364516
 30
0.0
 41
7.0
 42
7.0
 43
7.0
 50
286.9999682125482
  0
MTEXT
  5
513
330
4B1
100
AcDbEntity
  8
0
  6
BYBLOCK
 62
     4
100
AcDbMText
 10
262.7179934229033
 20
167.1751163336228
 30
0.0
 40
6.0
 41
0.0
 71
     5
 72
     1
  1
\A1;φ53
 11
0.2923711741689313
 21
-0.9563049181694511
 31
0.0
1001
ACAD
1000
MTEXTBEGIN
1070
    73
1070
     1
1070
    44
1040
1.0
1070
    74
1070
     0
1000
MTEXTEND
1000
MTEXTBEGIN
1070
    73
1070
     1
1070
    44
1040
1.0
1070
    74
1070
     0
1000
MTEXTEND
  0
POINT
  5
514
330
4B1
100
AcDbEntity
  8
DEFPOINTS
  6
BYBLOCK
 62
     0
100
AcDbPoint
 10
289.863454689285
 20
203.0282447336839
 30
0.0
  0
POINT
  5
515
330
4B1
100
AcDbEntity
  8
DEFPOINTS
  6
BYBLOCK
 62
     0
100
AcDbPoint
 10
305.2713995676418
 20
152.6310278810308
 30
0.0
  0
POINT
  5
516
330
4B1
100
AcDbEntity
  8
DEFPOINTS
  6
BYBLOCK
 62
     0
100
AcDbPoint
 10
265.6404412712344
 20
140.5146520364516
 30
0.0
  0
ENDBLK
  5
517
330
4B1
100
AcDbEntity
  8
0
100
AcDbBlockEnd
  0
BLOCK
  5
53F
330
4BD
100
AcDbEntity
  8
0
100
AcDbBlockBegin
  2
*D8
 70
     1
 10
0.0
 20
0.0
 30
0.0
  3
*D8
  1

  0
LINE
  5
540
330
4BD
100
AcDbEntity
  8
0
  6
BYBLOCK
 62
     4
100
AcDbLine
 10
487.5899548226526
 20
488.7920574655999
 30
0.0
 11
527.2075332340683
 21
488.7920574655999
 31
0.0
  0
LINE
  5
541
330
4BD
100
AcDbEntity
  8
0
  6
BYBLOCK
 62
     4
100
AcDbLine
 10
487.5899548226525
 20
343.7919574655998
 30
0.0
 11
527.2075332340683
 21
343.7919574655998
 31
0.0
  0
LINE
  5
542
330
4BD
100
AcDbEntity
  8
0
  6
BYBLOCK
 62
     4
100
AcDbLine
 10
524.2075332340682
 20
481.7920574655999
 30
0.0
 11
524.2075332340682
 21
350.7919574655998
 31
0.0
  0
INSERT
  5
543
330
4BD
100
AcDbEntity
  8
0
  6
BYBLOCK
 62
     4
100
AcDbBlockReference
  2
_OPEN
 10
524.2075332340682
 20
488.7920574655999
 30
0.0
 41
7.0
 42
7.0
 43
7.0
 50
90.0
  0
INSERT
  5
544
330
4BD
100
AcDbEntity
  8
0
  6
BYBLOCK
 62
     4
100
AcDbBlockReference
  2
_OPEN
 10
524.2075332340682
 20
343.7919574655998
 30
0.0
 41
7.0
 42
7.0
 43
7.0
 50
270.0
  0
MTEXT
  5
545
330
4BD
100
AcDbEntity
  8
0
  6
BYBLOCK
 62
     4
100
AcDbMText
 10
519.2075332340682
 20
416.2920074655999
 30
0.0
 40
6.0
 41
0.0
 71
     5
 72
     1
  1
\A1;145
 11
0.0
 21
1.0
 31
0.0
1001
ACAD
1000
MTEXTBEGIN
1070
    73
1070
     1
1070
    44
1040
1.0
1070
    74
1070
     0
1000
MTEXTEND
1000
MTEXTBEGIN
1070
    73
1070
     1
1070
    44
1040
1.0
1070
    74
1070
     0
1000
MTEXTEND
  0
POINT
  5
546
330
4BD
100
AcDbEntity
  8
DEFPOINTS
  6
BYBLOCK
 62
     0
100
AcDbPoint
 10
481.5899548226526
 20
488.7920574655999
 30
0.0
  0
POINT
  5
547
330
4BD
100
AcDbEntity
  8
DEFPOINTS
  6
BYBLOCK
 62
     0
100
AcDbPoint
 10
481.5899548226526
 20
343.7919574655998
 30
0.0
  0
POINT
  5
548
330
4BD
100
AcDbEntity
  8
DEFPOINTS
  6
BYBLOCK
 62
     0
100
AcDbPoint
 10
524.2075332340682
 20
343.7919574655998
 30
0.0
  0
ENDBLK
  5
549
330
4BD
100
AcDbEntity
  8
0
100
AcDbBlockEnd
  0
ENDSEC
  0
SECTION
  2
ENTITIES
  0
TEXT
  5
11A
330
1A
100
AcDbEntity
  8
ZIWAKU
 62
     7
 48
10.0
100
AcDbText
 10
795.5579444309237
 20
4.974918402528146
 30
0.0
 40
8.0
  1
A1
100
AcDbText
  0
LINE
  5
11B
330
1A
100
AcDbEntity
  8
ZIWAKU
 62
     7
 48
10.0
100
AcDbLine
 10
10.05047808566086
 20
25.78258628282265
 30
0.0
 11
806.0504780856609
 21
25.78258628282253
 31
0.0
  0
LINE
  5
11C
330
1A
100
AcDbEntity
  8
ZIWAKU
  6
CONTINUOUS
 62
     7
100
AcDbLine
 10
806.0504780856609
 20
563.7825862828226
 30
0.0
 11
10.05047808566086
 21
563.7825862828226
 31
0.0
  0
LINE
  5
11D
330
1A
100
AcDbEntity
  8
ZIWAKU
  6
CONTINUOUS
 62
     7
100
AcDbLine
 10
806.0504780856609
 20
13.78258628282265
 30
0.0
 11
10.05047808566086
 21
13.78258628282265
 31
0.0
  0
LINE
  5
11E
330
1A
100
AcDbEntity
  8
ZIWAKU
  6
CONTINUOUS
 62
     7
100
AcDbLine
 10
10.05047808566086
 20
563.7825862828226
 30
0.0
 11
10.05047808566086
 21
13.78258628282265
 31
0.0
  0
LINE
  5
11F
330
1A
100
AcDbEntity
  8
ZIWAKU
 62
     7
 48
10.0
100
AcDbLine
 10
44.55797523147839
 20
13.78258628282265
 30
0.0
 11
44.5579752314784
 21
25.78258628282265
 31
0.0
  0
TEXT
  5
120
330
1A
100
AcDbEntity
  8
ZIWAKU
 62
     7
100
AcDbText
 10
16.05676551180931
 20
15.52294263804401
 30
0.0
 40
8.0
  1
品 種
100
AcDbText
  0
LINE
  5
121
330
1A
100
AcDbEntity
  8
ZIWAKU
 62
     7
 48
10.0
100
AcDbLine
 10
276.1028387068254
 20
13.78258628282265
 30
0.0
 11
276.1028387068254
 21
25.78258628282261
 31
0.0
  0
LINE
  5
122
330
1A
100
AcDbEntity
  8
ZIWAKU
 62
     7
 48
10.0
100
AcDbLine
 10
209.5138526425484
 20
13.78258628282265
 30
0.0
 11
209.5138526425485
 21
25.78258628282263
 31
0.0
  0
TEXT
  5
123
330
1A
100
AcDbEntity
  8
ZIWAKU
 62
     7
100
AcDbText
 10
282.3131429914078
 20
15.64241700452384
 30
0.0
 40
8.0
  1
よびといジョイント　１２０－ＵＴ５５・ＵＴ６０
100
AcDbText
  0
TEXT
  5
124
330
1A
100
AcDbEntity
  8
ZIWAKU
 62
     7
100
AcDbText
 10
215.4560837190756
 20
16.18358115302453
 30
0.0
 40
8.0
  1
品名・ｻ ｲ ｽﾞ
100
AcDbText
  0
TEXT
  5
125
330
1A
100
AcDbEntity
  8
ZIWAKU
 62
     7
100
AcDbText
 10
50.3519382305086
 20
16.10306189639755
 30
0.0
 40
8.0
  1
丸トップ　のきとい
100
AcDbText
  0
LINE
  5
126
330
1A
100
AcDbEntity
  8
ZIWAKU
 62
     7
 48
10.0
100
AcDbLine
 10
768.7231079932794
 20
13.78258628282237
 30
0.0
 11
768.7231079932794
 21
25.78258628282254
 31
0.0
  0
LINE
  5
127
330
1A
100
AcDbEntity
  8
ZIWAKU
 62
     7
 48
10.0
100
AcDbLine
 10
733.8119002376948
 20
13.78258628282242
 30
0.0
 11
733.8119002376946
 21
25.78258628282254
 31
0.0
  0
TEXT
  5
128
330
1A
100
AcDbEntity
  8
ZIWAKU
 62
     7
100
AcDbText
 10
739.6955629973526
 20
15.24227755810852
 30
0.0
 40
8.0
  1
尺 度
100
AcDbText
  0
TEXT
  5
129
330
1A
100
AcDbEntity
  8
ZIWAKU
 62
     7
100
AcDbText
 10
779.7374630323229
 20
15.55488920081529
 30
0.0
 40
8.0
  1
1/2
100
AcDbText
  0
TEXT
  5
12A
330
1A
100
AcDbEntity
  8
ZIWAKU
 62
     7
100
AcDbText
 10
654.2531733678779
 20
15.90287984531518
 30
0.0
 40
8.0
  1
ＧＤ６２
100
AcDbText
  0
TEXT
  5
12B
330
1A
100
AcDbEntity
  8
ZIWAKU
 62
     7
100
AcDbText
 10
620.3363288383084
 20
15.6519090944263
 30
0.0
 40
8.0
  1
品 番
100
AcDbText
  0
LINE
  5
12C
330
1A
100
AcDbEntity
  8
ZIWAKU
 62
     7
 48
10.0
100
AcDbLine
 10
614.3351028194128
 20
13.78258628282232
 30
0.0
 11
614.3351028194128
 21
25.78258628282256
 31
0.0
  0
LINE
  5
12D
330
1A
100
AcDbEntity
  8
ZIWAKU
 62
     7
 48
10.0
100
AcDbLine
 10
648.7607587371021
 20
13.78258628282232
 30
0.0
 11
648.7607587371021
 21
25.78258628282255
 31
0.0
  0
TEXT
  5
12E
330
1A
100
AcDbEntity
  8
ZIWAKU
 62
     7
 48
10.0
100
AcDbText
 10
646.2758615931216
 20
4.949376903717848
 30
0.0
 40
8.0
  1
積水化学工業株式会社  建材
100
AcDbText
  0
LINE
  5
12F
330
1A
100
AcDbEntity
  8
ZIWAKU
  6
CONTINUOUS
 62
     7
100
AcDbLine
 10
806.0504780856609
 20
563.7825862828226
 30
0.0
 11
806.0504780856609
 21
13.78258628282265
 31
0.0
  0
DIMENSION
  5
3BD
330
1A
100
AcDbEntity
  8
SUNPOU
100
AcDbDimension
  2
*D1
 10
429.5061548226528
 20
196.3029574655999
 30
0.0
 11
402.9268005196319
 21
172.3393054681137
 31
0.0
 70
    34
  3
STANDARD
100
AcDb2LineAngularDimension
 13
404.8721365740346
 23
152.2178739458031
 33
0.0
 14
460.4079087008357
 24
211.7726432055295
 34
0.0
 15
315.1955548226526
 25
161.3547574655999
 35
0.0
 16
395.9579366853963
 26
174.5125395813183
 36
0.0
1001
ACAD
1000
DSTYLE
1002
{
1070
   271
1070
     0
1070
   271
1070
     0
1070
   140
1040
6.0
1070
    74
1070
     0
1070
   172
1070
     1
1070
    73
1070
     0
1070
   272
1070
     2
1070
    77
1070
     3
1070
   173
1070
     1
1070
   147
1040
2.0
1070
    42
1040
6.0
1070
    44
1040
3.0
1070
    43
1040
14.0
1070
   271
1070
     0
1070
   178
1070
     4
1070
   177
1070
     4
1070
   176
1070
     4
1070
   141
1040
150.0
1070
     7
1000
_OPEN
1070
     6
1000
_OPEN
1070
    41
1040
7.0
1002
}
  0
LINE
  5
3BE
330
1A
100
AcDbEntity
  8
CENTER_L
  6
CENTER
 62
     1
 48
5.0
100
AcDbLine
 10
404.8721365740346
 20
152.2178739458031
 30
0.0
 11
460.4079087008357
 21
211.7726432055295
 31
0.0
  0
ARC
  5
3BF
330
1A
100
AcDbEntity
  8
SEIHIN
  6
CONTINUOUS
 62
     3
 48
16.0
100
AcDbCircle
 10
416.0904597778879
 20
262.2012577115413
 30
0.0
 40
58.99999384474551
100
AcDbArc
 50
225.9792529832085
 51
319.7035559673569
  0
ARC
  5
3C0
330
1A
100
AcDbEntity
  8
NOKITOI
  6
PHANTOM
 62
     8
 48
5.0
100
AcDbCircle
 10
416.0902051824736
 20
261.7012580937486
 30
0.0
 40
55.69997777445496
100
AcDbArc
 50
183.4893828011791
 51
356.5101019184219
  0
ARC
  5
3C1
330
1A
100
AcDbEntity
  8
NOKITOI
  6
PHANTOM
 62
     8
 48
5.0
100
AcDbCircle
 10
416.0902548226526
 20
261.7012562809999
 30
0.0
 40
56.99999881544602
100
AcDbArc
 50
186.7561500022946
 51
353.2434543568847
  0
ARC
  5
3C2
330
1A
100
AcDbEntity
  8
SEIHIN
  6
CONTINUOUS
 62
     3
 48
16.0
100
AcDbCircle
 10
416.0902310573141
 20
261.7012374277397
 30
0.0
 40
56.99997996219085
100
AcDbArc
 50
189.727560582098
 51
350.2722726658455
  0
ARC
  5
3C3
330
1A
100
AcDbEntity
  8
SEIHIN
  6
CONTINUOUS
 62
     3
 48
16.0
100
AcDbCircle
 10
416.0902560145323
 20
261.7012584490166
 30
0.0
 40
58.50000098350427
100
AcDbArc
 50
190.9396274796868
 51
349.0520033852423
  0
LINE
  5
3C4
330
1A
100
AcDbEntity
  8
CENTER_L
  6
CENTER
 62
     1
 48
5.0
100
AcDbLine
 10
488.5899548226527
 20
416.2920272096142
 30
0.0
 11
311.4936441836614
 21
416.2923453882341
 31
0.0
  0
LINE
  5
3C5
330
1A
100
AcDbEntity
  8
SEIHIN
  6
CONTINUOUS
 62
     3
 48
16.0
100
AcDbLine
 10
481.5899548226525
 20
343.7919574659054
 30
0.0
 11
350.5907548226526
 21
343.7921574655998
 31
0.0
  0
LINE
  5
3C6
330
1A
100
AcDbEntity
  8
SEIHIN
  6
CONTINUOUS
 62
     3
 48
16.0
100
AcDbLine
 10
481.5899548226526
 20
488.7921574652945
 30
0.0
 11
350.5907548226526
 21
488.7919574655999
 31
0.0
  0
LINE
  5
3C7
330
1A
100
AcDbEntity
  8
SEIHIN
  6
CONTINUOUS
 62
     3
 48
16.0
100
AcDbLine
 10
396.8292548226528
 20
155.4647574655999
 30
0.0
 11
453.1509548226526
 21
192.2012574655999
 31
0.0
  0
LINE
  5
3C8
330
1A
100
AcDbEntity
  8
SUNPOU
  6
CONTINUOUS
 62
     4
 48
16.0
100
AcDbLine
 10
349.4692819402145
 20
294.2894686441334
 30
0.0
 11
480.4684819402146
 21
294.2894686441334
 31
0.0
  0
DIMENSION
  5
3C9
330
1A
100
AcDbEntity
  8
SUNPOU
100
AcDbDimension
  2
*D2
 10
524.2075332340682
 20
192.2013119805793
 30
0.0
 11
519.2075332340682
 21
197.7016065067174
 31
0.0
 70
    32
  3
STANDARD
100
AcDbAlignedDimension
 13
416.3646589413263
 23
203.2019010328556
 33
0.0
 14
416.0902548226526
 24
192.2013119805793
 34
0.0
 50
90.0
100
AcDbRotatedDimension
1001
ACAD
1000
DSTYLE
1002
{
1070
   140
1040
6.0
1070
    74
1070
     0
1070
   172
1070
     1
1070
    73
1070
     0
1070
   272
1070
     2
1070
    77
1070
     3
1070
   173
1070
     1
1070
   147
1040
2.0
1070
    42
1040
6.0
1070
    44
1040
3.0
1070
    43
1040
14.0
1070
   271
1070
     0
1070
   178
1070
     4
1070
   177
1070
     4
1070
   176
1070
     4
1070
   141
1040
150.0
1070
     7
1000
_OPEN
1070
     6
1000
_OPEN
1070
    41
1040
7.0
1002
}
  0
DIMENSION
  5
3CA
330
1A
100
AcDbEntity
  8
SUNPOU
100
AcDbDimension
  2
*D3
 10
524.2075332340682
 20
203.2019010328556
 30
0.0
 11
519.2075332340682
 21
235.5286292492277
 31
0.0
 70
    32
  3
STANDARD
100
AcDbAlignedDimension
 13
473.1587548226526
 23
267.8553574655999
 33
0.0
 14
416.3646589413263
 24
203.2019010328556
 34
0.0
 50
90.0
100
AcDbRotatedDimension
1001
ACAD
1000
DSTYLE
1002
{
1070
   140
1040
6.0
1070
    74
1070
     0
1070
   172
1070
     1
1070
    73
1070
     0
1070
   272
1070
     2
1070
    77
1070
     3
1070
   173
1070
     1
1070
   147
1040
2.0
1070
    42
1040
6.0
1070
    44
1040
3.0
1070
    43
1040
14.0
1070
   271
1070
     0
1070
   178
1070
     4
1070
   177
1070
     4
1070
   176
1070
     4
1070
   141
1040
150.0
1070
     7
1000
_OPEN
1070
     6
1000
_OPEN
1070
    41
1040
7.0
1002
}
  0
LINE
  5
3CB
330
1A
100
AcDbEntity
  8
SUNPOU
  6
CONTINUOUS
 62
     4
 48
16.0
100
AcDbLine
 10
349.4692819402145
 20
294.2894686441334
 30
0.0
 11
353.4084819402146
 21
294.9840686441335
 31
0.0
  0
LINE
  5
3CC
330
1A
100
AcDbEntity
  8
SUNPOU
  6
CONTINUOUS
 62
     4
 48
16.0
100
AcDbLine
 10
350.5906548226527
 20
261.3012574655998
 30
0.0
 11
349.4692819402145
 21
296.2894686441334
 31
0.0
  0
DIMENSION
  5
3CD
330
1A
100
AcDbEntity
  8
SUNPOU
100
AcDbDimension
  2
*D4
 10
373.9630985947278
 20
111.0935154748701
 30
0.0
 11
386.7692652212387
 21
120.2372051128965
 31
0.0
 12
28.63012847789605
 22
-13.11128140514574
 32
0.0
 70
    33
  3
STANDARD
100
AcDbAlignedDimension
 13
392.0477548226527
 23
154.0028574655998
 33
0.0
 14
363.5117089319707
 24
145.2785270973161
 34
0.0
1001
ACAD
1000
DSTYLE
1002
{
1070
   140
1040
6.0
1070
    74
1070
     0
1070
   172
1070
     1
1070
    73
1070
     0
1070
   272
1070
     2
1070
    77
1070
     3
1070
   173
1070
     1
1070
   147
1040
2.0
1070
    42
1040
6.0
1070
    44
1040
3.0
1070
    43
1040
14.0
1070
   271
1070
     0
1070
   178
1070
     4
1070
   177
1070
     4
1070
   176
1070
     4
1070
   141
1040
150.0
1070
     7
1000
_OPEN
1070
     6
1000
_OPEN
1070
    41
1040
7.0
1002
}
  0
DIMENSION
  5
3CE
330
1A
100
AcDbEntity
  8
SUNPOU
100
AcDbDimension
  2
*D5
 10
345.2737022217786
 20
102.322454037765
 30
0.0
 11
358.156488309739
 21
111.4895066110266
 31
0.0
 12
28.63012847789605
 22
-13.11128140514574
 32
0.0
 70
    33
  3
STANDARD
100
AcDbAlignedDimension
 13
362.5907548226527
 23
148.2908574655998
 33
0.0
 14
333.9015077763609
 24
139.5198127733644
 34
0.0
1001
ACAD
1000
DSTYLE
1002
{
1070
   140
1040
6.0
1070
    74
1070
     0
1070
   172
1070
     1
1070
    73
1070
     0
1070
   272
1070
     2
1070
    77
1070
     3
1070
   173
1070
     1
1070
   147
1040
2.0
1070
    42
1040
6.0
1070
    44
1040
3.0
1070
    43
1040
14.0
1070
   271
1070
     0
1070
   178
1070
     4
1070
   177
1070
     4
1070
   176
1070
     4
1070
   141
1040
150.0
1070
     7
1000
_OPEN
1070
     6
1000
_OPEN
1070
    41
1040
7.0
1002
}
  0
LINE
  5
3CF
330
1A
100
AcDbEntity
  8
CENTER_L
  6
CENTER
 62
     1
 48
5.0
100
AcDbLine
 10
315.1955548226526
 20
161.3547574655999
 30
0.0
 11
429.5061548226527
 21
196.3029574655999
 31
0.0
  0
DIMENSION
  5
3D0
330
1A
100
AcDbEntity
  8
SUNPOU
100
AcDbDimension
  2
*D6
 10
274.2679366946151
 20
119.0394902792115
 30
0.0
 11
270.7168110351984
 21
147.75609337879
 31
0.0
 12
28.63012847789605
 22
-13.11128140514574
 32
0.0
 70
    33
  1
φ<>
  3
STANDARD
100
AcDbAlignedDimension
 13
346.55405199917
 23
200.7442660314224
 33
0.0
 14
363.2193471686126
 24
146.2347890111268
 34
0.0
1001
ACAD
1000
DSTYLE
1002
{
1070
   140
1040
6.0
1070
    74
1070
     0
1070
   172
1070
     1
1070
    73
1070
     0
1070
   272
1070
     2
1070
    77
1070
     3
1070
   173
1070
     1
1070
   147
1040
2.0
1070
    42
1040
6.0
1070
    44
1040
3.0
1070
    43
1040
14.0
1070
   271
1070
     0
1070
   178
1070
     4
1070
   177
1070
     4
1070
   176
1070
     4
1070
   141
1040
150.0
1070
     7
1000
_OPEN
1070
     6
1000
_OPEN
1070
    41
1040
7.0
1002
}
  0
DIMENSION
  5
3D1
330
1A
100
AcDbEntity
  8
SUNPOU
100
AcDbDimension
  2
*D7
 10
294.2705697491304
 20
127.4033706313059
 30
0.0
 11
291.3481219007993
 21
154.0638349284771
 31
0.0
 12
28.63012847789605
 22
-13.11128140514574
 32
0.0
 70
    33
  1
φ<>
  3
STANDARD
100
AcDbAlignedDimension
 13
318.4935831671809
 23
189.9169633285381
 33
0.0
 14
333.9015280455378
 24
139.519746475885
 34
0.0
1001
ACAD
1000
DSTYLE
1002
{
1070
   140
1040
6.0
1070
    74
1070
     0
1070
   172
1070
     1
1070
    73
1070
     0
1070
   272
1070
     2
1070
    77
1070
     3
1070
   173
1070
     1
1070
   147
1040
2.0
1070
    42
1040
6.0
1070
    44
1040
3.0
1070
    43
1040
14.0
1070
   271
1070
     0
1070
   178
1070
     4
1070
   177
1070
     4
1070
   176
1070
     4
1070
   141
1040
150.0
1070
     7
1000
_OPEN
1070
     6
1000
_OPEN
1070
    41
1040
7.0
1002
}
  0
LINE
  5
3D2
330
1A
100
AcDbEntity
  8
SEIHIN
  6
CONTINUOUS
 62
     3
 48
16.0
100
AcDbLine
 10
375.0903548226527
 20
219.7749574656
 30
0.0
 11
375.0902548226526
 21
209.4685574655999
 31
0.0
  0
LINE
  5
3D3
330
1A
100
AcDbEntity
  8
CENTER_L
  6
CENTER
 62
     1
 48
5.0
100
AcDbLine
 10
416.0902548226526
 20
175.1775574655998
 30
0.0
 11
416.0902548226526
 21
226.0511574655998
 31
0.0
  0
LINE
  5
3D4
330
1A
100
AcDbEntity
  8
SEIHIN
  6
CONTINUOUS
 62
     3
 48
16.0
100
AcDbLine
 10
387.1269548226527
 20
153.5440574656
 30
0.0
 11
381.6632548226527
 21
181.6759574655998
 31
0.0
  0
LINE
  5
3D5
330
1A
100
AcDbEntity
  8
SEIHIN
  6
CONTINUOUS
 62
     3
 48
16.0
100
AcDbLine
 10
378.7941548226527
 20
180.7994574655999
 30
0.0
 11
387.1269548226527
 21
153.5440574656
 31
0.0
  0
LINE
  5
3D6
330
1A
100
AcDbEntity
  8
SEIHIN
  6
CONTINUOUS
 62
     3
 48
16.0
100
AcDbLine
 10
376.8815548226527
 20
180.2147574655998
 30
0.0
 11
385.2143548226527
 21
152.9593574655998
 31
0.0
  0
LINE
  5
3D7
330
1A
100
AcDbEntity
  8
SEIHIN
  6
CONTINUOUS
 62
     3
 48
16.0
100
AcDbLine
 10
374.0127548226526
 20
179.3369574655998
 30
0.0
 11
385.2143548226527
 21
152.9593574655998
 31
0.0
  0
LINE
  5
3D8
330
1A
100
AcDbEntity
  8
SEIHIN
  6
CONTINUOUS
 62
     3
 48
16.0
100
AcDbLine
 10
373.7383548226527
 20
149.4507574655999
 30
0.0
 11
391.7554548226527
 21
154.9591574655998
 31
0.0
  0
LINE
  5
3D9
330
1A
100
AcDbEntity
  8
SEIHIN
  6
CONTINUOUS
 62
     3
 48
16.0
100
AcDbLine
 10
375.0902548226526
 20
209.4685574655999
 30
0.0
 11
392.0477548226528
 21
154.0028574655998
 31
0.0
  0
LINE
  5
3DA
330
1A
100
AcDbEntity
  8
SEIHIN
  6
CONTINUOUS
 62
     3
 48
16.0
100
AcDbLine
 10
396.8292548226528
 20
155.4647574655999
 30
0.0
 11
375.0902548226526
 21
209.4685574655999
 31
0.0
  0
LINE
  5
3DB
330
1A
100
AcDbEntity
  8
SEIHIN
  6
CONTINUOUS
 62
     3
 48
16.0
100
AcDbLine
 10
344.4205548226526
 20
142.7357574655998
 30
0.0
 11
333.8476548226527
 21
167.0572574655998
 31
0.0
  0
LINE
  5
3DC
330
1A
100
AcDbEntity
  8
SEIHIN
  6
CONTINUOUS
 62
     3
 48
16.0
100
AcDbLine
 10
336.7700548226526
 20
140.3967574655998
 30
0.0
 11
331.9350548226527
 21
166.4724574655999
 31
0.0
  0
LINE
  5
3DD
330
1A
100
AcDbEntity
  8
SEIHIN
  6
CONTINUOUS
 62
     3
 48
16.0
100
AcDbLine
 10
333.7553548226526
 20
139.9978574655999
 30
0.0
 11
326.1973548226527
 21
164.7189574655999
 31
0.0
  0
LINE
  5
3DE
330
1A
100
AcDbEntity
  8
SEIHIN
  6
CONTINUOUS
 62
     3
 48
16.0
100
AcDbLine
 10
334.3793548226527
 20
139.6657574655999
 30
0.0
 11
326.6752548226528
 21
164.8647574655998
 31
0.0
  0
LINE
  5
3DF
330
1A
100
AcDbEntity
  8
SEIHIN
  6
CONTINUOUS
 62
     3
 48
16.0
100
AcDbLine
 10
339.7632548226526
 20
140.8673574655999
 30
0.0
 11
331.9349548226526
 21
166.4728574655999
 31
0.0
  0
LINE
  5
3E0
330
1A
100
AcDbEntity
  8
SEIHIN
  6
CONTINUOUS
 62
     3
 48
16.0
100
AcDbLine
 10
341.6759548226528
 20
141.4521574655998
 30
0.0
 11
333.8475548226528
 21
167.0575574655999
 31
0.0
  0
LINE
  5
3E1
330
1A
100
AcDbEntity
  8
SEIHIN
  6
CONTINUOUS
 62
     3
 48
16.0
100
AcDbLine
 10
366.0878548226528
 20
147.1117574655999
 30
0.0
 11
360.6241548226527
 21
175.2436574655998
 31
0.0
  0
LINE
  5
3E2
330
1A
100
AcDbEntity
  8
SEIHIN
  6
CONTINUOUS
 62
     3
 48
16.0
100
AcDbLine
 10
363.0731548226528
 20
146.7129574655998
 30
0.0
 11
354.8864548226526
 21
173.4901574655999
 31
0.0
  0
LINE
  5
3E3
330
1A
100
AcDbEntity
  8
SEIHIN
  6
CONTINUOUS
 62
     3
 48
16.0
100
AcDbLine
 10
363.6971548226526
 20
146.3808574655998
 30
0.0
 11
355.3644548226527
 21
173.6359574655998
 31
0.0
  0
LINE
  5
3E4
330
1A
100
AcDbEntity
  8
SEIHIN
  6
CONTINUOUS
 62
     3
 48
16.0
100
AcDbLine
 10
345.3236548226527
 20
170.5657574655998
 30
0.0
 11
355.8965548226526
 21
146.2442574655999
 31
0.0
  0
LINE
  5
3E5
330
1A
100
AcDbEntity
  8
SEIHIN
  6
CONTINUOUS
 62
     3
 48
16.0
100
AcDbLine
 10
357.8091548226526
 20
146.8289574655998
 30
0.0
 11
352.9740548226528
 21
172.9047574655999
 31
0.0
  0
LINE
  5
3E6
330
1A
100
AcDbEntity
  8
SEIHIN
  6
CONTINUOUS
 62
     3
 48
16.0
100
AcDbLine
 10
355.8965548226526
 20
146.2442574655999
 30
0.0
 11
348.1923548226526
 21
171.4435574655999
 31
0.0
  0
LINE
  5
3E7
330
1A
100
AcDbEntity
  8
SEIHIN
  6
CONTINUOUS
 62
     3
 48
16.0
100
AcDbLine
 10
350.1049548226526
 20
172.0282574655999
 30
0.0
 11
357.8091548226526
 21
146.8289574655998
 31
0.0
  0
LINE
  5
3E8
330
1A
100
AcDbEntity
  8
SEIHIN
  6
CONTINUOUS
 62
     3
 48
16.0
100
AcDbLine
 10
362.5368548226526
 20
175.8283574655998
 30
0.0
 11
373.7383548226527
 21
149.4507574655999
 31
0.0
  0
LINE
  5
3E9
330
1A
100
AcDbEntity
  8
SEIHIN
  6
CONTINUOUS
 62
     3
 48
16.0
100
AcDbLine
 10
369.0810548226528
 20
147.5825574655998
 30
0.0
 11
360.6240548226527
 21
175.2439574655999
 31
0.0
  0
LINE
  5
3EA
330
1A
100
AcDbEntity
  8
SEIHIN
  6
CONTINUOUS
 62
     3
 48
16.0
100
AcDbLine
 10
370.9936548226528
 20
148.1672574655999
 30
0.0
 11
362.5366548226527
 21
175.8287574655999
 31
0.0
  0
LINE
  5
3EB
330
1A
100
AcDbEntity
  8
SEIHIN
  6
CONTINUOUS
 62
     3
 48
16.0
100
AcDbLine
 10
344.4205548226526
 20
142.7357574655998
 30
0.0
 11
362.5907548226526
 21
148.2908574655998
 31
0.0
  0
LINE
  5
3EC
330
1A
100
AcDbEntity
  8
SEIHIN
  6
CONTINUOUS
 62
     3
 48
16.0
100
AcDbLine
 10
334.3797548226528
 20
139.6659574655999
 30
0.0
 11
336.7700548226526
 21
140.3967574655998
 31
0.0
  0
LINE
  5
3ED
330
1A
100
AcDbEntity
  8
SEIHIN
  6
CONTINUOUS
 62
     3
 48
16.0
100
AcDbLine
 10
334.3797548226528
 20
139.6659574655999
 30
0.0
 11
333.7553548226526
 21
139.9978574655999
 31
0.0
  0
LINE
  5
3EE
330
1A
100
AcDbEntity
  8
SEIHIN
  6
CONTINUOUS
 62
     3
 48
16.0
100
AcDbLine
 10
341.6758548226526
 20
141.4521574655998
 30
0.0
 11
344.4205548226526
 21
142.7357574655998
 31
0.0
  0
LINE
  5
3EF
330
1A
100
AcDbEntity
  8
SEIHIN
  6
CONTINUOUS
 62
     3
 48
16.0
100
AcDbLine
 10
336.7700548226526
 20
140.3967574655998
 30
0.0
 11
339.7633548226528
 21
140.8673574655999
 31
0.0
  0
LINE
  5
3F0
330
1A
100
AcDbEntity
  8
SEIHIN
  6
CONTINUOUS
 62
     3
 48
16.0
100
AcDbLine
 10
339.7636548226527
 20
140.8675574655998
 30
0.0
 11
341.6762548226527
 21
141.4522574655999
 31
0.0
  0
LINE
  5
3F1
330
1A
100
AcDbEntity
  8
SEIHIN
  6
CONTINUOUS
 62
     3
 48
16.0
100
AcDbLine
 10
366.0878548226528
 20
147.1117574655999
 30
0.0
 11
369.0810548226528
 21
147.5825574655998
 31
0.0
  0
LINE
  5
3F2
330
1A
100
AcDbEntity
  8
SEIHIN
  6
CONTINUOUS
 62
     3
 48
16.0
100
AcDbLine
 10
363.6974548226528
 20
146.3809574655999
 30
0.0
 11
366.0878548226528
 21
147.1117574655999
 31
0.0
  0
LINE
  5
3F3
330
1A
100
AcDbEntity
  8
SEIHIN
  6
CONTINUOUS
 62
     3
 48
16.0
100
AcDbLine
 10
363.6974548226528
 20
146.3809574655999
 30
0.0
 11
363.0731548226528
 21
146.7129574655998
 31
0.0
  0
LINE
  5
3F4
330
1A
100
AcDbEntity
  8
SEIHIN
  6
CONTINUOUS
 62
     3
 48
16.0
100
AcDbLine
 10
369.0813548226527
 20
147.5825574655998
 30
0.0
 11
370.9939548226527
 21
148.1673574655999
 31
0.0
  0
LINE
  5
3F5
330
1A
100
AcDbEntity
  8
SEIHIN
  6
CONTINUOUS
 62
     3
 48
16.0
100
AcDbLine
 10
370.9936548226528
 20
148.1672574655999
 30
0.0
 11
373.7383548226527
 21
149.4507574655999
 31
0.0
  0
LINE
  5
3F6
330
1A
100
AcDbEntity
  8
SEIHIN
  6
CONTINUOUS
 62
     3
 48
16.0
100
AcDbLine
 10
349.4227548226528
 20
201.6212574655999
 30
0.0
 11
352.1673548226528
 21
202.9047574655999
 31
0.0
  0
LINE
  5
3F7
330
1A
100
AcDbEntity
  8
SEIHIN
  6
CONTINUOUS
 62
     3
 48
16.0
100
AcDbLine
 10
350.1053548226526
 20
172.0269574655998
 30
0.0
 11
342.4011548226526
 21
197.2262574655999
 31
0.0
  0
LINE
  5
3F8
330
1A
100
AcDbEntity
  8
SEIHIN
  6
CONTINUOUS
 62
     3
 48
16.0
100
AcDbLine
 10
342.4011548226526
 20
197.2262574655999
 30
0.0
 11
352.9740548226528
 21
172.9047574655999
 31
0.0
  0
LINE
  5
3F9
330
1A
100
AcDbEntity
  8
SEIHIN
  6
CONTINUOUS
 62
     3
 48
16.0
100
AcDbLine
 10
346.7002548226527
 20
200.2660574655999
 30
0.0
 11
354.8868548226526
 21
173.4888574655999
 31
0.0
  0
LINE
  5
3FA
330
1A
100
AcDbEntity
  8
SEIHIN
  6
CONTINUOUS
 62
     3
 48
16.0
100
AcDbLine
 10
347.0319548226527
 20
200.8902574655998
 30
0.0
 11
355.3646548226526
 21
173.6352574655999
 31
0.0
  0
LINE
  5
3FB
330
1A
100
AcDbEntity
  8
SEIHIN
  6
CONTINUOUS
 62
     3
 48
16.0
100
AcDbLine
 10
349.4227548226528
 20
201.6212574655999
 30
0.0
 11
360.6241548226527
 21
175.2436574655998
 31
0.0
  0
LINE
  5
3FC
330
1A
100
AcDbEntity
  8
SEIHIN
  6
CONTINUOUS
 62
     3
 48
16.0
100
AcDbLine
 10
340.4885548226526
 20
196.6415574655999
 30
0.0
 11
348.1927548226526
 21
171.4422574655998
 31
0.0
  0
LINE
  5
3FD
330
1A
100
AcDbEntity
  8
SEIHIN
  6
CONTINUOUS
 62
     3
 48
16.0
100
AcDbLine
 10
345.3236548226527
 20
170.5657574655998
 30
0.0
 11
340.4885548226526
 21
196.6415574655999
 31
0.0
  0
LINE
  5
3FE
330
1A
100
AcDbEntity
  8
SEIHIN
  6
CONTINUOUS
 62
     3
 48
16.0
100
AcDbLine
 10
318.6397548226527
 20
189.4388574655998
 30
0.0
 11
326.1977548226527
 21
164.7177574656
 31
0.0
  0
LINE
  5
3FF
330
1A
100
AcDbEntity
  8
SEIHIN
  6
CONTINUOUS
 62
     3
 48
16.0
100
AcDbLine
 10
324.1067548226526
 20
192.0775574655998
 30
0.0
 11
331.9351548226526
 21
166.4721574655998
 31
0.0
  0
LINE
  5
400
330
1A
100
AcDbEntity
  8
SEIHIN
  6
CONTINUOUS
 62
     3
 48
16.0
100
AcDbLine
 10
326.0193548226526
 20
192.6622574655998
 30
0.0
 11
333.8477548226526
 21
167.0568574655998
 31
0.0
  0
LINE
  5
401
330
1A
100
AcDbEntity
  8
SEIHIN
  6
CONTINUOUS
 62
     3
 48
16.0
100
AcDbLine
 10
318.9713548226527
 20
190.0630574655999
 30
0.0
 11
326.6754548226527
 21
164.8640574655999
 31
0.0
  0
LINE
  5
402
330
1A
100
AcDbEntity
  8
SEIHIN
  6
CONTINUOUS
 62
     3
 48
16.0
100
AcDbLine
 10
321.3620548226527
 20
190.7939574655999
 30
0.0
 11
331.9350548226527
 21
166.4724574655999
 31
0.0
  0
LINE
  5
403
330
1A
100
AcDbEntity
  8
SEIHIN
  6
CONTINUOUS
 62
     3
 48
16.0
100
AcDbLine
 10
329.0126548226528
 20
193.1329574655999
 30
0.0
 11
333.8476548226527
 21
167.0572574655998
 31
0.0
  0
LINE
  5
404
330
1A
100
AcDbEntity
  8
SEIHIN
  6
CONTINUOUS
 62
     3
 48
16.0
100
AcDbLine
 10
329.0126548226528
 20
193.1329574655999
 30
0.0
 11
347.1827548226527
 21
198.6881574655998
 31
0.0
  0
LINE
  5
405
330
1A
100
AcDbEntity
  8
SEIHIN
  6
CONTINUOUS
 62
     3
 48
16.0
100
AcDbLine
 10
324.1071548226527
 20
192.0776574655999
 30
0.0
 11
326.0197548226527
 21
192.6624574655998
 31
0.0
  0
LINE
  5
406
330
1A
100
AcDbEntity
  8
SEIHIN
  6
CONTINUOUS
 62
     3
 48
16.0
100
AcDbLine
 10
321.3620548226527
 20
190.7939574655999
 30
0.0
 11
324.1068548226528
 21
192.0775574655998
 31
0.0
  0
LINE
  5
407
330
1A
100
AcDbEntity
  8
SEIHIN
  6
CONTINUOUS
 62
     3
 48
16.0
100
AcDbLine
 10
318.9717548226527
 20
190.0631574655999
 30
0.0
 11
321.3620548226527
 21
190.7939574655999
 31
0.0
  0
LINE
  5
408
330
1A
100
AcDbEntity
  8
SEIHIN
  6
CONTINUOUS
 62
     3
 48
16.0
100
AcDbLine
 10
318.9717548226527
 20
190.0631574655999
 30
0.0
 11
318.6397548226527
 21
189.4388574655998
 31
0.0
  0
LINE
  5
409
330
1A
100
AcDbEntity
  8
SEIHIN
  6
CONTINUOUS
 62
     3
 48
16.0
100
AcDbLine
 10
326.0193548226526
 20
192.6622574655998
 30
0.0
 11
329.0126548226528
 21
193.1329574655999
 31
0.0
  0
LINE
  5
40A
330
1A
100
AcDbEntity
  8
SEIHIN
  6
CONTINUOUS
 62
     3
 48
16.0
100
AcDbLine
 10
347.0322548226527
 20
200.8904574655999
 30
0.0
 11
349.4227548226528
 21
201.6212574655999
 31
0.0
  0
LINE
  5
40B
330
1A
100
AcDbEntity
  8
SEIHIN
  6
CONTINUOUS
 62
     3
 48
16.0
100
AcDbLine
 10
347.0322548226527
 20
200.8904574655999
 30
0.0
 11
346.7002548226527
 21
200.2660574655999
 31
0.0
  0
LINE
  5
40C
330
1A
100
AcDbEntity
  8
SEIHIN
  6
CONTINUOUS
 62
     3
 48
16.0
100
AcDbLine
 10
352.1673548226528
 20
202.9047574655999
 30
0.0
 11
360.6243548226527
 21
175.2432574655999
 31
0.0
  0
LINE
  5
40D
330
1A
100
AcDbEntity
  8
SEIHIN
  6
CONTINUOUS
 62
     3
 48
16.0
100
AcDbLine
 10
354.0799548226527
 20
203.4895574655999
 30
0.0
 11
362.5368548226526
 21
175.8280574655999
 31
0.0
  0
LINE
  5
40E
330
1A
100
AcDbEntity
  8
SEIHIN
  6
CONTINUOUS
 62
     3
 48
16.0
100
AcDbLine
 10
362.5368548226526
 20
175.8283574655998
 30
0.0
 11
357.0731548226528
 21
203.9602574655999
 31
0.0
  0
LINE
  5
40F
330
1A
100
AcDbEntity
  8
SEIHIN
  6
CONTINUOUS
 62
     3
 48
16.0
100
AcDbLine
 10
374.0127548226526
 20
179.3369574655998
 30
0.0
 11
368.5491548226528
 21
207.4687574655999
 31
0.0
  0
LINE
  5
410
330
1A
100
AcDbEntity
  8
SEIHIN
  6
CONTINUOUS
 62
     3
 48
16.0
100
AcDbLine
 10
376.8819548226526
 20
180.2133574655999
 30
0.0
 11
368.5491548226528
 21
207.4687574655999
 31
0.0
  0
LINE
  5
411
330
1A
100
AcDbEntity
  8
SEIHIN
  6
CONTINUOUS
 62
     3
 48
16.0
100
AcDbLine
 10
378.7945548226526
 20
180.7980574655999
 30
0.0
 11
370.4617548226528
 21
208.0534574655998
 31
0.0
  0
LINE
  5
412
330
1A
100
AcDbEntity
  8
SEIHIN
  6
CONTINUOUS
 62
     3
 48
16.0
100
AcDbLine
 10
370.4617548226528
 20
208.0534574655998
 30
0.0
 11
381.6632548226527
 21
181.6759574655998
 31
0.0
  0
LINE
  5
413
330
1A
100
AcDbEntity
  8
SEIHIN
  6
CONTINUOUS
 62
     3
 48
16.0
100
AcDbLine
 10
357.0731548226528
 20
203.9602574655999
 30
0.0
 11
375.0902548226526
 21
209.4685574655999
 31
0.0
  0
LINE
  5
414
330
1A
100
AcDbEntity
  8
SEIHIN
  6
CONTINUOUS
 62
     3
 48
16.0
100
AcDbLine
 10
352.1676548226527
 20
202.9048574655998
 30
0.0
 11
354.0802548226527
 21
203.4895574655999
 31
0.0
  0
LINE
  5
415
330
1A
100
AcDbEntity
  8
SEIHIN
  6
CONTINUOUS
 62
     3
 48
16.0
100
AcDbLine
 10
354.0798548226526
 20
203.4894574655998
 30
0.0
 11
357.0731548226528
 21
203.9602574655999
 31
0.0
  0
LINE
  5
416
330
1A
100
AcDbEntity
  8
SEIHIN
  6
CONTINUOUS
 62
     3
 48
16.0
100
AcDbLine
 10
392.0477548226528
 20
154.0028574655998
 30
0.0
 11
396.8292548226528
 21
155.4647574655999
 31
0.0
  0
ARC
  5
417
330
1A
100
AcDbEntity
  8
NOKITOI
  6
PHANTOM
 62
     8
 48
5.0
100
AcDbCircle
 10
356.5401856369997
 20
257.7014439428413
 30
0.0
 40
4.000015298737716
100
AcDbArc
 50
8.764757762685649
 51
317.431501414648
  0
CIRCLE
  5
418
330
1A
100
AcDbEntity
  8
NOKITOI
  6
PHANTOM
 62
     8
 48
5.0
100
AcDbCircle
 10
356.5401899371892
 20
257.7014580938166
 30
0.0
 40
2.7
  0
ARC
  5
419
330
1A
100
AcDbEntity
  8
SEIHIN
  6
CONTINUOUS
 62
     3
 48
16.0
100
AcDbCircle
 10
356.4905048226528
 20
257.3013074655998
 30
0.0
 40
5.899950000211855
100
AcDbArc
 50
180.0004855615682
 51
270.0004855615683
  0
ARC
  5
41A
330
1A
100
AcDbEntity
  8
SEIHIN
  6
CONTINUOUS
 62
     3
 48
16.0
100
AcDbCircle
 10
356.4905048226528
 20
257.3013074655998
 30
0.0
 40
4.399950000284084
100
AcDbArc
 50
180.0006510958022
 51
270.0006510958022
  0
LINE
  5
41B
330
1A
100
AcDbEntity
  8
SEIHIN
  6
CONTINUOUS
 62
     3
 48
16.0
100
AcDbLine
 10
356.4905548226527
 20
252.9013574655998
 30
0.0
 11
358.92415695438
 21
252.9013574655998
 31
0.0
  0
ARC
  5
41C
330
1A
100
AcDbEntity
  8
SEIHIN
  6
CONTINUOUS
 62
     3
 48
16.0
100
AcDbCircle
 10
357.6731122715067
 20
250.4013100628469
 30
0.0
 40
1.00004740440304
100
AcDbArc
 50
10.94918924834317
 51
90.00329142084895
  0
LINE
  5
41D
330
1A
100
AcDbEntity
  8
SEIHIN
  6
CONTINUOUS
 62
     3
 48
16.0
100
AcDbLine
 10
356.4905548226527
 20
251.4013574655998
 30
0.0
 11
357.6730548226527
 21
251.4013574655998
 31
0.0
  0
ARC
  5
41E
330
1A
100
AcDbEntity
  8
SEIHIN
  6
CONTINUOUS
 62
     3
 48
16.0
100
AcDbCircle
 10
358.9241569543799
 20
251.9013574655998
 30
0.0
 40
1.0
100
AcDbArc
 50
9.727560582098053
 51
89.99999999999674
  0
ARC
  5
41F
330
1A
100
AcDbEntity
  8
SEIHIN
  6
CONTINUOUS
 62
     3
 48
16.0
100
AcDbCircle
 10
356.4906609006126
 20
257.3012628263195
 30
0.0
 40
5.900006077962306
100
AcDbArc
 50
82.82420507239958
 51
180.0000520586943
  0
LINE
  5
420
330
1A
100
AcDbEntity
  8
SEIHIN
  6
CONTINUOUS
 62
     3
 48
16.0
100
AcDbLine
 10
359.0217548226527
 20
267.8554574656
 30
0.0
 11
358.3373548226526
 21
263.9736574656
 31
0.0
  0
ARC
  5
421
330
1A
100
AcDbEntity
  8
SEIHIN
  6
CONTINUOUS
 62
     3
 48
16.0
100
AcDbCircle
 10
358.7612548226528
 20
266.3781574655999
 30
0.0
 40
1.499993363318658
100
AcDbArc
 50
349.9988796100673
 51
79.99887961006625
  0
ARC
  5
422
330
1A
100
AcDbEntity
  8
SEIHIN
  6
CONTINUOUS
 62
     3
 48
16.0
100
AcDbCircle
 10
357.352527729482
 20
264.1472374806152
 30
0.0
 40
1.000007212501804
100
AcDbArc
 50
262.8266356369078
 51
350.0040384920337
  0
ARC
  5
423
330
1A
100
AcDbEntity
  8
SEIHIN
  6
CONTINUOUS
 62
     3
 48
16.0
100
AcDbCircle
 10
356.4906537914024
 20
257.3012568678259
 30
0.0
 40
4.399998968749806
100
AcDbArc
 50
60.19825754856237
 51
179.9999922159243
  0
ARC
  5
424
330
1A
100
AcDbEntity
  8
SEIHIN
  6
CONTINUOUS
 62
     3
 48
16.0
100
AcDbCircle
 10
358.9259385194259
 20
261.5532498282061
 30
0.0
 40
0.5000067298448887
100
AcDbArc
 50
240.2008752750656
 51
350.0038275485576
  0
LINE
  5
425
330
1A
100
AcDbEntity
  8
SEIHIN
  6
CONTINUOUS
 62
     3
 48
16.0
100
AcDbLine
 10
359.4183548226526
 20
261.4664574655999
 30
0.0
 11
360.2384548226527
 21
266.1177574655999
 31
0.0
  0
LINE
  5
426
330
1A
100
AcDbEntity
  8
SUNPOU
  6
CONTINUOUS
 62
     4
 48
16.0
100
AcDbLine
 10
349.4692819402145
 20
294.2894686441334
 30
0.0
 11
353.4084819402146
 21
293.5948686441335
 31
0.0
  0
LINE
  5
427
330
1A
100
AcDbEntity
  8
SEIHIN
  6
CONTINUOUS
 62
     3
 48
16.0
100
AcDbLine
 10
350.5907548226526
 20
343.7920574656
 30
0.0
 11
350.590954822515
 21
488.791957465905
 31
0.0
  0
LINE
  5
428
330
1A
100
AcDbEntity
  8
SEIHIN
  6
CONTINUOUS
 62
     3
 48
16.0
100
AcDbLine
 10
359.0219548226528
 20
343.7920574656
 30
0.0
 11
359.0221548225325
 21
488.7919703380251
 31
0.0
  0
LINE
  5
429
330
1A
100
AcDbEntity
  8
SEIHIN
  6
CONTINUOUS
 62
     3
 48
16.0
100
AcDbLine
 10
360.2386548226527
 20
343.7920574656
 30
0.0
 11
360.2388548225352
 21
488.791972195591
 31
0.0
  0
LINE
  5
42A
330
1A
100
AcDbEntity
  8
CENTER_L
  6
CENTER
 62
     1
 48
5.0
100
AcDbLine
 10
416.0903548226528
 20
336.7920574657444
 30
0.0
 11
416.0903548226527
 21
495.7920574654553
 31
0.0
  0
LINE
  5
42B
330
1A
100
AcDbEntity
  8
SEIHIN
  6
CONTINUOUS
 62
     3
 48
16.0
100
AcDbLine
 10
443.7733548226527
 20
383.79195746684
 30
0.0
 11
443.7733548226527
 21
448.7920574656
 31
0.0
  0
LINE
  5
42C
330
1A
100
AcDbEntity
  8
SEIHIN
  6
CONTINUOUS
 62
     3
 48
16.0
100
AcDbLine
 10
441.3849548226528
 20
383.7919671430963
 30
0.0
 11
441.3849548226528
 21
448.7920574656
 31
0.0
  0
ARC
  5
42D
330
1A
100
AcDbEntity
  8
SEIHIN
  6
CONTINUOUS
 62
     3
 48
16.0
100
AcDbCircle
 10
414.7036548228415
 20
416.2922258148411
 30
0.0
 40
74.21522729230528
100
AcDbArc
 50
159.2034786516307
 51
200.796303907081
  0
ARC
  5
42E
330
1A
100
AcDbEntity
  8
SEIHIN
  6
CONTINUOUS
 62
     3
 48
16.0
100
AcDbCircle
 10
390.8695548226947
 20
416.2924074655999
 30
0.0
 40
50.3806233163713
100
AcDbArc
 50
147.8962968704748
 51
212.1037031295252
  0
ARC
  5
42F
330
1A
100
AcDbEntity
  8
SEIHIN
  6
CONTINUOUS
 62
     3
 48
16.0
100
AcDbCircle
 10
392.7795548224453
 20
416.292566846663
 30
0.0
 40
50.37842090776774
100
AcDbArc
 50
147.8949393526866
 51
212.105488627791
  0
ARC
  5
430
330
1A
100
AcDbEntity
  8
SEIHIN
  6
CONTINUOUS
 62
     3
 48
16.0
100
AcDbCircle
 10
380.5202548227042
 20
416.2923074655999
 30
0.0
 40
38.11972889181641
100
AcDbArc
 50
141.7338129923643
 51
218.2661870076357
  0
ARC
  5
431
330
1A
100
AcDbEntity
  8
SEIHIN
  6
CONTINUOUS
 62
     3
 48
16.0
100
AcDbCircle
 10
367.4080548226528
 20
416.2923574656
 30
0.0
 40
48.91441063899272
100
AcDbArc
 50
147.4050823571335
 51
212.5949176428664
  0
ARC
  5
432
330
1A
100
AcDbEntity
  8
SEIHIN
  6
CONTINUOUS
 62
     3
 48
16.0
100
AcDbCircle
 10
359.4823548220503
 20
416.2919483779685
 30
0.0
 40
38.12069014092646
100
AcDbArc
 50
136.2721465163048
 51
223.7269837218424
  0
ARC
  5
433
330
1A
100
AcDbEntity
  8
SEIHIN
  6
CONTINUOUS
 62
     3
 48
16.0
100
AcDbCircle
 10
372.3681548217551
 20
416.2914936793407
 30
0.0
 40
48.26168502079728
100
AcDbArc
 50
146.9071380595885
 51
213.0911224200064
  0
ARC
  5
434
330
1A
100
AcDbEntity
  8
SEIHIN
  6
CONTINUOUS
 62
     3
 48
16.0
100
AcDbCircle
 10
374.278654822696
 20
416.2924074655999
 30
0.0
 40
48.25948134632213
100
AcDbArc
 50
146.9065862106664
 51
213.0934137893334
  0
ARC
  5
435
330
1A
100
AcDbEntity
  8
SEIHIN
  6
CONTINUOUS
 62
     3
 48
16.0
100
AcDbCircle
 10
403.2311548224631
 20
416.2920941506096
 30
0.0
 40
74.21854601312958
100
AcDbArc
 50
159.2043429606828
 51
200.7952221567405
  0
LINE
  5
436
330
1A
100
AcDbEntity
  8
SEIHIN
  6
CONTINUOUS
 62
     3
 48
16.0
100
AcDbLine
 10
390.7958548226527
 20
383.7921574655998
 30
0.0
 11
390.7960547157877
 21
448.7574262823535
 31
0.0
  0
LINE
  5
437
330
1A
100
AcDbEntity
  8
SEIHIN
  6
CONTINUOUS
 62
     3
 48
16.0
100
AcDbLine
 10
388.4074548226527
 20
383.7921574655998
 30
0.0
 11
388.4076547157873
 21
448.7574262823915
 31
0.0
  0
LINE
  5
438
330
1A
100
AcDbEntity
  8
SEIHIN
  6
CONTINUOUS
 62
     3
 48
16.0
100
AcDbLine
 10
350.1051548226527
 20
389.5173574656
 30
0.0
 11
348.1926548226526
 21
389.5173574656
 31
0.0
  0
LINE
  5
439
330
1A
100
AcDbEntity
  8
SEIHIN
  6
CONTINUOUS
 62
     3
 48
16.0
100
AcDbLine
 10
345.3237548226526
 20
389.9423574655999
 30
0.0
 11
326.1976548226527
 21
389.9423574655999
 31
0.0
  0
LINE
  5
43A
330
1A
100
AcDbEntity
  8
SEIHIN
  6
CONTINUOUS
 62
     3
 48
16.0
100
AcDbLine
 10
345.3237548226526
 20
389.9423574655999
 30
0.0
 11
348.1926548226526
 21
389.5172574655999
 31
0.0
  0
LINE
  5
43B
330
1A
100
AcDbEntity
  8
SEIHIN
  6
CONTINUOUS
 62
     3
 48
16.0
100
AcDbLine
 10
350.1052548226528
 20
389.5172574655999
 30
0.0
 11
350.5909548226526
 21
389.5892574655998
 31
0.0
  0
TEXT
  5
43C
330
1A
100
AcDbEntity
  8
SUNPOU
  6
CONTINUOUS
 62
     4
 48
16.0
100
AcDbText
 10
405.9688819402145
 20
296.2894686441334
 30
0.0
 40
6.0
  1
131
 41
1.49999999999999
 72
     5
 11
423.9688819402144
 21
296.2894686441334
 31
0.0
100
AcDbText
  0
LINE
  5
43D
330
1A
100
AcDbEntity
  8
SEIHIN
  6
CONTINUOUS
 62
     3
 48
16.0
100
AcDbLine
 10
440.7733426685878
 20
380.7919574668646
 30
0.0
 11
391.4074548226527
 21
380.7921574655998
 31
0.0
  0
ARC
  5
43E
330
1A
100
AcDbEntity
  8
SEIHIN
  6
CONTINUOUS
 62
     3
 48
16.0
100
AcDbCircle
 10
391.4074548226527
 20
383.7921574655998
 30
0.0
 40
3.0
100
AcDbArc
 50
180.0
 51
270.0
  0
ARC
  5
43F
330
1A
100
AcDbEntity
  8
SEIHIN
  6
CONTINUOUS
 62
     3
 48
16.0
100
AcDbCircle
 10
393.7958548226527
 20
383.7921574655998
 30
0.0
 40
2.999999999999943
100
AcDbArc
 50
179.9999999999988
 51
269.9999999999989
  0
ARC
  5
440
330
1A
100
AcDbEntity
  8
SEIHIN
  6
CONTINUOUS
 62
     3
 48
16.0
100
AcDbCircle
 10
438.3849548226527
 20
383.7919671430963
 30
0.0
 40
3.0
100
AcDbArc
 50
269.9997678744588
 51
0.0
  0
ARC
  5
441
330
1A
100
AcDbEntity
  8
SEIHIN
  6
CONTINUOUS
 62
     3
 48
16.0
100
AcDbCircle
 10
440.7733548226527
 20
383.79195746684
 30
0.0
 40
3.0
100
AcDbArc
 50
269.9997678744588
 51
0.0
  0
ARC
  5
442
330
1A
100
AcDbEntity
  8
SEIHIN
  6
CONTINUOUS
 62
     3
 48
16.0
100
AcDbCircle
 10
391.2832548226528
 20
416.2935574656
 30
0.0
 40
41.85869905527415
100
AcDbArc
 50
166.4430090274015
 51
193.5569909725984
  0
ARC
  5
443
330
1A
100
AcDbEntity
  8
SEIHIN
  6
CONTINUOUS
 62
     3
 48
16.0
100
AcDbCircle
 10
399.4639548226533
 20
416.2921574655999
 30
0.0
 40
52.90920419454497
100
AcDbArc
 50
157.4755892363282
 51
202.5244107636718
  0
LINE
  5
444
330
1A
100
AcDbEntity
  8
SEIHIN
  6
CONTINUOUS
 62
     3
 48
16.0
100
AcDbLine
 10
350.1052548226528
 20
443.0672574655997
 30
0.0
 11
348.1926548226526
 21
443.0672574655997
 31
0.0
  0
LINE
  5
445
330
1A
100
AcDbEntity
  8
SEIHIN
  6
CONTINUOUS
 62
     3
 48
16.0
100
AcDbLine
 10
345.3237548226526
 20
442.6422574655999
 30
0.0
 11
326.1976548226527
 21
442.6422574655999
 31
0.0
  0
LINE
  5
446
330
1A
100
AcDbEntity
  8
SEIHIN
  6
CONTINUOUS
 62
     3
 48
16.0
100
AcDbLine
 10
345.3237548226526
 20
442.6423574655999
 30
0.0
 11
348.1926548226526
 21
443.0673574655999
 31
0.0
  0
LINE
  5
447
330
1A
100
AcDbEntity
  8
SEIHIN
  6
CONTINUOUS
 62
     3
 48
16.0
100
AcDbLine
 10
350.1052548226528
 20
443.0672574655997
 30
0.0
 11
350.5908548226527
 21
442.9953574655999
 31
0.0
  0
LINE
  5
448
330
1A
100
AcDbEntity
  8
SEIHIN
  6
CONTINUOUS
 62
     3
 48
16.0
100
AcDbLine
 10
440.7733548226528
 20
451.7920574655998
 30
0.0
 11
391.4074548226527
 21
451.7920574655998
 31
0.0
  0
ARC
  5
449
330
1A
100
AcDbEntity
  8
SEIHIN
  6
CONTINUOUS
 62
     3
 48
16.0
100
AcDbCircle
 10
391.4074548226527
 20
448.7920574656
 30
0.0
 40
2.999999999999943
100
AcDbArc
 50
89.99999999999891
 51
179.9999999999988
  0
ARC
  5
44A
330
1A
100
AcDbEntity
  8
SEIHIN
  6
CONTINUOUS
 62
     3
 48
16.0
100
AcDbCircle
 10
393.7958548226526
 20
448.7920574656
 30
0.0
 40
2.999999999999886
100
AcDbArc
 50
90.0
 51
180.0
  0
ARC
  5
44B
330
1A
100
AcDbEntity
  8
SEIHIN
  6
CONTINUOUS
 62
     3
 48
16.0
100
AcDbCircle
 10
438.3849548226528
 20
448.7920574656
 30
0.0
 40
2.999999999999943
100
AcDbArc
 50
0.0000000000010856
 51
90.00000000000108
  0
ARC
  5
44C
330
1A
100
AcDbEntity
  8
SEIHIN
  6
CONTINUOUS
 62
     3
 48
16.0
100
AcDbCircle
 10
440.7733548226528
 20
448.7920574656
 30
0.0
 40
2.999999999999943
100
AcDbArc
 50
0.0000000000010856
 51
90.00000000000108
  0
LINE
  5
44D
330
1A
100
AcDbEntity
  8
SUNPOU
  6
CONTINUOUS
 62
     4
 48
16.0
100
AcDbLine
 10
480.4684819402146
 20
294.2894686441334
 30
0.0
 11
476.5292819402145
 21
294.9840686441335
 31
0.0
  0
LINE
  5
44E
330
1A
100
AcDbEntity
  8
SUNPOU
  6
CONTINUOUS
 62
     4
 48
16.0
100
AcDbLine
 10
481.5898548226527
 20
261.3012574655998
 30
0.0
 11
480.4684819402146
 21
296.2894686441334
 31
0.0
  0
LINE
  5
44F
330
1A
100
AcDbEntity
  8
SEIHIN
  6
CONTINUOUS
 62
     3
 48
16.0
100
AcDbLine
 10
453.1509548226526
 20
192.2012574655999
 30
0.0
 11
461.0903548226527
 21
224.0435574655999
 31
0.0
  0
ARC
  5
450
330
1A
100
AcDbEntity
  8
SEIHIN
  6
CONTINUOUS
 62
     3
 48
16.0
100
AcDbCircle
 10
475.6900048226527
 20
257.3013074655997
 30
0.0
 40
5.89995000021177
100
AcDbArc
 50
269.9995144384325
 51
359.9995144384325
  0
ARC
  5
451
330
1A
100
AcDbEntity
  8
SEIHIN
  6
CONTINUOUS
 62
     3
 48
16.0
100
AcDbCircle
 10
475.6900048226527
 20
257.3013074655998
 30
0.0
 40
4.399950000284084
100
AcDbArc
 50
269.9993489041978
 51
359.9993489041978
  0
ARC
  5
452
330
1A
100
AcDbEntity
  8
NOKITOI
  6
PHANTOM
 62
     8
 48
5.0
100
AcDbCircle
 10
475.6401715328469
 20
257.7013186604526
 30
0.0
 40
3.999981474645155
100
AcDbArc
 50
222.570219189405
 51
171.2362504387284
  0
CIRCLE
  5
453
330
1A
100
AcDbEntity
  8
NOKITOI
  6
PHANTOM
 62
     8
 48
5.0
100
AcDbCircle
 10
475.6401899371892
 20
257.7012580938168
 30
0.0
 40
2.7
  0
ARC
  5
454
330
1A
100
AcDbEntity
  8
SEIHIN
  6
CONTINUOUS
 62
     3
 48
16.0
100
AcDbCircle
 10
473.2563742220635
 20
251.9013738233673
 30
0.0
 40
0.9999836424206371
100
AcDbArc
 50
90.00111152254268
 51
170.2769214017214
  0
ARC
  5
455
330
1A
100
AcDbEntity
  8
SEIHIN
  6
CONTINUOUS
 62
     3
 48
16.0
100
AcDbCircle
 10
474.5073568678289
 20
250.4013591531027
 30
0.0
 40
0.9999983124992112
100
AcDbArc
 50
90.00011718016008
 51
169.0531314052836
  0
LINE
  5
456
330
1A
100
AcDbEntity
  8
SEIHIN
  6
CONTINUOUS
 62
     3
 48
16.0
100
AcDbLine
 10
475.6899548226527
 20
252.9013574655998
 30
0.0
 11
473.2563548226528
 21
252.9013574655998
 31
0.0
  0
LINE
  5
457
330
1A
100
AcDbEntity
  8
SEIHIN
  6
CONTINUOUS
 62
     3
 48
16.0
100
AcDbLine
 10
475.6899548226527
 20
251.4013574655998
 30
0.0
 11
474.5073548226527
 21
251.4013574655998
 31
0.0
  0
LINE
  5
458
330
1A
100
AcDbEntity
  8
SUNPOU
  6
CONTINUOUS
 62
     4
 48
16.0
100
AcDbLine
 10
480.4684819402146
 20
294.2894686441334
 30
0.0
 11
476.5292819402145
 21
293.5948686441335
 31
0.0
  0
ARC
  5
459
330
1A
100
AcDbEntity
  8
SEIHIN
  6
CONTINUOUS
 62
     3
 48
16.0
100
AcDbCircle
 10
475.6898549900255
 20
257.3012573179756
 30
0.0
 40
5.899999832627175
100
AcDbArc
 50
0.0000014336009549
 51
97.17488491124234
  0
ARC
  5
45A
330
1A
100
AcDbEntity
  8
SEIHIN
  6
CONTINUOUS
 62
     3
 48
16.0
100
AcDbCircle
 10
473.4191548226526
 20
266.3781574655999
 30
0.0
 40
1.499975999807935
100
AcDbArc
 50
99.99735865419104
 51
189.9973586541909
  0
LINE
  5
45B
330
1A
100
AcDbEntity
  8
SEIHIN
  6
CONTINUOUS
 62
     3
 48
16.0
100
AcDbLine
 10
473.1586548226526
 20
267.8554574656
 30
0.0
 11
473.8431548226527
 21
263.9736574656
 31
0.0
  0
ARC
  5
45C
330
1A
100
AcDbEntity
  8
SEIHIN
  6
CONTINUOUS
 62
     3
 48
16.0
100
AcDbCircle
 10
473.2545711258793
 20
261.5532498282061
 30
0.0
 40
0.5000067298449089
100
AcDbArc
 50
189.996172451444
 51
299.7991247249304
  0
LINE
  5
45D
330
1A
100
AcDbEntity
  8
SEIHIN
  6
CONTINUOUS
 62
     3
 48
16.0
100
AcDbLine
 10
472.7621548226526
 20
261.4664574655999
 30
0.0
 11
471.9419548226527
 21
266.1177574655999
 31
0.0
  0
ARC
  5
45E
330
1A
100
AcDbEntity
  8
SEIHIN
  6
CONTINUOUS
 62
     3
 48
16.0
100
AcDbCircle
 10
474.8279819158234
 20
264.1472374806153
 30
0.0
 40
1.000007212501911
100
AcDbArc
 50
189.9959615079701
 51
277.1733643630964
  0
ARC
  5
45F
330
1A
100
AcDbEntity
  8
SEIHIN
  6
CONTINUOUS
 62
     3
 48
16.0
100
AcDbCircle
 10
475.6898558539029
 20
257.3012568678258
 30
0.0
 40
4.399998968749896
100
AcDbArc
 50
0.0000077840762471
 51
119.8017424514382
  0
DIMENSION
  5
460
330
1A
100
AcDbEntity
  8
SUNPOU
100
AcDbDimension
  2
*D8
 10
524.2075332340682
 20
343.7919574655998
 30
0.0
 11
519.2075332340682
 21
416.2920074655999
 31
0.0
 70
    32
  3
STANDARD
100
AcDbAlignedDimension
 13
481.5899548226526
 23
488.7920574655999
 33
0.0
 14
481.5899548226526
 24
343.7919574655998
 34
0.0
 50
90.0
100
AcDbRotatedDimension
1001
ACAD
1000
DSTYLE
1002
{
1070
   140
1040
6.0
1070
    74
1070
     0
1070
   172
1070
     1
1070
    73
1070
     0
1070
   272
1070
     2
1070
    77
1070
     3
1070
   173
1070
     1
1070
   147
1040
2.0
1070
    42
1040
6.0
1070
    44
1040
3.0
1070
    43
1040
14.0
1070
   271
1070
     0
1070
   178
1070
     4
1070
   177
1070
     4
1070
   176
1070
     4
1070
   141
1040
150.0
1070
     7
1000
_OPEN
1070
     6
1000
_OPEN
1070
    41
1040
7.0
1002
}
  0
LINE
  5
461
330
1A
100
AcDbEntity
  8
SEIHIN
  6
CONTINUOUS
 62
     3
 48
16.0
100
AcDbLine
 10
471.9420548226527
 20
343.7919574655998
 30
0.0
 11
471.9420548226527
 21
488.7920574655999
 31
0.0
  0
LINE
  5
462
330
1A
100
AcDbEntity
  8
SEIHIN
  6
CONTINUOUS
 62
     3
 48
16.0
100
AcDbLine
 10
473.1587548226526
 20
343.7919574655998
 30
0.0
 11
473.1587548226526
 21
488.7920574655999
 31
0.0
  0
LINE
  5
463
330
1A
100
AcDbEntity
  8
SEIHIN
  6
CONTINUOUS
 62
     3
 48
16.0
100
AcDbLine
 10
481.5899548226526
 20
343.7919574655998
 30
0.0
 11
481.5899548226526
 21
488.7920574655999
 31
0.0
  0
VIEWPORT
  5
22
330
17
100
AcDbEntity
 67
     1
  8
0
100
AcDbViewport
 10
313.6808219178082
 20
148.5
 30
0.0
 40
627.3616438356165
 41
297.0
 68
     2
 69
     1
1001
ACAD
1000
MVIEW
1002
{
1070
    16
1010
0.0
1020
0.0
1030
0.0
1010
0.0
1020
0.0
1030
1.0
1040
0.0
1040
297.0
1040
313.6808219178082
1040
148.5
1040
50.0
1040
0.0
1040
0.0
1070
     0
1070
   100
1070
     1
1070
     0
1070
     0
1070
     0
1070
     0
1070
     0
1040
0.0
1040
0.0
1040
0.0
1040
1.0
1040
1.0
1040
10.0
1040
10.0
1070
     0
1002
{
1002
}
1002
}
  0
VIEWPORT
  5
64
330
17
100
AcDbEntity
 67
     1
  8
VIEWPORT
100
AcDbViewport
 10
210.0
 20
148.5
 30
0.0
 40
420.0
 41
297.0
 68
     1
 69
     2
1001
ACAD
1000
MVIEW
1002
{
1070
    16
1010
0.0
1020
0.0
1030
0.0
1010
0.0
1020
0.0
1030
1.0
1040
0.0
1040
605.8799999999998
1040
420.0
1040
297.0
1040
50.0
1040
0.0
1040
0.0
1070
     0
1070
   100
1070
     1
1070
     0
1070
     0
1070
     0
1070
     0
1070
     0
1040
0.0
1040
0.0
1040
0.0
1040
10.0
1040
10.0
1040
0.0
1040
0.0
1070
     0
1002
{
1002
}
1002
}
  0
ENDSEC
  0
SECTION
  2
OBJECTS
  0
DICTIONARY
  5
C
330
0
100
AcDbDictionary
  3
ACAD_GROUP
350
D
  3
ACAD_LAYOUT
350
54E
  3
ACAD_MLINESTYLE
350
E
  3
ACAD_PLOTSETTINGS
350
54F
1001
ACAD
1000
TREAT_AS_HARD
1070
     0
  0
DICTIONARY
  5
57D
330
1A
100
AcDbDictionary
  3
ACAD_LAYOUTSELFREF
350
598
1001
ACAD
1000
TREAT_AS_HARD
1070
     1
  0
DICTIONARY
  5
57B
330
17
100
AcDbDictionary
  3
ACAD_LAYOUTSELFREF
350
597
1001
ACAD
1000
TREAT_AS_HARD
1070
     1
  0
DICTIONARY
  5
D
102
{ACAD_REACTORS
330
C
102
}
330
C
100
AcDbDictionary
1001
ACAD
1000
TREAT_AS_HARD
1070
     0
  0
DICTIONARY
  5
54E
102
{ACAD_REACTORS
330
C
102
}
330
C
100
AcDbDictionary
1001
ACAD
1000
TREAT_AS_HARD
1070
     0
  0
DICTIONARY
  5
E
102
{ACAD_REACTORS
330
C
102
}
330
C
100
AcDbDictionary
  3
STANDARD
350
13
1001
ACAD
1000
TREAT_AS_HARD
1070
     0
  0
DICTIONARY
  5
54F
102
{ACAD_REACTORS
330
C
102
}
330
C
100
AcDbDictionary
1001
ACAD
1000
TREAT_AS_HARD
1070
     0
  0
XRECORD
  5
598
102
{ACAD_REACTORS
330
57D
102
}
330
57D
100
AcDbXrecord
340
1A
  0
XRECORD
  5
597
102
{ACAD_REACTORS
330
57B
102
}
330
57B
100
AcDbXrecord
340
17
  0
MLINESTYLE
  5
13
102
{ACAD_REACTORS
330
E
102
}
330
E
100
AcDbMlineStyle
  2
STANDARD
 70
     0
  3

 62
     0
 51
90.0
 52
90.0
 71
     2
 49
0.5
 62
   256
  6
BYLAYER
 49
-0.5
 62
   256
  6
BYLAYER
  0
ENDSEC
  0
EOF
