  0
SECTION
  2
HEADER
  9
$ACADVER
  1
AC1012
  9
$DWGCODEPAGE
  3
dos932
  9
$INSBASE
 10
0.0
 20
0.0
 30
0.0
  9
$EXTMIN
 10
10.05047808566086
 20
4.949376903717846
 30
0.0
  9
$EXTMAX
 10
806.2246110975902
 20
563.7825862828226
 30
0.0
  9
$LIMMIN
 10
0.0
 20
0.0
  9
$LIMMAX
 10
840.0
 20
594.0
  9
$ORTHOMODE
 70
     0
  9
$REGENMODE
 70
     1
  9
$FILLMODE
 70
     1
  9
$QTEXTMODE
 70
     0
  9
$MIRRTEXT
 70
     1
  9
$DRAGMODE
 70
     2
  9
$LTSCALE
 40
2.0
  9
$OSMODE
 70
   319
  9
$ATTMODE
 70
     1
  9
$TEXTSIZE
 40
5.0
  9
$TRACEWID
 40
1.0
  9
$TEXTSTYLE
  7
STANDARD
  9
$CLAYER
  8
SEIHIN
  9
$CELTYPE
  6
BYLAYER
  9
$CECOLOR
 62
   256
  9
$CELTSCALE
 40
1.0
  9
$DELOBJ
 70
     1
  9
$DISPSILH
 70
     0
  9
$DIMSCALE
 40
1.0
  9
$DIMASZ
 40
7.0
  9
$DIMEXO
 40
6.0
  9
$DIMDLI
 40
14.0
  9
$DIMRND
 40
0.0
  9
$DIMDLE
 40
0.0
  9
$DIMEXE
 40
3.0
  9
$DIMTP
 40
0.0
  9
$DIMTM
 40
0.0
  9
$DIMTXT
 40
6.0
  9
$DIMCEN
 40
150.0
  9
$DIMTSZ
 40
0.0
  9
$DIMTOL
 70
     0
  9
$DIMLIM
 70
     0
  9
$DIMTIH
 70
     0
  9
$DIMTOH
 70
     0
  9
$DIMSE1
 70
     0
  9
$DIMSE2
 70
     0
  9
$DIMTAD
 70
     3
  9
$DIMZIN
 70
     0
  9
$DIMBLK
  1

  9
$DIMASO
 70
     1
  9
$DIMSHO
 70
     1
  9
$DIMPOST
  1

  9
$DIMAPOST
  1

  9
$DIMALT
 70
     0
  9
$DIMALTD
 70
     2
  9
$DIMALTF
 40
25.4
  9
$DIMLFAC
 40
1.0
  9
$DIMTOFL
 70
     1
  9
$DIMTVP
 40
0.0
  9
$DIMTIX
 70
     0
  9
$DIMSOXD
 70
     0
  9
$DIMSAH
 70
     1
  9
$DIMBLK1
  1
OPEN
  9
$DIMBLK2
  1
OPEN
  9
$DIMSTYLE
  2
STANDARD
  9
$DIMCLRD
 70
   256
  9
$DIMCLRE
 70
   256
  9
$DIMCLRT
 70
   256
  9
$DIMTFAC
 40
1.0
  9
$DIMGAP
 40
2.0
  9
$DIMJUST
 70
     0
  9
$DIMSD1
 70
     0
  9
$DIMSD2
 70
     0
  9
$DIMTOLJ
 70
     1
  9
$DIMTZIN
 70
     0
  9
$DIMALTZ
 70
     0
  9
$DIMALTTZ
 70
     0
  9
$DIMFIT
 70
     3
  9
$DIMUPT
 70
     0
  9
$DIMUNIT
 70
     2
  9
$DIMDEC
 70
     0
  9
$DIMTDEC
 70
     0
  9
$DIMALTU
 70
     2
  9
$DIMALTTD
 70
     2
  9
$DIMTXSTY
  7
STANDARD
  9
$DIMAUNIT
 70
     0
  9
$LUNITS
 70
     2
  9
$LUPREC
 70
     4
  9
$SKETCHINC
 40
1.0
  9
$FILLETRAD
 40
20.0
  9
$AUNITS
 70
     0
  9
$AUPREC
 70
     0
  9
$MENU
  1
.
  9
$ELEVATION
 40
0.0
  9
$PELEVATION
 40
0.0
  9
$THICKNESS
 40
0.0
  9
$LIMCHECK
 70
     0
  9
$BLIPMODE
 70
     0
  9
$CHAMFERA
 40
20.0
  9
$CHAMFERB
 40
20.0
  9
$CHAMFERC
 40
40.0
  9
$CHAMFERD
 40
0.0
  9
$SKPOLY
 70
     0
  9
$TDCREATE
 40
2451186.385695833
  9
$TDUPDATE
 40
2452422.702373032
  9
$TDINDWG
 40
0.0028458333
  9
$TDUSRTIMER
 40
0.0028458333
  9
$USRTIMER
 70
     1
  9
$ANGBASE
 50
0.0
  9
$ANGDIR
 70
     0
  9
$PDMODE
 70
     0
  9
$PDSIZE
 40
0.0
  9
$PLINEWID
 40
0.0
  9
$COORDS
 70
     1
  9
$SPLFRAME
 70
     0
  9
$SPLINETYPE
 70
     6
  9
$SPLINESEGS
 70
     8
  9
$ATTDIA
 70
     0
  9
$ATTREQ
 70
     1
  9
$HANDLING
 70
 10241
  9
$HANDSEED
  5
469
  9
$SURFTAB1
 70
     6
  9
$SURFTAB2
 70
     6
  9
$SURFTYPE
 70
     6
  9
$SURFU
 70
     6
  9
$SURFV
 70
     6
  9
$UCSNAME
  2

  9
$UCSORG
 10
0.0
 20
0.0
 30
0.0
  9
$UCSXDIR
 10
1.0
 20
0.0
 30
0.0
  9
$UCSYDIR
 10
0.0
 20
1.0
 30
0.0
  9
$PUCSNAME
  2

  9
$PUCSORG
 10
0.0
 20
0.0
 30
0.0
  9
$PUCSXDIR
 10
1.0
 20
0.0
 30
0.0
  9
$PUCSYDIR
 10
0.0
 20
1.0
 30
0.0
  9
$USERI1
 70
     0
  9
$USERI2
 70
     0
  9
$USERI3
 70
     0
  9
$USERI4
 70
     0
  9
$USERI5
 70
     0
  9
$USERR1
 40
0.0
  9
$USERR2
 40
0.0
  9
$USERR3
 40
0.0
  9
$USERR4
 40
0.0
  9
$USERR5
 40
0.0
  9
$WORLDVIEW
 70
     1
  9
$SHADEDGE
 70
     3
  9
$SHADEDIF
 70
    70
  9
$TILEMODE
 70
     1
  9
$MAXACTVP
 70
    16
  9
$PINSBASE
 10
0.0
 20
0.0
 30
0.0
  9
$PLIMCHECK
 70
     0
  9
$PEXTMIN
 10
0.0
 20
0.0
 30
0.0
  9
$PEXTMAX
 10
420.0
 20
297.0
 30
0.0
  9
$PLIMMIN
 10
0.0
 20
0.0
  9
$PLIMMAX
 10
420.0
 20
297.0
  9
$UNITMODE
 70
     0
  9
$VISRETAIN
 70
     0
  9
$PLINEGEN
 70
     0
  9
$PSLTSCALE
 70
     1
  9
$TREEDEPTH
 70
  3020
  9
$PICKSTYLE
 70
     1
  9
$CMLSTYLE
  2
STANDARD
  9
$CMLJUST
 70
     0
  9
$CMLSCALE
 40
1.0
  9
$SAVEIMAGES
 70
     1
  0
ENDSEC
  0
SECTION
  2
CLASSES
  0
CLASS
  1
ACDBDICTIONARYWDFLT
  2
AcDbDictionaryWithDefault
  3
AutoCAD 2000
 90
    32768
280
     0
281
     0
  0
CLASS
  1
ACDBPLACEHOLDER
  2
AcDbPlaceHolder
  3
AutoCAD 2000
 90
    32768
280
     0
281
     0
  0
CLASS
  1
LAYOUT
  2
AcDbLayout
  3
AutoCAD 2000
 90
    32768
280
     0
281
     0
  0
CLASS
  1
LONG_TRANSACTION
  2
AcDbLongTransaction
  3
AutoCAD 2000
 90
    32768
280
     0
281
     0
  0
CLASS
  1
LWPOLYLINE
  2
AcDbPolyline
  3
AutoCAD 2000
 90
    32768
280
     0
281
     1
  0
CLASS
  1
HATCH
  2
AcDbHatch
  3
AutoCAD 2000
 90
    32768
280
     0
281
     1
  0
CLASS
  1
XRECORD
  2
AcDbXrecord
  3
AutoCAD 2000
 90
    32768
280
     0
281
     0
  0
CLASS
  1
LONG_TRANSACTION
  2
AcDbLongTransaction
  3
AutoCAD 2000
 90
    32768
280
     0
281
     0
  0
CLASS
  1
LWPOLYLINE
  2
AcDbPolyline
  3
AutoCAD 2000
 90
    32768
280
     0
281
     1
  0
CLASS
  1
HATCH
  2
AcDbHatch
  3
AutoCAD 2000
 90
    32768
280
     0
281
     1
  0
CLASS
  1
XRECORD
  2
AcDbXrecord
  3
AutoCAD 2000
 90
    32768
280
     0
281
     0
  0
ENDSEC
  0
SECTION
  2
TABLES
  0
TABLE
  2
VPORT
  5
8
330
0
100
AcDbSymbolTable
 70
     2
  0
VPORT
  5
466
330
8
100
AcDbSymbolTableRecord
100
AcDbViewportTableRecord
  2
*ACTIVE
 70
     0
 10
0.0
 20
0.0
 11
1.0
 21
1.0
 12
406.3124766893232
 22
302.5300542704019
 13
0.0
 23
0.0
 14
5.0
 24
5.0
 15
0.0
 25
0.0
 16
0.0
 26
0.0
 36
1.0
 17
0.0
 27
0.0
 37
0.0
 40
621.4180388643917
 41
1.709909909909909
 42
50.0
 43
0.0
 44
0.0
 50
0.0
 51
0.0
 71
     0
 72
   100
 73
     1
 74
     0
 75
     0
 76
     0
 77
     0
 78
     0
  0
ENDTAB
  0
TABLE
  2
LTYPE
  5
5
330
0
100
AcDbSymbolTable
 70
     3
  0
LTYPE
  5
14
330
5
100
AcDbSymbolTableRecord
100
AcDbLinetypeTableRecord
  2
BYBLOCK
 70
     0
  3

 72
    65
 73
     0
 40
0.0
  0
LTYPE
  5
15
330
5
100
AcDbSymbolTableRecord
100
AcDbLinetypeTableRecord
  2
BYLAYER
 70
     0
  3

 72
    65
 73
     0
 40
0.0
  0
LTYPE
  5
16
330
5
100
AcDbSymbolTableRecord
100
AcDbLinetypeTableRecord
  2
CONTINUOUS
 70
     0
  3
Solid line
 72
    65
 73
     0
 40
0.0
  0
LTYPE
  5
115
330
5
100
AcDbSymbolTableRecord
100
AcDbLinetypeTableRecord
  2
PHANTOM
 70
     0
  3
______  __  __  ______  __  __  ______  __  __ 
 72
    65
 73
     6
 40
2.5
 49
1.25
 74
     0
 49
-0.25
 74
     0
 49
0.25
 74
     0
 49
-0.25
 74
     0
 49
0.25
 74
     0
 49
-0.25
 74
     0
  0
LTYPE
  5
135
330
5
100
AcDbSymbolTableRecord
100
AcDbLinetypeTableRecord
  2
CENTER
 70
     0
  3
____ _ ____ _ ____ _ ____ _ ____ _ ____ _ ____ 
 72
    65
 73
     4
 40
2.0
 49
1.25
 74
     0
 49
-0.25
 74
     0
 49
0.25
 74
     0
 49
-0.25
 74
     0
  0
ENDTAB
  0
TABLE
  2
LAYER
  5
2
330
0
100
AcDbSymbolTable
 70
     7
  0
LAYER
  5
F
330
2
100
AcDbSymbolTableRecord
100
AcDbLayerTableRecord
  2
0
 70
     0
 62
     7
  6
CONTINUOUS
  0
LAYER
  5
62
330
2
100
AcDbSymbolTableRecord
100
AcDbLayerTableRecord
  2
VIEWPORT
 70
     0
 62
     7
  6
CONTINUOUS
  0
LAYER
  5
65
330
2
100
AcDbSymbolTableRecord
100
AcDbLayerTableRecord
  2
ZUWAKU
 70
     0
 62
     7
  6
CONTINUOUS
  0
LAYER
  5
1CA
330
2
100
AcDbSymbolTableRecord
100
AcDbLayerTableRecord
  2
SEIHIN
 70
     0
 62
     3
  6
CONTINUOUS
  0
LAYER
  5
1CB
330
2
100
AcDbSymbolTableRecord
100
AcDbLayerTableRecord
  2
SUNPOU
 70
     0
 62
     4
  6
CONTINUOUS
  0
LAYER
  5
1CC
330
2
100
AcDbSymbolTableRecord
100
AcDbLayerTableRecord
  2
NOKITOI
 70
     0
 62
     8
  6
PHANTOM
  0
LAYER
  5
1CD
330
2
100
AcDbSymbolTableRecord
100
AcDbLayerTableRecord
  2
DEFPOINTS
 70
     0
 62
     7
  6
CONTINUOUS
  0
ENDTAB
  0
TABLE
  2
STYLE
  5
3
330
0
100
AcDbSymbolTable
 70
     1
  0
STYLE
  5
10
330
3
100
AcDbSymbolTableRecord
100
AcDbTextStyleTableRecord
  2
STANDARD
 70
     0
 40
0.0
 41
1.0
 50
0.0
 71
     0
 42
5.0
  3
TXT
  4
bigfont.shx
  0
ENDTAB
  0
TABLE
  2
VIEW
  5
6
330
0
100
AcDbSymbolTable
 70
     0
  0
ENDTAB
  0
TABLE
  2
UCS
  5
7
330
0
100
AcDbSymbolTable
 70
     0
  0
ENDTAB
  0
TABLE
  2
APPID
  5
9
330
0
100
AcDbSymbolTable
 70
     1
  0
APPID
  5
11
330
9
100
AcDbSymbolTableRecord
100
AcDbRegAppTableRecord
  2
ACAD
 70
     0
  0
ENDTAB
  0
TABLE
  2
DIMSTYLE
  5
A
330
0
100
AcDbSymbolTable
 70
     1
  0
DIMSTYLE
105
1D
102
{ACAD_REACTORS
330
277
330
278
330
279
330
2A1
330
2A2
330
2AF
330
2BD
330
2BE
330
2D5
330
2E0
330
2E1
102
}
330
A
100
AcDbSymbolTableRecord
100
AcDbDimStyleTableRecord
  2
STANDARD
 70
     0
  3

  4

  5

  6

  7

 40
1.0
 41
0.18
 42
0.0625
 43
0.38
 44
0.18
 45
0.0
 46
0.0
 47
0.0
 48
0.0
140
0.18
141
0.09
142
0.0
143
25.4
144
1.0
145
0.0
146
1.0
147
0.09
 71
     0
 72
     0
 73
     1
 74
     1
 75
     0
 76
     0
 77
     0
 78
     0
170
     0
171
     2
172
     0
173
     0
174
     0
175
     0
176
     0
177
     0
178
     0
270
     2
271
     4
272
     4
273
     2
274
     2
340
10
275
     0
280
     0
281
     0
282
     0
283
     1
284
     0
285
     0
286
     0
287
     3
288
     0
  0
ENDTAB
  0
TABLE
  2
BLOCK_RECORD
  5
1
330
0
100
AcDbSymbolTable
 70
    12
  0
BLOCK_RECORD
  5
1A
102
{ACAD_XDICTIONARY
360
458
102
}
330
1
100
AcDbSymbolTableRecord
100
AcDbBlockTableRecord
  2
*MODEL_SPACE
  0
BLOCK_RECORD
  5
17
102
{ACAD_XDICTIONARY
360
456
102
}
330
1
100
AcDbSymbolTableRecord
100
AcDbBlockTableRecord
  2
*PAPER_SPACE
  0
BLOCK_RECORD
  5
6D
330
1
100
AcDbSymbolTableRecord
100
AcDbBlockTableRecord
  2
_OPEN
  0
BLOCK_RECORD
  5
31C
330
1
100
AcDbSymbolTableRecord
100
AcDbBlockTableRecord
  2
*D1
  0
BLOCK_RECORD
  5
328
330
1
100
AcDbSymbolTableRecord
100
AcDbBlockTableRecord
  2
*D2
  0
BLOCK_RECORD
  5
335
330
1
100
AcDbSymbolTableRecord
100
AcDbBlockTableRecord
  2
*D3
  0
BLOCK_RECORD
  5
341
330
1
100
AcDbSymbolTableRecord
100
AcDbBlockTableRecord
  2
*D4
  0
BLOCK_RECORD
  5
34D
330
1
100
AcDbSymbolTableRecord
100
AcDbBlockTableRecord
  2
*D5
  0
BLOCK_RECORD
  5
359
330
1
100
AcDbSymbolTableRecord
100
AcDbBlockTableRecord
  2
*D6
  0
BLOCK_RECORD
  5
365
330
1
100
AcDbSymbolTableRecord
100
AcDbBlockTableRecord
  2
*D7
  0
BLOCK_RECORD
  5
371
330
1
100
AcDbSymbolTableRecord
100
AcDbBlockTableRecord
  2
*D8
  0
BLOCK_RECORD
  5
37D
330
1
100
AcDbSymbolTableRecord
100
AcDbBlockTableRecord
  2
*D9
  0
BLOCK_RECORD
  5
38B
330
1
100
AcDbSymbolTableRecord
100
AcDbBlockTableRecord
  2
*D10
  0
BLOCK_RECORD
  5
397
330
1
100
AcDbSymbolTableRecord
100
AcDbBlockTableRecord
  2
*D11
  0
ENDTAB
  0
ENDSEC
  0
SECTION
  2
BLOCKS
  0
BLOCK
  5
1B
330
1A
100
AcDbEntity
  8
0
100
AcDbBlockBegin
  2
*MODEL_SPACE
 70
     0
 10
0.0
 20
0.0
 30
0.0
  3
*MODEL_SPACE
  1

  0
ENDBLK
  5
1C
330
1A
100
AcDbEntity
  8
0
100
AcDbBlockEnd
  0
BLOCK
  5
18
330
17
100
AcDbEntity
 67
     1
  8
0
100
AcDbBlockBegin
  2
*PAPER_SPACE
 70
     0
 10
0.0
 20
0.0
 30
0.0
  3
*PAPER_SPACE
  1

  0
ENDBLK
  5
19
330
17
100
AcDbEntity
 67
     1
  8
0
100
AcDbBlockEnd
  0
BLOCK
  5
6E
330
6D
100
AcDbEntity
  8
0
100
AcDbBlockBegin
  2
_OPEN
 70
     0
 10
0.0
 20
0.0
 30
0.0
  3
_OPEN
  1

  0
LINE
  5
6F
330
6D
100
AcDbEntity
  8
0
  6
BYBLOCK
 62
     0
100
AcDbLine
 10
-1.0
 20
0.1666666666666666
 30
0.0
 11
0.0
 21
0.0
 31
0.0
  0
LINE
  5
70
330
6D
100
AcDbEntity
  8
0
  6
BYBLOCK
 62
     0
100
AcDbLine
 10
0.0
 20
0.0
 30
0.0
 11
-1.0
 21
-0.1666666666666666
 31
0.0
  0
LINE
  5
71
330
6D
100
AcDbEntity
  8
0
  6
BYBLOCK
 62
     0
100
AcDbLine
 10
0.0
 20
0.0
 30
0.0
 11
-1.0
 21
0.0
 31
0.0
  0
ENDBLK
  5
72
330
6D
100
AcDbEntity
  8
0
100
AcDbBlockEnd
  0
BLOCK
  5
3A3
330
31C
100
AcDbEntity
  8
0
100
AcDbBlockBegin
  2
*D1
 70
     1
 10
0.0
 20
0.0
 30
0.0
  3
*D1
  1

  0
LINE
  5
3A4
330
31C
100
AcDbEntity
  8
0
  6
BYBLOCK
 62
     4
100
AcDbLine
 10
454.9917271633898
 20
388.6643431747298
 30
0.0
 11
399.4592444043528
 21
388.6643431747298
 31
0.0
  0
LINE
  5
3A5
330
31C
100
AcDbEntity
  8
0
  6
BYBLOCK
 62
     4
100
AcDbLine
 10
516.345680214631
 20
213.6642423273518
 30
0.0
 11
399.4592444043528
 21
213.6642423273518
 31
0.0
  0
LINE
  5
3A6
330
31C
100
AcDbEntity
  8
0
  6
BYBLOCK
 62
     4
100
AcDbLine
 10
402.4592444043528
 20
381.6643431747298
 30
0.0
 11
402.4592444043528
 21
220.6642423273518
 31
0.0
  0
INSERT
  5
3A7
330
31C
100
AcDbEntity
  8
0
  6
BYBLOCK
 62
     4
100
AcDbBlockReference
  2
_OPEN
 10
402.4592444043528
 20
388.6643431747298
 30
0.0
 41
7.0
 42
7.0
 43
7.0
 50
90.0
  0
INSERT
  5
3A8
330
31C
100
AcDbEntity
  8
0
  6
BYBLOCK
 62
     4
100
AcDbBlockReference
  2
_OPEN
 10
402.4592444043528
 20
213.6642423273518
 30
0.0
 41
7.0
 42
7.0
 43
7.0
 50
270.0
  0
MTEXT
  5
3A9
330
31C
100
AcDbEntity
  8
0
  6
BYBLOCK
 62
     4
100
AcDbMText
 10
397.4592444043528
 20
301.1642927510408
 30
0.0
 40
6.0
 41
0.0
 71
     5
 72
     1
  1
\A1;175
 11
0.0
 21
1.0
 31
0.0
1001
ACAD
1000
MTEXTBEGIN
1070
    73
1070
     1
1070
    44
1040
1.0
1070
    74
1070
     0
1000
MTEXTEND
1000
MTEXTBEGIN
1070
    73
1070
     1
1070
    44
1040
1.0
1070
    74
1070
     0
1000
MTEXTEND
  0
POINT
  5
3AA
330
31C
100
AcDbEntity
  8
DEFPOINTS
  6
BYBLOCK
 62
     0
100
AcDbPoint
 10
460.9917271633897
 20
388.6643431747298
 30
0.0
  0
POINT
  5
3AB
330
31C
100
AcDbEntity
  8
DEFPOINTS
  6
BYBLOCK
 62
     0
100
AcDbPoint
 10
522.3456802146309
 20
213.6642423273518
 30
0.0
  0
POINT
  5
3AC
330
31C
100
AcDbEntity
  8
DEFPOINTS
  6
BYBLOCK
 62
     0
100
AcDbPoint
 10
402.4592444043528
 20
213.6642423273518
 30
0.0
  0
ENDBLK
  5
3AD
330
31C
100
AcDbEntity
  8
0
100
AcDbBlockEnd
  0
BLOCK
  5
3AE
330
328
100
AcDbEntity
  8
0
100
AcDbBlockBegin
  2
*D2
 70
     1
 10
0.0
 20
0.0
 30
0.0
  3
*D2
  1

  0
LINE
  5
3AF
330
328
100
AcDbEntity
  8
0
  6
BYBLOCK
 62
     4
100
AcDbLine
 10
512.3457271633899
 20
224.66424317473
 30
0.0
 11
419.4605930433885
 21
224.66424317473
 31
0.0
  0
LINE
  5
3B0
330
328
100
AcDbEntity
  8
0
  6
BYBLOCK
 62
     4
100
AcDbLine
 10
422.4605930433885
 20
256.66424317473
 30
0.0
 11
422.4605930433885
 21
263.66424317473
 31
0.0
  0
LINE
  5
3B1
330
328
100
AcDbEntity
  8
0
  6
BYBLOCK
 62
     4
100
AcDbLine
 10
422.4605930433885
 20
217.66424317473
 30
0.0
 11
422.4605930433885
 21
210.66424317473
 31
0.0
  0
LINE
  5
3B2
330
328
100
AcDbEntity
  8
0
  6
BYBLOCK
 62
     4
100
AcDbLine
 10
422.4605930433885
 20
249.66424317473
 30
0.0
 11
422.4605930433885
 21
224.66424317473
 31
0.0
  0
INSERT
  5
3B3
330
328
100
AcDbEntity
  8
0
  6
BYBLOCK
 62
     4
100
AcDbBlockReference
  2
_OPEN
 10
422.4605930433885
 20
249.66424317473
 30
0.0
 41
7.0
 42
7.0
 43
7.0
 50
270.0
  0
INSERT
  5
3B4
330
328
100
AcDbEntity
  8
0
  6
BYBLOCK
 62
     4
100
AcDbBlockReference
  2
_OPEN
 10
422.4605930433885
 20
224.66424317473
 30
0.0
 41
7.0
 42
7.0
 43
7.0
 50
90.0
  0
MTEXT
  5
3B5
330
328
100
AcDbEntity
  8
0
  6
BYBLOCK
 62
     4
100
AcDbMText
 10
417.4605930433886
 20
237.16424317473
 30
0.0
 40
6.0
 41
0.0
 71
     5
 72
     1
  1
\A1;25
 11
0.0
 21
1.0
 31
0.0
1001
ACAD
1000
MTEXTBEGIN
1070
    73
1070
     1
1070
    44
1040
1.0
1070
    74
1070
     0
1000
MTEXTEND
1000
MTEXTBEGIN
1070
    73
1070
     1
1070
    44
1040
1.0
1070
    74
1070
     0
1000
MTEXTEND
  0
POINT
  5
3B6
330
328
100
AcDbEntity
  8
DEFPOINTS
  6
BYBLOCK
 62
     0
100
AcDbPoint
 10
511.89242716339
 20
249.66424317473
 30
0.0
  0
POINT
  5
3B7
330
328
100
AcDbEntity
  8
DEFPOINTS
  6
BYBLOCK
 62
     0
100
AcDbPoint
 10
518.3457271633899
 20
224.66424317473
 30
0.0
  0
POINT
  5
3B8
330
328
100
AcDbEntity
  8
DEFPOINTS
  6
BYBLOCK
 62
     0
100
AcDbPoint
 10
422.4605930433885
 20
224.66424317473
 30
0.0
  0
ENDBLK
  5
3B9
330
328
100
AcDbEntity
  8
0
100
AcDbBlockEnd
  0
BLOCK
  5
3BA
330
335
100
AcDbEntity
  8
0
100
AcDbBlockBegin
  2
*D3
 70
     1
 10
0.0
 20
0.0
 30
0.0
  3
*D3
  1

  0
LINE
  5
3BB
330
335
100
AcDbEntity
  8
0
  6
BYBLOCK
 62
     4
100
AcDbLine
 10
454.9917271633898
 20
388.6643431747298
 30
0.0
 11
419.4605930433885
 21
388.6643431747298
 31
0.0
  0
LINE
  5
3BC
330
335
100
AcDbEntity
  8
0
  6
BYBLOCK
 62
     4
100
AcDbLine
 10
505.89242716339
 20
249.66424317473
 30
0.0
 11
419.4605930433885
 21
249.66424317473
 31
0.0
  0
LINE
  5
3BD
330
335
100
AcDbEntity
  8
0
  6
BYBLOCK
 62
     4
100
AcDbLine
 10
422.4605930433885
 20
381.6643431747298
 30
0.0
 11
422.4605930433885
 21
256.66424317473
 31
0.0
  0
INSERT
  5
3BE
330
335
100
AcDbEntity
  8
0
  6
BYBLOCK
 62
     4
100
AcDbBlockReference
  2
_OPEN
 10
422.4605930433885
 20
388.6643431747298
 30
0.0
 41
7.0
 42
7.0
 43
7.0
 50
90.0
  0
INSERT
  5
3BF
330
335
100
AcDbEntity
  8
0
  6
BYBLOCK
 62
     4
100
AcDbBlockReference
  2
_OPEN
 10
422.4605930433885
 20
249.66424317473
 30
0.0
 41
7.0
 42
7.0
 43
7.0
 50
270.0
  0
MTEXT
  5
3C0
330
335
100
AcDbEntity
  8
0
  6
BYBLOCK
 62
     4
100
AcDbMText
 10
417.4605930433886
 20
319.1642931747299
 30
0.0
 40
6.0
 41
0.0
 71
     5
 72
     1
  1
\A1;139
 11
0.0
 21
1.0
 31
0.0
1001
ACAD
1000
MTEXTBEGIN
1070
    73
1070
     1
1070
    44
1040
1.0
1070
    74
1070
     0
1000
MTEXTEND
1000
MTEXTBEGIN
1070
    73
1070
     1
1070
    44
1040
1.0
1070
    74
1070
     0
1000
MTEXTEND
  0
POINT
  5
3C1
330
335
100
AcDbEntity
  8
DEFPOINTS
  6
BYBLOCK
 62
     0
100
AcDbPoint
 10
460.9917271633897
 20
388.6643431747298
 30
0.0
  0
POINT
  5
3C2
330
335
100
AcDbEntity
  8
DEFPOINTS
  6
BYBLOCK
 62
     0
100
AcDbPoint
 10
511.89242716339
 20
249.66424317473
 30
0.0
  0
POINT
  5
3C3
330
335
100
AcDbEntity
  8
DEFPOINTS
  6
BYBLOCK
 62
     0
100
AcDbPoint
 10
422.4605930433885
 20
249.66424317473
 30
0.0
  0
ENDBLK
  5
3C4
330
335
100
AcDbEntity
  8
0
100
AcDbBlockEnd
  0
BLOCK
  5
3C5
330
341
100
AcDbEntity
  8
0
100
AcDbBlockBegin
  2
*D4
 70
     1
 10
0.0
 20
0.0
 30
0.0
  3
*D4
  1

  0
LINE
  5
3C6
330
341
100
AcDbEntity
  8
0
  6
BYBLOCK
 62
     4
100
AcDbLine
 10
191.64212512934
 20
394.66474317473
 30
0.0
 11
191.64212512934
 21
449.1784958622285
 31
0.0
  0
LINE
  5
3C7
330
341
100
AcDbEntity
  8
0
  6
BYBLOCK
 62
     4
100
AcDbLine
 10
356.6421251293399
 20
394.66444317473
 30
0.0
 11
356.6421251293399
 21
449.1784958622285
 31
0.0
  0
LINE
  5
3C8
330
341
100
AcDbEntity
  8
0
  6
BYBLOCK
 62
     4
100
AcDbLine
 10
198.6421251293401
 20
446.1784958622285
 30
0.0
 11
349.64212512934
 21
446.1784958622285
 31
0.0
  0
INSERT
  5
3C9
330
341
100
AcDbEntity
  8
0
  6
BYBLOCK
 62
     4
100
AcDbBlockReference
  2
_OPEN
 10
191.64212512934
 20
446.1784958622285
 30
0.0
 41
7.0
 42
7.0
 43
7.0
 50
180.0
  0
INSERT
  5
3CA
330
341
100
AcDbEntity
  8
0
  6
BYBLOCK
 62
     4
100
AcDbBlockReference
  2
_OPEN
 10
356.6421251293399
 20
446.1784958622285
 30
0.0
 41
7.0
 42
7.0
 43
7.0
  0
MTEXT
  5
3CB
330
341
100
AcDbEntity
  8
0
  6
BYBLOCK
 62
     4
100
AcDbMText
 10
274.14212512934
 20
451.1784958622285
 30
0.0
 40
6.0
 41
0.0
 71
     5
 72
     1
  1
\A1;165
1001
ACAD
1000
MTEXTBEGIN
1070
    73
1070
     1
1070
    44
1040
1.0
1070
    74
1070
     0
1000
MTEXTEND
1000
MTEXTBEGIN
1070
    73
1070
     1
1070
    44
1040
1.0
1070
    74
1070
     0
1000
MTEXTEND
  0
POINT
  5
3CC
330
341
100
AcDbEntity
  8
DEFPOINTS
  6
BYBLOCK
 62
     0
100
AcDbPoint
 10
191.64212512934
 20
388.66474317473
 30
0.0
  0
POINT
  5
3CD
330
341
100
AcDbEntity
  8
DEFPOINTS
  6
BYBLOCK
 62
     0
100
AcDbPoint
 10
356.6421251293399
 20
388.66444317473
 30
0.0
  0
POINT
  5
3CE
330
341
100
AcDbEntity
  8
DEFPOINTS
  6
BYBLOCK
 62
     0
100
AcDbPoint
 10
356.6421251293399
 20
446.1784958622285
 30
0.0
  0
ENDBLK
  5
3CF
330
341
100
AcDbEntity
  8
0
100
AcDbBlockEnd
  0
BLOCK
  5
3D0
330
34D
100
AcDbEntity
  8
0
100
AcDbBlockBegin
  2
*D5
 70
     1
 10
0.0
 20
0.0
 30
0.0
  3
*D5
  1

  0
LINE
  5
3D1
330
34D
100
AcDbEntity
  8
0
  6
BYBLOCK
 62
     4
100
AcDbLine
 10
244.1421700543608
 20
394.6645522654757
 30
0.0
 11
244.1421700543608
 21
428.2972899219857
 31
0.0
  0
LINE
  5
3D2
330
34D
100
AcDbEntity
  8
0
  6
BYBLOCK
 62
     4
100
AcDbLine
 10
304.1421700542692
 20
394.66444317473
 30
0.0
 11
304.1421700542692
 21
428.2972899219857
 31
0.0
  0
LINE
  5
3D3
330
34D
100
AcDbEntity
  8
0
  6
BYBLOCK
 62
     4
100
AcDbLine
 10
251.1421700543608
 20
425.2972899219857
 30
0.0
 11
297.1421700542693
 21
425.2972899219857
 31
0.0
  0
INSERT
  5
3D4
330
34D
100
AcDbEntity
  8
0
  6
BYBLOCK
 62
     4
100
AcDbBlockReference
  2
_OPEN
 10
244.1421700543608
 20
425.2972899219857
 30
0.0
 41
7.0
 42
7.0
 43
7.0
 50
180.0
  0
INSERT
  5
3D5
330
34D
100
AcDbEntity
  8
0
  6
BYBLOCK
 62
     4
100
AcDbBlockReference
  2
_OPEN
 10
304.1421700542692
 20
425.2972899219857
 30
0.0
 41
7.0
 42
7.0
 43
7.0
  0
MTEXT
  5
3D6
330
34D
100
AcDbEntity
  8
0
  6
BYBLOCK
 62
     4
100
AcDbMText
 10
274.142170054315
 20
430.2972899219857
 30
0.0
 40
6.0
 41
0.0
 71
     5
 72
     1
  1
\A1;※a60
1001
ACAD
1000
MTEXTBEGIN
1070
    73
1070
     1
1070
    44
1040
1.0
1070
    74
1070
     0
1000
MTEXTEND
1000
MTEXTBEGIN
1070
    73
1070
     1
1070
    44
1040
1.0
1070
    74
1070
     0
1000
MTEXTEND
  0
POINT
  5
3D7
330
34D
100
AcDbEntity
  8
DEFPOINTS
  6
BYBLOCK
 62
     0
100
AcDbPoint
 10
244.1421700543608
 20
388.6645522654757
 30
0.0
  0
POINT
  5
3D8
330
34D
100
AcDbEntity
  8
DEFPOINTS
  6
BYBLOCK
 62
     0
100
AcDbPoint
 10
304.1421700542692
 20
388.66444317473
 30
0.0
  0
POINT
  5
3D9
330
34D
100
AcDbEntity
  8
DEFPOINTS
  6
BYBLOCK
 62
     0
100
AcDbPoint
 10
304.1421700542692
 20
425.2972899219857
 30
0.0
  0
ENDBLK
  5
3DA
330
34D
100
AcDbEntity
  8
0
100
AcDbBlockEnd
  0
BLOCK
  5
3DB
330
359
100
AcDbEntity
  8
0
100
AcDbBlockBegin
  2
*D6
 70
     1
 10
0.0
 20
0.0
 30
0.0
  3
*D6
  1

  0
LINE
  5
3DC
330
359
100
AcDbEntity
  8
0
  6
BYBLOCK
 62
     4
100
AcDbLine
 10
624.1520271633898
 20
388.6641431747301
 30
0.0
 11
656.378497896032
 21
388.6641431747301
 31
0.0
  0
LINE
  5
3DD
330
359
100
AcDbEntity
  8
0
  6
BYBLOCK
 62
     4
100
AcDbLine
 10
557.3458442122119
 20
326.3641789289974
 30
0.0
 11
656.378497896032
 21
326.3641789289974
 31
0.0
  0
LINE
  5
3DE
330
359
100
AcDbEntity
  8
0
  6
BYBLOCK
 62
     4
100
AcDbLine
 10
653.378497896032
 20
381.6641431747301
 30
0.0
 11
653.378497896032
 21
333.3641789289974
 31
0.0
  0
INSERT
  5
3DF
330
359
100
AcDbEntity
  8
0
  6
BYBLOCK
 62
     4
100
AcDbBlockReference
  2
_OPEN
 10
653.378497896032
 20
388.6641431747301
 30
0.0
 41
7.0
 42
7.0
 43
7.0
 50
90.0
  0
INSERT
  5
3E0
330
359
100
AcDbEntity
  8
0
  6
BYBLOCK
 62
     4
100
AcDbBlockReference
  2
_OPEN
 10
653.378497896032
 20
326.3641789289974
 30
0.0
 41
7.0
 42
7.0
 43
7.0
 50
270.0
  0
MTEXT
  5
3E1
330
359
100
AcDbEntity
  8
0
  6
BYBLOCK
 62
     4
100
AcDbMText
 10
648.378497896032
 20
357.5141610518637
 30
0.0
 40
6.0
 41
0.0
 71
     5
 72
     1
  1
\A1;62
 11
0.0
 21
1.0
 31
0.0
1001
ACAD
1000
MTEXTBEGIN
1070
    73
1070
     1
1070
    44
1040
1.0
1070
    74
1070
     0
1000
MTEXTEND
1000
MTEXTBEGIN
1070
    73
1070
     1
1070
    44
1040
1.0
1070
    74
1070
     0
1000
MTEXTEND
  0
POINT
  5
3E2
330
359
100
AcDbEntity
  8
DEFPOINTS
  6
BYBLOCK
 62
     0
100
AcDbPoint
 10
618.1520271633899
 20
388.6641431747301
 30
0.0
  0
POINT
  5
3E3
330
359
100
AcDbEntity
  8
DEFPOINTS
  6
BYBLOCK
 62
     0
100
AcDbPoint
 10
551.345844212212
 20
326.3641789289974
 30
0.0
  0
POINT
  5
3E4
330
359
100
AcDbEntity
  8
DEFPOINTS
  6
BYBLOCK
 62
     0
100
AcDbPoint
 10
653.378497896032
 20
326.3641789289974
 30
0.0
  0
ENDBLK
  5
3E5
330
359
100
AcDbEntity
  8
0
100
AcDbBlockEnd
  0
BLOCK
  5
3E6
330
365
100
AcDbEntity
  8
0
100
AcDbBlockBegin
  2
*D7
 70
     1
 10
0.0
 20
0.0
 30
0.0
  3
*D7
  1

  0
LINE
  5
3E7
330
365
100
AcDbEntity
  8
0
  6
BYBLOCK
 62
     4
100
AcDbLine
 10
588.1957271633898
 20
223.6641431747299
 30
0.0
 11
588.1957271633898
 21
155.2313130183087
 31
0.0
  0
LINE
  5
3E8
330
365
100
AcDbEntity
  8
0
  6
BYBLOCK
 62
     4
100
AcDbLine
 10
514.4952271633898
 20
223.66424317473
 30
0.0
 11
514.4952271633898
 21
155.2313130183087
 31
0.0
  0
LINE
  5
3E9
330
365
100
AcDbEntity
  8
0
  6
BYBLOCK
 62
     4
100
AcDbLine
 10
581.1957271633898
 20
158.2313130183087
 30
0.0
 11
521.4952271633897
 21
158.2313130183087
 31
0.0
  0
INSERT
  5
3EA
330
365
100
AcDbEntity
  8
0
  6
BYBLOCK
 62
     4
100
AcDbBlockReference
  2
_OPEN
 10
588.1957271633898
 20
158.2313130183087
 30
0.0
 41
7.0
 42
7.0
 43
7.0
  0
INSERT
  5
3EB
330
365
100
AcDbEntity
  8
0
  6
BYBLOCK
 62
     4
100
AcDbBlockReference
  2
_OPEN
 10
514.4952271633898
 20
158.2313130183087
 30
0.0
 41
7.0
 42
7.0
 43
7.0
 50
180.0
  0
MTEXT
  5
3EC
330
365
100
AcDbEntity
  8
0
  6
BYBLOCK
 62
     4
100
AcDbMText
 10
551.3454771633899
 20
163.2313130183087
 30
0.0
 40
6.0
 41
0.0
 71
     5
 72
     1
  1
\A1;φ74
1001
ACAD
1000
MTEXTBEGIN
1070
    73
1070
     1
1070
    44
1040
1.0
1070
    74
1070
     0
1000
MTEXTEND
1000
MTEXTBEGIN
1070
    73
1070
     1
1070
    44
1040
1.0
1070
    74
1070
     0
1000
MTEXTEND
  0
POINT
  5
3ED
330
365
100
AcDbEntity
  8
DEFPOINTS
  6
BYBLOCK
 62
     0
100
AcDbPoint
 10
588.1957271633898
 20
229.6641431747299
 30
0.0
  0
POINT
  5
3EE
330
365
100
AcDbEntity
  8
DEFPOINTS
  6
BYBLOCK
 62
     0
100
AcDbPoint
 10
514.4952271633898
 20
229.66424317473
 30
0.0
  0
POINT
  5
3EF
330
365
100
AcDbEntity
  8
DEFPOINTS
  6
BYBLOCK
 62
     0
100
AcDbPoint
 10
514.4952271633898
 20
158.2313130183087
 30
0.0
  0
ENDBLK
  5
3F0
330
365
100
AcDbEntity
  8
0
100
AcDbBlockEnd
  0
BLOCK
  5
3F1
330
371
100
AcDbEntity
  8
0
100
AcDbBlockBegin
  2
*D8
 70
     1
 10
0.0
 20
0.0
 30
0.0
  3
*D8
  1

  0
LINE
  5
3F2
330
371
100
AcDbEntity
  8
0
  6
BYBLOCK
 62
     4
100
AcDbLine
 10
580.3456802145493
 20
207.6641440222672
 30
0.0
 11
580.3456802145493
 21
175.1394311974076
 31
0.0
  0
LINE
  5
3F3
330
371
100
AcDbEntity
  8
0
  6
BYBLOCK
 62
     4
100
AcDbLine
 10
522.3456802146309
 20
207.6642423273518
 30
0.0
 11
522.3456802146309
 21
175.1394311974076
 31
0.0
  0
LINE
  5
3F4
330
371
100
AcDbEntity
  8
0
  6
BYBLOCK
 62
     4
100
AcDbLine
 10
573.3456802145493
 20
178.1394311974076
 30
0.0
 11
529.345680214631
 21
178.1394311974076
 31
0.0
  0
INSERT
  5
3F5
330
371
100
AcDbEntity
  8
0
  6
BYBLOCK
 62
     4
100
AcDbBlockReference
  2
_OPEN
 10
580.3456802145493
 20
178.1394311974076
 30
0.0
 41
7.0
 42
7.0
 43
7.0
  0
INSERT
  5
3F6
330
371
100
AcDbEntity
  8
0
  6
BYBLOCK
 62
     4
100
AcDbBlockReference
  2
_OPEN
 10
522.3456802146309
 20
178.1394311974076
 30
0.0
 41
7.0
 42
7.0
 43
7.0
 50
180.0
  0
MTEXT
  5
3F7
330
371
100
AcDbEntity
  8
0
  6
BYBLOCK
 62
     4
100
AcDbMText
 10
551.3456802145902
 20
183.1394311974076
 30
0.0
 40
6.0
 41
0.0
 71
     5
 72
     1
  1
\A1;φ58
1001
ACAD
1000
MTEXTBEGIN
1070
    73
1070
     1
1070
    44
1040
1.0
1070
    74
1070
     0
1000
MTEXTEND
1000
MTEXTBEGIN
1070
    73
1070
     1
1070
    44
1040
1.0
1070
    74
1070
     0
1000
MTEXTEND
  0
POINT
  5
3F8
330
371
100
AcDbEntity
  8
DEFPOINTS
  6
BYBLOCK
 62
     0
100
AcDbPoint
 10
580.3456802145493
 20
213.6641440222672
 30
0.0
  0
POINT
  5
3F9
330
371
100
AcDbEntity
  8
DEFPOINTS
  6
BYBLOCK
 62
     0
100
AcDbPoint
 10
522.3456802146309
 20
213.6642423273518
 30
0.0
  0
POINT
  5
3FA
330
371
100
AcDbEntity
  8
DEFPOINTS
  6
BYBLOCK
 62
     0
100
AcDbPoint
 10
522.3456802146309
 20
178.1394311974076
 30
0.0
  0
ENDBLK
  5
3FB
330
371
100
AcDbEntity
  8
0
100
AcDbBlockEnd
  0
BLOCK
  5
3FC
330
37D
100
AcDbEntity
  8
0
100
AcDbBlockBegin
  2
*D9
 70
     1
 10
0.0
 20
0.0
 30
0.0
  3
*D9
  1

  0
LINE
  5
3FD
330
37D
100
AcDbEntity
  8
0
  6
BYBLOCK
 62
     4
100
AcDbLine
 10
590.3457271633899
 20
224.6641431747299
 30
0.0
 11
629.5482782576978
 21
224.6641431747299
 31
0.0
  0
LINE
  5
3FE
330
37D
100
AcDbEntity
  8
0
  6
BYBLOCK
 62
     4
100
AcDbLine
 10
594.1957721633899
 20
238.6641431747299
 30
0.0
 11
629.5482782576978
 21
238.6641431747299
 31
0.0
  0
LINE
  5
3FF
330
37D
100
AcDbEntity
  8
0
  6
BYBLOCK
 62
     4
100
AcDbLine
 10
626.5482782576977
 20
217.6641431747299
 30
0.0
 11
626.5482782576977
 21
210.6641431747299
 31
0.0
  0
LINE
  5
400
330
37D
100
AcDbEntity
  8
0
  6
BYBLOCK
 62
     4
100
AcDbLine
 10
626.5482782576977
 20
245.6641431747299
 30
0.0
 11
626.5482782576977
 21
281.4641431747298
 31
0.0
  0
LINE
  5
401
330
37D
100
AcDbEntity
  8
0
  6
BYBLOCK
 62
     4
100
AcDbLine
 10
626.5482782576977
 20
224.6641431747299
 30
0.0
 11
626.5482782576977
 21
238.6641431747299
 31
0.0
  0
INSERT
  5
402
330
37D
100
AcDbEntity
  8
0
  6
BYBLOCK
 62
     4
100
AcDbBlockReference
  2
_OPEN
 10
626.5482782576977
 20
224.6641431747299
 30
0.0
 41
7.0
 42
7.0
 43
7.0
 50
90.0
  0
INSERT
  5
403
330
37D
100
AcDbEntity
  8
0
  6
BYBLOCK
 62
     4
100
AcDbBlockReference
  2
_OPEN
 10
626.5482782576977
 20
238.6641431747299
 30
0.0
 41
7.0
 42
7.0
 43
7.0
 50
270.0
  0
MTEXT
  5
404
330
37D
100
AcDbEntity
  8
0
  6
BYBLOCK
 62
     4
100
AcDbMText
 10
621.5482782576978
 20
267.0641431747299
 30
0.0
 40
6.0
 41
0.0
 71
     5
 72
     1
  1
\A1;※b 14
 11
0.0
 21
1.0
 31
0.0
1001
ACAD
1000
MTEXTBEGIN
1070
    73
1070
     1
1070
    44
1040
1.0
1070
    74
1070
     0
1000
MTEXTEND
1000
MTEXTBEGIN
1070
    73
1070
     1
1070
    44
1040
1.0
1070
    74
1070
     0
1000
MTEXTEND
  0
POINT
  5
405
330
37D
100
AcDbEntity
  8
DEFPOINTS
  6
BYBLOCK
 62
     0
100
AcDbPoint
 10
584.3457271633899
 20
224.6641431747299
 30
0.0
  0
POINT
  5
406
330
37D
100
AcDbEntity
  8
DEFPOINTS
  6
BYBLOCK
 62
     0
100
AcDbPoint
 10
588.19577216339
 20
238.6641431747299
 30
0.0
  0
POINT
  5
407
330
37D
100
AcDbEntity
  8
DEFPOINTS
  6
BYBLOCK
 62
     0
100
AcDbPoint
 10
626.5482782576977
 20
238.6641431747299
 30
0.0
  0
ENDBLK
  5
408
330
37D
100
AcDbEntity
  8
0
100
AcDbBlockEnd
  0
BLOCK
  5
409
330
38B
100
AcDbEntity
  8
0
100
AcDbBlockBegin
  2
*D10
 70
     1
 10
0.0
 20
0.0
 30
0.0
  3
*D10
  1

  0
LINE
  5
40A
330
38B
100
AcDbEntity
  8
0
  6
BYBLOCK
 62
     4
100
AcDbLine
 10
618.1520271633899
 20
394.66414317473
 30
0.0
 11
618.1520271633899
 21
449.3133421526392
 31
0.0
  0
LINE
  5
40B
330
38B
100
AcDbEntity
  8
0
  6
BYBLOCK
 62
     4
100
AcDbLine
 10
460.9917271633897
 20
394.6643431747298
 30
0.0
 11
460.9917271633897
 21
449.3133421526392
 31
0.0
  0
LINE
  5
40C
330
38B
100
AcDbEntity
  8
0
  6
BYBLOCK
 62
     4
100
AcDbLine
 10
611.1520271633898
 20
446.3133421526392
 30
0.0
 11
467.9917271633898
 21
446.3133421526392
 31
0.0
  0
INSERT
  5
40D
330
38B
100
AcDbEntity
  8
0
  6
BYBLOCK
 62
     4
100
AcDbBlockReference
  2
_OPEN
 10
618.1520271633899
 20
446.3133421526392
 30
0.0
 41
7.0
 42
7.0
 43
7.0
  0
INSERT
  5
40E
330
38B
100
AcDbEntity
  8
0
  6
BYBLOCK
 62
     4
100
AcDbBlockReference
  2
_OPEN
 10
460.9917271633897
 20
446.3133421526392
 30
0.0
 41
7.0
 42
7.0
 43
7.0
 50
180.0
  0
MTEXT
  5
40F
330
38B
100
AcDbEntity
  8
0
  6
BYBLOCK
 62
     4
100
AcDbMText
 10
539.5718771633899
 20
451.3133421526392
 30
0.0
 40
6.0
 41
0.0
 71
     5
 72
     1
  1
\A1;157
1001
ACAD
1000
MTEXTBEGIN
1070
    73
1070
     1
1070
    44
1040
1.0
1070
    74
1070
     0
1000
MTEXTEND
1000
MTEXTBEGIN
1070
    73
1070
     1
1070
    44
1040
1.0
1070
    74
1070
     0
1000
MTEXTEND
  0
POINT
  5
410
330
38B
100
AcDbEntity
  8
DEFPOINTS
  6
BYBLOCK
 62
     0
100
AcDbPoint
 10
618.1520271633899
 20
388.6641431747301
 30
0.0
  0
POINT
  5
411
330
38B
100
AcDbEntity
  8
DEFPOINTS
  6
BYBLOCK
 62
     0
100
AcDbPoint
 10
460.9917271633897
 20
388.6643431747298
 30
0.0
  0
POINT
  5
412
330
38B
100
AcDbEntity
  8
DEFPOINTS
  6
BYBLOCK
 62
     0
100
AcDbPoint
 10
460.9917271633897
 20
446.3133421526392
 30
0.0
  0
ENDBLK
  5
413
330
38B
100
AcDbEntity
  8
0
100
AcDbBlockEnd
  0
BLOCK
  5
414
330
397
100
AcDbEntity
  8
0
100
AcDbBlockBegin
  2
*D11
 70
     1
 10
0.0
 20
0.0
 30
0.0
  3
*D11
  1

  0
LINE
  5
415
330
397
100
AcDbEntity
  8
0
  6
BYBLOCK
 62
     4
100
AcDbLine
 10
618.1520271633899
 20
394.66414317473
 30
0.0
 11
618.1520271633899
 21
428.1560821047691
 31
0.0
  0
LINE
  5
416
330
397
100
AcDbEntity
  8
0
  6
BYBLOCK
 62
     4
100
AcDbLine
 10
551.3459271633897
 20
389.36864317473
 30
0.0
 11
551.3459271633897
 21
428.1560821047691
 31
0.0
  0
LINE
  5
417
330
397
100
AcDbEntity
  8
0
  6
BYBLOCK
 62
     4
100
AcDbLine
 10
611.1520271633898
 20
425.1560821047691
 30
0.0
 11
558.3459271633897
 21
425.1560821047691
 31
0.0
  0
INSERT
  5
418
330
397
100
AcDbEntity
  8
0
  6
BYBLOCK
 62
     4
100
AcDbBlockReference
  2
_OPEN
 10
618.1520271633899
 20
425.1560821047691
 30
0.0
 41
7.0
 42
7.0
 43
7.0
  0
INSERT
  5
419
330
397
100
AcDbEntity
  8
0
  6
BYBLOCK
 62
     4
100
AcDbBlockReference
  2
_OPEN
 10
551.3459271633897
 20
425.1560821047691
 30
0.0
 41
7.0
 42
7.0
 43
7.0
 50
180.0
  0
MTEXT
  5
41A
330
397
100
AcDbEntity
  8
0
  6
BYBLOCK
 62
     4
100
AcDbMText
 10
584.7489771633897
 20
430.1560821047691
 30
0.0
 40
6.0
 41
0.0
 71
     5
 72
     1
  1
\A1;67
1001
ACAD
1000
MTEXTBEGIN
1070
    73
1070
     1
1070
    44
1040
1.0
1070
    74
1070
     0
1000
MTEXTEND
1000
MTEXTBEGIN
1070
    73
1070
     1
1070
    44
1040
1.0
1070
    74
1070
     0
1000
MTEXTEND
  0
POINT
  5
41B
330
397
100
AcDbEntity
  8
DEFPOINTS
  6
BYBLOCK
 62
     0
100
AcDbPoint
 10
618.1520271633899
 20
388.6641431747301
 30
0.0
  0
POINT
  5
41C
330
397
100
AcDbEntity
  8
DEFPOINTS
  6
BYBLOCK
 62
     0
100
AcDbPoint
 10
551.3459271633897
 20
383.36864317473
 30
0.0
  0
POINT
  5
41D
330
397
100
AcDbEntity
  8
DEFPOINTS
  6
BYBLOCK
 62
     0
100
AcDbPoint
 10
551.3459271633897
 20
425.1560821047691
 30
0.0
  0
ENDBLK
  5
41E
330
397
100
AcDbEntity
  8
0
100
AcDbBlockEnd
  0
ENDSEC
  0
SECTION
  2
ENTITIES
  0
TEXT
  5
11A
330
1A
100
AcDbEntity
  8
ZUWAKU
 62
     7
 48
10.0
100
AcDbText
 10
795.5579444309237
 20
4.974918402528146
 30
0.0
 40
8.0
  1
A1
100
AcDbText
  0
LINE
  5
11B
330
1A
100
AcDbEntity
  8
ZUWAKU
 62
     7
 48
10.0
100
AcDbLine
 10
10.05047808566086
 20
25.78258628282265
 30
0.0
 11
806.0504780856609
 21
25.78258628282253
 31
0.0
  0
LINE
  5
11C
330
1A
100
AcDbEntity
  8
ZUWAKU
  6
CONTINUOUS
 62
     7
100
AcDbLine
 10
806.0504780856609
 20
563.7825862828226
 30
0.0
 11
10.05047808566086
 21
563.7825862828226
 31
0.0
  0
LINE
  5
11D
330
1A
100
AcDbEntity
  8
ZUWAKU
  6
CONTINUOUS
 62
     7
100
AcDbLine
 10
806.0504780856609
 20
13.78258628282265
 30
0.0
 11
10.05047808566086
 21
13.78258628282265
 31
0.0
  0
LINE
  5
11E
330
1A
100
AcDbEntity
  8
ZUWAKU
  6
CONTINUOUS
 62
     7
100
AcDbLine
 10
10.05047808566086
 20
563.7825862828226
 30
0.0
 11
10.05047808566086
 21
13.78258628282265
 31
0.0
  0
LINE
  5
11F
330
1A
100
AcDbEntity
  8
ZUWAKU
 62
     7
 48
10.0
100
AcDbLine
 10
44.55797523147839
 20
13.78258628282265
 30
0.0
 11
44.5579752314784
 21
25.78258628282265
 31
0.0
  0
TEXT
  5
120
330
1A
100
AcDbEntity
  8
ZUWAKU
 62
     7
100
AcDbText
 10
16.05676551180931
 20
15.52294263804401
 30
0.0
 40
8.0
  1
品 種
100
AcDbText
  0
LINE
  5
121
330
1A
100
AcDbEntity
  8
ZUWAKU
 62
     7
 48
10.0
100
AcDbLine
 10
276.1028387068254
 20
13.78258628282265
 30
0.0
 11
276.1028387068254
 21
25.78258628282261
 31
0.0
  0
LINE
  5
122
330
1A
100
AcDbEntity
  8
ZUWAKU
 62
     7
 48
10.0
100
AcDbLine
 10
209.5138526425484
 20
13.78258628282265
 30
0.0
 11
209.5138526425485
 21
25.78258628282263
 31
0.0
  0
TEXT
  5
124
330
1A
100
AcDbEntity
  8
ZUWAKU
 62
     7
100
AcDbText
 10
215.4560837190756
 20
16.18358115302453
 30
0.0
 40
8.0
  1
品名・ｻ ｲ ｽﾞ
100
AcDbText
  0
LINE
  5
126
330
1A
100
AcDbEntity
  8
ZUWAKU
 62
     7
 48
10.0
100
AcDbLine
 10
768.7231079932794
 20
13.78258628282237
 30
0.0
 11
768.7231079932794
 21
25.78258628282254
 31
0.0
  0
LINE
  5
127
330
1A
100
AcDbEntity
  8
ZUWAKU
 62
     7
 48
10.0
100
AcDbLine
 10
733.8119002376948
 20
13.78258628282242
 30
0.0
 11
733.8119002376946
 21
25.78258628282254
 31
0.0
  0
TEXT
  5
128
330
1A
100
AcDbEntity
  8
ZUWAKU
 62
     7
100
AcDbText
 10
739.6955629973526
 20
15.24227755810852
 30
0.0
 40
8.0
  1
尺 度
100
AcDbText
  0
TEXT
  5
129
330
1A
100
AcDbEntity
  8
ZUWAKU
 62
     7
100
AcDbText
 10
779.7374630323229
 20
15.55488920081529
 30
0.0
 40
8.0
  1
1/2
100
AcDbText
  0
TEXT
  5
12B
330
1A
100
AcDbEntity
  8
ZUWAKU
 62
     7
100
AcDbText
 10
620.3363288383084
 20
15.6519090944263
 30
0.0
 40
8.0
  1
品 番
100
AcDbText
  0
LINE
  5
12C
330
1A
100
AcDbEntity
  8
ZUWAKU
 62
     7
 48
10.0
100
AcDbLine
 10
614.3351028194128
 20
13.78258628282232
 30
0.0
 11
614.3351028194128
 21
25.78258628282256
 31
0.0
  0
LINE
  5
12D
330
1A
100
AcDbEntity
  8
ZUWAKU
 62
     7
 48
10.0
100
AcDbLine
 10
648.7607587371021
 20
13.78258628282232
 30
0.0
 11
648.7607587371021
 21
25.78258628282255
 31
0.0
  0
TEXT
  5
12E
330
1A
100
AcDbEntity
  8
ZUWAKU
 62
     7
 48
10.0
100
AcDbText
 10
646.2758615931216
 20
4.949376903717848
 30
0.0
 40
8.0
  1
積水化学工業株式会社  建材
100
AcDbText
  0
LINE
  5
12F
330
1A
100
AcDbEntity
  8
ZUWAKU
  6
CONTINUOUS
 62
     7
100
AcDbLine
 10
806.0504780856609
 20
563.7825862828226
 30
0.0
 11
806.0504780856609
 21
13.78258628282265
 31
0.0
  0
DIMENSION
  5
277
330
1A
100
AcDbEntity
  8
SUNPOU
  6
CONTINUOUS
100
AcDbDimension
  2
*D1
 10
379.9508705979096
 20
196.798159925337
 30
0.0
 11
374.9508705979096
 21
284.298210349026
 31
0.0
 12
-22.50837380644316
 22
-16.86608240201485
 32
0.0
 70
    32
  3
STANDARD
100
AcDbAlignedDimension
 13
438.4833533569466
 23
371.7982607727149
 33
0.0
 14
499.8373064081878
 24
196.798159925337
 34
0.0
 50
90.0
100
AcDbRotatedDimension
1001
ACAD
1000
DSTYLE
1002
{
1070
   140
1040
6.0
1070
    74
1070
     0
1070
   172
1070
     1
1070
    73
1070
     0
1070
   272
1070
     2
1070
    77
1070
     3
1070
   173
1070
     1
1070
   147
1040
2.0
1070
    42
1040
6.0
1070
    44
1040
3.0
1070
    43
1040
14.0
1070
   271
1070
     0
1070
   178
1070
     4
1070
   177
1070
     4
1070
   176
1070
     4
1070
   141
1040
150.0
1070
     7
1000
_OPEN
1070
     6
1000
_OPEN
1070
    41
1040
7.0
1002
}
  0
DIMENSION
  5
278
330
1A
100
AcDbEntity
  8
SUNPOU
  6
CONTINUOUS
100
AcDbDimension
  2
*D2
 10
399.9522192369454
 20
207.7981607727151
 30
0.0
 11
394.9522192369454
 21
220.2981607727151
 31
0.0
 12
-22.50837380644316
 22
-16.86608240201485
 32
0.0
 70
    32
  3
STANDARD
100
AcDbAlignedDimension
 13
489.3840533569468
 23
232.7981607727151
 33
0.0
 14
495.8373533569467
 24
207.7981607727151
 34
0.0
 50
90.0
100
AcDbRotatedDimension
1001
ACAD
1000
DSTYLE
1002
{
1070
   140
1040
6.0
1070
    74
1070
     0
1070
   172
1070
     1
1070
    73
1070
     0
1070
   272
1070
     2
1070
    77
1070
     3
1070
    75
1070
     1
1070
   173
1070
     1
1070
   147
1040
2.0
1070
    42
1040
6.0
1070
    44
1040
3.0
1070
    43
1040
14.0
1070
   271
1070
     0
1070
   178
1070
     4
1070
   177
1070
     4
1070
   176
1070
     4
1070
   141
1040
150.0
1070
     7
1000
_OPEN
1070
     6
1000
_OPEN
1070
    41
1040
7.0
1002
}
  0
DIMENSION
  5
279
330
1A
100
AcDbEntity
  8
SUNPOU
  6
CONTINUOUS
100
AcDbDimension
  2
*D3
 10
399.9522192369454
 20
232.7981607727151
 30
0.0
 11
394.9522192369454
 21
302.298210772715
 31
0.0
 12
-22.50837380644316
 22
-16.86608240201485
 32
0.0
 70
    32
  3
STANDARD
100
AcDbAlignedDimension
 13
438.4833533569466
 23
371.7982607727149
 33
0.0
 14
489.3840533569468
 24
232.7981607727151
 34
0.0
 50
90.0
100
AcDbRotatedDimension
1001
ACAD
1000
DSTYLE
1002
{
1070
   140
1040
6.0
1070
    74
1070
     0
1070
   172
1070
     1
1070
    73
1070
     0
1070
   272
1070
     2
1070
    77
1070
     3
1070
   173
1070
     1
1070
   147
1040
2.0
1070
    42
1040
6.0
1070
    44
1040
3.0
1070
    43
1040
14.0
1070
   271
1070
     0
1070
   178
1070
     4
1070
   177
1070
     4
1070
   176
1070
     4
1070
   141
1040
150.0
1070
     7
1000
_OPEN
1070
     6
1000
_OPEN
1070
    41
1040
7.0
1002
}
  0
LINE
  5
27A
330
1A
100
AcDbEntity
  8
SUNPOU
  6
CENTER
 62
     1
 48
5.0
100
AcDbLine
 10
251.6338119651426
 20
383.7281381286524
 30
0.0
 11
251.6335513228968
 21
185.895460772715
 31
0.0
  0
LINE
  5
27B
330
1A
100
AcDbEntity
  8
SEIHIN
  6
CONTINUOUS
 62
     3
 48
16.0
100
AcDbLine
 10
332.4622513228969
 20
370.298360772715
 30
0.0
 11
317.1330513228967
 21
260.8440607727152
 31
0.0
  0
LINE
  5
27C
330
1A
100
AcDbEntity
  8
SEIHIN
  6
CONTINUOUS
 62
     3
 48
16.0
100
AcDbLine
 10
271.6337513228968
 20
371.7983607727151
 30
0.0
 11
251.6337513228969
 21
261.798360772715
 31
0.0
  0
LINE
  5
27D
330
1A
100
AcDbEntity
  8
SEIHIN
  6
CONTINUOUS
 62
     3
 48
16.0
100
AcDbLine
 10
231.6337513228969
 20
371.7984607727151
 30
0.0
 11
251.6334513228968
 21
261.798360772715
 31
0.0
  0
LINE
  5
27E
330
1A
100
AcDbEntity
  8
SEIHIN
  6
CONTINUOUS
 62
     3
 48
16.0
100
AcDbLine
 10
170.8053513228969
 20
370.2986607727152
 30
0.0
 11
186.1341513228969
 21
260.844260772715
 31
0.0
  0
LINE
  5
27F
330
1A
100
AcDbEntity
  8
SEIHIN
  6
CONTINUOUS
 62
     3
 48
16.0
100
AcDbLine
 10
251.6337513228969
 20
371.7983607727151
 30
0.0
 11
251.6336513228968
 21
261.7974607727151
 31
0.0
  0
TEXT
  5
280
330
1A
100
AcDbEntity
  8
ZUWAKU
 62
     7
100
AcDbText
 10
50.3519382305086
 20
16.10306189639755
 30
0.0
 40
8.0
  1
丸トップ　のきとい
100
AcDbText
  0
TEXT
  5
282
330
1A
100
AcDbEntity
  8
ZUWAKU
 62
     7
100
AcDbText
 10
282.3131429914078
 20
15.64241700452384
 30
0.0
 40
8.0
  1
じょうご　１０５－ＵＴ６０
100
AcDbText
  0
LINE
  5
286
330
1A
100
AcDbEntity
  8
SEIHIN
  6
CONTINUOUS
 62
     3
 48
16.0
100
AcDbLine
 10
251.6337513228969
 20
232.798360772715
 30
0.0
 11
291.0835513228968
 21
232.798360772715
 31
0.0
  0
LINE
  5
287
330
1A
100
AcDbEntity
  8
SEIHIN
  6
CONTINUOUS
 62
     3
 48
16.0
100
AcDbLine
 10
251.6337513228969
 20
256.7983607727151
 30
0.0
 11
310.7885513228969
 21
256.7983607727151
 31
0.0
  0
LINE
  5
288
330
1A
100
AcDbEntity
  8
SEIHIN
  6
CONTINUOUS
 62
     3
 48
16.0
100
AcDbLine
 10
251.6337513228969
 20
242.7983607727151
 30
0.0
 11
288.2845513228969
 21
242.7983607727151
 31
0.0
  0
LINE
  5
289
330
1A
100
AcDbEntity
  8
SEIHIN
  6
CONTINUOUS
 62
     3
 48
16.0
100
AcDbLine
 10
251.6337513228969
 20
207.7983607727151
 30
0.0
 11
284.6337513228968
 21
207.7983607727151
 31
0.0
  0
LINE
  5
28A
330
1A
100
AcDbEntity
  8
SEIHIN
  6
CONTINUOUS
 62
     3
 48
16.0
100
AcDbLine
 10
280.6335641728769
 20
196.7983624682533
 30
0.0
 11
251.6335513228968
 21
196.7984607727151
 31
0.0
  0
LINE
  5
28B
330
1A
100
AcDbEntity
  8
SEIHIN
  6
CONTINUOUS
 62
     3
 48
16.0
100
AcDbLine
 10
288.4838513228968
 20
212.7983607727151
 30
0.0
 11
251.6335513228968
 21
212.7984607727151
 31
0.0
  0
LINE
  5
28C
330
1A
100
AcDbEntity
  8
SEIHIN
  6
CONTINUOUS
 62
     3
 48
16.0
100
AcDbLine
 10
214.7833513228969
 20
232.7984607727151
 30
0.0
 11
214.7832513228968
 21
212.7984607727151
 31
0.0
  0
LINE
  5
28D
330
1A
100
AcDbEntity
  8
SEIHIN
  6
CONTINUOUS
 62
     3
 48
16.0
100
AcDbLine
 10
214.7832513228968
 20
212.7984607727151
 30
0.0
 11
251.6335513228968
 21
212.7984607727151
 31
0.0
  0
LINE
  5
28E
330
1A
100
AcDbEntity
  8
SEIHIN
  6
CONTINUOUS
 62
     3
 48
16.0
100
AcDbLine
 10
222.6335641729562
 20
196.7984590767566
 30
0.0
 11
251.6335513228968
 21
196.7983607727151
 31
0.0
  0
LINE
  5
28F
330
1A
100
AcDbEntity
  8
SEIHIN
  6
CONTINUOUS
 62
     3
 48
16.0
100
AcDbLine
 10
251.6332513228968
 20
207.7983607727151
 30
0.0
 11
218.6332513228969
 21
207.7984607727151
 31
0.0
  0
LINE
  5
290
330
1A
100
AcDbEntity
  8
SEIHIN
  6
CONTINUOUS
 62
     3
 48
16.0
100
AcDbLine
 10
235.1332513228968
 20
207.7984607727151
 30
0.0
 11
218.9404513228969
 21
207.7984607727151
 31
0.0
  0
LINE
  5
291
330
1A
100
AcDbEntity
  8
SEIHIN
  6
CONTINUOUS
 62
     3
 48
16.0
100
AcDbLine
 10
214.7832513228968
 20
212.7984607727151
 30
0.0
 11
218.6332513228969
 21
207.7984607727151
 31
0.0
  0
LINE
  5
292
330
1A
100
AcDbEntity
  8
SEIHIN
  6
CONTINUOUS
 62
     3
100
AcDbLine
 10
222.6335801798095
 20
207.7984486515031
 30
0.0
 11
222.6335641729562
 21
196.7984590767566
 31
0.0
  0
LINE
  5
293
330
1A
100
AcDbEntity
  8
SEIHIN
  6
CONTINUOUS
 62
     3
 48
16.0
100
AcDbLine
 10
190.2004513228968
 20
254.8248607727151
 30
0.0
 11
209.4276513228969
 21
244.1852607727152
 31
0.0
  0
LINE
  5
294
330
1A
100
AcDbEntity
  8
SEIHIN
  6
CONTINUOUS
 62
     3
 48
16.0
100
AcDbLine
 10
251.6334513228968
 20
256.7983607727151
 30
0.0
 11
192.4786513228969
 21
256.7985607727151
 31
0.0
  0
ARC
  5
295
330
1A
100
AcDbEntity
  8
SEIHIN
  6
CONTINUOUS
 62
     3
 48
16.0
100
AcDbCircle
 10
194.0738670181651
 20
261.8246375389491
 30
0.0
 40
8.000013995328991
100
AcDbArc
 50
187.0391132414003
 51
241.0414922083254
  0
LINE
  5
296
330
1A
100
AcDbEntity
  8
SEIHIN
  6
CONTINUOUS
 62
     3
 48
16.0
100
AcDbLine
 10
251.6333513228969
 20
232.798360772715
 30
0.0
 11
212.1836513228968
 21
232.7984607727151
 31
0.0
  0
LINE
  5
297
330
1A
100
AcDbEntity
  8
SEIHIN
  6
CONTINUOUS
 62
     3
 48
16.0
100
AcDbLine
 10
251.6333513228969
 20
242.7983607727151
 30
0.0
 11
214.9826513228969
 21
242.7984607727152
 31
0.0
  0
ARC
  5
298
330
1A
100
AcDbEntity
  8
SEIHIN
  6
CONTINUOUS
 62
     3
 48
16.0
100
AcDbCircle
 10
207.0068307123347
 20
239.8103947545066
 30
0.0
 40
4.99998251054928
100
AcDbArc
 50
1.432159223787534
 51
61.04216663037829
  0
LINE
  5
299
330
1A
100
AcDbEntity
  8
SEIHIN
  6
CONTINUOUS
 62
     3
 48
16.0
100
AcDbLine
 10
212.0052513228968
 20
239.9352607727152
 30
0.0
 11
212.1836513228968
 21
232.7984607727151
 31
0.0
  0
LINE
  5
29A
330
1A
100
AcDbEntity
  8
SEIHIN
  6
CONTINUOUS
 62
     3
 48
16.0
100
AcDbLine
 10
288.4838513228968
 20
232.798360772715
 30
0.0
 11
288.4838513228968
 21
212.7983607727151
 31
0.0
  0
LINE
  5
29B
330
1A
100
AcDbEntity
  8
SEIHIN
  6
CONTINUOUS
 62
     3
 48
16.0
100
AcDbLine
 10
288.4838513228968
 20
212.7983607727151
 30
0.0
 11
284.6337513228968
 21
207.7983607727151
 31
0.0
  0
LINE
  5
29C
330
1A
100
AcDbEntity
  8
SEIHIN
  6
CONTINUOUS
 62
     3
100
AcDbLine
 10
280.6335801797429
 20
207.7983607726214
 30
0.0
 11
280.6335641728757
 21
196.7983616201586
 31
0.0
  0
LINE
  5
29D
330
1A
100
AcDbEntity
  8
SEIHIN
  6
CONTINUOUS
 62
     3
 48
16.0
100
AcDbLine
 10
313.0667513228969
 20
254.8246607727151
 30
0.0
 11
293.8394513228968
 21
244.185060772715
 31
0.0
  0
ARC
  5
29E
330
1A
100
AcDbEntity
  8
SEIHIN
  6
CONTINUOUS
 62
     3
 48
16.0
100
AcDbCircle
 10
296.2603515466933
 20
239.8102611417124
 30
0.0
 40
4.99996297036279
100
AcDbArc
 50
118.9589999444657
 51
178.5674498805787
  0
LINE
  5
29F
330
1A
100
AcDbEntity
  8
SEIHIN
  6
CONTINUOUS
 62
     3
 48
16.0
100
AcDbLine
 10
291.2619513228969
 20
239.9351607727151
 30
0.0
 11
291.0835513228968
 21
232.798360772715
 31
0.0
  0
ARC
  5
2A0
330
1A
100
AcDbEntity
  8
SEIHIN
  6
CONTINUOUS
 62
     3
 48
16.0
100
AcDbCircle
 10
309.1933356276284
 20
261.8244375389491
 30
0.0
 40
8.000013995329094
100
AcDbArc
 50
298.958507791675
 51
352.9608867586002
  0
DIMENSION
  5
2A1
330
1A
100
AcDbEntity
  8
SUNPOU
  6
CONTINUOUS
100
AcDbDimension
  2
*D4
 10
334.1337513228968
 20
429.3124134602137
 30
0.0
 11
251.6337513228969
 21
434.3124134602136
 31
0.0
 12
-22.50837380644316
 22
-16.86608240201485
 32
0.0
 70
    32
  3
STANDARD
100
AcDbAlignedDimension
 13
169.1337513228969
 23
371.7986607727151
 33
0.0
 14
334.1337513228968
 24
371.7983607727151
 34
0.0
100
AcDbRotatedDimension
1001
ACAD
1000
DSTYLE
1002
{
1070
   140
1040
6.0
1070
    74
1070
     0
1070
   172
1070
     1
1070
    73
1070
     0
1070
   272
1070
     2
1070
    77
1070
     3
1070
   173
1070
     1
1070
   147
1040
2.0
1070
    42
1040
6.0
1070
    44
1040
3.0
1070
    43
1040
14.0
1070
   271
1070
     0
1070
   178
1070
     4
1070
   177
1070
     4
1070
   176
1070
     4
1070
   141
1040
150.0
1070
     7
1000
_OPEN
1070
     6
1000
_OPEN
1070
    41
1040
7.0
1002
}
  0
DIMENSION
  5
2A2
330
1A
100
AcDbEntity
  8
SUNPOU
  6
CONTINUOUS
100
AcDbDimension
  2
*D5
 10
281.6337962478261
 20
408.4312075199709
 30
0.0
 11
251.6337962478719
 21
413.4312075199709
 31
0.0
 12
-22.50837380644316
 22
-16.86608240201485
 32
0.0
 70
    32
  1
※a<>
  3
STANDARD
100
AcDbAlignedDimension
 13
221.6337962479177
 23
371.7984698634608
 33
0.0
 14
281.6337962478261
 24
371.7983607727151
 34
0.0
100
AcDbRotatedDimension
1001
ACAD
1000
DSTYLE
1002
{
1070
   140
1040
6.0
1070
    74
1070
     0
1070
   172
1070
     1
1070
    73
1070
     0
1070
   272
1070
     2
1070
    77
1070
     3
1070
   173
1070
     1
1070
   147
1040
2.0
1070
    42
1040
6.0
1070
    44
1040
3.0
1070
    43
1040
14.0
1070
   271
1070
     0
1070
   178
1070
     4
1070
   177
1070
     4
1070
   176
1070
     4
1070
   141
1040
150.0
1070
     7
1000
_OPEN
1070
     6
1000
_OPEN
1070
    41
1040
7.0
1002
}
  0
LINE
  5
2A3
330
1A
100
AcDbEntity
  8
SEIHIN
  6
CONTINUOUS
 62
     3
 48
16.0
100
AcDbLine
 10
251.6337513228969
 20
371.7983607727151
 30
0.0
 11
334.1337513228968
 21
371.7983607727151
 31
0.0
  0
LINE
  5
2A4
330
1A
100
AcDbEntity
  8
SEIHIN
  6
CONTINUOUS
 62
     3
 48
16.0
100
AcDbLine
 10
251.6337513228969
 20
370.298360772715
 30
0.0
 11
334.1337513228968
 21
370.298360772715
 31
0.0
  0
ARC
  5
2A5
330
1A
100
AcDbEntity
  8
SEIHIN
  6
CONTINUOUS
 62
     3
 48
16.0
100
AcDbCircle
 10
293.8742292004128
 20
326.9629440331487
 30
0.0
 40
30.00001901316386
100
AcDbArc
 50
89.16283715390147
 51
165.0649610237179
  0
LINE
  5
2A6
330
1A
100
AcDbEntity
  8
SEIHIN
  6
CONTINUOUS
 62
     3
 48
16.0
100
AcDbLine
 10
214.2466513228969
 20
356.567860772715
 30
0.0
 11
172.2930513228969
 21
359.675760772715
 31
0.0
  0
LINE
  5
2A7
330
1A
100
AcDbEntity
  8
SEIHIN
  6
CONTINUOUS
 62
     3
 48
16.0
100
AcDbLine
 10
251.6337513228969
 20
371.7983607727151
 30
0.0
 11
169.1337513228969
 21
371.7986607727151
 31
0.0
  0
LINE
  5
2A8
330
1A
100
AcDbEntity
  8
SEIHIN
  6
CONTINUOUS
 62
     3
 48
16.0
100
AcDbLine
 10
251.6337513228969
 20
370.298360772715
 30
0.0
 11
169.1337513228969
 21
370.2986607727152
 31
0.0
  0
LINE
  5
2A9
330
1A
100
AcDbEntity
  8
SEIHIN
  6
CONTINUOUS
 62
     3
 48
16.0
100
AcDbLine
 10
169.1337513228969
 20
371.7986607727151
 30
0.0
 11
169.1337513228969
 21
370.2986607727152
 31
0.0
  0
ARC
  5
2AA
330
1A
100
AcDbEntity
  8
SEIHIN
  6
CONTINUOUS
 62
     3
 48
16.0
100
AcDbCircle
 10
209.3932108019718
 20
326.9630914339241
 30
0.0
 40
29.99997070224623
100
AcDbArc
 50
14.93496989310181
 51
90.83704454134716
  0
LINE
  5
2AB
330
1A
100
AcDbEntity
  8
SEIHIN
  6
CONTINUOUS
 62
     3
 48
16.0
100
AcDbLine
 10
289.0209513228969
 20
356.5677607727152
 30
0.0
 11
330.9744513228969
 21
359.6754607727152
 31
0.0
  0
LINE
  5
2AC
330
1A
100
AcDbEntity
  8
SEIHIN
  6
CONTINUOUS
 62
     3
 48
16.0
100
AcDbLine
 10
334.1337513228968
 20
371.7983607727151
 30
0.0
 11
334.1337513228968
 21
370.298360772715
 31
0.0
  0
ARC
  5
2AD
330
1A
100
AcDbEntity
  8
NOKITOI
  6
PHANTOM
 62
     8
 48
2.0
100
AcDbCircle
 10
528.8374704057688
 20
359.7981085269826
 30
0.0
 40
49.00000099999999
100
AcDbArc
 50
185.413376
 51
354.5863799999999
  0
ARC
  5
2AE
330
1A
100
AcDbEntity
  8
NOKITOI
  6
PHANTOM
 62
     8
 48
2.0
100
AcDbCircle
 10
528.8374704057688
 20
359.7981085269826
 30
0.0
 40
50.300012
100
AcDbArc
 50
188.6764639999999
 51
351.2914929999999
  0
DIMENSION
  5
2AF
330
1A
100
AcDbEntity
  8
SUNPOU
  6
CONTINUOUS
100
AcDbDimension
  2
*D6
 10
630.8701240895889
 20
309.4980965269826
 30
0.0
 11
625.8701240895889
 21
340.6480786498489
 31
0.0
 12
-22.50837380644316
 22
-16.86608240201485
 32
0.0
 70
    32
  3
STANDARD
100
AcDbAlignedDimension
 13
595.6436533569467
 23
371.7980607727152
 33
0.0
 14
528.8374704057688
 24
309.4980965269826
 34
0.0
 50
90.0
100
AcDbRotatedDimension
1001
ACAD
1000
DSTYLE
1002
{
1070
   140
1040
6.0
1070
    74
1070
     0
1070
   172
1070
     1
1070
    73
1070
     0
1070
   272
1070
     2
1070
    77
1070
     3
1070
   173
1070
     1
1070
   147
1040
2.0
1070
    42
1040
6.0
1070
    44
1040
3.0
1070
    43
1040
14.0
1070
   271
1070
     0
1070
   178
1070
     4
1070
   177
1070
     4
1070
   176
1070
     4
1070
   141
1040
150.0
1070
     7
1000
_OPEN
1070
     6
1000
_OPEN
1070
    41
1040
7.0
1002
}
  0
LINE
  5
2B0
330
1A
100
AcDbEntity
  8
SUNPOU
  6
CENTER
 62
     1
 48
5.0
100
AcDbLine
 10
528.8375533569466
 20
366.5025607727152
 30
0.0
 11
528.8372903295328
 21
185.7488067126251
 31
0.0
  0
LINE
  5
2B1
330
1A
100
AcDbEntity
  8
SEIHIN
  6
CONTINUOUS
 62
     3
 48
16.0
100
AcDbLine
 10
440.4559533569467
 20
369.478160772715
 30
0.0
 11
451.5370533569467
 21
268.0731607727151
 31
0.0
  0
ARC
  5
2B2
330
1A
100
AcDbEntity
  8
SEIHIN
  6
CONTINUOUS
 62
     3
 48
16.0
100
AcDbCircle
 10
528.8375356272536
 20
359.7980607724925
 30
0.0
 40
50.29996424555218
100
AcDbArc
 50
192.1411191375217
 51
347.8585313192899
  0
LINE
  5
2B3
330
1A
100
AcDbEntity
  8
SEIHIN
  6
CONTINUOUS
 62
     3
 48
16.0
100
AcDbLine
 10
592.0098533569468
 20
350.7980607727152
 30
0.0
 11
584.1033533569466
 21
259.9217607727151
 31
0.0
  0
LINE
  5
2B4
330
1A
100
AcDbEntity
  8
SEIHIN
  6
CONTINUOUS
 62
     3
 48
16.0
100
AcDbLine
 10
464.8377533569467
 20
359.7982607727152
 30
0.0
 11
473.5715533569468
 21
259.921860772715
 31
0.0
  0
LINE
  5
2B5
330
1A
100
AcDbEntity
  8
SEIHIN
  6
CONTINUOUS
 62
     3
 48
16.0
100
AcDbLine
 10
446.9585533569468
 20
326.3461607727149
 30
0.0
 11
454.2886533569467
 21
260.9600607727151
 31
0.0
  0
TEXT
  5
2B6
330
1A
100
AcDbEntity
  8
SUNPOU
 62
     4
100
AcDbText
 10
601.5904248574233
 20
58.29313784147672
 30
0.0
 40
8.0
  1
※a　のきといの縁切り間隔寸法を示す。　
100
AcDbText
  0
TEXT
  5
2B7
330
1A
100
AcDbEntity
  8
SUNPOU
 62
     4
100
AcDbText
 10
601.5904248574233
 20
45.55878032291349
 30
0.0
 40
8.0
  1
※b　エルボの差込み寸法を示す。　
100
AcDbText
  0
TEXT
  5
2B9
330
1A
100
AcDbEntity
  8
ZUWAKU
 62
     7
100
AcDbText
 10
654.2531733678779
 20
15.90287984531518
 30
0.0
 40
8.0
  1
ＧＥ３８
100
AcDbText
  0
DIMENSION
  5
2BD
330
1A
100
AcDbEntity
  8
SUNPOU
  6
CONTINUOUS
100
AcDbDimension
  2
*D7
 10
491.9868533569466
 20
141.3652306162939
 30
0.0
 11
528.8371033569467
 21
146.3652306162938
 31
0.0
 12
-22.50837380644316
 22
-16.86608240201485
 32
0.0
 70
    32
  1
φ<>
  3
STANDARD
100
AcDbAlignedDimension
 13
565.6873533569466
 23
212.798060772715
 33
0.0
 14
491.9868533569466
 24
212.7981607727151
 34
0.0
100
AcDbRotatedDimension
1001
ACAD
1000
DSTYLE
1002
{
1070
   140
1040
6.0
1070
    74
1070
     0
1070
   172
1070
     1
1070
    73
1070
     0
1070
   272
1070
     2
1070
    77
1070
     3
1070
   173
1070
     1
1070
   147
1040
2.0
1070
    42
1040
6.0
1070
    44
1040
3.0
1070
    43
1040
14.0
1070
   271
1070
     0
1070
   178
1070
     4
1070
   177
1070
     4
1070
   176
1070
     4
1070
   141
1040
150.0
1070
     7
1000
_OPEN
1070
     6
1000
_OPEN
1070
    41
1040
7.0
1002
}
  0
DIMENSION
  5
2BE
330
1A
100
AcDbEntity
  8
SUNPOU
  6
CONTINUOUS
100
AcDbDimension
  2
*D8
 10
499.8373064081878
 20
161.2733487953927
 30
0.0
 11
528.8373064081469
 21
166.2733487953927
 31
0.0
 12
-22.50837380644316
 22
-16.86608240201485
 32
0.0
 70
    32
  1
φ<>
  3
STANDARD
100
AcDbAlignedDimension
 13
557.8373064081062
 23
196.7980616202523
 33
0.0
 14
499.8373064081878
 24
196.798159925337
 34
0.0
100
AcDbRotatedDimension
1001
ACAD
1000
DSTYLE
1002
{
1070
   140
1040
6.0
1070
    74
1070
     0
1070
   172
1070
     1
1070
    73
1070
     0
1070
   272
1070
     2
1070
    77
1070
     3
1070
   173
1070
     1
1070
   147
1040
2.0
1070
    42
1040
6.0
1070
    44
1040
3.0
1070
    43
1040
14.0
1070
   271
1070
     0
1070
   178
1070
     4
1070
   177
1070
     4
1070
   176
1070
     4
1070
   141
1040
150.0
1070
     7
1000
_OPEN
1070
     6
1000
_OPEN
1070
    41
1040
7.0
1002
}
  0
LINE
  5
2BF
330
1A
100
AcDbEntity
  8
SEIHIN
  6
CONTINUOUS
 62
     3
 48
16.0
100
AcDbLine
 10
568.2908533569466
 20
232.798060772715
 30
0.0
 11
528.8375533569466
 21
232.798060772715
 31
0.0
  0
LINE
  5
2C0
330
1A
100
AcDbEntity
  8
SEIHIN
  6
CONTINUOUS
 62
     3
 48
16.0
100
AcDbLine
 10
562.5618533569466
 20
242.7980607727151
 30
0.0
 11
528.8375533569466
 21
242.7980607727151
 31
0.0
  0
LINE
  5
2C1
330
1A
100
AcDbEntity
  8
SEIHIN
  6
CONTINUOUS
 62
     3
 48
16.0
100
AcDbLine
 10
528.8373533569466
 20
207.798060772715
 30
0.0
 11
561.8373533569467
 21
207.798060772715
 31
0.0
  0
LINE
  5
2C2
330
1A
100
AcDbEntity
  8
SEIHIN
  6
CONTINUOUS
 62
     3
 48
16.0
100
AcDbLine
 10
565.6873533569466
 20
212.798060772715
 30
0.0
 11
528.8371533569468
 21
212.7981607727151
 31
0.0
  0
LINE
  5
2C3
330
1A
100
AcDbEntity
  8
SEIHIN
  6
CONTINUOUS
 62
     3
 48
16.0
100
AcDbLine
 10
528.8375533569466
 20
256.7980607727152
 30
0.0
 11
580.8726533569467
 21
256.7980607727152
 31
0.0
  0
LINE
  5
2C4
330
1A
100
AcDbEntity
  8
SEIHIN
  6
CONTINUOUS
 62
     3
 48
16.0
100
AcDbLine
 10
557.8373064081062
 20
196.7980616202523
 30
0.0
 11
499.8373064081878
 21
196.798159925337
 31
0.0
  0
LINE
  5
2C5
330
1A
100
AcDbEntity
  8
SEIHIN
  6
CONTINUOUS
 62
     3
 48
16.0
100
AcDbLine
 10
491.9873533569468
 20
232.7981607727151
 30
0.0
 11
491.9873533569468
 21
212.7981607727151
 31
0.0
  0
LINE
  5
2C6
330
1A
100
AcDbEntity
  8
SEIHIN
  6
CONTINUOUS
 62
     3
 48
16.0
100
AcDbLine
 10
528.8373533569466
 20
207.798060772715
 30
0.0
 11
495.8373533569467
 21
207.7981607727151
 31
0.0
  0
LINE
  5
2C7
330
1A
100
AcDbEntity
  8
SEIHIN
  6
CONTINUOUS
 62
     3
 48
16.0
100
AcDbLine
 10
491.9868533569466
 20
212.7981607727151
 30
0.0
 11
528.8371533569468
 21
212.7981607727151
 31
0.0
  0
LINE
  5
2C8
330
1A
100
AcDbEntity
  8
SEIHIN
  6
CONTINUOUS
 62
     3
 48
16.0
100
AcDbLine
 10
491.9873533569468
 20
212.7981607727151
 30
0.0
 11
495.8412533569468
 21
207.7981607727151
 31
0.0
  0
LINE
  5
2C9
330
1A
100
AcDbEntity
  8
SEIHIN
  6
CONTINUOUS
 62
     3
100
AcDbLine
 10
499.8373224150399
 20
207.7981486515968
 30
0.0
 11
499.8373064081878
 21
196.798159925337
 31
0.0
  0
LINE
  5
2CA
330
1A
100
AcDbEntity
  8
SEIHIN
  6
CONTINUOUS
 62
     3
 48
16.0
100
AcDbLine
 10
485.9763533569467
 20
244.3360607727151
 30
0.0
 11
459.4342533569466
 21
254.2989607727152
 31
0.0
  0
ARC
  5
2CB
330
1A
100
AcDbEntity
  8
SEIHIN
  6
CONTINUOUS
 62
     3
 48
16.0
100
AcDbCircle
 10
458.4994233965544
 20
268.7982167598308
 30
0.0
 40
7.00002162517217
100
AcDbArc
 50
185.945308995002
 51
230.3608081750639
  0
ARC
  5
2CC
330
1A
100
AcDbEntity
  8
SEIHIN
  6
CONTINUOUS
 62
     3
 48
16.0
100
AcDbCircle
 10
462.2456708356166
 20
261.7887381463087
 30
0.0
 40
8.000052083915756
100
AcDbArc
 50
185.94559071965
 51
249.4255070381701
  0
LINE
  5
2CD
330
1A
100
AcDbEntity
  8
SEIHIN
  6
CONTINUOUS
 62
     3
 48
16.0
100
AcDbLine
 10
528.8373533569466
 20
256.7980607727152
 30
0.0
 11
481.1931533569468
 21
256.798160772715
 31
0.0
  0
LINE
  5
2CE
330
1A
100
AcDbEntity
  8
SEIHIN
  6
CONTINUOUS
 62
     3
 48
16.0
100
AcDbLine
 10
528.8373533569466
 20
232.798060772715
 30
0.0
 11
489.3840533569468
 21
232.7981607727151
 31
0.0
  0
LINE
  5
2CF
330
1A
100
AcDbEntity
  8
SEIHIN
  6
CONTINUOUS
 62
     3
 48
16.0
100
AcDbLine
 10
528.8372533569468
 20
256.7980607727152
 30
0.0
 11
476.8022533569467
 21
256.7982607727151
 31
0.0
  0
LINE
  5
2D0
330
1A
100
AcDbEntity
  8
SEIHIN
  6
CONTINUOUS
 62
     3
 48
16.0
100
AcDbLine
 10
528.8373533569466
 20
242.7980607727151
 30
0.0
 11
493.4173533569468
 21
242.7981607727151
 31
0.0
  0
ARC
  5
2D1
330
1A
100
AcDbEntity
  8
SEIHIN
  6
CONTINUOUS
 62
     3
 48
16.0
100
AcDbCircle
 10
484.2192579704027
 20
239.6549542798429
 30
0.0
 40
5.000014219482159
100
AcDbArc
 50
1.364985103790083
 51
69.42592435408245
  0
LINE
  5
2D2
330
1A
100
AcDbEntity
  8
SEIHIN
  6
CONTINUOUS
 62
     3
 48
16.0
100
AcDbLine
 10
489.3873533569466
 20
232.6562607727151
 30
0.0
 11
489.2178533569468
 21
239.774060772715
 31
0.0
  0
LINE
  5
2D3
330
1A
100
AcDbEntity
  8
SEIHIN
  6
CONTINUOUS
 62
     3
 48
16.0
100
AcDbLine
 10
476.2334533569466
 20
254.6025607727151
 30
0.0
 11
487.5097533569467
 21
244.594360772715
 31
0.0
  0
ARC
  5
2D4
330
1A
100
AcDbEntity
  8
SEIHIN
  6
CONTINUOUS
 62
     3
 48
16.0
100
AcDbCircle
 10
481.543919704837
 20
260.5858280189847
 30
0.0
 40
7.999967355501521
100
AcDbArc
 50
184.7608109378806
 51
228.409784349298
  0
DIMENSION
  5
2D5
330
1A
100
AcDbEntity
  8
SUNPOU
  6
CONTINUOUS
100
AcDbDimension
  2
*D9
 10
604.0399044512546
 20
221.798060772715
 30
0.0
 11
599.0399044512546
 21
250.198060772715
 31
0.0
 12
-22.50837380644316
 22
-16.86608240201485
 32
0.0
 70
    32
  1
※b <>
  3
STANDARD
100
AcDbAlignedDimension
 13
561.8373533569467
 23
207.798060772715
 33
0.0
 14
565.6873983569467
 24
221.798060772715
 34
0.0
 50
90.0
100
AcDbRotatedDimension
1001
ACAD
1000
DSTYLE
1002
{
1070
   140
1040
6.0
1070
    74
1070
     0
1070
   172
1070
     1
1070
    73
1070
     0
1070
   272
1070
     2
1070
    77
1070
     3
1070
   173
1070
     1
1070
   147
1040
2.0
1070
    42
1040
6.0
1070
    44
1040
3.0
1070
    43
1040
14.0
1070
   271
1070
     0
1070
   178
1070
     4
1070
   177
1070
     4
1070
   176
1070
     4
1070
   141
1040
150.0
1070
     7
1000
_OPEN
1070
     6
1000
_OPEN
1070
    41
1040
7.0
1002
}
  0
LINE
  5
2D6
330
1A
100
AcDbEntity
  8
SEIHIN
  6
CONTINUOUS
 62
     3
 48
16.0
100
AcDbLine
 10
565.6874533569468
 20
232.798060772715
 30
0.0
 11
565.6873533569466
 21
212.798060772715
 31
0.0
  0
LINE
  5
2D7
330
1A
100
AcDbEntity
  8
SEIHIN
  6
CONTINUOUS
 62
     3
 48
16.0
100
AcDbLine
 10
565.6873533569466
 20
212.798060772715
 30
0.0
 11
561.8373533569467
 21
207.798060772715
 31
0.0
  0
LINE
  5
2D8
330
1A
100
AcDbEntity
  8
SEIHIN
  6
CONTINUOUS
 62
     3
100
AcDbLine
 10
557.8373224149733
 20
207.798060772715
 30
0.0
 11
557.8373064081061
 21
196.7980616202523
 31
0.0
  0
ARC
  5
2D9
330
1A
100
AcDbEntity
  8
SEIHIN
  6
CONTINUOUS
 62
     3
 48
16.0
100
AcDbCircle
 10
573.4841235415342
 20
240.8545965030122
 30
0.0
 40
4.999990401332811
100
AcDbArc
 50
131.5899712013546
 51
178.6343461296796
  0
LINE
  5
2DA
330
1A
100
AcDbEntity
  8
SEIHIN
  6
CONTINUOUS
 62
     3
 48
16.0
100
AcDbLine
 10
568.2874533569465
 20
232.6561607727151
 30
0.0
 11
568.4855533569468
 21
240.9737607727151
 31
0.0
  0
LINE
  5
2DB
330
1A
100
AcDbEntity
  8
SEIHIN
  6
CONTINUOUS
 62
     3
 48
16.0
100
AcDbLine
 10
581.4414533569466
 20
254.6024607727151
 30
0.0
 11
570.1651533569465
 21
244.5941607727151
 31
0.0
  0
ARC
  5
2DC
330
1A
100
AcDbEntity
  8
SEIHIN
  6
CONTINUOUS
 62
     3
 48
16.0
100
AcDbCircle
 10
576.1309469884302
 20
260.5856480469788
 30
0.0
 40
8.000008900316586
100
AcDbArc
 50
311.5903348066851
 51
355.2390699061315
  0
DIMENSION
  5
2E0
330
1A
100
AcDbEntity
  8
SUNPOU
  6
CONTINUOUS
100
AcDbDimension
  2
*D10
 10
438.4833533569466
 20
429.4472597506243
 30
0.0
 11
517.0635033569467
 21
434.4472597506244
 31
0.0
 12
-22.50837380644316
 22
-16.86608240201485
 32
0.0
 70
    32
  3
STANDARD
100
AcDbAlignedDimension
 13
595.6436533569467
 23
371.7980607727152
 33
0.0
 14
438.4833533569466
 24
371.7982607727149
 34
0.0
100
AcDbRotatedDimension
1001
ACAD
1000
DSTYLE
1002
{
1070
   140
1040
6.0
1070
    74
1070
     0
1070
   172
1070
     1
1070
    73
1070
     0
1070
   272
1070
     2
1070
    77
1070
     3
1070
   173
1070
     1
1070
   147
1040
2.0
1070
    42
1040
6.0
1070
    44
1040
3.0
1070
    43
1040
14.0
1070
   271
1070
     0
1070
   178
1070
     4
1070
   177
1070
     4
1070
   176
1070
     4
1070
   141
1040
150.0
1070
     7
1000
_OPEN
1070
     6
1000
_OPEN
1070
    41
1040
7.0
1002
}
  0
DIMENSION
  5
2E1
330
1A
100
AcDbEntity
  8
SUNPOU
  6
CONTINUOUS
100
AcDbDimension
  2
*D11
 10
528.8375533569466
 20
408.2899997027543
 30
0.0
 11
562.2406033569466
 21
413.2899997027543
 31
0.0
 12
-22.50837380644316
 22
-16.86608240201485
 32
0.0
 70
    32
  3
STANDARD
100
AcDbAlignedDimension
 13
595.6436533569467
 23
371.7980607727152
 33
0.0
 14
528.8375533569466
 24
366.5025607727152
 34
0.0
100
AcDbRotatedDimension
1001
ACAD
1000
DSTYLE
1002
{
1070
   140
1040
6.0
1070
    74
1070
     0
1070
   172
1070
     1
1070
    73
1070
     0
1070
   272
1070
     2
1070
    77
1070
     3
1070
   173
1070
     1
1070
   147
1040
2.0
1070
    42
1040
6.0
1070
    44
1040
3.0
1070
    43
1040
14.0
1070
   271
1070
     0
1070
   178
1070
     4
1070
   177
1070
     4
1070
   176
1070
     4
1070
   141
1040
150.0
1070
     7
1000
_OPEN
1070
     6
1000
_OPEN
1070
    41
1040
7.0
1002
}
  0
LINE
  5
2E2
330
1A
100
AcDbEntity
  8
SEIHIN
  6
CONTINUOUS
 62
     3
 48
16.0
100
AcDbLine
 10
462.8307533569466
 20
359.7982607727152
 30
0.0
 11
478.2138533569468
 21
359.7982607727152
 31
0.0
  0
LINE
  5
2E3
330
1A
100
AcDbEntity
  8
SEIHIN
  6
CONTINUOUS
 62
     3
 48
16.0
100
AcDbLine
 10
463.8375533569468
 20
369.7982607727151
 30
0.0
 11
485.6340533569468
 21
369.7982607727151
 31
0.0
  0
LINE
  5
2E4
330
1A
100
AcDbEntity
  8
SEIHIN
  6
CONTINUOUS
 62
     3
 48
16.0
100
AcDbLine
 10
463.8375533569468
 20
371.7982607727149
 30
0.0
 11
487.1350533569468
 21
371.7982607727149
 31
0.0
  0
LINE
  5
2E5
330
1A
100
AcDbEntity
  8
SEIHIN
  6
CONTINUOUS
 62
     3
 48
16.0
100
AcDbLine
 10
462.8443533569468
 20
359.635060772715
 30
0.0
 11
450.7827533569468
 21
356.508960772715
 31
0.0
  0
LINE
  5
2E6
330
1A
100
AcDbEntity
  8
SEIHIN
  6
CONTINUOUS
 62
     3
 48
16.0
100
AcDbLine
 10
464.8930533569466
 20
359.1329607727152
 30
0.0
 11
452.7167533569467
 21
355.9771607727152
 31
0.0
  0
LINE
  5
2E7
330
1A
100
AcDbEntity
  8
SEIHIN
  6
CONTINUOUS
 62
     3
 48
16.0
100
AcDbLine
 10
450.8299533569468
 20
356.7519607727149
 30
0.0
 11
444.9384533569468
 21
326.435260772715
 31
0.0
  0
LINE
  5
2E8
330
1A
100
AcDbEntity
  8
SEIHIN
  6
CONTINUOUS
 62
     3
 48
16.0
100
AcDbLine
 10
446.9017533569468
 20
326.0537607727151
 30
0.0
 11
452.7932533569468
 21
356.3704607727151
 31
0.0
  0
LINE
  5
2E9
330
1A
100
AcDbEntity
  8
SEIHIN
  6
CONTINUOUS
 62
     3
 48
16.0
100
AcDbLine
 10
463.8375533569468
 20
371.7981607727149
 30
0.0
 11
438.4833533569466
 21
371.7982607727149
 31
0.0
  0
LINE
  5
2EA
330
1A
100
AcDbEntity
  8
SEIHIN
  6
CONTINUOUS
 62
     3
 48
16.0
100
AcDbLine
 10
440.2143533569468
 20
369.7982607727151
 30
0.0
 11
464.0049533569466
 21
369.7981607727149
 31
0.0
  0
LINE
  5
2EB
330
1A
100
AcDbEntity
  8
SEIHIN
  6
CONTINUOUS
 62
     3
 48
16.0
100
AcDbLine
 10
440.2764533569467
 20
371.7982607727149
 30
0.0
 11
438.7764533569468
 21
371.7982607727149
 31
0.0
  0
LINE
  5
2EC
330
1A
100
AcDbEntity
  8
SEIHIN
  6
CONTINUOUS
 62
     3
 48
16.0
100
AcDbLine
 10
440.4880533569467
 20
369.7982607727151
 30
0.0
 11
438.4880533569468
 21
369.7982607727151
 31
0.0
  0
LINE
  5
2ED
330
1A
100
AcDbEntity
  8
SEIHIN
  6
CONTINUOUS
 62
     3
 48
16.0
100
AcDbLine
 10
438.5840533569468
 20
369.7982607727151
 30
0.0
 11
438.4782533569466
 21
371.8991607727152
 31
0.0
  0
LINE
  5
2EE
330
1A
100
AcDbEntity
  8
SEIHIN
  6
CONTINUOUS
 62
     3
 48
16.0
100
AcDbLine
 10
462.8446533569468
 20
359.6322607727151
 30
0.0
 11
461.8444533569467
 21
371.6415607727152
 31
0.0
  0
ARC
  5
2EF
330
1A
100
AcDbEntity
  8
NOKITOI
  6
PHANTOM
 62
     8
 48
2.0
100
AcDbCircle
 10
476.0758704057687
 20
354.7982085269826
 30
0.0
 40
3.999994
100
AcDbArc
 50
5.413986
 51
185.413851
  0
ARC
  5
2F0
330
1A
100
AcDbEntity
  8
SEIHIN
  6
CONTINUOUS
 62
     3
 48
16.0
100
AcDbCircle
 10
475.0875533569468
 20
356.2982607727152
 30
0.0
 40
3.5
100
AcDbArc
 50
90.0
 51
180.0
  0
ARC
  5
2F1
330
1A
100
AcDbEntity
  8
SEIHIN
  6
CONTINUOUS
 62
     3
 48
16.0
100
AcDbCircle
 10
476.2066380004153
 20
374.2256702521421
 30
0.0
 40
16.9999910575614
100
AcDbArc
 50
289.6276992898136
 51
326.6159779901733
  0
ARC
  5
2F2
330
1A
100
AcDbEntity
  8
NOKITOI
  6
PHANTOM
 62
     8
 48
2.0
100
AcDbCircle
 10
476.0758704057687
 20
354.7982085269826
 30
0.0
 40
4.000029
100
AcDbArc
 50
185.413851
 51
319.252818
  0
CIRCLE
  5
2F3
330
1A
100
AcDbEntity
  8
NOKITOI
  6
PHANTOM
 62
     8
 48
2.0
100
AcDbCircle
 10
476.0758704057687
 20
354.7982085269826
 30
0.0
 40
2.7
  0
ARC
  5
2F4
330
1A
100
AcDbEntity
  8
SEIHIN
  6
CONTINUOUS
 62
     3
 48
16.0
100
AcDbCircle
 10
475.0875533569468
 20
354.298260772715
 30
0.0
 40
3.500000000000056
100
AcDbArc
 50
179.999999999999
 51
269.999999999999
  0
LINE
  5
2F5
330
1A
100
AcDbEntity
  8
SEIHIN
  6
CONTINUOUS
 62
     3
 48
16.0
100
AcDbLine
 10
471.5875533569468
 20
356.2982607727152
 30
0.0
 11
471.5875533569468
 21
354.2982607727152
 31
0.0
  0
ARC
  5
2F6
330
1A
100
AcDbEntity
  8
SEIHIN
  6
CONTINUOUS
 62
     3
 48
16.0
100
AcDbCircle
 10
477.7073692107484
 20
348.7982479665471
 30
0.0
 40
2.000012806230863
100
AcDbArc
 50
12.14022992693964
 51
90.00045417505189
  0
LINE
  5
2F7
330
1A
100
AcDbEntity
  8
SEIHIN
  6
CONTINUOUS
 62
     3
 48
16.0
100
AcDbLine
 10
477.7073533569468
 20
350.798260772715
 30
0.0
 11
475.0875533569468
 21
350.798260772715
 31
0.0
  0
ARC
  5
2F8
330
1A
100
AcDbEntity
  8
SEIHIN
  6
CONTINUOUS
 62
     3
 48
16.0
100
AcDbCircle
 10
481.5811711629438
 20
359.1554585840219
 30
0.0
 40
0.9999941675793301
100
AcDbArc
 50
236.3566872963351
 51
289.6263117956595
  0
ARC
  5
2F9
330
1A
100
AcDbEntity
  8
SEIHIN
  6
CONTINUOUS
 62
     3
 48
16.0
100
AcDbCircle
 10
475.8274018950618
 20
374.0649918400893
 30
0.0
 40
14.99999214358457
100
AcDbArc
 50
283.4115238446226
 51
321.8315383599471
  0
LINE
  5
2FA
330
1A
100
AcDbEntity
  8
SEIHIN
  6
CONTINUOUS
 62
     3
 48
16.0
100
AcDbLine
 10
480.9542533569466
 20
358.3763607727151
 30
0.0
 11
479.2792533569467
 21
359.490860772715
 31
0.0
  0
ARC
  5
2FB
330
1A
100
AcDbEntity
  8
SEIHIN
  6
CONTINUOUS
 62
     3
 48
16.0
100
AcDbCircle
 10
478.213934980299
 20
357.7982375667343
 30
0.0
 40
2.00002320764632
100
AcDbArc
 50
58.26083655479022
 51
90.00233830966029
  0
LINE
  5
2FC
330
1A
100
AcDbEntity
  8
SEIHIN
  6
CONTINUOUS
 62
     3
 48
16.0
100
AcDbLine
 10
490.2627533569468
 20
368.3666607727149
 30
0.0
 11
488.1881533569467
 21
371.0278607727149
 31
0.0
  0
ARC
  5
2FD
330
1A
100
AcDbEntity
  8
SEIHIN
  6
CONTINUOUS
 62
     3
 48
16.0
100
AcDbCircle
 10
485.6339999800537
 20
367.7982868418049
 30
0.0
 40
1.999973931622565
100
AcDbArc
 50
37.93702459553652
 51
89.99847084471927
  0
LINE
  5
2FE
330
1A
100
AcDbEntity
  8
SEIHIN
  6
CONTINUOUS
 62
     3
 48
16.0
100
AcDbLine
 10
487.6276533569467
 20
368.493760772715
 30
0.0
 11
487.2114533569467
 21
369.0278607727149
 31
0.0
  0
ARC
  5
2FF
330
1A
100
AcDbEntity
  8
SEIHIN
  6
CONTINUOUS
 62
     3
 48
16.0
100
AcDbCircle
 10
485.2617533103274
 20
366.6493375445684
 30
0.0
 40
2.999975544088499
100
AcDbArc
 50
321.8323958698624
 51
37.93831596932424
  0
ARC
  5
300
330
1A
100
AcDbEntity
  8
SEIHIN
  6
CONTINUOUS
 62
     3
 48
16.0
100
AcDbCircle
 10
487.8967556183319
 20
366.5222038873672
 30
0.0
 40
2.999994416834459
100
AcDbArc
 50
326.6159215147332
 51
37.93885003421223
  0
ARC
  5
301
330
1A
100
AcDbEntity
  8
SEIHIN
  6
CONTINUOUS
 62
     3
 48
16.0
100
AcDbCircle
 10
486.6107999800537
 20
369.7982868418049
 30
0.0
 40
1.999973931622351
100
AcDbArc
 50
37.93702459553923
 51
89.99847084472252
  0
ARC
  5
302
330
1A
100
AcDbEntity
  8
NOKITOI
  6
PHANTOM
 62
     8
 48
2.0
100
AcDbCircle
 10
581.5990704057687
 20
354.7980085269826
 30
0.0
 40
3.999994
100
AcDbArc
 50
220.269583
 51
121.7840119999999
  0
ARC
  5
303
330
1A
100
AcDbEntity
  8
NOKITOI
  6
PHANTOM
 62
     8
 48
2.0
100
AcDbCircle
 10
581.5990704057687
 20
354.7980085269826
 30
0.0
 40
3.999958
100
AcDbArc
 50
121.784767
 51
174.584588
  0
ARC
  5
304
330
1A
100
AcDbEntity
  8
SEIHIN
  6
CONTINUOUS
 62
     3
 48
16.0
100
AcDbCircle
 10
582.5875533569468
 20
356.2980607727151
 30
0.0
 40
3.499999999999829
100
AcDbArc
 50
0.0000000000004653
 51
90.0000000000009
  0
LINE
  5
305
330
1A
100
AcDbEntity
  8
SEIHIN
  6
CONTINUOUS
 62
     3
 48
16.0
100
AcDbLine
 10
595.6308533569467
 20
371.651360772715
 30
0.0
 11
594.2081533569466
 21
355.2980607727152
 31
0.0
  0
ARC
  5
306
330
1A
100
AcDbEntity
  8
SEIHIN
  6
CONTINUOUS
 62
     3
 48
16.0
100
AcDbCircle
 10
581.4685032796806
 20
374.2257000689631
 30
0.0
 40
17.00009135205555
100
AcDbArc
 50
213.3843232398896
 51
250.3726553966306
  0
CIRCLE
  5
307
330
1A
100
AcDbEntity
  8
NOKITOI
  6
PHANTOM
 62
     8
 48
2.0
100
AcDbCircle
 10
581.5990704057687
 20
354.7980085269826
 30
0.0
 40
2.7
  0
LINE
  5
308
330
1A
100
AcDbEntity
  8
SEIHIN
  6
CONTINUOUS
 62
     3
 48
16.0
100
AcDbLine
 10
579.9677533569467
 20
350.7980607727152
 30
0.0
 11
582.5875533569467
 21
350.7980607727152
 31
0.0
  0
ARC
  5
309
330
1A
100
AcDbEntity
  8
SEIHIN
  6
CONTINUOUS
 62
     3
 48
16.0
100
AcDbCircle
 10
579.9677244830117
 20
348.7980374504871
 30
0.0
 40
2.000023322436454
100
AcDbArc
 50
89.99917283233799
 51
167.856596420691
  0
LINE
  5
30A
330
1A
100
AcDbEntity
  8
SEIHIN
  6
CONTINUOUS
 62
     3
 48
16.0
100
AcDbLine
 10
586.0875533569467
 20
355.2980607727152
 30
0.0
 11
594.2081533569466
 21
355.2980607727152
 31
0.0
  0
LINE
  5
30B
330
1A
100
AcDbEntity
  8
SEIHIN
  6
CONTINUOUS
 62
     3
 48
16.0
100
AcDbLine
 10
592.0098533569468
 20
350.7980607727152
 30
0.0
 11
582.5875533569467
 21
350.7980607727152
 31
0.0
  0
ARC
  5
30C
330
1A
100
AcDbEntity
  8
SEIHIN
  6
CONTINUOUS
 62
     3
 48
16.0
100
AcDbCircle
 10
582.5875533569467
 20
354.2980607727151
 30
0.0
 40
3.499999999999943
100
AcDbArc
 50
270.0000000000009
 51
0.0000000000009305
  0
LINE
  5
30D
330
1A
100
AcDbEntity
  8
SEIHIN
  6
CONTINUOUS
 62
     3
 48
16.0
100
AcDbLine
 10
586.0875533569467
 20
356.2980607727152
 30
0.0
 11
586.0875533569467
 21
354.2980607727152
 31
0.0
  0
LINE
  5
30E
330
1A
100
AcDbEntity
  8
SEIHIN
  6
CONTINUOUS
 62
     3
 48
16.0
100
AcDbLine
 10
594.2081533569466
 20
355.2980607727152
 30
0.0
 11
592.0098533569468
 21
350.7980607727152
 31
0.0
  0
LINE
  5
30F
330
1A
100
AcDbEntity
  8
SEIHIN
  6
CONTINUOUS
 62
     3
 48
16.0
100
AcDbLine
 10
582.5875533569467
 20
359.798060772715
 30
0.0
 11
579.4613533569465
 21
359.798060772715
 31
0.0
  0
LINE
  5
310
330
1A
100
AcDbEntity
  8
SEIHIN
  6
CONTINUOUS
 62
     3
 48
16.0
100
AcDbLine
 10
595.4696533569467
 20
369.7980607727152
 30
0.0
 11
572.0411533569468
 21
369.7980607727152
 31
0.0
  0
LINE
  5
311
330
1A
100
AcDbEntity
  8
SEIHIN
  6
CONTINUOUS
 62
     3
 48
16.0
100
AcDbLine
 10
595.6436533569467
 20
371.7980607727152
 30
0.0
 11
571.0643533569468
 21
371.7980607727152
 31
0.0
  0
LINE
  5
312
330
1A
100
AcDbEntity
  8
SEIHIN
  6
CONTINUOUS
 62
     3
 48
16.0
100
AcDbLine
 10
567.4125533569467
 20
368.3665607727152
 30
0.0
 11
569.4870533569467
 21
371.0277607727149
 31
0.0
  0
ARC
  5
313
330
1A
100
AcDbEntity
  8
SEIHIN
  6
CONTINUOUS
 62
     3
 48
16.0
100
AcDbCircle
 10
572.0411437894698
 20
367.798056100226
 30
0.0
 40
2.000004672512067
100
AcDbArc
 50
89.99972591261458
 51
142.0589127976301
  0
ARC
  5
314
330
1A
100
AcDbEntity
  8
SEIHIN
  6
CONTINUOUS
 62
     3
 48
16.0
100
AcDbCircle
 10
581.8480135991866
 20
374.0648222134844
 30
0.0
 40
14.999972842609
100
AcDbArc
 50
218.1676954658396
 51
256.5876387332643
  0
LINE
  5
315
330
1A
100
AcDbEntity
  8
SEIHIN
  6
CONTINUOUS
 62
     3
 48
16.0
100
AcDbLine
 10
570.0474533569468
 20
368.4936607727151
 30
0.0
 11
570.4638533569468
 21
369.0277607727149
 31
0.0
  0
ARC
  5
316
330
1A
100
AcDbEntity
  8
SEIHIN
  6
CONTINUOUS
 62
     3
 48
16.0
100
AcDbCircle
 10
569.7785509377822
 20
366.5220999167597
 30
0.0
 40
3.000075600912137
100
AcDbArc
 50
142.0622624979524
 51
213.382965953109
  0
ARC
  5
317
330
1A
100
AcDbEntity
  8
SEIHIN
  6
CONTINUOUS
 62
     3
 48
16.0
100
AcDbCircle
 10
572.4135531753364
 20
366.6492513912631
 30
0.0
 40
3.000045719146902
100
AcDbArc
 50
142.063064102111
 51
218.169316255497
  0
LINE
  5
318
330
1A
100
AcDbEntity
  8
SEIHIN
  6
CONTINUOUS
 62
     3
 48
16.0
100
AcDbLine
 10
576.7210533569466
 20
358.376260772715
 30
0.0
 11
578.3959533569466
 21
359.490760772715
 31
0.0
  0
ARC
  5
319
330
1A
100
AcDbEntity
  8
SEIHIN
  6
CONTINUOUS
 62
     3
 48
16.0
100
AcDbCircle
 10
576.0940355509496
 20
359.1552585840218
 30
0.0
 40
0.9999941675792202
100
AcDbArc
 50
250.3736882043488
 51
303.6433127036725
  0
ARC
  5
31A
330
1A
100
AcDbEntity
  8
SEIHIN
  6
CONTINUOUS
 62
     3
 48
16.0
100
AcDbCircle
 10
579.4612717335944
 20
357.7980375667343
 30
0.0
 40
2.000023207646312
100
AcDbArc
 50
89.99766169033808
 51
121.7391634452083
  0
ARC
  5
31B
330
1A
100
AcDbEntity
  8
SEIHIN
  6
CONTINUOUS
 62
     3
 48
16.0
100
AcDbCircle
 10
571.0643437894698
 20
369.798056100226
 30
0.0
 40
2.000004672512067
100
AcDbArc
 50
89.99972591261458
 51
142.0589127976301
  0
VIEWPORT
  5
22
330
17
100
AcDbEntity
 67
     1
  8
0
100
AcDbViewport
 10
313.6808219178082
 20
148.5
 30
0.0
 40
627.3616438356165
 41
297.0
 68
     2
 69
     1
1001
ACAD
1000
MVIEW
1002
{
1070
    16
1010
0.0
1020
0.0
1030
0.0
1010
0.0
1020
0.0
1030
1.0
1040
0.0
1040
297.0
1040
313.6808219178082
1040
148.5
1040
50.0
1040
0.0
1040
0.0
1070
     0
1070
   100
1070
     1
1070
     0
1070
     0
1070
     0
1070
     0
1070
     0
1040
0.0
1040
0.0
1040
0.0
1040
1.0
1040
1.0
1040
10.0
1040
10.0
1070
     0
1002
{
1002
}
1002
}
  0
VIEWPORT
  5
64
330
17
100
AcDbEntity
 67
     1
  8
VIEWPORT
100
AcDbViewport
 10
210.0
 20
148.5
 30
0.0
 40
420.0
 41
297.0
 68
     1
 69
     2
1001
ACAD
1000
MVIEW
1002
{
1070
    16
1010
0.0
1020
0.0
1030
0.0
1010
0.0
1020
0.0
1030
1.0
1040
0.0
1040
605.8799999999998
1040
420.0
1040
297.0
1040
50.0
1040
0.0
1040
0.0
1070
     0
1070
   100
1070
     1
1070
     0
1070
     0
1070
     0
1070
     0
1070
     0
1040
0.0
1040
0.0
1040
0.0
1040
10.0
1040
10.0
1040
0.0
1040
0.0
1070
     0
1002
{
1002
}
1002
}
  0
ENDSEC
  0
SECTION
  2
OBJECTS
  0
DICTIONARY
  5
C
330
0
100
AcDbDictionary
  3
ACAD_GROUP
350
D
  3
ACAD_LAYOUT
350
42B
  3
ACAD_MLINESTYLE
350
E
  3
ACAD_PLOTSETTINGS
350
42C
1001
ACAD
1000
TREAT_AS_HARD
1070
     0
  0
DICTIONARY
  5
458
330
1A
100
AcDbDictionary
  3
ACAD_LAYOUTSELFREF
350
468
1001
ACAD
1000
TREAT_AS_HARD
1070
     1
  0
DICTIONARY
  5
456
330
17
100
AcDbDictionary
  3
ACAD_LAYOUTSELFREF
350
467
1001
ACAD
1000
TREAT_AS_HARD
1070
     1
  0
DICTIONARY
  5
D
102
{ACAD_REACTORS
330
C
102
}
330
C
100
AcDbDictionary
1001
ACAD
1000
TREAT_AS_HARD
1070
     0
  0
DICTIONARY
  5
42B
102
{ACAD_REACTORS
330
C
102
}
330
C
100
AcDbDictionary
1001
ACAD
1000
TREAT_AS_HARD
1070
     0
  0
DICTIONARY
  5
E
102
{ACAD_REACTORS
330
C
102
}
330
C
100
AcDbDictionary
  3
STANDARD
350
13
1001
ACAD
1000
TREAT_AS_HARD
1070
     0
  0
DICTIONARY
  5
42C
102
{ACAD_REACTORS
330
C
102
}
330
C
100
AcDbDictionary
1001
ACAD
1000
TREAT_AS_HARD
1070
     0
  0
XRECORD
  5
468
102
{ACAD_REACTORS
330
458
102
}
330
458
100
AcDbXrecord
340
1A
  0
XRECORD
  5
467
102
{ACAD_REACTORS
330
456
102
}
330
456
100
AcDbXrecord
340
17
  0
MLINESTYLE
  5
13
102
{ACAD_REACTORS
330
E
102
}
330
E
100
AcDbMlineStyle
  2
STANDARD
 70
     0
  3

 62
     0
 51
90.0
 52
90.0
 71
     2
 49
0.5
 62
   256
  6
BYLAYER
 49
-0.5
 62
   256
  6
BYLAYER
  0
ENDSEC
  0
EOF
