  0
SECTION
  2
HEADER
  9
$ACADVER
  1
AC1012
  9
$DWGCODEPAGE
  3
dos932
  9
$INSBASE
 10
0.0
 20
0.0
 30
0.0
  9
$EXTMIN
 10
19.83926785532275
 20
5.764529139926253
 30
-0.0000000349181948
  9
$EXTMAX
 10
1611.985111256578
 20
1124.227663824599
 30
0.0000000814935747
  9
$LIMMIN
 10
0.0
 20
0.0
  9
$LIMMAX
 10
1682.0
 20
1188.0
  9
$ORTHOMODE
 70
     1
  9
$REGENMODE
 70
     1
  9
$FILLMODE
 70
     1
  9
$QTEXTMODE
 70
     0
  9
$MIRRTEXT
 70
     1
  9
$DRAGMODE
 70
     2
  9
$LTSCALE
 40
5.657142857142857
  9
$OSMODE
 70
    63
  9
$ATTMODE
 70
     1
  9
$TEXTSIZE
 40
19.8
  9
$TRACEWID
 40
0.05
  9
$TEXTSTYLE
  7
STANDARD
  9
$CLAYER
  8
SUNPOU
  9
$CELTYPE
  6
BYLAYER
  9
$CECOLOR
 62
   256
  9
$CELTSCALE
 40
1.0
  9
$DELOBJ
 70
     1
  9
$DISPSILH
 70
     0
  9
$DIMSCALE
 40
1.0
  9
$DIMASZ
 40
14.0
  9
$DIMEXO
 40
12.0
  9
$DIMDLI
 40
28.0
  9
$DIMRND
 40
0.0
  9
$DIMDLE
 40
0.0
  9
$DIMEXE
 40
6.0
  9
$DIMTP
 40
0.0
  9
$DIMTM
 40
0.0
  9
$DIMTXT
 40
12.0
  9
$DIMCEN
 40
150.0
  9
$DIMTSZ
 40
0.0
  9
$DIMTOL
 70
     0
  9
$DIMLIM
 70
     0
  9
$DIMTIH
 70
     0
  9
$DIMTOH
 70
     0
  9
$DIMSE1
 70
     0
  9
$DIMSE2
 70
     0
  9
$DIMTAD
 70
     3
  9
$DIMZIN
 70
     0
  9
$DIMBLK
  1

  9
$DIMASO
 70
     1
  9
$DIMSHO
 70
     1
  9
$DIMPOST
  1

  9
$DIMAPOST
  1

  9
$DIMALT
 70
     0
  9
$DIMALTD
 70
     2
  9
$DIMALTF
 40
0.03937
  9
$DIMLFAC
 40
1.0
  9
$DIMTOFL
 70
     1
  9
$DIMTVP
 40
0.0
  9
$DIMTIX
 70
     0
  9
$DIMSOXD
 70
     0
  9
$DIMSAH
 70
     1
  9
$DIMBLK1
  1
OPEN
  9
$DIMBLK2
  1
OPEN
  9
$DIMSTYLE
  2
STANDARD
  9
$DIMCLRD
 70
   256
  9
$DIMCLRE
 70
   256
  9
$DIMCLRT
 70
   256
  9
$DIMTFAC
 40
1.0
  9
$DIMGAP
 40
4.0
  9
$DIMJUST
 70
     0
  9
$DIMSD1
 70
     0
  9
$DIMSD2
 70
     0
  9
$DIMTOLJ
 70
     1
  9
$DIMTZIN
 70
     0
  9
$DIMALTZ
 70
     0
  9
$DIMALTTZ
 70
     0
  9
$DIMFIT
 70
     3
  9
$DIMUPT
 70
     0
  9
$DIMUNIT
 70
     2
  9
$DIMDEC
 70
     0
  9
$DIMTDEC
 70
     0
  9
$DIMALTU
 70
     2
  9
$DIMALTTD
 70
     2
  9
$DIMTXSTY
  7
STANDARD
  9
$DIMAUNIT
 70
     0
  9
$LUNITS
 70
     2
  9
$LUPREC
 70
     4
  9
$SKETCHINC
 40
0.1
  9
$FILLETRAD
 40
1.0
  9
$AUNITS
 70
     0
  9
$AUPREC
 70
     0
  9
$MENU
  1
acad
  9
$ELEVATION
 40
0.0
  9
$PELEVATION
 40
0.0
  9
$THICKNESS
 40
0.0
  9
$LIMCHECK
 70
     0
  9
$BLIPMODE
 70
     0
  9
$CHAMFERA
 40
56.57142857142858
  9
$CHAMFERB
 40
56.57142857142858
  9
$CHAMFERC
 40
113.1428571428571
  9
$CHAMFERD
 40
0.0
  9
$SKPOLY
 70
     0
  9
$TDCREATE
 40
2450994.355304167
  9
$TDUPDATE
 40
2455523.694702812
  9
$TDINDWG
 40
0.0616123727
  9
$TDUSRTIMER
 40
0.0616107407
  9
$USRTIMER
 70
     1
  9
$ANGBASE
 50
0.0
  9
$ANGDIR
 70
     0
  9
$PDMODE
 70
     1
  9
$PDSIZE
 40
0.0
  9
$PLINEWID
 40
0.0
  9
$COORDS
 70
     0
  9
$SPLFRAME
 70
     0
  9
$SPLINETYPE
 70
     6
  9
$SPLINESEGS
 70
     8
  9
$ATTDIA
 70
     0
  9
$ATTREQ
 70
     1
  9
$HANDLING
 70
 10241
  9
$HANDSEED
  5
BFE
  9
$SURFTAB1
 70
     6
  9
$SURFTAB2
 70
     6
  9
$SURFTYPE
 70
     6
  9
$SURFU
 70
     6
  9
$SURFV
 70
     6
  9
$UCSNAME
  2

  9
$UCSORG
 10
0.0
 20
0.0
 30
0.0
  9
$UCSXDIR
 10
1.0
 20
0.0
 30
0.0
  9
$UCSYDIR
 10
0.0
 20
1.0
 30
0.0
  9
$PUCSNAME
  2

  9
$PUCSORG
 10
0.0
 20
0.0
 30
0.0
  9
$PUCSXDIR
 10
1.0
 20
0.0
 30
0.0
  9
$PUCSYDIR
 10
0.0
 20
1.0
 30
0.0
  9
$USERI1
 70
     0
  9
$USERI2
 70
     0
  9
$USERI3
 70
     0
  9
$USERI4
 70
     0
  9
$USERI5
 70
     0
  9
$USERR1
 40
0.0
  9
$USERR2
 40
0.0
  9
$USERR3
 40
0.0
  9
$USERR4
 40
0.0
  9
$USERR5
 40
0.0
  9
$WORLDVIEW
 70
     1
  9
$SHADEDGE
 70
     3
  9
$SHADEDIF
 70
    70
  9
$TILEMODE
 70
     1
  9
$MAXACTVP
 70
    16
  9
$PINSBASE
 10
0.0
 20
0.0
 30
0.0
  9
$PLIMCHECK
 70
     0
  9
$PEXTMIN
 10
0.0
 20
0.0
 30
0.0
  9
$PEXTMAX
 10
420.0
 20
297.0
 30
0.0
  9
$PLIMMIN
 10
0.0
 20
0.0
  9
$PLIMMAX
 10
420.0
 20
297.0
  9
$UNITMODE
 70
     0
  9
$VISRETAIN
 70
     0
  9
$PLINEGEN
 70
     0
  9
$PSLTSCALE
 70
     1
  9
$TREEDEPTH
 70
  3020
  9
$PICKSTYLE
 70
     1
  9
$CMLSTYLE
  2
STANDARD
  9
$CMLJUST
 70
     0
  9
$CMLSCALE
 40
20.0
  9
$SAVEIMAGES
 70
     1
  0
ENDSEC
  0
SECTION
  2
CLASSES
  0
CLASS
  1
ACDBDICTIONARYWDFLT
  2
AcDbDictionaryWithDefault
  3
AutoCAD 2000
 90
    32768
280
     0
281
     0
  0
CLASS
  1
ACDBPLACEHOLDER
  2
AcDbPlaceHolder
  3
AutoCAD 2000
 90
    32768
280
     0
281
     0
  0
CLASS
  1
LAYOUT
  2
AcDbLayout
  3
AutoCAD 2000
 90
    32768
280
     0
281
     0
  0
CLASS
  1
LONG_TRANSACTION
  2
AcDbLongTransaction
  3
AutoCAD 2000
 90
    32768
280
     0
281
     0
  0
CLASS
  1
LWPOLYLINE
  2
AcDbPolyline
  3
AutoCAD 2000
 90
    32768
280
     0
281
     1
  0
CLASS
  1
HATCH
  2
AcDbHatch
  3
AutoCAD 2000
 90
    32768
280
     0
281
     1
  0
CLASS
  1
XRECORD
  2
AcDbXrecord
  3
AutoCAD 2000
 90
    32768
280
     0
281
     0
  0
CLASS
  1
LONG_TRANSACTION
  2
AcDbLongTransaction
  3
AutoCAD 2000
 90
    32768
280
     0
281
     0
  0
CLASS
  1
LWPOLYLINE
  2
AcDbPolyline
  3
AutoCAD 2000
 90
    32768
280
     0
281
     1
  0
CLASS
  1
HATCH
  2
AcDbHatch
  3
AutoCAD 2000
 90
    32768
280
     0
281
     1
  0
CLASS
  1
XRECORD
  2
AcDbXrecord
  3
AutoCAD 2000
 90
    32768
280
     0
281
     0
  0
CLASS
  1
LONG_TRANSACTION
  2
AcDbLongTransaction
  3
AutoCAD 2000
 90
    32768
280
     0
281
     0
  0
CLASS
  1
LWPOLYLINE
  2
AcDbPolyline
  3
AutoCAD 2000
 90
    32768
280
     0
281
     1
  0
CLASS
  1
HATCH
  2
AcDbHatch
  3
AutoCAD 2000
 90
    32768
280
     0
281
     1
  0
CLASS
  1
XRECORD
  2
AcDbXrecord
  3
AutoCAD 2000
 90
    32768
280
     0
281
     0
  0
CLASS
  1
DICTIONARYVAR
  2
AcDbDictionaryVar
  3
AutoCAD 2000
 90
    32768
280
     0
281
     0
  0
CLASS
  1
LONG_TRANSACTION
  2
AcDbLongTransaction
  3
AutoCAD 2000
 90
    32768
280
     0
281
     0
  0
CLASS
  1
LWPOLYLINE
  2
AcDbPolyline
  3
AutoCAD 2000
 90
    32768
280
     0
281
     1
  0
CLASS
  1
HATCH
  2
AcDbHatch
  3
AutoCAD 2000
 90
    32768
280
     0
281
     1
  0
CLASS
  1
XRECORD
  2
AcDbXrecord
  3
AutoCAD 2000
 90
    32768
280
     0
281
     0
  0
CLASS
  1
LONG_TRANSACTION
  2
AcDbLongTransaction
  3
AutoCAD 2000
 90
    32768
280
     0
281
     0
  0
CLASS
  1
LWPOLYLINE
  2
AcDbPolyline
  3
AutoCAD 2000
 90
    32768
280
     0
281
     1
  0
CLASS
  1
HATCH
  2
AcDbHatch
  3
AutoCAD 2000
 90
    32768
280
     0
281
     1
  0
CLASS
  1
XRECORD
  2
AcDbXrecord
  3
AutoCAD 2000
 90
    32768
280
     0
281
     0
  0
ENDSEC
  0
SECTION
  2
TABLES
  0
TABLE
  2
VPORT
  5
8
330
0
100
AcDbSymbolTable
 70
     3
  0
VPORT
  5
BF6
330
8
100
AcDbSymbolTableRecord
100
AcDbViewportTableRecord
  2
*ACTIVE
 70
     0
 10
0.0
 20
0.0
 11
1.0
 21
1.0
 12
840.9999999999998
 22
593.9999999999998
 13
0.0
 23
0.0
 14
10.0
 24
10.0
 15
10.0
 25
10.0
 16
0.0
 26
0.0
 36
1.0
 17
0.0
 27
0.0
 37
0.0
 40
1198.436310395314
 41
1.668621700879765
 42
50.0
 43
0.0
 44
0.0
 50
0.0
 51
0.0
 71
     0
 72
   100
 73
     1
 74
     0
 75
     0
 76
     0
 77
     0
 78
     0
  0
ENDTAB
  0
TABLE
  2
LTYPE
  5
5
330
0
100
AcDbSymbolTable
 70
     3
  0
LTYPE
  5
13
330
5
100
AcDbSymbolTableRecord
100
AcDbLinetypeTableRecord
  2
BYBLOCK
 70
     0
  3

 72
    65
 73
     0
 40
0.0
  0
LTYPE
  5
14
330
5
100
AcDbSymbolTableRecord
100
AcDbLinetypeTableRecord
  2
BYLAYER
 70
     0
  3

 72
    65
 73
     0
 40
0.0
  0
LTYPE
  5
15
330
5
100
AcDbSymbolTableRecord
100
AcDbLinetypeTableRecord
  2
CONTINUOUS
 70
     0
  3
Solid line
 72
    65
 73
     0
 40
0.0
  0
LTYPE
  5
11C
330
5
100
AcDbSymbolTableRecord
100
AcDbLinetypeTableRecord
  2
CENTER
 70
     0
  3
____ _ ____ _ ____ _ ____ _ ____ _ ____ _ ____ 
 72
    65
 73
     4
 40
2.0
 49
1.25
 74
     0
 49
-0.25
 74
     0
 49
0.25
 74
     0
 49
-0.25
 74
     0
  0
LTYPE
  5
42F
330
5
100
AcDbSymbolTableRecord
100
AcDbLinetypeTableRecord
  2
DASHED
 70
     0
  3
__ __ __ __ __ __ __ __ __ __ __ __ __ __ __ __
 72
    65
 73
     2
 40
0.75
 49
0.5
 74
     0
 49
-0.25
 74
     0
  0
ENDTAB
  0
TABLE
  2
LAYER
  5
2
330
0
100
AcDbSymbolTable
 70
     7
  0
LAYER
  5
F
330
2
100
AcDbSymbolTableRecord
100
AcDbLayerTableRecord
  2
0
 70
     0
 62
     7
  6
CONTINUOUS
  0
LAYER
  5
23
330
2
100
AcDbSymbolTableRecord
100
AcDbLayerTableRecord
  2
VIEWPORT
 70
     0
 62
     7
  6
CONTINUOUS
  0
LAYER
  5
2D
330
2
100
AcDbSymbolTableRecord
100
AcDbLayerTableRecord
  2
ZUWAKU
 70
     0
 62
     7
  6
CONTINUOUS
  0
LAYER
  5
A6
330
2
100
AcDbSymbolTableRecord
100
AcDbLayerTableRecord
  2
DEFPOINTS
 70
     0
 62
     7
  6
CONTINUOUS
  0
LAYER
  5
157
330
2
100
AcDbSymbolTableRecord
100
AcDbLayerTableRecord
  2
SEIHIN
 70
     0
 62
     3
  6
CONTINUOUS
  0
LAYER
  5
158
330
2
100
AcDbSymbolTableRecord
100
AcDbLayerTableRecord
  2
SUNPOU
 70
     0
 62
     4
  6
CONTINUOUS
  0
LAYER
  5
159
330
2
100
AcDbSymbolTableRecord
100
AcDbLayerTableRecord
  2
CENTER_L
 70
     0
 62
     1
  6
CENTER
  0
ENDTAB
  0
TABLE
  2
STYLE
  5
3
330
0
100
AcDbSymbolTable
 70
     1
  0
STYLE
  5
10
330
3
100
AcDbSymbolTableRecord
100
AcDbTextStyleTableRecord
  2
STANDARD
 70
     0
 40
0.0
 41
1.0
 50
0.0
 71
     0
 42
19.8
  3
txt
  4
bigfont.shx
  0
ENDTAB
  0
TABLE
  2
VIEW
  5
6
330
0
100
AcDbSymbolTable
 70
     0
  0
ENDTAB
  0
TABLE
  2
UCS
  5
7
330
0
100
AcDbSymbolTable
 70
     0
  0
ENDTAB
  0
TABLE
  2
APPID
  5
9
330
0
100
AcDbSymbolTable
 70
     1
  0
APPID
  5
11
330
9
100
AcDbSymbolTableRecord
100
AcDbRegAppTableRecord
  2
ACAD
 70
     0
  0
ENDTAB
  0
TABLE
  2
DIMSTYLE
  5
A
330
0
100
AcDbSymbolTable
 70
     1
  0
DIMSTYLE
105
1D
102
{ACAD_REACTORS
330
2DA
330
2E7
330
2F4
330
301
330
30E
330
31B
330
328
330
5A4
330
584
330
583
330
5A7
330
596
330
595
330
81B
102
}
330
A
100
AcDbSymbolTableRecord
100
AcDbDimStyleTableRecord
  2
STANDARD
 70
     0
  3

  4

  5

  6

  7

 40
1.0
 41
0.18
 42
0.0625
 43
0.38
 44
0.18
 45
0.0
 46
0.0
 47
0.0
 48
0.0
140
0.18
141
0.09
142
0.0
143
25.4
144
1.0
145
0.0
146
1.0
147
0.09
 71
     0
 72
     0
 73
     1
 74
     1
 75
     0
 76
     0
 77
     0
 78
     0
170
     0
171
     2
172
     0
173
     0
174
     0
175
     0
176
     0
177
     0
178
     0
270
     2
271
     4
272
     4
273
     2
274
     2
340
10
275
     0
280
     0
281
     0
282
     0
283
     1
284
     0
285
     0
286
     0
287
     3
288
     0
  0
ENDTAB
  0
TABLE
  2
BLOCK_RECORD
  5
1
330
0
100
AcDbSymbolTable
 70
    17
  0
BLOCK_RECORD
  5
19
102
{ACAD_XDICTIONARY
360
363
102
}
330
1
100
AcDbSymbolTableRecord
100
AcDbBlockTableRecord
  2
*MODEL_SPACE
  0
BLOCK_RECORD
  5
16
102
{ACAD_XDICTIONARY
360
361
102
}
330
1
100
AcDbSymbolTableRecord
100
AcDbBlockTableRecord
  2
*PAPER_SPACE
  0
BLOCK_RECORD
  5
27
330
1
100
AcDbSymbolTableRecord
100
AcDbBlockTableRecord
  2
_OPEN
  0
BLOCK_RECORD
  5
2CE
330
1
100
AcDbSymbolTableRecord
100
AcDbBlockTableRecord
  2
*D1
  0
BLOCK_RECORD
  5
2DB
330
1
100
AcDbSymbolTableRecord
100
AcDbBlockTableRecord
  2
*D2
  0
BLOCK_RECORD
  5
2E8
330
1
100
AcDbSymbolTableRecord
100
AcDbBlockTableRecord
  2
*D3
  0
BLOCK_RECORD
  5
2F5
330
1
100
AcDbSymbolTableRecord
100
AcDbBlockTableRecord
  2
*D4
  0
BLOCK_RECORD
  5
302
330
1
100
AcDbSymbolTableRecord
100
AcDbBlockTableRecord
  2
*D5
  0
BLOCK_RECORD
  5
30F
330
1
100
AcDbSymbolTableRecord
100
AcDbBlockTableRecord
  2
*D6
  0
BLOCK_RECORD
  5
31C
330
1
100
AcDbSymbolTableRecord
100
AcDbBlockTableRecord
  2
*D7
  0
BLOCK_RECORD
  5
5B8
330
1
100
AcDbSymbolTableRecord
100
AcDbBlockTableRecord
  2
*D8
  0
BLOCK_RECORD
  5
5C4
330
1
100
AcDbSymbolTableRecord
100
AcDbBlockTableRecord
  2
*D9
  0
BLOCK_RECORD
  5
5D0
330
1
100
AcDbSymbolTableRecord
100
AcDbBlockTableRecord
  2
*D10
  0
BLOCK_RECORD
  5
5DC
330
1
100
AcDbSymbolTableRecord
100
AcDbBlockTableRecord
  2
*D11
  0
BLOCK_RECORD
  5
5E8
330
1
100
AcDbSymbolTableRecord
100
AcDbBlockTableRecord
  2
*D12
  0
BLOCK_RECORD
  5
5F4
330
1
100
AcDbSymbolTableRecord
100
AcDbBlockTableRecord
  2
*D13
  0
BLOCK_RECORD
  5
820
330
1
100
AcDbSymbolTableRecord
100
AcDbBlockTableRecord
  2
*D14
  0
BLOCK_RECORD
  5
B55
330
1
100
AcDbSymbolTableRecord
100
AcDbBlockTableRecord
  2
*X15
  0
BLOCK_RECORD
  5
B66
330
1
100
AcDbSymbolTableRecord
100
AcDbBlockTableRecord
  2
*X16
  0
ENDTAB
  0
ENDSEC
  0
SECTION
  2
BLOCKS
  0
BLOCK
  5
1A
330
19
100
AcDbEntity
  8
0
100
AcDbBlockBegin
  2
*MODEL_SPACE
 70
     0
 10
0.0
 20
0.0
 30
0.0
  3
*MODEL_SPACE
  1

  0
ENDBLK
  5
1B
330
19
100
AcDbEntity
  8
0
100
AcDbBlockEnd
  0
BLOCK
  5
17
330
16
100
AcDbEntity
 67
     1
  8
0
100
AcDbBlockBegin
  2
*PAPER_SPACE
 70
     0
 10
0.0
 20
0.0
 30
0.0
  3
*PAPER_SPACE
  1

  0
ENDBLK
  5
18
330
16
100
AcDbEntity
 67
     1
  8
0
100
AcDbBlockEnd
  0
BLOCK
  5
28
330
27
100
AcDbEntity
  8
0
100
AcDbBlockBegin
  2
_OPEN
 70
     0
 10
0.0
 20
0.0
 30
0.0
  3
_OPEN
  1

  0
LINE
  5
29
330
27
100
AcDbEntity
  8
0
  6
BYBLOCK
 62
     0
100
AcDbLine
 10
-1.0
 20
0.1666666666666666
 30
0.0
 11
0.0
 21
0.0
 31
0.0
  0
LINE
  5
2A
330
27
100
AcDbEntity
  8
0
  6
BYBLOCK
 62
     0
100
AcDbLine
 10
0.0
 20
0.0
 30
0.0
 11
-1.0
 21
-0.1666666666666666
 31
0.0
  0
LINE
  5
2B
330
27
100
AcDbEntity
  8
0
  6
BYBLOCK
 62
     0
100
AcDbLine
 10
0.0
 20
0.0
 30
0.0
 11
-1.0
 21
0.0
 31
0.0
  0
ENDBLK
  5
2C
330
27
100
AcDbEntity
  8
0
100
AcDbBlockEnd
  0
BLOCK
  5
2CF
330
2CE
100
AcDbEntity
  8
0
100
AcDbBlockBegin
  2
*D1
 70
     1
 10
0.0
 20
0.0
 30
0.0
  3
*D1
  1

  0
LINE
  5
A0C
330
2CE
100
AcDbEntity
  8
SUNPOU
  6
CONTINUOUS
 62
     4
100
AcDbLine
 10
580.3382807366419
 20
451.1626992779524
 30
0.0
 11
580.3382807366419
 21
532.8610015698477
 31
0.0
  0
LINE
  5
A0D
330
2CE
100
AcDbEntity
  8
SUNPOU
  6
CONTINUOUS
 62
     4
100
AcDbLine
 10
253.7746424298566
 20
451.1627936223327
 30
0.0
 11
253.7746424298566
 21
532.8610015698477
 31
0.0
  0
LINE
  5
A0E
330
2CE
100
AcDbEntity
  8
SUNPOU
  6
CONTINUOUS
 62
     4
100
AcDbLine
 10
566.338280736642
 20
526.8610015698477
 30
0.0
 11
267.7746424298566
 21
526.8610015698477
 31
0.0
  0
INSERT
  5
A0F
330
2CE
100
AcDbEntity
  8
SUNPOU
  6
CONTINUOUS
 62
     4
100
AcDbBlockReference
  2
_OPEN
 10
580.3382807366419
 20
526.8610015698477
 30
0.0
 41
14.0
 42
14.0
 43
14.0
  0
INSERT
  5
A10
330
2CE
100
AcDbEntity
  8
SUNPOU
  6
CONTINUOUS
 62
     4
100
AcDbBlockReference
  2
_OPEN
 10
253.7746424298566
 20
526.8610015698477
 30
0.0
 41
14.0
 42
14.0
 43
14.0
 50
180.0
  0
MTEXT
  5
A11
330
2CE
100
AcDbEntity
  8
SUNPOU
  6
CONTINUOUS
 62
     4
100
AcDbMText
 10
417.0564615832493
 20
536.8610015698477
 30
0.0
 40
12.0
 41
0.0
 71
     5
 72
     1
  1
\A1;327
1001
ACAD
1000
MTEXTBEGIN
1070
    73
1070
     1
1070
    44
1040
1.0
1070
    74
1070
     0
1000
MTEXTEND
1000
MTEXTBEGIN
1070
    73
1070
     1
1070
    44
1040
1.0
1070
    74
1070
     0
1000
MTEXTEND
  0
POINT
  5
A12
330
2CE
100
AcDbEntity
  8
DEFPOINTS
  6
CONTINUOUS
 62
     0
100
AcDbPoint
 10
580.3382807366419
 20
439.1626992779523
 30
0.0
  0
POINT
  5
A13
330
2CE
100
AcDbEntity
  8
DEFPOINTS
  6
CONTINUOUS
 62
     0
100
AcDbPoint
 10
253.7746424298566
 20
439.1627936223327
 30
0.0
  0
POINT
  5
A14
330
2CE
100
AcDbEntity
  8
DEFPOINTS
  6
CONTINUOUS
 62
     0
100
AcDbPoint
 10
253.7746424298566
 20
526.8610015698477
 30
0.0
  0
ENDBLK
  5
2D9
330
2CE
100
AcDbEntity
  8
0
100
AcDbBlockEnd
  0
BLOCK
  5
2DC
330
2DB
100
AcDbEntity
  8
0
100
AcDbBlockBegin
  2
*D2
 70
     1
 10
0.0
 20
0.0
 30
0.0
  3
*D2
  1

  0
LINE
  5
A2B
330
2DB
100
AcDbEntity
  8
SUNPOU
  6
CONTINUOUS
 62
     4
100
AcDbLine
 10
587.5564794376437
 20
492.6663472386648
 30
0.0
 11
587.5564794376437
 21
562.3614302620779
 31
0.0
  0
LINE
  5
A2C
330
2DB
100
AcDbEntity
  8
SUNPOU
  6
CONTINUOUS
 62
     4
100
AcDbLine
 10
246.5564794376438
 20
492.6664472386647
 30
0.0
 11
246.5564794376438
 21
562.3614302620779
 31
0.0
  0
LINE
  5
A2D
330
2DB
100
AcDbEntity
  8
SUNPOU
  6
CONTINUOUS
 62
     4
100
AcDbLine
 10
573.5564794376436
 20
556.3614302620781
 30
0.0
 11
260.5564794376438
 21
556.3614302620781
 31
0.0
  0
INSERT
  5
A2E
330
2DB
100
AcDbEntity
  8
SUNPOU
  6
CONTINUOUS
 62
     4
100
AcDbBlockReference
  2
_OPEN
 10
587.5564794376437
 20
556.3614302620781
 30
0.0
 41
14.0
 42
14.0
 43
14.0
  0
INSERT
  5
A2F
330
2DB
100
AcDbEntity
  8
SUNPOU
  6
CONTINUOUS
 62
     4
100
AcDbBlockReference
  2
_OPEN
 10
246.5564794376438
 20
556.3614302620781
 30
0.0
 41
14.0
 42
14.0
 43
14.0
 50
180.0
  0
MTEXT
  5
A30
330
2DB
100
AcDbEntity
  8
SUNPOU
  6
CONTINUOUS
 62
     4
100
AcDbMText
 10
417.0564794376436
 20
566.3614302620779
 30
0.0
 40
12.0
 41
0.0
 71
     5
 72
     1
  1
\A1;341
1001
ACAD
1000
MTEXTBEGIN
1070
    73
1070
     1
1070
    44
1040
1.0
1070
    74
1070
     0
1000
MTEXTEND
1000
MTEXTBEGIN
1070
    73
1070
     1
1070
    44
1040
1.0
1070
    74
1070
     0
1000
MTEXTEND
  0
POINT
  5
A31
330
2DB
100
AcDbEntity
  8
DEFPOINTS
  6
CONTINUOUS
 62
     0
100
AcDbPoint
 10
587.5564794376437
 20
480.6663472386648
 30
0.0
  0
POINT
  5
A32
330
2DB
100
AcDbEntity
  8
DEFPOINTS
  6
CONTINUOUS
 62
     0
100
AcDbPoint
 10
246.5564794376438
 20
480.6664472386648
 30
0.0
  0
POINT
  5
A33
330
2DB
100
AcDbEntity
  8
DEFPOINTS
  6
CONTINUOUS
 62
     0
100
AcDbPoint
 10
246.5564794376438
 20
556.3614302620781
 30
0.0
  0
ENDBLK
  5
2E6
330
2DB
100
AcDbEntity
  8
0
100
AcDbBlockEnd
  0
BLOCK
  5
2E9
330
2E8
100
AcDbEntity
  8
0
100
AcDbBlockBegin
  2
*D3
 70
     1
 10
0.0
 20
0.0
 30
0.0
  3
*D3
  1

  0
LINE
  5
A1E
330
2E8
100
AcDbEntity
  8
SUNPOU
  6
CONTINUOUS
 62
     4
100
AcDbLine
 10
597.0347313613132
 20
434.4662459396669
 30
0.0
 11
638.6857016255262
 21
434.4662459396669
 31
0.0
  0
LINE
  5
A1F
330
2E8
100
AcDbEntity
  8
SUNPOU
  6
CONTINUOUS
 62
     4
100
AcDbLine
 10
571.7422794376439
 20
180.6662472386648
 30
0.0
 11
638.6857016255262
 21
180.6662472386648
 31
0.0
  0
LINE
  5
A20
330
2E8
100
AcDbEntity
  8
SUNPOU
  6
CONTINUOUS
 62
     4
100
AcDbLine
 10
632.6857016255262
 20
420.4662459396669
 30
0.0
 11
632.6857016255262
 21
194.6662472386648
 31
0.0
  0
INSERT
  5
A21
330
2E8
100
AcDbEntity
  8
SUNPOU
  6
CONTINUOUS
 62
     4
100
AcDbBlockReference
  2
_OPEN
 10
632.6857016255262
 20
434.4662459396669
 30
0.0
 41
14.0
 42
14.0
 43
14.0
 50
90.0
  0
INSERT
  5
A22
330
2E8
100
AcDbEntity
  8
SUNPOU
  6
CONTINUOUS
 62
     4
100
AcDbBlockReference
  2
_OPEN
 10
632.6857016255262
 20
180.6662472386648
 30
0.0
 41
14.0
 42
14.0
 43
14.0
 50
270.0
  0
MTEXT
  5
A23
330
2E8
100
AcDbEntity
  8
SUNPOU
  6
CONTINUOUS
 62
     4
100
AcDbMText
 10
622.6857016255262
 20
307.5662465891658
 30
0.0
 40
12.0
 41
0.0
 71
     5
 72
     1
  1
\A1;254
 11
0.0000000000000001
 21
1.0
 31
0.0
1001
ACAD
1000
MTEXTBEGIN
1070
    73
1070
     1
1070
    44
1040
1.0
1070
    74
1070
     0
1000
MTEXTEND
1000
MTEXTBEGIN
1070
    73
1070
     1
1070
    44
1040
1.0
1070
    74
1070
     0
1000
MTEXTEND
  0
POINT
  5
A24
330
2E8
100
AcDbEntity
  8
DEFPOINTS
  6
CONTINUOUS
 62
     0
100
AcDbPoint
 10
585.0347313613132
 20
434.4662459396669
 30
0.0
  0
POINT
  5
A25
330
2E8
100
AcDbEntity
  8
DEFPOINTS
  6
CONTINUOUS
 62
     0
100
AcDbPoint
 10
559.7422794376439
 20
180.6662472386648
 30
0.0
  0
POINT
  5
A26
330
2E8
100
AcDbEntity
  8
DEFPOINTS
  6
CONTINUOUS
 62
     0
100
AcDbPoint
 10
632.6857016255262
 20
180.6662472386648
 30
0.0
  0
ENDBLK
  5
2F3
330
2E8
100
AcDbEntity
  8
0
100
AcDbBlockEnd
  0
BLOCK
  5
2F6
330
2F5
100
AcDbEntity
  8
0
100
AcDbBlockBegin
  2
*D4
 70
     1
 10
0.0
 20
0.0
 30
0.0
  3
*D4
  1

  0
LINE
  5
A34
330
2F5
100
AcDbEntity
  8
SUNPOU
  6
CONTINUOUS
 62
     4
100
AcDbLine
 10
599.5564794376437
 20
480.6663472386648
 30
0.0
 11
673.0930458585755
 21
480.6663472386648
 31
0.0
  0
LINE
  5
A35
330
2F5
100
AcDbEntity
  8
SUNPOU
  6
CONTINUOUS
 62
     4
100
AcDbLine
 10
571.7422794376439
 20
180.6662472386648
 30
0.0
 11
673.0930458585752
 21
180.6662472386648
 31
0.0
  0
LINE
  5
A36
330
2F5
100
AcDbEntity
  8
SUNPOU
  6
CONTINUOUS
 62
     4
100
AcDbLine
 10
667.0930458585753
 20
466.6663472386647
 30
0.0
 11
667.0930458585752
 21
194.6662472386648
 31
0.0
  0
INSERT
  5
A37
330
2F5
100
AcDbEntity
  8
SUNPOU
  6
CONTINUOUS
 62
     4
100
AcDbBlockReference
  2
_OPEN
 10
667.0930458585753
 20
480.6663472386648
 30
0.0
 41
14.0
 42
14.0
 43
14.0
 50
90.0
  0
INSERT
  5
A38
330
2F5
100
AcDbEntity
  8
SUNPOU
  6
CONTINUOUS
 62
     4
100
AcDbBlockReference
  2
_OPEN
 10
667.0930458585752
 20
180.6662472386648
 30
0.0
 41
14.0
 42
14.0
 43
14.0
 50
270.0
  0
MTEXT
  5
A39
330
2F5
100
AcDbEntity
  8
SUNPOU
  6
CONTINUOUS
 62
     4
100
AcDbMText
 10
657.0930458585752
 20
330.6662972386648
 30
0.0
 40
12.0
 41
0.0
 71
     5
 72
     1
  1
\A1;300
 11
0.0000000000000001
 21
1.0
 31
0.0
1001
ACAD
1000
MTEXTBEGIN
1070
    73
1070
     1
1070
    44
1040
1.0
1070
    74
1070
     0
1000
MTEXTEND
1000
MTEXTBEGIN
1070
    73
1070
     1
1070
    44
1040
1.0
1070
    74
1070
     0
1000
MTEXTEND
  0
POINT
  5
A3A
330
2F5
100
AcDbEntity
  8
DEFPOINTS
  6
CONTINUOUS
 62
     0
100
AcDbPoint
 10
587.5564794376437
 20
480.6663472386648
 30
0.0
  0
POINT
  5
A3B
330
2F5
100
AcDbEntity
  8
DEFPOINTS
  6
CONTINUOUS
 62
     0
100
AcDbPoint
 10
559.7422794376439
 20
180.6662472386648
 30
0.0
  0
POINT
  5
A3C
330
2F5
100
AcDbEntity
  8
DEFPOINTS
  6
CONTINUOUS
 62
     0
100
AcDbPoint
 10
667.0930458585752
 20
180.6662472386648
 30
0.0
  0
ENDBLK
  5
300
330
2F5
100
AcDbEntity
  8
0
100
AcDbBlockEnd
  0
BLOCK
  5
303
330
302
100
AcDbEntity
  8
0
100
AcDbBlockBegin
  2
*D5
 70
     1
 10
0.0
 20
0.0
 30
0.0
  3
*D5
  1

  0
LINE
  5
9F1
330
302
100
AcDbEntity
  8
SUNPOU
  6
CONTINUOUS
 62
     4
100
AcDbLine
 10
1052.60127223413
 20
492.6663472386648
 30
0.0
 11
1052.60127223413
 21
532.6194335631708
 31
0.0
  0
LINE
  5
9F2
330
302
100
AcDbEntity
  8
SUNPOU
  6
CONTINUOUS
 62
     4
100
AcDbLine
 10
750.1006722341301
 20
492.6663472386648
 30
0.0
 11
750.1006722341301
 21
532.6194335631708
 31
0.0
  0
LINE
  5
9F3
330
302
100
AcDbEntity
  8
SUNPOU
  6
CONTINUOUS
 62
     4
100
AcDbLine
 10
1038.60127223413
 20
526.6194335631706
 30
0.0
 11
764.1006722341301
 21
526.6194335631706
 31
0.0
  0
INSERT
  5
9F4
330
302
100
AcDbEntity
  8
SUNPOU
  6
CONTINUOUS
 62
     4
100
AcDbBlockReference
  2
_OPEN
 10
1052.60127223413
 20
526.6194335631706
 30
0.0
 41
14.0
 42
14.0
 43
14.0
  0
INSERT
  5
9F5
330
302
100
AcDbEntity
  8
SUNPOU
  6
CONTINUOUS
 62
     4
100
AcDbBlockReference
  2
_OPEN
 10
750.1006722341301
 20
526.6194335631706
 30
0.0
 41
14.0
 42
14.0
 43
14.0
 50
180.0
  0
MTEXT
  5
9F6
330
302
100
AcDbEntity
  8
SUNPOU
  6
CONTINUOUS
 62
     4
100
AcDbMText
 10
901.3509722341302
 20
536.6194335631708
 30
0.0
 40
12.0
 41
0.0
 71
     5
 72
     1
  1
\A1;303
1001
ACAD
1000
MTEXTBEGIN
1070
    73
1070
     1
1070
    44
1040
1.0
1070
    74
1070
     0
1000
MTEXTEND
1000
MTEXTBEGIN
1070
    73
1070
     1
1070
    44
1040
1.0
1070
    74
1070
     0
1000
MTEXTEND
  0
POINT
  5
9F7
330
302
100
AcDbEntity
  8
DEFPOINTS
  6
CONTINUOUS
 62
     0
100
AcDbPoint
 10
1052.60127223413
 20
480.6663472386648
 30
0.0
  0
POINT
  5
9F8
330
302
100
AcDbEntity
  8
DEFPOINTS
  6
CONTINUOUS
 62
     0
100
AcDbPoint
 10
750.1006722341301
 20
480.6663472386648
 30
0.0
  0
POINT
  5
9F9
330
302
100
AcDbEntity
  8
DEFPOINTS
  6
CONTINUOUS
 62
     0
100
AcDbPoint
 10
750.1006722341301
 20
526.6194335631706
 30
0.0
  0
ENDBLK
  5
30D
330
302
100
AcDbEntity
  8
0
100
AcDbBlockEnd
  0
BLOCK
  5
310
330
30F
100
AcDbEntity
  8
0
100
AcDbBlockBegin
  2
*D6
 70
     1
 10
0.0
 20
0.0
 30
0.0
  3
*D6
  1

  0
LINE
  5
9E8
330
30F
100
AcDbEntity
  8
SUNPOU
  6
CONTINUOUS
 62
     4
100
AcDbLine
 10
1050.600776341698
 20
168.6662472386648
 30
0.0
 11
1050.600776341698
 21
111.400868137201
 31
0.0
  0
LINE
  5
9E9
330
30F
100
AcDbEntity
  8
SUNPOU
  6
CONTINUOUS
 62
     4
100
AcDbLine
 10
780.6008158925919
 20
168.6662472386648
 30
0.0
 11
780.6008158925919
 21
111.400868137201
 31
0.0
  0
LINE
  5
9EA
330
30F
100
AcDbEntity
  8
SUNPOU
  6
CONTINUOUS
 62
     4
100
AcDbLine
 10
1036.600776341698
 20
117.400868137201
 30
0.0
 11
794.6008158925922
 21
117.400868137201
 31
0.0
  0
INSERT
  5
9EB
330
30F
100
AcDbEntity
  8
SUNPOU
  6
CONTINUOUS
 62
     4
100
AcDbBlockReference
  2
_OPEN
 10
1050.600776341698
 20
117.400868137201
 30
0.0
 41
14.0
 42
14.0
 43
14.0
  0
INSERT
  5
9EC
330
30F
100
AcDbEntity
  8
SUNPOU
  6
CONTINUOUS
 62
     4
100
AcDbBlockReference
  2
_OPEN
 10
780.6008158925919
 20
117.400868137201
 30
0.0
 41
14.0
 42
14.0
 43
14.0
 50
180.0
  0
MTEXT
  5
9ED
330
30F
100
AcDbEntity
  8
SUNPOU
  6
CONTINUOUS
 62
     4
100
AcDbMText
 10
915.6007961171454
 20
127.4008681372009
 30
0.0
 40
12.0
 41
0.0
 71
     5
 72
     1
  1
\A1;270
1001
ACAD
1000
MTEXTBEGIN
1070
    73
1070
     1
1070
    44
1040
1.0
1070
    74
1070
     0
1000
MTEXTEND
1000
MTEXTBEGIN
1070
    73
1070
     1
1070
    44
1040
1.0
1070
    74
1070
     0
1000
MTEXTEND
  0
POINT
  5
9EE
330
30F
100
AcDbEntity
  8
DEFPOINTS
  6
CONTINUOUS
 62
     0
100
AcDbPoint
 10
1050.600776341698
 20
180.6662472386648
 30
0.0
  0
POINT
  5
9EF
330
30F
100
AcDbEntity
  8
DEFPOINTS
  6
CONTINUOUS
 62
     0
100
AcDbPoint
 10
780.6008158925919
 20
180.6662472386648
 30
0.0
  0
POINT
  5
9F0
330
30F
100
AcDbEntity
  8
DEFPOINTS
  6
CONTINUOUS
 62
     0
100
AcDbPoint
 10
780.6008158925919
 20
117.400868137201
 30
0.0
  0
ENDBLK
  5
31A
330
30F
100
AcDbEntity
  8
0
100
AcDbBlockEnd
  0
BLOCK
  5
31D
330
31C
100
AcDbEntity
  8
0
100
AcDbBlockBegin
  2
*D7
 70
     1
 10
0.0
 20
0.0
 30
0.0
  3
*D7
  1

  0
LINE
  5
A03
330
31C
100
AcDbEntity
  8
SUNPOU
  6
CONTINUOUS
 62
     4
100
AcDbLine
 10
564.5564410456159
 20
168.6662404907735
 30
0.0
 11
564.5564410456159
 21
111.400868137201
 31
0.0
  0
LINE
  5
A04
330
31C
100
AcDbEntity
  8
SUNPOU
  6
CONTINUOUS
 62
     4
100
AcDbLine
 10
269.556304333141
 20
168.6664472386648
 30
0.0
 11
269.556304333141
 21
111.400868137201
 31
0.0
  0
LINE
  5
A05
330
31C
100
AcDbEntity
  8
SUNPOU
  6
CONTINUOUS
 62
     4
100
AcDbLine
 10
550.5564410456158
 20
117.400868137201
 30
0.0
 11
283.5563043331411
 21
117.400868137201
 31
0.0
  0
INSERT
  5
A06
330
31C
100
AcDbEntity
  8
SUNPOU
  6
CONTINUOUS
 62
     4
100
AcDbBlockReference
  2
_OPEN
 10
564.5564410456159
 20
117.400868137201
 30
0.0
 41
14.0
 42
14.0
 43
14.0
  0
INSERT
  5
A07
330
31C
100
AcDbEntity
  8
SUNPOU
  6
CONTINUOUS
 62
     4
100
AcDbBlockReference
  2
_OPEN
 10
269.556304333141
 20
117.400868137201
 30
0.0
 41
14.0
 42
14.0
 43
14.0
 50
180.0
  0
MTEXT
  5
A08
330
31C
100
AcDbEntity
  8
SUNPOU
  6
CONTINUOUS
 62
     4
100
AcDbMText
 10
417.0563726893785
 20
127.4008681372009
 30
0.0
 40
12.0
 41
0.0
 71
     5
 72
     1
  1
\A1;295
1001
ACAD
1000
MTEXTBEGIN
1070
    73
1070
     1
1070
    44
1040
1.0
1070
    74
1070
     0
1000
MTEXTEND
1000
MTEXTBEGIN
1070
    73
1070
     1
1070
    44
1040
1.0
1070
    74
1070
     0
1000
MTEXTEND
  0
POINT
  5
A09
330
31C
100
AcDbEntity
  8
DEFPOINTS
  6
CONTINUOUS
 62
     0
100
AcDbPoint
 10
564.5564410456159
 20
180.6662404907735
 30
0.0
  0
POINT
  5
A0A
330
31C
100
AcDbEntity
  8
DEFPOINTS
  6
CONTINUOUS
 62
     0
100
AcDbPoint
 10
269.556304333141
 20
180.6664472386648
 30
0.0
  0
POINT
  5
A0B
330
31C
100
AcDbEntity
  8
DEFPOINTS
  6
CONTINUOUS
 62
     0
100
AcDbPoint
 10
269.556304333141
 20
117.400868137201
 30
0.0
  0
ENDBLK
  5
327
330
31C
100
AcDbEntity
  8
0
100
AcDbBlockEnd
  0
BLOCK
  5
5C2
330
5B8
100
AcDbEntity
  8
0
100
AcDbBlockBegin
  2
*D8
 70
     1
 10
0.0
 20
0.0
 30
0.0
  3
*D8
  1

  0
LINE
  5
9C4
330
5B8
100
AcDbEntity
  8
SUNPOU
  6
CONTINUOUS
 62
     4
100
AcDbLine
 10
1296.406397859569
 20
860.6716351436492
 30
0.0
 11
1270.956668412251
 21
860.6716351436494
 31
0.0
  0
LINE
  5
9C5
330
5B8
100
AcDbEntity
  8
SUNPOU
  6
CONTINUOUS
 62
     4
100
AcDbLine
 10
1370.744197859568
 20
800.6716351436493
 30
0.0
 11
1270.956668412251
 21
800.6716351436493
 31
0.0
  0
LINE
  5
9C6
330
5B8
100
AcDbEntity
  8
SUNPOU
  6
CONTINUOUS
 62
     4
100
AcDbLine
 10
1276.956668412251
 20
846.6716351436495
 30
0.0
 11
1276.956668412251
 21
814.6716351436491
 31
0.0
  0
INSERT
  5
9C7
330
5B8
100
AcDbEntity
  8
SUNPOU
  6
CONTINUOUS
 62
     4
100
AcDbBlockReference
  2
_OPEN
 10
1276.956668412251
 20
860.6716351436494
 30
0.0
 41
14.0
 42
14.0
 43
14.0
 50
90.0
  0
INSERT
  5
9C8
330
5B8
100
AcDbEntity
  8
SUNPOU
  6
CONTINUOUS
 62
     4
100
AcDbBlockReference
  2
_OPEN
 10
1276.956668412251
 20
800.6716351436493
 30
0.0
 41
14.0
 42
14.0
 43
14.0
 50
270.0
  0
MTEXT
  5
9C9
330
5B8
100
AcDbEntity
  8
SUNPOU
  6
CONTINUOUS
 62
     4
100
AcDbMText
 10
1266.95666841225
 20
830.6716351436495
 30
0.0
 40
12.0
 41
0.0
 71
     5
 72
     1
  1
\A1;60
 11
0.0000000000000001
 21
1.0
 31
0.0
1001
ACAD
1000
MTEXTBEGIN
1070
    73
1070
     1
1070
    44
1040
1.0
1070
    74
1070
     0
1000
MTEXTEND
1000
MTEXTBEGIN
1070
    73
1070
     1
1070
    44
1040
1.0
1070
    74
1070
     0
1000
MTEXTEND
  0
POINT
  5
9CA
330
5B8
100
AcDbEntity
  8
DEFPOINTS
  6
CONTINUOUS
 62
     0
100
AcDbPoint
 10
1308.406397859569
 20
860.6716351436492
 30
0.0
  0
POINT
  5
9CB
330
5B8
100
AcDbEntity
  8
DEFPOINTS
  6
CONTINUOUS
 62
     0
100
AcDbPoint
 10
1382.74419785957
 20
800.6716351436493
 30
0.0
  0
POINT
  5
9CC
330
5B8
100
AcDbEntity
  8
DEFPOINTS
  6
CONTINUOUS
 62
     0
100
AcDbPoint
 10
1276.956668412251
 20
800.6716351436493
 30
0.0
  0
ENDBLK
  5
5C3
330
5B8
100
AcDbEntity
  8
0
100
AcDbBlockEnd
  0
BLOCK
  5
5CE
330
5C4
100
AcDbEntity
  8
0
100
AcDbBlockBegin
  2
*D9
 70
     1
 10
0.0
 20
0.0
 30
0.0
  3
*D9
  1

  0
LINE
  5
9B2
330
5C4
100
AcDbEntity
  8
SUNPOU
  6
CONTINUOUS
 62
     4
100
AcDbLine
 10
1387.744197859569
 20
793.6716351436492
 30
0.0
 11
1387.744197859569
 21
712.0640919167661
 31
0.0
  0
LINE
  5
9B3
330
5C4
100
AcDbEntity
  8
SUNPOU
  6
CONTINUOUS
 62
     4
100
AcDbLine
 10
1055.744397859568
 20
793.6714351436493
 30
0.0
 11
1055.744397859568
 21
712.0640919167661
 31
0.0
  0
LINE
  5
9B4
330
5C4
100
AcDbEntity
  8
SUNPOU
  6
CONTINUOUS
 62
     4
100
AcDbLine
 10
1373.744197859569
 20
718.0640919167662
 30
0.0
 11
1069.744397859568
 21
718.0640919167662
 31
0.0
  0
INSERT
  5
9B5
330
5C4
100
AcDbEntity
  8
SUNPOU
  6
CONTINUOUS
 62
     4
100
AcDbBlockReference
  2
_OPEN
 10
1387.744197859569
 20
718.0640919167662
 30
0.0
 41
14.0
 42
14.0
 43
14.0
  0
INSERT
  5
9B6
330
5C4
100
AcDbEntity
  8
SUNPOU
  6
CONTINUOUS
 62
     4
100
AcDbBlockReference
  2
_OPEN
 10
1055.744397859568
 20
718.0640919167662
 30
0.0
 41
14.0
 42
14.0
 43
14.0
 50
180.0
  0
MTEXT
  5
9B7
330
5C4
100
AcDbEntity
  8
SUNPOU
  6
CONTINUOUS
 62
     4
100
AcDbMText
 10
1221.74429785957
 20
728.0640919167661
 30
0.0
 40
12.0
 41
0.0
 71
     5
 72
     1
  1
\A1;332
1001
ACAD
1000
MTEXTBEGIN
1070
    73
1070
     1
1070
    44
1040
1.0
1070
    74
1070
     0
1000
MTEXTEND
1000
MTEXTBEGIN
1070
    73
1070
     1
1070
    44
1040
1.0
1070
    74
1070
     0
1000
MTEXTEND
  0
POINT
  5
9B8
330
5C4
100
AcDbEntity
  8
DEFPOINTS
  6
CONTINUOUS
 62
     0
100
AcDbPoint
 10
1387.744197859569
 20
805.6716351436492
 30
0.0
  0
POINT
  5
9B9
330
5C4
100
AcDbEntity
  8
DEFPOINTS
  6
CONTINUOUS
 62
     0
100
AcDbPoint
 10
1055.744397859568
 20
805.6714351436493
 30
0.0
  0
POINT
  5
9BA
330
5C4
100
AcDbEntity
  8
DEFPOINTS
  6
CONTINUOUS
 62
     0
100
AcDbPoint
 10
1055.744397859568
 20
718.0640919167662
 30
0.0
  0
ENDBLK
  5
5CF
330
5C4
100
AcDbEntity
  8
0
100
AcDbBlockEnd
  0
BLOCK
  5
5DA
330
5D0
100
AcDbEntity
  8
0
100
AcDbBlockBegin
  2
*D10
 70
     1
 10
0.0
 20
0.0
 30
0.0
  3
*D10
  1

  0
LINE
  5
9CD
330
5D0
100
AcDbEntity
  8
SUNPOU
  6
CONTINUOUS
 62
     4
100
AcDbLine
 10
1380.744197859569
 20
790.0113618533233
 30
0.0
 11
1380.744197859569
 21
740.3121224746396
 31
0.0
  0
LINE
  5
9CE
330
5D0
100
AcDbEntity
  8
SUNPOU
  6
CONTINUOUS
 62
     4
100
AcDbLine
 10
1062.744297859569
 20
790.0111618533235
 30
0.0
 11
1062.744297859569
 21
740.3121224746396
 31
0.0
  0
LINE
  5
9CF
330
5D0
100
AcDbEntity
  8
SUNPOU
  6
CONTINUOUS
 62
     4
100
AcDbLine
 10
1366.74419785957
 20
746.3121224746396
 30
0.0
 11
1076.744297859569
 21
746.3121224746396
 31
0.0
  0
INSERT
  5
9D0
330
5D0
100
AcDbEntity
  8
SUNPOU
  6
CONTINUOUS
 62
     4
100
AcDbBlockReference
  2
_OPEN
 10
1380.744197859569
 20
746.3121224746396
 30
0.0
 41
14.0
 42
14.0
 43
14.0
  0
INSERT
  5
9D1
330
5D0
100
AcDbEntity
  8
SUNPOU
  6
CONTINUOUS
 62
     4
100
AcDbBlockReference
  2
_OPEN
 10
1062.744297859569
 20
746.3121224746396
 30
0.0
 41
14.0
 42
14.0
 43
14.0
 50
180.0
  0
MTEXT
  5
9D2
330
5D0
100
AcDbEntity
  8
SUNPOU
  6
CONTINUOUS
 62
     4
100
AcDbMText
 10
1221.74424785957
 20
756.3121224746396
 30
0.0
 40
12.0
 41
0.0
 71
     5
 72
     1
  1
\A1;318
1001
ACAD
1000
MTEXTBEGIN
1070
    73
1070
     1
1070
    44
1040
1.0
1070
    74
1070
     0
1000
MTEXTEND
1000
MTEXTBEGIN
1070
    73
1070
     1
1070
    44
1040
1.0
1070
    74
1070
     0
1000
MTEXTEND
  0
POINT
  5
9D3
330
5D0
100
AcDbEntity
  8
DEFPOINTS
  6
CONTINUOUS
 62
     0
100
AcDbPoint
 10
1380.744197859569
 20
802.0113618533235
 30
0.0
  0
POINT
  5
9D4
330
5D0
100
AcDbEntity
  8
DEFPOINTS
  6
CONTINUOUS
 62
     0
100
AcDbPoint
 10
1062.744297859569
 20
802.0111618533235
 30
0.0
  0
POINT
  5
9D5
330
5D0
100
AcDbEntity
  8
DEFPOINTS
  6
CONTINUOUS
 62
     0
100
AcDbPoint
 10
1062.744297859569
 20
746.3121224746396
 30
0.0
  0
ENDBLK
  5
5DB
330
5D0
100
AcDbEntity
  8
0
100
AcDbBlockEnd
  0
BLOCK
  5
5E6
330
5DC
100
AcDbEntity
  8
0
100
AcDbBlockBegin
  2
*D11
 70
     1
 10
0.0
 20
0.0
 30
0.0
  3
*D11
  1

  0
LINE
  5
9BB
330
5DC
100
AcDbEntity
  8
SUNPOU
  6
CONTINUOUS
 62
     4
100
AcDbLine
 10
1387.744197859569
 20
817.6716351436493
 30
0.0
 11
1387.744197859569
 21
916.3229144087699
 31
0.0
  0
LINE
  5
9BC
330
5DC
100
AcDbEntity
  8
SUNPOU
  6
CONTINUOUS
 62
     4
100
AcDbLine
 10
1327.744197859568
 20
891.3662351436492
 30
0.0
 11
1327.744197859568
 21
916.3229144087699
 31
0.0
  0
LINE
  5
9BD
330
5DC
100
AcDbEntity
  8
SUNPOU
  6
CONTINUOUS
 62
     4
100
AcDbLine
 10
1373.744197859569
 20
910.32291440877
 30
0.0
 11
1341.744197859568
 21
910.32291440877
 31
0.0
  0
INSERT
  5
9BE
330
5DC
100
AcDbEntity
  8
SUNPOU
  6
CONTINUOUS
 62
     4
100
AcDbBlockReference
  2
_OPEN
 10
1387.744197859569
 20
910.32291440877
 30
0.0
 41
14.0
 42
14.0
 43
14.0
  0
INSERT
  5
9BF
330
5DC
100
AcDbEntity
  8
SUNPOU
  6
CONTINUOUS
 62
     4
100
AcDbBlockReference
  2
_OPEN
 10
1327.744197859568
 20
910.32291440877
 30
0.0
 41
14.0
 42
14.0
 43
14.0
 50
180.0
  0
MTEXT
  5
9C0
330
5DC
100
AcDbEntity
  8
SUNPOU
  6
CONTINUOUS
 62
     4
100
AcDbMText
 10
1357.744197859569
 20
920.32291440877
 30
0.0
 40
12.0
 41
0.0
 71
     5
 72
     1
  1
\A1;60
1001
ACAD
1000
MTEXTBEGIN
1070
    73
1070
     1
1070
    44
1040
1.0
1070
    74
1070
     0
1000
MTEXTEND
1000
MTEXTBEGIN
1070
    73
1070
     1
1070
    44
1040
1.0
1070
    74
1070
     0
1000
MTEXTEND
  0
POINT
  5
9C1
330
5DC
100
AcDbEntity
  8
DEFPOINTS
  6
CONTINUOUS
 62
     0
100
AcDbPoint
 10
1387.744197859569
 20
805.6716351436492
 30
0.0
  0
POINT
  5
9C2
330
5DC
100
AcDbEntity
  8
DEFPOINTS
  6
CONTINUOUS
 62
     0
100
AcDbPoint
 10
1327.744197859568
 20
879.3662351436491
 30
0.0
  0
POINT
  5
9C3
330
5DC
100
AcDbEntity
  8
DEFPOINTS
  6
CONTINUOUS
 62
     0
100
AcDbPoint
 10
1327.744197859568
 20
910.32291440877
 30
0.0
  0
ENDBLK
  5
5E7
330
5DC
100
AcDbEntity
  8
0
100
AcDbBlockEnd
  0
BLOCK
  5
5F2
330
5E8
100
AcDbEntity
  8
0
100
AcDbBlockBegin
  2
*D12
 70
     1
 10
0.0
 20
0.0
 30
0.0
  3
*D12
  1

  0
LINE
  5
9D6
330
5E8
100
AcDbEntity
  8
SUNPOU
  6
CONTINUOUS
 62
     4
100
AcDbLine
 10
1394.744197859569
 20
1092.671635143648
 30
0.0
 11
1481.629018647377
 21
1092.671635143648
 31
0.0
  0
LINE
  5
9D7
330
5E8
100
AcDbEntity
  8
SUNPOU
  6
CONTINUOUS
 62
     4
100
AcDbLine
 10
1394.744197859569
 20
800.6716351436493
 30
0.0
 11
1481.629018647377
 21
800.6716351436493
 31
0.0
  0
LINE
  5
9D8
330
5E8
100
AcDbEntity
  8
SUNPOU
  6
CONTINUOUS
 62
     4
100
AcDbLine
 10
1475.629018647377
 20
1078.671635143648
 30
0.0
 11
1475.629018647377
 21
814.6716351436491
 31
0.0
  0
INSERT
  5
9D9
330
5E8
100
AcDbEntity
  8
SUNPOU
  6
CONTINUOUS
 62
     4
100
AcDbBlockReference
  2
_OPEN
 10
1475.629018647377
 20
1092.671635143648
 30
0.0
 41
14.0
 42
14.0
 43
14.0
 50
90.0
  0
INSERT
  5
9DA
330
5E8
100
AcDbEntity
  8
SUNPOU
  6
CONTINUOUS
 62
     4
100
AcDbBlockReference
  2
_OPEN
 10
1475.629018647377
 20
800.6716351436493
 30
0.0
 41
14.0
 42
14.0
 43
14.0
 50
270.0
  0
MTEXT
  5
9DB
330
5E8
100
AcDbEntity
  8
SUNPOU
  6
CONTINUOUS
 62
     4
100
AcDbMText
 10
1465.629018647376
 20
946.6716351436495
 30
0.0
 40
12.0
 41
0.0
 71
     5
 72
     1
  1
\A1;292
 11
0.0000000000000001
 21
1.0
 31
0.0
1001
ACAD
1000
MTEXTBEGIN
1070
    73
1070
     1
1070
    44
1040
1.0
1070
    74
1070
     0
1000
MTEXTEND
1000
MTEXTBEGIN
1070
    73
1070
     1
1070
    44
1040
1.0
1070
    74
1070
     0
1000
MTEXTEND
  0
POINT
  5
9DC
330
5E8
100
AcDbEntity
  8
DEFPOINTS
  6
CONTINUOUS
 62
     0
100
AcDbPoint
 10
1382.74419785957
 20
1092.671635143648
 30
0.0
  0
POINT
  5
9DD
330
5E8
100
AcDbEntity
  8
DEFPOINTS
  6
CONTINUOUS
 62
     0
100
AcDbPoint
 10
1382.74419785957
 20
800.6716351436493
 30
0.0
  0
POINT
  5
9DE
330
5E8
100
AcDbEntity
  8
DEFPOINTS
  6
CONTINUOUS
 62
     0
100
AcDbPoint
 10
1475.629018647377
 20
800.6716351436493
 30
0.0
  0
ENDBLK
  5
5F3
330
5E8
100
AcDbEntity
  8
0
100
AcDbBlockEnd
  0
BLOCK
  5
5FE
330
5F4
100
AcDbEntity
  8
0
100
AcDbBlockBegin
  2
*D13
 70
     1
 10
0.0
 20
0.0
 30
0.0
  3
*D13
  1

  0
LINE
  5
9DF
330
5F4
100
AcDbEntity
  8
SUNPOU
  6
CONTINUOUS
 62
     4
100
AcDbLine
 10
1397.904471149895
 20
1086.171635143649
 30
0.0
 11
1452.727589247423
 21
1086.171635143649
 31
0.0
  0
LINE
  5
9E0
330
5F4
100
AcDbEntity
  8
SUNPOU
  6
CONTINUOUS
 62
     4
100
AcDbLine
 10
1397.904471149895
 20
807.1716351436492
 30
0.0
 11
1452.727589247423
 21
807.1716351436492
 31
0.0
  0
LINE
  5
9E1
330
5F4
100
AcDbEntity
  8
SUNPOU
  6
CONTINUOUS
 62
     4
100
AcDbLine
 10
1446.727589247423
 20
1072.171635143648
 30
0.0
 11
1446.727589247423
 21
821.1716351436493
 31
0.0
  0
INSERT
  5
9E2
330
5F4
100
AcDbEntity
  8
SUNPOU
  6
CONTINUOUS
 62
     4
100
AcDbBlockReference
  2
_OPEN
 10
1446.727589247423
 20
1086.171635143649
 30
0.0
 41
14.0
 42
14.0
 43
14.0
 50
90.0
  0
INSERT
  5
9E3
330
5F4
100
AcDbEntity
  8
SUNPOU
  6
CONTINUOUS
 62
     4
100
AcDbBlockReference
  2
_OPEN
 10
1446.727589247423
 20
807.1716351436492
 30
0.0
 41
14.0
 42
14.0
 43
14.0
 50
270.0
  0
MTEXT
  5
9E4
330
5F4
100
AcDbEntity
  8
SUNPOU
  6
CONTINUOUS
 62
     4
100
AcDbMText
 10
1436.727589247423
 20
946.6716351436495
 30
0.0
 40
12.0
 41
0.0
 71
     5
 72
     1
  1
\A1;279
 11
0.0000000000000001
 21
1.0
 31
0.0
1001
ACAD
1000
MTEXTBEGIN
1070
    73
1070
     1
1070
    44
1040
1.0
1070
    74
1070
     0
1000
MTEXTEND
1000
MTEXTBEGIN
1070
    73
1070
     1
1070
    44
1040
1.0
1070
    74
1070
     0
1000
MTEXTEND
  0
POINT
  5
9E5
330
5F4
100
AcDbEntity
  8
DEFPOINTS
  6
CONTINUOUS
 62
     0
100
AcDbPoint
 10
1385.904471149895
 20
1086.171635143649
 30
0.0
  0
POINT
  5
9E6
330
5F4
100
AcDbEntity
  8
DEFPOINTS
  6
CONTINUOUS
 62
     0
100
AcDbPoint
 10
1385.904471149895
 20
807.1716351436492
 30
0.0
  0
POINT
  5
9E7
330
5F4
100
AcDbEntity
  8
DEFPOINTS
  6
CONTINUOUS
 62
     0
100
AcDbPoint
 10
1446.727589247423
 20
807.1716351436492
 30
0.0
  0
ENDBLK
  5
5FF
330
5F4
100
AcDbEntity
  8
0
100
AcDbBlockEnd
  0
BLOCK
  5
82C
330
820
100
AcDbEntity
  8
0
100
AcDbBlockBegin
  2
*D14
 70
     1
 10
0.0
 20
0.0
 30
0.0
  3
*D14
  1

  0
LINE
  5
995
330
820
100
AcDbEntity
  8
SUNPOU
  6
CONTINUOUS
 62
     4
100
AcDbLine
 10
1399.744097859569
 20
665.6411514924752
 30
0.0
 11
1455.663769627466
 21
665.6411514924752
 31
0.0
  0
LINE
  5
996
330
820
100
AcDbEntity
  8
SUNPOU
  6
CONTINUOUS
 62
     4
100
AcDbLine
 10
1402.744097859569
 20
655.6411714924753
 30
0.0
 11
1455.663769627466
 21
655.6411714924753
 31
0.0
  0
LINE
  5
997
330
820
100
AcDbEntity
  8
SUNPOU
  6
CONTINUOUS
 62
     4
100
AcDbLine
 10
1449.663769627466
 20
679.6411514924752
 30
0.0
 11
1449.663769627466
 21
693.6411514924753
 31
0.0
  0
LINE
  5
998
330
820
100
AcDbEntity
  8
SUNPOU
  6
CONTINUOUS
 62
     4
100
AcDbLine
 10
1449.663769627466
 20
641.6411714924755
 30
0.0
 11
1449.663769627466
 21
605.6411714924753
 31
0.0
  0
LINE
  5
999
330
820
100
AcDbEntity
  8
SUNPOU
  6
CONTINUOUS
 62
     4
100
AcDbLine
 10
1449.663769627466
 20
665.6411514924752
 30
0.0
 11
1449.663769627466
 21
655.6411714924753
 31
0.0
  0
INSERT
  5
99A
330
820
100
AcDbEntity
  8
SUNPOU
  6
CONTINUOUS
 62
     4
100
AcDbBlockReference
  2
_OPEN
 10
1449.663769627466
 20
665.6411514924752
 30
0.0
 41
14.0
 42
14.0
 43
14.0
 50
270.0
  0
INSERT
  5
99B
330
820
100
AcDbEntity
  8
SUNPOU
  6
CONTINUOUS
 62
     4
100
AcDbBlockReference
  2
_OPEN
 10
1449.663769627466
 20
655.6411714924753
 30
0.0
 41
14.0
 42
14.0
 43
14.0
 50
90.0
  0
MTEXT
  5
99C
330
820
100
AcDbEntity
  8
SUNPOU
  6
CONTINUOUS
 62
     4
100
AcDbMText
 10
1439.663769627466
 20
616.6411714924756
 30
0.0
 40
12.0
 41
0.0
 71
     5
 72
     1
  1
\A1;10
 11
0.0000000000000001
 21
1.0
 31
0.0
1001
ACAD
1000
MTEXTBEGIN
1070
    73
1070
     1
1070
    44
1040
1.0
1070
    74
1070
     0
1000
MTEXTEND
1000
MTEXTBEGIN
1070
    73
1070
     1
1070
    44
1040
1.0
1070
    74
1070
     0
1000
MTEXTEND
  0
POINT
  5
99D
330
820
100
AcDbEntity
  8
DEFPOINTS
  6
CONTINUOUS
 62
     0
100
AcDbPoint
 10
1387.744097859569
 20
665.6411514924752
 30
0.0
  0
POINT
  5
99E
330
820
100
AcDbEntity
  8
DEFPOINTS
  6
CONTINUOUS
 62
     0
100
AcDbPoint
 10
1390.744097859569
 20
655.6411714924753
 30
0.0
  0
POINT
  5
99F
330
820
100
AcDbEntity
  8
DEFPOINTS
  6
CONTINUOUS
 62
     0
100
AcDbPoint
 10
1449.663769627466
 20
655.6411714924753
 30
0.0
  0
ENDBLK
  5
82D
330
820
100
AcDbEntity
  8
0
100
AcDbBlockEnd
  0
BLOCK
  5
B64
330
B55
100
AcDbEntity
  8
0
100
AcDbBlockBegin
  2
*X15
 70
     1
 10
0.0
 20
0.0
 30
0.0
  3
*X15
  1

  0
LINE
  5
B56
330
B55
100
AcDbEntity
  8
0
 62
     0
100
AcDbLine
 10
1502.356614179442
 20
462.6666081511333
 30
0.0
 11
1499.356614179443
 21
465.6666081511331
 31
0.0
  0
LINE
  5
B57
330
B55
100
AcDbEntity
  8
0
 62
     0
100
AcDbLine
 10
1493.356814179443
 20
457.5242725274018
 30
0.0
 11
1492.076431607208
 21
458.8046550996367
 31
0.0
  0
LINE
  5
B58
330
B55
100
AcDbEntity
  8
0
 62
     0
100
AcDbLine
 10
1495.076431607208
 20
455.8046550996365
 30
0.0
 11
1494.856814179443
 21
456.024272527402
 31
0.0
  0
LINE
  5
B59
330
B55
100
AcDbEntity
  8
0
 62
     0
100
AcDbLine
 10
1480.934295983477
 20
455.8046550996365
 30
0.0
 11
1477.934295983477
 21
458.8046550996366
 31
0.0
  0
LINE
  5
B5A
330
B55
100
AcDbEntity
  8
0
 62
     0
100
AcDbLine
 10
1466.792160359746
 20
455.8046550996366
 30
0.0
 11
1463.792160359746
 21
458.8046550996367
 31
0.0
  0
LINE
  5
B5B
330
B55
100
AcDbEntity
  8
0
 62
     0
100
AcDbLine
 10
1452.650024736016
 20
455.8046550996368
 30
0.0
 11
1449.650024736015
 21
458.8046550996367
 31
0.0
  0
LINE
  5
B5C
330
B55
100
AcDbEntity
  8
0
 62
     0
100
AcDbLine
 10
1438.507889112283
 20
455.8046550996368
 30
0.0
 11
1435.507889112284
 21
458.8046550996367
 31
0.0
  0
LINE
  5
B5D
330
B55
100
AcDbEntity
  8
0
 62
     0
100
AcDbLine
 10
1424.365753488553
 20
455.8046550996366
 30
0.0
 11
1421.365753488553
 21
458.8046550996367
 31
0.0
  0
LINE
  5
B5E
330
B55
100
AcDbEntity
  8
0
 62
     0
100
AcDbLine
 10
1410.223617864822
 20
455.804655099637
 30
0.0
 11
1407.223617864822
 21
458.8046550996367
 31
0.0
  0
LINE
  5
B5F
330
B55
100
AcDbEntity
  8
0
 62
     0
100
AcDbLine
 10
1396.081482241091
 20
455.8046550996368
 30
0.0
 11
1393.081482241091
 21
458.8046550996367
 31
0.0
  0
LINE
  5
B60
330
B55
100
AcDbEntity
  8
0
 62
     0
100
AcDbLine
 10
1381.939346617359
 20
455.804655099637
 30
0.0
 11
1378.939346617361
 21
458.8046550996367
 31
0.0
  0
LINE
  5
B61
330
B55
100
AcDbEntity
  8
0
 62
     0
100
AcDbLine
 10
1367.79721099363
 20
455.8046550996366
 30
0.0
 11
1364.797210993629
 21
458.8046550996367
 31
0.0
  0
LINE
  5
B62
330
B55
100
AcDbEntity
  8
0
 62
     0
100
AcDbLine
 10
1353.655075369899
 20
455.8046550996372
 30
0.0
 11
1350.655075369898
 21
458.8046550996367
 31
0.0
  0
LINE
  5
B63
330
B55
100
AcDbEntity
  8
0
 62
     0
100
AcDbLine
 10
1339.512939746168
 20
455.8046550996372
 30
0.0
 11
1336.512939746168
 21
458.8046550996367
 31
0.0
  0
ENDBLK
  5
B65
330
B55
100
AcDbEntity
  8
0
100
AcDbBlockEnd
  0
BLOCK
  5
BA4
330
B66
100
AcDbEntity
  8
0
100
AcDbBlockBegin
  2
*X16
 70
     1
 10
0.0
 20
0.0
 30
0.0
  3
*X16
  1

  0
LINE
  5
B67
330
B66
100
AcDbEntity
  8
0
 62
     0
100
AcDbLine
 10
1474.102683288011
 20
180.6662541628437
 30
0.0
 11
1484.240819510591
 21
190.8043903854244
 31
0.0
  0
LINE
  5
B68
330
B66
100
AcDbEntity
  8
0
 62
     0
100
AcDbLine
 10
1479.318635322033
 20
192.9532740087316
 30
0.0
 11
1484.519225257008
 21
198.1538639437067
 31
0.0
  0
LINE
  5
B69
330
B66
100
AcDbEntity
  8
0
 62
     0
100
AcDbLine
 10
1467.031625387472
 20
180.6662640741708
 30
0.0
 11
1472.031618379111
 21
185.6662570658093
 31
0.0
  0
LINE
  5
B6A
330
B66
100
AcDbEntity
  8
0
 62
     0
100
AcDbLine
 10
1479.59704106845
 20
200.3027475670138
 30
0.0
 11
1484.797631003425
 21
205.5033375019891
 31
0.0
  0
LINE
  5
B6B
330
B66
100
AcDbEntity
  8
0
 62
     0
100
AcDbLine
 10
1459.960567486934
 20
180.666273985498
 30
0.0
 11
1464.960560478572
 21
185.6662669771361
 31
0.0
  0
LINE
  5
B6C
330
B66
100
AcDbEntity
  8
0
 62
     0
100
AcDbLine
 10
1479.875446814867
 20
207.6522211252961
 30
0.0
 11
1485.076036749842
 21
212.8528110602712
 31
0.0
  0
LINE
  5
B6D
330
B66
100
AcDbEntity
  8
0
 62
     0
100
AcDbLine
 10
1452.889509586395
 20
180.666283896825
 30
0.0
 11
1457.889502578034
 21
185.6662768884633
 31
0.0
  0
LINE
  5
B6E
330
B66
100
AcDbEntity
  8
0
 62
     0
100
AcDbLine
 10
1480.153852561284
 20
215.0016946835787
 30
0.0
 11
1485.354442496259
 21
220.2022846185538
 31
0.0
  0
LINE
  5
B6F
330
B66
100
AcDbEntity
  8
0
 62
     0
100
AcDbLine
 10
1445.818451685856
 20
180.6662938081522
 30
0.0
 11
1450.818444677495
 21
185.6662867997906
 31
0.0
  0
LINE
  5
B70
330
B66
100
AcDbEntity
  8
0
 62
     0
100
AcDbLine
 10
1480.4322583077
 20
222.3511682418609
 30
0.0
 11
1485.632848242676
 21
227.551758176836
 31
0.0
  0
LINE
  5
B71
330
B66
100
AcDbEntity
  8
0
 62
     0
100
AcDbLine
 10
1438.747393785318
 20
180.6663037194789
 30
0.0
 11
1443.747386776957
 21
185.6662967111174
 31
0.0
  0
LINE
  5
B72
330
B66
100
AcDbEntity
  8
0
 62
     0
100
AcDbLine
 10
1480.710664054117
 20
229.7006418001434
 30
0.0
 11
1485.911253989092
 21
234.9012317351183
 31
0.0
  0
LINE
  5
B73
330
B66
100
AcDbEntity
  8
0
 62
     0
100
AcDbLine
 10
1431.676335884779
 20
180.6663136308062
 30
0.0
 11
1436.676328876419
 21
185.6663066224444
 31
0.0
  0
LINE
  5
B74
330
B66
100
AcDbEntity
  8
0
 62
     0
100
AcDbLine
 10
1480.989069800534
 20
237.0501153584256
 30
0.0
 11
1486.189659735509
 21
242.2507052934006
 31
0.0
  0
LINE
  5
B75
330
B66
100
AcDbEntity
  8
0
 62
     0
100
AcDbLine
 10
1424.605277984241
 20
180.6663235421333
 30
0.0
 11
1429.60527097588
 21
185.6663165337718
 31
0.0
  0
LINE
  5
B76
330
B66
100
AcDbEntity
  8
0
 62
     0
100
AcDbLine
 10
1481.267475546951
 20
244.399588916708
 30
0.0
 11
1486.468065481926
 21
249.600178851683
 31
0.0
  0
LINE
  5
B77
330
B66
100
AcDbEntity
  8
0
 62
     0
100
AcDbLine
 10
1417.534220083703
 20
180.6663334534603
 30
0.0
 11
1422.534213075342
 21
185.6663264450988
 31
0.0
  0
LINE
  5
B78
330
B66
100
AcDbEntity
  8
0
 62
     0
100
AcDbLine
 10
1481.545881293368
 20
251.74906247499
 30
0.0
 11
1486.746471228342
 21
256.9496524099653
 31
0.0
  0
LINE
  5
B79
330
B66
100
AcDbEntity
  8
0
 62
     0
100
AcDbLine
 10
1410.463162183165
 20
180.6663433647876
 30
0.0
 11
1415.463155174804
 21
185.6663363564258
 31
0.0
  0
LINE
  5
B7A
330
B66
100
AcDbEntity
  8
0
 62
     0
100
AcDbLine
 10
1481.824287039785
 20
259.0985360332723
 30
0.0
 11
1487.024876974759
 21
264.2991259682476
 31
0.0
  0
LINE
  5
B7B
330
B66
100
AcDbEntity
  8
0
 62
     0
100
AcDbLine
 10
1403.392104282626
 20
180.6663532761143
 30
0.0
 11
1408.392097274265
 21
185.6663462677529
 31
0.0
  0
LINE
  5
B7C
330
B66
100
AcDbEntity
  8
0
 62
     0
100
AcDbLine
 10
1482.1026927862
 20
266.4480095915546
 30
0.0
 11
1487.303282721176
 21
271.6485995265299
 31
0.0
  0
LINE
  5
B7D
330
B66
100
AcDbEntity
  8
0
 62
     0
100
AcDbLine
 10
1396.321046382088
 20
180.6663631874418
 30
0.0
 11
1401.321039373725
 21
185.66635617908
 31
0.0
  0
LINE
  5
B7E
330
B66
100
AcDbEntity
  8
0
 62
     0
100
AcDbLine
 10
1482.381098532618
 20
273.7974831498372
 30
0.0
 11
1487.581688467593
 21
278.998073084812
 31
0.0
  0
LINE
  5
B7F
330
B66
100
AcDbEntity
  8
0
 62
     0
100
AcDbLine
 10
1389.24998848155
 20
180.6663730987688
 30
0.0
 11
1394.249981473188
 21
185.6663660904073
 31
0.0
  0
LINE
  5
B80
330
B66
100
AcDbEntity
  8
0
 62
     0
100
AcDbLine
 10
1482.659504279035
 20
281.1469567081193
 30
0.0
 11
1487.86009421401
 21
286.3475466430944
 31
0.0
  0
LINE
  5
B81
330
B66
100
AcDbEntity
  8
0
 62
     0
100
AcDbLine
 10
1382.178930581011
 20
180.6663830100958
 30
0.0
 11
1387.17892357265
 21
185.666376001734
 31
0.0
  0
LINE
  5
B82
330
B66
100
AcDbEntity
  8
0
 62
     0
100
AcDbLine
 10
1482.937910025452
 20
288.4964302664016
 30
0.0
 11
1488.138499960427
 21
293.6970202013768
 31
0.0
  0
LINE
  5
B83
330
B66
100
AcDbEntity
  8
0
 62
     0
100
AcDbLine
 10
1375.107872680473
 20
180.6663929214229
 30
0.0
 11
1380.10786567211
 21
185.6663859130611
 31
0.0
  0
LINE
  5
B84
330
B66
100
AcDbEntity
  8
0
 62
     0
100
AcDbLine
 10
1483.216315771868
 20
295.8459038246838
 30
0.0
 11
1488.416905706843
 21
301.0464937596591
 31
0.0
  0
LINE
  5
B85
330
B66
100
AcDbEntity
  8
0
 62
     0
100
AcDbLine
 10
1368.036814779935
 20
180.66640283275
 30
0.0
 11
1373.036807771573
 21
185.6663958243881
 31
0.0
  0
LINE
  5
B86
330
B66
100
AcDbEntity
  8
0
 62
     0
100
AcDbLine
 10
1483.494721518284
 20
303.1953773829665
 30
0.0
 11
1488.695311453261
 21
308.3959673179416
 31
0.0
  0
LINE
  5
B87
330
B66
100
AcDbEntity
  8
0
 62
     0
100
AcDbLine
 10
1360.965756879396
 20
180.666412744077
 30
0.0
 11
1365.965749871034
 21
185.6664057357154
 31
0.0
  0
LINE
  5
B88
330
B66
100
AcDbEntity
  8
0
 62
     0
100
AcDbLine
 10
1483.773127264702
 20
310.5448509412488
 30
0.0
 11
1488.973717199677
 21
315.7454408762238
 31
0.0
  0
LINE
  5
B89
330
B66
100
AcDbEntity
  8
0
 62
     0
100
AcDbLine
 10
1353.894698978858
 20
180.6664226554044
 30
0.0
 11
1358.894691970496
 21
185.6664156470423
 31
0.0
  0
LINE
  5
B8A
330
B66
100
AcDbEntity
  8
0
 62
     0
100
AcDbLine
 10
1484.051533011119
 20
317.8943244995308
 30
0.0
 11
1489.252122946093
 21
323.0949144345061
 31
0.0
  0
LINE
  5
B8B
330
B66
100
AcDbEntity
  8
0
 62
     0
100
AcDbLine
 10
1346.823641078319
 20
180.6664325667311
 30
0.0
 11
1351.823634069958
 21
185.6664255583696
 31
0.0
  0
LINE
  5
B8C
330
B66
100
AcDbEntity
  8
0
 62
     0
100
AcDbLine
 10
1484.329938757536
 20
325.2437980578132
 30
0.0
 11
1489.530528692511
 21
330.4443879927883
 31
0.0
  0
LINE
  5
B8D
330
B66
100
AcDbEntity
  8
0
 62
     0
100
AcDbLine
 10
1339.752583177781
 20
180.6664424780583
 30
0.0
 11
1344.752576169419
 21
185.6664354696967
 31
0.0
  0
LINE
  5
B8E
330
B66
100
AcDbEntity
  8
0
 62
     0
100
AcDbLine
 10
1484.608344503953
 20
332.5932716160957
 30
0.0
 11
1489.808934438928
 21
337.7938615510706
 31
0.0
  0
LINE
  5
B8F
330
B66
100
AcDbEntity
  8
0
 62
     0
100
AcDbLine
 10
1336.356722707121
 20
184.3416498192636
 30
0.0
 11
1337.681518268881
 21
185.6664453810236
 31
0.0
  0
LINE
  5
B90
330
B66
100
AcDbEntity
  8
0
 62
     0
100
AcDbLine
 10
1484.886750250369
 20
339.9427451743779
 30
0.0
 11
1490.087340185344
 21
345.1433351093527
 31
0.0
  0
LINE
  5
B91
330
B66
100
AcDbEntity
  8
0
 62
     0
100
AcDbLine
 10
1485.165155996787
 20
347.2922187326602
 30
0.0
 11
1490.365745931762
 21
352.4928086676351
 31
0.0
  0
LINE
  5
B92
330
B66
100
AcDbEntity
  8
0
 62
     0
100
AcDbLine
 10
1485.443561743204
 20
354.6416922909426
 30
0.0
 11
1490.644151678178
 21
359.8422822259176
 31
0.0
  0
LINE
  5
B93
330
B66
100
AcDbEntity
  8
0
 62
     0
100
AcDbLine
 10
1485.721967489619
 20
361.9911658492247
 30
0.0
 11
1490.922557424594
 21
367.1917557842001
 31
0.0
  0
LINE
  5
B94
330
B66
100
AcDbEntity
  8
0
 62
     0
100
AcDbLine
 10
1486.000373236036
 20
369.3406394075072
 30
0.0
 11
1491.200963171012
 21
374.5412293424823
 31
0.0
  0
LINE
  5
B95
330
B66
100
AcDbEntity
  8
0
 62
     0
100
AcDbLine
 10
1486.278778982454
 20
376.6901129657893
 30
0.0
 11
1491.479368917429
 21
381.8907029007646
 31
0.0
  0
LINE
  5
B96
330
B66
100
AcDbEntity
  8
0
 62
     0
100
AcDbLine
 10
1486.55718472887
 20
384.0395865240718
 30
0.0
 11
1491.757774663846
 21
389.2401764590468
 31
0.0
  0
LINE
  5
B97
330
B66
100
AcDbEntity
  8
0
 62
     0
100
AcDbLine
 10
1486.835590475288
 20
391.3890600823542
 30
0.0
 11
1492.036180410263
 21
396.5896500173291
 31
0.0
  0
LINE
  5
B98
330
B66
100
AcDbEntity
  8
0
 62
     0
100
AcDbLine
 10
1487.113996221705
 20
398.7385336406363
 30
0.0
 11
1492.31458615668
 21
403.9391235756113
 31
0.0
  0
LINE
  5
B99
330
B66
100
AcDbEntity
  8
0
 62
     0
100
AcDbLine
 10
1487.392401968121
 20
406.0880071989185
 30
0.0
 11
1492.592991903095
 21
411.2885971338938
 31
0.0
  0
LINE
  5
B9A
330
B66
100
AcDbEntity
  8
0
 62
     0
100
AcDbLine
 10
1487.670807714537
 20
413.437480757201
 30
0.0
 11
1492.871397649513
 21
418.6380706921761
 31
0.0
  0
LINE
  5
B9B
330
B66
100
AcDbEntity
  8
0
 62
     0
100
AcDbLine
 10
1487.949213460955
 20
420.7869543154834
 30
0.0
 11
1493.14980339593
 21
425.9875442504584
 31
0.0
  0
LINE
  5
B9C
330
B66
100
AcDbEntity
  8
0
 62
     0
100
AcDbLine
 10
1488.227619207372
 20
428.1364278737657
 30
0.0
 11
1493.428209142347
 21
433.3370178087408
 31
0.0
  0
LINE
  5
B9D
330
B66
100
AcDbEntity
  8
0
 62
     0
100
AcDbLine
 10
1501.221351894254
 20
448.2012283725135
 30
0.0
 11
1506.40218355954
 21
453.3820600377999
 31
0.0
  0
LINE
  5
B9E
330
B66
100
AcDbEntity
  8
0
 62
     0
100
AcDbLine
 10
1488.506024953789
 20
435.485901432048
 30
0.0
 11
1493.706614888763
 21
440.6864913670228
 31
0.0
  0
LINE
  5
B9F
330
B66
100
AcDbEntity
  8
0
 62
     0
100
AcDbLine
 10
1502.454223002994
 20
456.5051672931185
 30
0.0
 11
1506.522003354214
 21
460.5729476443385
 31
0.0
  0
LINE
  5
BA0
330
B66
100
AcDbEntity
  8
0
 62
     0
100
AcDbLine
 10
1488.784430700206
 20
442.8353749903301
 30
0.0
 11
1498.288809871612
 21
452.3397541617383
 31
0.0
  0
LINE
  5
BA1
330
B66
100
AcDbEntity
  8
0
 62
     0
100
AcDbLine
 10
1502.574042797666
 20
463.6960548996572
 30
0.0
 11
1506.641823148886
 21
467.7638352508769
 31
0.0
  0
LINE
  5
BA2
330
B66
100
AcDbEntity
  8
0
 62
     0
100
AcDbLine
 10
1502.69386259234
 20
470.8869425061957
 30
0.0
 11
1506.761642943559
 21
474.9547228574158
 31
0.0
  0
LINE
  5
BA3
330
B66
100
AcDbEntity
  8
0
 62
     0
100
AcDbLine
 10
1502.813682387013
 20
478.0778301127344
 30
0.0
 11
1505.402200366088
 21
480.6663480918091
 31
0.0
  0
ENDBLK
  5
BA5
330
B66
100
AcDbEntity
  8
0
100
AcDbBlockEnd
  0
ENDSEC
  0
SECTION
  2
ENTITIES
  0
LINE
  5
121
330
19
100
AcDbEntity
  8
ZUWAKU
 62
     7
 48
10.0
100
AcDbLine
 10
19.90074647074651
 20
48.16690069954529
 30
0.0
 11
1611.900746470745
 21
48.16690069954507
 31
0.0
  0
LINE
  5
122
330
19
100
AcDbEntity
  8
ZUWAKU
  6
CONTINUOUS
 62
     7
100
AcDbLine
 10
1611.900746470745
 20
1124.166900699545
 30
0.0
 11
19.90074647074651
 21
1124.166900699545
 31
0.0
  0
LINE
  5
123
330
19
100
AcDbEntity
  8
ZUWAKU
  6
CONTINUOUS
 62
     7
100
AcDbLine
 10
1611.900746470745
 20
24.16690069954528
 30
0.0
 11
19.90074647074651
 21
24.16690069954528
 31
0.0
  0
LINE
  5
124
330
19
100
AcDbEntity
  8
ZUWAKU
  6
CONTINUOUS
 62
     7
100
AcDbLine
 10
19.90074647074651
 20
1124.166900699545
 30
0.0
 11
19.90074647074651
 21
24.16690069954528
 31
0.0
  0
LINE
  5
125
330
19
100
AcDbEntity
  8
ZUWAKU
 62
     7
 48
10.0
100
AcDbLine
 10
88.91574076238155
 20
24.16690069954528
 30
0.0
 11
88.91574076238155
 21
48.16690069954529
 31
0.0
  0
TEXT
  5
126
330
19
100
AcDbEntity
  8
ZUWAKU
 62
     7
100
AcDbText
 10
31.91332132304342
 20
27.64761340998802
 30
0.0
 40
16.0
  1
品 種
100
AcDbText
  0
LINE
  5
127
330
19
100
AcDbEntity
  8
ZUWAKU
 62
     7
 48
10.0
100
AcDbLine
 10
552.0054677130756
 20
24.16690069954528
 30
0.0
 11
552.0054677130756
 21
48.16690069954521
 31
0.0
  0
LINE
  5
128
330
19
100
AcDbEntity
  8
ZUWAKU
 62
     7
 48
10.0
100
AcDbLine
 10
418.8274955845217
 20
24.16690069954528
 30
0.0
 11
418.8274955845217
 21
48.16690069954525
 31
0.0
  0
TEXT
  5
129
330
19
100
AcDbEntity
  8
ZUWAKU
 62
     7
100
AcDbText
 10
564.4260762822405
 20
27.88656214294769
 30
0.0
 40
16.0
  1
落し口自在　５００
100
AcDbText
  0
TEXT
  5
12A
330
19
100
AcDbEntity
  8
ZUWAKU
 62
     7
100
AcDbText
 10
430.7119577375759
 20
28.96889043994906
 30
0.0
 40
16.0
  1
品名・ｻ ｲ ｽﾞ
100
AcDbText
  0
TEXT
  5
12B
330
19
100
AcDbEntity
  8
ZUWAKU
 62
     7
100
AcDbText
 10
100.503666760442
 20
28.80785192669509
 30
0.0
 40
16.0
  1
自在マス
100
AcDbText
  0
LINE
  5
12C
330
19
100
AcDbEntity
  8
ZUWAKU
 62
     7
 48
10.0
100
AcDbLine
 10
1537.246006285982
 20
24.16690069954474
 30
0.0
 11
1537.246006285982
 21
48.16690069954507
 31
0.0
  0
LINE
  5
12D
330
19
100
AcDbEntity
  8
ZUWAKU
 62
     7
 48
10.0
100
AcDbLine
 10
1467.423590774814
 20
24.16690069954483
 30
0.0
 11
1467.423590774814
 21
48.1669006995451
 31
0.0
  0
TEXT
  5
12E
330
19
100
AcDbEntity
  8
ZUWAKU
 62
     7
100
AcDbText
 10
1479.19091629413
 20
27.08628325011705
 30
0.0
 40
16.0
  1
尺 度
100
AcDbText
  0
TEXT
  5
12F
330
19
100
AcDbEntity
  8
ZUWAKU
 62
     7
100
AcDbText
 10
1559.274716364069
 20
27.71150653553059
 30
0.0
 40
16.0
  1
1/4
100
AcDbText
  0
TEXT
  5
130
330
19
100
AcDbEntity
  8
ZUWAKU
 62
     7
100
AcDbText
 10
1308.30613703518
 20
28.40748782453035
 30
0.0
 40
16.0
  1
ＧＦ１１
100
AcDbText
  0
TEXT
  5
131
330
19
100
AcDbEntity
  8
ZUWAKU
 62
     7
100
AcDbText
 10
1240.47244797604
 20
27.90554632275259
 30
0.0
 40
16.0
  1
品 番
100
AcDbText
  0
LINE
  5
132
330
19
100
AcDbEntity
  8
ZUWAKU
 62
     7
 48
10.0
100
AcDbLine
 10
1228.469995938249
 20
24.16690069954464
 30
0.0
 11
1228.469995938249
 21
48.16690069954511
 31
0.0
  0
LINE
  5
133
330
19
100
AcDbEntity
  8
ZUWAKU
 62
     7
 48
10.0
100
AcDbLine
 10
1297.321307773629
 20
24.16690069954464
 30
0.0
 11
1297.321307773629
 21
48.1669006995451
 31
0.0
  0
TEXT
  5
134
330
19
100
AcDbEntity
  8
ZUWAKU
 62
     7
 48
10.0
100
AcDbText
 10
1292.407013373002
 20
5.798621502208334
 30
0.0
 40
16.0
  1
積水化学工業株式会社  建材
100
AcDbText
  0
LINE
  5
135
330
19
100
AcDbEntity
  8
ZUWAKU
  6
CONTINUOUS
 62
     7
100
AcDbLine
 10
1611.900746470745
 20
1124.166900699545
 30
0.0
 11
1611.900746470745
 21
24.16690069954528
 31
0.0
  0
LINE
  5
21D
330
19
100
AcDbEntity
  8
SEIHIN
  6
CONTINUOUS
 62
     3
100
AcDbLine
 10
246.5564794376437
 20
480.6664472386648
 30
0.0
 11
417.0568794376438
 21
480.6664472386648
 31
0.0
  0
LINE
  5
21E
330
19
100
AcDbEntity
  8
SEIHIN
  6
CONTINUOUS
 62
     3
100
AcDbLine
 10
274.3705794376436
 20
180.6664472386648
 30
0.0
 11
417.0568794376438
 21
180.6664472386648
 31
0.0
  0
LINE
  5
21F
330
19
100
AcDbEntity
  8
SEIHIN
  6
CONTINUOUS
 62
     3
100
AcDbLine
 10
247.4893794376436
 20
450.6664472386647
 30
0.0
 11
417.0568794376438
 21
450.6664472386647
 31
0.0
  0
LINE
  5
220
330
19
100
AcDbEntity
  8
SEIHIN
  6
CONTINUOUS
 62
     3
100
AcDbLine
 10
259.1389794376437
 20
444.6664472386648
 30
0.0
 11
408.2564794376436
 21
444.6664472386648
 31
0.0
  0
LINE
  5
221
330
19
100
AcDbEntity
  8
SEIHIN
  6
CONTINUOUS
 62
     3
100
AcDbLine
 10
269.3740794376436
 20
185.4770472386648
 30
0.0
 11
259.6016794376437
 21
443.4610472386648
 31
0.0
  0
ARC
  5
223
330
19
100
AcDbEntity
  8
SEIHIN
  6
CONTINUOUS
 62
     3
100
AcDbCircle
 10
274.3705794376436
 20
185.6664472386649
 30
0.0
 40
4.999991999999998
100
AcDbArc
 50
182.169743
 51
270.0
  0
ARC
  5
224
330
19
100
AcDbEntity
  8
SEIHIN
  6
CONTINUOUS
 62
     3
100
AcDbCircle
 10
249.0355794376437
 20
451.9349472386648
 30
0.0
 40
2.000021999999999
100
AcDbArc
 50
180.956894
 51
244.358684
  0
ARC
  5
225
330
19
100
AcDbEntity
  8
SEIHIN
  6
CONTINUOUS
 62
     3
100
AcDbCircle
 10
249.0358794376438
 20
426.6664472386648
 30
0.0
 40
2.0
100
AcDbArc
 50
180.0
 51
270.0
  0
LINE
  5
226
330
19
100
AcDbEntity
  8
SEIHIN
  6
CONTINUOUS
 62
     3
100
AcDbLine
 10
246.5564794376437
 20
480.6664472386648
 30
0.0
 11
247.0358794376438
 21
451.9015472386647
 31
0.0
  0
LINE
  5
227
330
19
100
AcDbEntity
  8
SEIHIN
  6
CONTINUOUS
 62
     3
100
AcDbLine
 10
247.0358794376438
 20
451.9015472386647
 30
0.0
 11
247.0358794376438
 21
426.6664472386648
 31
0.0
  0
ARC
  5
228
330
19
100
AcDbEntity
  8
SEIHIN
  6
CONTINUOUS
 62
     3
100
AcDbCircle
 10
253.5747794376439
 20
434.6664472386647
 30
0.0
 40
3.25
100
AcDbArc
 50
90.0
 51
180.0
  0
ARC
  5
229
330
19
100
AcDbEntity
  8
SEIHIN
  6
CONTINUOUS
 62
     3
100
AcDbCircle
 10
253.7747794376437
 20
434.6664472386647
 30
0.0
 40
3.25
100
AcDbArc
 50
0.0
 51
90.0
  0
LINE
  5
22A
330
19
100
AcDbEntity
  8
SEIHIN
  6
CONTINUOUS
 62
     3
100
AcDbLine
 10
249.0358794376438
 20
424.6664472386648
 30
0.0
 11
250.3247794376438
 21
424.6664472386648
 31
0.0
  0
LINE
  5
22B
330
19
100
AcDbEntity
  8
SEIHIN
  6
CONTINUOUS
 62
     3
100
AcDbLine
 10
250.3247794376438
 20
424.6664472386648
 30
0.0
 11
250.3247794376438
 21
434.6664472386647
 31
0.0
  0
LINE
  5
22C
330
19
100
AcDbEntity
  8
SEIHIN
  6
CONTINUOUS
 62
     3
100
AcDbLine
 10
257.0247794376437
 20
424.6664472386648
 30
0.0
 11
257.0247794376437
 21
434.6664472386647
 31
0.0
  0
LINE
  5
22D
330
19
100
AcDbEntity
  8
SEIHIN
  6
CONTINUOUS
 62
     3
100
AcDbLine
 10
257.0247794376437
 20
424.6664472386648
 30
0.0
 11
260.3135794376437
 21
424.6664472386648
 31
0.0
  0
LINE
  5
22E
330
19
100
AcDbEntity
  8
SEIHIN
  6
CONTINUOUS
 62
     3
100
AcDbLine
 10
248.1701794376438
 20
450.1319472386648
 30
0.0
 11
258.4685794376436
 21
445.1884472386647
 31
0.0
  0
LINE
  5
22F
330
19
100
AcDbEntity
  8
SEIHIN
  6
CONTINUOUS
 62
     3
100
AcDbLine
 10
253.5747794376439
 20
437.9164472386648
 30
0.0
 11
253.7747794376437
 21
437.9164472386648
 31
0.0
  0
ARC
  5
230
330
19
100
AcDbEntity
  8
SEIHIN
  6
CONTINUOUS
 62
     3
100
AcDbCircle
 10
257.6030794376438
 20
443.3853472386648
 30
0.0
 40
2.000004
100
AcDbArc
 50
2.169127
 51
64.357445
  0
LINE
  5
231
330
19
100
AcDbEntity
  8
CENTER_L
  6
CENTER
 62
     1
 48
5.0
100
AcDbLine
 10
417.0564794376436
 20
500.9639472386647
 30
0.0
 11
417.0563794376437
 21
154.8239472386648
 31
0.0
  0
LINE
  5
232
330
19
100
AcDbEntity
  8
SEIHIN
  6
CONTINUOUS
 62
     3
100
AcDbLine
 10
564.7386794376439
 20
185.4770472386648
 30
0.0
 11
574.5113794376439
 21
443.4609472386648
 31
0.0
  0
LINE
  5
233
330
19
100
AcDbEntity
  8
SEIHIN
  6
CONTINUOUS
 62
     3
100
AcDbLine
 10
425.8786794376438
 20
445.3298472386648
 30
0.0
 11
417.0563794376437
 21
180.6664472386648
 31
0.0
  0
LINE
  5
234
330
19
100
AcDbEntity
  8
SEIHIN
  6
CONTINUOUS
 62
     3
100
AcDbLine
 10
408.2343794376438
 20
445.3298472386648
 30
0.0
 11
417.0563794376437
 21
180.6664472386648
 31
0.0
  0
LINE
  5
235
330
19
100
AcDbEntity
  8
SEIHIN
  6
CONTINUOUS
 62
     3
100
AcDbLine
 10
559.7422794376439
 20
180.6662472386648
 30
0.0
 11
417.0558794376438
 21
180.6664472386648
 31
0.0
  0
ARC
  5
236
330
19
100
AcDbEntity
  8
SEIHIN
  6
CONTINUOUS
 62
     3
100
AcDbCircle
 10
559.7422794376439
 20
185.6662472386648
 30
0.0
 40
4.999991999999998
100
AcDbArc
 50
270.0
 51
357.8302569999998
  0
LINE
  5
237
330
19
100
AcDbEntity
  8
SEIHIN
  6
CONTINUOUS
 62
     3
100
AcDbLine
 10
587.5564794376437
 20
480.6663472386648
 30
0.0
 11
417.0561794376436
 21
480.6664472386648
 31
0.0
  0
LINE
  5
238
330
19
100
AcDbEntity
  8
SEIHIN
  6
CONTINUOUS
 62
     3
100
AcDbLine
 10
586.6237794376437
 20
450.6663472386648
 30
0.0
 11
417.0561794376436
 21
450.6664472386647
 31
0.0
  0
LINE
  5
239
330
19
100
AcDbEntity
  8
SEIHIN
  6
CONTINUOUS
 62
     3
100
AcDbLine
 10
574.9740794376436
 20
444.6663472386648
 30
0.0
 11
425.8564794376439
 21
444.6664472386648
 31
0.0
  0
LINE
  5
23A
330
19
100
AcDbEntity
  8
SEIHIN
  6
CONTINUOUS
 62
     3
100
AcDbLine
 10
425.8786794376438
 20
445.3298472386648
 30
0.0
 11
408.2343794376438
 21
445.3298472386648
 31
0.0
  0
LINE
  5
23B
330
19
100
AcDbEntity
  8
SEIHIN
  6
CONTINUOUS
 62
     3
100
AcDbLine
 10
587.5564794376437
 20
480.6663472386648
 30
0.0
 11
587.0771794376437
 21
451.9015472386647
 31
0.0
  0
LINE
  5
23C
330
19
100
AcDbEntity
  8
SEIHIN
  6
CONTINUOUS
 62
     3
100
AcDbLine
 10
587.0771794376437
 20
451.9015472386647
 30
0.0
 11
587.0771794376437
 21
426.6663472386648
 31
0.0
  0
ARC
  5
23D
330
19
100
AcDbEntity
  8
SEIHIN
  6
CONTINUOUS
 62
     3
100
AcDbCircle
 10
580.5383794376437
 20
434.6663472386648
 30
0.0
 40
3.25
100
AcDbArc
 50
0.0
 51
90.0
  0
ARC
  5
23E
330
19
100
AcDbEntity
  8
SEIHIN
  6
CONTINUOUS
 62
     3
100
AcDbCircle
 10
580.3382794376439
 20
434.6663472386648
 30
0.0
 40
3.25
100
AcDbArc
 50
90.0
 51
180.0
  0
LINE
  5
23F
330
19
100
AcDbEntity
  8
SEIHIN
  6
CONTINUOUS
 62
     3
100
AcDbLine
 10
577.0882794376439
 20
424.6663472386647
 30
0.0
 11
573.7994794376438
 21
424.6663472386647
 31
0.0
  0
LINE
  5
240
330
19
100
AcDbEntity
  8
SEIHIN
  6
CONTINUOUS
 62
     3
100
AcDbLine
 10
583.7883794376437
 20
424.6663472386647
 30
0.0
 11
583.7883794376437
 21
434.6663472386648
 31
0.0
  0
LINE
  5
241
330
19
100
AcDbEntity
  8
SEIHIN
  6
CONTINUOUS
 62
     3
100
AcDbLine
 10
577.0882794376439
 20
424.6663472386647
 30
0.0
 11
577.0882794376439
 21
434.6663472386648
 31
0.0
  0
LINE
  5
242
330
19
100
AcDbEntity
  8
SEIHIN
  6
CONTINUOUS
 62
     3
100
AcDbLine
 10
585.0771794376437
 20
424.6663472386647
 30
0.0
 11
583.7883794376437
 21
424.6663472386647
 31
0.0
  0
ARC
  5
243
330
19
100
AcDbEntity
  8
SEIHIN
  6
CONTINUOUS
 62
     3
100
AcDbCircle
 10
585.0771794376437
 20
426.6663472386648
 30
0.0
 40
2.0
100
AcDbArc
 50
270.0
 51
0.0
  0
ARC
  5
244
330
19
100
AcDbEntity
  8
SEIHIN
  6
CONTINUOUS
 62
     3
100
AcDbCircle
 10
576.5099794376437
 20
443.3852472386647
 30
0.0
 40
1.999981999999999
100
AcDbArc
 50
115.6399729999999
 51
177.830873
  0
LINE
  5
245
330
19
100
AcDbEntity
  8
SEIHIN
  6
CONTINUOUS
 62
     3
100
AcDbLine
 10
585.9428794376436
 20
450.1318472386649
 30
0.0
 11
575.6443794376436
 21
445.1882472386649
 31
0.0
  0
LINE
  5
246
330
19
100
AcDbEntity
  8
SEIHIN
  6
CONTINUOUS
 62
     3
100
AcDbLine
 10
580.5383794376437
 20
437.9162472386648
 30
0.0
 11
580.3382794376439
 21
437.9162472386648
 31
0.0
  0
ARC
  5
247
330
19
100
AcDbEntity
  8
SEIHIN
  6
CONTINUOUS
 62
     3
100
AcDbCircle
 10
585.0773794376436
 20
451.9347472386647
 30
0.0
 40
1.999975999999999
100
AcDbArc
 50
295.6425549999999
 51
359.04597
  0
LINE
  5
248
330
19
100
AcDbEntity
  8
CENTER_L
  6
CENTER
 62
     1
 48
5.0
100
AcDbLine
 10
417.0566794376439
 20
637.1257433808619
 30
0.0
 11
417.0568794376438
 21
967.5980433808618
 31
0.0
  0
LINE
  5
249
330
19
100
AcDbEntity
  8
SEIHIN
  6
CONTINUOUS
 62
     3
100
AcDbLine
 10
246.5563794376437
 20
656.7948433808619
 30
0.0
 11
246.5562794376436
 21
952.295043380862
 31
0.0
  0
LINE
  5
24A
330
19
100
AcDbEntity
  8
SEIHIN
  6
CONTINUOUS
 62
     3
100
AcDbLine
 10
250.0563794376437
 20
657.2948433808619
 30
0.0
 11
250.0562794376437
 21
948.7950433808618
 31
0.0
  0
LINE
  5
24B
330
19
100
AcDbEntity
  8
SEIHIN
  6
CONTINUOUS
 62
     3
100
AcDbLine
 10
250.5200794376436
 20
657.763043380862
 30
0.0
 11
250.5202794376435
 21
948.7950433808618
 31
0.0
  0
LINE
  5
24C
330
19
100
AcDbEntity
  8
SEIHIN
  6
CONTINUOUS
 62
     3
100
AcDbLine
 10
272.9265794376436
 20
687.5409433808617
 30
0.0
 11
272.9266794376437
 21
946.8190433808617
 31
0.0
  0
LINE
  5
24D
330
19
100
AcDbEntity
  8
SEIHIN
  6
CONTINUOUS
 62
     3
100
AcDbLine
 10
262.9737794376437
 20
667.6491433808619
 30
0.0
 11
262.9738794376436
 21
948.7950433808618
 31
0.0
  0
LINE
  5
24E
330
19
100
AcDbEntity
  8
SEIHIN
  6
CONTINUOUS
 62
     3
100
AcDbLine
 10
561.1869794376437
 20
687.5407433808618
 30
0.0
 11
561.1870794376438
 21
946.8190433808617
 31
0.0
  0
LINE
  5
24F
330
19
100
AcDbEntity
  8
SEIHIN
  6
CONTINUOUS
 62
     3
100
AcDbLine
 10
583.5934794376437
 20
657.7628433808618
 30
0.0
 11
583.5935794376437
 21
948.7950433808618
 31
0.0
  0
LINE
  5
250
330
19
100
AcDbEntity
  8
SEIHIN
  6
CONTINUOUS
 62
     3
100
AcDbLine
 10
584.0571794376437
 20
657.294643380862
 30
0.0
 11
584.0574794376439
 21
948.7950433808618
 31
0.0
  0
LINE
  5
251
330
19
100
AcDbEntity
  8
SEIHIN
  6
CONTINUOUS
 62
     3
100
AcDbLine
 10
587.5571794376437
 20
656.794643380862
 30
0.0
 11
587.5574794376439
 21
952.295043380862
 31
0.0
  0
LINE
  5
252
330
19
100
AcDbEntity
  8
SEIHIN
  6
CONTINUOUS
 62
     3
100
AcDbLine
 10
571.1397794376437
 20
667.6489433808618
 30
0.0
 11
571.1398794376436
 21
948.7950433808618
 31
0.0
  0
LINE
  5
253
330
19
100
AcDbEntity
  8
SEIHIN
  6
CONTINUOUS
 62
     3
100
AcDbLine
 10
251.5563794376436
 20
651.7948433808619
 30
0.0
 11
417.0566794376439
 21
651.7948433808619
 31
0.0
  0
LINE
  5
254
330
19
100
AcDbEntity
  8
SEIHIN
  6
CONTINUOUS
 62
     3
100
AcDbLine
 10
417.0566794376439
 20
655.2948433808619
 30
0.0
 11
252.0563794376437
 21
655.2948433808619
 31
0.0
  0
LINE
  5
255
330
19
100
AcDbEntity
  8
SEIHIN
  6
CONTINUOUS
 62
     3
100
AcDbLine
 10
417.0567794376437
 20
685.5407433808617
 30
0.0
 11
274.9265794376436
 21
685.5409433808618
 31
0.0
  0
LINE
  5
256
330
19
100
AcDbEntity
  8
SEIHIN
  6
CONTINUOUS
 62
     3
100
AcDbLine
 10
417.0567794376437
 20
665.6489433808618
 30
0.0
 11
264.9737794376437
 21
665.6491433808619
 31
0.0
  0
LINE
  5
257
330
19
100
AcDbEntity
  8
SEIHIN
  6
CONTINUOUS
 62
     3
100
AcDbLine
 10
417.0566794376439
 20
655.7628433808617
 30
0.0
 11
252.5200794376436
 21
655.7630433808618
 31
0.0
  0
ARC
  5
25E
330
19
100
AcDbEntity
  8
SEIHIN
  6
CONTINUOUS
 62
     3
100
AcDbCircle
 10
251.5563794376436
 20
656.7948433808619
 30
0.0
 40
5.0
100
AcDbArc
 50
180.0
 51
270.0
  0
ARC
  5
25F
330
19
100
AcDbEntity
  8
SEIHIN
  6
CONTINUOUS
 62
     3
100
AcDbCircle
 10
274.9265794376436
 20
687.5409433808617
 30
0.0
 40
2.0
100
AcDbArc
 50
180.0
 51
270.0
  0
CIRCLE
  5
260
330
19
100
AcDbEntity
  8
SEIHIN
  6
CONTINUOUS
 62
     3
100
AcDbCircle
 10
258.0563794376437
 20
663.2948433808619
 30
0.0
 40
1.5
  0
CIRCLE
  5
261
330
19
100
AcDbEntity
  8
SEIHIN
  6
CONTINUOUS
 62
     3
100
AcDbCircle
 10
258.0563794376437
 20
663.2948433808619
 30
0.0
 40
1.75
  0
ARC
  5
262
330
19
100
AcDbEntity
  8
SEIHIN
  6
CONTINUOUS
 62
     3
100
AcDbCircle
 10
252.0563794376437
 20
657.2948433808619
 30
0.0
 40
2.0
100
AcDbArc
 50
180.0
 51
270.0
  0
ARC
  5
263
330
19
100
AcDbEntity
  8
SEIHIN
  6
CONTINUOUS
 62
     3
100
AcDbCircle
 10
252.5200794376436
 20
657.763043380862
 30
0.0
 40
2.0
100
AcDbArc
 50
180.0
 51
270.0
  0
ARC
  5
264
330
19
100
AcDbEntity
  8
SEIHIN
  6
CONTINUOUS
 62
     3
100
AcDbCircle
 10
264.9737794376437
 20
667.6491433808619
 30
0.0
 40
2.0
100
AcDbArc
 50
180.0
 51
270.0
  0
LINE
  5
265
330
19
100
AcDbEntity
  8
SEIHIN
  6
CONTINUOUS
 62
     3
100
AcDbLine
 10
263.7897794376438
 20
667.2799433808616
 30
0.0
 11
272.9265794376436
 21
685.5408433808617
 31
0.0
  0
LINE
  5
26C
330
19
100
AcDbEntity
  8
SEIHIN
  6
CONTINUOUS
 62
     3
100
AcDbLine
 10
417.0567794376437
 20
685.5406433808617
 30
0.0
 11
559.1869794376436
 21
685.5408433808617
 31
0.0
  0
LINE
  5
26D
330
19
100
AcDbEntity
  8
SEIHIN
  6
CONTINUOUS
 62
     3
100
AcDbLine
 10
417.0567794376437
 20
665.6489433808618
 30
0.0
 11
569.1397794376436
 21
665.6489433808618
 31
0.0
  0
LINE
  5
26E
330
19
100
AcDbEntity
  8
SEIHIN
  6
CONTINUOUS
 62
     3
100
AcDbLine
 10
417.0567794376437
 20
655.2947433808618
 30
0.0
 11
582.0571794376437
 21
655.294643380862
 31
0.0
  0
LINE
  5
26F
330
19
100
AcDbEntity
  8
SEIHIN
  6
CONTINUOUS
 62
     3
100
AcDbLine
 10
582.5571794376437
 20
651.7947433808618
 30
0.0
 11
417.0567794376437
 21
651.7947433808618
 31
0.0
  0
LINE
  5
270
330
19
100
AcDbEntity
  8
SEIHIN
  6
CONTINUOUS
 62
     3
100
AcDbLine
 10
417.0567794376437
 20
655.7627433808617
 30
0.0
 11
581.5934794376437
 21
655.7628433808617
 31
0.0
  0
ARC
  5
271
330
19
100
AcDbEntity
  8
SEIHIN
  6
CONTINUOUS
 62
     3
100
AcDbCircle
 10
559.1869794376436
 20
687.5407433808618
 30
0.0
 40
2.0
100
AcDbArc
 50
270.0
 51
0.0
  0
CIRCLE
  5
272
330
19
100
AcDbEntity
  8
SEIHIN
  6
CONTINUOUS
 62
     3
100
AcDbCircle
 10
576.0571794376438
 20
663.2946433808618
 30
0.0
 40
1.5
  0
CIRCLE
  5
273
330
19
100
AcDbEntity
  8
SEIHIN
  6
CONTINUOUS
 62
     3
100
AcDbCircle
 10
576.0571794376438
 20
663.2946433808618
 30
0.0
 40
1.75
  0
ARC
  5
274
330
19
100
AcDbEntity
  8
SEIHIN
  6
CONTINUOUS
 62
     3
100
AcDbCircle
 10
582.5571794376437
 20
656.794643380862
 30
0.0
 40
5.0
100
AcDbArc
 50
270.0
 51
0.0
  0
ARC
  5
275
330
19
100
AcDbEntity
  8
SEIHIN
  6
CONTINUOUS
 62
     3
100
AcDbCircle
 10
582.0571794376437
 20
657.294643380862
 30
0.0
 40
2.0
100
AcDbArc
 50
270.0
 51
0.0
  0
ARC
  5
276
330
19
100
AcDbEntity
  8
SEIHIN
  6
CONTINUOUS
 62
     3
100
AcDbCircle
 10
581.5934794376437
 20
657.7628433808618
 30
0.0
 40
2.0
100
AcDbArc
 50
270.0
 51
0.0
  0
LINE
  5
277
330
19
100
AcDbEntity
  8
SEIHIN
  6
CONTINUOUS
 62
     3
100
AcDbLine
 10
570.3237794376438
 20
667.2797433808617
 30
0.0
 11
561.1869794376437
 21
685.5405433808619
 31
0.0
  0
ARC
  5
278
330
19
100
AcDbEntity
  8
SEIHIN
  6
CONTINUOUS
 62
     3
100
AcDbCircle
 10
569.1397794376436
 20
667.6489433808618
 30
0.0
 40
2.0
100
AcDbArc
 50
270.0
 51
0.0
  0
LINE
  5
279
330
19
100
AcDbEntity
  8
SEIHIN
  6
CONTINUOUS
 62
     3
100
AcDbLine
 10
417.0566794376439
 20
954.2950433808618
 30
0.0
 11
248.5562794376436
 21
954.2950433808618
 31
0.0
  0
LINE
  5
27A
330
19
100
AcDbEntity
  8
SEIHIN
  6
CONTINUOUS
 62
     3
100
AcDbLine
 10
417.0566794376439
 20
950.7950433808618
 30
0.0
 11
252.0562794376437
 21
950.7950433808618
 31
0.0
  0
LINE
  5
27B
330
19
100
AcDbEntity
  8
SEIHIN
  6
CONTINUOUS
 62
     3
100
AcDbLine
 10
417.0570794376438
 20
948.8190433808618
 30
0.0
 11
274.9266794376437
 21
948.8190433808618
 31
0.0
  0
ARC
  5
27C
330
19
100
AcDbEntity
  8
SEIHIN
  6
CONTINUOUS
 62
     3
100
AcDbCircle
 10
248.5562794376436
 20
952.295043380862
 30
0.0
 40
2.0
100
AcDbArc
 50
90.0
 51
180.0
  0
ARC
  5
27D
330
19
100
AcDbEntity
  8
SEIHIN
  6
CONTINUOUS
 62
     3
100
AcDbCircle
 10
264.9738794376436
 20
948.7950433808618
 30
0.0
 40
2.0
100
AcDbArc
 50
90.0
 51
180.0
  0
ARC
  5
27E
330
19
100
AcDbEntity
  8
SEIHIN
  6
CONTINUOUS
 62
     3
100
AcDbCircle
 10
252.5202794376435
 20
948.7950433808618
 30
0.0
 40
2.0
100
AcDbArc
 50
90.0
 51
180.0
  0
ARC
  5
27F
330
19
100
AcDbEntity
  8
SEIHIN
  6
CONTINUOUS
 62
     3
100
AcDbCircle
 10
252.0562794376437
 20
948.7950433808618
 30
0.0
 40
2.0
100
AcDbArc
 50
90.0
 51
180.0
  0
CIRCLE
  5
280
330
19
100
AcDbEntity
  8
SEIHIN
  6
CONTINUOUS
 62
     3
100
AcDbCircle
 10
258.0562794376437
 20
946.2950433808618
 30
0.0
 40
1.5
  0
CIRCLE
  5
281
330
19
100
AcDbEntity
  8
SEIHIN
  6
CONTINUOUS
 62
     3
100
AcDbCircle
 10
258.0562794376437
 20
946.2950433808618
 30
0.0
 40
1.75
  0
ARC
  5
282
330
19
100
AcDbEntity
  8
SEIHIN
  6
CONTINUOUS
 62
     3
100
AcDbCircle
 10
274.9266794376437
 20
946.8190433808617
 30
0.0
 40
2.0
100
AcDbArc
 50
90.0
 51
180.0
  0
LINE
  5
283
330
19
100
AcDbEntity
  8
SEIHIN
  6
CONTINUOUS
 62
     3
100
AcDbLine
 10
417.0566794376439
 20
948.8190433808618
 30
0.0
 11
559.1870794376439
 21
948.8190433808618
 31
0.0
  0
LINE
  5
284
330
19
100
AcDbEntity
  8
SEIHIN
  6
CONTINUOUS
 62
     3
100
AcDbLine
 10
417.0570794376438
 20
950.7950433808618
 30
0.0
 11
582.0574794376438
 21
950.7950433808618
 31
0.0
  0
LINE
  5
285
330
19
100
AcDbEntity
  8
SEIHIN
  6
CONTINUOUS
 62
     3
100
AcDbLine
 10
417.0570794376438
 20
954.2950433808618
 30
0.0
 11
585.5574794376439
 21
954.2950433808618
 31
0.0
  0
ARC
  5
286
330
19
100
AcDbEntity
  8
SEIHIN
  6
CONTINUOUS
 62
     3
100
AcDbCircle
 10
559.1870794376439
 20
946.8190433808617
 30
0.0
 40
2.0
100
AcDbArc
 50
0.0
 51
90.0
  0
ARC
  5
287
330
19
100
AcDbEntity
  8
SEIHIN
  6
CONTINUOUS
 62
     3
100
AcDbCircle
 10
569.1398794376437
 20
948.7950433808618
 30
0.0
 40
2.0
100
AcDbArc
 50
0.0
 51
90.0
  0
ARC
  5
288
330
19
100
AcDbEntity
  8
SEIHIN
  6
CONTINUOUS
 62
     3
100
AcDbCircle
 10
581.5935794376437
 20
948.7950433808618
 30
0.0
 40
2.0
100
AcDbArc
 50
0.0
 51
90.0
  0
ARC
  5
289
330
19
100
AcDbEntity
  8
SEIHIN
  6
CONTINUOUS
 62
     3
100
AcDbCircle
 10
582.0574794376438
 20
948.7950433808618
 30
0.0
 40
2.0
100
AcDbArc
 50
0.0
 51
90.0
  0
CIRCLE
  5
28A
330
19
100
AcDbEntity
  8
SEIHIN
  6
CONTINUOUS
 62
     3
100
AcDbCircle
 10
576.0574794376439
 20
946.2950433808618
 30
0.0
 40
1.5
  0
CIRCLE
  5
28B
330
19
100
AcDbEntity
  8
SEIHIN
  6
CONTINUOUS
 62
     3
100
AcDbCircle
 10
576.0574794376439
 20
946.2950433808618
 30
0.0
 40
1.75
  0
ARC
  5
28C
330
19
100
AcDbEntity
  8
SEIHIN
  6
CONTINUOUS
 62
     3
100
AcDbCircle
 10
585.5574794376439
 20
952.295043380862
 30
0.0
 40
2.0
100
AcDbArc
 50
0.0
 51
90.0
  0
LINE
  5
297
330
19
100
AcDbEntity
  8
SEIHIN
  6
CONTINUOUS
 62
     3
100
AcDbLine
 10
750.1006722341301
 20
480.6663472386648
 30
0.0
 11
1052.60127223413
 21
480.6663472386648
 31
0.0
  0
LINE
  5
298
330
19
100
AcDbEntity
  8
SEIHIN
  6
CONTINUOUS
 62
     3
100
AcDbLine
 10
750.9412722341301
 20
450.6664472386647
 30
0.0
 11
1045.60127223413
 21
450.6664472386647
 31
0.0
  0
LINE
  5
299
330
19
100
AcDbEntity
  8
SEIHIN
  6
CONTINUOUS
 62
     3
100
AcDbLine
 10
760.2493722341299
 20
444.6664472386648
 30
0.0
 11
1045.60127223413
 21
444.6664472386648
 31
0.0
  0
LINE
  5
29A
330
19
100
AcDbEntity
  8
SEIHIN
  6
CONTINUOUS
 62
     3
100
AcDbLine
 10
783.8078151219527
 20
180.6662472386648
 30
0.0
 11
1046.62727223413
 21
180.6662472386648
 31
0.0
  0
LINE
  5
29C
330
19
100
AcDbEntity
  8
SEIHIN
  6
CONTINUOUS
 62
     3
100
AcDbLine
 10
780.3206722341301
 20
184.3641472386648
 30
0.0
 11
760.6789722341298
 21
443.6348472386647
 31
0.0
  0
ARC
  5
2A3
330
19
100
AcDbEntity
  8
SEIHIN
  6
CONTINUOUS
 62
     3
100
AcDbCircle
 10
784.3091722341299
 20
184.6662472386648
 30
0.0
 40
4.000011999999999
100
AcDbArc
 50
184.331362
 51
270.0
  0
LINE
  5
2A8
330
19
100
AcDbEntity
  8
SEIHIN
  6
CONTINUOUS
 62
     3
100
AcDbLine
 10
750.5822722341299
 20
451.7767472386648
 30
0.0
 11
750.1006722341301
 21
480.6663472386648
 31
0.0
  0
LINE
  5
2A9
330
19
100
AcDbEntity
  8
SEIHIN
  6
CONTINUOUS
 62
     3
100
AcDbLine
 10
759.7135722341299
 20
445.1986472386646
 30
0.0
 11
751.5529722341299
 21
450.0951472386647
 31
0.0
  0
ARC
  5
2AA
330
19
100
AcDbEntity
  8
SEIHIN
  6
CONTINUOUS
 62
     3
100
AcDbCircle
 10
752.5819722341299
 20
451.8100472386647
 30
0.0
 40
1.999877999999999
100
AcDbArc
 50
180.9540769999999
 51
239.0372259999999
  0
ARC
  5
2AB
330
19
100
AcDbEntity
  8
SEIHIN
  6
CONTINUOUS
 62
     3
100
AcDbCircle
 10
758.6846722341299
 20
443.4836472386647
 30
0.0
 40
2.000016
100
AcDbArc
 50
4.33279
 51
59.036243
  0
LINE
  5
2AC
330
19
100
AcDbEntity
  8
SEIHIN
  6
CONTINUOUS
 62
     3
100
AcDbLine
 10
1052.60127223413
 20
480.6663472386648
 30
0.0
 11
1050.62727223413
 21
184.6396472386648
 31
0.0
  0
ARC
  5
2AD
330
19
100
AcDbEntity
  8
SEIHIN
  6
CONTINUOUS
 62
     3
100
AcDbCircle
 10
1046.62727223413
 20
184.6662472386648
 30
0.0
 40
4.000043999999999
100
AcDbArc
 50
270.0
 51
359.618989
  0
LINE
  5
2AE
330
19
100
AcDbEntity
  8
SEIHIN
  6
CONTINUOUS
 62
     3
100
AcDbLine
 10
1045.60127223413
 20
450.6662472386647
 30
0.0
 11
1045.60127223413
 21
424.6664472386648
 31
0.0
  0
LINE
  5
2AF
330
19
100
AcDbEntity
  8
SEIHIN
  6
CONTINUOUS
 62
     3
100
AcDbLine
 10
1052.22727223413
 20
424.6664472386648
 30
0.0
 11
1045.60127223413
 21
424.6664472386648
 31
0.0
  0
LINE
  5
2C9
330
19
100
AcDbEntity
  8
CENTER_L
  6
CENTER
 62
     1
 48
5.0
100
AcDbLine
 10
580.3382807366419
 20
439.1626992779523
 30
0.0
 11
580.3382780230276
 21
429.7697953149958
 31
0.0
  0
LINE
  5
2CA
330
19
100
AcDbEntity
  8
CENTER_L
  6
CENTER
 62
     1
 48
5.0
100
AcDbLine
 10
575.6418273983566
 20
434.466248653281
 30
0.0
 11
585.0347313613132
 21
434.4662459396669
 31
0.0
  0
LINE
  5
2CC
330
19
100
AcDbEntity
  8
CENTER_L
  6
CENTER
 62
     1
 48
5.0
100
AcDbLine
 10
258.4710930545277
 20
434.4663402840474
 30
0.0
 11
249.0781890915713
 21
434.4663429976613
 31
0.0
  0
LINE
  5
2CD
330
19
100
AcDbEntity
  8
CENTER_L
  6
CENTER
 62
     1
 48
5.0
100
AcDbLine
 10
253.7746424298566
 20
439.1627936223327
 30
0.0
 11
253.7746397162421
 21
429.769889659376
 31
0.0
  0
DIMENSION
  5
2DA
330
19
100
AcDbEntity
  8
SUNPOU
  6
CONTINUOUS
100
AcDbDimension
  2
*D1
 10
253.7746424298566
 20
526.8610015698477
 30
0.0
 11
417.0564615832493
 21
536.8610015698477
 31
0.0
 70
    32
  3
STANDARD
100
AcDbAlignedDimension
 13
580.3382807366419
 23
439.1626992779523
 33
0.0
 14
253.7746424298566
 24
439.1627936223327
 34
0.0
100
AcDbRotatedDimension
1001
ACAD
1000
DSTYLE
1002
{
1070
   140
1040
12.0
1070
    74
1070
     0
1070
   172
1070
     1
1070
    73
1070
     0
1070
   272
1070
     2
1070
    77
1070
     3
1070
   173
1070
     1
1070
   147
1040
4.0
1070
    42
1040
12.0
1070
    44
1040
6.0
1070
    43
1040
28.0
1070
   271
1070
     0
1070
   178
1070
     4
1070
   177
1070
     4
1070
   176
1070
     4
1070
   141
1040
150.0
1070
     7
1000
_OPEN
1070
     6
1000
_OPEN
1070
    41
1040
14.0
1070
   143
1040
0.03937
1002
}
  0
DIMENSION
  5
2E7
330
19
100
AcDbEntity
  8
SUNPOU
  6
CONTINUOUS
100
AcDbDimension
  2
*D2
 10
246.5564794376438
 20
556.3614302620781
 30
0.0
 11
417.0564794376436
 21
566.3614302620779
 31
0.0
 70
    32
  3
STANDARD
100
AcDbAlignedDimension
 13
587.5564794376437
 23
480.6663472386648
 33
0.0
 14
246.5564794376438
 24
480.6664472386648
 34
0.0
100
AcDbRotatedDimension
1001
ACAD
1000
DSTYLE
1002
{
1070
   140
1040
12.0
1070
    74
1070
     0
1070
   172
1070
     1
1070
    73
1070
     0
1070
   272
1070
     2
1070
    77
1070
     3
1070
   173
1070
     1
1070
   147
1040
4.0
1070
    42
1040
12.0
1070
    44
1040
6.0
1070
    43
1040
28.0
1070
   271
1070
     0
1070
   178
1070
     4
1070
   177
1070
     4
1070
   176
1070
     4
1070
   141
1040
150.0
1070
     7
1000
_OPEN
1070
     6
1000
_OPEN
1070
    41
1040
14.0
1070
   143
1040
0.03937
1002
}
  0
DIMENSION
  5
2F4
330
19
100
AcDbEntity
  8
SUNPOU
  6
CONTINUOUS
100
AcDbDimension
  2
*D3
 10
632.6857016255262
 20
180.6662472386648
 30
0.0
 11
622.6857016255262
 21
307.5662465891658
 31
0.0
 70
    32
  3
STANDARD
100
AcDbAlignedDimension
 13
585.0347313613132
 23
434.4662459396669
 33
0.0
 14
559.7422794376439
 24
180.6662472386648
 34
0.0
 50
90.0
100
AcDbRotatedDimension
1001
ACAD
1000
DSTYLE
1002
{
1070
   140
1040
12.0
1070
    74
1070
     0
1070
   172
1070
     1
1070
    73
1070
     0
1070
   272
1070
     2
1070
    77
1070
     3
1070
   173
1070
     1
1070
   147
1040
4.0
1070
    42
1040
12.0
1070
    44
1040
6.0
1070
    43
1040
28.0
1070
   271
1070
     0
1070
   178
1070
     4
1070
   177
1070
     4
1070
   176
1070
     4
1070
   141
1040
150.0
1070
     7
1000
_OPEN
1070
     6
1000
_OPEN
1070
    41
1040
14.0
1070
   143
1040
0.03937
1002
}
  0
DIMENSION
  5
301
330
19
100
AcDbEntity
  8
SUNPOU
  6
CONTINUOUS
100
AcDbDimension
  2
*D4
 10
667.0930458585752
 20
180.6662472386648
 30
0.0
 11
657.0930458585752
 21
330.6662972386648
 31
0.0
 70
    32
  3
STANDARD
100
AcDbAlignedDimension
 13
587.5564794376437
 23
480.6663472386648
 33
0.0
 14
559.7422794376439
 24
180.6662472386648
 34
0.0
 50
90.0
100
AcDbRotatedDimension
1001
ACAD
1000
DSTYLE
1002
{
1070
   140
1040
12.0
1070
    74
1070
     0
1070
   172
1070
     1
1070
    73
1070
     0
1070
   272
1070
     2
1070
    77
1070
     3
1070
   173
1070
     1
1070
   147
1040
4.0
1070
    42
1040
12.0
1070
    44
1040
6.0
1070
    43
1040
28.0
1070
   271
1070
     0
1070
   178
1070
     4
1070
   177
1070
     4
1070
   176
1070
     4
1070
   141
1040
150.0
1070
     7
1000
_OPEN
1070
     6
1000
_OPEN
1070
    41
1040
14.0
1070
   143
1040
0.03937
1002
}
  0
DIMENSION
  5
30E
330
19
100
AcDbEntity
  8
SUNPOU
  6
CONTINUOUS
100
AcDbDimension
  2
*D5
 10
750.1006722341301
 20
526.6194335631706
 30
0.0
 11
901.3509722341302
 21
536.6194335631708
 31
0.0
 70
    32
  3
STANDARD
100
AcDbAlignedDimension
 13
1052.60127223413
 23
480.6663472386648
 33
0.0
 14
750.1006722341301
 24
480.6663472386648
 34
0.0
100
AcDbRotatedDimension
1001
ACAD
1000
DSTYLE
1002
{
1070
   140
1040
12.0
1070
    74
1070
     0
1070
   172
1070
     1
1070
    73
1070
     0
1070
   272
1070
     2
1070
    77
1070
     3
1070
   173
1070
     1
1070
   147
1040
4.0
1070
    42
1040
12.0
1070
    44
1040
6.0
1070
    43
1040
28.0
1070
   271
1070
     0
1070
   178
1070
     4
1070
   177
1070
     4
1070
   176
1070
     4
1070
   141
1040
150.0
1070
     7
1000
_OPEN
1070
     6
1000
_OPEN
1070
    41
1040
14.0
1070
   143
1040
0.03937
1002
}
  0
DIMENSION
  5
31B
330
19
100
AcDbEntity
  8
SUNPOU
  6
CONTINUOUS
100
AcDbDimension
  2
*D6
 10
780.6008158925919
 20
117.400868137201
 30
0.0
 11
915.6007961171454
 21
127.4008681372009
 31
0.0
 70
    32
  3
STANDARD
100
AcDbAlignedDimension
 13
1050.600776341698
 23
180.6662472386648
 33
0.0
 14
780.6008158925919
 24
180.6662472386648
 34
0.0
100
AcDbRotatedDimension
1001
ACAD
1000
DSTYLE
1002
{
1070
   140
1040
12.0
1070
    74
1070
     0
1070
   172
1070
     1
1070
    73
1070
     0
1070
   272
1070
     2
1070
    77
1070
     3
1070
   173
1070
     1
1070
   147
1040
4.0
1070
    42
1040
12.0
1070
    44
1040
6.0
1070
    43
1040
28.0
1070
   271
1070
     0
1070
   178
1070
     4
1070
   177
1070
     4
1070
   176
1070
     4
1070
   141
1040
150.0
1070
     7
1000
_OPEN
1070
     6
1000
_OPEN
1070
    41
1040
14.0
1070
   143
1040
0.03937
1002
}
  0
DIMENSION
  5
328
330
19
100
AcDbEntity
  8
SUNPOU
  6
CONTINUOUS
100
AcDbDimension
  2
*D7
 10
269.556304333141
 20
117.400868137201
 30
0.0
 11
417.0563726893785
 21
127.4008681372009
 31
0.0
 70
    32
  3
STANDARD
100
AcDbAlignedDimension
 13
564.5564410456159
 23
180.6662404907735
 33
0.0
 14
269.556304333141
 24
180.6664472386648
 34
0.0
100
AcDbRotatedDimension
1001
ACAD
1000
DSTYLE
1002
{
1070
   140
1040
12.0
1070
    74
1070
     0
1070
   172
1070
     1
1070
    73
1070
     0
1070
   272
1070
     2
1070
    77
1070
     3
1070
   173
1070
     1
1070
   147
1040
4.0
1070
    42
1040
12.0
1070
    44
1040
6.0
1070
    43
1040
28.0
1070
   271
1070
     0
1070
   178
1070
     4
1070
   177
1070
     4
1070
   176
1070
     4
1070
   141
1040
150.0
1070
     7
1000
_OPEN
1070
     6
1000
_OPEN
1070
    41
1040
14.0
1070
   143
1040
0.03937
1002
}
  0
LINE
  5
32E
330
19
100
AcDbEntity
  8
CENTER_L
  6
CENTER
100
AcDbLine
 10
1038.850444580023
 20
434.4662459396669
 30
0.0
 11
1062.544867767946
 21
434.4662459396669
 31
0.0
  0
LINE
  5
57E
330
19
100
AcDbEntity
  8
SEIHIN
  6
CONTINUOUS
 62
     3
100
AcDbLine
 10
1221.744397859569
 20
1092.671735143649
 30
0.0
 11
1060.744397859569
 21
1092.671835143649
 31
0.0
  0
LINE
  5
57F
330
19
100
AcDbEntity
  8
SEIHIN
  6
CONTINUOUS
 62
     3
100
AcDbLine
 10
1221.744397859569
 20
800.6716351436493
 30
0.0
 11
1060.744397859569
 21
800.6714351436492
 31
0.0
  0
LINE
  5
582
330
19
100
AcDbEntity
  8
CENTER_L
  6
CENTER
 62
     1
 48
5.0
100
AcDbLine
 10
1035.168297859569
 20
946.6716351436495
 30
0.0
 11
1403.64489785957
 21
946.6716351436495
 31
0.0
  0
DIMENSION
  5
583
330
19
100
AcDbEntity
  8
SUNPOU
  6
CONTINUOUS
100
AcDbDimension
  2
*D10
 10
1062.744297859569
 20
746.3121224746396
 30
0.0
 11
1221.74424785957
 21
756.3121224746396
 31
0.0
 70
    32
  3
STANDARD
100
AcDbAlignedDimension
 13
1380.744197859569
 23
802.0113618533235
 33
0.0
 14
1062.744297859569
 24
802.0111618533235
 34
0.0
100
AcDbRotatedDimension
1001
ACAD
1000
DSTYLE
1002
{
1070
   140
1040
12.0
1070
    74
1070
     0
1070
   172
1070
     1
1070
    73
1070
     0
1070
   272
1070
     2
1070
    77
1070
     3
1070
   173
1070
     1
1070
   147
1040
4.0
1070
    42
1040
12.0
1070
    44
1040
6.0
1070
    43
1040
28.0
1070
   271
1070
     0
1070
   178
1070
     4
1070
   177
1070
     4
1070
   176
1070
     4
1070
   141
1040
150.0
1070
     7
1000
_OPEN
1070
     6
1000
_OPEN
1070
    41
1040
14.0
1070
   143
1040
0.03937
1002
}
  0
DIMENSION
  5
584
330
19
100
AcDbEntity
  8
SUNPOU
  6
CONTINUOUS
100
AcDbDimension
  2
*D9
 10
1055.744397859568
 20
718.0640919167662
 30
0.0
 11
1221.74429785957
 21
728.0640919167661
 31
0.0
 70
    32
  3
STANDARD
100
AcDbAlignedDimension
 13
1387.744197859569
 23
805.6716351436492
 33
0.0
 14
1055.744397859568
 24
805.6714351436493
 34
0.0
100
AcDbRotatedDimension
1001
ACAD
1000
DSTYLE
1002
{
1070
   140
1040
12.0
1070
    74
1070
     0
1070
   172
1070
     1
1070
    73
1070
     0
1070
   272
1070
     2
1070
    77
1070
     3
1070
   173
1070
     1
1070
   147
1040
4.0
1070
    42
1040
12.0
1070
    44
1040
6.0
1070
    43
1040
28.0
1070
   271
1070
     0
1070
   178
1070
     4
1070
   177
1070
     4
1070
   176
1070
     4
1070
   141
1040
150.0
1070
     7
1000
_OPEN
1070
     6
1000
_OPEN
1070
    41
1040
14.0
1070
   143
1040
0.03937
1002
}
  0
LINE
  5
585
330
19
100
AcDbEntity
  8
SEIHIN
  6
CONTINUOUS
 62
     3
100
AcDbLine
 10
1055.744197859568
 20
946.6714351436493
 30
0.0
 11
1055.744397859568
 21
805.6714351436493
 31
0.0
  0
LINE
  5
588
330
19
100
AcDbEntity
  8
CENTER_L
  6
CENTER
 62
     1
 48
5.0
100
AcDbLine
 10
1057.584024569243
 20
807.1714351436494
 30
0.0
 11
1067.904571149895
 21
807.1714351436494
 31
0.0
  0
ARC
  5
589
330
19
100
AcDbEntity
  8
SEIHIN
  6
CONTINUOUS
 62
     3
100
AcDbCircle
 10
1062.744297859569
 20
807.1714351436494
 30
0.0
 40
1.499999999999943
100
AcDbArc
 50
180.0
 51
0.0
  0
ARC
  5
58A
330
19
100
AcDbEntity
  8
SEIHIN
  6
CONTINUOUS
 62
     3
100
AcDbCircle
 10
1062.744297859569
 20
807.1714351436494
 30
0.0
 40
1.5
100
AcDbArc
 50
0.0
 51
180.0
  0
LINE
  5
58B
330
19
100
AcDbEntity
  8
CENTER_L
  6
CENTER
 62
     1
 48
5.0
100
AcDbLine
 10
1062.744297859569
 20
802.0111618533235
 30
0.0
 11
1062.744297859569
 21
812.3317084339751
 31
0.0
  0
ARC
  5
58C
330
19
100
AcDbEntity
  8
SEIHIN
  6
CONTINUOUS
 62
     3
100
AcDbCircle
 10
1060.744397859568
 20
805.6714351436493
 30
0.0
 40
5.000000000000056
100
AcDbArc
 50
180.0
 51
270.0
  0
LINE
  5
58D
330
19
100
AcDbEntity
  8
SEIHIN
  6
CONTINUOUS
 62
     3
100
AcDbLine
 10
1055.744197859568
 20
946.6718351436494
 30
0.0
 11
1055.744397859568
 21
1087.671835143648
 31
0.0
  0
LINE
  5
58E
330
19
100
AcDbEntity
  8
CENTER_L
  6
CENTER
 62
     1
 48
5.0
100
AcDbLine
 10
1057.584024569243
 20
1086.171435143649
 30
0.0
 11
1067.904571149895
 21
1086.171435143649
 31
0.0
  0
ARC
  5
58F
330
19
100
AcDbEntity
  8
SEIHIN
  6
CONTINUOUS
 62
     3
100
AcDbCircle
 10
1062.744297859569
 20
1086.171835143648
 30
0.0
 40
1.499999999999943
100
AcDbArc
 50
180.0
 51
0.0
  0
ARC
  5
590
330
19
100
AcDbEntity
  8
SEIHIN
  6
CONTINUOUS
 62
     3
100
AcDbCircle
 10
1062.744297859569
 20
1086.171835143648
 30
0.0
 40
1.5
100
AcDbArc
 50
0.0
 51
180.0
  0
LINE
  5
591
330
19
100
AcDbEntity
  8
CENTER_L
  6
CENTER
 62
     1
 48
5.0
100
AcDbLine
 10
1062.744297859569
 20
1081.011161853323
 30
0.0
 11
1062.744297859569
 21
1091.331708433975
 31
0.0
  0
ARC
  5
592
330
19
100
AcDbEntity
  8
SEIHIN
  6
CONTINUOUS
 62
     3
100
AcDbCircle
 10
1060.744397859568
 20
1087.671835143648
 30
0.0
 40
5.0
100
AcDbArc
 50
90.0
 51
180.0
  0
LINE
  5
593
330
19
100
AcDbEntity
  8
SEIHIN
  6
CONTINUOUS
 62
     3
100
AcDbLine
 10
1387.744197859569
 20
942.6716351436494
 30
0.0
 11
1387.744197859569
 21
893.4320351436493
 31
0.0
  0
LINE
  5
594
330
19
100
AcDbEntity
  8
SEIHIN
  6
CONTINUOUS
 62
     3
100
AcDbLine
 10
1387.744197859569
 20
946.6716351436495
 30
0.0
 11
1387.744197859569
 21
805.6716351436492
 31
0.0
  0
DIMENSION
  5
595
330
19
100
AcDbEntity
  8
SUNPOU
  6
CONTINUOUS
100
AcDbDimension
  2
*D13
 10
1446.727589247423
 20
807.1716351436492
 30
0.0
 11
1436.727589247423
 21
946.6716351436495
 31
0.0
 70
    32
  3
STANDARD
100
AcDbAlignedDimension
 13
1385.904471149895
 23
1086.171635143649
 33
0.0
 14
1385.904471149895
 24
807.1716351436492
 34
0.0
 50
90.0
100
AcDbRotatedDimension
1001
ACAD
1000
DSTYLE
1002
{
1070
   140
1040
12.0
1070
    74
1070
     0
1070
   172
1070
     1
1070
    73
1070
     0
1070
   272
1070
     2
1070
    77
1070
     3
1070
   173
1070
     1
1070
   147
1040
4.0
1070
    42
1040
12.0
1070
    44
1040
6.0
1070
    43
1040
28.0
1070
   271
1070
     0
1070
   178
1070
     4
1070
   177
1070
     4
1070
   176
1070
     4
1070
   141
1040
150.0
1070
     7
1000
_OPEN
1070
     6
1000
_OPEN
1070
    41
1040
14.0
1070
   143
1040
0.03937
1002
}
  0
DIMENSION
  5
596
330
19
100
AcDbEntity
  8
SUNPOU
  6
CONTINUOUS
100
AcDbDimension
  2
*D12
 10
1475.629018647377
 20
800.6716351436493
 30
0.0
 11
1465.629018647376
 21
946.6716351436495
 31
0.0
 70
    32
  3
STANDARD
100
AcDbAlignedDimension
 13
1382.74419785957
 23
1092.671635143648
 33
0.0
 14
1382.74419785957
 24
800.6716351436493
 34
0.0
 50
90.0
100
AcDbRotatedDimension
1001
ACAD
1000
DSTYLE
1002
{
1070
   140
1040
12.0
1070
    74
1070
     0
1070
   172
1070
     1
1070
    73
1070
     0
1070
   272
1070
     2
1070
    77
1070
     3
1070
   173
1070
     1
1070
   147
1040
4.0
1070
    42
1040
12.0
1070
    44
1040
6.0
1070
    43
1040
28.0
1070
   271
1070
     0
1070
   178
1070
     4
1070
   177
1070
     4
1070
   176
1070
     4
1070
   141
1040
150.0
1070
     7
1000
_OPEN
1070
     6
1000
_OPEN
1070
    41
1040
14.0
1070
   143
1040
0.03937
1002
}
  0
LINE
  5
597
330
19
100
AcDbEntity
  8
CENTER_L
  6
CENTER
 62
     1
 48
5.0
100
AcDbLine
 10
1221.744097859569
 20
785.0635351436493
 30
0.0
 11
1221.74429785957
 21
1106.143735143648
 31
0.0
  0
MTEXT
  5
598
330
19
100
AcDbEntity
  8
SUNPOU
  6
CONTINUOUS
 62
     4
100
AcDbMText
 10
1414.766377096572
 20
764.5063445340806
 30
0.0
 40
12.0
 41
0.0
 71
     7
 72
     1
  1
4-φ3.0
1001
ACAD
1000
MTEXTBEGIN
1070
    73
1070
     1
1070
    44
1040
1.0
1070
    74
1070
     0
1000
MTEXTEND
1000
MTEXTBEGIN
1070
    73
1070
     1
1070
    44
1040
1.0
1070
    74
1070
     0
1000
MTEXTEND
1000
MTEXTBEGIN
1070
    73
1070
     1
1070
    44
1040
1.0
1070
    74
1070
     0
1000
MTEXTEND
1000
MTEXTBEGIN
1070
    73
1070
     1
1070
    44
1040
1.0
1070
    74
1070
     0
1000
MTEXTEND
  0
LEADER
  5
599
330
19
100
AcDbEntity
  8
SUNPOU
  6
CONTINUOUS
 62
     4
100
AcDbLeader
  3
STANDARD
 73
     0
 74
     0
 40
12.0
 41
60.39999999999999
 76
     3
 10
1382.263723356714
 20
805.6857508168114
 30
0.0
 10
1408.773959221249
 20
760.5063445340806
 30
0.0
 10
1410.766377096573
 20
760.5063445340806
 30
0.0
1001
ACAD
1000
DSTYLE
1002
{
1070
     6
1000
OPEN
1070
    41
1040
14.0
1070
    42
1040
12.0
1070
    43
1040
28.0
1070
    44
1040
6.0
1070
    73
1070
     0
1070
    74
1070
     0
1070
    77
1070
     3
1070
   140
1040
12.0
1070
   141
1040
150.0
1070
   143
1040
0.03937
1070
   147
1040
4.0
1070
   172
1070
     1
1070
   173
1070
     1
1070
   176
1070
     4
1070
   177
1070
     4
1070
   178
1070
     4
1070
   271
1070
     0
1070
   272
1070
     2
1070
   341
1005
27
1070
   343
1005
27
1070
   344
1005
27
1002
}
1000
LEANOF
1010
0.0
1020
0.0
1030
0.0
1000
LEANOF
1010
0.0
1020
0.0
1030
0.0
  0
LINE
  5
5A3
330
19
100
AcDbEntity
  8
SEIHIN
  6
CONTINUOUS
 62
     3
100
AcDbLine
 10
1221.744197859568
 20
800.6716351436493
 30
0.0
 11
1382.74419785957
 21
800.6716351436493
 31
0.0
  0
DIMENSION
  5
5A4
330
19
100
AcDbEntity
  8
SUNPOU
  6
CONTINUOUS
100
AcDbDimension
  2
*D8
 10
1276.956668412251
 20
800.6716351436493
 30
0.0
 11
1266.95666841225
 21
830.6716351436495
 31
0.0
 70
    32
  3
STANDARD
100
AcDbAlignedDimension
 13
1308.406397859569
 23
860.6716351436492
 33
0.0
 14
1382.74419785957
 24
800.6716351436493
 34
0.0
 50
90.0
100
AcDbRotatedDimension
1001
ACAD
1000
DSTYLE
1002
{
1070
   140
1040
12.0
1070
    74
1070
     0
1070
   172
1070
     1
1070
    73
1070
     0
1070
   272
1070
     2
1070
    77
1070
     3
1070
   173
1070
     1
1070
   147
1040
4.0
1070
    42
1040
12.0
1070
    44
1040
6.0
1070
    43
1040
28.0
1070
   271
1070
     0
1070
   178
1070
     4
1070
   177
1070
     4
1070
   176
1070
     4
1070
   141
1040
150.0
1070
     7
1000
_OPEN
1070
     6
1000
_OPEN
1070
    41
1040
14.0
1070
   143
1040
0.03937
1002
}
  0
LINE
  5
5A5
330
19
100
AcDbEntity
  8
CENTER_L
  6
CENTER
 62
     1
 48
5.0
100
AcDbLine
 10
1327.744197859568
 20
840.7764351436494
 30
0.0
 11
1327.744197859568
 21
879.3662351436491
 31
0.0
  0
LEADER
  5
5A6
330
19
100
AcDbEntity
  8
SUNPOU
  6
CONTINUOUS
 62
     4
100
AcDbLeader
  3
STANDARD
 73
     0
 74
     0
 40
12.0
 41
32.4
 76
     3
 10
1332.79565303903
 20
850.9752063093849
 30
0.0
 10
1342.678664224628
 20
823.5231878085251
 30
0.0
 10
1345.248242350991
 20
823.5231878085251
 30
0.0
1001
ACAD
1000
DSTYLE
1002
{
1070
     6
1000
OPEN
1070
    41
1040
14.0
1070
    42
1040
12.0
1070
    43
1040
28.0
1070
    44
1040
6.0
1070
    73
1070
     0
1070
    74
1070
     0
1070
    77
1070
     3
1070
   140
1040
12.0
1070
   141
1040
150.0
1070
   143
1040
0.03937
1070
   147
1040
4.0
1070
   172
1070
     1
1070
   173
1070
     1
1070
   176
1070
     4
1070
   177
1070
     4
1070
   178
1070
     4
1070
   271
1070
     0
1070
   272
1070
     2
1070
   341
1005
27
1070
   343
1005
27
1070
   344
1005
27
1002
}
1000
LEANOF
1010
0.0
1020
0.0
1030
0.0
1000
LEANOF
1010
0.0
1020
0.0
1030
0.0
  0
DIMENSION
  5
5A7
330
19
100
AcDbEntity
  8
SUNPOU
  6
CONTINUOUS
100
AcDbDimension
  2
*D11
 10
1327.744197859568
 20
910.32291440877
 30
0.0
 11
1357.744197859569
 21
920.32291440877
 31
0.0
 70
    32
  3
STANDARD
100
AcDbAlignedDimension
 13
1387.744197859569
 23
805.6716351436492
 33
0.0
 14
1327.744197859568
 24
879.3662351436491
 34
0.0
100
AcDbRotatedDimension
1001
ACAD
1000
DSTYLE
1002
{
1070
   140
1040
12.0
1070
    74
1070
     0
1070
   172
1070
     1
1070
    73
1070
     0
1070
   272
1070
     2
1070
    77
1070
     3
1070
   173
1070
     1
1070
   147
1040
4.0
1070
    42
1040
12.0
1070
    44
1040
6.0
1070
    43
1040
28.0
1070
   271
1070
     0
1070
   178
1070
     4
1070
   177
1070
     4
1070
   176
1070
     4
1070
   141
1040
150.0
1070
     7
1000
_OPEN
1070
     6
1000
_OPEN
1070
    41
1040
14.0
1070
   143
1040
0.03937
1002
}
  0
MTEXT
  5
5A8
330
19
100
AcDbEntity
  8
SUNPOU
  6
CONTINUOUS
 62
     4
100
AcDbMText
 10
1349.248242350991
 20
827.5231878085248
 30
0.0
 40
12.0
 41
0.0
 71
     7
 72
     1
  1
φ20
1001
ACAD
1000
MTEXTBEGIN
1070
    73
1070
     1
1070
    44
1040
1.0
1070
    74
1070
     0
1000
MTEXTEND
1000
MTEXTBEGIN
1070
    73
1070
     1
1070
    44
1040
1.0
1070
    74
1070
     0
1000
MTEXTEND
1000
MTEXTBEGIN
1070
    73
1070
     1
1070
    44
1040
1.0
1070
    74
1070
     0
1000
MTEXTEND
1000
MTEXTBEGIN
1070
    73
1070
     1
1070
    44
1040
1.0
1070
    74
1070
     0
1000
MTEXTEND
  0
ARC
  5
5A9
330
19
100
AcDbEntity
  8
SEIHIN
  6
CONTINUOUS
 62
     3
100
AcDbCircle
 10
1380.744197859569
 20
807.1716351436492
 30
0.0
 40
1.500000000000112
100
AcDbArc
 50
180.0
 51
0.0
  0
ARC
  5
5AA
330
19
100
AcDbEntity
  8
SEIHIN
  6
CONTINUOUS
 62
     3
100
AcDbCircle
 10
1380.744197859569
 20
807.1716351436492
 30
0.0
 40
1.5
100
AcDbArc
 50
0.0
 51
180.0
  0
LINE
  5
5AB
330
19
100
AcDbEntity
  8
CENTER_L
  6
CENTER
 62
     1
 48
5.0
100
AcDbLine
 10
1375.583924569244
 20
807.1716351436492
 30
0.0
 11
1385.904471149895
 21
807.1716351436492
 31
0.0
  0
LINE
  5
5AC
330
19
100
AcDbEntity
  8
CENTER_L
  6
CENTER
 62
     1
 48
5.0
100
AcDbLine
 10
1380.744197859569
 20
802.0113618533235
 30
0.0
 11
1380.744197859569
 21
812.3319084339751
 31
0.0
  0
ARC
  5
5AD
330
19
100
AcDbEntity
  8
SEIHIN
  6
CONTINUOUS
 62
     3
100
AcDbCircle
 10
1382.74419785957
 20
805.6716351436492
 30
0.0
 40
5.0
100
AcDbArc
 50
270.0
 51
0.0
  0
ARC
  5
5AE
330
19
100
AcDbEntity
  8
SEIHIN
  6
CONTINUOUS
 62
     3
100
AcDbCircle
 10
1327.744197859568
 20
860.6716351436494
 30
0.0
 40
10.0
100
AcDbArc
 50
180.0
 51
0.0
  0
ARC
  5
5AF
330
19
100
AcDbEntity
  8
SEIHIN
  6
CONTINUOUS
 62
     3
100
AcDbCircle
 10
1327.744197859568
 20
860.6716351436494
 30
0.0
 40
10.0
100
AcDbArc
 50
0.0
 51
180.0
  0
LINE
  5
5B0
330
19
100
AcDbEntity
  8
CENTER_L
  6
CENTER
 62
     1
 48
5.0
100
AcDbLine
 10
1308.406397859569
 20
860.6716351436494
 30
0.0
 11
1348.135297859569
 21
860.6716351436494
 31
0.0
  0
LINE
  5
5B1
330
19
100
AcDbEntity
  8
SEIHIN
  6
CONTINUOUS
 62
     3
100
AcDbLine
 10
1221.744197859568
 20
1092.671635143648
 30
0.0
 11
1382.74419785957
 21
1092.671635143648
 31
0.0
  0
LINE
  5
5B2
330
19
100
AcDbEntity
  8
SEIHIN
  6
CONTINUOUS
 62
     3
100
AcDbLine
 10
1387.744197859569
 20
946.6716351436495
 30
0.0
 11
1387.744197859569
 21
1087.671635143648
 31
0.0
  0
ARC
  5
5B3
330
19
100
AcDbEntity
  8
SEIHIN
  6
CONTINUOUS
 62
     3
100
AcDbCircle
 10
1380.744197859569
 20
1086.171635143649
 30
0.0
 40
1.500000000000112
100
AcDbArc
 50
180.0
 51
0.0
  0
ARC
  5
5B4
330
19
100
AcDbEntity
  8
SEIHIN
  6
CONTINUOUS
 62
     3
100
AcDbCircle
 10
1380.744197859569
 20
1086.171635143649
 30
0.0
 40
1.5
100
AcDbArc
 50
0.0
 51
180.0
  0
LINE
  5
5B5
330
19
100
AcDbEntity
  8
CENTER_L
  6
CENTER
 62
     1
 48
5.0
100
AcDbLine
 10
1375.583924569244
 20
1086.171635143649
 30
0.0
 11
1385.904471149895
 21
1086.171635143649
 31
0.0
  0
LINE
  5
5B6
330
19
100
AcDbEntity
  8
CENTER_L
  6
CENTER
 62
     1
 48
5.0
100
AcDbLine
 10
1380.744197859569
 20
1081.011361853323
 30
0.0
 11
1380.744197859569
 21
1091.331908433975
 31
0.0
  0
ARC
  5
5B7
330
19
100
AcDbEntity
  8
SEIHIN
  6
CONTINUOUS
 62
     3
100
AcDbCircle
 10
1382.74419785957
 20
1087.671635143648
 30
0.0
 40
4.999999999999886
100
AcDbArc
 50
0.0
 51
90.0
  0
LINE
  5
813
330
19
100
AcDbEntity
  8
SEIHIN
  6
DASHED
 62
     4
 48
5.0
100
AcDbLine
 10
1382.744097859569
 20
674.143381325724
 30
0.0
 11
1353.68869785957
 21
674.143381325724
 31
0.0
  0
LINE
  5
814
330
19
100
AcDbEntity
  8
SEIHIN
  6
CONTINUOUS
 62
     3
100
AcDbLine
 10
1221.744197859568
 20
671.1433813257242
 30
0.0
 11
1384.74409785957
 21
671.1433813257242
 31
0.0
  0
LINE
  5
815
330
19
100
AcDbEntity
  8
SEIHIN
  6
CONTINUOUS
 62
     3
100
AcDbLine
 10
1221.744197859568
 20
681.143361325724
 30
0.0
 11
1387.744097859569
 21
681.143361325724
 31
0.0
  0
LINE
  5
816
330
19
100
AcDbEntity
  8
SEIHIN
  6
CONTINUOUS
 62
     3
100
AcDbLine
 10
1221.744397859569
 20
671.1433813257242
 30
0.0
 11
1058.74449785957
 21
671.1433813257242
 31
0.0
  0
LINE
  5
817
330
19
100
AcDbEntity
  8
SEIHIN
  6
CONTINUOUS
 62
     3
100
AcDbLine
 10
1221.744397859569
 20
681.143361325724
 30
0.0
 11
1055.74449785957
 21
681.143361325724
 31
0.0
  0
ARC
  5
818
330
19
100
AcDbEntity
  8
SEIHIN
  6
CONTINUOUS
 62
     3
100
AcDbCircle
 10
1058.74449785957
 20
674.1433813257242
 30
0.0
 40
2.999999999999971
100
AcDbArc
 50
180.0
 51
270.0
  0
LINE
  5
819
330
19
100
AcDbEntity
  8
SEIHIN
  6
CONTINUOUS
 62
     3
100
AcDbLine
 10
1055.74449785957
 20
674.143381325724
 30
0.0
 11
1055.74449785957
 21
681.1434213257241
 31
0.0
  0
LINE
  5
81A
330
19
100
AcDbEntity
  8
CENTER_L
  6
CENTER
 62
     1
 48
3.5
100
AcDbLine
 10
1221.74429785957
 20
662.415881325724
 30
0.0
 11
1221.74429785957
 21
689.3166813257241
 31
0.0
  0
DIMENSION
  5
81B
330
19
100
AcDbEntity
  8
SUNPOU
  6
CONTINUOUS
100
AcDbDimension
  2
*D14
 10
1449.663769627466
 20
655.6411714924753
 30
0.0
 11
1439.663769627466
 21
616.6411714924756
 31
0.0
 70
    32
  3
STANDARD
100
AcDbAlignedDimension
 13
1387.744097859569
 23
665.6411514924752
 33
0.0
 14
1390.744097859569
 24
655.6411714924753
 34
0.0
 50
90.0
100
AcDbRotatedDimension
1001
ACAD
1000
DSTYLE
1002
{
1070
   140
1040
12.0
1070
    74
1070
     0
1070
   172
1070
     1
1070
    73
1070
     0
1070
   272
1070
     2
1070
    77
1070
     3
1070
   173
1070
     1
1070
   147
1040
4.0
1070
    42
1040
12.0
1070
    44
1040
6.0
1070
    43
1040
28.0
1070
   271
1070
     0
1070
   178
1070
     4
1070
   177
1070
     4
1070
   176
1070
     4
1070
   141
1040
150.0
1070
     7
1000
_OPEN
1070
     6
1000
_OPEN
1070
    41
1040
14.0
1070
   143
1040
0.03937
1002
}
  0
ARC
  5
81C
330
19
100
AcDbEntity
  8
SEIHIN
  6
DASHED
 62
     4
 48
5.0
100
AcDbCircle
 10
1382.744107859569
 20
676.1433713257242
 30
0.0
 40
1.999990000025024
100
AcDbArc
 50
269.9997135196766
 51
359.9997135196636
  0
ARC
  5
81D
330
19
100
AcDbEntity
  8
SEIHIN
  6
CONTINUOUS
 62
     3
100
AcDbCircle
 10
1384.74409785957
 20
674.143381325724
 30
0.0
 40
2.999999999999886
100
AcDbArc
 50
270.0
 51
0.0
  0
LINE
  5
81E
330
19
100
AcDbEntity
  8
SEIHIN
  6
DASHED
 62
     4
 48
5.0
100
AcDbLine
 10
1384.74409785957
 20
681.1434213257241
 30
0.0
 11
1384.74409785957
 21
676.143361325724
 31
0.0
  0
LINE
  5
81F
330
19
100
AcDbEntity
  8
SEIHIN
  6
CONTINUOUS
 62
     3
100
AcDbLine
 10
1387.744097859569
 20
674.143381325724
 30
0.0
 11
1387.744097859569
 21
681.1434213257241
 31
0.0
  0
TEXT
  5
886
330
19
100
AcDbEntity
  8
ZUWAKU
 62
     7
100
AcDbText
 10
1155.121749365203
 20
616.3766641150288
 30
0.0
 40
16.0
  1
落し口自在５００用ﾌﾀ
100
AcDbText
  0
LINE
  5
8C9
330
19
100
AcDbEntity
  8
CENTER_L
100
AcDbLine
 10
255.3448814375391
 20
663.2948433808619
 30
0.0
 11
261.0075383303033
 21
663.2948433808619
 31
0.0
  0
LINE
  5
8CA
330
19
100
AcDbEntity
  8
CENTER_L
100
AcDbLine
 10
258.0563794376437
 20
660.8754131760614
 30
0.0
 11
258.0563794376437
 21
665.7916794630417
 31
0.0
  0
LINE
  5
8CB
330
19
100
AcDbEntity
  8
CENTER_L
100
AcDbLine
 10
576.0571794376438
 20
660.8752131760616
 30
0.0
 11
576.0571794376438
 21
665.7914794630418
 31
0.0
  0
LINE
  5
8CC
330
19
100
AcDbEntity
  8
CENTER_L
100
AcDbLine
 10
573.3456814375393
 20
663.2946433808618
 30
0.0
 11
579.0083383303032
 21
663.2946433808618
 31
0.0
  0
LINE
  5
8CD
330
19
100
AcDbEntity
  8
CENTER_L
100
AcDbLine
 10
573.3459814375394
 20
946.2950433808618
 30
0.0
 11
579.0086383303035
 21
946.2950433808618
 31
0.0
  0
LINE
  5
8CE
330
19
100
AcDbEntity
  8
CENTER_L
100
AcDbLine
 10
576.0574794376439
 20
943.8756131760614
 30
0.0
 11
576.0574794376439
 21
948.7918794630417
 31
0.0
  0
LINE
  5
8CF
330
19
100
AcDbEntity
  8
CENTER_L
100
AcDbLine
 10
255.3447814375391
 20
946.2950433808618
 30
0.0
 11
261.0074383303033
 21
946.2950433808618
 31
0.0
  0
LINE
  5
8D0
330
19
100
AcDbEntity
  8
CENTER_L
100
AcDbLine
 10
258.0562794376437
 20
943.8756131760614
 30
0.0
 11
258.0562794376437
 21
948.7918794630417
 31
0.0
  0
LINE
  5
8DC
330
19
100
AcDbEntity
  8
SEIHIN
  6
CONTINUOUS
 62
     3
100
AcDbLine
 10
779.8192443470163
 20
184.3640830890325
 30
0.0
 11
760.0804784710278
 21
444.9160539369501
 31
0.0
  0
ARC
  5
8DE
330
19
100
AcDbEntity
  8
SEIHIN
  6
CONTINUOUS
 62
     3
100
AcDbCircle
 10
783.8078151219527
 20
184.6662472386648
 30
0.0
 40
4.0
100
AcDbArc
 50
184.3323096552285
 51
270.0
  0
LINE
  5
8DF
330
19
100
AcDbEntity
  8
SEIHIN
  6
CONTINUOUS
 62
     3
100
AcDbLine
 10
1479.042597757277
 20
185.6663167193141
 30
0.0
 11
1488.92944619345
 21
446.6635557906823
 31
0.0
  0
LINE
  5
8E2
330
19
100
AcDbEntity
  8
SEIHIN
  6
CONTINUOUS
 62
     3
100
AcDbLine
 10
1484.039014179443
 20
185.4770472386648
 30
0.0
 11
1493.811714179443
 21
443.4609472386648
 31
0.0
  0
LINE
  5
8E3
330
19
100
AcDbEntity
  8
SEIHIN
  6
CONTINUOUS
 62
     3
100
AcDbLine
 10
1479.04262118782
 20
185.6662472386599
 30
0.0
 11
1336.35622118782
 21
185.6664472386598
 31
0.0
  0
LINE
  5
8E4
330
19
100
AcDbEntity
  8
SEIHIN
  6
CONTINUOUS
 62
     3
100
AcDbLine
 10
1479.042614179443
 20
180.6662472386648
 30
0.0
 11
1336.356214179443
 21
180.6664472386648
 31
0.0
  0
ARC
  5
8E5
330
19
100
AcDbEntity
  8
SEIHIN
  6
CONTINUOUS
 62
     3
100
AcDbCircle
 10
1479.042614179443
 20
185.6662472386648
 30
0.0
 40
4.999991999999998
100
AcDbArc
 50
270.0
 51
357.8302569999998
  0
LINE
  5
8E6
330
19
100
AcDbEntity
  8
SEIHIN
  6
CONTINUOUS
 62
     3
100
AcDbLine
 10
1501.861025390329
 20
454.0545286083398
 30
0.0
 11
1490.0625050939
 21
448.3908722566933
 31
0.0
  0
LINE
  5
8E7
330
19
100
AcDbEntity
  8
CENTER_L
  6
CENTER
 62
     1
 48
5.0
100
AcDbLine
 10
1494.942162140155
 20
434.466248653281
 30
0.0
 11
1504.335066103113
 21
434.4662459396669
 31
0.0
  0
LINE
  5
8E8
330
19
100
AcDbEntity
  8
SEIHIN
  6
CONTINUOUS
 62
     3
100
AcDbLine
 10
1505.243214179443
 20
450.1318472386649
 30
0.0
 11
1494.944714179443
 21
445.1882472386649
 31
0.0
  0
ARC
  5
8E9
330
19
100
AcDbEntity
  8
SEIHIN
  6
CONTINUOUS
 62
     3
100
AcDbCircle
 10
1499.638614179443
 20
434.6663472386648
 30
0.0
 40
3.25
100
AcDbArc
 50
90.0
 51
180.0
  0
LINE
  5
8EB
330
19
100
AcDbEntity
  8
SEIHIN
  6
CONTINUOUS
 62
     3
100
AcDbLine
 10
1506.856814179443
 20
480.6663472386648
 30
0.0
 11
1336.356514179443
 21
480.6664472386648
 31
0.0
  0
LINE
  5
8EE
330
19
100
AcDbEntity
  8
SEIHIN
  6
CONTINUOUS
 62
     3
100
AcDbLine
 10
1496.388614179443
 20
424.6663472386647
 30
0.0
 11
1496.388614179443
 21
434.6663472386648
 31
0.0
  0
LINE
  5
8EF
330
19
100
AcDbEntity
  8
SEIHIN
  6
CONTINUOUS
 62
     3
100
AcDbLine
 10
1496.388614179443
 20
424.6663472386647
 30
0.0
 11
1493.099814179443
 21
424.6663472386647
 31
0.0
  0
ARC
  5
8F0
330
19
100
AcDbEntity
  8
SEIHIN
  6
CONTINUOUS
 62
     3
100
AcDbCircle
 10
1490.928012762316
 20
446.5878479984227
 30
0.0
 40
2.0
100
AcDbArc
 50
115.6424527527368
 51
177.8306132111025
  0
ARC
  5
8F1
330
19
100
AcDbEntity
  8
SEIHIN
  6
CONTINUOUS
 62
     3
100
AcDbCircle
 10
1495.810314179443
 20
443.3852472386647
 30
0.0
 40
1.999981999999999
100
AcDbArc
 50
115.6399729999999
 51
177.830873
  0
LINE
  5
8F3
330
19
100
AcDbEntity
  8
SEIHIN
  6
CONTINUOUS
 62
     3
100
AcDbLine
 10
1506.856814179443
 20
480.6663472386648
 30
0.0
 11
1506.377514179443
 21
451.9015472386647
 31
0.0
  0
LINE
  5
8F4
330
19
100
AcDbEntity
  8
SEIHIN
  6
CONTINUOUS
 62
     3
100
AcDbLine
 10
1506.377514179443
 20
451.9015472386647
 30
0.0
 11
1506.377514179443
 21
426.6663472386648
 31
0.0
  0
LINE
  5
8F5
330
19
100
AcDbEntity
  8
CENTER_L
  6
CENTER
 62
     1
 48
5.0
100
AcDbLine
 10
1499.63861547844
 20
439.1626992779523
 30
0.0
 11
1499.638612764827
 21
429.7697953149958
 31
0.0
  0
LINE
  5
8F6
330
19
100
AcDbEntity
  8
SEIHIN
  6
CONTINUOUS
 62
     3
100
AcDbLine
 10
1499.838714179443
 20
437.9162472386648
 30
0.0
 11
1499.638614179443
 21
437.9162472386648
 31
0.0
  0
ARC
  5
8F7
330
19
100
AcDbEntity
  8
SEIHIN
  6
CONTINUOUS
 62
     3
100
AcDbCircle
 10
1504.377514179443
 20
426.6663472386648
 30
0.0
 40
2.0
100
AcDbArc
 50
270.0
 51
0.0
  0
LINE
  5
8F8
330
19
100
AcDbEntity
  8
SEIHIN
  6
CONTINUOUS
 62
     3
100
AcDbLine
 10
1504.377514179443
 20
424.6663472386647
 30
0.0
 11
1503.088714179443
 21
424.6663472386647
 31
0.0
  0
LINE
  5
8F9
330
19
100
AcDbEntity
  8
SEIHIN
  6
CONTINUOUS
 62
     3
100
AcDbLine
 10
1503.088714179443
 20
424.6663472386647
 30
0.0
 11
1503.088714179443
 21
434.6663472386648
 31
0.0
  0
ARC
  5
8FA
330
19
100
AcDbEntity
  8
SEIHIN
  6
CONTINUOUS
 62
     3
100
AcDbCircle
 10
1499.838714179443
 20
434.6663472386648
 30
0.0
 40
3.25
100
AcDbArc
 50
0.0
 51
90.0
  0
ARC
  5
8FC
330
19
100
AcDbEntity
  8
SEIHIN
  6
CONTINUOUS
 62
     3
100
AcDbCircle
 10
1504.377714179443
 20
451.9347472386647
 30
0.0
 40
1.999975999999999
100
AcDbArc
 50
295.6425549999999
 51
359.04597
  0
LINE
  5
8FD
330
19
100
AcDbEntity
  8
CENTER_L
  6
CENTER
 62
     1
 48
5.0
100
AcDbLine
 10
1336.356814179443
 20
500.9639472386647
 30
0.0
 11
1336.356714179443
 21
154.8239472386648
 31
0.0
  0
LINE
  5
8FF
330
19
100
AcDbEntity
  8
CENTER_L
100
AcDbLine
 10
1494.856814179443
 20
467.2518362723572
 30
0.0
 11
1494.856814179443
 21
472.1681025593374
 31
0.0
  0
ARC
  5
901
330
19
100
AcDbEntity
  8
SEIHIN
  6
CONTINUOUS
 62
     3
100
AcDbCircle
 10
1494.856814179443
 20
468.2099694158472
 30
0.0
 40
1.5
100
AcDbArc
 50
359.9999999993008
 51
180.0000000000521
  0
LINE
  5
909
330
19
100
AcDbEntity
  8
SEIHIN
  6
CONTINUOUS
 62
     3
100
AcDbLine
 10
1493.356814179443
 20
468.2099694158472
 30
0.0
 11
1493.228731184398
 21
458.8047150996368
 31
0.0
  0
LINE
  5
90A
330
19
100
AcDbEntity
  8
SEIHIN
  6
CONTINUOUS
 62
     3
100
AcDbLine
 10
1496.356814179443
 20
468.2099694158472
 30
0.0
 11
1496.49780029201
 21
458.8047150996368
 31
0.0
  0
ARC
  5
90D
330
19
100
AcDbEntity
  8
SEIHIN
  6
CONTINUOUS
 62
     3
100
AcDbCircle
 10
1497.356624179443
 20
460.8047050996372
 30
0.0
 40
1.999990000025024
100
AcDbArc
 50
269.9997135196766
 51
359.9997135196636
  0
ARC
  5
90E
330
19
100
AcDbEntity
  8
SEIHIN
  6
CONTINUOUS
 62
     3
100
AcDbCircle
 10
1499.356614179443
 20
458.8047150996368
 30
0.0
 40
2.999999999999886
100
AcDbArc
 50
270.0
 51
0.0
  0
LINE
  5
90F
330
19
100
AcDbEntity
  8
SEIHIN
  6
CONTINUOUS
 62
     3
100
AcDbLine
 10
1499.356614179443
 20
465.8047550996371
 30
0.0
 11
1499.356614179443
 21
460.804695099637
 31
0.0
  0
LINE
  5
910
330
19
100
AcDbEntity
  8
SEIHIN
  6
CONTINUOUS
 62
     3
100
AcDbLine
 10
1502.356614179443
 20
458.8047150996368
 30
0.0
 11
1502.356614179443
 21
465.8047550996371
 31
0.0
  0
LINE
  5
911
330
19
100
AcDbEntity
  8
SEIHIN
  6
CONTINUOUS
 62
     3
100
AcDbLine
 10
1336.356714179443
 20
455.8047150996372
 30
0.0
 11
1496.542770722737
 21
455.8047150996372
 31
0.0
  0
LINE
  5
912
330
19
100
AcDbEntity
  8
SEIHIN
  6
CONTINUOUS
 62
     3
100
AcDbLine
 10
1336.356714179443
 20
465.804695099637
 30
0.0
 11
1493.324058580501
 21
465.8046950996371
 31
0.0
  0
INSERT
  5
943
330
19
100
AcDbEntity
  8
SEIHIN
  6
CONTINUOUS
100
AcDbBlockReference
  2
*X15
 10
0.0
 20
0.0
 30
0.0
1001
ACAD
1000
HATCH
1002
{
1070
    19
1000
_USER
1040
10.0
1040
2.356194490192344
1000
R14_HATCH_DATA
1000
943
1011
1.0
1021
0.0
1031
0.0
1011
0.0
1021
1.0
1031
0.0
1011
0.0
1021
0.0
1031
1.0
1040
0.0
1010
0.0
1020
0.0
1030
1.0
1000
_USER
1070
     0
1070
     0
1071
        1
1071
       33
1071
       11
1070
     1
1040
1336.35622118782
1040
455.8046550996372
1040
1336.35622118782
1040
458.8046550996367
1070
     1
1040
1496.356814179443
1040
454.5520075533593
1040
1496.356814179443
1040
459.4682738403396
1070
     1
1040
1493.356814179443
1040
454.5520075533593
1040
1493.356814179443
1040
459.4682738403396
1070
     2
1040
1499.356614179443
1040
458.8046550996367
1040
2.999999999999886
1040
4.712388980384688
1040
6.283185307179585
1070
     1
1070
     1
1040
1499.356614179443
1040
465.804695099637
1040
1499.356614179443
1040
460.8046350996368
1070
     1
1040
1502.356614179443
1040
458.8046550996367
1040
1502.356614179443
1040
465.804695099637
1070
     1
1040
1494.856814179443
1040
454.8904083217815
1040
1494.856814179443
1040
459.8066746087616
1070
     1
1040
1497.356614179443
1040
458.8046550996367
1040
1336.35622118782
1040
458.8046550996367
1070
     2
1040
1497.356624179443
1040
460.8046450996371
1040
1.999990000025024
1040
4.712383980359803
1040
6.283180307154473
1070
     1
1070
     1
1040
1336.356714179443
1040
455.8046550996372
1040
1499.356614179443
1040
455.8046550996372
1070
     1
1040
1499.356614179443
1040
465.8046350996368
1040
1502.356614179443
1040
465.8046350996368
1071
        0
1070
     0
1070
     0
1040
2.356194490192344
1040
10.0
1070
     0
1070
     1
1040
2.356194490192344
1040
-413.6307238577638
1040
-82.07765234084513
1040
-7.071067811865475
1040
-7.071067811865473
1070
     0
1071
        1
1040
-413.6307238577638
1040
-82.07765234084513
1040
0.0
1002
}
  0
LINE
  5
945
330
19
100
AcDbEntity
  8
SEIHIN
  6
CONTINUOUS
 62
     3
100
AcDbLine
 10
1496.49780029201
 20
458.8047150996368
 30
0.0
 11
1336.356801999622
 21
458.8047150996368
 31
0.0
  0
LINE
  5
946
330
19
100
AcDbEntity
  8
SEIHIN
  6
CONTINUOUS
 62
     3
100
AcDbLine
 10
1496.542770722737
 20
455.8047150996371
 30
0.0
 11
1499.356614179443
 21
455.8047150996372
 31
0.0
  0
LINE
  5
948
330
19
100
AcDbEntity
  8
SEIHIN
  6
CONTINUOUS
 62
     3
100
AcDbLine
 10
1057.244197859568
 20
946.671437271309
 30
0.0
 11
1057.244397859568
 21
805.671437271309
 31
0.0
  0
ARC
  5
949
330
19
100
AcDbEntity
  8
SEIHIN
  6
CONTINUOUS
 62
     3
100
AcDbCircle
 10
1060.744397859568
 20
805.6714351436493
 30
0.0
 40
3.500000000000055
100
AcDbArc
 50
180.0
 51
270.0
  0
LINE
  5
94A
330
19
100
AcDbEntity
  8
SEIHIN
  6
CONTINUOUS
 62
     3
100
AcDbLine
 10
1221.744395996215
 20
802.1716351436479
 30
0.0
 11
1060.744395996215
 21
802.1714351436482
 31
0.0
  0
LINE
  5
94B
330
19
100
AcDbEntity
  8
SEIHIN
  6
CONTINUOUS
 62
     3
100
AcDbLine
 10
1221.744197859568
 20
802.1716351436491
 30
0.0
 11
1382.74419785957
 21
802.1716351436491
 31
0.0
  0
ARC
  5
94C
330
19
100
AcDbEntity
  8
SEIHIN
  6
CONTINUOUS
 62
     3
100
AcDbCircle
 10
1382.74419785957
 20
805.6716351436492
 30
0.0
 40
3.5
100
AcDbArc
 50
270.0
 51
0.0
  0
LINE
  5
94D
330
19
100
AcDbEntity
  8
SEIHIN
  6
CONTINUOUS
 62
     3
100
AcDbLine
 10
1386.244197859569
 20
946.6716351436495
 30
0.0
 11
1386.244197859569
 21
805.6716351436492
 31
0.0
  0
LINE
  5
94E
330
19
100
AcDbEntity
  8
SEIHIN
  6
CONTINUOUS
 62
     3
100
AcDbLine
 10
1386.244197859569
 20
946.6716351436495
 30
0.0
 11
1386.244197859569
 21
1087.671635143648
 31
0.0
  0
ARC
  5
94F
330
19
100
AcDbEntity
  8
SEIHIN
  6
CONTINUOUS
 62
     3
100
AcDbCircle
 10
1382.74419785957
 20
1087.671635143648
 30
0.0
 40
3.499999999999886
100
AcDbArc
 50
0.0
 51
90.0
  0
LINE
  5
950
330
19
100
AcDbEntity
  8
SEIHIN
  6
CONTINUOUS
 62
     3
100
AcDbLine
 10
1221.744197859568
 20
1091.171635143648
 30
0.0
 11
1382.74419785957
 21
1091.171635143648
 31
0.0
  0
LINE
  5
951
330
19
100
AcDbEntity
  8
SEIHIN
  6
CONTINUOUS
 62
     3
100
AcDbLine
 10
1221.744396927892
 20
1091.171735143648
 30
0.0
 11
1060.744396927892
 21
1091.171835143649
 31
0.0
  0
ARC
  5
952
330
19
100
AcDbEntity
  8
SEIHIN
  6
CONTINUOUS
 62
     3
100
AcDbCircle
 10
1060.744397859568
 20
1087.671835143648
 30
0.0
 40
3.5
100
AcDbArc
 50
90.0
 51
180.0
  0
LINE
  5
953
330
19
100
AcDbEntity
  8
SEIHIN
  6
CONTINUOUS
 62
     3
100
AcDbLine
 10
1057.244197859568
 20
946.6718330159897
 30
0.0
 11
1057.244397859568
 21
1087.671833015989
 31
0.0
  0
LINE
  5
983
330
19
100
AcDbEntity
  8
SEIHIN
  6
CONTINUOUS
 62
     3
100
AcDbLine
 10
1502.858202170193
 20
480.7496463755815
 30
0.0
 11
1502.428132761792
 21
454.9393803235012
 31
0.0
  0
ARC
  5
984
330
19
100
AcDbEntity
  8
SEIHIN
  6
CONTINUOUS
 62
     3
100
AcDbCircle
 10
1501.428271556121
 20
454.9560407374751
 30
0.0
 40
1.0
100
AcDbArc
 50
295.6424527527369
 51
359.0453844288671
  0
INSERT
  5
986
330
19
100
AcDbEntity
  8
SEIHIN
  6
CONTINUOUS
100
AcDbBlockReference
  2
*X16
 10
0.0
 20
0.0
 30
0.0
1001
ACAD
1000
HATCH
1002
{
1070
    19
1000
_USER
1040
5.0
1040
0.7853981633974483
1000
R14_HATCH_DATA
1000
986
1011
1.0
1021
0.0
1031
0.0
1011
0.0
1021
1.0
1031
0.0
1011
0.0
1021
0.0
1031
1.0
1040
0.0
1010
0.0
1020
0.0
1030
1.0
1000
_USER
1070
     0
1070
     0
1071
        1
1071
       33
1071
       15
1070
     2
1040
1501.428271516716
1040
454.9560407185593
1040
1.0
1040
5.159934209207031
1040
6.266524122372521
1070
     1
1070
     2
1040
1479.042614179443
1040
185.6662472386648
1040
4.999991999999998
1040
4.712388980384688
1040
6.245316147907486
1070
     1
1070
     1
1040
1479.042597757277
1040
185.6663167193141
1040
1488.92944619345
1040
446.6635557906823
1070
     1
1040
1484.039014179443
1040
185.4770472386648
1040
1493.811714179443
1040
443.4609472386648
1070
     1
1040
1336.356723089854
1040
185.6664472379564
1040
1336.356721645353
1040
180.6664472379534
1070
     1
1040
1479.04262118782
1040
185.6662472386599
1040
1336.35622118782
1040
185.6664472386598
1070
     1
1040
1479.042614179443
1040
180.6662472386648
1040
1336.356214179443
1040
180.6664472386648
1070
     2
1040
1504.377714179443
1040
451.9347472386647
1040
1.999975999999999
1040
5.159935993758423
1040
6.266534342516784
1070
     1
1070
     1
1040
1502.858202170194
1040
480.7496487216183
1040
1502.428132722387
1040
454.9393803045854
1070
     1
1040
1506.856814179443
1040
480.6663472386648
1040
1506.377514179443
1040
451.9015472386647
1070
     2
1040
1490.928012762316
1040
446.5878479984227
1040
2.0
1040
2.018341555617236
1040
3.103729711374266
1070
     1
1070
     2
1040
1495.810314179443
1040
443.3852472386647
1040
1.999981999999999
1040
2.018298275767343
1040
3.103734245545886
1070
     1
1070
     1
1040
1501.861025350924
1040
454.0545285894238
1040
1490.0625050939
1040
448.3908722566933
1070
     1
1040
1505.243214179443
1040
450.1318472386649
1040
1494.944714179443
1040
445.1882472386649
1070
     1
1040
1506.856814179443
1040
480.6663472386648
1040
1502.856814179444
1040
480.6663495847018
1071
        0
1070
     0
1070
     0
1040
0.7853981633974483
1040
5.0
1070
     0
1070
     1
1040
0.7853981633974483
1040
-545.2777396378413
1040
-35.5918767373123
1040
-3.535533905932736
1040
3.535533905932736
1070
     0
1071
        1
1040
-545.2777396378413
1040
-35.5918767373123
1040
0.0
1002
}
  0
LINE
  5
987
330
19
100
AcDbEntity
  8
SEIHIN
100
AcDbLine
 10
1497.356624179443
 20
458.804715099612
 30
0.0
 11
1496.49780029201
 21
458.804715099612
 31
0.0
  0
LINE
  5
988
330
19
100
AcDbEntity
  8
SEIHIN
100
AcDbLine
 10
1493.187876469342
 20
449.8911476299648
 30
0.0
 11
1493.187876469341
 21
455.8047150996372
 31
0.0
  0
LINE
  5
989
330
19
100
AcDbEntity
  8
SEIHIN
100
AcDbLine
 10
1496.542770722737
 20
451.5016011165002
 30
0.0
 11
1496.542770722737
 21
455.8047150996371
 31
0.0
  0
MTEXT
  5
A28
330
19
100
AcDbEntity
  8
SUNPOU
  6
CONTINUOUS
 62
     4
100
AcDbMText
 10
612.7304392062265
 20
1017.709905768273
 30
0.0
 40
12.0
 41
0.0
 71
     7
 72
     1
  1
ピン　4-φ3.5
1001
ACAD
1000
MTEXTBEGIN
1070
    73
1070
     1
1070
    44
1040
1.0
1070
    74
1070
     0
1000
MTEXTEND
1000
MTEXTBEGIN
1070
    73
1070
     1
1070
    44
1040
1.0
1070
    74
1070
     0
1000
MTEXTEND
1000
MTEXTBEGIN
1070
    73
1070
     1
1070
    44
1040
1.0
1070
    74
1070
     0
1000
MTEXTEND
1000
MTEXTBEGIN
1070
    73
1070
     1
1070
    44
1040
1.0
1070
    74
1070
     0
1000
MTEXTEND
  0
INSERT
  5
A29
330
19
100
AcDbEntity
  8
SUNPOU
  6
CONTINUOUS
 62
     4
100
AcDbBlockReference
  2
_OPEN
 10
576.7454103044416
 20
948.2996211711293
 30
0.0
 41
14.0
 42
14.0
 43
14.0
 50
244.9041443274406
1001
ACAD
1000
DSTYLE
1002
{
1070
     6
1000
OPEN
1070
    41
1040
14.0
1070
    42
1040
12.0
1070
    43
1040
28.0
1070
    44
1040
6.0
1070
    73
1070
     0
1070
    74
1070
     0
1070
    77
1070
     3
1070
   140
1040
12.0
1070
   141
1040
150.0
1070
   143
1040
0.03937
1070
   147
1040
4.0
1070
   172
1070
     1
1070
   173
1070
     1
1070
   176
1070
     4
1070
   177
1070
     4
1070
   178
1070
     4
1070
   271
1070
     0
1070
   272
1070
     2
1070
   341
1005
27
1070
   343
1005
27
1070
   344
1005
27
1002
}
  0
POLYLINE
  5
A2A
330
19
100
AcDbEntity
  8
SUNPOU
  6
CONTINUOUS
 62
     4
100
AcDb2dPolyline
 66
     1
 10
0.0
 20
0.0
 30
0.0
1001
ACAD
1000
DSTYLE
1002
{
1070
     6
1000
OPEN
1070
    41
1040
14.0
1070
    42
1040
12.0
1070
    43
1040
28.0
1070
    44
1040
6.0
1070
    73
1070
     0
1070
    74
1070
     0
1070
    77
1070
     3
1070
   140
1040
12.0
1070
   141
1040
150.0
1070
   143
1040
0.03937
1070
   147
1040
4.0
1070
   172
1070
     1
1070
   173
1070
     1
1070
   176
1070
     4
1070
   177
1070
     4
1070
   178
1070
     4
1070
   271
1070
     0
1070
   272
1070
     2
1070
   341
1005
27
1070
   343
1005
27
1070
   344
1005
27
1002
}
  0
VERTEX
  5
BF9
330
A2A
100
AcDbEntity
  8
SUNPOU
  6
CONTINUOUS
 62
     4
100
AcDbVertex
100
AcDb2dVertex
 10
582.6832851828918
 20
960.9780138897617
 30
0.0
  0
VERTEX
  5
BFA
330
A2A
100
AcDbEntity
  8
SUNPOU
  6
CONTINUOUS
 62
     4
100
AcDbVertex
100
AcDb2dVertex
 10
607.1152221560084
 20
1013.144436753644
 30
0.0
  0
VERTEX
  5
BFB
330
A2A
100
AcDbEntity
  8
SUNPOU
  6
CONTINUOUS
 62
     4
100
AcDbVertex
100
AcDb2dVertex
 10
609.1076400313329
 20
1013.144436753644
 30
0.0
  0
VERTEX
  5
BFC
330
A2A
100
AcDbEntity
  8
SUNPOU
  6
CONTINUOUS
 62
     4
100
AcDbVertex
100
AcDb2dVertex
 10
725.9384852024178
 20
1013.144436753644
 30
0.0
  0
SEQEND
  5
BFD
330
A2A
100
AcDbEntity
  8
SUNPOU
  6
CONTINUOUS
 62
     4
  0
LINE
  5
AC5
330
19
100
AcDbEntity
  8
SEIHIN
100
AcDbLine
 10
262.9965790133784
 20
665.7880148923742
 30
0.0
 11
260.3132586176519
 21
663.6579191164851
 31
0.0
  0
LINE
  5
AC7
330
19
100
AcDbEntity
  8
SEIHIN
100
AcDbLine
 10
257.1907508542921
 20
661.1791839615229
 30
0.0
 11
252.0448730348706
 21
657.0942403134038
 31
0.0
  0
LINE
  5
AC8
330
19
100
AcDbEntity
  8
SEIHIN
100
AcDbLine
 10
571.1169808332686
 20
665.7869346475147
 30
0.0
 11
573.800286293047
 21
663.6568200566755
 31
0.0
  0
LINE
  5
AC9
330
19
100
AcDbEntity
  8
SEIHIN
100
AcDbLine
 10
576.9227766758457
 20
661.1780630072622
 30
0.0
 11
582.0686258521857
 21
657.0930832771921
 31
0.0
  0
LINE
  5
BB7
330
19
100
AcDbEntity
  8
SEIHIN
  6
CONTINUOUS
 62
     3
100
AcDbLine
 10
1496.392869586782
 20
465.804695099637
 30
0.0
 11
1502.356614179443
 21
465.804695099637
 31
0.0
  0
LINE
  5
BB9
330
19
100
AcDbEntity
  8
SUNPOU
100
AcDbLine
 10
633.6915791378382
 20
893.6456081211931
 30
0.0
 11
633.6915791378382
 21
911.1375881107278
 31
0.0
  0
LINE
  5
BBA
330
19
100
AcDbEntity
  8
SUNPOU
100
AcDbLine
 10
633.6915791378382
 20
911.1375881107278
 30
0.0
 11
637.4852348262984
 21
899.2901583276621
 31
0.0
  0
LINE
  5
BBB
330
19
100
AcDbEntity
  8
SUNPOU
100
AcDbLine
 10
416.1604800738704
 20
893.6456081211931
 30
0.0
 11
399.0370594508708
 21
893.6456081211931
 31
0.0
  0
LINE
  5
BBC
330
19
100
AcDbEntity
  8
SUNPOU
100
AcDbLine
 10
399.0370594508708
 20
911.1375881107278
 30
0.0
 11
395.2434037624107
 21
899.2901583276621
 31
0.0
  0
LINE
  5
BBD
330
19
100
AcDbEntity
  8
SUNPOU
100
AcDbLine
 10
399.0370594508708
 20
893.6456081211931
 30
0.0
 11
399.0370594508708
 21
911.1375881107278
 31
0.0
  0
LINE
  5
BBE
330
19
100
AcDbEntity
  8
SUNPOU
100
AcDbLine
 10
606.3501087340707
 20
893.6456081211929
 30
0.0
 11
633.6915791378382
 21
893.6456081211931
 31
0.0
  0
MTEXT
  5
BBF
330
19
100
AcDbEntity
  8
SUNPOU
  6
CONTINUOUS
 62
     4
100
AcDbMText
 10
650.906888722349
 20
897.8058778780791
 30
0.0
 40
12.0
 41
0.0
 71
     7
 72
     1
  1
Ｓｅｃｔｉｏｎ　Ａ－Ａ
1001
ACAD
1000
MTEXTBEGIN
1070
    73
1070
     1
1070
    44
1040
1.0
1070
    74
1070
     0
1000
MTEXTEND
1000
MTEXTBEGIN
1070
    73
1070
     1
1070
    44
1040
1.0
1070
    74
1070
     0
1000
MTEXTEND
1000
MTEXTBEGIN
1070
    73
1070
     1
1070
    44
1040
1.0
1070
    74
1070
     0
1000
MTEXTEND
1000
MTEXTBEGIN
1070
    73
1070
     1
1070
    44
1040
1.0
1070
    74
1070
     0
1000
MTEXTEND
  0
MTEXT
  5
BC0
330
19
100
AcDbEntity
  8
SUNPOU
  6
CONTINUOUS
 62
     4
100
AcDbMText
 10
1371.442457487736
 20
139.8364852457652
 30
0.0
 40
12.0
 41
0.0
 71
     7
 72
     1
  1
Ｓｅｃｔｉｏｎ　Ａ－Ａ
1001
ACAD
1000
MTEXTBEGIN
1070
    73
1070
     1
1070
    44
1040
1.0
1070
    74
1070
     0
1000
MTEXTEND
1000
MTEXTBEGIN
1070
    73
1070
     1
1070
    44
1040
1.0
1070
    74
1070
     0
1000
MTEXTEND
1000
MTEXTBEGIN
1070
    73
1070
     1
1070
    44
1040
1.0
1070
    74
1070
     0
1000
MTEXTEND
1000
MTEXTBEGIN
1070
    73
1070
     1
1070
    44
1040
1.0
1070
    74
1070
     0
1000
MTEXTEND
  0
VIEWPORT
  5
22
330
16
100
AcDbEntity
 67
     1
  8
0
100
AcDbViewport
 10
313.6808219178082
 20
148.5
 30
0.0
 40
627.3616438356165
 41
297.0
 68
     2
 69
     1
1001
ACAD
1000
MVIEW
1002
{
1070
    16
1010
0.0
1020
0.0
1030
0.0
1010
0.0
1020
0.0
1030
1.0
1040
0.0
1040
297.0
1040
313.6808219178082
1040
148.5
1040
50.0
1040
0.0
1040
0.0
1070
     0
1070
   100
1070
     1
1070
     0
1070
     0
1070
     0
1070
     0
1070
     0
1040
0.0
1040
0.0
1040
0.0
1040
10.0
1040
10.0
1040
10.0
1040
10.0
1070
     0
1002
{
1002
}
1002
}
  0
VIEWPORT
  5
25
330
16
100
AcDbEntity
 67
     1
  8
VIEWPORT
100
AcDbViewport
 10
210.0
 20
148.5
 30
0.0
 40
420.0
 41
297.0
 68
     1
 69
     2
1001
ACAD
1000
MVIEW
1002
{
1070
    16
1010
0.0
1020
0.0
1030
0.0
1010
0.0
1020
0.0
1030
1.0
1040
0.0
1040
1212.607689320388
1040
841.0
1040
594.0
1040
50.0
1040
0.0
1040
0.0
1070
     0
1070
   100
1070
     1
1070
     0
1070
     0
1070
     0
1070
     0
1070
     0
1040
0.0
1040
0.0
1040
0.0
1040
57.0
1040
57.0
1040
57.0
1040
57.0
1070
     0
1002
{
1002
}
1002
}
  0
ENDSEC
  0
SECTION
  2
OBJECTS
  0
DICTIONARY
  5
C
330
0
100
AcDbDictionary
  3
ACAD_GROUP
350
D
  3
ACAD_LAYOUT
350
336
  3
ACAD_MLINESTYLE
350
E
  3
ACAD_PLOTSETTINGS
350
337
1001
ACAD
1000
TREAT_AS_HARD
1070
     0
1000
TREAT_AS_HARD
1070
     0
  0
DICTIONARY
  5
363
330
19
100
AcDbDictionary
  3
ACAD_LAYOUTSELFREF
350
BF8
1001
ACAD
1000
TREAT_AS_HARD
1070
     1
1000
TREAT_AS_HARD
1070
     0
  0
DICTIONARY
  5
361
330
16
100
AcDbDictionary
  3
ACAD_LAYOUTSELFREF
350
BF7
1001
ACAD
1000
TREAT_AS_HARD
1070
     1
1000
TREAT_AS_HARD
1070
     0
  0
DICTIONARY
  5
D
102
{ACAD_REACTORS
330
C
102
}
330
C
100
AcDbDictionary
1001
ACAD
1000
TREAT_AS_HARD
1070
     0
1000
TREAT_AS_HARD
1070
     0
  0
DICTIONARY
  5
336
102
{ACAD_REACTORS
330
C
102
}
330
C
100
AcDbDictionary
1001
ACAD
1000
TREAT_AS_HARD
1070
     0
1000
TREAT_AS_HARD
1070
     0
  0
DICTIONARY
  5
E
102
{ACAD_REACTORS
330
C
102
}
330
C
100
AcDbDictionary
  3
STANDARD
350
1C
1001
ACAD
1000
TREAT_AS_HARD
1070
     0
1000
TREAT_AS_HARD
1070
     0
  0
DICTIONARY
  5
337
102
{ACAD_REACTORS
330
C
102
}
330
C
100
AcDbDictionary
1001
ACAD
1000
TREAT_AS_HARD
1070
     0
1000
TREAT_AS_HARD
1070
     0
  0
XRECORD
  5
BF8
102
{ACAD_REACTORS
330
363
102
}
330
363
100
AcDbXrecord
340
19
  0
XRECORD
  5
BF7
102
{ACAD_REACTORS
330
361
102
}
330
361
100
AcDbXrecord
340
16
  0
MLINESTYLE
  5
1C
102
{ACAD_REACTORS
330
E
102
}
330
E
100
AcDbMlineStyle
  2
STANDARD
 70
     0
  3

 62
     0
 51
90.0
 52
90.0
 71
     2
 49
0.5
 62
   256
  6
BYLAYER
 49
-0.5
 62
   256
  6
BYLAYER
  0
ENDSEC
  0
EOF
