  0
SECTION
  2
HEADER
  9
$ACADVER
  1
AC1015
  9
$ACADMAINTVER
 70
    20
  9
$DWGCODEPAGE
  3
ANSI_932
  9
$INSBASE
 10
0.0
 20
0.0
 30
0.0
  9
$EXTMIN
 10
0.0000000135560185
 20
-0.0000001317113174
 30
0.0
  9
$EXTMAX
 10
797.6000000135561
 20
551.5999998682888
 30
0.0
  9
$LIMMIN
 10
0.0
 20
0.0
  9
$LIMMAX
 10
840.0
 20
594.0
  9
$ORTHOMODE
 70
     0
  9
$REGENMODE
 70
     1
  9
$FILLMODE
 70
     1
  9
$QTEXTMODE
 70
     0
  9
$MIRRTEXT
 70
     1
  9
$LTSCALE
 40
1.0
  9
$ATTMODE
 70
     1
  9
$TEXTSIZE
 40
5.0
  9
$TRACEWID
 40
1.0
  9
$TEXTSTYLE
  7
MSｺﾞｼｯｸ
  9
$CLAYER
  8
SEIHIN
  9
$CELTYPE
  6
BYLAYER
  9
$CECOLOR
 62
   256
  9
$CELTSCALE
 40
1.0
  9
$DISPSILH
 70
     0
  9
$DIMSCALE
 40
1.0
  9
$DIMASZ
 40
4.0
  9
$DIMEXO
 40
3.0
  9
$DIMDLI
 40
9.0
  9
$DIMRND
 40
0.0
  9
$DIMDLE
 40
0.0
  9
$DIMEXE
 40
3.0
  9
$DIMTP
 40
0.0
  9
$DIMTM
 40
0.0
  9
$DIMTXT
 40
6.0
  9
$DIMCEN
 40
0.0
  9
$DIMTSZ
 40
0.0
  9
$DIMTOL
 70
     0
  9
$DIMLIM
 70
     0
  9
$DIMTIH
 70
     0
  9
$DIMTOH
 70
     0
  9
$DIMSE1
 70
     0
  9
$DIMSE2
 70
     0
  9
$DIMTAD
 70
     3
  9
$DIMZIN
 70
     0
  9
$DIMBLK
  1
OPEN
  9
$DIMASO
 70
     1
  9
$DIMSHO
 70
     1
  9
$DIMPOST
  1

  9
$DIMAPOST
  1

  9
$DIMALT
 70
     0
  9
$DIMALTD
 70
     2
  9
$DIMALTF
 40
25.4
  9
$DIMLFAC
 40
1.0
  9
$DIMTOFL
 70
     0
  9
$DIMTVP
 40
0.0
  9
$DIMTIX
 70
     0
  9
$DIMSOXD
 70
     0
  9
$DIMSAH
 70
     0
  9
$DIMBLK1
  1

  9
$DIMBLK2
  1

  9
$DIMSTYLE
  2
STANDARD
  9
$DIMCLRD
 70
   256
  9
$DIMCLRE
 70
   256
  9
$DIMCLRT
 70
   256
  9
$DIMTFAC
 40
1.0
  9
$DIMGAP
 40
3.0
  9
$DIMJUST
 70
     0
  9
$DIMSD1
 70
     0
  9
$DIMSD2
 70
     0
  9
$DIMTOLJ
 70
     1
  9
$DIMTZIN
 70
     0
  9
$DIMALTZ
 70
     0
  9
$DIMALTTZ
 70
     0
  9
$DIMUPT
 70
     0
  9
$DIMDEC
 70
     0
  9
$DIMTDEC
 70
     0
  9
$DIMALTU
 70
     2
  9
$DIMALTTD
 70
     2
  9
$DIMTXSTY
  7
STANDARD
  9
$DIMAUNIT
 70
     0
  9
$DIMADEC
 70
     0
  9
$DIMALTRND
 40
0.0
  9
$DIMAZIN
 70
     0
  9
$DIMDSEP
 70
    46
  9
$DIMATFIT
 70
     3
  9
$DIMFRAC
 70
     0
  9
$DIMLDRBLK
  1
OPEN
  9
$DIMLUNIT
 70
     2
  9
$DIMLWD
 70
    -1
  9
$DIMLWE
 70
    -1
  9
$DIMTMOVE
 70
     0
  9
$LUNITS
 70
     2
  9
$LUPREC
 70
     4
  9
$SKETCHINC
 40
1.0
  9
$FILLETRAD
 40
2.0
  9
$AUNITS
 70
     0
  9
$AUPREC
 70
     0
  9
$MENU
  1
.
  9
$ELEVATION
 40
0.0
  9
$PELEVATION
 40
0.0
  9
$THICKNESS
 40
0.0
  9
$LIMCHECK
 70
     0
  9
$CHAMFERA
 40
0.0
  9
$CHAMFERB
 40
0.0
  9
$CHAMFERC
 40
40.0
  9
$CHAMFERD
 40
0.0
  9
$SKPOLY
 70
     0
  9
$TDCREATE
 40
2451806.684426273
  9
$TDUCREATE
 40
2451806.309426273
  9
$TDUPDATE
 40
2456827.668113970
  9
$TDUUPDATE
 40
2456827.293113970
  9
$TDINDWG
 40
0.1948460880
  9
$TDUSRTIMER
 40
0.1948460880
  9
$USRTIMER
 70
     1
  9
$ANGBASE
 50
0.0
  9
$ANGDIR
 70
     0
  9
$PDMODE
 70
     0
  9
$PDSIZE
 40
0.0
  9
$PLINEWID
 40
0.0
  9
$SPLFRAME
 70
     0
  9
$SPLINETYPE
 70
     6
  9
$SPLINESEGS
 70
     8
  9
$HANDSEED
  5
5785
  9
$SURFTAB1
 70
     6
  9
$SURFTAB2
 70
     6
  9
$SURFTYPE
 70
     6
  9
$SURFU
 70
     6
  9
$SURFV
 70
     6
  9
$UCSBASE
  2

  9
$UCSNAME
  2

  9
$UCSORG
 10
0.0
 20
0.0
 30
0.0
  9
$UCSXDIR
 10
1.0
 20
0.0
 30
0.0
  9
$UCSYDIR
 10
0.0
 20
1.0
 30
0.0
  9
$UCSORTHOREF
  2

  9
$UCSORTHOVIEW
 70
     0
  9
$UCSORGTOP
 10
0.0
 20
0.0
 30
0.0
  9
$UCSORGBOTTOM
 10
0.0
 20
0.0
 30
0.0
  9
$UCSORGLEFT
 10
0.0
 20
0.0
 30
0.0
  9
$UCSORGRIGHT
 10
0.0
 20
0.0
 30
0.0
  9
$UCSORGFRONT
 10
0.0
 20
0.0
 30
0.0
  9
$UCSORGBACK
 10
0.0
 20
0.0
 30
0.0
  9
$PUCSBASE
  2

  9
$PUCSNAME
  2

  9
$PUCSORG
 10
0.0
 20
0.0
 30
0.0
  9
$PUCSXDIR
 10
1.0
 20
0.0
 30
0.0
  9
$PUCSYDIR
 10
0.0
 20
1.0
 30
0.0
  9
$PUCSORTHOREF
  2

  9
$PUCSORTHOVIEW
 70
     0
  9
$PUCSORGTOP
 10
0.0
 20
0.0
 30
0.0
  9
$PUCSORGBOTTOM
 10
0.0
 20
0.0
 30
0.0
  9
$PUCSORGLEFT
 10
0.0
 20
0.0
 30
0.0
  9
$PUCSORGRIGHT
 10
0.0
 20
0.0
 30
0.0
  9
$PUCSORGFRONT
 10
0.0
 20
0.0
 30
0.0
  9
$PUCSORGBACK
 10
0.0
 20
0.0
 30
0.0
  9
$USERI1
 70
     0
  9
$USERI2
 70
     0
  9
$USERI3
 70
     0
  9
$USERI4
 70
     0
  9
$USERI5
 70
     0
  9
$USERR1
 40
0.0
  9
$USERR2
 40
0.0
  9
$USERR3
 40
0.0
  9
$USERR4
 40
0.0
  9
$USERR5
 40
0.0
  9
$WORLDVIEW
 70
     1
  9
$SHADEDGE
 70
     3
  9
$SHADEDIF
 70
    70
  9
$TILEMODE
 70
     1
  9
$MAXACTVP
 70
    16
  9
$PINSBASE
 10
0.0
 20
0.0
 30
0.0
  9
$PLIMCHECK
 70
     0
  9
$PEXTMIN
 10
0.0
 20
0.0
 30
0.0
  9
$PEXTMAX
 10
420.0
 20
297.0
 30
0.0
  9
$PLIMMIN
 10
0.0
 20
0.0
  9
$PLIMMAX
 10
420.0
 20
297.0
  9
$UNITMODE
 70
     0
  9
$VISRETAIN
 70
     0
  9
$PLINEGEN
 70
     0
  9
$PSLTSCALE
 70
     1
  9
$TREEDEPTH
 70
  3020
  9
$CMLSTYLE
  2
STANDARD
  9
$CMLJUST
 70
     0
  9
$CMLSCALE
 40
1.0
  9
$PROXYGRAPHICS
 70
     1
  9
$MEASUREMENT
 70
     1
  9
$CELWEIGHT
370
    -1
  9
$ENDCAPS
280
     0
  9
$JOINSTYLE
280
     0
  9
$LWDISPLAY
290
     0
  9
$INSUNITS
 70
     0
  9
$HYPERLINKBASE
  1

  9
$STYLESHEET
  1
print.ctb
  9
$XEDIT
290
     1
  9
$CEPSNTYPE
380
     0
  9
$PSTYLEMODE
290
     1
  9
$FINGERPRINTGUID
  2
{75772F4A-CE5A-11D3-932C-444553540000}
  9
$VERSIONGUID
  2
{786D18E9-036B-45CD-94BA-324FBA53E5ED}
  9
$EXTNAMES
290
     1
  9
$PSVPSCALE
 40
0.0
  9
$OLESTARTUP
290
     0
  0
ENDSEC
  0
SECTION
  2
CLASSES
  0
CLASS
  1
ACDBDICTIONARYWDFLT
  2
AcDbDictionaryWithDefault
  3
ObjectDBX Classes
 90
        0
280
     0
281
     0
  0
CLASS
  1
ACDBPLACEHOLDER
  2
AcDbPlaceHolder
  3
ObjectDBX Classes
 90
        0
280
     0
281
     0
  0
CLASS
  1
LAYOUT
  2
AcDbLayout
  3
ObjectDBX Classes
 90
        0
280
     0
281
     0
  0
CLASS
  1
DICTIONARYVAR
  2
AcDbDictionaryVar
  3
ObjectDBX Classes
 90
        0
280
     0
281
     0
  0
ENDSEC
  0
SECTION
  2
TABLES
  0
TABLE
  2
VPORT
  5
8
330
0
100
AcDbSymbolTable
 70
     2
  0
VPORT
  5
5779
330
8
100
AcDbSymbolTableRecord
100
AcDbViewportTableRecord
  2
*Active
 70
     0
 10
0.0
 20
0.0
 11
1.0
 21
1.0
 12
492.6712765886714
 22
316.3933434060592
 13
0.0
 23
0.0
 14
5.0
 24
5.0
 15
0.0
 25
0.0
 16
0.0
 26
0.0
 36
1.0
 17
0.0
 27
0.0
 37
0.0
 40
516.7992220301977
 41
2.011264080100125
 42
50.0
 43
0.0
 44
0.0
 50
0.0
 51
0.0
 71
     0
 72
   100
 73
     1
 74
     0
 75
     0
 76
     0
 77
     0
 78
     0
281
     0
 65
     1
110
0.0
120
0.0
130
0.0
111
1.0
121
0.0
131
0.0
112
0.0
122
1.0
132
0.0
 79
     0
146
0.0
  0
ENDTAB
  0
TABLE
  2
LTYPE
  5
5
330
0
100
AcDbSymbolTable
 70
     3
  0
LTYPE
  5
14
330
5
100
AcDbSymbolTableRecord
100
AcDbLinetypeTableRecord
  2
BYBLOCK
 70
     0
  3

 72
    65
 73
     0
 40
0.0
  0
LTYPE
  5
15
330
5
100
AcDbSymbolTableRecord
100
AcDbLinetypeTableRecord
  2
BYLAYER
 70
     0
  3

 72
    65
 73
     0
 40
0.0
  0
LTYPE
  5
16
330
5
100
AcDbSymbolTableRecord
100
AcDbLinetypeTableRecord
  2
CONTINUOUS
 70
     0
  3
Solid line
 72
    65
 73
     0
 40
0.0
  0
LTYPE
  5
135
330
5
100
AcDbSymbolTableRecord
100
AcDbLinetypeTableRecord
  2
CENTER
 70
     0
  3
____ _ ____ _ ____ _ ____ _ ____ _ ____ _ ____ 
 72
    65
 73
     4
 40
2.0
 49
1.25
 74
     0
 49
-0.25
 74
     0
 49
0.25
 74
     0
 49
-0.25
 74
     0
  0
LTYPE
  5
49C5
330
5
100
AcDbSymbolTableRecord
100
AcDbLinetypeTableRecord
  2
DASHED
 70
     0
  3
Dashed __ __ __ __ __ __ __ __ __ __ __ __ __ _
 72
    65
 73
     2
 40
19.05
 49
12.7
 74
     0
 49
-6.349999999999999
 74
     0
  0
ENDTAB
  0
TABLE
  2
LAYER
  5
2
330
0
100
AcDbSymbolTable
 70
     9
  0
LAYER
  5
F
330
2
100
AcDbSymbolTableRecord
100
AcDbLayerTableRecord
  2
0
 70
     0
 62
     7
  6
CONTINUOUS
370
    -3
390
14B
  0
LAYER
  5
62
330
2
100
AcDbSymbolTableRecord
100
AcDbLayerTableRecord
  2
VIEWPORT
 70
     0
 62
     7
  6
CONTINUOUS
370
    -3
390
14B
  0
LAYER
  5
65
330
2
100
AcDbSymbolTableRecord
100
AcDbLayerTableRecord
  2
ZUWAKU
 70
     0
 62
     7
  6
CONTINUOUS
370
    -3
390
14B
  0
LAYER
  5
1BD
330
2
100
AcDbSymbolTableRecord
100
AcDbLayerTableRecord
  2
DEFPOINTS
 70
     0
 62
     7
  6
CONTINUOUS
290
     0
370
    -3
390
14B
  0
LAYER
  5
1BF
330
2
100
AcDbSymbolTableRecord
100
AcDbLayerTableRecord
  2
SEIHIN
 70
     0
 62
     3
  6
CONTINUOUS
370
    -3
390
14B
  0
LAYER
  5
1C0
330
2
100
AcDbSymbolTableRecord
100
AcDbLayerTableRecord
  2
CENTER L
 70
     0
 62
     1
  6
CENTER
370
    -3
390
14B
  0
LAYER
  5
1C1
330
2
100
AcDbSymbolTableRecord
100
AcDbLayerTableRecord
  2
SUNPOU
 70
     0
 62
     4
  6
CONTINUOUS
370
    -3
390
14B
  0
LAYER
  5
DE3
330
2
100
AcDbSymbolTableRecord
100
AcDbLayerTableRecord
  2
moji
 70
     0
 62
     2
  6
CONTINUOUS
370
    -3
390
14B
  0
LAYER
  5
39D2
330
2
100
AcDbSymbolTableRecord
100
AcDbLayerTableRecord
  2
CENTER_L
 70
     0
 62
     1
  6
CENTER
370
    -3
390
14B
  0
ENDTAB
  0
TABLE
  2
STYLE
  5
3
330
0
100
AcDbSymbolTable
 70
     4
  0
STYLE
  5
10
330
3
100
AcDbSymbolTableRecord
100
AcDbTextStyleTableRecord
  2
STANDARD
 70
     0
 40
0.0
 41
1.0
 50
0.0
 71
     0
 42
5.0
  3
TXT
  4
c:\PROGRAM FILES\AUTOCAD LT\ms\bigfont.shx
  0
STYLE
  5
DD6
330
3
100
AcDbSymbolTableRecord
100
AcDbTextStyleTableRecord
  2
MSｺﾞｼｯｸ
 70
     0
 40
0.0
 41
1.0
 50
0.0
 71
     0
 42
5.0
  3

  4

1001
ACAD
1000
MS Gothic
1071
    32817
  0
STYLE
  5
39D3
330
3
100
AcDbSymbolTableRecord
100
AcDbTextStyleTableRecord
  2
MSｺ_ｼｯｸ
 70
     0
 40
0.0
 41
1.0
 50
0.0
 71
     0
 42
5.0
  3

  4

1001
ACAD
1000
MS Gothic
1071
    32817
  0
STYLE
  5
49C6
330
3
100
AcDbSymbolTableRecord
100
AcDbTextStyleTableRecord
  2
ｽﾀｲﾙ1
 70
     0
 40
0.0
 41
1.0
 50
0.0
 71
     0
 42
2.5
  3

  4

1001
ACAD
1000
MS PGothic
1071
    32818
  0
ENDTAB
  0
TABLE
  2
VIEW
  5
6
330
0
100
AcDbSymbolTable
 70
     0
  0
ENDTAB
  0
TABLE
  2
UCS
  5
7
330
0
100
AcDbSymbolTable
 70
     0
  0
ENDTAB
  0
TABLE
  2
APPID
  5
9
330
0
100
AcDbSymbolTable
 70
     1
  0
APPID
  5
11
330
9
100
AcDbSymbolTableRecord
100
AcDbRegAppTableRecord
  2
ACAD
 70
     0
  0
ENDTAB
  0
TABLE
  2
DIMSTYLE
  5
A
330
0
100
AcDbSymbolTable
 70
     2
100
AcDbDimStyleTable
 71
     1
340
1D
  0
DIMSTYLE
105
1D
102
{ACAD_REACTORS
330
4503
330
4481
330
4480
330
447F
330
447C
330
450B
330
447E
330
447D
330
34DA
330
340E
330
3432
330
340C
330
340D
330
4502
330
4501
330
3411
330
5611
330
5610
330
560F
330
560E
330
560D
330
560C
102
}
330
A
100
AcDbSymbolTableRecord
100
AcDbDimStyleTableRecord
  2
STANDARD
 70
     0
 41
4.0
 42
3.0
 43
9.0
 44
3.0
 73
     0
 74
     0
 77
     3
140
6.0
141
0.0
147
3.0
176
   256
177
   256
178
   256
271
     0
272
     0
340
10
341
6D
342
6D
371
    -1
372
    -1
  0
DIMSTYLE
105
49C7
330
A
100
AcDbSymbolTableRecord
100
AcDbDimStyleTableRecord
  2
DIM-2
 70
     0
 41
7.0
 42
6.0
 43
14.0
 44
3.0
 73
     0
 74
     0
 77
     3
140
6.0
141
150.0
147
2.0
172
     1
173
     1
176
   256
177
   256
178
   256
271
     0
272
     0
340
10
341
6D
343
6D
344
6D
371
    -1
372
    -1
  0
ENDTAB
  0
TABLE
  2
BLOCK_RECORD
  5
1
330
0
100
AcDbSymbolTable
 70
    93
  0
BLOCK_RECORD
  5
1A
102
{ACAD_XDICTIONARY
360
CFB
102
}
330
1
100
AcDbSymbolTableRecord
100
AcDbBlockTableRecord
  2
*MODEL_SPACE
340
14E
  0
BLOCK_RECORD
  5
17
102
{ACAD_XDICTIONARY
360
CF9
102
}
330
1
100
AcDbSymbolTableRecord
100
AcDbBlockTableRecord
  2
*PAPER_SPACE
340
14F
  0
BLOCK_RECORD
  5
6D
330
1
100
AcDbSymbolTableRecord
100
AcDbBlockTableRecord
  2
_OPEN
340
0
102
{BLKREFS
331
4609
331
460A
331
4612
331
4613
331
4636
331
4637
331
468E
331
468F
331
46E3
331
46E4
331
4772
331
4773
331
4766
331
4767
331
475C
331
475D
331
49A6
331
49A7
331
49B2
331
49B3
331
4974
331
4975
331
4967
331
4968
331
492D
331
492E
331
4937
331
4938
331
4943
331
4944
331
494F
331
4950
331
495B
331
495C
331
478A
331
478B
331
477E
331
477F
331
49BE
331
49BF
331
4982
331
4983
331
498E
331
498F
331
499A
331
499B
331
4F60
331
4F61
331
4F6B
331
4F6C
331
4F74
331
4F75
331
4F7D
331
4F7E
331
4F86
331
4F87
331
4F8F
331
4F90
331
4F9A
331
4F9B
331
4FA3
331
4FA4
331
4FAD
331
4FAE
331
4FB4
331
4FB5
331
4FBD
331
4FBE
331
4FC6
331
4FC7
331
4FCF
331
4FD0
331
4FD8
331
4FD9
331
4FE1
331
4FE2
331
4FEA
331
4FEB
331
4FF3
331
4FF4
331
4FFD
331
4FFE
331
5006
331
5007
331
5021
331
5022
331
5033
331
5034
331
5045
331
5046
331
504E
331
504F
331
5057
331
5058
331
5060
331
5061
331
5069
331
506A
331
5072
331
5073
331
50A3
331
50A4
331
50B7
331
50B8
331
50C0
331
50C1
331
50C9
331
50CA
331
50D2
331
50D3
331
50DB
331
50DC
331
50E4
331
50E5
331
50ED
331
50EE
331
5481
331
5482
331
548A
331
548B
331
5495
331
5496
331
549E
331
549F
331
54A7
331
54A8
331
54B2
331
54B3
331
54BB
331
54BC
331
54C4
331
54C5
331
54CD
331
54CE
331
54D6
331
54D7
331
54DF
331
54E0
331
54E8
331
54E9
331
54F1
331
54F2
331
54FA
331
54FB
331
5503
331
5504
331
550C
331
550D
331
5515
331
5516
331
551E
331
551F
331
5527
331
5528
331
5530
331
5531
331
5539
331
553A
331
5544
331
5545
331
554F
331
5550
331
565D
331
565E
331
5666
331
5667
331
566F
331
5670
331
5678
331
5679
331
5681
331
5682
331
568A
331
568B
331
572C
331
572D
331
5739
331
573A
331
5763
331
5764
102
}
  0
BLOCK_RECORD
  5
2060
330
1
100
AcDbSymbolTableRecord
100
AcDbBlockTableRecord
  2
*X1
340
0
102
{BLKREFS
331
EF4
102
}
  0
BLOCK_RECORD
  5
3521
330
1
100
AcDbSymbolTableRecord
100
AcDbBlockTableRecord
  2
*D2
340
0
  0
BLOCK_RECORD
  5
352D
330
1
100
AcDbSymbolTableRecord
100
AcDbBlockTableRecord
  2
*D3
340
0
  0
BLOCK_RECORD
  5
3539
330
1
100
AcDbSymbolTableRecord
100
AcDbBlockTableRecord
  2
*D4
340
0
  0
BLOCK_RECORD
  5
355F
330
1
100
AcDbSymbolTableRecord
100
AcDbBlockTableRecord
  2
*D5
340
0
  0
BLOCK_RECORD
  5
356B
330
1
100
AcDbSymbolTableRecord
100
AcDbBlockTableRecord
  2
*D6
340
0
  0
BLOCK_RECORD
  5
3577
330
1
100
AcDbSymbolTableRecord
100
AcDbBlockTableRecord
  2
*D7
340
0
  0
BLOCK_RECORD
  5
450C
330
1
100
AcDbSymbolTableRecord
100
AcDbBlockTableRecord
  2
*D14
340
0
  0
BLOCK_RECORD
  5
4519
330
1
100
AcDbSymbolTableRecord
100
AcDbBlockTableRecord
  2
*D15
340
0
  0
BLOCK_RECORD
  5
4525
330
1
100
AcDbSymbolTableRecord
100
AcDbBlockTableRecord
  2
*D16
340
0
  0
BLOCK_RECORD
  5
4531
330
1
100
AcDbSymbolTableRecord
100
AcDbBlockTableRecord
  2
*D17
340
0
  0
BLOCK_RECORD
  5
453D
330
1
100
AcDbSymbolTableRecord
100
AcDbBlockTableRecord
  2
*D18
340
0
  0
BLOCK_RECORD
  5
4549
330
1
100
AcDbSymbolTableRecord
100
AcDbBlockTableRecord
  2
*D19
340
0
  0
BLOCK_RECORD
  5
4555
330
1
100
AcDbSymbolTableRecord
100
AcDbBlockTableRecord
  2
*D20
340
0
  0
BLOCK_RECORD
  5
4561
330
1
100
AcDbSymbolTableRecord
100
AcDbBlockTableRecord
  2
*D21
340
0
  0
BLOCK_RECORD
  5
456D
330
1
100
AcDbSymbolTableRecord
100
AcDbBlockTableRecord
  2
*D22
340
0
  0
BLOCK_RECORD
  5
4579
330
1
100
AcDbSymbolTableRecord
100
AcDbBlockTableRecord
  2
*D23
340
0
  0
BLOCK_RECORD
  5
5612
330
1
100
AcDbSymbolTableRecord
100
AcDbBlockTableRecord
  2
*D84
340
0
  0
BLOCK_RECORD
  5
561E
330
1
100
AcDbSymbolTableRecord
100
AcDbBlockTableRecord
  2
*D85
340
0
  0
BLOCK_RECORD
  5
562A
330
1
100
AcDbSymbolTableRecord
100
AcDbBlockTableRecord
  2
*D86
340
0
  0
BLOCK_RECORD
  5
5636
330
1
100
AcDbSymbolTableRecord
100
AcDbBlockTableRecord
  2
*D87
340
0
  0
BLOCK_RECORD
  5
5642
330
1
100
AcDbSymbolTableRecord
100
AcDbBlockTableRecord
  2
*D88
340
0
  0
BLOCK_RECORD
  5
564E
330
1
100
AcDbSymbolTableRecord
100
AcDbBlockTableRecord
  2
*D89
340
0
  0
ENDTAB
  0
ENDSEC
  0
SECTION
  2
BLOCKS
  0
BLOCK
  5
1B
330
1A
100
AcDbEntity
  8
0
100
AcDbBlockBegin
  2
*MODEL_SPACE
 70
     0
 10
0.0
 20
0.0
 30
0.0
  3
*MODEL_SPACE
  1

  0
ENDBLK
  5
1C
330
1A
100
AcDbEntity
  8
0
100
AcDbBlockEnd
  0
BLOCK
  5
18
330
17
100
AcDbEntity
 67
     1
  8
0
100
AcDbBlockBegin
  2
*PAPER_SPACE
 70
     0
 10
0.0
 20
0.0
 30
0.0
  3
*PAPER_SPACE
  1

  0
ENDBLK
  5
19
330
17
100
AcDbEntity
 67
     1
  8
0
100
AcDbBlockEnd
  0
BLOCK
  5
6E
330
6D
100
AcDbEntity
  8
0
100
AcDbBlockBegin
  2
_OPEN
 70
     0
 10
0.0
 20
0.0
 30
0.0
  3
_OPEN
  1

  0
LINE
  5
6F
330
6D
100
AcDbEntity
  8
0
  6
ByBlock
 62
     0
100
AcDbLine
 10
-1.0
 20
0.1666666666666666
 30
0.0
 11
0.0
 21
0.0
 31
0.0
  0
LINE
  5
70
330
6D
100
AcDbEntity
  8
0
  6
ByBlock
 62
     0
100
AcDbLine
 10
0.0
 20
0.0
 30
0.0
 11
-1.0
 21
-0.1666666666666666
 31
0.0
  0
LINE
  5
71
330
6D
100
AcDbEntity
  8
0
  6
ByBlock
 62
     0
100
AcDbLine
 10
0.0
 20
0.0
 30
0.0
 11
-1.0
 21
0.0
 31
0.0
  0
ENDBLK
  5
72
330
6D
100
AcDbEntity
  8
0
100
AcDbBlockEnd
  0
BLOCK
  5
21F4
330
2060
100
AcDbEntity
  8
0
100
AcDbBlockBegin
  2
*X1
 70
     1
 10
0.0
 20
0.0
 30
0.0
  3
*X1
  1

  0
LINE
  5
2061
330
2060
100
AcDbEntity
  8
0
 62
     0
100
AcDbLine
 10
69.04221216833718
 20
22.60416893857376
 30
0.0
 11
68.39638123862227
 21
23.24999986828874
 31
0.0
  0
LINE
  5
2062
330
2060
100
AcDbEntity
  8
0
 62
     0
100
AcDbLine
 10
69.04221216833718
 20
21.70614332646687
 30
0.0
 11
67.49835562651532
 21
23.24999986828874
 31
0.0
  0
LINE
  5
2063
330
2060
100
AcDbEntity
  8
0
 62
     0
100
AcDbLine
 10
69.04221216833713
 20
20.80811771435993
 30
0.0
 11
66.62107822232218
 21
23.22925166037487
 31
0.0
  0
LINE
  5
2064
330
2060
100
AcDbEntity
  8
0
 62
     0
100
AcDbLine
 10
69.04221216833718
 20
19.91009210225309
 30
0.0
 11
66.24221216833712
 21
22.7100921022531
 31
0.0
  0
LINE
  5
2065
330
2060
100
AcDbEntity
  8
0
 62
     0
100
AcDbLine
 10
69.04221216833718
 20
19.01206649014614
 30
0.0
 11
66.24221216833712
 21
21.81206649014621
 31
0.0
  0
LINE
  5
2066
330
2060
100
AcDbEntity
  8
0
 62
     0
100
AcDbLine
 10
69.04221216833713
 20
18.11404087803919
 30
0.0
 11
66.24221216833706
 21
20.91404087803926
 31
0.0
  0
LINE
  5
2067
330
2060
100
AcDbEntity
  8
0
 62
     0
100
AcDbLine
 10
64.14221216833709
 20
22.11601526593239
 30
0.0
 11
63.0082275659808
 21
23.24999986828874
 31
0.0
  0
LINE
  5
2068
330
2060
100
AcDbEntity
  8
0
 62
     0
100
AcDbLine
 10
69.04221216833718
 20
17.21601526593235
 30
0.0
 11
66.24221216833712
 21
20.01601526593242
 31
0.0
  0
LINE
  5
2069
330
2060
100
AcDbEntity
  8
0
 62
     0
100
AcDbLine
 10
64.14221216833709
 20
21.2179896538255
 30
0.0
 11
62.11020195387385
 21
23.24999986828868
 31
0.0
  0
LINE
  5
206A
330
2060
100
AcDbEntity
  8
0
 62
     0
100
AcDbLine
 10
69.04221216833713
 20
16.31798965382541
 30
0.0
 11
66.24221216833712
 21
19.11798965382547
 31
0.0
  0
LINE
  5
206B
330
2060
100
AcDbEntity
  8
0
 62
     0
100
AcDbLine
 10
64.14221216833709
 20
20.31996404171855
 30
0.0
 11
61.43670120320002
 21
23.02547500685563
 31
0.0
  0
LINE
  5
206C
330
2060
100
AcDbEntity
  8
0
 62
     0
100
AcDbLine
 10
69.04221216833713
 20
15.41996404171851
 30
0.0
 11
66.24221216833706
 21
18.21996404171853
 31
0.0
  0
LINE
  5
206D
330
2060
100
AcDbEntity
  8
0
 62
     0
100
AcDbLine
 10
64.14221216833721
 20
19.42193842961154
 30
0.0
 11
61.34221216833703
 21
22.22193842961167
 31
0.0
  0
LINE
  5
206E
330
2060
100
AcDbEntity
  8
0
 62
     0
100
AcDbLine
 10
69.04221216833718
 20
14.52193842961156
 30
0.0
 11
66.24221216833712
 21
17.32193842961163
 31
0.0
  0
LINE
  5
206F
330
2060
100
AcDbEntity
  8
0
 62
     0
100
AcDbLine
 10
64.14221216833715
 20
18.52391281750465
 30
0.0
 11
61.34221216833703
 21
21.32391281750483
 31
0.0
  0
LINE
  5
2070
330
2060
100
AcDbEntity
  8
0
 62
     0
100
AcDbLine
 10
69.04221216833713
 20
13.62391281750467
 30
0.0
 11
66.24221216833706
 21
16.42391281750474
 31
0.0
  0
LINE
  5
2071
330
2060
100
AcDbEntity
  8
0
 62
     0
100
AcDbLine
 10
64.14221216833715
 20
17.62588720539776
 30
0.0
 11
61.34221216833703
 21
20.42588720539789
 31
0.0
  0
LINE
  5
2072
330
2060
100
AcDbEntity
  8
0
 62
     0
100
AcDbLine
 10
69.04221216833713
 20
12.72588720539778
 30
0.0
 11
66.24221216833706
 21
15.52588720539785
 31
0.0
  0
LINE
  5
2073
330
2060
100
AcDbEntity
  8
0
 62
     0
100
AcDbLine
 10
64.14221216833709
 20
16.72786159329081
 30
0.0
 11
61.34221216833697
 21
19.52786159329093
 31
0.0
  0
LINE
  5
2074
330
2060
100
AcDbEntity
  8
0
 62
     0
100
AcDbLine
 10
69.04221216833708
 20
11.82786159329083
 30
0.0
 11
66.24221216833706
 21
14.6278615932909
 31
0.0
  0
LINE
  5
2075
330
2060
100
AcDbEntity
  8
0
 62
     0
100
AcDbLine
 10
64.14221216833715
 20
15.82983598118397
 30
0.0
 11
61.34221216833703
 21
18.6298359811841
 31
0.0
  0
LINE
  5
2076
330
2060
100
AcDbEntity
  8
0
 62
     0
100
AcDbLine
 10
57.84221216833708
 20
22.12983598118404
 30
0.0
 11
56.72204828123245
 21
23.24999986828868
 31
0.0
  0
LINE
  5
2077
330
2060
100
AcDbEntity
  8
0
 62
     0
100
AcDbLine
 10
69.04221216833713
 20
10.929835981184
 30
0.0
 11
66.24221216833706
 21
13.72983598118401
 31
0.0
  0
LINE
  5
2078
330
2060
100
AcDbEntity
  8
0
 62
     0
100
AcDbLine
 10
64.14221216833715
 20
14.93181036907702
 30
0.0
 11
61.34221216833697
 21
17.73181036907715
 31
0.0
  0
LINE
  5
2079
330
2060
100
AcDbEntity
  8
0
 62
     0
100
AcDbLine
 10
57.84221216833703
 20
21.23181036907709
 30
0.0
 11
55.82402266912549
 21
23.24999986828868
 31
0.0
  0
LINE
  5
207A
330
2060
100
AcDbEntity
  8
0
 62
     0
100
AcDbLine
 10
69.04221216833713
 20
10.03181036907705
 30
0.0
 11
66.24221216833706
 21
12.83181036907712
 31
0.0
  0
LINE
  5
207B
330
2060
100
AcDbEntity
  8
0
 62
     0
100
AcDbLine
 10
64.14221216833709
 20
14.03378475697013
 30
0.0
 11
61.34221216833703
 21
16.83378475697014
 31
0.0
  0
LINE
  5
207C
330
2060
100
AcDbEntity
  8
0
 62
     0
100
AcDbLine
 10
57.84221216833703
 20
20.3337847569702
 30
0.0
 11
55.14244944501303
 21
23.0335474802942
 31
0.0
  0
LINE
  5
207D
330
2060
100
AcDbEntity
  8
0
 62
     0
100
AcDbLine
 10
69.04221216833708
 20
9.133784756970158
 30
0.0
 11
66.242212168337
 21
11.93378475697017
 31
0.0
  0
LINE
  5
207E
330
2060
100
AcDbEntity
  8
0
 62
     0
100
AcDbLine
 10
64.14221216833715
 20
13.13575914486319
 30
0.0
 11
61.34221216833708
 21
15.93575914486325
 31
0.0
  0
LINE
  5
207F
330
2060
100
AcDbEntity
  8
0
 62
     0
100
AcDbLine
 10
57.84221216833708
 20
19.43575914486325
 30
0.0
 11
55.04221216833707
 21
22.23575914486326
 31
0.0
  0
LINE
  5
2080
330
2060
100
AcDbEntity
  8
0
 62
     0
100
AcDbLine
 10
69.04221216833713
 20
8.235759144863209
 30
0.0
 11
66.24221216833706
 21
11.03575914486327
 31
0.0
  0
LINE
  5
2081
330
2060
100
AcDbEntity
  8
0
 62
     0
100
AcDbLine
 10
64.14221216833709
 20
12.23773353275629
 30
0.0
 11
61.34221216833708
 21
15.03773353275636
 31
0.0
  0
LINE
  5
2082
330
2060
100
AcDbEntity
  8
0
 62
     0
100
AcDbLine
 10
57.84221216833714
 20
18.5377335327563
 30
0.0
 11
55.04221216833713
 21
21.33773353275632
 31
0.0
  0
LINE
  5
2083
330
2060
100
AcDbEntity
  8
0
 62
     0
100
AcDbLine
 10
68.97024681344731
 20
7.409698887646129
 30
0.0
 11
66.24221216833706
 21
10.13773353275638
 31
0.0
  0
LINE
  5
2084
330
2060
100
AcDbEntity
  8
0
 62
     0
100
AcDbLine
 10
64.14221216833715
 20
11.33970792064929
 30
0.0
 11
61.34221216833703
 21
14.13970792064941
 31
0.0
  0
LINE
  5
2085
330
2060
100
AcDbEntity
  8
0
 62
     0
100
AcDbLine
 10
57.84221216833708
 20
17.63970792064941
 30
0.0
 11
55.04221216833713
 21
20.43970792064937
 31
0.0
  0
LINE
  5
2086
330
2060
100
AcDbEntity
  8
0
 62
     0
100
AcDbLine
 10
68.33192022069784
 20
7.149999868288659
 30
0.0
 11
66.242212168337
 21
9.239707920649493
 31
0.0
  0
LINE
  5
2087
330
2060
100
AcDbEntity
  8
0
 62
     0
100
AcDbLine
 10
57.84221216833708
 20
16.74168230854246
 30
0.0
 11
55.04221216833707
 21
19.54168230854242
 31
0.0
  0
LINE
  5
2088
330
2060
100
AcDbEntity
  8
0
 62
     0
100
AcDbLine
 10
64.14221216833715
 20
10.44168230854239
 30
0.0
 11
61.34221216833703
 21
13.24168230854252
 31
0.0
  0
LINE
  5
2089
330
2060
100
AcDbEntity
  8
0
 62
     0
100
AcDbLine
 10
52.41721216833707
 20
22.16668230854248
 30
0.0
 11
51.33389460859075
 21
23.24999986828874
 31
0.0
  0
LINE
  5
208A
330
2060
100
AcDbEntity
  8
0
 62
     0
100
AcDbLine
 10
67.43389460859095
 20
7.149999868288546
 30
0.0
 11
66.242212168337
 21
8.341682308542544
 31
0.0
  0
LINE
  5
208B
330
2060
100
AcDbEntity
  8
0
 62
     0
100
AcDbLine
 10
57.84221216833708
 20
15.84365669643557
 30
0.0
 11
55.04221216833713
 21
18.64365669643558
 31
0.0
  0
LINE
  5
208C
330
2060
100
AcDbEntity
  8
0
 62
     0
100
AcDbLine
 10
52.41721216833707
 20
21.26865669643558
 30
0.0
 11
50.43586899648392
 21
23.24999986828879
 31
0.0
  0
LINE
  5
208D
330
2060
100
AcDbEntity
  8
0
 62
     0
100
AcDbLine
 10
64.11625386769157
 20
9.569614997081146
 30
0.0
 11
61.34221216833703
 21
12.34365669643563
 31
0.0
  0
LINE
  5
208E
330
2060
100
AcDbEntity
  8
0
 62
     0
100
AcDbLine
 10
57.84221216833708
 20
14.94563108432868
 30
0.0
 11
55.04221216833713
 21
17.74563108432863
 31
0.0
  0
LINE
  5
208F
330
2060
100
AcDbEntity
  8
0
 62
     0
100
AcDbLine
 10
52.22163162222324
 20
20.56621163044253
 30
0.0
 11
49.53784338437708
 21
23.24999986828868
 31
0.0
  0
LINE
  5
2090
330
2060
100
AcDbEntity
  8
0
 62
     0
100
AcDbLine
 10
63.92326857243432
 20
8.864574680231385
 30
0.0
 11
61.34221216833703
 21
11.44563108432874
 31
0.0
  0
LINE
  5
2091
330
2060
100
AcDbEntity
  8
0
 62
     0
100
AcDbLine
 10
57.84221216833708
 20
14.04760547222173
 30
0.0
 11
55.04221216833707
 21
16.84760547222174
 31
0.0
  0
LINE
  5
2092
330
2060
100
AcDbEntity
  8
0
 62
     0
100
AcDbLine
 10
51.43981777227009
 20
20.44999986828867
 30
0.0
 11
48.63981777227007
 21
23.24999986828874
 31
0.0
  0
LINE
  5
2093
330
2060
100
AcDbEntity
  8
0
 62
     0
100
AcDbLine
 10
63.59823669651075
 20
8.291580944048007
 30
0.0
 11
61.27069642917752
 21
10.6191212113813
 31
0.0
  0
LINE
  5
2094
330
2060
100
AcDbEntity
  8
0
 62
     0
100
AcDbLine
 10
57.84221216833708
 20
13.1495798601149
 30
0.0
 11
55.04221216833713
 21
15.94957986011485
 31
0.0
  0
LINE
  5
2095
330
2060
100
AcDbEntity
  8
0
 62
     0
100
AcDbLine
 10
50.54179216016326
 20
20.44999986828873
 30
0.0
 11
47.80422543098587
 21
23.18756659746612
 31
0.0
  0
LINE
  5
2096
330
2060
100
AcDbEntity
  8
0
 62
     0
100
AcDbLine
 10
63.16619489918571
 20
7.825597129266213
 30
0.0
 11
60.86911079071001
 21
10.12268123774191
 31
0.0
  0
LINE
  5
2097
330
2060
100
AcDbEntity
  8
0
 62
     0
100
AcDbLine
 10
57.84221216833708
 20
12.25155424800795
 30
0.0
 11
55.04221216833707
 21
15.0515542480079
 31
0.0
  0
LINE
  5
2098
330
2060
100
AcDbEntity
  8
0
 62
     0
100
AcDbLine
 10
49.6437665480563
 20
20.44999986828873
 30
0.0
 11
47.13958500645247
 21
22.9541814098925
 31
0.0
  0
LINE
  5
2099
330
2060
100
AcDbEntity
  8
0
 62
     0
100
AcDbLine
 10
62.63003255425968
 20
7.463733862085348
 30
0.0
 11
60.1437665480563
 21
9.949999868288671
 31
0.0
  0
LINE
  5
209A
330
2060
100
AcDbEntity
  8
0
 62
     0
100
AcDbLine
 10
57.84221216833703
 20
11.353528635901
 30
0.0
 11
55.04221216833713
 21
14.1535286359009
 31
0.0
  0
LINE
  5
209B
330
2060
100
AcDbEntity
  8
0
 62
     0
100
AcDbLine
 10
48.7675307639675
 20
20.42821004027053
 30
0.0
 11
46.59698406924229
 21
22.59875673499573
 31
0.0
  0
LINE
  5
209C
330
2060
100
AcDbEntity
  8
0
 62
     0
100
AcDbLine
 10
61.97361999434838
 20
7.222120809889702
 30
0.0
 11
59.24574093594941
 21
9.949999868288671
 31
0.0
  0
LINE
  5
209D
330
2060
100
AcDbEntity
  8
0
 62
     0
100
AcDbLine
 10
48.39221216833715
 20
19.90550302379392
 30
0.0
 11
46.15887201019774
 21
22.13884318193334
 31
0.0
  0
LINE
  5
209E
330
2060
100
AcDbEntity
  8
0
 62
     0
100
AcDbLine
 10
61.14771532384253
 20
7.149999868288603
 30
0.0
 11
55.04221216833713
 21
13.255503023794
 31
0.0
  0
LINE
  5
209F
330
2060
100
AcDbEntity
  8
0
 62
     0
100
AcDbLine
 10
48.3922121683372
 20
19.00747741168709
 30
0.0
 11
45.82710109784471
 21
21.57258848217958
 31
0.0
  0
LINE
  5
20A0
330
2060
100
AcDbEntity
  8
0
 62
     0
100
AcDbLine
 10
60.24968971173564
 20
7.149999868288603
 30
0.0
 11
55.04221216833719
 21
12.35747741168711
 31
0.0
  0
LINE
  5
20A1
330
2060
100
AcDbEntity
  8
0
 62
     0
100
AcDbLine
 10
48.59875644944094
 20
17.90290751847641
 30
0.0
 11
45.6249225784806
 21
20.87674138943669
 31
0.0
  0
LINE
  5
20A2
330
2060
100
AcDbEntity
  8
0
 62
     0
100
AcDbLine
 10
59.35166409962874
 20
7.149999868288603
 30
0.0
 11
55.04221216833713
 21
11.45945179958022
 31
0.0
  0
LINE
  5
20A3
330
2060
100
AcDbEntity
  8
0
 62
     0
100
AcDbLine
 10
52.81581587102846
 20
12.78782248478194
 30
0.0
 11
45.59221216833708
 21
20.01142618747326
 31
0.0
  0
LINE
  5
20A4
330
2060
100
AcDbEntity
  8
0
 62
     0
100
AcDbLine
 10
43.492212168337
 20
22.11142618747334
 30
0.0
 11
42.35363848752172
 21
23.24999986828868
 31
0.0
  0
LINE
  5
20A5
330
2060
100
AcDbEntity
  8
0
 62
     0
100
AcDbLine
 10
58.4536384875218
 20
7.149999868288603
 30
0.0
 11
55.04221216833713
 21
10.56142618747327
 31
0.0
  0
LINE
  5
20A6
330
2060
100
AcDbEntity
  8
0
 62
     0
100
AcDbLine
 10
52.94221216833716
 20
11.7634005753664
 30
0.0
 11
45.59221216833714
 21
19.11340057536643
 31
0.0
  0
LINE
  5
20A7
330
2060
100
AcDbEntity
  8
0
 62
     0
100
AcDbLine
 10
43.49221216833711
 20
21.21340057536639
 30
0.0
 11
41.45561287541477
 21
23.24999986828879
 31
0.0
  0
LINE
  5
20A8
330
2060
100
AcDbEntity
  8
0
 62
     0
100
AcDbLine
 10
57.53916499667003
 20
7.166447747033544
 30
0.0
 11
55.05866004708201
 21
9.646952696621553
 31
0.0
  0
LINE
  5
20A9
330
2060
100
AcDbEntity
  8
0
 62
     0
100
AcDbLine
 10
43.49221216833711
 20
20.3153749632595
 30
0.0
 11
40.7848222805618
 21
23.02276485103476
 31
0.0
  0
LINE
  5
20AA
330
2060
100
AcDbEntity
  8
0
 62
     0
100
AcDbLine
 10
52.94221216833711
 20
10.86537496325945
 30
0.0
 11
45.61562283621947
 21
18.19196429537715
 31
0.0
  0
LINE
  5
20AB
330
2060
100
AcDbEntity
  8
0
 62
     0
100
AcDbLine
 10
43.49221216833711
 20
19.41734935115255
 30
0.0
 11
40.6922121683371
 21
22.21734935115251
 31
0.0
  0
LINE
  5
20AC
330
2060
100
AcDbEntity
  8
0
 62
     0
100
AcDbLine
 10
52.94221216833699
 20
9.96734935115262
 30
0.0
 11
45.93374225405949
 21
16.97581926543017
 31
0.0
  0
LINE
  5
20AD
330
2060
100
AcDbEntity
  8
0
 62
     0
100
AcDbLine
 10
43.49221216833711
 20
18.51932373904566
 30
0.0
 11
40.69221216833716
 21
21.31932373904561
 31
0.0
  0
LINE
  5
20AE
330
2060
100
AcDbEntity
  8
0
 62
     0
100
AcDbLine
 10
52.83365035074803
 20
9.177885556634748
 30
0.0
 11
50.13801556170972
 21
11.87352034567306
 31
0.0
  0
LINE
  5
20AF
330
2060
100
AcDbEntity
  8
0
 62
     0
100
AcDbLine
 10
43.49221216833711
 20
17.62129812693877
 30
0.0
 11
40.6922121683371
 21
20.42129812693872
 31
0.0
  0
LINE
  5
20B0
330
2060
100
AcDbEntity
  8
0
 62
     0
100
AcDbLine
 10
38.4007252677601
 20
22.71278502751574
 30
0.0
 11
37.86351042698709
 21
23.24999986828879
 31
0.0
  0
LINE
  5
20B1
330
2060
100
AcDbEntity
  8
0
 62
     0
100
AcDbLine
 10
52.56577464298647
 20
8.547735652289418
 30
0.0
 11
50.14221216833715
 21
10.97129812693873
 31
0.0
  0
LINE
  5
20B2
330
2060
100
AcDbEntity
  8
0
 62
     0
100
AcDbLine
 10
43.49221216833706
 20
16.72327251483182
 30
0.0
 11
40.6922121683371
 21
19.52327251483183
 31
0.0
  0
LINE
  5
20B3
330
2060
100
AcDbEntity
  8
0
 62
     0
100
AcDbLine
 10
38.20179760350749
 20
22.01368707966139
 30
0.0
 11
36.9654848148802
 21
23.24999986828874
 31
0.0
  0
LINE
  5
20B4
330
2060
100
AcDbEntity
  8
0
 62
     0
100
AcDbLine
 10
52.18278784481118
 20
8.032696838357765
 30
0.0
 11
50.04492698545067
 21
10.17055769771826
 31
0.0
  0
LINE
  5
20B5
330
2060
100
AcDbEntity
  8
0
 62
     0
100
AcDbLine
 10
43.49221216833706
 20
15.82524690272492
 30
0.0
 11
40.6922121683371
 21
18.62524690272488
 31
0.0
  0
LINE
  5
20B6
330
2060
100
AcDbEntity
  8
0
 62
     0
100
AcDbLine
 10
37.9862714566018
 20
21.33118761446013
 30
0.0
 11
36.07705589313122
 21
23.24040317793077
 31
0.0
  0
LINE
  5
20B7
330
2060
100
AcDbEntity
  8
0
 62
     0
100
AcDbLine
 10
51.69646887969554
 20
7.620990191366388
 30
0.0
 11
49.36745920277331
 21
9.949999868288671
 31
0.0
  0
LINE
  5
20B8
330
2060
100
AcDbEntity
  8
0
 62
     0
100
AcDbLine
 10
43.49221216833711
 20
14.92722129061803
 30
0.0
 11
40.6922121683371
 21
17.72722129061799
 31
0.0
  0
LINE
  5
20B9
330
2060
100
AcDbEntity
  8
0
 62
     0
100
AcDbLine
 10
37.77074530969628
 20
20.64868814925887
 30
0.0
 11
35.64274530969624
 21
22.77668814925892
 31
0.0
  0
LINE
  5
20BA
330
2060
100
AcDbEntity
  8
0
 62
     0
100
AcDbLine
 10
51.10038493123517
 20
7.319048527719928
 30
0.0
 11
48.46943359066642
 21
9.949999868288728
 31
0.0
  0
LINE
  5
20BB
330
2060
100
AcDbEntity
  8
0
 62
     0
100
AcDbLine
 10
43.49221216833706
 20
14.02919567851114
 30
0.0
 11
40.6922121683371
 21
16.8291956785111
 31
0.0
  0
LINE
  5
20BC
330
2060
100
AcDbEntity
  8
0
 62
     0
100
AcDbLine
 10
37.55521916279042
 20
19.96618868405778
 30
0.0
 11
35.42721916279044
 21
22.09418868405777
 31
0.0
  0
LINE
  5
20BD
330
2060
100
AcDbEntity
  8
0
 62
     0
100
AcDbLine
 10
50.3627122795877
 20
7.158695567260508
 30
0.0
 11
47.57140797855953
 21
9.949999868288671
 31
0.0
  0
LINE
  5
20BE
330
2060
100
AcDbEntity
  8
0
 62
     0
100
AcDbLine
 10
43.49221216833706
 20
13.13117006640419
 30
0.0
 11
40.69221216833705
 21
15.93117006640415
 31
0.0
  0
LINE
  5
20BF
330
2060
100
AcDbEntity
  8
0
 62
     0
100
AcDbLine
 10
37.33969301588485
 20
19.28368921885641
 30
0.0
 11
35.21169301588475
 21
21.41168921885645
 31
0.0
  0
LINE
  5
20C0
330
2060
100
AcDbEntity
  8
0
 62
     0
100
AcDbLine
 10
49.47338236645265
 20
7.149999868288603
 30
0.0
 11
46.67338236645258
 21
9.949999868288671
 31
0.0
  0
LINE
  5
20C1
330
2060
100
AcDbEntity
  8
0
 62
     0
100
AcDbLine
 10
43.49221216833706
 20
12.2331444542973
 30
0.0
 11
40.6922121683371
 21
15.03314445429731
 31
0.0
  0
LINE
  5
20C2
330
2060
100
AcDbEntity
  8
0
 62
     0
100
AcDbLine
 10
37.12416686897928
 20
18.60118975365515
 30
0.0
 11
34.99616686897912
 21
20.72918975365525
 31
0.0
  0
LINE
  5
20C3
330
2060
100
AcDbEntity
  8
0
 62
     0
100
AcDbLine
 10
48.57535675434576
 20
7.149999868288659
 30
0.0
 11
46.14174505704937
 21
9.583611565585044
 31
0.0
  0
LINE
  5
20C4
330
2060
100
AcDbEntity
  8
0
 62
     0
100
AcDbLine
 10
36.90864072207353
 20
17.91869028845394
 30
0.0
 11
34.78064072207349
 21
20.04669028845399
 31
0.0
  0
LINE
  5
20C5
330
2060
100
AcDbEntity
  8
0
 62
     0
100
AcDbLine
 10
43.49221216833706
 20
11.33511884219041
 30
0.0
 11
40.6922121683371
 21
14.13511884219036
 31
0.0
  0
LINE
  5
20C6
330
2060
100
AcDbEntity
  8
0
 62
     0
100
AcDbLine
 10
32.6422121683371
 20
22.18511884219038
 30
0.0
 11
31.57733114223879
 21
23.24999986828863
 31
0.0
  0
LINE
  5
20C7
330
2060
100
AcDbEntity
  8
0
 62
     0
100
AcDbLine
 10
47.67733114223887
 20
7.149999868288603
 30
0.0
 11
46.11721216833712
 21
8.710118842190354
 31
0.0
  0
LINE
  5
20C8
330
2060
100
AcDbEntity
  8
0
 62
     0
100
AcDbLine
 10
36.69311457516784
 20
17.23619082325268
 30
0.0
 11
34.56511457516786
 21
19.36419082325267
 31
0.0
  0
LINE
  5
20C9
330
2060
100
AcDbEntity
  8
0
 62
     0
100
AcDbLine
 10
43.49221216833706
 20
10.43709323008346
 30
0.0
 11
40.69221216833705
 21
13.23709323008347
 31
0.0
  0
LINE
  5
20CA
330
2060
100
AcDbEntity
  8
0
 62
     0
100
AcDbLine
 10
32.6422121683371
 20
21.28709323008343
 30
0.0
 11
30.6793055301319
 21
23.24999986828863
 31
0.0
  0
LINE
  5
20CB
330
2060
100
AcDbEntity
  8
0
 62
     0
100
AcDbLine
 10
46.77930553013186
 20
7.149999868288659
 30
0.0
 11
46.11721216833706
 21
7.812093230083405
 31
0.0
  0
LINE
  5
20CC
330
2060
100
AcDbEntity
  8
0
 62
     0
100
AcDbLine
 10
36.47758842826215
 20
16.55369135805142
 30
0.0
 11
34.34958842826211
 21
18.68169135805146
 31
0.0
  0
LINE
  5
20CD
330
2060
100
AcDbEntity
  8
0
 62
     0
100
AcDbLine
 10
32.64221216833704
 20
20.38906761797648
 30
0.0
 11
29.96676723943944
 21
23.06451254687414
 31
0.0
  0
LINE
  5
20CE
330
2060
100
AcDbEntity
  8
0
 62
     0
100
AcDbLine
 10
43.492212168337
 20
9.53906761797657
 30
0.0
 11
40.69221216833705
 21
12.33906761797652
 31
0.0
  0
LINE
  5
20CF
330
2060
100
AcDbEntity
  8
0
 62
     0
100
AcDbLine
 10
36.26206228135652
 20
15.87119189285022
 30
0.0
 11
34.13406228135654
 21
17.9991918928502
 31
0.0
  0
LINE
  5
20D0
330
2060
100
AcDbEntity
  8
0
 62
     0
100
AcDbLine
 10
32.6422121683371
 20
19.49104200586964
 30
0.0
 11
29.84221216833703
 21
22.29104200586966
 31
0.0
  0
LINE
  5
20D1
330
2060
100
AcDbEntity
  8
0
 62
     0
100
AcDbLine
 10
43.49221216833706
 20
8.641042005869678
 30
0.0
 11
40.69221216833705
 21
11.44104200586963
 31
0.0
  0
LINE
  5
20D2
330
2060
100
AcDbEntity
  8
0
 62
     0
100
AcDbLine
 10
36.05697377196463
 20
15.17825479013515
 30
0.0
 11
33.91853613445079
 21
17.316692427649
 31
0.0
  0
LINE
  5
20D3
330
2060
100
AcDbEntity
  8
0
 62
     0
100
AcDbLine
 10
32.6422121683371
 20
18.59301639376269
 30
0.0
 11
29.84221216833703
 21
21.39301639376276
 31
0.0
  0
LINE
  5
20D4
330
2060
100
AcDbEntity
  8
0
 62
     0
100
AcDbLine
 10
43.492212168337
 20
7.743016393762729
 30
0.0
 11
40.69221216833705
 21
10.54301639376274
 31
0.0
  0
LINE
  5
20D5
330
2060
100
AcDbEntity
  8
0
 62
     0
100
AcDbLine
 10
36.47144713139863
 20
13.86575581859421
 30
0.0
 11
33.62798863876617
 21
16.70921431122667
 31
0.0
  0
LINE
  5
20D6
330
2060
100
AcDbEntity
  8
0
 62
     0
100
AcDbLine
 10
32.64221216833715
 20
17.69499078165569
 30
0.0
 11
29.84221216833697
 21
20.49499078165581
 31
0.0
  0
LINE
  5
20D7
330
2060
100
AcDbEntity
  8
0
 62
     0
100
AcDbLine
 10
43.15316717100467
 20
7.184035778988118
 30
0.0
 11
40.6922121683371
 21
9.644990781655735
 31
0.0
  0
LINE
  5
20D8
330
2060
100
AcDbEntity
  8
0
 62
     0
100
AcDbLine
 10
36.88592049083269
 20
12.55325684705332
 30
0.0
 11
29.84221216833703
 21
19.59696516954898
 31
0.0
  0
LINE
  5
20D9
330
2060
100
AcDbEntity
  8
0
 62
     0
100
AcDbLine
 10
27.39221216833715
 20
22.04696516954886
 30
0.0
 11
26.18917746959738
 21
23.24999986828863
 31
0.0
  0
LINE
  5
20DA
330
2060
100
AcDbEntity
  8
0
 62
     0
100
AcDbLine
 10
42.28917746959734
 20
7.149999868288659
 30
0.0
 11
40.69221216833716
 21
8.746965169548843
 31
0.0
  0
LINE
  5
20DB
330
2060
100
AcDbEntity
  8
0
 62
     0
100
AcDbLine
 10
37.30039385026657
 20
11.24075787551243
 30
0.0
 11
29.84221216833703
 21
18.69893955744203
 31
0.0
  0
LINE
  5
20DC
330
2060
100
AcDbEntity
  8
0
 62
     0
100
AcDbLine
 10
27.39221216833715
 20
21.14893955744191
 30
0.0
 11
25.29115185749038
 21
23.24999986828868
 31
0.0
  0
LINE
  5
20DD
330
2060
100
AcDbEntity
  8
0
 62
     0
100
AcDbLine
 10
41.39115185749034
 20
7.149999868288716
 30
0.0
 11
40.6922121683371
 21
7.848939557441951
 31
0.0
  0
LINE
  5
20DE
330
2060
100
AcDbEntity
  8
0
 62
     0
100
AcDbLine
 10
27.12530547294705
 20
20.51782064072506
 30
0.0
 11
24.42508375473563
 21
23.21804235893643
 31
0.0
  0
LINE
  5
20DF
330
2060
100
AcDbEntity
  8
0
 62
     0
100
AcDbLine
 10
37.71486720970051
 20
9.928258903971595
 30
0.0
 11
29.84221216833709
 21
17.80091394533502
 31
0.0
  0
LINE
  5
20E0
330
2060
100
AcDbEntity
  8
0
 62
     0
100
AcDbLine
 10
32.97972109067871
 20
13.76537941088651
 30
0.0
 11
29.84221216833709
 21
16.90288833322813
 31
0.0
  0
LINE
  5
20E1
330
2060
100
AcDbEntity
  8
0
 62
     0
100
AcDbLine
 10
26.29510063327661
 20
20.44999986828856
 30
0.0
 11
23.68704068514836
 21
23.05805981641686
 31
0.0
  0
LINE
  5
20E2
330
2060
100
AcDbEntity
  8
0
 62
     0
100
AcDbLine
 10
38.12934056913451
 20
8.615759932430705
 30
0.0
 11
34.03703287682663
 21
12.70806762473853
 31
0.0
  0
LINE
  5
20E3
330
2060
100
AcDbEntity
  8
0
 62
     0
100
AcDbLine
 10
32.64221216833715
 20
13.20486272112117
 30
0.0
 11
29.84221216833709
 21
16.00486272112124
 31
0.0
  0
LINE
  5
20E4
330
2060
100
AcDbEntity
  8
0
 62
     0
100
AcDbLine
 10
25.3970750211696
 20
20.44999986828867
 30
0.0
 11
23.04831926931763
 21
22.79875562014064
 31
0.0
  0
LINE
  5
20E5
330
2060
100
AcDbEntity
  8
0
 62
     0
100
AcDbLine
 10
38.36437942684512
 20
7.48269546261315
 30
0.0
 11
34.45150623626057
 21
11.39556865319775
 31
0.0
  0
LINE
  5
20E6
330
2060
100
AcDbEntity
  8
0
 62
     0
100
AcDbLine
 10
32.6422121683371
 20
12.30683710901428
 30
0.0
 11
29.84221216833703
 21
15.10683710901429
 31
0.0
  0
LINE
  5
20E7
330
2060
100
AcDbEntity
  8
0
 62
     0
100
AcDbLine
 10
24.55396151862607
 20
20.39508775872531
 30
0.0
 11
22.48957029398309
 21
22.45947898336829
 31
0.0
  0
LINE
  5
20E8
330
2060
100
AcDbEntity
  8
0
 62
     0
100
AcDbLine
 10
37.79904940906277
 20
7.149999868288603
 30
0.0
 11
34.86597959569451
 21
10.08306968165686
 31
0.0
  0
LINE
  5
20E9
330
2060
100
AcDbEntity
  8
0
 62
     0
100
AcDbLine
 10
32.6422121683371
 20
11.40881149690733
 30
0.0
 11
29.84221216833703
 21
14.2088114969074
 31
0.0
  0
LINE
  5
20EA
330
2060
100
AcDbEntity
  8
0
 62
     0
100
AcDbLine
 10
23.98210532578707
 20
20.06891833945736
 30
0.0
 11
22.00191508537131
 21
22.04910857987312
 31
0.0
  0
LINE
  5
20EB
330
2060
100
AcDbEntity
  8
0
 62
     0
100
AcDbLine
 10
36.90102379695583
 20
7.149999868288603
 30
0.0
 11
35.28045295512857
 21
8.770570710115862
 31
0.0
  0
LINE
  5
20EC
330
2060
100
AcDbEntity
  8
0
 62
     0
100
AcDbLine
 10
27.72764130113484
 20
15.42535675200275
 30
0.0
 11
26.21756905205109
 21
16.9354290010865
 31
0.0
  0
LINE
  5
20ED
330
2060
100
AcDbEntity
  8
0
 62
     0
100
AcDbLine
 10
32.64221216833721
 20
10.51078588480038
 30
0.0
 11
29.84221216833709
 21
13.31078588480051
 31
0.0
  0
LINE
  5
20EE
330
2060
100
AcDbEntity
  8
0
 62
     0
100
AcDbLine
 10
23.62598375565813
 20
19.52701429747946
 30
0.0
 11
21.58254905936008
 21
21.57044899377752
 31
0.0
  0
LINE
  5
20EF
330
2060
100
AcDbEntity
  8
0
 62
     0
100
AcDbLine
 10
35.95266518064432
 20
7.200332872493277
 30
0.0
 11
35.70231100905301
 21
7.450687044084588
 31
0.0
  0
LINE
  5
20F0
330
2060
100
AcDbEntity
  8
0
 62
     0
100
AcDbLine
 10
27.64112764099292
 20
14.61384480003772
 30
0.0
 11
25.40605710008606
 21
16.84891534094458
 31
0.0
  0
LINE
  5
20F1
330
2060
100
AcDbEntity
  8
0
 62
     0
100
AcDbLine
 10
23.54221216833719
 20
18.71276027269346
 30
0.0
 11
21.23361003839841
 21
21.02136240263224
 31
0.0
  0
LINE
  5
20F2
330
2060
100
AcDbEntity
  8
0
 62
     0
100
AcDbLine
 10
32.64221216833715
 20
9.612760272693435
 30
0.0
 11
29.84221216833703
 21
12.41276027269362
 31
0.0
  0
LINE
  5
20F3
330
2060
100
AcDbEntity
  8
0
 62
     0
100
AcDbLine
 10
27.30927208169487
 20
14.04767474722877
 30
0.0
 11
24.8398870472771
 21
16.51705978164654
 31
0.0
  0
LINE
  5
20F4
330
2060
100
AcDbEntity
  8
0
 62
     0
100
AcDbLine
 10
23.54221216833719
 20
17.81473466058651
 30
0.0
 11
20.96303033118823
 21
20.39391649773546
 31
0.0
  0
LINE
  5
20F5
330
2060
100
AcDbEntity
  8
0
 62
     0
100
AcDbLine
 10
32.64221216833715
 20
8.714734660586543
 30
0.0
 11
29.84221216833709
 21
11.51473466058661
 31
0.0
  0
LINE
  5
20F6
330
2060
100
AcDbEntity
  8
0
 62
     0
100
AcDbLine
 10
23.54221216833719
 20
16.91670904847962
 30
0.0
 11
20.78831645826239
 21
19.67060475855447
 31
0.0
  0
LINE
  5
20F7
330
2060
100
AcDbEntity
  8
0
 62
     0
100
AcDbLine
 10
26.80743863955843
 20
13.65148257725843
 30
0.0
 11
24.44369487730677
 21
16.01522633951009
 31
0.0
  0
LINE
  5
20F8
330
2060
100
AcDbEntity
  8
0
 62
     0
100
AcDbLine
 10
18.11721216833712
 20
22.34170904847974
 30
0.0
 11
17.20892134852812
 21
23.24999986828874
 31
0.0
  0
LINE
  5
20F9
330
2060
100
AcDbEntity
  8
0
 62
     0
100
AcDbLine
 10
32.64221216833721
 20
7.816709048479651
 30
0.0
 11
29.84221216833714
 21
10.61670904847972
 31
0.0
  0
LINE
  5
20FA
330
2060
100
AcDbEntity
  8
0
 62
     0
100
AcDbLine
 10
23.54221216833719
 20
16.01868343637272
 30
0.0
 11
20.74221216833712
 21
18.81868343637279
 31
0.0
  0
LINE
  5
20FB
330
2060
100
AcDbEntity
  8
0
 62
     0
100
AcDbLine
 10
26.107119197131
 20
13.45377640757891
 30
0.0
 11
24.24598870762725
 21
15.31490689708266
 31
0.0
  0
LINE
  5
20FC
330
2060
100
AcDbEntity
  8
0
 62
     0
100
AcDbLine
 10
18.11721216833706
 20
21.4436834363728
 30
0.0
 11
16.31089573642117
 21
23.24999986828868
 31
0.0
  0
LINE
  5
20FD
330
2060
100
AcDbEntity
  8
0
 62
     0
100
AcDbLine
 10
32.3543083670665
 20
7.206587237643418
 30
0.0
 11
29.84221216833709
 21
9.718683436372771
 31
0.0
  0
LINE
  5
20FE
330
2060
100
AcDbEntity
  8
0
 62
     0
100
AcDbLine
 10
23.54221216833719
 20
15.12065782426577
 30
0.0
 11
20.74221216833712
 21
17.92065782426584
 31
0.0
  0
LINE
  5
20FF
330
2060
100
AcDbEntity
  8
0
 62
     0
100
AcDbLine
 10
18.00817819806673
 20
20.65469179453623
 30
0.0
 11
15.41287012431417
 21
23.24999986828874
 31
0.0
  0
LINE
  5
2100
330
2060
100
AcDbEntity
  8
0
 62
     0
100
AcDbLine
 10
31.5128701243143
 20
7.149999868288659
 30
0.0
 11
29.84221216833709
 21
8.820657824265879
 31
0.0
  0
LINE
  5
2101
330
2060
100
AcDbEntity
  8
0
 62
     0
100
AcDbLine
 10
23.54221216833713
 20
14.22263221215888
 30
0.0
 11
20.74221216833706
 21
17.02263221215889
 31
0.0
  0
LINE
  5
2102
330
2060
100
AcDbEntity
  8
0
 62
     0
100
AcDbLine
 10
17.31484451220734
 20
20.44999986828867
 30
0.0
 11
14.51484451220727
 21
23.24999986828874
 31
0.0
  0
LINE
  5
2103
330
2060
100
AcDbEntity
  8
0
 62
     0
100
AcDbLine
 10
30.61484451220735
 20
7.149999868288603
 30
0.0
 11
29.84221216833709
 21
7.92263221215893
 31
0.0
  0
LINE
  5
2104
330
2060
100
AcDbEntity
  8
0
 62
     0
100
AcDbLine
 10
23.54221216833725
 20
13.32460660005194
 30
0.0
 11
20.74221216833712
 21
16.12460660005206
 31
0.0
  0
LINE
  5
2105
330
2060
100
AcDbEntity
  8
0
 62
     0
100
AcDbLine
 10
16.41681890010045
 20
20.44999986828873
 30
0.0
 11
13.65168962799561
 21
23.21512914039357
 31
0.0
  0
LINE
  5
2106
330
2060
100
AcDbEntity
  8
0
 62
     0
100
AcDbLine
 10
27.38960971950019
 20
9.477209048888937
 30
0.0
 11
26.91942134893748
 21
9.947397419451704
 31
0.0
  0
LINE
  5
2107
330
2060
100
AcDbEntity
  8
0
 62
     0
100
AcDbLine
 10
23.54221216833725
 20
12.42658098794499
 30
0.0
 11
20.74221216833712
 21
15.22658098794511
 31
0.0
  0
LINE
  5
2108
330
2060
100
AcDbEntity
  8
0
 62
     0
100
AcDbLine
 10
15.5187932879935
 20
20.44999986828867
 30
0.0
 11
12.95855481951713
 21
23.0102383367651
 31
0.0
  0
LINE
  5
2109
330
2060
100
AcDbEntity
  8
0
 62
     0
100
AcDbLine
 10
27.39221216833721
 20
8.576580987945021
 30
0.0
 11
26.01879328799356
 21
9.949999868288671
 31
0.0
  0
LINE
  5
210A
330
2060
100
AcDbEntity
  8
0
 62
     0
100
AcDbLine
 10
23.54221216833719
 20
11.52855537583804
 30
0.0
 11
20.74221216833718
 21
14.32855537583811
 31
0.0
  0
LINE
  5
210B
330
2060
100
AcDbEntity
  8
0
 62
     0
100
AcDbLine
 10
14.62076767588667
 20
20.44999986828856
 30
0.0
 11
12.39430815966989
 21
22.67645938450534
 31
0.0
  0
LINE
  5
210C
330
2060
100
AcDbEntity
  8
0
 62
     0
100
AcDbLine
 10
27.39221216833715
 20
7.678555375838072
 30
0.0
 11
25.12076767588667
 21
9.949999868288557
 31
0.0
  0
LINE
  5
210D
330
2060
100
AcDbEntity
  8
0
 62
     0
100
AcDbLine
 10
14.11047484827207
 20
20.06226708379637
 30
0.0
 11
11.93621534742914
 21
22.23652658463931
 31
0.0
  0
LINE
  5
210E
330
2060
100
AcDbEntity
  8
0
 62
     0
100
AcDbLine
 10
27.0044793838448
 20
7.168262548223651
 30
0.0
 11
20.74221216833718
 21
13.43052976373127
 31
0.0
  0
LINE
  5
210F
330
2060
100
AcDbEntity
  8
0
 62
     0
100
AcDbLine
 10
14.09221216833714
 20
19.18250415162436
 30
0.0
 11
11.58273414496005
 21
21.69198217500144
 31
0.0
  0
LINE
  5
2110
330
2060
100
AcDbEntity
  8
0
 62
     0
100
AcDbLine
 10
26.1247164516729
 20
7.149999868288603
 30
0.0
 11
20.74221216833718
 21
12.53250415162432
 31
0.0
  0
LINE
  5
2111
330
2060
100
AcDbEntity
  8
0
 62
     0
100
AcDbLine
 10
14.15434787647257
 20
18.22234283138192
 30
0.0
 11
11.35185404266633
 21
21.02483666518822
 31
0.0
  0
LINE
  5
2112
330
2060
100
AcDbEntity
  8
0
 62
     0
100
AcDbLine
 10
25.22669083956589
 20
7.149999868288659
 30
0.0
 11
20.74221216833712
 21
11.63447853951737
 31
0.0
  0
LINE
  5
2113
330
2060
100
AcDbEntity
  8
0
 62
     0
100
AcDbLine
 10
18.4465882595598
 20
13.03207683618785
 30
0.0
 11
11.29221216833719
 21
20.18645292741047
 31
0.0
  0
LINE
  5
2114
330
2060
100
AcDbEntity
  8
0
 62
     0
100
AcDbLine
 10
24.27539314040235
 20
7.203271955345314
 30
0.0
 11
20.79548425539377
 21
10.68318084035388
 31
0.0
  0
LINE
  5
2115
330
2060
100
AcDbEntity
  8
0
 62
     0
100
AcDbLine
 10
18.63848277364502
 20
11.94215670999574
 30
0.0
 11
11.29221216833707
 21
19.28842731530369
 31
0.0
  0
LINE
  5
2116
330
2060
100
AcDbEntity
  8
0
 62
     0
100
AcDbLine
 10
22.90158522780075
 20
7.679054255839957
 30
0.0
 11
21.27126655588836
 21
9.309372927752406
 31
0.0
  0
LINE
  5
2117
330
2060
100
AcDbEntity
  8
0
 62
     0
100
AcDbLine
 10
18.64221216833721
 20
11.0404017031966
 30
0.0
 11
11.29977661575947
 21
18.38283725577429
 31
0.0
  0
LINE
  5
2118
330
2060
100
AcDbEntity
  8
0
 62
     0
100
AcDbLine
 10
18.64221216833709
 20
10.14237609108977
 30
0.0
 11
11.52306737408332
 21
17.26152088534348
 31
0.0
  0
LINE
  5
2119
330
2060
100
AcDbEntity
  8
0
 62
     0
100
AcDbLine
 10
18.56969217220518
 20
9.316870475114853
 30
0.0
 11
15.80630052858612
 21
12.08026211873391
 31
0.0
  0
LINE
  5
211A
330
2060
100
AcDbEntity
  8
0
 62
     0
100
AcDbLine
 10
18.32775423317633
 20
8.660782802036749
 30
0.0
 11
15.84221216833708
 21
11.146324866876
 31
0.0
  0
LINE
  5
211B
330
2060
100
AcDbEntity
  8
0
 62
     0
100
AcDbLine
 10
17.96563498579456
 20
8.12487643731157
 30
0.0
 11
15.80631313603641
 21
10.28419828706973
 31
0.0
  0
LINE
  5
211C
330
2060
100
AcDbEntity
  8
0
 62
     0
100
AcDbLine
 10
17.49940861352769
 20
7.693077197471552
 30
0.0
 11
15.24248594271057
 21
9.949999868288728
 31
0.0
  0
LINE
  5
211D
330
2060
100
AcDbEntity
  8
0
 62
     0
100
AcDbLine
 10
16.92614416579488
 20
7.368316033097471
 30
0.0
 11
14.34446033060362
 21
9.949999868288671
 31
0.0
  0
LINE
  5
211E
330
2060
100
AcDbEntity
  8
0
 62
     0
100
AcDbLine
 10
16.22073157670894
 20
7.17570301007646
 30
0.0
 11
13.44643471849673
 21
9.949999868288671
 31
0.0
  0
LINE
  5
211F
330
2060
100
AcDbEntity
  8
0
 62
     0
100
AcDbLine
 10
15.34840910638979
 20
7.149999868288659
 30
0.0
 11
12.54840910638978
 21
9.949999868288671
 31
0.0
  0
LINE
  5
2120
330
2060
100
AcDbEntity
  8
0
 62
     0
100
AcDbLine
 10
14.45038349428296
 20
7.149999868288603
 30
0.0
 11
11.89705959946508
 21
9.703323763106538
 31
0.0
  0
LINE
  5
2121
330
2060
100
AcDbEntity
  8
0
 62
     0
100
AcDbLine
 10
13.55235788217595
 20
7.149999868288659
 30
0.0
 11
11.81721216833716
 21
8.885145582127449
 31
0.0
  0
LINE
  5
2122
330
2060
100
AcDbEntity
  8
0
 62
     0
100
AcDbLine
 10
12.65433227006912
 20
7.149999868288603
 30
0.0
 11
11.81721216833716
 21
7.987119970020557
 31
0.0
  0
LINE
  5
2123
330
2060
100
AcDbEntity
  8
0
 62
     0
100
AcDbLine
 10
68.63389945300406
 20
7.163131645406167
 30
0.0
 11
69.02908039121985
 21
7.558312583621955
 31
0.0
  0
LINE
  5
2124
330
2060
100
AcDbEntity
  8
0
 62
     0
100
AcDbLine
 10
67.72274206377961
 20
7.149999868288546
 30
0.0
 11
69.0422121683373
 21
8.469469972846241
 31
0.0
  0
LINE
  5
2125
330
2060
100
AcDbEntity
  8
0
 62
     0
100
AcDbLine
 10
66.82471645167272
 20
7.149999868288546
 30
0.0
 11
69.0422121683373
 21
9.367495584953132
 31
0.0
  0
LINE
  5
2126
330
2060
100
AcDbEntity
  8
0
 62
     0
100
AcDbLine
 10
66.27340973158897
 20
7.49671876031175
 30
0.0
 11
69.04221216833724
 21
10.26552119706008
 31
0.0
  0
LINE
  5
2127
330
2060
100
AcDbEntity
  8
0
 62
     0
100
AcDbLine
 10
66.24221216833717
 20
8.363546809166905
 30
0.0
 11
69.04221216833724
 21
11.16354680916691
 31
0.0
  0
LINE
  5
2128
330
2060
100
AcDbEntity
  8
0
 62
     0
100
AcDbLine
 10
66.24221216833723
 20
9.261572421273797
 30
0.0
 11
69.04221216833724
 21
12.06157242127386
 31
0.0
  0
LINE
  5
2129
330
2060
100
AcDbEntity
  8
0
 62
     0
100
AcDbLine
 10
66.24221216833717
 20
10.15959803338074
 30
0.0
 11
69.04221216833724
 21
12.95959803338081
 31
0.0
  0
LINE
  5
212A
330
2060
100
AcDbEntity
  8
0
 62
     0
100
AcDbLine
 10
66.24221216833717
 20
11.05762364548763
 30
0.0
 11
69.04221216833724
 21
13.8576236454877
 31
0.0
  0
LINE
  5
212B
330
2060
100
AcDbEntity
  8
0
 62
     0
100
AcDbLine
 10
62.66877703040245
 20
7.484188507552914
 30
0.0
 11
63.80802352907301
 21
8.62343500622353
 31
0.0
  0
LINE
  5
212C
330
2060
100
AcDbEntity
  8
0
 62
     0
100
AcDbLine
 10
66.24221216833717
 20
11.95564925759453
 30
0.0
 11
69.04221216833724
 21
14.7556492575946
 31
0.0
  0
LINE
  5
212D
330
2060
100
AcDbEntity
  8
0
 62
     0
100
AcDbLine
 10
61.43820886387965
 20
7.151645953137006
 30
0.0
 11
64.14056608348897
 21
9.854003172746274
 31
0.0
  0
LINE
  5
212E
330
2060
100
AcDbEntity
  8
0
 62
     0
100
AcDbLine
 10
66.24221216833717
 20
12.85367486970148
 30
0.0
 11
69.04221216833724
 21
15.65367486970149
 31
0.0
  0
LINE
  5
212F
330
2060
100
AcDbEntity
  8
0
 62
     0
100
AcDbLine
 10
60.53853716692424
 20
7.149999868288546
 30
0.0
 11
64.14221216833727
 21
10.75367486970151
 31
0.0
  0
LINE
  5
2130
330
2060
100
AcDbEntity
  8
0
 62
     0
100
AcDbLine
 10
66.24221216833717
 20
13.75170048180837
 30
0.0
 11
69.04221216833718
 21
16.55170048180844
 31
0.0
  0
LINE
  5
2131
330
2060
100
AcDbEntity
  8
0
 62
     0
100
AcDbLine
 10
59.64051155481735
 20
7.149999868288546
 30
0.0
 11
64.14221216833721
 21
11.65170048180846
 31
0.0
  0
LINE
  5
2132
330
2060
100
AcDbEntity
  8
0
 62
     0
100
AcDbLine
 10
66.24221216833729
 20
14.64972609391532
 30
0.0
 11
69.04221216833724
 21
17.44972609391533
 31
0.0
  0
LINE
  5
2133
330
2060
100
AcDbEntity
  8
0
 62
     0
100
AcDbLine
 10
58.74248594271051
 20
7.149999868288603
 30
0.0
 11
64.14221216833727
 21
12.54972609391535
 31
0.0
  0
LINE
  5
2134
330
2060
100
AcDbEntity
  8
0
 62
     0
100
AcDbLine
 10
61.23762096625615
 20
10.54316050394118
 30
0.0
 11
64.14221216833727
 21
13.44775170602224
 31
0.0
  0
LINE
  5
2135
330
2060
100
AcDbEntity
  8
0
 62
     0
100
AcDbLine
 10
66.24221216833723
 20
15.54775170602226
 30
0.0
 11
69.04221216833724
 21
18.34775170602222
 31
0.0
  0
LINE
  5
2136
330
2060
100
AcDbEntity
  8
0
 62
     0
100
AcDbLine
 10
57.84446033060351
 20
7.149999868288546
 30
0.0
 11
60.74905153268463
 21
10.05459107036961
 31
0.0
  0
LINE
  5
2137
330
2060
100
AcDbEntity
  8
0
 62
     0
100
AcDbLine
 10
61.34221216833714
 20
11.54577731812912
 30
0.0
 11
64.14221216833721
 21
14.34577731812919
 31
0.0
  0
LINE
  5
2138
330
2060
100
AcDbEntity
  8
0
 62
     0
100
AcDbLine
 10
66.24221216833723
 20
16.44577731812916
 30
0.0
 11
69.04221216833718
 21
19.24577731812917
 31
0.0
  0
LINE
  5
2139
330
2060
100
AcDbEntity
  8
0
 62
     0
100
AcDbLine
 10
57.05838446987383
 20
7.261949619665756
 30
0.0
 11
59.74643471849669
 21
9.949999868288614
 31
0.0
  0
LINE
  5
213A
330
2060
100
AcDbEntity
  8
0
 62
     0
100
AcDbLine
 10
61.3422121683372
 20
12.44380293023613
 30
0.0
 11
64.14221216833721
 21
15.24380293023608
 31
0.0
  0
LINE
  5
213B
330
2060
100
AcDbEntity
  8
0
 62
     0
100
AcDbLine
 10
66.24221216833717
 20
17.34380293023611
 30
0.0
 11
69.04221216833718
 21
20.14380293023606
 31
0.0
  0
LINE
  5
213C
330
2060
100
AcDbEntity
  8
0
 62
     0
100
AcDbLine
 10
56.43039760266367
 20
7.531988364562607
 30
0.0
 11
58.84928689203412
 21
9.950877653933048
 31
0.0
  0
LINE
  5
213D
330
2060
100
AcDbEntity
  8
0
 62
     0
100
AcDbLine
 10
61.34221216833726
 20
13.34182854234302
 30
0.0
 11
64.14221216833721
 21
16.14182854234298
 31
0.0
  0
LINE
  5
213E
330
2060
100
AcDbEntity
  8
0
 62
     0
100
AcDbLine
 10
66.24221216833723
 20
18.241828542343
 30
0.0
 11
69.04221216833718
 21
21.04182854234295
 31
0.0
  0
LINE
  5
213F
330
2060
100
AcDbEntity
  8
0
 62
     0
100
AcDbLine
 10
55.91713772129861
 20
7.916754095304327
 30
0.0
 11
58.20580830332142
 21
10.20542467732719
 31
0.0
  0
LINE
  5
2140
330
2060
100
AcDbEntity
  8
0
 62
     0
100
AcDbLine
 10
61.34221216833726
 20
14.23985415444991
 30
0.0
 11
64.14221216833721
 21
17.03985415444992
 31
0.0
  0
LINE
  5
2141
330
2060
100
AcDbEntity
  8
0
 62
     0
100
AcDbLine
 10
66.24221216833723
 20
19.13985415444989
 30
0.0
 11
69.04221216833718
 21
21.9398541544499
 31
0.0
  0
LINE
  5
2142
330
2060
100
AcDbEntity
  8
0
 62
     0
100
AcDbLine
 10
55.50717354607349
 20
8.404815532186148
 30
0.0
 11
57.868570024912
 21
10.76621201102472
 31
0.0
  0
LINE
  5
2143
330
2060
100
AcDbEntity
  8
0
 62
     0
100
AcDbLine
 10
61.3422121683372
 20
15.13787976655686
 30
0.0
 11
64.14221216833727
 21
17.93787976655693
 31
0.0
  0
LINE
  5
2144
330
2060
100
AcDbEntity
  8
0
 62
     0
100
AcDbLine
 10
66.24221216833717
 20
20.03787976655684
 30
0.0
 11
69.03206301478673
 21
22.82773061300639
 31
0.0
  0
LINE
  5
2145
330
2060
100
AcDbEntity
  8
0
 62
     0
100
AcDbLine
 10
55.20724866763948
 20
9.002916265859141
 30
0.0
 11
57.8422121683372
 21
11.6378797665568
 31
0.0
  0
LINE
  5
2146
330
2060
100
AcDbEntity
  8
0
 62
     0
100
AcDbLine
 10
61.34221216833726
 20
16.0359053786637
 30
0.0
 11
64.14221216833732
 21
18.83590537866377
 31
0.0
  0
LINE
  5
2147
330
2060
100
AcDbEntity
  8
0
 62
     0
100
AcDbLine
 10
66.24221216833729
 20
20.93590537866379
 30
0.0
 11
68.55494866970724
 21
23.24864188003374
 31
0.0
  0
LINE
  5
2148
330
2060
100
AcDbEntity
  8
0
 62
     0
100
AcDbLine
 10
55.04983513268303
 20
9.743528343009529
 30
0.0
 11
57.8422121683372
 21
12.5359053786637
 31
0.0
  0
LINE
  5
2149
330
2060
100
AcDbEntity
  8
0
 62
     0
100
AcDbLine
 10
61.3422121683372
 20
16.93393099077065
 30
0.0
 11
64.14221216833727
 21
19.73393099077071
 31
0.0
  0
LINE
  5
214A
330
2060
100
AcDbEntity
  8
0
 62
     0
100
AcDbLine
 10
66.24221216833729
 20
21.83393099077068
 30
0.0
 11
67.65828104585517
 21
23.24999986828863
 31
0.0
  0
LINE
  5
214B
330
2060
100
AcDbEntity
  8
0
 62
     0
100
AcDbLine
 10
55.04221216833724
 20
10.63393099077063
 30
0.0
 11
57.84221216833725
 21
13.4339309907707
 31
0.0
  0
LINE
  5
214C
330
2060
100
AcDbEntity
  8
0
 62
     0
100
AcDbLine
 10
61.3422121683372
 20
17.83195660287759
 30
0.0
 11
64.14221216833727
 21
20.63195660287761
 31
0.0
  0
LINE
  5
214D
330
2060
100
AcDbEntity
  8
0
 62
     0
100
AcDbLine
 10
55.04221216833719
 20
11.53195660287758
 30
0.0
 11
57.84221216833725
 21
14.33195660287765
 31
0.0
  0
LINE
  5
214E
330
2060
100
AcDbEntity
  8
0
 62
     0
100
AcDbLine
 10
66.24225888308462
 20
22.73200331762502
 30
0.0
 11
66.7602087190009
 21
23.24995315354124
 31
0.0
  0
LINE
  5
214F
330
2060
100
AcDbEntity
  8
0
 62
     0
100
AcDbLine
 10
50.72065653762519
 20
7.21040097216553
 30
0.0
 11
52.88181106446035
 21
9.371555499000749
 31
0.0
  0
LINE
  5
2150
330
2060
100
AcDbEntity
  8
0
 62
     0
100
AcDbLine
 10
55.04221216833719
 20
12.42998221498448
 30
0.0
 11
57.84221216833725
 21
15.22998221498454
 31
0.0
  0
LINE
  5
2151
330
2060
100
AcDbEntity
  8
0
 62
     0
100
AcDbLine
 10
61.3422121683372
 20
18.72998221498449
 30
0.0
 11
64.14221216833721
 21
21.52998221498456
 31
0.0
  0
LINE
  5
2152
330
2060
100
AcDbEntity
  8
0
 62
     0
100
AcDbLine
 10
49.76222982164131
 20
7.149999868288659
 30
0.0
 11
52.94221216833716
 21
10.32998221498451
 31
0.0
  0
LINE
  5
2153
330
2060
100
AcDbEntity
  8
0
 62
     0
100
AcDbLine
 10
55.04221216833719
 20
13.32800782709137
 30
0.0
 11
57.84221216833725
 21
16.12800782709143
 31
0.0
  0
LINE
  5
2154
330
2060
100
AcDbEntity
  8
0
 62
     0
100
AcDbLine
 10
61.3422121683372
 20
19.62800782709138
 30
0.0
 11
64.14221216833727
 21
22.42800782709145
 31
0.0
  0
LINE
  5
2155
330
2060
100
AcDbEntity
  8
0
 62
     0
100
AcDbLine
 10
48.86420420953442
 20
7.149999868288603
 30
0.0
 11
52.94221216833722
 21
11.22800782709134
 31
0.0
  0
LINE
  5
2156
330
2060
100
AcDbEntity
  8
0
 62
     0
100
AcDbLine
 10
55.04221216833719
 20
14.22603343919831
 30
0.0
 11
57.84221216833725
 21
17.02603343919833
 31
0.0
  0
LINE
  5
2157
330
2060
100
AcDbEntity
  8
0
 62
     0
100
AcDbLine
 10
61.3422121683372
 20
20.52603343919827
 30
0.0
 11
63.94847471350312
 21
23.13229598436425
 31
0.0
  0
LINE
  5
2158
330
2060
100
AcDbEntity
  8
0
 62
     0
100
AcDbLine
 10
47.96617859742752
 20
7.149999868288659
 30
0.0
 11
52.92789356792423
 21
12.11171483878536
 31
0.0
  0
LINE
  5
2159
330
2060
100
AcDbEntity
  8
0
 62
     0
100
AcDbLine
 10
55.04221216833724
 20
15.12405905130532
 30
0.0
 11
57.8422121683372
 21
17.92405905130528
 31
0.0
  0
LINE
  5
215A
330
2060
100
AcDbEntity
  8
0
 62
     0
100
AcDbLine
 10
61.34221216833714
 20
21.42405905130522
 30
0.0
 11
63.1681529853206
 21
23.24999986828868
 31
0.0
  0
LINE
  5
215B
330
2060
100
AcDbEntity
  8
0
 62
     0
100
AcDbLine
 10
47.06815298532058
 20
7.149999868288659
 30
0.0
 11
52.79298119729549
 21
12.87482808026351
 31
0.0
  0
LINE
  5
215C
330
2060
100
AcDbEntity
  8
0
 62
     0
100
AcDbLine
 10
55.0422121683373
 20
16.02208466341216
 30
0.0
 11
57.84221216833725
 21
18.82208466341217
 31
0.0
  0
LINE
  5
215D
330
2060
100
AcDbEntity
  8
0
 62
     0
100
AcDbLine
 10
50.14221216833732
 20
11.12208466341218
 30
0.0
 11
52.55239374037694
 21
13.5322662354518
 31
0.0
  0
LINE
  5
215E
330
2060
100
AcDbEntity
  8
0
 62
     0
100
AcDbLine
 10
61.3422121683372
 20
22.32208466341211
 30
0.0
 11
62.27012737321377
 21
23.24999986828868
 31
0.0
  0
LINE
  5
215F
330
2060
100
AcDbEntity
  8
0
 62
     0
100
AcDbLine
 10
46.29838272634481
 20
7.278255221419726
 30
0.0
 11
48.9701273732137
 21
9.949999868288614
 31
0.0
  0
LINE
  5
2160
330
2060
100
AcDbEntity
  8
0
 62
     0
100
AcDbLine
 10
50.12234159320991
 20
12.00023970039171
 30
0.0
 11
52.2288944355164
 21
14.1067925426982
 31
0.0
  0
LINE
  5
2161
330
2060
100
AcDbEntity
  8
0
 62
     0
100
AcDbLine
 10
55.04221216833724
 20
16.92011027551911
 30
0.0
 11
57.8422121683372
 21
19.72011027551906
 31
0.0
  0
LINE
  5
2162
330
2060
100
AcDbEntity
  8
0
 62
     0
100
AcDbLine
 10
46.11721216833723
 20
7.995110275519039
 30
0.0
 11
48.07210176110675
 21
9.949999868288614
 31
0.0
  0
LINE
  5
2163
330
2060
100
AcDbEntity
  8
0
 62
     0
100
AcDbLine
 10
49.84795675607102
 20
12.62388047535984
 30
0.0
 11
51.83302331758858
 21
14.60894703687739
 31
0.0
  0
LINE
  5
2164
330
2060
100
AcDbEntity
  8
0
 62
     0
100
AcDbLine
 10
55.04221216833724
 20
17.818135887626
 30
0.0
 11
57.8422121683372
 21
20.61813588762601
 31
0.0
  0
LINE
  5
2165
330
2060
100
AcDbEntity
  8
0
 62
     0
100
AcDbLine
 10
46.11721216833717
 20
8.893135887625987
 30
0.0
 11
47.17407614899985
 21
9.949999868288671
 31
0.0
  0
LINE
  5
2166
330
2060
100
AcDbEntity
  8
0
 62
     0
100
AcDbLine
 10
55.04221216833724
 20
18.71616149973289
 30
0.0
 11
57.84221216833725
 21
21.51616149973285
 31
0.0
  0
LINE
  5
2167
330
2060
100
AcDbEntity
  8
0
 62
     0
100
AcDbLine
 10
49.40668185895396
 20
13.08063119034955
 30
0.0
 11
51.38658084627627
 21
15.06053017767186
 31
0.0
  0
LINE
  5
2168
330
2060
100
AcDbEntity
  8
0
 62
     0
100
AcDbLine
 10
48.95766905290049
 20
13.52964399640302
 30
0.0
 11
50.93756804022286
 21
15.50954298372545
 31
0.0
  0
LINE
  5
2169
330
2060
100
AcDbEntity
  8
0
 62
     0
100
AcDbLine
 10
55.04221216833724
 20
19.61418711183984
 30
0.0
 11
57.8422121683372
 21
22.4141871118398
 31
0.0
  0
LINE
  5
216A
330
2060
100
AcDbEntity
  8
0
 62
     0
100
AcDbLine
 10
42.578024924786
 20
7.149999868288603
 30
0.0
 11
43.49221216833718
 21
8.064187111839714
 31
0.0
  0
LINE
  5
216B
330
2060
100
AcDbEntity
  8
0
 62
     0
100
AcDbLine
 10
48.50865624684701
 20
13.9786568024565
 30
0.0
 11
50.48855523416938
 21
15.95855578977892
 31
0.0
  0
LINE
  5
216C
330
2060
100
AcDbEntity
  8
0
 62
     0
100
AcDbLine
 10
55.04221216833719
 20
20.51221272394673
 30
0.0
 11
57.65603126023854
 21
23.12603181584802
 31
0.0
  0
LINE
  5
216D
330
2060
100
AcDbEntity
  8
0
 62
     0
100
AcDbLine
 10
41.67999931267906
 20
7.149999868288603
 30
0.0
 11
43.49221216833723
 21
8.96221272394672
 31
0.0
  0
LINE
  5
216E
330
2060
100
AcDbEntity
  8
0
 62
     0
100
AcDbLine
 10
48.05964344079353
 20
14.42766960850997
 30
0.0
 11
50.03954242811591
 21
16.4075685958324
 31
0.0
  0
LINE
  5
216F
330
2060
100
AcDbEntity
  8
0
 62
     0
100
AcDbLine
 10
55.04221216833719
 20
21.41023833605368
 30
0.0
 11
56.88197370057219
 21
23.24999986828868
 31
0.0
  0
LINE
  5
2170
330
2060
100
AcDbEntity
  8
0
 62
     0
100
AcDbLine
 10
40.89358483843414
 20
7.261611006150587
 30
0.0
 11
43.49221216833718
 21
9.860238336053669
 31
0.0
  0
LINE
  5
2171
330
2060
100
AcDbEntity
  8
0
 62
     0
100
AcDbLine
 10
47.61063063474011
 20
14.87668241456339
 30
0.0
 11
49.59052962206249
 21
16.85658140188582
 31
0.0
  0
LINE
  5
2172
330
2060
100
AcDbEntity
  8
0
 62
     0
100
AcDbLine
 10
55.0422121683373
 20
22.30826394816063
 30
0.0
 11
55.9839480884653
 21
23.24999986828863
 31
0.0
  0
LINE
  5
2173
330
2060
100
AcDbEntity
  8
0
 62
     0
100
AcDbLine
 10
40.69221216833722
 20
7.958263948160549
 30
0.0
 11
43.49221216833723
 21
10.7582639481605
 31
0.0
  0
LINE
  5
2174
330
2060
100
AcDbEntity
  8
0
 62
     0
100
AcDbLine
 10
47.16161782868664
 20
15.32569522061686
 30
0.0
 11
49.14151681600902
 21
17.30559420793929
 31
0.0
  0
LINE
  5
2175
330
2060
100
AcDbEntity
  8
0
 62
     0
100
AcDbLine
 10
40.69221216833722
 20
8.856289560267498
 30
0.0
 11
43.49221216833718
 21
11.65628956026745
 31
0.0
  0
LINE
  5
2176
330
2060
100
AcDbEntity
  8
0
 62
     0
100
AcDbLine
 10
46.71463392764531
 20
15.77673693168253
 30
0.0
 11
48.69860746102734
 21
17.7607104650645
 31
0.0
  0
LINE
  5
2177
330
2060
100
AcDbEntity
  8
0
 62
     0
100
AcDbLine
 10
40.69221216833722
 20
9.75431517237439
 30
0.0
 11
43.49221216833718
 21
12.5543151723744
 31
0.0
  0
LINE
  5
2178
330
2060
100
AcDbEntity
  8
0
 62
     0
100
AcDbLine
 10
51.38789686425139
 20
20.44999986828861
 30
0.0
 11
52.41721216833724
 21
21.47931517237442
 31
0.0
  0
LINE
  5
2179
330
2060
100
AcDbEntity
  8
0
 62
     0
100
AcDbLine
 10
38.19955594362699
 20
7.261658947664159
 30
0.0
 11
38.28920830508201
 21
7.351311309119239
 31
0.0
  0
LINE
  5
217A
330
2060
100
AcDbEntity
  8
0
 62
     0
100
AcDbLine
 10
46.31663174882334
 20
16.2767603649674
 30
0.0
 11
48.41626602624194
 21
18.376394642386
 31
0.0
  0
LINE
  5
217B
330
2060
100
AcDbEntity
  8
0
 62
     0
100
AcDbLine
 10
40.69221216833722
 20
10.65234078448128
 30
0.0
 11
43.49221216833723
 21
13.45234078448124
 31
0.0
  0
LINE
  5
217C
330
2060
100
AcDbEntity
  8
0
 62
     0
100
AcDbLine
 10
50.48987125214461
 20
20.44999986828867
 30
0.0
 11
52.41721216833724
 21
22.37734078448131
 31
0.0
  0
LINE
  5
217D
330
2060
100
AcDbEntity
  8
0
 62
     0
100
AcDbLine
 10
37.18987125214454
 20
7.149999868288603
 30
0.0
 11
38.25565034845107
 21
8.215778964595131
 31
0.0
  0
LINE
  5
217E
330
2060
100
AcDbEntity
  8
0
 62
     0
100
AcDbLine
 10
45.99079748442664
 20
16.84895171267766
 30
0.0
 11
48.39221216833732
 21
19.25036639658833
 31
0.0
  0
LINE
  5
217F
330
2060
100
AcDbEntity
  8
0
 62
     0
100
AcDbLine
 10
40.69221216833722
 20
11.55036639658817
 30
0.0
 11
43.49221216833718
 21
14.35036639658818
 31
0.0
  0
LINE
  5
2180
330
2060
100
AcDbEntity
  8
0
 62
     0
100
AcDbLine
 10
49.5918456400376
 20
20.44999986828861
 30
0.0
 11
52.25054323653933
 21
23.10869746479034
 31
0.0
  0
LINE
  5
2181
330
2060
100
AcDbEntity
  8
0
 62
     0
100
AcDbLine
 10
36.29184564003754
 20
7.149999868288546
 30
0.0
 11
38.04012420154538
 21
8.898278429796391
 31
0.0
  0
LINE
  5
2182
330
2060
100
AcDbEntity
  8
0
 62
     0
100
AcDbLine
 10
40.69221216833716
 20
12.44839200869512
 30
0.0
 11
43.49221216833718
 21
15.24839200869507
 31
0.0
  0
LINE
  5
2183
330
2060
100
AcDbEntity
  8
0
 62
     0
100
AcDbLine
 10
45.74741542175655
 20
17.50359526211451
 30
0.0
 11
51.49382002793072
 21
23.24999986828868
 31
0.0
  0
LINE
  5
2184
330
2060
100
AcDbEntity
  8
0
 62
     0
100
AcDbLine
 10
35.69983132938256
 20
7.45601116974052
 30
0.0
 11
37.82459805463969
 21
9.580777894997652
 31
0.0
  0
LINE
  5
2185
330
2060
100
AcDbEntity
  8
0
 62
     0
100
AcDbLine
 10
40.69221216833716
 20
13.34641762080207
 30
0.0
 11
43.49221216833711
 21
16.14641762080202
 31
0.0
  0
LINE
  5
2186
330
2060
100
AcDbEntity
  8
0
 62
     0
100
AcDbLine
 10
45.60870856267086
 20
18.26291401513578
 30
0.0
 11
50.59579441582383
 21
23.24999986828868
 31
0.0
  0
LINE
  5
2187
330
2060
100
AcDbEntity
  8
0
 62
     0
100
AcDbLine
 10
35.48107190773396
 20
8.13527736019887
 30
0.0
 11
37.60907190773401
 21
10.26327736019891
 31
0.0
  0
LINE
  5
2188
330
2060
100
AcDbEntity
  8
0
 62
     0
100
AcDbLine
 10
40.69221216833722
 20
14.24444323290891
 30
0.0
 11
43.49221216833718
 21
17.04444323290892
 31
0.0
  0
LINE
  5
2189
330
2060
100
AcDbEntity
  8
0
 62
     0
100
AcDbLine
 10
45.59221216833726
 20
19.144443232909
 30
0.0
 11
49.69776880371694
 21
23.24999986828868
 31
0.0
  0
LINE
  5
218A
330
2060
100
AcDbEntity
  8
0
 62
     0
100
AcDbLine
 10
35.26554576082833
 20
8.817776825400073
 30
0.0
 11
37.39354576082843
 21
10.94577682540011
 31
0.0
  0
LINE
  5
218B
330
2060
100
AcDbEntity
  8
0
 62
     0
100
AcDbLine
 10
40.69221216833727
 20
15.14246884501591
 30
0.0
 11
43.49221216833718
 21
17.94246884501581
 31
0.0
  0
LINE
  5
218C
330
2060
100
AcDbEntity
  8
0
 62
     0
100
AcDbLine
 10
45.59221216833726
 20
20.04246884501589
 30
0.0
 11
48.79974319161004
 21
23.24999986828868
 31
0.0
  0
LINE
  5
218D
330
2060
100
AcDbEntity
  8
0
 62
     0
100
AcDbLine
 10
35.05001961392264
 20
9.500276290601334
 30
0.0
 11
37.1780196139228
 21
11.62827629060149
 31
0.0
  0
LINE
  5
218E
330
2060
100
AcDbEntity
  8
0
 62
     0
100
AcDbLine
 10
40.69221216833722
 20
16.04049445712286
 30
0.0
 11
43.49221216833723
 21
18.84049445712281
 31
0.0
  0
LINE
  5
218F
330
2060
100
AcDbEntity
  8
0
 62
     0
100
AcDbLine
 10
34.83449346701696
 20
10.18277575580259
 30
0.0
 11
36.96249346701705
 21
12.31077575580264
 31
0.0
  0
LINE
  5
2190
330
2060
100
AcDbEntity
  8
0
 62
     0
100
AcDbLine
 10
45.6455288384584
 20
20.99381112724405
 30
0.0
 11
47.84840090938172
 21
23.19668319816736
 31
0.0
  0
LINE
  5
2191
330
2060
100
AcDbEntity
  8
0
 62
     0
100
AcDbLine
 10
31.80171757950296
 20
7.149999868288603
 30
0.0
 11
32.64221216833715
 21
7.990494457122792
 31
0.0
  0
LINE
  5
2192
330
2060
100
AcDbEntity
  8
0
 62
     0
100
AcDbLine
 10
34.61896732011144
 20
10.86527522100391
 30
0.0
 11
36.74696732011142
 21
12.9932752210039
 31
0.0
  0
LINE
  5
2193
330
2060
100
AcDbEntity
  8
0
 62
     0
100
AcDbLine
 10
40.69221216833727
 20
16.93852006922969
 30
0.0
 11
43.49221216833723
 21
19.73852006922971
 31
0.0
  0
LINE
  5
2194
330
2060
100
AcDbEntity
  8
0
 62
     0
100
AcDbLine
 10
30.90369196739613
 20
7.149999868288546
 30
0.0
 11
32.64221216833727
 21
8.888520069229741
 31
0.0
  0
LINE
  5
2195
330
2060
100
AcDbEntity
  8
0
 62
     0
100
AcDbLine
 10
34.40344117320569
 20
11.54777468620506
 30
0.0
 11
36.53144117320574
 21
13.67577468620516
 31
0.0
  0
LINE
  5
2196
330
2060
100
AcDbEntity
  8
0
 62
     0
100
AcDbLine
 10
40.69221216833722
 20
17.83654568133664
 30
0.0
 11
43.49221216833723
 21
20.6365456813366
 31
0.0
  0
LINE
  5
2197
330
2060
100
AcDbEntity
  8
0
 62
     0
100
AcDbLine
 10
30.08681610294047
 20
7.231149615939898
 30
0.0
 11
32.64221216833727
 21
9.78654568133669
 31
0.0
  0
LINE
  5
2198
330
2060
100
AcDbEntity
  8
0
 62
     0
100
AcDbLine
 10
34.1879150263
 20
12.23027415140632
 30
0.0
 11
36.31591502630005
 21
14.35827415140642
 31
0.0
  0
LINE
  5
2199
330
2060
100
AcDbEntity
  8
0
 62
     0
100
AcDbLine
 10
40.69221216833722
 20
18.73457129344359
 30
0.0
 11
43.49221216833718
 21
21.53457129344355
 31
0.0
  0
LINE
  5
219A
330
2060
100
AcDbEntity
  8
0
 62
     0
100
AcDbLine
 10
29.8422121683372
 20
7.884571293443514
 30
0.0
 11
32.64221216833727
 21
10.68457129344358
 31
0.0
  0
LINE
  5
219B
330
2060
100
AcDbEntity
  8
0
 62
     0
100
AcDbLine
 10
33.97238887939437
 20
12.91277361660752
 30
0.0
 11
36.10038887939453
 21
15.04077361660768
 31
0.0
  0
LINE
  5
219C
330
2060
100
AcDbEntity
  8
0
 62
     0
100
AcDbLine
 10
40.69221216833727
 20
19.63259690555043
 30
0.0
 11
43.49221216833723
 21
22.43259690555044
 31
0.0
  0
LINE
  5
219D
330
2060
100
AcDbEntity
  8
0
 62
     0
100
AcDbLine
 10
29.8422121683372
 20
8.782596905550406
 30
0.0
 11
32.64221216833727
 21
11.58259690555047
 31
0.0
  0
LINE
  5
219E
330
2060
100
AcDbEntity
  8
0
 62
     0
100
AcDbLine
 10
33.73759009242264
 20
13.57600044174279
 30
0.0
 11
36.36788416035353
 21
16.20629450967368
 31
0.0
  0
LINE
  5
219F
330
2060
100
AcDbEntity
  8
0
 62
     0
100
AcDbLine
 10
40.69221216833722
 20
20.53062251765738
 30
0.0
 11
43.29593674583878
 21
23.13434709515889
 31
0.0
  0
LINE
  5
21A0
330
2060
100
AcDbEntity
  8
0
 62
     0
100
AcDbLine
 10
29.8422121683372
 20
9.680622517657354
 30
0.0
 11
32.64221216833727
 21
12.48062251765736
 31
0.0
  0
LINE
  5
21A1
330
2060
100
AcDbEntity
  8
0
 62
     0
100
AcDbLine
 10
33.05040472255524
 20
13.78684068398235
 30
0.0
 11
36.78235751978752
 21
17.51879348121463
 31
0.0
  0
LINE
  5
21A2
330
2060
100
AcDbEntity
  8
0
 62
     0
100
AcDbLine
 10
29.8422121683372
 20
10.57864812976424
 30
0.0
 11
32.6553713526435
 21
13.39180731407054
 31
0.0
  0
LINE
  5
21A3
330
2060
100
AcDbEntity
  8
0
 62
     0
100
AcDbLine
 10
40.69221216833722
 20
21.42864812976427
 30
0.0
 11
42.51356390686157
 21
23.24999986828868
 31
0.0
  0
LINE
  5
21A4
330
2060
100
AcDbEntity
  8
0
 62
     0
100
AcDbLine
 10
26.41356390686155
 20
7.149999868288603
 30
0.0
 11
27.39221216833721
 21
8.128648129764314
 31
0.0
  0
LINE
  5
21A5
330
2060
100
AcDbEntity
  8
0
 62
     0
100
AcDbLine
 10
29.84221216833714
 20
11.47667374187119
 30
0.0
 11
37.19683087922147
 21
18.83129245275552
 31
0.0
  0
LINE
  5
21A6
330
2060
100
AcDbEntity
  8
0
 62
     0
100
AcDbLine
 10
40.69221216833716
 20
22.32667374187122
 30
0.0
 11
41.61553829475457
 21
23.24999986828863
 31
0.0
  0
LINE
  5
21A7
330
2060
100
AcDbEntity
  8
0
 62
     0
100
AcDbLine
 10
25.51553829475461
 20
7.149999868288659
 30
0.0
 11
27.39221216833727
 21
9.02667374187132
 31
0.0
  0
LINE
  5
21A8
330
2060
100
AcDbEntity
  8
0
 62
     0
100
AcDbLine
 10
29.8422121683372
 20
12.37469935397803
 30
0.0
 11
37.61130423865558
 21
20.14379142429647
 31
0.0
  0
LINE
  5
21A9
330
2060
100
AcDbEntity
  8
0
 62
     0
100
AcDbLine
 10
24.62919330699782
 20
7.161680492638708
 30
0.0
 11
27.25087788473104
 21
9.783365070371871
 31
0.0
  0
LINE
  5
21AA
330
2060
100
AcDbEntity
  8
0
 62
     0
100
AcDbLine
 10
29.84221216833714
 20
13.27272496608498
 30
0.0
 11
33.16948707054081
 21
16.59999986828865
 31
0.0
  0
LINE
  5
21AB
330
2060
100
AcDbEntity
  8
0
 62
     0
100
AcDbLine
 10
33.93346990578169
 20
17.36398270352953
 30
0.0
 11
38.02577759808952
 21
21.45629039583736
 31
0.0
  0
LINE
  5
21AC
330
2060
100
AcDbEntity
  8
0
 62
     0
100
AcDbLine
 10
23.86103278955085
 20
7.291545587298628
 30
0.0
 11
26.51948707054078
 21
9.949999868288614
 31
0.0
  0
LINE
  5
21AD
330
2060
100
AcDbEntity
  8
0
 62
     0
100
AcDbLine
 10
29.84221216833714
 20
14.17075057819193
 30
0.0
 11
32.66020273904548
 21
16.9887411489002
 31
0.0
  0
LINE
  5
21AE
330
2060
100
AcDbEntity
  8
0
 62
     0
100
AcDbLine
 10
34.34794326521564
 20
18.67648167507036
 30
0.0
 11
38.40084904989084
 21
22.72938745974562
 31
0.0
  0
LINE
  5
21AF
330
2060
100
AcDbEntity
  8
0
 62
     0
100
AcDbLine
 10
23.19989853272443
 20
7.528436942579219
 30
0.0
 11
25.62146145843389
 21
9.949999868288614
 31
0.0
  0
LINE
  5
21B0
330
2060
100
AcDbEntity
  8
0
 62
     0
100
AcDbLine
 10
29.8422121683372
 20
15.06877619029876
 30
0.0
 11
32.64221216833732
 21
17.86877619029889
 31
0.0
  0
LINE
  5
21B1
330
2060
100
AcDbEntity
  8
0
 62
     0
100
AcDbLine
 10
34.76241662464957
 20
19.98898064661119
 30
0.0
 11
38.00683717732164
 21
23.23340119928326
 31
0.0
  0
LINE
  5
21B2
330
2060
100
AcDbEntity
  8
0
 62
     0
100
AcDbLine
 10
22.62229524856014
 20
7.8488592705217
 30
0.0
 11
24.73835710705299
 21
9.964921129014612
 31
0.0
  0
LINE
  5
21B3
330
2060
100
AcDbEntity
  8
0
 62
     0
100
AcDbLine
 10
29.84221216833714
 20
15.96680180240571
 30
0.0
 11
32.64221216833727
 21
18.76680180240583
 31
0.0
  0
LINE
  5
21B4
330
2060
100
AcDbEntity
  8
0
 62
     0
100
AcDbLine
 10
35.17688998408352
 20
21.30147961815203
 30
0.0
 11
37.12541023422005
 21
23.24999986828863
 31
0.0
  0
LINE
  5
21B5
330
2060
100
AcDbEntity
  8
0
 62
     0
100
AcDbLine
 10
22.11734028217808
 20
8.24192991624659
 30
0.0
 11
24.10404096603469
 21
10.2286306001032
 31
0.0
  0
LINE
  5
21B6
330
2060
100
AcDbEntity
  8
0
 62
     0
100
AcDbLine
 10
29.84221216833714
 20
16.8648274145126
 30
0.0
 11
32.64221216833727
 21
19.66482741451278
 31
0.0
  0
LINE
  5
21B7
330
2060
100
AcDbEntity
  8
0
 62
     0
100
AcDbLine
 10
26.50384630011365
 20
13.52646154628917
 30
0.0
 11
27.66575049033674
 21
14.68836573651225
 31
0.0
  0
LINE
  5
21B8
330
2060
100
AcDbEntity
  8
0
 62
     0
100
AcDbLine
 10
35.5913633435174
 20
22.61397858969292
 30
0.0
 11
36.22738462211311
 21
23.24999986828863
 31
0.0
  0
LINE
  5
21B9
330
2060
100
AcDbEntity
  8
0
 62
     0
100
AcDbLine
 10
21.68090320884823
 20
8.703518455023754
 30
0.0
 11
23.6937900147625
 21
10.71640526093802
 31
0.0
  0
LINE
  5
21BA
330
2060
100
AcDbEntity
  8
0
 62
     0
100
AcDbLine
 10
25.57887345848383
 20
13.49951431676629
 30
0.0
 11
27.69269771985961
 21
15.61333857814202
 31
0.0
  0
LINE
  5
21BB
330
2060
100
AcDbEntity
  8
0
 62
     0
100
AcDbLine
 10
29.8422121683372
 20
17.76285302661961
 30
0.0
 11
32.64221216833727
 21
20.56285302661968
 31
0.0
  0
LINE
  5
21BC
330
2060
100
AcDbEntity
  8
0
 62
     0
100
AcDbLine
 10
21.31388398390527
 20
9.234524842187681
 30
0.0
 11
23.54221216833719
 21
11.46285302661965
 31
0.0
  0
LINE
  5
21BD
330
2060
100
AcDbEntity
  8
0
 62
     0
100
AcDbLine
 10
24.96472688906363
 20
13.78339335945287
 30
0.0
 11
27.40881867717297
 21
16.22748514756227
 31
0.0
  0
LINE
  5
21BE
330
2060
100
AcDbEntity
  8
0
 62
     0
100
AcDbLine
 10
29.8422121683372
 20
18.6608786387265
 30
0.0
 11
32.64221216833727
 21
21.46087863872657
 31
0.0
  0
LINE
  5
21BF
330
2060
100
AcDbEntity
  8
0
 62
     0
100
AcDbLine
 10
21.02256647398053
 20
9.841232944369835
 30
0.0
 11
23.54221216833719
 21
12.36087863872649
 31
0.0
  0
LINE
  5
21C0
330
2060
100
AcDbEntity
  8
0
 62
     0
100
AcDbLine
 10
24.52676696207391
 20
14.24345904457016
 30
0.0
 11
26.94875299205575
 21
16.66544507455194
 31
0.0
  0
LINE
  5
21C1
330
2060
100
AcDbEntity
  8
0
 62
     0
100
AcDbLine
 10
29.8422121683372
 20
19.55890425083345
 30
0.0
 11
32.64221216833727
 21
22.35890425083346
 31
0.0
  0
LINE
  5
21C2
330
2060
100
AcDbEntity
  8
0
 62
     0
100
AcDbLine
 10
20.82142910980588
 20
10.53812119230213
 30
0.0
 11
23.54221216833719
 21
13.25890425083344
 31
0.0
  0
LINE
  5
21C3
330
2060
100
AcDbEntity
  8
0
 62
     0
100
AcDbLine
 10
24.27071622966554
 20
14.88543392426868
 30
0.0
 11
26.30677811235717
 21
16.92149580696036
 31
0.0
  0
LINE
  5
21C4
330
2060
100
AcDbEntity
  8
0
 62
     0
100
AcDbLine
 10
20.74221216833712
 20
11.35692986294032
 30
0.0
 11
23.54221216833719
 21
14.15692986294033
 31
0.0
  0
LINE
  5
21C5
330
2060
100
AcDbEntity
  8
0
 62
     0
100
AcDbLine
 10
29.8422121683372
 20
20.45692986294034
 30
0.0
 11
32.48496205998208
 21
23.09967975458528
 31
0.0
  0
LINE
  5
21C6
330
2060
100
AcDbEntity
  8
0
 62
     0
100
AcDbLine
 10
16.65621541046153
 20
7.270933105064727
 30
0.0
 11
18.52127893156125
 21
9.135996626164455
 31
0.0
  0
LINE
  5
21C7
330
2060
100
AcDbEntity
  8
0
 62
     0
100
AcDbLine
 10
24.38912931314633
 20
15.90187261985636
 30
0.0
 11
25.29033941676954
 21
16.80308272347957
 31
0.0
  0
LINE
  5
21C8
330
2060
100
AcDbEntity
  8
0
 62
     0
100
AcDbLine
 10
20.74221216833712
 20
12.25495547504715
 30
0.0
 11
23.5422121683373
 21
15.05495547504728
 31
0.0
  0
LINE
  5
21C9
330
2060
100
AcDbEntity
  8
0
 62
     0
100
AcDbLine
 10
29.8422121683372
 20
21.35495547504723
 30
0.0
 11
31.73725656157859
 21
23.24999986828863
 31
0.0
  0
LINE
  5
21CA
330
2060
100
AcDbEntity
  8
0
 62
     0
100
AcDbLine
 10
15.63725656157856
 20
7.149999868288603
 30
0.0
 11
18.64221216833732
 21
10.1549554750473
 31
0.0
  0
LINE
  5
21CB
330
2060
100
AcDbEntity
  8
0
 62
     0
100
AcDbLine
 10
20.74221216833712
 20
13.1529810871541
 30
0.0
 11
23.54221216833725
 21
15.95298108715423
 31
0.0
  0
LINE
  5
21CC
330
2060
100
AcDbEntity
  8
0
 62
     0
100
AcDbLine
 10
29.8422121683372
 20
22.25298108715413
 30
0.0
 11
30.8392309494717
 21
23.24999986828868
 31
0.0
  0
LINE
  5
21CD
330
2060
100
AcDbEntity
  8
0
 62
     0
100
AcDbLine
 10
14.73923094947156
 20
7.149999868288546
 30
0.0
 11
18.64221216833726
 21
11.05298108715425
 31
0.0
  0
LINE
  5
21CE
330
2060
100
AcDbEntity
  8
0
 62
     0
100
AcDbLine
 10
20.74221216833712
 20
14.05100669926099
 30
0.0
 11
23.54221216833725
 21
16.85100669926117
 31
0.0
  0
LINE
  5
21CF
330
2060
100
AcDbEntity
  8
0
 62
     0
100
AcDbLine
 10
13.84120533736473
 20
7.149999868288659
 30
0.0
 11
18.63827281577602
 21
11.94706734669995
 31
0.0
  0
LINE
  5
21D0
330
2060
100
AcDbEntity
  8
0
 62
     0
100
AcDbLine
 10
20.74221216833712
 20
14.94903231136794
 30
0.0
 11
23.54221216833725
 21
17.74903231136807
 31
0.0
  0
LINE
  5
21D1
330
2060
100
AcDbEntity
  8
0
 62
     0
100
AcDbLine
 10
26.24317972525791
 20
20.44999986828873
 30
0.0
 11
27.39221216833732
 21
21.59903231136815
 31
0.0
  0
LINE
  5
21D2
330
2060
100
AcDbEntity
  8
0
 62
     0
100
AcDbLine
 10
12.94317972525778
 20
7.149999868288603
 30
0.0
 11
18.5286109794547
 21
12.73543112248552
 31
0.0
  0
LINE
  5
21D3
330
2060
100
AcDbEntity
  8
0
 62
     0
100
AcDbLine
 10
20.74221216833712
 20
15.84705792347483
 30
0.0
 11
23.54221216833725
 21
18.64705792347496
 31
0.0
  0
LINE
  5
21D4
330
2060
100
AcDbEntity
  8
0
 62
     0
100
AcDbLine
 10
15.8422121683372
 20
10.94705792347491
 30
0.0
 11
18.30627223541057
 21
13.41111799054829
 31
0.0
  0
LINE
  5
21D5
330
2060
100
AcDbEntity
  8
0
 62
     0
100
AcDbLine
 10
25.3451541131509
 20
20.44999986828861
 30
0.0
 11
27.39221216833732
 21
22.49705792347498
 31
0.0
  0
LINE
  5
21D6
330
2060
100
AcDbEntity
  8
0
 62
     0
100
AcDbLine
 10
12.10287998841085
 20
7.207725743548564
 30
0.0
 11
14.8451541131509
 21
9.949999868288614
 31
0.0
  0
LINE
  5
21D7
330
2060
100
AcDbEntity
  8
0
 62
     0
100
AcDbLine
 10
20.74221216833706
 20
16.74508353558173
 30
0.0
 11
23.70802687411686
 21
19.71089824136152
 31
0.0
  0
LINE
  5
21D8
330
2060
100
AcDbEntity
  8
0
 62
     0
100
AcDbLine
 10
15.84005307672794
 20
11.84292444397255
 30
0.0
 11
17.99784070073855
 21
14.00071206798321
 31
0.0
  0
LINE
  5
21D9
330
2060
100
AcDbEntity
  8
0
 62
     0
100
AcDbLine
 10
24.2813137952644
 20
20.28418516250906
 30
0.0
 11
27.15874475341741
 21
23.16161612066202
 31
0.0
  0
LINE
  5
21DA
330
2060
100
AcDbEntity
  8
0
 62
     0
100
AcDbLine
 10
11.81721216833722
 20
7.820083535581829
 30
0.0
 11
13.947128501044
 21
9.949999868288614
 31
0.0
  0
LINE
  5
21DB
330
2060
100
AcDbEntity
  8
0
 62
     0
100
AcDbLine
 10
15.62045005722723
 20
12.52134703657884
 30
0.0
 11
17.61559873589965
 21
14.51649571525126
 31
0.0
  0
LINE
  5
21DC
330
2060
100
AcDbEntity
  8
0
 62
     0
100
AcDbLine
 10
20.74221216833706
 20
17.64310914768867
 30
0.0
 11
26.34910288893701
 21
23.24999986828863
 31
0.0
  0
LINE
  5
21DD
330
2060
100
AcDbEntity
  8
0
 62
     0
100
AcDbLine
 10
11.81721216833716
 20
8.718109147688778
 30
0.0
 11
13.04910288893706
 21
9.949999868288671
 31
0.0
  0
LINE
  5
21DE
330
2060
100
AcDbEntity
  8
0
 62
     0
100
AcDbLine
 10
15.19419522892252
 20
12.99311782038097
 30
0.0
 11
17.17409421624489
 21
14.97301680770334
 31
0.0
  0
LINE
  5
21DF
330
2060
100
AcDbEntity
  8
0
 62
     0
100
AcDbLine
 10
20.74221216833712
 20
18.54113475979551
 30
0.0
 11
25.45107727683006
 21
23.24999986828851
 31
0.0
  0
LINE
  5
21E0
330
2060
100
AcDbEntity
  8
0
 62
     0
100
AcDbLine
 10
11.88616409035694
 20
9.685086681815391
 30
0.0
 11
12.08212535481056
 21
9.881047946269006
 31
0.0
  0
LINE
  5
21E1
330
2060
100
AcDbEntity
  8
0
 62
     0
100
AcDbLine
 10
20.7621872824937
 20
19.45913548605904
 30
0.0
 11
24.53307655056671
 21
23.2300247541321
 31
0.0
  0
LINE
  5
21E2
330
2060
100
AcDbEntity
  8
0
 62
     0
100
AcDbLine
 10
14.74518242286905
 20
13.44213062643445
 30
0.0
 11
16.72508141019142
 21
15.42202961375682
 31
0.0
  0
LINE
  5
21E3
330
2060
100
AcDbEntity
  8
0
 62
     0
100
AcDbLine
 10
21.06165071475948
 20
20.65662453043183
 30
0.0
 11
23.33558750619397
 21
22.93056132186632
 31
0.0
  0
LINE
  5
21E4
330
2060
100
AcDbEntity
  8
0
 62
     0
100
AcDbLine
 10
14.29616961681557
 20
13.89114343248792
 30
0.0
 11
16.27606860413794
 21
15.87104241981029
 31
0.0
  0
LINE
  5
21E5
330
2060
100
AcDbEntity
  8
0
 62
     0
100
AcDbLine
 10
13.84715681076216
 20
14.34015623854134
 30
0.0
 11
15.82705579808447
 21
16.3200552258636
 31
0.0
  0
LINE
  5
21E6
330
2060
100
AcDbEntity
  8
0
 62
     0
100
AcDbLine
 10
13.39814400470868
 20
14.78916904459481
 30
0.0
 11
15.378042992031
 21
16.76906803191707
 31
0.0
  0
LINE
  5
21E7
330
2060
100
AcDbEntity
  8
0
 62
     0
100
AcDbLine
 10
12.94913119865521
 20
15.23818185064829
 30
0.0
 11
14.92903018597752
 21
17.21808083797055
 31
0.0
  0
LINE
  5
21E8
330
2060
100
AcDbEntity
  8
0
 62
     0
100
AcDbLine
 10
17.26292360418864
 20
20.44999986828861
 30
0.0
 11
18.11721216833712
 21
21.30428843243715
 31
0.0
  0
LINE
  5
21E9
330
2060
100
AcDbEntity
  8
0
 62
     0
100
AcDbLine
 10
12.50020170662986
 20
15.68727797072989
 30
0.0
 11
14.48026735006232
 21
17.66734361416235
 31
0.0
  0
LINE
  5
21EA
330
2060
100
AcDbEntity
  8
0
 62
     0
100
AcDbLine
 10
16.36489799208175
 20
20.44999986828861
 30
0.0
 11
18.11721216833717
 21
22.20231404454404
 31
0.0
  0
LINE
  5
21EB
330
2060
100
AcDbEntity
  8
0
 62
     0
100
AcDbLine
 10
12.08873378207829
 20
16.1738356582851
 30
0.0
 11
14.15037046877438
 21
18.23547234498125
 31
0.0
  0
LINE
  5
21EC
330
2060
100
AcDbEntity
  8
0
 62
     0
100
AcDbLine
 10
15.4668723799748
 20
20.44999986828861
 30
0.0
 11
18.03065326857603
 21
23.01378075688985
 31
0.0
  0
LINE
  5
21ED
330
2060
100
AcDbEntity
  8
0
 62
     0
100
AcDbLine
 10
11.74827317581582
 20
16.73140066412958
 30
0.0
 11
14.09221216833725
 21
19.07533965665101
 31
0.0
  0
LINE
  5
21EE
330
2060
100
AcDbEntity
  8
0
 62
     0
100
AcDbLine
 10
14.56638011869779
 20
20.4475332191185
 30
0.0
 11
17.36884676786786
 21
23.24999986828863
 31
0.0
  0
LINE
  5
21EF
330
2060
100
AcDbEntity
  8
0
 62
     0
100
AcDbLine
 10
11.48757988008373
 20
17.36873298050443
 30
0.0
 11
14.09467881750731
 21
19.97583191792807
 31
0.0
  0
LINE
  5
21F0
330
2060
100
AcDbEntity
  8
0
 62
     0
100
AcDbLine
 10
11.32576791783566
 20
18.10494663036326
 30
0.0
 11
16.47082115576103
 21
23.24999986828857
 31
0.0
  0
LINE
  5
21F1
330
2060
100
AcDbEntity
  8
0
 62
     0
100
AcDbLine
 10
11.29221216833724
 20
18.96941649297179
 30
0.0
 11
15.57279554365408
 21
23.24999986828863
 31
0.0
  0
LINE
  5
21F2
330
2060
100
AcDbEntity
  8
0
 62
     0
100
AcDbLine
 10
11.29221216833724
 20
19.86744210507868
 30
0.0
 11
14.67476993154713
 21
23.24999986828863
 31
0.0
  0
LINE
  5
21F3
330
2060
100
AcDbEntity
  8
0
 62
     0
100
AcDbLine
 10
11.31240417877546
 20
20.78565972762385
 30
0.0
 11
13.75655230900207
 21
23.22980785785046
 31
0.0
  0
ENDBLK
  5
21F5
330
2060
100
AcDbEntity
  8
0
100
AcDbBlockEnd
  0
BLOCK
  5
352B
330
3521
100
AcDbEntity
  8
0
100
AcDbBlockBegin
  2
*D2
 70
     1
 10
0.0
 20
0.0
 30
0.0
  3
*D2
  1

  0
LINE
  5
50C6
330
3521
100
AcDbEntity
  8
SUNPOU
 62
     4
100
AcDbLine
 10
301.7078803920508
 20
278.0963893161123
 30
0.0
 11
344.2709609412203
 21
278.0963893161123
 31
0.0
  0
LINE
  5
50C7
330
3521
100
AcDbEntity
  8
SUNPOU
 62
     4
100
AcDbLine
 10
260.7080989563151
 20
125.0963901635476
 30
0.0
 11
344.2709609412202
 21
125.0963901635476
 31
0.0
  0
LINE
  5
50C8
330
3521
100
AcDbEntity
  8
SUNPOU
 62
     4
100
AcDbLine
 10
341.2709609412203
 20
271.0963893161123
 30
0.0
 11
341.2709609412203
 21
132.0963901635476
 31
0.0
  0
INSERT
  5
50C9
330
3521
100
AcDbEntity
  8
SUNPOU
 62
     4
100
AcDbBlockReference
  2
_OPEN
 10
341.2709609412203
 20
278.0963893161123
 30
0.0
 41
7.0
 42
7.0
 43
7.0
 50
90.0
  0
INSERT
  5
50CA
330
3521
100
AcDbEntity
  8
SUNPOU
 62
     4
100
AcDbBlockReference
  2
_OPEN
 10
341.2709609412202
 20
125.0963901635476
 30
0.0
 41
7.0
 42
7.0
 43
7.0
 50
270.0
  0
MTEXT
  5
50CB
330
3521
100
AcDbEntity
  8
SUNPOU
 62
     4
100
AcDbMText
 10
336.2709609412202
 20
201.59638973983
 30
0.0
 40
6.0
 41
0.0
 71
     5
 72
     1
  1
\A1;153
 11
0.0000000000000001
 21
1.0
 31
0.0
 73
     1
 44
1.0
1001
ACAD
1000
MTEXTBEGIN
1070
    73
1070
     1
1070
    44
1040
1.0
1070
    74
1070
     0
1000
MTEXTEND
  0
POINT
  5
50CC
330
3521
100
AcDbEntity
  8
DEFPOINTS
 62
     0
100
AcDbPoint
 10
295.7078803920508
 20
278.0963893161123
 30
0.0
  0
POINT
  5
50CD
330
3521
100
AcDbEntity
  8
DEFPOINTS
 62
     0
100
AcDbPoint
 10
254.7080989563151
 20
125.0963901635476
 30
0.0
  0
POINT
  5
50CE
330
3521
100
AcDbEntity
  8
DEFPOINTS
 62
     0
100
AcDbPoint
 10
341.2709609412202
 20
125.0963901635476
 30
0.0
  0
ENDBLK
  5
352C
330
3521
100
AcDbEntity
  8
0
100
AcDbBlockEnd
  0
BLOCK
  5
3537
330
352D
100
AcDbEntity
  8
0
100
AcDbBlockBegin
  2
*D3
 70
     1
 10
0.0
 20
0.0
 30
0.0
  3
*D3
  1

  0
LINE
  5
50CF
330
352D
100
AcDbEntity
  8
SUNPOU
 62
     4
100
AcDbLine
 10
264.7082861063363
 20
136.0963893161041
 30
0.0
 11
330.678445860236
 21
136.0963893161041
 31
0.0
  0
LINE
  5
50D0
330
352D
100
AcDbEntity
  8
SUNPOU
 62
     4
100
AcDbLine
 10
301.7078803919921
 20
278.0963893161123
 30
0.0
 11
330.678445860236
 21
278.0963893161123
 31
0.0
  0
LINE
  5
50D1
330
352D
100
AcDbEntity
  8
SUNPOU
 62
     4
100
AcDbLine
 10
327.678445860236
 20
143.0963893161041
 30
0.0
 11
327.678445860236
 21
271.0963893161123
 31
0.0
  0
INSERT
  5
50D2
330
352D
100
AcDbEntity
  8
SUNPOU
 62
     4
100
AcDbBlockReference
  2
_OPEN
 10
327.678445860236
 20
136.0963893161041
 30
0.0
 41
7.0
 42
7.0
 43
7.0
 50
270.0
  0
INSERT
  5
50D3
330
352D
100
AcDbEntity
  8
SUNPOU
 62
     4
100
AcDbBlockReference
  2
_OPEN
 10
327.678445860236
 20
278.0963893161123
 30
0.0
 41
7.0
 42
7.0
 43
7.0
 50
90.0
  0
MTEXT
  5
50D4
330
352D
100
AcDbEntity
  8
SUNPOU
 62
     4
100
AcDbMText
 10
322.678445860236
 20
207.0963893161082
 30
0.0
 40
6.0
 41
0.0
 71
     5
 72
     1
  1
\A1;142
 11
0.0000000000000001
 21
1.0
 31
0.0
 73
     1
 44
1.0
1001
ACAD
1000
MTEXTBEGIN
1070
    73
1070
     1
1070
    44
1040
1.0
1070
    74
1070
     0
1000
MTEXTEND
  0
POINT
  5
50D5
330
352D
100
AcDbEntity
  8
DEFPOINTS
 62
     0
100
AcDbPoint
 10
258.7082861063363
 20
136.0963893161041
 30
0.0
  0
POINT
  5
50D6
330
352D
100
AcDbEntity
  8
DEFPOINTS
 62
     0
100
AcDbPoint
 10
295.7078803919921
 20
278.0963893161123
 30
0.0
  0
POINT
  5
50D7
330
352D
100
AcDbEntity
  8
DEFPOINTS
 62
     0
100
AcDbPoint
 10
327.678445860236
 20
278.0963893161123
 30
0.0
  0
ENDBLK
  5
3538
330
352D
100
AcDbEntity
  8
0
100
AcDbBlockEnd
  0
BLOCK
  5
3545
330
3539
100
AcDbEntity
  8
0
100
AcDbBlockBegin
  2
*D4
 70
     1
 10
0.0
 20
0.0
 30
0.0
  3
*D4
  1

  0
LINE
  5
50B2
330
3539
100
AcDbEntity
  8
SUNPOU
 62
     4
100
AcDbLine
 10
268.5583861063362
 20
150.0963893161041
 30
0.0
 11
311.9052111496992
 21
150.0963893161041
 31
0.0
  0
LINE
  5
50B3
330
3539
100
AcDbEntity
  8
SUNPOU
 62
     4
100
AcDbLine
 10
264.7082861063363
 20
136.0963893161041
 30
0.0
 11
311.9052111496992
 21
136.0963893161041
 31
0.0
  0
LINE
  5
50B4
330
3539
100
AcDbEntity
  8
SUNPOU
 62
     4
100
AcDbLine
 10
308.9052111496992
 20
157.0963893161041
 30
0.0
 11
308.9052111496992
 21
164.0963893161041
 31
0.0
  0
LINE
  5
50B5
330
3539
100
AcDbEntity
  8
SUNPOU
 62
     4
100
AcDbLine
 10
308.9052111496992
 20
129.0963893161041
 30
0.0
 11
308.9052111496991
 21
103.2963893161041
 31
0.0
  0
LINE
  5
50B6
330
3539
100
AcDbEntity
  8
SUNPOU
 62
     4
100
AcDbLine
 10
308.9052111496992
 20
150.0963893161041
 30
0.0
 11
308.9052111496992
 21
136.0963893161041
 31
0.0
  0
INSERT
  5
50B7
330
3539
100
AcDbEntity
  8
SUNPOU
 62
     4
100
AcDbBlockReference
  2
_OPEN
 10
308.9052111496992
 20
150.0963893161041
 30
0.0
 41
7.0
 42
7.0
 43
7.0
 50
270.0
  0
INSERT
  5
50B8
330
3539
100
AcDbEntity
  8
SUNPOU
 62
     4
100
AcDbBlockReference
  2
_OPEN
 10
308.9052111496992
 20
136.0963893161041
 30
0.0
 41
7.0
 42
7.0
 43
7.0
 50
90.0
  0
MTEXT
  5
50B9
330
3539
100
AcDbEntity
  8
SUNPOU
 62
     4
100
AcDbMText
 10
303.9052111496991
 20
112.6963893161041
 30
0.0
 40
6.0
 41
0.0
 71
     5
 72
     1
  1
\A1;\U+203B14
 11
0.0000000000000001
 21
1.0
 31
0.0
 73
     1
 44
1.0
1001
ACAD
1000
MTEXTBEGIN
1070
    73
1070
     1
1070
    44
1040
1.0
1070
    74
1070
     0
1000
MTEXTEND
  0
POINT
  5
50BA
330
3539
100
AcDbEntity
  8
DEFPOINTS
 62
     0
100
AcDbPoint
 10
262.5583861063362
 20
150.0963893161041
 30
0.0
  0
POINT
  5
50BB
330
3539
100
AcDbEntity
  8
DEFPOINTS
 62
     0
100
AcDbPoint
 10
258.7082861063363
 20
136.0963893161041
 30
0.0
  0
POINT
  5
50BC
330
3539
100
AcDbEntity
  8
DEFPOINTS
 62
     0
100
AcDbPoint
 10
308.9052111496992
 20
136.0963893161041
 30
0.0
  0
ENDBLK
  5
3546
330
3539
100
AcDbEntity
  8
0
100
AcDbBlockEnd
  0
BLOCK
  5
3569
330
355F
100
AcDbEntity
  8
0
100
AcDbBlockBegin
  2
*D5
 70
     1
 10
0.0
 20
0.0
 30
0.0
  3
*D5
  1

  0
LINE
  5
50EA
330
355F
100
AcDbEntity
  8
SUNPOU
 62
     4
100
AcDbLine
 10
295.7078803919921
 20
284.0963893161123
 30
0.0
 11
295.7078803919921
 21
295.4508201964591
 31
0.0
  0
LINE
  5
50EB
330
355F
100
AcDbEntity
  8
SUNPOU
 62
     4
100
AcDbLine
 10
155.7078918206221
 20
284.0963893161123
 30
0.0
 11
155.7078918206221
 21
295.4508201964591
 31
0.0
  0
LINE
  5
50EC
330
355F
100
AcDbEntity
  8
SUNPOU
 62
     4
100
AcDbLine
 10
288.7078803919921
 20
292.4508201964591
 30
0.0
 11
162.7078918206221
 21
292.4508201964591
 31
0.0
  0
INSERT
  5
50ED
330
355F
100
AcDbEntity
  8
SUNPOU
 62
     4
100
AcDbBlockReference
  2
_OPEN
 10
295.7078803919921
 20
292.4508201964591
 30
0.0
 41
7.0
 42
7.0
 43
7.0
  0
INSERT
  5
50EE
330
355F
100
AcDbEntity
  8
SUNPOU
 62
     4
100
AcDbBlockReference
  2
_OPEN
 10
155.7078918206221
 20
292.4508201964591
 30
0.0
 41
7.0
 42
7.0
 43
7.0
 50
180.0
  0
MTEXT
  5
50EF
330
355F
100
AcDbEntity
  8
SUNPOU
 62
     4
100
AcDbMText
 10
226.3429549216435
 20
297.450820196459
 30
0.0
 40
6.0
 41
0.0
 71
     5
 72
     1
  1
\A1;140
 73
     1
 44
1.0
1001
ACAD
1000
MTEXTBEGIN
1070
    73
1070
     1
1070
    44
1040
1.0
1070
    74
1070
     0
1000
MTEXTEND
  0
POINT
  5
50F0
330
355F
100
AcDbEntity
  8
DEFPOINTS
 62
     0
100
AcDbPoint
 10
295.7078803919921
 20
278.0963893161123
 30
0.0
  0
POINT
  5
50F1
330
355F
100
AcDbEntity
  8
DEFPOINTS
 62
     0
100
AcDbPoint
 10
155.7078918206221
 20
278.0963893161123
 30
0.0
  0
POINT
  5
50F2
330
355F
100
AcDbEntity
  8
DEFPOINTS
 62
     0
100
AcDbPoint
 10
155.7078918206221
 20
292.4508201964591
 30
0.0
  0
ENDBLK
  5
356A
330
355F
100
AcDbEntity
  8
0
100
AcDbBlockEnd
  0
BLOCK
  5
3575
330
356B
100
AcDbEntity
  8
0
100
AcDbBlockBegin
  2
*D6
 70
     1
 10
0.0
 20
0.0
 30
0.0
  3
*D6
  1

  0
LINE
  5
50BD
330
356B
100
AcDbEntity
  8
SUNPOU
 62
     4
100
AcDbLine
 10
262.5583861063362
 20
135.0963893161041
 30
0.0
 11
262.5583861063362
 21
102.5420034485498
 31
0.0
  0
LINE
  5
50BE
330
356B
100
AcDbEntity
  8
SUNPOU
 62
     4
100
AcDbLine
 10
188.8577861063363
 20
135.0964893161041
 30
0.0
 11
188.8577861063363
 21
102.5420034485498
 31
0.0
  0
LINE
  5
50BF
330
356B
100
AcDbEntity
  8
SUNPOU
 62
     4
100
AcDbLine
 10
255.5583861063362
 20
105.5420034485498
 30
0.0
 11
195.8577861063363
 21
105.5420034485498
 31
0.0
  0
INSERT
  5
50C0
330
356B
100
AcDbEntity
  8
SUNPOU
 62
     4
100
AcDbBlockReference
  2
_OPEN
 10
262.5583861063362
 20
105.5420034485498
 30
0.0
 41
7.0
 42
7.0
 43
7.0
  0
INSERT
  5
50C1
330
356B
100
AcDbEntity
  8
SUNPOU
 62
     4
100
AcDbBlockReference
  2
_OPEN
 10
188.8577861063363
 20
105.5420034485498
 30
0.0
 41
7.0
 42
7.0
 43
7.0
 50
180.0
  0
MTEXT
  5
50C2
330
356B
100
AcDbEntity
  8
SUNPOU
 62
     4
100
AcDbMText
 10
225.7080861063363
 20
110.5420034485498
 30
0.0
 40
6.0
 41
0.0
 71
     5
 72
     1
  1
\A1;φ74
 73
     1
 44
1.0
1001
ACAD
1000
MTEXTBEGIN
1070
    73
1070
     1
1070
    44
1040
1.0
1070
    74
1070
     0
1000
MTEXTEND
  0
POINT
  5
50C3
330
356B
100
AcDbEntity
  8
DEFPOINTS
 62
     0
100
AcDbPoint
 10
262.5583861063362
 20
141.0963893161041
 30
0.0
  0
POINT
  5
50C4
330
356B
100
AcDbEntity
  8
DEFPOINTS
 62
     0
100
AcDbPoint
 10
188.8577861063363
 20
141.0964893161041
 30
0.0
  0
POINT
  5
50C5
330
356B
100
AcDbEntity
  8
DEFPOINTS
 62
     0
100
AcDbPoint
 10
188.8577861063363
 20
105.5420034485498
 30
0.0
  0
ENDBLK
  5
3576
330
356B
100
AcDbEntity
  8
0
100
AcDbBlockEnd
  0
BLOCK
  5
3582
330
3577
100
AcDbEntity
  8
0
100
AcDbBlockBegin
  2
*D7
 70
     1
 10
0.0
 20
0.0
 30
0.0
  3
*D7
  1

  0
LINE
  5
509E
330
3577
100
AcDbEntity
  8
SUNPOU
 62
     4
100
AcDbLine
 10
301.7078803920508
 20
278.0963893161123
 30
0.0
 11
316.9104611921048
 21
278.0963893161123
 31
0.0
  0
LINE
  5
509F
330
3577
100
AcDbEntity
  8
SUNPOU
 62
     4
100
AcDbLine
 10
300.2486861063366
 20
268.0964098289246
 30
0.0
 11
316.9104611921048
 21
268.0964098289246
 31
0.0
  0
LINE
  5
50A0
330
3577
100
AcDbEntity
  8
SUNPOU
 62
     4
100
AcDbLine
 10
313.9104611921048
 20
285.0963893161122
 30
0.0
 11
313.9104611921048
 21
292.0963893161123
 31
0.0
  0
LINE
  5
50A1
330
3577
100
AcDbEntity
  8
SUNPOU
 62
     4
100
AcDbLine
 10
313.9104611921048
 20
261.0964098289246
 30
0.0
 11
313.9104611921048
 21
243.0964098289246
 31
0.0
  0
LINE
  5
50A2
330
3577
100
AcDbEntity
  8
SUNPOU
 62
     4
100
AcDbLine
 10
313.9104611921048
 20
278.0963893161123
 30
0.0
 11
313.9104611921048
 21
268.0964098289246
 31
0.0
  0
INSERT
  5
50A3
330
3577
100
AcDbEntity
  8
SUNPOU
 62
     4
100
AcDbBlockReference
  2
_OPEN
 10
313.9104611921048
 20
278.0963893161123
 30
0.0
 41
7.0
 42
7.0
 43
7.0
 50
270.0
  0
INSERT
  5
50A4
330
3577
100
AcDbEntity
  8
SUNPOU
 62
     4
100
AcDbBlockReference
  2
_OPEN
 10
313.9104611921048
 20
268.0964098289246
 30
0.0
 41
7.0
 42
7.0
 43
7.0
 50
90.0
  0
MTEXT
  5
50A5
330
3577
100
AcDbEntity
  8
SUNPOU
 62
     4
100
AcDbMText
 10
308.9104611921047
 20
248.5964098289247
 30
0.0
 40
6.0
 41
0.0
 71
     5
 72
     1
  1
\A1;10
 11
0.0000000000000001
 21
1.0
 31
0.0
 73
     1
 44
1.0
1001
ACAD
1000
MTEXTBEGIN
1070
    73
1070
     1
1070
    44
1040
1.0
1070
    74
1070
     0
1000
MTEXTEND
  0
POINT
  5
50A6
330
3577
100
AcDbEntity
  8
DEFPOINTS
 62
     0
100
AcDbPoint
 10
295.7078803920508
 20
278.0963893161123
 30
0.0
  0
POINT
  5
50A7
330
3577
100
AcDbEntity
  8
DEFPOINTS
 62
     0
100
AcDbPoint
 10
294.2486861063366
 20
268.0964098289246
 30
0.0
  0
POINT
  5
50A8
330
3577
100
AcDbEntity
  8
DEFPOINTS
 62
     0
100
AcDbPoint
 10
313.9104611921048
 20
268.0964098289246
 30
0.0
  0
ENDBLK
  5
3583
330
3577
100
AcDbEntity
  8
0
100
AcDbBlockEnd
  0
BLOCK
  5
4517
330
450C
100
AcDbEntity
  8
0
100
AcDbBlockBegin
  2
*D14
 70
     1
 10
0.0
 20
0.0
 30
0.0
  3
*D14
  1

  0
LINE
  5
5001
330
450C
100
AcDbEntity
  8
SUNPOU
 62
     4
100
AcDbLine
 10
623.3343594420666
 20
305.3434099619222
 30
0.0
 11
635.4015380594118
 21
305.3434099619222
 31
0.0
  0
LINE
  5
5002
330
450C
100
AcDbEntity
  8
SUNPOU
 62
     4
100
AcDbLine
 10
622.3343594420667
 20
295.3434099619222
 30
0.0
 11
635.4015380594118
 21
295.3434099619222
 31
0.0
  0
LINE
  5
5003
330
450C
100
AcDbEntity
  8
SUNPOU
 62
     4
100
AcDbLine
 10
632.4015380594118
 20
288.3434099619222
 30
0.0
 11
632.4015380594118
 21
281.3434099619223
 31
0.0
  0
LINE
  5
5004
330
450C
100
AcDbEntity
  8
SUNPOU
 62
     4
100
AcDbLine
 10
632.4015380594118
 20
312.3434099619223
 30
0.0
 11
632.4015380594118
 21
330.3434099619222
 31
0.0
  0
LINE
  5
5005
330
450C
100
AcDbEntity
  8
SUNPOU
 62
     4
100
AcDbLine
 10
632.4015380594118
 20
295.3434099619222
 30
0.0
 11
632.4015380594118
 21
305.3434099619222
 31
0.0
  0
INSERT
  5
5006
330
450C
100
AcDbEntity
  8
SUNPOU
 62
     4
100
AcDbBlockReference
  2
_OPEN
 10
632.4015380594118
 20
295.3434099619222
 30
0.0
 41
7.0
 42
7.0
 43
7.0
 50
90.0
  0
INSERT
  5
5007
330
450C
100
AcDbEntity
  8
SUNPOU
 62
     4
100
AcDbBlockReference
  2
_OPEN
 10
632.4015380594118
 20
305.3434099619222
 30
0.0
 41
7.0
 42
7.0
 43
7.0
 50
270.0
  0
MTEXT
  5
5008
330
450C
100
AcDbEntity
  8
SUNPOU
 62
     4
100
AcDbMText
 10
627.4015380594116
 20
324.8434099619223
 30
0.0
 40
6.0
 41
0.0
 71
     5
 72
     1
  1
\A1;10
 11
0.0000000000000001
 21
1.0
 31
0.0
 73
     1
 44
1.0
1001
ACAD
1000
MTEXTBEGIN
1070
    73
1070
     1
1070
    44
1040
1.0
1070
    74
1070
     0
1000
MTEXTEND
  0
POINT
  5
5009
330
450C
100
AcDbEntity
  8
DEFPOINTS
 62
     0
100
AcDbPoint
 10
617.3343594420666
 20
305.3434099619222
 30
0.0
  0
POINT
  5
500A
330
450C
100
AcDbEntity
  8
DEFPOINTS
 62
     0
100
AcDbPoint
 10
616.3343594420666
 20
295.3434099619222
 30
0.0
  0
POINT
  5
500B
330
450C
100
AcDbEntity
  8
DEFPOINTS
 62
     0
100
AcDbPoint
 10
632.4015380594118
 20
295.3434099619222
 30
0.0
  0
ENDBLK
  5
4518
330
450C
100
AcDbEntity
  8
0
100
AcDbBlockEnd
  0
BLOCK
  5
4523
330
4519
100
AcDbEntity
  8
0
100
AcDbBlockBegin
  2
*D15
 70
     1
 10
0.0
 20
0.0
 30
0.0
  3
*D15
  1

  0
LINE
  5
468B
330
4519
100
AcDbEntity
  8
SUNPOU
100
AcDbLine
 10
620.3343594420666
 20
305.3434099619222
 30
0.0
 11
650.175526138275
 21
305.3434099619222
 31
0.0
  0
LINE
  5
468C
330
4519
100
AcDbEntity
  8
SUNPOU
100
AcDbLine
 10
581.3343594420671
 20
280.3434099619222
 30
0.0
 11
650.175526138275
 21
280.3434099619222
 31
0.0
  0
LINE
  5
468D
330
4519
100
AcDbEntity
  8
SUNPOU
100
AcDbLine
 10
647.175526138275
 20
301.3434099619222
 30
0.0
 11
647.175526138275
 21
284.3434099619221
 31
0.0
  0
INSERT
  5
468E
330
4519
100
AcDbEntity
  8
SUNPOU
100
AcDbBlockReference
  2
_OPEN
 10
647.175526138275
 20
305.3434099619222
 30
0.0
 41
4.0
 42
4.0
 43
4.0
 50
90.0
  0
INSERT
  5
468F
330
4519
100
AcDbEntity
  8
SUNPOU
100
AcDbBlockReference
  2
_OPEN
 10
647.175526138275
 20
280.3434099619222
 30
0.0
 41
4.0
 42
4.0
 43
4.0
 50
270.0
  0
MTEXT
  5
4690
330
4519
100
AcDbEntity
  8
SUNPOU
100
AcDbMText
 10
641.1755261382749
 20
292.8434099619223
 30
0.0
 40
6.0
 41
0.0
 71
     5
 72
     1
  1
\A1;25
 11
0.0000000000000001
 21
1.0
 31
0.0
 73
     1
 44
1.0
1001
ACAD
1000
MTEXTBEGIN
1070
    73
1070
     1
1070
    44
1040
1.0
1070
    74
1070
     0
1000
MTEXTEND
  0
POINT
  5
4691
330
4519
100
AcDbEntity
  8
DEFPOINTS
 62
     0
100
AcDbPoint
 10
617.3343594420666
 20
305.3434099619222
 30
0.0
  0
POINT
  5
4692
330
4519
100
AcDbEntity
  8
DEFPOINTS
 62
     0
100
AcDbPoint
 10
578.3343594420671
 20
280.3434099619222
 30
0.0
  0
POINT
  5
4693
330
4519
100
AcDbEntity
  8
DEFPOINTS
 62
     0
100
AcDbPoint
 10
647.175526138275
 20
280.3434099619222
 30
0.0
  0
ENDBLK
  5
4524
330
4519
100
AcDbEntity
  8
0
100
AcDbBlockEnd
  0
BLOCK
  5
452F
330
4525
100
AcDbEntity
  8
0
100
AcDbBlockBegin
  2
*D16
 70
     1
 10
0.0
 20
0.0
 30
0.0
  3
*D16
  1

  0
LINE
  5
50D8
330
4525
100
AcDbEntity
  8
SUNPOU
 62
     4
100
AcDbLine
 10
477.3343594420667
 20
290.3434099619222
 30
0.0
 11
477.3343594420667
 21
243.9413093253209
 31
0.0
  0
LINE
  5
50D9
330
4525
100
AcDbEntity
  8
SUNPOU
 62
     4
100
AcDbLine
 10
617.3343594420666
 20
290.3434099619222
 30
0.0
 11
617.3343594420666
 21
243.9413093253209
 31
0.0
  0
LINE
  5
50DA
330
4525
100
AcDbEntity
  8
SUNPOU
 62
     4
100
AcDbLine
 10
484.3343594420666
 20
246.9413093253209
 30
0.0
 11
610.3343594420667
 21
246.9413093253209
 31
0.0
  0
INSERT
  5
50DB
330
4525
100
AcDbEntity
  8
SUNPOU
 62
     4
100
AcDbBlockReference
  2
_OPEN
 10
477.3343594420667
 20
246.9413093253209
 30
0.0
 41
7.0
 42
7.0
 43
7.0
 50
180.0
  0
INSERT
  5
50DC
330
4525
100
AcDbEntity
  8
SUNPOU
 62
     4
100
AcDbBlockReference
  2
_OPEN
 10
617.3343594420666
 20
246.9413093253209
 30
0.0
 41
7.0
 42
7.0
 43
7.0
  0
MTEXT
  5
50DD
330
4525
100
AcDbEntity
  8
SUNPOU
 62
     4
100
AcDbMText
 10
547.3343594420667
 20
251.9413093253209
 30
0.0
 40
6.0
 41
0.0
 71
     5
 72
     1
  1
\A1;140
 73
     1
 44
1.0
1001
ACAD
1000
MTEXTBEGIN
1070
    73
1070
     1
1070
    44
1040
1.0
1070
    74
1070
     0
1000
MTEXTEND
  0
POINT
  5
50DE
330
4525
100
AcDbEntity
  8
DEFPOINTS
 62
     0
100
AcDbPoint
 10
477.3343594420667
 20
296.3434099619222
 30
0.0
  0
POINT
  5
50DF
330
4525
100
AcDbEntity
  8
DEFPOINTS
 62
     0
100
AcDbPoint
 10
617.3343594420666
 20
296.3434099619222
 30
0.0
  0
POINT
  5
50E0
330
4525
100
AcDbEntity
  8
DEFPOINTS
 62
     0
100
AcDbPoint
 10
617.3343594420666
 20
246.9413093253209
 30
0.0
  0
ENDBLK
  5
4530
330
4525
100
AcDbEntity
  8
0
100
AcDbBlockEnd
  0
BLOCK
  5
453B
330
4531
100
AcDbEntity
  8
0
100
AcDbBlockBegin
  2
*D17
 70
     1
 10
0.0
 20
0.0
 30
0.0
  3
*D17
  1

  0
LINE
  5
50E1
330
4531
100
AcDbEntity
  8
SUNPOU
 62
     4
100
AcDbLine
 10
516.3343594420664
 20
274.3434099619222
 30
0.0
 11
516.3343594420664
 21
259.191462728534
 31
0.0
  0
LINE
  5
50E2
330
4531
100
AcDbEntity
  8
SUNPOU
 62
     4
100
AcDbLine
 10
578.3343594420671
 20
274.3434099619222
 30
0.0
 11
578.3343594420671
 21
259.191462728534
 31
0.0
  0
LINE
  5
50E3
330
4531
100
AcDbEntity
  8
SUNPOU
 62
     4
100
AcDbLine
 10
523.3343594420664
 20
262.1914627285339
 30
0.0
 11
571.334359442067
 21
262.1914627285339
 31
0.0
  0
INSERT
  5
50E4
330
4531
100
AcDbEntity
  8
SUNPOU
 62
     4
100
AcDbBlockReference
  2
_OPEN
 10
516.3343594420664
 20
262.1914627285339
 30
0.0
 41
7.0
 42
7.0
 43
7.0
 50
180.0
  0
INSERT
  5
50E5
330
4531
100
AcDbEntity
  8
SUNPOU
 62
     4
100
AcDbBlockReference
  2
_OPEN
 10
578.3343594420671
 20
262.1914627285339
 30
0.0
 41
7.0
 42
7.0
 43
7.0
  0
MTEXT
  5
50E6
330
4531
100
AcDbEntity
  8
SUNPOU
 62
     4
100
AcDbMText
 10
547.3343594420668
 20
267.191462728534
 30
0.0
 40
6.0
 41
0.0
 71
     5
 72
     1
  1
\A1;φ62
 73
     1
 44
1.0
1001
ACAD
1000
MTEXTBEGIN
1070
    73
1070
     1
1070
    44
1040
1.0
1070
    74
1070
     0
1000
MTEXTEND
  0
POINT
  5
50E7
330
4531
100
AcDbEntity
  8
DEFPOINTS
 62
     0
100
AcDbPoint
 10
516.3343594420664
 20
280.3434099619222
 30
0.0
  0
POINT
  5
50E8
330
4531
100
AcDbEntity
  8
DEFPOINTS
 62
     0
100
AcDbPoint
 10
578.3343594420671
 20
280.3434099619222
 30
0.0
  0
POINT
  5
50E9
330
4531
100
AcDbEntity
  8
DEFPOINTS
 62
     0
100
AcDbPoint
 10
578.3343594420671
 20
262.1914627285339
 30
0.0
  0
ENDBLK
  5
453C
330
4531
100
AcDbEntity
  8
0
100
AcDbBlockEnd
  0
BLOCK
  5
4547
330
453D
100
AcDbEntity
  8
0
100
AcDbBlockBegin
  2
*D18
 70
     1
 10
0.0
 20
0.0
 30
0.0
  3
*D18
  1

  0
LINE
  5
4606
330
453D
100
AcDbEntity
  8
SUNPOU
100
AcDbLine
 10
605.2632916302013
 20
490.2187978968336
 30
0.0
 11
643.4328039458169
 21
490.2187978968335
 31
0.0
  0
LINE
  5
4607
330
453D
100
AcDbEntity
  8
SUNPOU
100
AcDbLine
 10
627.2300659541952
 20
405.2187978968336
 30
0.0
 11
643.4328039458169
 21
405.2187978968335
 31
0.0
  0
LINE
  5
4608
330
453D
100
AcDbEntity
  8
SUNPOU
100
AcDbLine
 10
640.4328039458168
 20
486.2187978968335
 30
0.0
 11
640.4328039458168
 21
409.2187978968335
 31
0.0
  0
INSERT
  5
4609
330
453D
100
AcDbEntity
  8
SUNPOU
100
AcDbBlockReference
  2
_OPEN
 10
640.4328039458168
 20
490.2187978968335
 30
0.0
 41
4.0
 42
4.0
 43
4.0
 50
90.0
  0
INSERT
  5
460A
330
453D
100
AcDbEntity
  8
SUNPOU
100
AcDbBlockReference
  2
_OPEN
 10
640.4328039458168
 20
405.2187978968335
 30
0.0
 41
4.0
 42
4.0
 43
4.0
 50
270.0
  0
MTEXT
  5
460B
330
453D
100
AcDbEntity
  8
SUNPOU
100
AcDbMText
 10
634.4328039458168
 20
447.7187978968337
 30
0.0
 40
6.0
 41
0.0
 71
     5
 72
     1
  1
\A1;85
 11
0.0000000000000001
 21
1.0
 31
0.0
 73
     1
 44
1.0
1001
ACAD
1000
MTEXTBEGIN
1070
    73
1070
     1
1070
    44
1040
1.0
1070
    74
1070
     0
1000
MTEXTEND
  0
POINT
  5
460C
330
453D
100
AcDbEntity
  8
DEFPOINTS
 62
     0
100
AcDbPoint
 10
602.2632916302013
 20
490.2187978968336
 30
0.0
  0
POINT
  5
460D
330
453D
100
AcDbEntity
  8
DEFPOINTS
 62
     0
100
AcDbPoint
 10
624.2300659541951
 20
405.2187978968336
 30
0.0
  0
POINT
  5
460E
330
453D
100
AcDbEntity
  8
DEFPOINTS
 62
     0
100
AcDbPoint
 10
640.4328039458168
 20
405.2187978968335
 30
0.0
  0
ENDBLK
  5
4548
330
453D
100
AcDbEntity
  8
0
100
AcDbBlockEnd
  0
BLOCK
  5
4553
330
4549
100
AcDbEntity
  8
0
100
AcDbBlockBegin
  2
*D19
 70
     1
 10
0.0
 20
0.0
 30
0.0
  3
*D19
  1

  0
LINE
  5
460F
330
4549
100
AcDbEntity
  8
SUNPOU
100
AcDbLine
 10
627.2300659541952
 20
405.2187978968336
 30
0.0
 11
643.4328039458169
 21
405.2187978968335
 31
0.0
  0
LINE
  5
4610
330
4549
100
AcDbEntity
  8
SUNPOU
100
AcDbLine
 10
605.2632916302013
 20
350.2187978968336
 30
0.0
 11
643.4328039458169
 21
350.2187978968336
 31
0.0
  0
LINE
  5
4611
330
4549
100
AcDbEntity
  8
SUNPOU
100
AcDbLine
 10
640.4328039458168
 20
401.2187978968335
 30
0.0
 11
640.4328039458168
 21
354.2187978968336
 31
0.0
  0
INSERT
  5
4612
330
4549
100
AcDbEntity
  8
SUNPOU
100
AcDbBlockReference
  2
_OPEN
 10
640.4328039458168
 20
405.2187978968335
 30
0.0
 41
4.0
 42
4.0
 43
4.0
 50
90.0
  0
INSERT
  5
4613
330
4549
100
AcDbEntity
  8
SUNPOU
100
AcDbBlockReference
  2
_OPEN
 10
640.4328039458168
 20
350.2187978968336
 30
0.0
 41
4.0
 42
4.0
 43
4.0
 50
270.0
  0
MTEXT
  5
4614
330
4549
100
AcDbEntity
  8
SUNPOU
100
AcDbMText
 10
634.4328039458168
 20
377.7187978968337
 30
0.0
 40
6.0
 41
0.0
 71
     5
 72
     1
  1
\A1;55
 11
0.0000000000000001
 21
1.0
 31
0.0
 73
     1
 44
1.0
1001
ACAD
1000
MTEXTBEGIN
1070
    73
1070
     1
1070
    44
1040
1.0
1070
    74
1070
     0
1000
MTEXTEND
  0
POINT
  5
4615
330
4549
100
AcDbEntity
  8
DEFPOINTS
 62
     0
100
AcDbPoint
 10
624.2300659541951
 20
405.2187978968336
 30
0.0
  0
POINT
  5
4616
330
4549
100
AcDbEntity
  8
DEFPOINTS
 62
     0
100
AcDbPoint
 10
602.2632916302013
 20
350.2187978968336
 30
0.0
  0
POINT
  5
4617
330
4549
100
AcDbEntity
  8
DEFPOINTS
 62
     0
100
AcDbPoint
 10
640.4328039458168
 20
350.2187978968336
 30
0.0
  0
ENDBLK
  5
4554
330
4549
100
AcDbEntity
  8
0
100
AcDbBlockEnd
  0
BLOCK
  5
455F
330
4555
100
AcDbEntity
  8
0
100
AcDbBlockBegin
  2
*D20
 70
     1
 10
0.0
 20
0.0
 30
0.0
  3
*D20
  1

  0
LINE
  5
46E0
330
4555
100
AcDbEntity
  8
SUNPOU
100
AcDbLine
 10
605.2632916302013
 20
490.2187978968336
 30
0.0
 11
659.1464410900662
 21
490.2187978968335
 31
0.0
  0
LINE
  5
46E1
330
4555
100
AcDbEntity
  8
SUNPOU
100
AcDbLine
 10
605.2632916302013
 20
350.2187978968336
 30
0.0
 11
659.1464410900662
 21
350.2187978968336
 31
0.0
  0
LINE
  5
46E2
330
4555
100
AcDbEntity
  8
SUNPOU
100
AcDbLine
 10
656.1464410900661
 20
486.2187978968335
 30
0.0
 11
656.1464410900661
 21
354.2187978968336
 31
0.0
  0
INSERT
  5
46E3
330
4555
100
AcDbEntity
  8
SUNPOU
100
AcDbBlockReference
  2
_OPEN
 10
656.1464410900661
 20
490.2187978968335
 30
0.0
 41
4.0
 42
4.0
 43
4.0
 50
90.0
  0
INSERT
  5
46E4
330
4555
100
AcDbEntity
  8
SUNPOU
100
AcDbBlockReference
  2
_OPEN
 10
656.1464410900661
 20
350.2187978968336
 30
0.0
 41
4.0
 42
4.0
 43
4.0
 50
270.0
  0
MTEXT
  5
46E5
330
4555
100
AcDbEntity
  8
SUNPOU
100
AcDbMText
 10
650.1464410900661
 20
420.2187978968336
 30
0.0
 40
6.0
 41
0.0
 71
     5
 72
     1
  1
\A1;140
 11
0.0000000000000001
 21
1.0
 31
0.0
 73
     1
 44
1.0
1001
ACAD
1000
MTEXTBEGIN
1070
    73
1070
     1
1070
    44
1040
1.0
1070
    74
1070
     0
1000
MTEXTEND
  0
POINT
  5
46E6
330
4555
100
AcDbEntity
  8
DEFPOINTS
 62
     0
100
AcDbPoint
 10
602.2632916302013
 20
490.2187978968336
 30
0.0
  0
POINT
  5
46E7
330
4555
100
AcDbEntity
  8
DEFPOINTS
 62
     0
100
AcDbPoint
 10
602.2632916302013
 20
350.2187978968336
 30
0.0
  0
POINT
  5
46E8
330
4555
100
AcDbEntity
  8
DEFPOINTS
 62
     0
100
AcDbPoint
 10
656.1464410900661
 20
350.2187978968336
 30
0.0
  0
ENDBLK
  5
4560
330
4555
100
AcDbEntity
  8
0
100
AcDbBlockEnd
  0
BLOCK
  5
456B
330
4561
100
AcDbEntity
  8
0
100
AcDbBlockBegin
  2
*D21
 70
     1
 10
0.0
 20
0.0
 30
0.0
  3
*D21
  1

  0
LINE
  5
504B
330
4561
100
AcDbEntity
  8
SUNPOU
 62
     4
100
AcDbLine
 10
489.0545701970467
 20
465.2187978968336
 30
0.0
 11
458.0205605256678
 21
465.2187978968336
 31
0.0
  0
LINE
  5
504C
330
4561
100
AcDbEntity
  8
SUNPOU
 62
     4
100
AcDbLine
 10
463.6392685253765
 20
405.2187978968336
 30
0.0
 11
458.0205605256678
 21
405.2187978968336
 31
0.0
  0
LINE
  5
504D
330
4561
100
AcDbEntity
  8
SUNPOU
 62
     4
100
AcDbLine
 10
461.0205605256679
 20
458.2187978968335
 30
0.0
 11
461.0205605256679
 21
412.2187978968335
 31
0.0
  0
INSERT
  5
504E
330
4561
100
AcDbEntity
  8
SUNPOU
 62
     4
100
AcDbBlockReference
  2
_OPEN
 10
461.0205605256679
 20
465.2187978968336
 30
0.0
 41
7.0
 42
7.0
 43
7.0
 50
90.0
  0
INSERT
  5
504F
330
4561
100
AcDbEntity
  8
SUNPOU
 62
     4
100
AcDbBlockReference
  2
_OPEN
 10
461.0205605256679
 20
405.2187978968336
 30
0.0
 41
7.0
 42
7.0
 43
7.0
 50
270.0
  0
MTEXT
  5
5050
330
4561
100
AcDbEntity
  8
SUNPOU
 62
     4
100
AcDbMText
 10
456.0205605256677
 20
435.2187978968337
 30
0.0
 40
6.0
 41
0.0
 71
     5
 72
     1
  1
\A1;60
 11
0.0000000000000001
 21
1.0
 31
0.0
 73
     1
 44
1.0
1001
ACAD
1000
MTEXTBEGIN
1070
    73
1070
     1
1070
    44
1040
1.0
1070
    74
1070
     0
1000
MTEXTEND
  0
POINT
  5
5051
330
4561
100
AcDbEntity
  8
DEFPOINTS
 62
     0
100
AcDbPoint
 10
495.0545701970468
 20
465.2187978968336
 30
0.0
  0
POINT
  5
5052
330
4561
100
AcDbEntity
  8
DEFPOINTS
 62
     0
100
AcDbPoint
 10
469.6392685253766
 20
405.2187978968336
 30
0.0
  0
POINT
  5
5053
330
4561
100
AcDbEntity
  8
DEFPOINTS
 62
     0
100
AcDbPoint
 10
461.0205605256679
 20
405.2187978968336
 30
0.0
  0
ENDBLK
  5
456C
330
4561
100
AcDbEntity
  8
0
100
AcDbBlockEnd
  0
BLOCK
  5
4577
330
456D
100
AcDbEntity
  8
0
100
AcDbBlockBegin
  2
*D22
 70
     1
 10
0.0
 20
0.0
 30
0.0
  3
*D22
  1

  0
LINE
  5
5054
330
456D
100
AcDbEntity
  8
SUNPOU
 62
     4
100
AcDbLine
 10
463.6392685253765
 20
405.2187978968336
 30
0.0
 11
458.0205605256678
 21
405.2187978968336
 31
0.0
  0
LINE
  5
5055
330
456D
100
AcDbEntity
  8
SUNPOU
 62
     4
100
AcDbLine
 10
490.3138415956552
 20
375.2187978968336
 30
0.0
 11
458.0205605256678
 21
375.2187978968336
 31
0.0
  0
LINE
  5
5056
330
456D
100
AcDbEntity
  8
SUNPOU
 62
     4
100
AcDbLine
 10
461.0205605256679
 20
398.2187978968336
 30
0.0
 11
461.0205605256679
 21
382.2187978968336
 31
0.0
  0
INSERT
  5
5057
330
456D
100
AcDbEntity
  8
SUNPOU
 62
     4
100
AcDbBlockReference
  2
_OPEN
 10
461.0205605256679
 20
405.2187978968336
 30
0.0
 41
7.0
 42
7.0
 43
7.0
 50
90.0
  0
INSERT
  5
5058
330
456D
100
AcDbEntity
  8
SUNPOU
 62
     4
100
AcDbBlockReference
  2
_OPEN
 10
461.0205605256679
 20
375.2187978968336
 30
0.0
 41
7.0
 42
7.0
 43
7.0
 50
270.0
  0
MTEXT
  5
5059
330
456D
100
AcDbEntity
  8
SUNPOU
 62
     4
100
AcDbMText
 10
456.0205605256678
 20
390.2187978968338
 30
0.0
 40
6.0
 41
0.0
 71
     5
 72
     1
  1
\A1;30
 11
0.0000000000000001
 21
1.0
 31
0.0
 73
     1
 44
1.0
1001
ACAD
1000
MTEXTBEGIN
1070
    73
1070
     1
1070
    44
1040
1.0
1070
    74
1070
     0
1000
MTEXTEND
  0
POINT
  5
505A
330
456D
100
AcDbEntity
  8
DEFPOINTS
 62
     0
100
AcDbPoint
 10
469.6392685253766
 20
405.2187978968336
 30
0.0
  0
POINT
  5
505B
330
456D
100
AcDbEntity
  8
DEFPOINTS
 62
     0
100
AcDbPoint
 10
496.3138415956552
 20
375.2187978968336
 30
0.0
  0
POINT
  5
505C
330
456D
100
AcDbEntity
  8
DEFPOINTS
 62
     0
100
AcDbPoint
 10
461.0205605256679
 20
375.2187978968336
 30
0.0
  0
ENDBLK
  5
4578
330
456D
100
AcDbEntity
  8
0
100
AcDbBlockEnd
  0
BLOCK
  5
4583
330
4579
100
AcDbEntity
  8
0
100
AcDbBlockBegin
  2
*D23
 70
     1
 10
0.0
 20
0.0
 30
0.0
  3
*D23
  1

  0
LINE
  5
4633
330
4579
100
AcDbEntity
  8
SUNPOU
100
AcDbLine
 10
502.3343594420667
 20
475.4600828803882
 30
0.0
 11
502.3343594420667
 21
506.8617298102558
 31
0.0
  0
LINE
  5
4634
330
4579
100
AcDbEntity
  8
SUNPOU
100
AcDbLine
 10
592.3343594420666
 20
475.4600828803882
 30
0.0
 11
592.3343594420666
 21
506.8617298102558
 31
0.0
  0
LINE
  5
4635
330
4579
100
AcDbEntity
  8
SUNPOU
100
AcDbLine
 10
506.3343594420667
 20
503.8617298102558
 30
0.0
 11
588.3343594420666
 21
503.8617298102558
 31
0.0
  0
INSERT
  5
4636
330
4579
100
AcDbEntity
  8
SUNPOU
100
AcDbBlockReference
  2
_OPEN
 10
502.3343594420667
 20
503.8617298102558
 30
0.0
 41
4.0
 42
4.0
 43
4.0
 50
180.0
  0
INSERT
  5
4637
330
4579
100
AcDbEntity
  8
SUNPOU
100
AcDbBlockReference
  2
_OPEN
 10
592.3343594420666
 20
503.8617298102558
 30
0.0
 41
4.0
 42
4.0
 43
4.0
  0
MTEXT
  5
4638
330
4579
100
AcDbEntity
  8
SUNPOU
100
AcDbMText
 10
547.3343594420667
 20
509.8617298102558
 30
0.0
 40
6.0
 41
0.0
 71
     5
 72
     1
  1
\A1;90
 73
     1
 44
1.0
1001
ACAD
1000
MTEXTBEGIN
1070
    73
1070
     1
1070
    44
1040
1.0
1070
    74
1070
     0
1000
MTEXTEND
  0
POINT
  5
4639
330
4579
100
AcDbEntity
  8
DEFPOINTS
 62
     0
100
AcDbPoint
 10
502.3343594420667
 20
472.4600828803882
 30
0.0
  0
POINT
  5
463A
330
4579
100
AcDbEntity
  8
DEFPOINTS
 62
     0
100
AcDbPoint
 10
592.3343594420666
 20
472.4600828803882
 30
0.0
  0
POINT
  5
463B
330
4579
100
AcDbEntity
  8
DEFPOINTS
 62
     0
100
AcDbPoint
 10
592.3343594420666
 20
503.8617298102558
 30
0.0
  0
ENDBLK
  5
4584
330
4579
100
AcDbEntity
  8
0
100
AcDbBlockEnd
  0
BLOCK
  5
561C
330
5612
100
AcDbEntity
  8
0
100
AcDbBlockBegin
  2
*D84
 70
     1
 10
0.0
 20
0.0
 30
0.0
  3
*D84
  1

  0
LINE
  5
565A
330
5612
100
AcDbEntity
  8
SUNPOU
100
AcDbLine
 10
180.7078861063364
 20
475.4404532162076
 30
0.0
 11
180.7078861063364
 21
506.8421001460752
 31
0.0
  0
LINE
  5
565B
330
5612
100
AcDbEntity
  8
SUNPOU
100
AcDbLine
 10
270.7078861063365
 20
475.4404532162076
 30
0.0
 11
270.7078861063365
 21
506.8421001460752
 31
0.0
  0
LINE
  5
565C
330
5612
100
AcDbEntity
  8
SUNPOU
100
AcDbLine
 10
184.7078861063364
 20
503.8421001460752
 30
0.0
 11
266.7078861063365
 21
503.8421001460752
 31
0.0
  0
INSERT
  5
565D
330
5612
100
AcDbEntity
  8
SUNPOU
100
AcDbBlockReference
  2
_OPEN
 10
180.7078861063364
 20
503.8421001460752
 30
0.0
 41
4.0
 42
4.0
 43
4.0
 50
180.0
  0
INSERT
  5
565E
330
5612
100
AcDbEntity
  8
SUNPOU
100
AcDbBlockReference
  2
_OPEN
 10
270.7078861063365
 20
503.8421001460752
 30
0.0
 41
4.0
 42
4.0
 43
4.0
  0
MTEXT
  5
565F
330
5612
100
AcDbEntity
  8
SUNPOU
100
AcDbMText
 10
225.7078861063364
 20
509.8421001460752
 30
0.0
 40
6.0
 41
0.0
 71
     5
 72
     1
  1
\A1;90
 73
     1
 44
1.0
1001
ACAD
1000
MTEXTBEGIN
1070
    73
1070
     1
1070
    44
1040
1.0
1070
    74
1070
     0
1000
MTEXTEND
  0
POINT
  5
5660
330
5612
100
AcDbEntity
  8
DEFPOINTS
 62
     0
100
AcDbPoint
 10
180.7078861063364
 20
472.4404532162076
 30
0.0
  0
POINT
  5
5661
330
5612
100
AcDbEntity
  8
DEFPOINTS
 62
     0
100
AcDbPoint
 10
270.7078861063365
 20
472.4404532162076
 30
0.0
  0
POINT
  5
5662
330
5612
100
AcDbEntity
  8
DEFPOINTS
 62
     0
100
AcDbPoint
 10
270.7078861063365
 20
503.8421001460752
 30
0.0
  0
ENDBLK
  5
561D
330
5612
100
AcDbEntity
  8
0
100
AcDbBlockEnd
  0
BLOCK
  5
5628
330
561E
100
AcDbEntity
  8
0
100
AcDbBlockBegin
  2
*D85
 70
     1
 10
0.0
 20
0.0
 30
0.0
  3
*D85
  1

  0
LINE
  5
5663
330
561E
100
AcDbEntity
  8
SUNPOU
 62
     4
100
AcDbLine
 10
142.0127951896463
 20
405.1991682326529
 30
0.0
 11
136.3940871899376
 21
405.1991682326529
 31
0.0
  0
LINE
  5
5664
330
561E
100
AcDbEntity
  8
SUNPOU
 62
     4
100
AcDbLine
 10
168.687368259925
 20
375.199168232653
 30
0.0
 11
136.3940871899376
 21
375.199168232653
 31
0.0
  0
LINE
  5
5665
330
561E
100
AcDbEntity
  8
SUNPOU
 62
     4
100
AcDbLine
 10
139.3940871899376
 20
398.199168232653
 30
0.0
 11
139.3940871899376
 21
382.199168232653
 31
0.0
  0
INSERT
  5
5666
330
561E
100
AcDbEntity
  8
SUNPOU
 62
     4
100
AcDbBlockReference
  2
_OPEN
 10
139.3940871899376
 20
405.1991682326529
 30
0.0
 41
7.0
 42
7.0
 43
7.0
 50
90.0
  0
INSERT
  5
5667
330
561E
100
AcDbEntity
  8
SUNPOU
 62
     4
100
AcDbBlockReference
  2
_OPEN
 10
139.3940871899376
 20
375.199168232653
 30
0.0
 41
7.0
 42
7.0
 43
7.0
 50
270.0
  0
MTEXT
  5
5668
330
561E
100
AcDbEntity
  8
SUNPOU
 62
     4
100
AcDbMText
 10
134.3940871899375
 20
390.1991682326531
 30
0.0
 40
6.0
 41
0.0
 71
     5
 72
     1
  1
\A1;30
 11
0.0000000000000001
 21
1.0
 31
0.0
 73
     1
 44
1.0
1001
ACAD
1000
MTEXTBEGIN
1070
    73
1070
     1
1070
    44
1040
1.0
1070
    74
1070
     0
1000
MTEXTEND
  0
POINT
  5
5669
330
561E
100
AcDbEntity
  8
DEFPOINTS
 62
     0
100
AcDbPoint
 10
148.0127951896463
 20
405.1991682326529
 30
0.0
  0
POINT
  5
566A
330
561E
100
AcDbEntity
  8
DEFPOINTS
 62
     0
100
AcDbPoint
 10
174.687368259925
 20
375.199168232653
 30
0.0
  0
POINT
  5
566B
330
561E
100
AcDbEntity
  8
DEFPOINTS
 62
     0
100
AcDbPoint
 10
139.3940871899376
 20
375.199168232653
 30
0.0
  0
ENDBLK
  5
5629
330
561E
100
AcDbEntity
  8
0
100
AcDbBlockEnd
  0
BLOCK
  5
5634
330
562A
100
AcDbEntity
  8
0
100
AcDbBlockBegin
  2
*D86
 70
     1
 10
0.0
 20
0.0
 30
0.0
  3
*D86
  1

  0
LINE
  5
566C
330
562A
100
AcDbEntity
  8
SUNPOU
 62
     4
100
AcDbLine
 10
167.4280968613166
 20
465.199168232653
 30
0.0
 11
136.3940871899376
 21
465.199168232653
 31
0.0
  0
LINE
  5
566D
330
562A
100
AcDbEntity
  8
SUNPOU
 62
     4
100
AcDbLine
 10
142.0127951896463
 20
405.1991682326529
 30
0.0
 11
136.3940871899376
 21
405.1991682326529
 31
0.0
  0
LINE
  5
566E
330
562A
100
AcDbEntity
  8
SUNPOU
 62
     4
100
AcDbLine
 10
139.3940871899376
 20
458.1991682326529
 30
0.0
 11
139.3940871899376
 21
412.1991682326529
 31
0.0
  0
INSERT
  5
566F
330
562A
100
AcDbEntity
  8
SUNPOU
 62
     4
100
AcDbBlockReference
  2
_OPEN
 10
139.3940871899376
 20
465.199168232653
 30
0.0
 41
7.0
 42
7.0
 43
7.0
 50
90.0
  0
INSERT
  5
5670
330
562A
100
AcDbEntity
  8
SUNPOU
 62
     4
100
AcDbBlockReference
  2
_OPEN
 10
139.3940871899376
 20
405.1991682326529
 30
0.0
 41
7.0
 42
7.0
 43
7.0
 50
270.0
  0
MTEXT
  5
5671
330
562A
100
AcDbEntity
  8
SUNPOU
 62
     4
100
AcDbMText
 10
134.3940871899375
 20
435.199168232653
 30
0.0
 40
6.0
 41
0.0
 71
     5
 72
     1
  1
\A1;60
 11
0.0000000000000001
 21
1.0
 31
0.0
 73
     1
 44
1.0
1001
ACAD
1000
MTEXTBEGIN
1070
    73
1070
     1
1070
    44
1040
1.0
1070
    74
1070
     0
1000
MTEXTEND
  0
POINT
  5
5672
330
562A
100
AcDbEntity
  8
DEFPOINTS
 62
     0
100
AcDbPoint
 10
173.4280968613166
 20
465.199168232653
 30
0.0
  0
POINT
  5
5673
330
562A
100
AcDbEntity
  8
DEFPOINTS
 62
     0
100
AcDbPoint
 10
148.0127951896463
 20
405.1991682326529
 30
0.0
  0
POINT
  5
5674
330
562A
100
AcDbEntity
  8
DEFPOINTS
 62
     0
100
AcDbPoint
 10
139.3940871899376
 20
405.1991682326529
 30
0.0
  0
ENDBLK
  5
5635
330
562A
100
AcDbEntity
  8
0
100
AcDbBlockEnd
  0
BLOCK
  5
5640
330
5636
100
AcDbEntity
  8
0
100
AcDbBlockBegin
  2
*D87
 70
     1
 10
0.0
 20
0.0
 30
0.0
  3
*D87
  1

  0
LINE
  5
5675
330
5636
100
AcDbEntity
  8
SUNPOU
100
AcDbLine
 10
283.6368182944712
 20
490.199168232653
 30
0.0
 11
337.519967754336
 21
490.199168232653
 31
0.0
  0
LINE
  5
5676
330
5636
100
AcDbEntity
  8
SUNPOU
100
AcDbLine
 10
283.6368182944712
 20
350.199168232653
 30
0.0
 11
337.519967754336
 21
350.199168232653
 31
0.0
  0
LINE
  5
5677
330
5636
100
AcDbEntity
  8
SUNPOU
100
AcDbLine
 10
334.5199677543361
 20
486.199168232653
 30
0.0
 11
334.519967754336
 21
354.199168232653
 31
0.0
  0
INSERT
  5
5678
330
5636
100
AcDbEntity
  8
SUNPOU
100
AcDbBlockReference
  2
_OPEN
 10
334.5199677543361
 20
490.199168232653
 30
0.0
 41
4.0
 42
4.0
 43
4.0
 50
90.0
  0
INSERT
  5
5679
330
5636
100
AcDbEntity
  8
SUNPOU
100
AcDbBlockReference
  2
_OPEN
 10
334.519967754336
 20
350.199168232653
 30
0.0
 41
4.0
 42
4.0
 43
4.0
 50
270.0
  0
MTEXT
  5
567A
330
5636
100
AcDbEntity
  8
SUNPOU
100
AcDbMText
 10
328.519967754336
 20
420.199168232653
 30
0.0
 40
6.0
 41
0.0
 71
     5
 72
     1
  1
\A1;140
 11
0.0000000000000001
 21
1.0
 31
0.0
 73
     1
 44
1.0
1001
ACAD
1000
MTEXTBEGIN
1070
    73
1070
     1
1070
    44
1040
1.0
1070
    74
1070
     0
1000
MTEXTEND
  0
POINT
  5
567B
330
5636
100
AcDbEntity
  8
DEFPOINTS
 62
     0
100
AcDbPoint
 10
280.6368182944711
 20
490.199168232653
 30
0.0
  0
POINT
  5
567C
330
5636
100
AcDbEntity
  8
DEFPOINTS
 62
     0
100
AcDbPoint
 10
280.6368182944711
 20
350.199168232653
 30
0.0
  0
POINT
  5
567D
330
5636
100
AcDbEntity
  8
DEFPOINTS
 62
     0
100
AcDbPoint
 10
334.519967754336
 20
350.199168232653
 30
0.0
  0
ENDBLK
  5
5641
330
5636
100
AcDbEntity
  8
0
100
AcDbBlockEnd
  0
BLOCK
  5
564C
330
5642
100
AcDbEntity
  8
0
100
AcDbBlockBegin
  2
*D88
 70
     1
 10
0.0
 20
0.0
 30
0.0
  3
*D88
  1

  0
LINE
  5
567E
330
5642
100
AcDbEntity
  8
SUNPOU
100
AcDbLine
 10
305.603592618465
 20
405.1991682326529
 30
0.0
 11
321.8063306100867
 21
405.1991682326529
 31
0.0
  0
LINE
  5
567F
330
5642
100
AcDbEntity
  8
SUNPOU
100
AcDbLine
 10
283.6368182944712
 20
350.199168232653
 30
0.0
 11
321.8063306100867
 21
350.199168232653
 31
0.0
  0
LINE
  5
5680
330
5642
100
AcDbEntity
  8
SUNPOU
100
AcDbLine
 10
318.8063306100867
 20
401.1991682326529
 30
0.0
 11
318.8063306100866
 21
354.199168232653
 31
0.0
  0
INSERT
  5
5681
330
5642
100
AcDbEntity
  8
SUNPOU
100
AcDbBlockReference
  2
_OPEN
 10
318.8063306100867
 20
405.1991682326529
 30
0.0
 41
4.0
 42
4.0
 43
4.0
 50
90.0
  0
INSERT
  5
5682
330
5642
100
AcDbEntity
  8
SUNPOU
100
AcDbBlockReference
  2
_OPEN
 10
318.8063306100866
 20
350.199168232653
 30
0.0
 41
4.0
 42
4.0
 43
4.0
 50
270.0
  0
MTEXT
  5
5683
330
5642
100
AcDbEntity
  8
SUNPOU
100
AcDbMText
 10
312.8063306100866
 20
377.6991682326531
 30
0.0
 40
6.0
 41
0.0
 71
     5
 72
     1
  1
\A1;55
 11
0.0000000000000001
 21
1.0
 31
0.0
 73
     1
 44
1.0
1001
ACAD
1000
MTEXTBEGIN
1070
    73
1070
     1
1070
    44
1040
1.0
1070
    74
1070
     0
1000
MTEXTEND
  0
POINT
  5
5684
330
5642
100
AcDbEntity
  8
DEFPOINTS
 62
     0
100
AcDbPoint
 10
302.603592618465
 20
405.1991682326529
 30
0.0
  0
POINT
  5
5685
330
5642
100
AcDbEntity
  8
DEFPOINTS
 62
     0
100
AcDbPoint
 10
280.6368182944711
 20
350.199168232653
 30
0.0
  0
POINT
  5
5686
330
5642
100
AcDbEntity
  8
DEFPOINTS
 62
     0
100
AcDbPoint
 10
318.8063306100866
 20
350.199168232653
 30
0.0
  0
ENDBLK
  5
564D
330
5642
100
AcDbEntity
  8
0
100
AcDbBlockEnd
  0
BLOCK
  5
5658
330
564E
100
AcDbEntity
  8
0
100
AcDbBlockBegin
  2
*D89
 70
     1
 10
0.0
 20
0.0
 30
0.0
  3
*D89
  1

  0
LINE
  5
5687
330
564E
100
AcDbEntity
  8
SUNPOU
100
AcDbLine
 10
283.6368182944712
 20
490.199168232653
 30
0.0
 11
321.8063306100867
 21
490.199168232653
 31
0.0
  0
LINE
  5
5688
330
564E
100
AcDbEntity
  8
SUNPOU
100
AcDbLine
 10
305.603592618465
 20
405.1991682326529
 30
0.0
 11
321.8063306100867
 21
405.1991682326529
 31
0.0
  0
LINE
  5
5689
330
564E
100
AcDbEntity
  8
SUNPOU
100
AcDbLine
 10
318.8063306100866
 20
486.199168232653
 30
0.0
 11
318.8063306100866
 21
409.1991682326529
 31
0.0
  0
INSERT
  5
568A
330
564E
100
AcDbEntity
  8
SUNPOU
100
AcDbBlockReference
  2
_OPEN
 10
318.8063306100866
 20
490.199168232653
 30
0.0
 41
4.0
 42
4.0
 43
4.0
 50
90.0
  0
INSERT
  5
568B
330
564E
100
AcDbEntity
  8
SUNPOU
100
AcDbBlockReference
  2
_OPEN
 10
318.8063306100866
 20
405.1991682326529
 30
0.0
 41
4.0
 42
4.0
 43
4.0
 50
270.0
  0
MTEXT
  5
568C
330
564E
100
AcDbEntity
  8
SUNPOU
100
AcDbMText
 10
312.8063306100866
 20
447.699168232653
 30
0.0
 40
6.0
 41
0.0
 71
     5
 72
     1
  1
\A1;85
 11
0.0000000000000001
 21
1.0
 31
0.0
 73
     1
 44
1.0
1001
ACAD
1000
MTEXTBEGIN
1070
    73
1070
     1
1070
    44
1040
1.0
1070
    74
1070
     0
1000
MTEXTEND
  0
POINT
  5
568D
330
564E
100
AcDbEntity
  8
DEFPOINTS
 62
     0
100
AcDbPoint
 10
280.6368182944711
 20
490.199168232653
 30
0.0
  0
POINT
  5
568E
330
564E
100
AcDbEntity
  8
DEFPOINTS
 62
     0
100
AcDbPoint
 10
302.603592618465
 20
405.1991682326529
 30
0.0
  0
POINT
  5
568F
330
564E
100
AcDbEntity
  8
DEFPOINTS
 62
     0
100
AcDbPoint
 10
318.8063306100866
 20
405.1991682326529
 30
0.0
  0
ENDBLK
  5
5659
330
564E
100
AcDbEntity
  8
0
100
AcDbBlockEnd
  0
ENDSEC
  0
SECTION
  2
ENTITIES
  0
LINE
  5
EE6
330
1A
100
AcDbEntity
  8
ZUWAKU
100
AcDbLine
 10
208.646601303624
 20
15.19999986828872
 30
0.0
 11
447.4243639845474
 21
15.19999986828871
 31
0.0
  0
LINE
  5
EE7
330
1A
100
AcDbEntity
  8
ZUWAKU
100
AcDbLine
 10
208.646601303624
 20
15.59999986828871
 30
0.0
 11
447.4243639845474
 21
15.59999986828872
 31
0.0
  0
LINE
  5
EE8
330
1A
100
AcDbEntity
  8
ZUWAKU
100
AcDbLine
 10
208.646601303624
 20
15.39999986828872
 30
0.0
 11
447.4243639845474
 21
15.39999986828872
 31
0.0
  0
LINE
  5
EE9
330
1A
100
AcDbEntity
  8
ZUWAKU
100
AcDbLine
 10
0.0000000135560185
 20
30.7999998682887
 30
0.0
 11
797.4000000135559
 21
30.7999998682887
 31
0.0
  0
LINE
  5
EEA
330
1A
100
AcDbEntity
  8
ZUWAKU
100
AcDbLine
 10
0.0000000135560185
 20
30.59999986828869
 30
0.0
 11
797.4000000135559
 21
30.59999986828869
 31
0.0
  0
LINE
  5
EEB
330
1A
100
AcDbEntity
  8
ZUWAKU
100
AcDbLine
 10
0.0000000135560185
 20
30.39999986828869
 30
0.0
 11
797.4000000135559
 21
30.39999986828869
 31
0.0
  0
LINE
  5
EEC
330
1A
100
AcDbEntity
  8
ZUWAKU
100
AcDbLine
 10
0.0000000135560185
 20
30.19999986828869
 30
0.0
 11
797.4000000135559
 21
30.19999986828869
 31
0.0
  0
LINE
  5
EED
330
1A
100
AcDbEntity
  8
ZUWAKU
100
AcDbLine
 10
0.0000000135560185
 20
29.99999986828868
 30
0.0
 11
797.4000000135559
 21
29.99999986828868
 31
0.0
  0
LWPOLYLINE
  5
EEE
330
1A
100
AcDbEntity
  8
ZUWAKU
100
AcDbPolyline
 90
        4
 70
     1
 43
0.0
 10
0.2000000135559503
 20
551.3999998682887
 10
0.2000000135559503
 20
0.1999998682887281
 10
797.4000000135559
 20
0.1999998682887511
 10
797.4000000135561
 20
551.3999998682887
  0
LWPOLYLINE
  5
EEF
330
1A
100
AcDbEntity
  8
ZUWAKU
100
AcDbPolyline
 90
        4
 70
     1
 43
0.0
 10
0.6000000135559276
 20
550.9999998682888
 10
0.6000000135559276
 20
0.5999998682887054
 10
797.0000000135562
 20
0.5999998682887516
 10
797.000000013556
 20
550.9999998682888
  0
LWPOLYLINE
  5
EF0
330
1A
100
AcDbEntity
  8
ZUWAKU
100
AcDbPolyline
 90
        4
 70
     1
 43
0.0
 10
0.0000000135560185
 20
551.5999998682887
 10
0.0000000135560185
 20
-0.0000001317113174
 10
797.6000000135561
 20
-0.0000001317112499
 10
797.6000000135561
 20
551.5999998682888
  0
LWPOLYLINE
  5
EF1
330
1A
100
AcDbEntity
  8
ZUWAKU
100
AcDbPolyline
 90
        4
 70
     1
 43
0.0
 10
0.4000000135559958
 20
551.1999998682887
 10
0.4000000135559958
 20
0.3999998682887735
 10
797.200000013556
 20
0.3999998682887504
 10
797.200000013556
 20
551.1999998682887
  0
LWPOLYLINE
  5
EF2
330
1A
100
AcDbEntity
  8
ZUWAKU
100
AcDbPolyline
 90
        4
 70
     1
 43
0.0
 10
0.800000013555973
 20
550.7999998682887
 10
0.800000013555973
 20
0.7999998682887508
 10
796.8000000135559
 20
0.7999998682887508
 10
796.8000000135559
 20
550.7999998682887
  0
TEXT
  5
EF3
330
1A
100
AcDbEntity
  8
moji
100
AcDbText
 10
92.95778960172516
 20
12.74117799856344
 30
0.0
 40
6.0
  1
たてとい　丸トップ
 41
0.9
  7
MSｺﾞｼｯｸ
100
AcDbText
  0
INSERT
  5
EF4
330
1A
100
AcDbEntity
  8
ZUWAKU
  6
Continuous
100
AcDbBlockReference
  2
*X1
 10
0.0
 20
0.0
 30
0.0
1001
ACAD
1000
HATCH
1002
{
1070
    19
1000
ANSI37
1040
0.2
1040
0.0
1000
R14_HATCH_DATA
1000
EF4
1011
1.0
1021
0.0
1031
0.0
1011
0.0
1021
1.0
1031
0.0
1011
0.0
1021
0.0
1031
1.0
1040
0.0
1010
0.0
1020
0.0
1030
1.0
1000
ANSI37
1070
     0
1070
     0
1071
        8
1071
        7
1070
     1
1070
     1
1071
       24
1040
14.50226267467587
1040
17.64484834927226
1040
-0.1989123673796348
1040
14.09221216833714
1040
18.63479784293332
1040
0.0
1040
14.09221216833714
1040
19.92499986828869
1040
-0.4142135623730912
1040
14.61721216833712
1040
20.44999986828869
1040
0.0
1040
17.59221216833703
1040
20.44999986828869
1040
0.4142135623731546
1040
18.11721216833712
1040
20.97499986828868
1040
0.0
1040
18.11721216833712
1040
22.72499986828869
1040
0.4142135623731586
1040
17.59221216833703
1040
23.24999986828869
1040
0.0
1040
14.09221216833714
1040
23.24999986828869
1040
0.4142135623730928
1040
11.29221216833719
1040
20.44999986828871
1040
0.0
1040
11.29221216833719
1040
18.63479784293344
1040
0.1989123673796619
1040
12.52236368735362
1040
15.66494936194984
1040
0.0
1040
15.43216166199829
1040
12.75515138730518
1040
-0.1989123673796613
1040
15.84221216833714
1040
11.76520189364399
1040
0.0
1040
15.84221216833714
1040
10.47499986828867
1040
-0.4142135623730911
1040
15.31721216833716
1040
9.949999868288685
1040
0.0
1040
12.34221216833725
1040
9.949999868288685
1040
0.4142135623731526
1040
11.81721216833716
1040
9.424999868288697
1040
0.0
1040
11.81721216833716
1040
7.674999868288676
1040
0.4142135623731526
1040
12.34221216833725
1040
7.149999868288688
1040
0.0
1040
15.84221216833714
1040
7.149999868288688
1040
0.4142135623731044
1040
18.64221216833721
1040
9.949999868288664
1040
0.0
1040
18.64221216833721
1040
11.76520189364393
1040
0.1989123673796604
1040
17.41206064932066
1040
14.73505037462748
1040
0.0
1071
        0
1071
        7
1070
     1
1070
     1
1071
       16
1040
23.54221216833719
1040
19.04999986828869
1040
-0.4142135623730935
1040
24.94221216833717
1040
20.44999986828869
1040
0.0
1040
26.86721216833712
1040
20.44999986828869
1040
0.4142135623731546
1040
27.39221216833721
1040
20.97499986828868
1040
0.0
1040
27.39221216833721
1040
22.72499986828869
1040
0.4142135623730951
1040
26.86721216833723
1040
23.24999986828869
1040
0.0
1040
24.94221216833705
1040
23.24999986828865
1040
0.4142135623730892
1040
20.74221216833712
1040
19.04999986828862
1040
0.0
1040
20.74221216833712
1040
11.34999986828871
1040
0.4142135623730969
1040
24.94221216833717
1040
7.149999868288688
1040
0.0
1040
26.86721216833712
1040
7.149999868288688
1040
0.4142135623731526
1040
27.39221216833721
1040
7.674999868288676
1040
0.0
1040
27.39221216833721
1040
9.424999868288697
1040
0.4142135623730891
1040
26.86721216833723
1040
9.949999868288685
1040
0.0
1040
24.94221216833717
1040
9.949999868288685
1040
-0.4142135623730928
1040
23.54221216833719
1040
11.34999986828867
1040
0.0
1071
        0
1071
        7
1070
     1
1070
     1
1071
        2
1040
24.24221216833712
1040
15.19999986828868
1040
1.0
1040
27.74221216833712
1040
15.19999986828868
1040
1.0
1071
        0
1071
        7
1070
     1
1070
     1
1071
       26
1040
37.31485865051514
1040
19.20504706185211
1040
0.0
1040
38.37649828365295
1040
22.5669059001217
1040
0.5069206636600134
1040
37.87586738445759
1040
23.24999986828869
1040
0.0
1040
36.17697800484837
1040
23.24999986828869
1040
0.3272098845218764
1040
35.67634710565301
1040
22.88309383645566
1040
0.0
1040
33.80807723102123
1040
16.96690590012176
1040
-0.3272098845219541
1040
33.30744633182576
1040
16.59999986828868
1040
0.0
1040
33.1672121683373
1040
16.59999986828868
1040
-0.4142135623731526
1040
32.64221216833721
1040
17.12499986828867
1040
0.0
1040
32.64221216833721
1040
22.72499986828869
1040
0.4142135623730951
1040
32.11721216833723
1040
23.24999986828869
1040
0.0
1040
30.36721216833712
1040
23.24999986828869
1040
0.4142135623730871
1040
29.84221216833714
1040
22.7249998682887
1040
0.0
1040
29.84221216833714
1040
7.674999868288676
1040
0.4142135623730891
1040
30.36721216833712
1040
7.149999868288688
1040
0.0
1040
32.11721216833712
1040
7.149999868288688
1040
0.4142135623731526
1040
32.64221216833721
1040
7.674999868288676
1040
0.0
1040
32.64221216833721
1040
13.2749998682887
1040
-0.4142135623731526
1040
33.1672121683373
1040
13.79999986828869
1040
0.0
1040
33.30744633182587
1040
13.79999986828869
1040
-0.3272098845218915
1040
33.80807723102123
1040
13.43309383645561
1040
0.0
1040
35.67634710565301
1040
7.516905900121759
1040
0.3272098845218902
1040
36.17697800484837
1040
7.149999868288688
1040
0.0
1040
37.87586738445759
1040
7.149999868288688
1040
0.5069206636600335
1040
38.37649828365295
1040
7.833093836455695
1040
0.0
1040
36.05010690517929
1040
15.19999986828882
1040
0.0
1071
        0
1071
        7
1070
     1
1070
     1
1071
        8
1040
43.49221216833711
1040
22.7249998682887
1040
0.4142135623731546
1040
42.96721216833702
1040
23.24999986828869
1040
0.0
1040
41.21721216833726
1040
23.24999986828869
1040
0.4142135623731507
1040
40.69221216833716
1040
22.7249998682887
1040
0.0
1040
40.69221216833716
1040
7.674999868288676
1040
0.4142135623731526
1040
41.21721216833726
1040
7.149999868288688
1040
0.0
1040
42.96721216833702
1040
7.149999868288688
1040
0.4142135623731526
1040
43.49221216833711
1040
7.674999868288676
1040
0.0
1071
        0
1071
        7
1070
     1
1070
     1
1071
       24
1040
48.3922121683372
1040
19.92499986828869
1040
-0.4142135623731546
1040
48.9172121683373
1040
20.44999986828869
1040
0.0
1040
51.89221216833721
1040
20.44999986828869
1040
0.4142135623730911
1040
52.41721216833719
1040
20.97499986828868
1040
0.0
1040
52.41721216833719
1040
22.72499986828869
1040
0.4142135623730952
1040
51.89221216833721
1040
23.24999986828869
1040
0.0
1040
48.3922121683372
1040
23.24999986828869
1040
0.4142135623731048
1040
45.59221216833714
1040
20.44999986828871
1040
0.0
1040
45.59221216833714
1040
18.63479784293344
1040
0.1989123673796613
1040
46.82236368735368
1040
15.66494936194989
1040
0.0
1040
49.73216166199836
1040
12.75515138730522
1040
-0.1989123673796402
1040
50.14221216833721
1040
11.76520189364415
1040
0.0
1040
50.14221216833721
1040
10.47499986828867
1040
-0.4142135623730911
1040
49.61721216833723
1040
9.949999868288685
1040
0.0
1040
46.64221216833721
1040
9.949999868288685
1040
0.4142135623731526
1040
46.11721216833712
1040
9.424999868288697
1040
0.0
1040
46.11721216833712
1040
7.674999868288676
1040
0.4142135623730891
1040
46.64221216833709
1040
7.149999868288688
1040
0.0
1040
50.14221216833721
1040
7.149999868288688
1040
0.4142135623730925
1040
52.94221216833716
1040
9.949999868288664
1040
0.0
1040
52.94221216833716
1040
11.76520189364393
1040
0.1989123673796675
1040
51.71206064932062
1040
14.73505037462759
1040
0.0
1040
48.80226267467605
1040
17.6448483492721
1040
-0.1989123673796652
1040
48.3922121683372
1040
18.63479784293327
1040
0.0
1071
        0
1071
        7
1070
     1
1070
     1
1071
       16
1040
57.84221216833714
1040
22.72499986828868
1040
0.414213562373103
1040
57.31721216833716
1040
23.24999986828869
1040
0.0
1040
55.56721216833716
1040
23.24999986828869
1040
0.4142135623730871
1040
55.04221216833719
1040
22.7249998682887
1040
0.0
1040
55.04221216833719
1040
9.949999868288664
1040
0.4142135623730926
1040
57.84221216833714
1040
7.149999868288688
1040
0.0
1040
61.34221216833714
1040
7.149999868288688
1040
0.4142135623731044
1040
64.14221216833721
1040
9.949999868288664
1040
0.0
1040
64.14221216833721
1040
22.72499986828869
1040
0.4142135623730951
1040
63.61721216833723
1040
23.24999986828869
1040
0.0
1040
61.86721216833712
1040
23.24999986828869
1040
0.4142135623730871
1040
61.34221216833714
1040
22.7249998682887
1040
0.0
1040
61.34221216833714
1040
10.99999986828866
1040
-0.414213562373088
1040
60.29221216833718
1040
9.949999868288685
1040
0.0
1040
58.89221216833721
1040
9.949999868288685
1040
-0.4142135623731197
1040
57.84221216833714
1040
10.99999986828866
1040
0.0
1071
        0
1071
        7
1070
     1
1070
     1
1071
        8
1040
69.04221216833718
1040
22.7249998682887
1040
0.4142135623730871
1040
68.51721216833721
1040
23.24999986828869
1040
0.0
1040
66.76721216833721
1040
23.24999986828869
1040
0.4142135623731507
1040
66.24221216833712
1040
22.7249998682887
1040
0.0
1040
66.24221216833712
1040
7.674999868288676
1040
0.4142135623730891
1040
66.76721216833709
1040
7.149999868288688
1040
0.0
1040
68.51721216833721
1040
7.149999868288688
1040
0.4142135623730891
1040
69.04221216833718
1040
7.674999868288676
1040
0.0
1071
        0
1070
     0
1070
     1
1040
0.0
1040
0.2
1070
     0
1070
     2
1040
0.7853981633974483
1040
-900.942304321123
1040
-13.20000013171125
1040
-0.4490128060534576
1040
0.4490128060534577
1070
     0
1040
2.356194490192344
1040
-900.942304321123
1040
-13.20000013171125
1040
-0.4490128060534577
1040
-0.4490128060534576
1070
     0
1040
0.057451373970553
1071
        8
1040
16.07985497657933
1040
15.16717351417424
1040
0.0
1040
22.40451501999519
1040
18.84406205073969
1040
0.0
1040
25.16436789921568
1040
15.5118815143594
1040
0.0
1040
30.91405999519316
1040
16.20129751473018
1040
0.0
1040
41.83847203251275
1040
16.6609097822718
1040
0.0
1040
46.89820090868557
1040
19.41857618469589
1040
0.0
1040
56.55768598595637
1040
18.7291577833837
1040
0.0
1040
67.82707963317875
1040
19.18877005092531
1040
0.0
1002
}
  0
LINE
  5
EF5
330
1A
100
AcDbEntity
  8
ZUWAKU
100
AcDbLine
 10
24.94221216833717
 20
23.24999986828865
 30
0.0
 11
26.86721216833712
 21
23.24999986828869
 31
0.0
  0
LINE
  5
EF6
330
1A
100
AcDbEntity
  8
ZUWAKU
100
AcDbLine
 10
26.86721216833712
 20
20.44999986828869
 30
0.0
 11
24.94221216833717
 21
20.44999986828869
 31
0.0
  0
LINE
  5
EF7
330
1A
100
AcDbEntity
  8
ZUWAKU
100
AcDbLine
 10
24.94221216833717
 20
9.949999868288685
 30
0.0
 11
26.86721216833712
 21
9.949999868288685
 31
0.0
  0
LINE
  5
EF8
330
1A
100
AcDbEntity
  8
ZUWAKU
100
AcDbLine
 10
26.86721216833712
 20
7.149999868288688
 30
0.0
 11
24.94221216833717
 21
7.149999868288688
 31
0.0
  0
CIRCLE
  5
EF9
330
1A
100
AcDbEntity
  8
ZUWAKU
100
AcDbCircle
 10
25.99221216833712
 20
15.19999986828868
 30
0.0
 40
1.75
  0
ARC
  5
EFA
330
1A
100
AcDbEntity
  8
ZUWAKU
100
AcDbCircle
 10
15.49221216833712
 20
18.63479784293339
 30
0.0
 40
1.399999999999999
100
AcDbArc
 50
180.0000000000016
 51
224.9999999999988
  0
LINE
  5
EFB
330
1A
100
AcDbEntity
  8
ZUWAKU
100
AcDbLine
 10
23.54221216833719
 20
19.04999986828869
 30
0.0
 11
23.54221216833719
 21
11.34999986828869
 31
0.0
  0
LINE
  5
EFC
330
1A
100
AcDbEntity
  8
ZUWAKU
100
AcDbLine
 10
20.74221216833712
 20
11.34999986828869
 30
0.0
 11
20.74221216833712
 21
19.04999986828864
 31
0.0
  0
ARC
  5
EFD
330
1A
100
AcDbEntity
  8
ZUWAKU
100
AcDbCircle
 10
15.49221216833712
 20
18.63479784293339
 30
0.0
 40
4.199999999999999
100
AcDbArc
 50
180.0
 51
225.0
  0
ARC
  5
EFE
330
1A
100
AcDbEntity
  8
ZUWAKU
100
AcDbCircle
 10
15.84221216833714
 20
9.949999868288685
 30
0.0
 40
2.799999999999999
100
AcDbArc
 50
270.0
 51
0.0
  0
ARC
  5
EFF
330
1A
100
AcDbEntity
  8
ZUWAKU
100
AcDbCircle
 10
24.94221216833717
 20
11.34999986828869
 30
0.0
 40
4.199999999999999
100
AcDbArc
 50
180.0
 51
270.0
  0
ARC
  5
F00
330
1A
100
AcDbEntity
  8
ZUWAKU
100
AcDbCircle
 10
14.44221216833716
 20
11.76520189364399
 30
0.0
 40
4.199999999999999
100
AcDbArc
 50
0.0
 51
45.0
  0
LINE
  5
F01
330
1A
100
AcDbEntity
  8
ZUWAKU
100
AcDbLine
 10
17.41206064932066
 20
14.73505037462751
 30
0.0
 11
14.50226267467599
 21
17.64484834927219
 31
0.0
  0
LINE
  5
F02
330
1A
100
AcDbEntity
  8
ZUWAKU
100
AcDbLine
 10
15.84221216833714
 20
10.47499986828869
 30
0.0
 11
15.84221216833714
 21
11.76520189364403
 31
0.0
  0
ARC
  5
F03
330
1A
100
AcDbEntity
  8
ZUWAKU
100
AcDbCircle
 10
15.31721216833716
 20
10.47499986828869
 30
0.0
 40
0.525
100
AcDbArc
 50
270.0
 51
0.0
  0
ARC
  5
F04
330
1A
100
AcDbEntity
  8
ZUWAKU
100
AcDbCircle
 10
14.44221216833716
 20
11.76520189364403
 30
0.0
 40
1.399999999999999
100
AcDbArc
 50
0.0
 51
45.0
  0
LINE
  5
F05
330
1A
100
AcDbEntity
  8
ZUWAKU
100
AcDbLine
 10
11.81721216833716
 20
7.674999868288686
 30
0.0
 11
11.81721216833716
 21
9.424999868288686
 31
0.0
  0
ARC
  5
F06
330
1A
100
AcDbEntity
  8
ZUWAKU
100
AcDbCircle
 10
12.34221216833714
 20
7.674999868288686
 30
0.0
 40
0.525
100
AcDbArc
 50
180.0
 51
270.0
  0
ARC
  5
F07
330
1A
100
AcDbEntity
  8
ZUWAKU
100
AcDbCircle
 10
12.34221216833714
 20
9.424999868288686
 30
0.0
 40
0.525
100
AcDbArc
 50
90.0
 51
180.0
  0
LINE
  5
F08
330
1A
100
AcDbEntity
  8
ZUWAKU
100
AcDbLine
 10
12.34221216833714
 20
7.149999868288688
 30
0.0
 11
15.84221216833714
 21
7.149999868288688
 31
0.0
  0
LINE
  5
F09
330
1A
100
AcDbEntity
  8
ZUWAKU
100
AcDbLine
 10
12.34221216833714
 20
9.949999868288685
 30
0.0
 11
15.31721216833716
 21
9.949999868288685
 31
0.0
  0
LINE
  5
F0A
330
1A
100
AcDbEntity
  8
ZUWAKU
100
AcDbLine
 10
12.52236368735362
 20
15.66494936194986
 30
0.0
 11
15.43216166199829
 21
12.7551513873052
 31
0.0
  0
LINE
  5
F0B
330
1A
100
AcDbEntity
  8
ZUWAKU
100
AcDbLine
 10
18.64221216833721
 20
9.949999868288685
 30
0.0
 11
18.64221216833721
 21
11.76520189364403
 31
0.0
  0
ARC
  5
F0C
330
1A
100
AcDbEntity
  8
ZUWAKU
100
AcDbCircle
 10
24.94221216833717
 20
11.34999986828869
 30
0.0
 40
1.399999999999999
100
AcDbArc
 50
180.0
 51
270.0
  0
ARC
  5
F0D
330
1A
100
AcDbEntity
  8
ZUWAKU
100
AcDbCircle
 10
17.59221216833714
 20
22.72499986828869
 30
0.0
 40
0.525
100
AcDbArc
 50
0.0
 51
90.0
  0
ARC
  5
F0E
330
1A
100
AcDbEntity
  8
ZUWAKU
100
AcDbCircle
 10
17.59221216833714
 20
20.97499986828868
 30
0.0
 40
0.525
100
AcDbArc
 50
270.0
 51
0.0
  0
LINE
  5
F0F
330
1A
100
AcDbEntity
  8
ZUWAKU
100
AcDbLine
 10
14.09221216833714
 20
23.24999986828869
 30
0.0
 11
17.59221216833714
 21
23.24999986828869
 31
0.0
  0
ARC
  5
F10
330
1A
100
AcDbEntity
  8
ZUWAKU
100
AcDbCircle
 10
14.61721216833712
 20
19.92499986828869
 30
0.0
 40
0.525
100
AcDbArc
 50
90.0
 51
180.0
  0
LINE
  5
F11
330
1A
100
AcDbEntity
  8
ZUWAKU
100
AcDbLine
 10
14.09221216833714
 20
19.92499986828869
 30
0.0
 11
14.09221216833714
 21
18.63479784293334
 31
0.0
  0
LINE
  5
F12
330
1A
100
AcDbEntity
  8
ZUWAKU
100
AcDbLine
 10
17.59221216833714
 20
20.44999986828869
 30
0.0
 11
14.61721216833712
 21
20.44999986828869
 31
0.0
  0
LINE
  5
F13
330
1A
100
AcDbEntity
  8
ZUWAKU
100
AcDbLine
 10
11.29221216833719
 20
20.44999986828869
 30
0.0
 11
11.29221216833719
 21
18.63479784293334
 31
0.0
  0
ARC
  5
F14
330
1A
100
AcDbEntity
  8
ZUWAKU
100
AcDbCircle
 10
14.09221216833714
 20
20.44999986828869
 30
0.0
 40
2.799999999999999
100
AcDbArc
 50
90.0
 51
180.0
  0
LINE
  5
F15
330
1A
100
AcDbEntity
  8
ZUWAKU
100
AcDbLine
 10
18.11721216833712
 20
22.72499986828869
 30
0.0
 11
18.11721216833712
 21
20.97499986828868
 31
0.0
  0
ARC
  5
F16
330
1A
100
AcDbEntity
  8
ZUWAKU
100
AcDbCircle
 10
24.94221216833717
 20
19.04999986828869
 30
0.0
 40
1.399999999999999
100
AcDbArc
 50
90.0
 51
180.0
  0
ARC
  5
F17
330
1A
100
AcDbEntity
  8
ZUWAKU
100
AcDbCircle
 10
24.94221216833717
 20
19.04999986828864
 30
0.0
 40
4.199999999999999
100
AcDbArc
 50
90.0
 51
180.0
  0
LINE
  5
F18
330
1A
100
AcDbEntity
  8
ZUWAKU
100
AcDbLine
 10
79.32662956154422
 20
29.99999986828868
 30
0.0
 11
79.32662956154445
 21
0.7999998682887508
 31
0.0
  0
LINE
  5
F19
330
1A
100
AcDbEntity
  8
ZUWAKU
100
AcDbLine
 10
79.52662956154426
 20
29.99999986828868
 30
0.0
 11
79.52662956154449
 21
0.7999998682887508
 31
0.0
  0
LINE
  5
F1A
330
1A
100
AcDbEntity
  8
ZUWAKU
100
AcDbLine
 10
79.12662956154441
 20
29.99999986828868
 30
0.0
 11
79.12662956154441
 21
0.7999998682887508
 31
0.0
  0
LINE
  5
F1B
330
1A
100
AcDbEntity
  8
ZUWAKU
100
AcDbLine
 10
64.14221216833721
 20
9.949999868288685
 30
0.0
 11
64.14221216833721
 21
22.72499986828869
 31
0.0
  0
LINE
  5
F1C
330
1A
100
AcDbEntity
  8
ZUWAKU
100
AcDbLine
 10
61.34221216833714
 20
22.72499986828869
 30
0.0
 11
61.34221216833714
 21
10.99999986828868
 31
0.0
  0
LINE
  5
F1D
330
1A
100
AcDbEntity
  8
ZUWAKU
100
AcDbLine
 10
69.04221216833718
 20
7.674999868288686
 30
0.0
 11
69.04221216833718
 21
22.72499986828869
 31
0.0
  0
LINE
  5
F1E
330
1A
100
AcDbEntity
  8
ZUWAKU
100
AcDbLine
 10
66.24221216833712
 20
22.72499986828869
 30
0.0
 11
66.24221216833712
 21
7.674999868288686
 31
0.0
  0
ARC
  5
F1F
330
1A
100
AcDbEntity
  8
ZUWAKU
100
AcDbCircle
 10
49.79221216833718
 20
18.63479784293339
 30
0.0
 40
1.399999999999999
100
AcDbArc
 50
180.0000000000016
 51
224.9999999999988
  0
ARC
  5
F20
330
1A
100
AcDbEntity
  8
ZUWAKU
100
AcDbCircle
 10
49.79221216833718
 20
18.63479784293339
 30
0.0
 40
4.199999999999999
100
AcDbArc
 50
180.0
 51
225.0
  0
LINE
  5
F21
330
1A
100
AcDbEntity
  8
ZUWAKU
100
AcDbLine
 10
37.31485865051514
 20
19.20504706185211
 30
0.0
 11
36.05010690517929
 21
15.1999998682887
 31
0.0
  0
LINE
  5
F22
330
1A
100
AcDbEntity
  8
ZUWAKU
100
AcDbLine
 10
40.69221216833716
 20
22.72499986828869
 30
0.0
 11
40.69221216833716
 21
7.674999868288686
 31
0.0
  0
LINE
  5
F23
330
1A
100
AcDbEntity
  8
ZUWAKU
100
AcDbLine
 10
43.49221216833711
 20
7.674999868288686
 30
0.0
 11
43.49221216833711
 21
22.72499986828869
 31
0.0
  0
LINE
  5
F24
330
1A
100
AcDbEntity
  8
ZUWAKU
100
AcDbLine
 10
55.04221216833719
 20
22.72499986828869
 30
0.0
 11
55.04221216833719
 21
9.949999868288685
 31
0.0
  0
LINE
  5
F25
330
1A
100
AcDbEntity
  8
ZUWAKU
100
AcDbLine
 10
57.84221216833714
 20
10.99999986828868
 30
0.0
 11
57.84221216833714
 21
22.72499986828869
 31
0.0
  0
LINE
  5
F26
330
1A
100
AcDbEntity
  8
ZUWAKU
100
AcDbLine
 10
32.64221216833721
 20
17.12499986828869
 30
0.0
 11
32.64221216833721
 21
22.72499986828869
 31
0.0
  0
LINE
  5
F27
330
1A
100
AcDbEntity
  8
ZUWAKU
100
AcDbLine
 10
29.84221216833714
 20
22.72499986828869
 30
0.0
 11
29.84221216833714
 21
7.674999868288686
 31
0.0
  0
LINE
  5
F28
330
1A
100
AcDbEntity
  8
ZUWAKU
100
AcDbLine
 10
35.67634710565301
 20
22.88309383645566
 30
0.0
 11
33.80807723102123
 21
16.96690590012171
 31
0.0
  0
LINE
  5
F29
330
1A
100
AcDbEntity
  8
ZUWAKU
100
AcDbLine
 10
60.29221216833718
 20
9.949999868288685
 30
0.0
 11
58.89221216833721
 21
9.949999868288685
 31
0.0
  0
LINE
  5
F2A
330
1A
100
AcDbEntity
  8
ZUWAKU
100
AcDbLine
 10
57.84221216833714
 20
7.149999868288688
 30
0.0
 11
61.34221216833714
 21
7.149999868288688
 31
0.0
  0
LINE
  5
F2B
330
1A
100
AcDbEntity
  8
ZUWAKU
100
AcDbLine
 10
41.21721216833714
 20
7.149999868288688
 30
0.0
 11
42.96721216833714
 21
7.149999868288688
 31
0.0
  0
LINE
  5
F2C
330
1A
100
AcDbEntity
  8
ZUWAKU
100
AcDbLine
 10
35.67634710565301
 20
7.516905900121713
 30
0.0
 11
33.80807723102123
 21
13.43309383645565
 31
0.0
  0
ARC
  5
F2D
330
1A
100
AcDbEntity
  8
ZUWAKU
100
AcDbCircle
 10
33.30744633182587
 20
17.12499986828869
 30
0.0
 40
0.525
100
AcDbArc
 50
270.0
 51
342.474431626277
  0
LINE
  5
F2E
330
1A
100
AcDbEntity
  8
ZUWAKU
100
AcDbLine
 10
33.30744633182587
 20
16.59999986828868
 30
0.0
 11
33.16721216833719
 21
16.59999986828868
 31
0.0
  0
LINE
  5
F2F
330
1A
100
AcDbEntity
  8
ZUWAKU
100
AcDbLine
 10
33.16721216833719
 20
13.79999986828869
 30
0.0
 11
33.30744633182587
 21
13.79999986828869
 31
0.0
  0
ARC
  5
F30
330
1A
100
AcDbEntity
  8
ZUWAKU
100
AcDbCircle
 10
33.16721216833719
 20
17.12499986828869
 30
0.0
 40
0.525
100
AcDbArc
 50
180.0
 51
270.0
  0
LINE
  5
F31
330
1A
100
AcDbEntity
  8
ZUWAKU
100
AcDbLine
 10
30.36721216833712
 20
7.149999868288688
 30
0.0
 11
32.11721216833712
 21
7.149999868288688
 31
0.0
  0
ARC
  5
F32
330
1A
100
AcDbEntity
  8
ZUWAKU
100
AcDbCircle
 10
32.11721216833712
 20
7.674999868288686
 30
0.0
 40
0.525
100
AcDbArc
 50
270.0
 51
0.0
  0
LINE
  5
F33
330
1A
100
AcDbEntity
  8
ZUWAKU
100
AcDbLine
 10
32.64221216833721
 20
7.674999868288686
 30
0.0
 11
32.64221216833721
 21
13.27499986828869
 31
0.0
  0
LINE
  5
F34
330
1A
100
AcDbEntity
  8
ZUWAKU
100
AcDbLine
 10
27.39221216833721
 20
9.424999868288686
 30
0.0
 11
27.39221216833721
 21
7.674999868288686
 31
0.0
  0
ARC
  5
F35
330
1A
100
AcDbEntity
  8
ZUWAKU
100
AcDbCircle
 10
26.86721216833712
 20
7.674999868288686
 30
0.0
 40
0.525
100
AcDbArc
 50
270.0
 51
0.0
  0
ARC
  5
F36
330
1A
100
AcDbEntity
  8
ZUWAKU
100
AcDbCircle
 10
26.86721216833712
 20
9.424999868288686
 30
0.0
 40
0.525
100
AcDbArc
 50
0.0
 51
90.0
  0
ARC
  5
F37
330
1A
100
AcDbEntity
  8
ZUWAKU
100
AcDbCircle
 10
30.36721216833712
 20
7.674999868288686
 30
0.0
 40
0.525
100
AcDbArc
 50
180.0
 51
270.0
  0
ARC
  5
F38
330
1A
100
AcDbEntity
  8
ZUWAKU
100
AcDbCircle
 10
33.30744633182587
 20
13.27499986828869
 30
0.0
 40
0.525
100
AcDbArc
 50
17.52556837372303
 51
90.0
  0
ARC
  5
F39
330
1A
100
AcDbEntity
  8
ZUWAKU
100
AcDbCircle
 10
33.16721216833719
 20
13.27499986828869
 30
0.0
 40
0.525
100
AcDbArc
 50
90.0
 51
180.0
  0
ARC
  5
F3A
330
1A
100
AcDbEntity
  8
ZUWAKU
100
AcDbCircle
 10
41.21721216833714
 20
7.674999868288686
 30
0.0
 40
0.525
100
AcDbArc
 50
180.0
 51
270.0
  0
LINE
  5
F3B
330
1A
100
AcDbEntity
  8
ZUWAKU
100
AcDbLine
 10
36.17697800484848
 20
7.149999868288688
 30
0.0
 11
37.87586738445748
 21
7.149999868288688
 31
0.0
  0
ARC
  5
F3C
330
1A
100
AcDbEntity
  8
ZUWAKU
100
AcDbCircle
 10
37.87586738445748
 20
7.674999868288686
 30
0.0
 40
0.525
100
AcDbArc
 50
270.0
 51
17.52556837372303
  0
LINE
  5
F3D
330
1A
100
AcDbEntity
  8
ZUWAKU
100
AcDbLine
 10
38.37649828365295
 20
7.83309383645566
 30
0.0
 11
36.05010690517929
 21
15.1999998682887
 31
0.0
  0
ARC
  5
F3E
330
1A
100
AcDbEntity
  8
ZUWAKU
100
AcDbCircle
 10
36.17697800484848
 20
7.674999868288686
 30
0.0
 40
0.525
100
AcDbArc
 50
197.525568373723
 51
270.0
  0
ARC
  5
F3F
330
1A
100
AcDbEntity
  8
ZUWAKU
100
AcDbCircle
 10
57.84221216833714
 20
9.949999868288685
 30
0.0
 40
2.799999999999999
100
AcDbArc
 50
180.0
 51
270.0
  0
ARC
  5
F40
330
1A
100
AcDbEntity
  8
ZUWAKU
100
AcDbCircle
 10
50.14221216833721
 20
9.949999868288685
 30
0.0
 40
2.799999999999999
100
AcDbArc
 50
270.0
 51
0.0
  0
LINE
  5
F41
330
1A
100
AcDbEntity
  8
ZUWAKU
100
AcDbLine
 10
51.71206064932073
 20
14.73505037462751
 30
0.0
 11
48.80226267467595
 21
17.64484834927219
 31
0.0
  0
LINE
  5
F42
330
1A
100
AcDbEntity
  8
ZUWAKU
100
AcDbLine
 10
50.14221216833721
 20
10.47499986828869
 30
0.0
 11
50.14221216833721
 21
11.76520189364403
 31
0.0
  0
ARC
  5
F43
330
1A
100
AcDbEntity
  8
ZUWAKU
100
AcDbCircle
 10
48.74221216833712
 20
11.76520189364403
 30
0.0
 40
1.399999999999999
100
AcDbArc
 50
0.0
 51
45.0
  0
ARC
  5
F44
330
1A
100
AcDbEntity
  8
ZUWAKU
100
AcDbCircle
 10
49.61721216833712
 20
10.47499986828869
 30
0.0
 40
0.525
100
AcDbArc
 50
270.0
 51
0.0
  0
LINE
  5
F45
330
1A
100
AcDbEntity
  8
ZUWAKU
100
AcDbLine
 10
46.11721216833712
 20
7.674999868288686
 30
0.0
 11
46.11721216833712
 21
9.424999868288686
 31
0.0
  0
ARC
  5
F46
330
1A
100
AcDbEntity
  8
ZUWAKU
100
AcDbCircle
 10
46.64221216833721
 20
7.674999868288686
 30
0.0
 40
0.525
100
AcDbArc
 50
180.0
 51
270.0
  0
ARC
  5
F47
330
1A
100
AcDbEntity
  8
ZUWAKU
100
AcDbCircle
 10
42.96721216833714
 20
7.674999868288686
 30
0.0
 40
0.525
100
AcDbArc
 50
270.0
 51
0.0
  0
ARC
  5
F48
330
1A
100
AcDbEntity
  8
ZUWAKU
100
AcDbCircle
 10
46.64221216833721
 20
9.424999868288686
 30
0.0
 40
0.525
100
AcDbArc
 50
90.0
 51
180.0
  0
LINE
  5
F49
330
1A
100
AcDbEntity
  8
ZUWAKU
100
AcDbLine
 10
46.64221216833721
 20
9.949999868288685
 30
0.0
 11
49.61721216833712
 21
9.949999868288685
 31
0.0
  0
LINE
  5
F4A
330
1A
100
AcDbEntity
  8
ZUWAKU
100
AcDbLine
 10
46.64221216833721
 20
7.149999868288688
 30
0.0
 11
50.14221216833721
 21
7.149999868288688
 31
0.0
  0
LINE
  5
F4B
330
1A
100
AcDbEntity
  8
ZUWAKU
100
AcDbLine
 10
46.82236368735368
 20
15.66494936194986
 30
0.0
 11
49.73216166199836
 21
12.7551513873052
 31
0.0
  0
LINE
  5
F4C
330
1A
100
AcDbEntity
  8
ZUWAKU
100
AcDbLine
 10
52.94221216833716
 20
9.949999868288685
 30
0.0
 11
52.94221216833716
 21
11.76520189364403
 31
0.0
  0
ARC
  5
F4D
330
1A
100
AcDbEntity
  8
ZUWAKU
100
AcDbCircle
 10
48.74221216833712
 20
11.76520189364399
 30
0.0
 40
4.199999999999999
100
AcDbArc
 50
0.0
 51
45.0
  0
ARC
  5
F4E
330
1A
100
AcDbEntity
  8
ZUWAKU
100
AcDbCircle
 10
58.89221216833721
 20
10.99999986828868
 30
0.0
 40
1.049999999999999
100
AcDbArc
 50
180.0
 51
270.0
  0
ARC
  5
F4F
330
1A
100
AcDbEntity
  8
ZUWAKU
100
AcDbCircle
 10
61.34221216833714
 20
9.949999868288685
 30
0.0
 40
2.799999999999999
100
AcDbArc
 50
270.0
 51
0.0
  0
LINE
  5
F50
330
1A
100
AcDbEntity
  8
ZUWAKU
100
AcDbLine
 10
66.76721216833721
 20
7.149999868288688
 30
0.0
 11
68.51721216833721
 21
7.149999868288688
 31
0.0
  0
ARC
  5
F51
330
1A
100
AcDbEntity
  8
ZUWAKU
100
AcDbCircle
 10
66.76721216833721
 20
7.674999868288686
 30
0.0
 40
0.525
100
AcDbArc
 50
180.0
 51
270.0
  0
ARC
  5
F52
330
1A
100
AcDbEntity
  8
ZUWAKU
100
AcDbCircle
 10
60.29221216833718
 20
10.99999986828868
 30
0.0
 40
1.049999999999999
100
AcDbArc
 50
270.0
 51
0.0
  0
ARC
  5
F53
330
1A
100
AcDbEntity
  8
ZUWAKU
100
AcDbCircle
 10
68.51721216833721
 20
7.674999868288686
 30
0.0
 40
0.525
100
AcDbArc
 50
270.0
 51
0.0
  0
LINE
  5
F54
330
1A
100
AcDbEntity
  8
ZUWAKU
100
AcDbLine
 10
42.96721216833714
 20
23.24999986828869
 30
0.0
 11
41.21721216833714
 21
23.24999986828869
 31
0.0
  0
ARC
  5
F55
330
1A
100
AcDbEntity
  8
ZUWAKU
100
AcDbCircle
 10
32.11721216833712
 20
22.72499986828869
 30
0.0
 40
0.525
100
AcDbArc
 50
0.0
 51
90.0
  0
LINE
  5
F56
330
1A
100
AcDbEntity
  8
ZUWAKU
100
AcDbLine
 10
32.11721216833712
 20
23.24999986828869
 30
0.0
 11
30.36721216833712
 21
23.24999986828869
 31
0.0
  0
ARC
  5
F57
330
1A
100
AcDbEntity
  8
ZUWAKU
100
AcDbCircle
 10
26.86721216833712
 20
22.72499986828869
 30
0.0
 40
0.525
100
AcDbArc
 50
0.0
 51
90.0
  0
ARC
  5
F58
330
1A
100
AcDbEntity
  8
ZUWAKU
100
AcDbCircle
 10
30.36721216833712
 20
22.72499986828869
 30
0.0
 40
0.525
100
AcDbArc
 50
90.0
 51
180.0
  0
ARC
  5
F59
330
1A
100
AcDbEntity
  8
ZUWAKU
100
AcDbCircle
 10
26.86721216833712
 20
20.97499986828868
 30
0.0
 40
0.525
100
AcDbArc
 50
270.0
 51
0.0
  0
LINE
  5
F5A
330
1A
100
AcDbEntity
  8
ZUWAKU
100
AcDbLine
 10
27.39221216833721
 20
22.72499986828869
 30
0.0
 11
27.39221216833721
 21
20.97499986828868
 31
0.0
  0
ARC
  5
F5B
330
1A
100
AcDbEntity
  8
ZUWAKU
100
AcDbCircle
 10
41.21721216833714
 20
22.72499986828869
 30
0.0
 40
0.525
100
AcDbArc
 50
90.0
 51
180.0
  0
LINE
  5
F5C
330
1A
100
AcDbEntity
  8
ZUWAKU
100
AcDbLine
 10
36.17697800484848
 20
23.24999986828869
 30
0.0
 11
37.87586738445748
 21
23.24999986828869
 31
0.0
  0
ARC
  5
F5D
330
1A
100
AcDbEntity
  8
ZUWAKU
100
AcDbCircle
 10
37.87586738445748
 20
22.72499986828869
 30
0.0
 40
0.525
100
AcDbArc
 50
342.474431626277
 51
90.0
  0
LINE
  5
F5E
330
1A
100
AcDbEntity
  8
ZUWAKU
100
AcDbLine
 10
38.37649828365295
 20
22.56690590012172
 30
0.0
 11
37.31485865051514
 21
19.20504706185211
 31
0.0
  0
ARC
  5
F5F
330
1A
100
AcDbEntity
  8
ZUWAKU
100
AcDbCircle
 10
36.17697800484848
 20
22.72499986828869
 30
0.0
 40
0.525
100
AcDbArc
 50
90.0
 51
162.474431626277
  0
LINE
  5
F60
330
1A
100
AcDbEntity
  8
ZUWAKU
100
AcDbLine
 10
48.3922121683372
 20
23.24999986828869
 30
0.0
 11
51.89221216833721
 21
23.24999986828869
 31
0.0
  0
LINE
  5
F61
330
1A
100
AcDbEntity
  8
ZUWAKU
100
AcDbLine
 10
51.89221216833721
 20
20.44999986828869
 30
0.0
 11
48.91721216833719
 21
20.44999986828869
 31
0.0
  0
ARC
  5
F62
330
1A
100
AcDbEntity
  8
ZUWAKU
100
AcDbCircle
 10
48.91721216833719
 20
19.92499986828869
 30
0.0
 40
0.525
100
AcDbArc
 50
90.0
 51
180.0
  0
LINE
  5
F63
330
1A
100
AcDbEntity
  8
ZUWAKU
100
AcDbLine
 10
48.3922121683372
 20
19.92499986828869
 30
0.0
 11
48.3922121683372
 21
18.63479784293334
 31
0.0
  0
ARC
  5
F64
330
1A
100
AcDbEntity
  8
ZUWAKU
100
AcDbCircle
 10
42.96721216833714
 20
22.72499986828869
 30
0.0
 40
0.525
100
AcDbArc
 50
0.0
 51
90.0
  0
LINE
  5
F65
330
1A
100
AcDbEntity
  8
ZUWAKU
100
AcDbLine
 10
45.59221216833714
 20
20.44999986828869
 30
0.0
 11
45.59221216833714
 21
18.63479784293334
 31
0.0
  0
ARC
  5
F66
330
1A
100
AcDbEntity
  8
ZUWAKU
100
AcDbCircle
 10
48.3922121683372
 20
20.44999986828869
 30
0.0
 40
2.799999999999999
100
AcDbArc
 50
90.0
 51
180.0
  0
ARC
  5
F67
330
1A
100
AcDbEntity
  8
ZUWAKU
100
AcDbCircle
 10
57.31721216833716
 20
22.72499986828869
 30
0.0
 40
0.525
100
AcDbArc
 50
0.0
 51
90.0
  0
ARC
  5
F68
330
1A
100
AcDbEntity
  8
ZUWAKU
100
AcDbCircle
 10
55.56721216833716
 20
22.72499986828869
 30
0.0
 40
0.525
100
AcDbArc
 50
90.0
 51
180.0
  0
LINE
  5
F69
330
1A
100
AcDbEntity
  8
ZUWAKU
100
AcDbLine
 10
57.31721216833716
 20
23.24999986828869
 30
0.0
 11
55.56721216833716
 21
23.24999986828869
 31
0.0
  0
ARC
  5
F6A
330
1A
100
AcDbEntity
  8
ZUWAKU
100
AcDbCircle
 10
51.89221216833721
 20
22.72499986828869
 30
0.0
 40
0.525
100
AcDbArc
 50
0.0
 51
90.0
  0
ARC
  5
F6B
330
1A
100
AcDbEntity
  8
ZUWAKU
100
AcDbCircle
 10
51.89221216833721
 20
20.97499986828868
 30
0.0
 40
0.525
100
AcDbArc
 50
270.0
 51
0.0
  0
LINE
  5
F6C
330
1A
100
AcDbEntity
  8
ZUWAKU
100
AcDbLine
 10
52.41721216833719
 20
22.72499986828869
 30
0.0
 11
52.41721216833719
 21
20.97499986828868
 31
0.0
  0
LINE
  5
F6D
330
1A
100
AcDbEntity
  8
ZUWAKU
100
AcDbLine
 10
68.51721216833721
 20
23.24999986828869
 30
0.0
 11
66.76721216833721
 21
23.24999986828869
 31
0.0
  0
ARC
  5
F6E
330
1A
100
AcDbEntity
  8
ZUWAKU
100
AcDbCircle
 10
66.76721216833721
 20
22.72499986828869
 30
0.0
 40
0.525
100
AcDbArc
 50
90.0
 51
180.0
  0
ARC
  5
F6F
330
1A
100
AcDbEntity
  8
ZUWAKU
100
AcDbCircle
 10
63.61721216833712
 20
22.72499986828869
 30
0.0
 40
0.525
100
AcDbArc
 50
0.0
 51
90.0
  0
LINE
  5
F70
330
1A
100
AcDbEntity
  8
ZUWAKU
100
AcDbLine
 10
63.61721216833712
 20
23.24999986828869
 30
0.0
 11
61.86721216833712
 21
23.24999986828869
 31
0.0
  0
ARC
  5
F71
330
1A
100
AcDbEntity
  8
ZUWAKU
100
AcDbCircle
 10
61.86721216833712
 20
22.72499986828869
 30
0.0
 40
0.525
100
AcDbArc
 50
90.0
 51
180.0
  0
ARC
  5
F72
330
1A
100
AcDbEntity
  8
ZUWAKU
100
AcDbCircle
 10
68.51721216833721
 20
22.72499986828869
 30
0.0
 40
0.525
100
AcDbArc
 50
0.0
 51
90.0
  0
LINE
  5
F75
330
1A
100
AcDbEntity
  8
ZUWAKU
100
AcDbLine
 10
208.2466013036239
 20
29.99999986828868
 30
0.0
 11
208.2466013036239
 21
0.7999998682887508
 31
0.0
  0
LINE
  5
F76
330
1A
100
AcDbEntity
  8
ZUWAKU
100
AcDbLine
 10
208.6466013036238
 20
29.99999986828868
 30
0.0
 11
208.646601303624
 21
0.7999998682887508
 31
0.0
  0
LINE
  5
F77
330
1A
100
AcDbEntity
  8
ZUWAKU
100
AcDbLine
 10
208.4466013036238
 20
29.99999986828868
 30
0.0
 11
208.446601303624
 21
0.7999998682887508
 31
0.0
  0
TEXT
  5
F78
330
1A
100
AcDbEntity
  8
ZUWAKU
100
AcDbText
 10
209.7240463258336
 20
9.6553564066743
 30
0.0
 40
4.0
  1
サイズ
 41
0.9
  7
MSｺﾞｼｯｸ
100
AcDbText
  0
TEXT
  5
F79
330
1A
100
AcDbEntity
  8
ZUWAKU
100
AcDbText
 10
209.7240463258333
 20
24.05535640667427
 30
0.0
 40
4.0
  1
品名
 41
0.9
  7
MSｺﾞｼｯｸ
100
AcDbText
  0
LINE
  5
F7A
330
1A
100
AcDbEntity
  8
ZUWAKU
100
AcDbLine
 10
648.8172025237602
 20
15.19999986828871
 30
0.0
 11
697.2490105620972
 21
15.19999986828872
 31
0.0
  0
LINE
  5
F7B
330
1A
100
AcDbEntity
  8
ZUWAKU
100
AcDbLine
 10
648.8172025237604
 20
15.39999986828872
 30
0.0
 11
697.2490105620972
 21
15.39999986828872
 31
0.0
  0
LINE
  5
F7C
330
1A
100
AcDbEntity
  8
ZUWAKU
100
AcDbLine
 10
648.8172025237602
 20
15.59999986828871
 30
0.0
 11
697.2490105620972
 21
15.59999986828871
 31
0.0
  0
TEXT
  5
F7D
330
1A
100
AcDbEntity
  8
ZUWAKU
100
AcDbText
 10
656.0374517031416
 20
18.66376316516152
 30
0.0
 40
5.599999999999999
  1
　　．  ．　　
 41
0.9
  7
MSｺﾞｼｯｸ
100
AcDbText
  0
LINE
  5
F7E
330
1A
100
AcDbEntity
  8
ZUWAKU
100
AcDbLine
 10
505.1991795116968
 20
15.19999986828872
 30
0.0
 11
552.5269557796685
 21
15.19999986828872
 31
0.0
  0
LINE
  5
F7F
330
1A
100
AcDbEntity
  8
ZUWAKU
100
AcDbLine
 10
505.1991795116968
 20
15.39999986828872
 30
0.0
 11
552.5269557796685
 21
15.39999986828872
 31
0.0
  0
LINE
  5
F80
330
1A
100
AcDbEntity
  8
ZUWAKU
100
AcDbLine
 10
505.1991795116968
 20
15.59999986828871
 30
0.0
 11
552.5269557796685
 21
15.59999986828871
 31
0.0
  0
LINE
  5
F82
330
1A
100
AcDbEntity
  8
ZUWAKU
100
AcDbLine
 10
447.6243639845472
 20
29.99999986828868
 30
0.0
 11
447.6243639845474
 21
0.7999998682887508
 31
0.0
  0
LINE
  5
F83
330
1A
100
AcDbEntity
  8
ZUWAKU
100
AcDbLine
 10
447.8243639845472
 20
29.99999986828868
 30
0.0
 11
447.8243639845475
 21
0.7999998682887508
 31
0.0
  0
LINE
  5
F84
330
1A
100
AcDbEntity
  8
ZUWAKU
100
AcDbLine
 10
447.4243639845474
 20
29.99999986828868
 30
0.0
 11
447.4243639845474
 21
0.7999998682887508
 31
0.0
  0
TEXT
  5
F85
330
1A
100
AcDbEntity
  8
moji
100
AcDbText
 10
528.0409079858689
 20
18.00492092569607
 30
0.0
 40
5.599999999999999
  1
Ａ３
 41
0.9
  7
MSｺﾞｼｯｸ
100
AcDbText
  0
LINE
  5
F86
330
1A
100
AcDbEntity
  8
ZUWAKU
100
AcDbLine
 10
504.9991795116969
 20
29.99999986828868
 30
0.0
 11
504.999179511697
 21
0.7999998682887508
 31
0.0
  0
LINE
  5
F87
330
1A
100
AcDbEntity
  8
ZUWAKU
100
AcDbLine
 10
505.1991795116968
 20
29.99999986828868
 30
0.0
 11
505.1991795116971
 21
0.7999998682887508
 31
0.0
  0
LINE
  5
F88
330
1A
100
AcDbEntity
  8
ZUWAKU
100
AcDbLine
 10
504.799179511697
 20
29.99999986828868
 30
0.0
 11
504.799179511697
 21
0.7999998682887508
 31
0.0
  0
TEXT
  5
F89
330
1A
100
AcDbEntity
  8
ZUWAKU
100
AcDbText
 10
464.0120022211934
 20
2.614070779428175
 30
0.0
 40
3.0
  1
□には色品番が入ります
 41
0.9
  7
MSｺﾞｼｯｸ
100
AcDbText
  0
TEXT
  5
F8A
330
1A
100
AcDbEntity
  8
ZUWAKU
100
AcDbText
 10
506.6766245339067
 20
9.6553564066743
 30
0.0
 40
4.0
  1
縮尺
 41
0.9
  7
MSｺﾞｼｯｸ
100
AcDbText
  0
TEXT
  5
F8B
330
1A
100
AcDbEntity
  8
moji
100
AcDbText
 10
528.0409079858689
 20
3.204920925696104
 30
0.0
 40
5.599999999999999
  1
１/２
 41
0.9
  7
MSｺﾞｼｯｸ
100
AcDbText
  0
TEXT
  5
F8C
330
1A
100
AcDbEntity
  8
ZUWAKU
100
AcDbText
 10
449.3018090067569
 20
24.05535640667427
 30
0.0
 40
4.0
  1
品番
 41
0.9
  7
MSｺﾞｼｯｸ
100
AcDbText
  0
TEXT
  5
F8D
330
1A
100
AcDbEntity
  8
ZUWAKU
100
AcDbText
 10
506.6766245339065
 20
24.05535640667427
 30
0.0
 40
4.0
  1
用紙
 41
0.9
  7
MSｺﾞｼｯｸ
100
AcDbText
  0
LINE
  5
F8E
330
1A
100
AcDbEntity
  8
ZUWAKU
100
AcDbLine
 10
648.6172025237603
 20
29.99999986828868
 30
0.0
 11
648.6172025237606
 21
0.7999998682887508
 31
0.0
  0
LINE
  5
F8F
330
1A
100
AcDbEntity
  8
ZUWAKU
100
AcDbLine
 10
648.8172025237604
 20
29.99999986828868
 30
0.0
 11
648.8172025237607
 21
0.7999998682887508
 31
0.0
  0
LINE
  5
F90
330
1A
100
AcDbEntity
  8
ZUWAKU
100
AcDbLine
 10
648.4172025237605
 20
29.99999986828868
 30
0.0
 11
648.4172025237605
 21
0.7999998682887508
 31
0.0
  0
LINE
  5
F91
330
1A
100
AcDbEntity
  8
ZUWAKU
100
AcDbLine
 10
552.7269557796683
 20
29.99999986828868
 30
0.0
 11
552.7269557796684
 21
0.7999998682887508
 31
0.0
  0
LINE
  5
F92
330
1A
100
AcDbEntity
  8
ZUWAKU
100
AcDbLine
 10
552.9269557796683
 20
29.99999986828868
 30
0.0
 11
552.9269557796685
 21
0.7999998682887508
 31
0.0
  0
LINE
  5
F93
330
1A
100
AcDbEntity
  8
ZUWAKU
100
AcDbLine
 10
552.5269557796685
 20
29.99999986828868
 30
0.0
 11
552.5269557796685
 21
0.7999998682887508
 31
0.0
  0
TEXT
  5
F94
330
1A
100
AcDbEntity
  8
ZUWAKU
100
AcDbText
 10
650.29464754597
 20
24.05535640667427
 30
0.0
 40
4.0
  1
DATE
 41
0.9
  7
MSｺﾞｼｯｸ
100
AcDbText
  0
LINE
  5
F95
330
1A
100
AcDbEntity
  8
ZUWAKU
100
AcDbLine
 10
697.2490105620972
 20
29.99999986828868
 30
0.0
 11
697.2490105620972
 21
0.7999998682887508
 31
0.0
  0
LINE
  5
F96
330
1A
100
AcDbEntity
  8
ZUWAKU
100
AcDbLine
 10
697.4490105620973
 20
29.99999986828868
 30
0.0
 11
697.4490105620973
 21
0.7999998682887508
 31
0.0
  0
LINE
  5
F97
330
1A
100
AcDbEntity
  8
ZUWAKU
100
AcDbLine
 10
697.6490105620971
 20
29.99999986828868
 30
0.0
 11
697.6490105620974
 21
0.7999998682887508
 31
0.0
  0
LINE
  5
F98
330
1A
100
AcDbEntity
  8
ZUWAKU
100
AcDbLine
 10
697.8490105620972
 20
29.99999986828868
 30
0.0
 11
697.8490105620974
 21
0.7999998682887508
 31
0.0
  0
TEXT
  5
F99
330
1A
100
AcDbEntity
  8
ZUWAKU
100
AcDbText
 10
707.2330790886696
 20
13.04565352773875
 30
0.0
 40
6.0
  1
積水化学工業株式会社
 41
0.9
  7
MSｺﾞｼｯｸ
100
AcDbText
  0
TEXT
  5
25AA
330
1A
100
AcDbEntity
  8
moji
100
AcDbText
 10
231.8536550567537
 20
19.45911593505025
 30
0.0
 40
5.599999999999999
  1
飾りマス角型
 41
0.9
  7
MSｺﾞｼｯｸ
100
AcDbText
  0
TEXT
  5
2714
330
1A
100
AcDbEntity
  8
moji
100
AcDbText
 10
462.1907471063191
 20
11.95770703897881
 30
0.0
 40
5.599999999999999
  1
ＧＦ１４□
 41
0.9
  7
MSｺﾞｼｯｸ
100
AcDbText
  0
TEXT
  5
2971
330
1A
100
AcDbEntity
  8
moji
100
AcDbText
 10
231.8536550567537
 20
5.305115438166922
 30
0.0
 40
5.599999999999999
  1
Ｋ－６０
 41
0.9
  7
MSｺﾞｼｯｸ
100
AcDbText
  0
DIMENSION
  5
340C
330
1A
100
AcDbEntity
  8
SUNPOU
 48
5.0
100
AcDbDimension
  2
*D2
 10
341.2709609412202
 20
125.0963901635476
 30
0.0
 11
336.2709609412202
 21
201.59638973983
 31
0.0
 70
    32
 71
     5
 42
152.9999991525646
  3
STANDARD
100
AcDbAlignedDimension
 13
295.7078803920508
 23
278.0963893161123
 33
0.0
 14
254.7080989563151
 24
125.0963901635476
 34
0.0
 50
90.0
100
AcDbRotatedDimension
1001
ACAD
1000
DSTYLE
1002
{
1070
    41
1040
7.0
1070
    42
1040
6.0
1070
    43
1040
14.0
1070
   141
1040
150.0
1070
   147
1040
2.0
1070
   172
1070
     1
1070
   173
1070
     1
1070
   176
1070
     4
1070
   177
1070
     4
1070
   178
1070
     4
1070
   272
1070
     2
1070
   343
1005
6D
1070
   344
1005
6D
1002
}
  0
DIMENSION
  5
340D
330
1A
100
AcDbEntity
  8
SUNPOU
 48
5.0
100
AcDbDimension
  2
*D3
 10
327.678445860236
 20
278.0963893161123
 30
0.0
 11
322.678445860236
 21
207.0963893161082
 31
0.0
 70
    32
 71
     5
 42
142.0000000000081
  3
STANDARD
100
AcDbAlignedDimension
 13
258.7082861063363
 23
136.0963893161041
 33
0.0
 14
295.7078803919921
 24
278.0963893161123
 34
0.0
 50
90.0
100
AcDbRotatedDimension
1001
ACAD
1000
DSTYLE
1002
{
1070
    41
1040
7.0
1070
    42
1040
6.0
1070
    43
1040
14.0
1070
   141
1040
150.0
1070
   147
1040
2.0
1070
   172
1070
     1
1070
   173
1070
     1
1070
   176
1070
     4
1070
   177
1070
     4
1070
   178
1070
     4
1070
   272
1070
     2
1070
   343
1005
6D
1070
   344
1005
6D
1002
}
  0
DIMENSION
  5
340E
330
1A
100
AcDbEntity
  8
SUNPOU
 48
5.0
100
AcDbDimension
  2
*D4
 10
308.9052111496992
 20
136.0963893161041
 30
0.0
 11
303.9052111496991
 21
112.6963893161041
 31
0.0
 70
    32
  1
\U+203B<>
 71
     5
 42
14.00000000000003
  3
STANDARD
100
AcDbAlignedDimension
 13
262.5583861063362
 23
150.0963893161041
 33
0.0
 14
258.7082861063363
 24
136.0963893161041
 34
0.0
 50
90.0
100
AcDbRotatedDimension
1001
ACAD
1000
DSTYLE
1002
{
1070
    41
1040
7.0
1070
    42
1040
6.0
1070
    43
1040
14.0
1070
   141
1040
150.0
1070
   147
1040
2.0
1070
   172
1070
     1
1070
   173
1070
     1
1070
   176
1070
     4
1070
   177
1070
     4
1070
   178
1070
     4
1070
   272
1070
     2
1070
   343
1005
6D
1070
   344
1005
6D
1002
}
  0
DIMENSION
  5
3411
330
1A
100
AcDbEntity
  8
SUNPOU
 48
5.0
100
AcDbDimension
  2
*D5
 10
155.7078918206221
 20
292.4508201964591
 30
0.0
 11
226.3429549216435
 21
292.4508201964591
 31
0.0
 70
   160
 71
     5
 42
139.99998857137
  3
STANDARD
100
AcDbAlignedDimension
 13
295.7078803919921
 23
278.0963893161123
 33
0.0
 14
155.7078918206221
 24
278.0963893161123
 34
0.0
100
AcDbRotatedDimension
1001
ACAD
1000
DSTYLE
1002
{
1070
    41
1040
7.0
1070
    42
1040
6.0
1070
    43
1040
14.0
1070
   141
1040
150.0
1070
   147
1040
2.0
1070
   172
1070
     1
1070
   173
1070
     1
1070
   176
1070
     4
1070
   177
1070
     4
1070
   178
1070
     4
1070
   272
1070
     2
1070
   343
1005
6D
1070
   344
1005
6D
1002
}
  0
LINE
  5
3412
330
1A
100
AcDbEntity
  8
SEIHIN
 48
5.0
100
AcDbLine
 10
271.2075861063365
 20
171.096389316104
 30
0.0
 11
225.7078861063364
 21
171.096389316104
 31
0.0
  0
LINE
  5
3419
330
1A
100
AcDbEntity
  8
SEIHIN
 48
5.0
100
AcDbLine
 10
275.2075861063365
 20
175.0963893161041
 30
0.0
 11
269.2078861063362
 21
175.0963893161041
 31
0.0
  0
LINE
  5
341A
330
1A
100
AcDbEntity
  8
SEIHIN
 48
5.0
100
AcDbLine
 10
263.2078861063364
 20
175.0963893161041
 30
0.0
 11
272.5079861063361
 21
268.0964893161041
 31
0.0
  0
LINE
  5
341B
330
1A
100
AcDbEntity
  8
SEIHIN
 48
5.0
100
AcDbLine
 10
269.2078861063362
 20
175.0963893161041
 30
0.0
 11
279.4378861063365
 21
268.0964893161041
 31
0.0
  0
LINE
  5
341C
330
1A
100
AcDbEntity
  8
SEIHIN
 48
5.0
100
AcDbLine
 10
275.9578861063362
 20
268.0964893161041
 30
0.0
 11
266.2077861063365
 21
177.0963893161041
 31
0.0
  0
LINE
  5
3423
330
1A
100
AcDbEntity
  8
SEIHIN
 48
5.0
100
AcDbLine
 10
294.7078861063367
 20
268.0965893161042
 30
0.0
 11
225.7078861063364
 21
268.0965893161041
 31
0.0
  0
LINE
  5
342B
330
1A
100
AcDbEntity
  8
SEIHIN
  6
Continuous
 62
     3
 48
16.0
100
AcDbLine
 10
262.5583861063362
 20
161.096389316104
 30
0.0
 11
262.5583861063362
 21
141.0963893161041
 31
0.0
  0
LINE
  5
342C
330
1A
100
AcDbEntity
  8
SEIHIN
  6
Continuous
 62
     3
 48
16.0
100
AcDbLine
 10
188.8578861063363
 20
161.0964893161041
 30
0.0
 11
188.8577861063363
 21
141.0964893161041
 31
0.0
  0
LINE
  5
342D
330
1A
100
AcDbEntity
  8
CENTER L
 48
5.0
100
AcDbLine
 10
225.7078861063365
 20
121.080904928564
 30
0.0
 11
225.7078861063364
 21
281.853061876709
 31
0.0
  0
DIMENSION
  5
3432
330
1A
100
AcDbEntity
  8
SUNPOU
 48
5.0
100
AcDbDimension
  2
*D6
 10
188.8577861063363
 20
105.5420034485498
 30
0.0
 11
225.7080861063363
 21
110.5420034485498
 31
0.0
 70
    32
  1
φ<>
 71
     5
 42
73.70059999999989
  3
STANDARD
100
AcDbAlignedDimension
 13
262.5583861063362
 23
141.0963893161041
 33
0.0
 14
188.8577861063363
 24
141.0964893161041
 34
0.0
100
AcDbRotatedDimension
1001
ACAD
1000
DSTYLE
1002
{
1070
    41
1040
7.0
1070
    42
1040
6.0
1070
    43
1040
14.0
1070
   141
1040
150.0
1070
   147
1040
2.0
1070
   172
1070
     1
1070
   173
1070
     1
1070
   176
1070
     4
1070
   177
1070
     4
1070
   178
1070
     4
1070
   272
1070
     2
1070
   343
1005
6D
1070
   344
1005
6D
1002
}
  0
LINE
  5
3433
330
1A
100
AcDbEntity
  8
SEIHIN
  6
Continuous
 62
     3
 48
16.0
100
AcDbLine
 10
192.7078631063361
 20
136.0963893161041
 30
0.0
 11
258.7082861063363
 21
136.0963893161041
 31
0.0
  0
LINE
  5
3434
330
1A
100
AcDbEntity
  8
SEIHIN
  6
Continuous
 62
     3
 48
16.0
100
AcDbLine
 10
262.5583861063362
 20
141.0963893161041
 30
0.0
 11
188.8577861068363
 21
141.0965893161041
 31
0.0
  0
LINE
  5
3435
330
1A
100
AcDbEntity
  8
SEIHIN
  6
Continuous
 62
     3
 48
16.0
100
AcDbLine
 10
254.7080989563164
 20
125.0963910116422
 30
0.0
 11
196.7080989565413
 21
125.0965876204789
 31
0.0
  0
LINE
  5
3436
330
1A
100
AcDbEntity
  8
SEIHIN
  6
Continuous
 62
     3
100
AcDbLine
 10
196.708114963249
 20
136.0964771948921
 30
0.0
 11
196.7080989563958
 21
125.0964876201456
 31
0.0
  0
LINE
  5
3437
330
1A
100
AcDbEntity
  8
SEIHIN
  6
Continuous
 62
     3
 48
16.0
100
AcDbLine
 10
188.8577861063363
 20
141.0964893161041
 30
0.0
 11
192.7077861063365
 21
136.096489316104
 31
0.0
  0
LINE
  5
3438
330
1A
100
AcDbEntity
  8
SEIHIN
  6
Continuous
 62
     3
100
AcDbLine
 10
254.7081149631824
 20
136.0963893160103
 30
0.0
 11
254.7080989563151
 21
125.0963901635476
 31
0.0
  0
LINE
  5
3439
330
1A
100
AcDbEntity
  8
SEIHIN
  6
Continuous
 62
     3
 48
16.0
100
AcDbLine
 10
262.5583861063362
 20
141.0963893161041
 30
0.0
 11
258.7082861063363
 21
136.0963893161041
 31
0.0
  0
LINE
  5
343A
330
1A
100
AcDbEntity
  8
SEIHIN
 48
5.0
100
AcDbLine
 10
262.6828861063363
 20
268.0964893161041
 30
0.0
 11
255.7078861063364
 21
175.0963893161041
 31
0.0
  0
LINE
  5
343B
330
1A
100
AcDbEntity
  8
SEIHIN
 48
5.0
100
AcDbLine
 10
252.7077861063363
 20
177.0963893161041
 30
0.0
 11
259.2078861063364
 21
268.0964893161041
 31
0.0
  0
LINE
  5
343C
330
1A
100
AcDbEntity
  8
SEIHIN
 48
5.0
100
AcDbLine
 10
228.7078861063364
 20
175.0963893161041
 30
0.0
 11
229.1728861063364
 21
268.0965893161041
 31
0.0
  0
LINE
  5
343D
330
1A
100
AcDbEntity
  8
SEIHIN
 48
5.0
100
AcDbLine
 10
238.9978861063364
 20
268.0964893161041
 30
0.0
 11
236.2078861063362
 21
175.0963893161041
 31
0.0
  0
LINE
  5
343E
330
1A
100
AcDbEntity
  8
SEIHIN
 48
5.0
100
AcDbLine
 10
242.4578861063362
 20
268.0964893161041
 30
0.0
 11
239.2077861063365
 21
177.0963893161041
 31
0.0
  0
LINE
  5
343F
330
1A
100
AcDbEntity
  8
SEIHIN
 48
5.0
100
AcDbLine
 10
245.9278861063363
 20
268.0964893161041
 30
0.0
 11
242.2078861063362
 21
175.0963893161041
 31
0.0
  0
LINE
  5
3440
330
1A
100
AcDbEntity
  8
SEIHIN
 48
5.0
100
AcDbLine
 10
174.2082861063363
 20
177.0963893161041
 30
0.0
 11
162.7227861063363
 21
268.0966893161041
 31
0.0
  0
LINE
  5
3441
330
1A
100
AcDbEntity
  8
SEIHIN
 48
5.0
100
AcDbLine
 10
222.7078861063365
 20
175.0963893161041
 30
0.0
 11
222.2428861063365
 21
268.0965893161041
 31
0.0
  0
LINE
  5
3442
330
1A
100
AcDbEntity
  8
SEIHIN
 48
5.0
100
AcDbLine
 10
212.4178861063365
 20
268.0965893161041
 30
0.0
 11
215.2078861063362
 21
175.0963893161041
 31
0.0
  0
LINE
  5
3443
330
1A
100
AcDbEntity
  8
SEIHIN
 48
5.0
100
AcDbLine
 10
208.9578861063362
 20
268.0965893161041
 30
0.0
 11
212.2080861063362
 21
177.0963893161041
 31
0.0
  0
LINE
  5
3444
330
1A
100
AcDbEntity
  8
SEIHIN
 48
5.0
100
AcDbLine
 10
205.4878861063364
 20
268.0965893161041
 30
0.0
 11
209.2078861063362
 21
175.0963893161041
 31
0.0
  0
LINE
  5
3445
330
1A
100
AcDbEntity
  8
SEIHIN
 48
5.0
100
AcDbLine
 10
195.6628861063361
 20
268.0965893161041
 30
0.0
 11
201.7078861063364
 21
175.0963893161041
 31
0.0
  0
LINE
  5
3446
330
1A
100
AcDbEntity
  8
SEIHIN
 48
5.0
100
AcDbLine
 10
198.7080861063364
 20
177.0963893161041
 30
0.0
 11
192.2078861063362
 21
268.0965893161041
 31
0.0
  0
LINE
  5
3447
330
1A
100
AcDbEntity
  8
SEIHIN
 48
5.0
100
AcDbLine
 10
188.7328861063363
 20
268.0965893161041
 30
0.0
 11
195.7078861063364
 21
175.0963893161041
 31
0.0
  0
LINE
  5
3448
330
1A
100
AcDbEntity
  8
SEIHIN
 48
5.0
100
AcDbLine
 10
188.2078861063362
 20
175.0963893161041
 30
0.0
 11
178.9078861063362
 21
268.0965893161041
 31
0.0
  0
LINE
  5
3449
330
1A
100
AcDbEntity
  8
SEIHIN
 48
5.0
100
AcDbLine
 10
175.4578861063362
 20
268.0966893161041
 30
0.0
 11
185.2080861063361
 21
177.0963893161041
 31
0.0
  0
LINE
  5
344A
330
1A
100
AcDbEntity
  8
SEIHIN
 48
5.0
100
AcDbLine
 10
182.2078861063362
 20
175.0963893161041
 30
0.0
 11
171.9778861063364
 21
268.0966893161041
 31
0.0
  0
LINE
  5
344B
330
1A
100
AcDbEntity
  8
SEIHIN
 48
5.0
100
AcDbLine
 10
175.9725861063364
 20
175.0963893161041
 30
0.0
 11
164.2346861063363
 21
268.0966893161041
 31
0.0
  0
LINE
  5
344C
330
1A
100
AcDbEntity
  8
SEIHIN
 48
5.0
100
AcDbLine
 10
255.7529861063365
 20
268.0964893161041
 30
0.0
 11
249.7078861063362
 21
175.0963893161041
 31
0.0
  0
LINE
  5
344E
330
1A
100
AcDbEntity
  8
SEIHIN
 48
5.0
100
AcDbLine
 10
201.7078861063364
 20
175.0963893161041
 30
0.0
 11
209.2078861063362
 21
175.0963893161041
 31
0.0
  0
LINE
  5
344F
330
1A
100
AcDbEntity
  8
SEIHIN
 48
5.0
100
AcDbLine
 10
186.7080861063364
 20
161.096389316104
 30
0.0
 11
225.7078861063364
 21
161.096389316104
 31
0.0
  0
LINE
  5
3450
330
1A
100
AcDbEntity
  8
SEIHIN
 48
5.0
100
AcDbLine
 10
180.2082861063363
 20
171.096389316104
 30
0.0
 11
225.7078861063364
 21
171.096389316104
 31
0.0
  0
LINE
  5
3451
330
1A
100
AcDbEntity
  8
SEIHIN
 48
5.0
100
AcDbLine
 10
186.7080861063364
 20
161.096389316104
 30
0.0
 11
185.7082861063363
 21
171.096389316104
 31
0.0
  0
LINE
  5
3452
330
1A
100
AcDbEntity
  8
SEIHIN
 48
5.0
100
AcDbLine
 10
188.2078861063362
 20
175.0963893161041
 30
0.0
 11
185.2080861063361
 21
177.0963893161041
 31
0.0
  0
LINE
  5
3453
330
1A
100
AcDbEntity
  8
SEIHIN
 48
5.0
100
AcDbLine
 10
176.2082861063363
 20
175.0963893161041
 30
0.0
 11
182.2078861063362
 21
175.0963893161041
 31
0.0
  0
LINE
  5
3454
330
1A
100
AcDbEntity
  8
SEIHIN
 48
5.0
100
AcDbLine
 10
180.2082861063363
 20
171.096389316104
 30
0.0
 11
174.2082861063363
 21
177.0963893161041
 31
0.0
  0
LINE
  5
3455
330
1A
100
AcDbEntity
  8
SEIHIN
 48
5.0
100
AcDbLine
 10
185.2080861063361
 20
177.0963893161041
 30
0.0
 11
181.9878861063364
 21
177.0963893161041
 31
0.0
  0
LINE
  5
3456
330
1A
100
AcDbEntity
  8
SEIHIN
 48
5.0
100
AcDbLine
 10
198.7080861063364
 20
177.0963893161041
 30
0.0
 11
195.7078861063364
 21
175.0963893161041
 31
0.0
  0
LINE
  5
3457
330
1A
100
AcDbEntity
  8
SEIHIN
 48
5.0
100
AcDbLine
 10
188.2078861063362
 20
175.0963893161041
 30
0.0
 11
195.7078861063364
 21
175.0963893161041
 31
0.0
  0
LINE
  5
3458
330
1A
100
AcDbEntity
  8
SEIHIN
 48
5.0
100
AcDbLine
 10
201.7078861063364
 20
175.0963893161041
 30
0.0
 11
198.7080861063364
 21
177.0963893161041
 31
0.0
  0
LINE
  5
3459
330
1A
100
AcDbEntity
  8
SEIHIN
 48
5.0
100
AcDbLine
 10
236.2078861063362
 20
175.0963893161041
 30
0.0
 11
239.2077861063365
 21
177.0963893161041
 31
0.0
  0
LINE
  5
345A
330
1A
100
AcDbEntity
  8
SEIHIN
 48
5.0
100
AcDbLine
 10
264.7077861063362
 20
161.096389316104
 30
0.0
 11
225.7078861063364
 21
161.096389316104
 31
0.0
  0
LINE
  5
345B
330
1A
100
AcDbEntity
  8
SEIHIN
 48
5.0
100
AcDbLine
 10
215.2078861063362
 20
175.0963893161041
 30
0.0
 11
222.7078861063365
 21
175.0963893161041
 31
0.0
  0
LINE
  5
345C
330
1A
100
AcDbEntity
  8
SEIHIN
 48
5.0
100
AcDbLine
 10
212.2080861063362
 20
177.0963893161041
 30
0.0
 11
209.2078861063362
 21
175.0963893161041
 31
0.0
  0
LINE
  5
345D
330
1A
100
AcDbEntity
  8
SEIHIN
 48
5.0
100
AcDbLine
 10
215.2078861063362
 20
175.0963893161041
 30
0.0
 11
212.2080861063362
 21
177.0963893161041
 31
0.0
  0
LINE
  5
345E
330
1A
100
AcDbEntity
  8
SEIHIN
 48
5.0
100
AcDbLine
 10
225.7078861063364
 20
177.0963893161041
 30
0.0
 11
228.7078861063364
 21
175.0963893161041
 31
0.0
  0
LINE
  5
345F
330
1A
100
AcDbEntity
  8
SEIHIN
 48
5.0
100
AcDbLine
 10
225.7078861063364
 20
177.0963893161041
 30
0.0
 11
222.7078861063365
 21
175.0963893161041
 31
0.0
  0
LINE
  5
3460
330
1A
100
AcDbEntity
  8
SEIHIN
 48
5.0
100
AcDbLine
 10
236.2078861063362
 20
175.0963893161041
 30
0.0
 11
228.7078861063364
 21
175.0963893161041
 31
0.0
  0
LINE
  5
3461
330
1A
100
AcDbEntity
  8
SEIHIN
 48
5.0
100
AcDbLine
 10
264.7077861063362
 20
161.096389316104
 30
0.0
 11
265.7075861063365
 21
171.096389316104
 31
0.0
  0
LINE
  5
3462
330
1A
100
AcDbEntity
  8
SEIHIN
 48
5.0
100
AcDbLine
 10
252.7077861063363
 20
177.0963893161041
 30
0.0
 11
255.7078861063364
 21
175.0963893161041
 31
0.0
  0
LINE
  5
3463
330
1A
100
AcDbEntity
  8
SEIHIN
 48
5.0
100
AcDbLine
 10
249.7078861063362
 20
175.0963893161041
 30
0.0
 11
242.2078861063362
 21
175.0963893161041
 31
0.0
  0
LINE
  5
3464
330
1A
100
AcDbEntity
  8
SEIHIN
 48
5.0
100
AcDbLine
 10
239.2077861063365
 20
177.0963893161041
 30
0.0
 11
242.2078861063362
 21
175.0963893161041
 31
0.0
  0
LINE
  5
3465
330
1A
100
AcDbEntity
  8
SEIHIN
 48
5.0
100
AcDbLine
 10
249.7078861063362
 20
175.0963893161041
 30
0.0
 11
252.7077861063363
 21
177.0963893161041
 31
0.0
  0
LINE
  5
3466
330
1A
100
AcDbEntity
  8
SEIHIN
 48
5.0
100
AcDbLine
 10
263.2078861063364
 20
175.0963893161041
 30
0.0
 11
255.7078861063364
 21
175.0963893161041
 31
0.0
  0
LINE
  5
3467
330
1A
100
AcDbEntity
  8
SEIHIN
 48
5.0
100
AcDbLine
 10
266.2077861063365
 20
177.0963893161041
 30
0.0
 11
269.4278861063365
 21
177.0963893161041
 31
0.0
  0
LINE
  5
3468
330
1A
100
AcDbEntity
  8
SEIHIN
 48
5.0
100
AcDbLine
 10
263.2078861063364
 20
175.0963893161041
 30
0.0
 11
266.2077861063365
 21
177.0963893161041
 31
0.0
  0
LINE
  5
346A
330
1A
100
AcDbEntity
  8
SEIHIN
 48
5.0
100
AcDbLine
 10
156.7078861063366
 20
268.0965893161042
 30
0.0
 11
225.7078861063364
 21
268.0965893161041
 31
0.0
  0
TEXT
  5
34D1
330
1A
100
AcDbEntity
  8
SUNPOU
 48
5.0
100
AcDbText
 10
596.1626294607251
 20
38.96596747205911
 30
0.0
 40
8.0
  1
※　たてとい部品の差込み寸法を示す。
100
AcDbText
  0
LINE
  5
34D7
330
1A
100
AcDbEntity
  8
SEIHIN
 48
5.0
100
AcDbLine
 10
277.2075861063365
 20
177.0963893161041
 30
0.0
 11
288.6929861063363
 21
268.0964893161041
 31
0.0
  0
LINE
  5
34D8
330
1A
100
AcDbEntity
  8
SEIHIN
 48
5.0
100
AcDbLine
 10
275.4432861063365
 20
175.0963893161041
 30
0.0
 11
287.1810861063364
 21
268.0964893161041
 31
0.0
  0
LINE
  5
34D9
330
1A
100
AcDbEntity
  8
SEIHIN
 48
5.0
100
AcDbLine
 10
271.2075861063365
 20
171.096389316104
 30
0.0
 11
277.2075861063365
 21
177.0963893161041
 31
0.0
  0
DIMENSION
  5
34DA
330
1A
100
AcDbEntity
  8
SUNPOU
 48
5.0
100
AcDbDimension
  2
*D7
 10
313.9104611921048
 20
268.0964098289246
 30
0.0
 11
308.9104611921047
 21
248.5964098289247
 31
0.0
 70
    32
 71
     5
 42
9.999979487187658
  3
STANDARD
100
AcDbAlignedDimension
 13
295.7078803920508
 23
278.0963893161123
 33
0.0
 14
294.2486861063366
 24
268.0964098289246
 34
0.0
 50
90.0
100
AcDbRotatedDimension
1001
ACAD
1000
DSTYLE
1002
{
1070
    41
1040
7.0
1070
    42
1040
6.0
1070
    43
1040
14.0
1070
   141
1040
150.0
1070
   147
1040
2.0
1070
   172
1070
     1
1070
   173
1070
     1
1070
   176
1070
     4
1070
   177
1070
     4
1070
   178
1070
     4
1070
   272
1070
     2
1070
   343
1005
6D
1070
   344
1005
6D
1002
}
  0
TEXT
  5
3DB6
330
1A
100
AcDbEntity
  8
moji
100
AcDbText
 10
202.4032495122442
 20
88.4141006684706
 30
0.0
 40
5.599999999999998
  1
飾りマス角型本体
 41
0.9
  7
MSｺ_ｼｯｸ
100
AcDbText
  0
DIMENSION
  5
447C
330
1A
100
AcDbEntity
  8
SUNPOU
100
AcDbDimension
  2
*D23
 10
592.3343594420666
 20
503.8617298102558
 30
0.0
 11
547.3343594420667
 21
509.8617298102558
 31
0.0
 70
    32
 71
     5
 42
90.0
  3
STANDARD
100
AcDbAlignedDimension
 13
502.3343594420667
 23
472.4600828803882
 33
0.0
 14
592.3343594420666
 24
472.4600828803882
 34
0.0
100
AcDbRotatedDimension
  0
DIMENSION
  5
447D
330
1A
100
AcDbEntity
  8
SUNPOU
 48
5.0
100
AcDbDimension
  2
*D22
 10
461.0205605256679
 20
375.2187978968336
 30
0.0
 11
456.0205605256678
 21
390.2187978968338
 31
0.0
 70
    32
 71
     5
 42
30.0
  3
STANDARD
100
AcDbAlignedDimension
 13
469.6392685253766
 23
405.2187978968336
 33
0.0
 14
496.3138415956552
 24
375.2187978968336
 34
0.0
 50
90.0
100
AcDbRotatedDimension
1001
ACAD
1000
DSTYLE
1002
{
1070
    41
1040
7.0
1070
    42
1040
6.0
1070
    43
1040
14.0
1070
   141
1040
150.0
1070
   147
1040
2.0
1070
   172
1070
     1
1070
   173
1070
     1
1070
   176
1070
     4
1070
   177
1070
     4
1070
   178
1070
     4
1070
   272
1070
     2
1070
   343
1005
6D
1070
   344
1005
6D
1002
}
  0
DIMENSION
  5
447E
330
1A
100
AcDbEntity
  8
SUNPOU
 48
5.0
100
AcDbDimension
  2
*D21
 10
461.0205605256679
 20
405.2187978968336
 30
0.0
 11
456.0205605256677
 21
435.2187978968337
 31
0.0
 70
    32
 71
     5
 42
60.0
  3
STANDARD
100
AcDbAlignedDimension
 13
495.0545701970468
 23
465.2187978968336
 33
0.0
 14
469.6392685253766
 24
405.2187978968336
 34
0.0
 50
90.0
100
AcDbRotatedDimension
1001
ACAD
1000
DSTYLE
1002
{
1070
    41
1040
7.0
1070
    42
1040
6.0
1070
    43
1040
14.0
1070
   141
1040
150.0
1070
   147
1040
2.0
1070
   172
1070
     1
1070
   173
1070
     1
1070
   176
1070
     4
1070
   177
1070
     4
1070
   178
1070
     4
1070
   272
1070
     2
1070
   343
1005
6D
1070
   344
1005
6D
1002
}
  0
DIMENSION
  5
447F
330
1A
100
AcDbEntity
  8
SUNPOU
100
AcDbDimension
  2
*D20
 10
656.1464410900661
 20
350.2187978968336
 30
0.0
 11
650.1464410900661
 21
420.2187978968336
 31
0.0
 70
    32
 71
     5
 42
140.0
  3
STANDARD
100
AcDbAlignedDimension
 13
602.2632916302013
 23
490.2187978968336
 33
0.0
 14
602.2632916302013
 24
350.2187978968336
 34
0.0
 50
90.0
100
AcDbRotatedDimension
  0
DIMENSION
  5
4480
330
1A
100
AcDbEntity
  8
SUNPOU
100
AcDbDimension
  2
*D19
 10
640.4328039458168
 20
350.2187978968336
 30
0.0
 11
634.4328039458168
 21
377.7187978968337
 31
0.0
 70
    32
 71
     5
 42
55.0
  3
STANDARD
100
AcDbAlignedDimension
 13
624.2300659541951
 23
405.2187978968336
 33
0.0
 14
602.2632916302013
 24
350.2187978968336
 34
0.0
 50
90.0
100
AcDbRotatedDimension
  0
DIMENSION
  5
4481
330
1A
100
AcDbEntity
  8
SUNPOU
100
AcDbDimension
  2
*D18
 10
640.4328039458168
 20
405.2187978968335
 30
0.0
 11
634.4328039458168
 21
447.7187978968337
 31
0.0
 70
    32
 71
     5
 42
85.0
  3
STANDARD
100
AcDbAlignedDimension
 13
602.2632916302013
 23
490.2187978968336
 33
0.0
 14
624.2300659541951
 24
405.2187978968336
 34
0.0
 50
90.0
100
AcDbRotatedDimension
  0
LINE
  5
4482
330
1A
100
AcDbEntity
  8
SEIHIN
100
AcDbLine
 10
557.3343594420666
 20
479.2187978968332
 30
0.0
 11
557.3343594420666
 21
484.7187978968336
 31
0.0
  0
LINE
  5
4483
330
1A
100
AcDbEntity
  8
SEIHIN
100
AcDbLine
 10
557.3343594420666
 20
484.7187978968336
 30
0.0
 11
539.3343594420667
 21
484.7187978968336
 31
0.0
  0
LINE
  5
4484
330
1A
100
AcDbEntity
  8
SEIHIN
100
AcDbLine
 10
515.3343594420666
 20
479.2187978968336
 30
0.0
 11
515.3343594420666
 21
488.2187978968341
 31
0.0
  0
LINE
  5
4485
330
1A
100
AcDbEntity
  8
SEIHIN
100
AcDbLine
 10
537.3343594420666
 20
486.7187978968336
 30
0.0
 11
537.3343594420666
 21
488.2187978968339
 31
0.0
  0
ARC
  5
4486
330
1A
100
AcDbEntity
  8
SEIHIN
100
AcDbCircle
 10
539.3343594420667
 20
486.7187978968337
 30
0.0
 40
2.0
100
AcDbArc
 50
179.9999999999998
 51
270.0
  0
ARC
  5
4487
330
1A
100
AcDbEntity
  8
SEIHIN
100
AcDbCircle
 10
539.3343594420667
 20
353.7187978968336
 30
0.0
 40
2.0
100
AcDbArc
 50
89.99999999999998
 51
180.0000000000002
  0
LINE
  5
4488
330
1A
100
AcDbEntity
  8
SEIHIN
100
AcDbLine
 10
537.3343594420666
 20
353.7187978968336
 30
0.0
 11
537.3343594420666
 21
352.2187978968334
 31
0.0
  0
LINE
  5
4489
330
1A
100
AcDbEntity
  8
SEIHIN
100
AcDbLine
 10
515.3343594420666
 20
361.2187978968336
 30
0.0
 11
515.3343594420666
 21
352.2187978968332
 31
0.0
  0
LINE
  5
448A
330
1A
100
AcDbEntity
  8
SEIHIN
100
AcDbLine
 10
557.3343594420666
 20
355.7187978968336
 30
0.0
 11
539.3343594420667
 21
355.7187978968336
 31
0.0
  0
LINE
  5
448B
330
1A
100
AcDbEntity
  8
SEIHIN
100
AcDbLine
 10
557.3343594420666
 20
361.2187978968341
 30
0.0
 11
557.3343594420666
 21
355.7187978968336
 31
0.0
  0
ARC
  5
448C
330
1A
100
AcDbEntity
  8
SEIHIN
100
AcDbCircle
 10
496.5475628776625
 20
365.2187978968336
 30
0.0
 40
2.0
100
AcDbArc
 50
224.999999999997
 51
270.0000000000001
  0
LINE
  5
448D
330
1A
100
AcDbEntity
  8
SEIHIN
100
AcDbLine
 10
488.3343594420673
 20
430.2187978968336
 30
0.0
 11
482.8343594420669
 21
430.2187978968336
 31
0.0
  0
LINE
  5
448E
330
1A
100
AcDbEntity
  8
SEIHIN
100
AcDbLine
 10
482.8343594420669
 20
430.2187978968336
 30
0.0
 11
482.8343594420669
 21
412.2187978968335
 31
0.0
  0
LINE
  5
448F
330
1A
100
AcDbEntity
  8
SEIHIN
100
AcDbLine
 10
480.8343594420668
 20
410.2187978968335
 30
0.0
 11
479.3343594420666
 21
410.2187978968336
 31
0.0
  0
ARC
  5
4490
330
1A
100
AcDbEntity
  8
SEIHIN
100
AcDbCircle
 10
480.8343594420668
 20
412.2187978968335
 30
0.0
 40
2.0
100
AcDbArc
 50
269.9999999999998
 51
0.000000000000007
  0
ARC
  5
4491
330
1A
100
AcDbEntity
  8
SEIHIN
100
AcDbCircle
 10
495.3049221905437
 20
362.2187978968335
 30
0.0
 40
1.0
100
AcDbArc
 50
224.9999999999984
 51
270.0000000000001
  0
LINE
  5
4492
330
1A
100
AcDbEntity
  8
SEIHIN
100
AcDbLine
 10
494.597815409357
 20
361.511691115647
 30
0.0
 11
488.6272526608804
 21
367.4822538641244
 31
0.0
  0
LINE
  5
4493
330
1A
100
AcDbEntity
  8
SEIHIN
100
AcDbLine
 10
495.1333493152894
 20
363.8045843344607
 30
0.0
 11
490.62725266088
 21
368.3106809888706
 31
0.0
  0
ARC
  5
4494
330
1A
100
AcDbEntity
  8
SEIHIN
100
AcDbCircle
 10
482.3343594420666
 20
365.2898657086993
 30
0.0
 40
3.0
100
AcDbArc
 50
180.0
 51
225.0
  0
LINE
  5
4495
330
1A
100
AcDbEntity
  8
SEIHIN
100
AcDbLine
 10
490.2841069103722
 20
353.097477553274
 30
0.0
 11
480.213039098507
 21
363.1685453651396
 31
0.0
  0
ARC
  5
4496
330
1A
100
AcDbEntity
  8
SEIHIN
100
AcDbCircle
 10
492.4054272539319
 20
355.2187978968336
 30
0.0
 40
3.0
100
AcDbArc
 50
224.999999999999
 51
270.0
  0
ARC
  5
4497
330
1A
100
AcDbEntity
  8
SEIHIN
100
AcDbCircle
 10
492.4054272539319
 20
355.2187978968336
 30
0.0
 40
5.0
100
AcDbArc
 50
224.999999999999
 51
270.0
  0
ARC
  5
4498
330
1A
100
AcDbEntity
  8
SEIHIN
100
AcDbCircle
 10
482.3343594420666
 20
365.2898657086993
 30
0.0
 40
5.0
100
AcDbArc
 50
180.0
 51
225.0
  0
LINE
  5
4499
330
1A
100
AcDbEntity
  8
SEIHIN
100
AcDbLine
 10
488.869893347999
 20
351.683263990901
 30
0.0
 11
478.798825536134
 21
361.7543318027666
 31
0.0
  0
ARC
  5
449A
330
1A
100
AcDbEntity
  8
SEIHIN
100
AcDbCircle
 10
491.3343594420666
 20
369.0177877700571
 30
0.0
 40
1.0
100
AcDbArc
 50
180.0000000000005
 51
224.9999999999966
  0
ARC
  5
449B
330
1A
100
AcDbEntity
  8
SEIHIN
100
AcDbCircle
 10
489.3343594420671
 20
368.1893606453109
 30
0.0
 40
1.0
100
AcDbArc
 50
180.0000000000003
 51
224.9999999999967
  0
LINE
  5
449C
330
1A
100
AcDbEntity
  8
SEIHIN
100
AcDbLine
 10
547.3343594420667
 20
361.2187978968337
 30
0.0
 11
495.3049221905437
 21
361.2187978968336
 31
0.0
  0
LINE
  5
449D
330
1A
100
AcDbEntity
  8
SEIHIN
100
AcDbLine
 10
547.3343594420667
 20
363.2187978968337
 30
0.0
 11
496.5475628776625
 21
363.2187978968336
 31
0.0
  0
LINE
  5
449E
330
1A
100
AcDbEntity
  8
SEIHIN
100
AcDbLine
 10
547.3343594420667
 20
352.2187978968337
 30
0.0
 11
492.4054272539319
 21
352.2187978968336
 31
0.0
  0
LINE
  5
449F
330
1A
100
AcDbEntity
  8
SEIHIN
100
AcDbLine
 10
547.3343594420667
 20
350.2187978968337
 30
0.0
 11
492.4054272539319
 21
350.2187978968336
 31
0.0
  0
LINE
  5
44A0
330
1A
100
AcDbEntity
  8
SEIHIN
100
AcDbLine
 10
488.3343594420666
 20
388.2187978968336
 30
0.0
 11
479.3343594420662
 21
388.2187978968337
 31
0.0
  0
LINE
  5
44A1
330
1A
100
AcDbEntity
  8
SEIHIN
100
AcDbLine
 10
479.3343594420666
 20
365.2898657086993
 30
0.0
 11
479.3343594420664
 21
420.2187978968336
 31
0.0
  0
LINE
  5
44A2
330
1A
100
AcDbEntity
  8
SEIHIN
100
AcDbLine
 10
477.3343594420667
 20
365.2898657086993
 30
0.0
 11
477.3343594420664
 21
420.2187978968336
 31
0.0
  0
LINE
  5
44A3
330
1A
100
AcDbEntity
  8
SEIHIN
100
AcDbLine
 10
490.3343594420666
 20
369.0177877700571
 30
0.0
 11
490.3343594420662
 21
420.2187978968337
 31
0.0
  0
LINE
  5
44A4
330
1A
100
AcDbEntity
  8
SEIHIN
100
AcDbLine
 10
488.3343594420671
 20
368.1893606453109
 30
0.0
 11
488.3343594420669
 21
420.2187978968337
 31
0.0
  0
LINE
  5
44A5
330
1A
100
AcDbEntity
  8
SEIHIN
100
AcDbLine
 10
547.3343594420667
 20
490.2187978968335
 30
0.0
 11
492.4054272539319
 21
490.2187978968336
 31
0.0
  0
LINE
  5
44A6
330
1A
100
AcDbEntity
  8
SEIHIN
100
AcDbLine
 10
477.3343594420667
 20
475.1477300849678
 30
0.0
 11
477.3343594420664
 21
420.2187978968336
 31
0.0
  0
LINE
  5
44A7
330
1A
100
AcDbEntity
  8
SEIHIN
100
AcDbLine
 10
488.869893347999
 20
488.7543318027662
 30
0.0
 11
478.798825536134
 21
478.6832639909006
 31
0.0
  0
ARC
  5
44A8
330
1A
100
AcDbEntity
  8
SEIHIN
100
AcDbCircle
 10
482.3343594420666
 20
475.1477300849678
 30
0.0
 40
5.0
100
AcDbArc
 50
135.0
 51
180.0
  0
ARC
  5
44A9
330
1A
100
AcDbEntity
  8
SEIHIN
100
AcDbCircle
 10
492.4054272539319
 20
485.2187978968336
 30
0.0
 40
5.0
100
AcDbArc
 50
90.0
 51
135.0000000000009
  0
LINE
  5
44AA
330
1A
100
AcDbEntity
  8
SEIHIN
100
AcDbLine
 10
479.3343594420666
 20
475.1477300849678
 30
0.0
 11
479.3343594420664
 21
420.2187978968336
 31
0.0
  0
LINE
  5
44AB
330
1A
100
AcDbEntity
  8
SEIHIN
100
AcDbLine
 10
547.3343594420667
 20
488.2187978968335
 30
0.0
 11
492.4054272539319
 21
488.2187978968336
 31
0.0
  0
ARC
  5
44AC
330
1A
100
AcDbEntity
  8
SEIHIN
100
AcDbCircle
 10
492.4054272539319
 20
485.2187978968336
 30
0.0
 40
3.0
100
AcDbArc
 50
90.0
 51
135.0000000000009
  0
LINE
  5
44AD
330
1A
100
AcDbEntity
  8
SEIHIN
100
AcDbLine
 10
490.2841069103722
 20
487.3401182403932
 30
0.0
 11
480.213039098507
 21
477.2690504285275
 31
0.0
  0
ARC
  5
44AE
330
1A
100
AcDbEntity
  8
SEIHIN
100
AcDbCircle
 10
482.3343594420666
 20
475.1477300849678
 30
0.0
 40
3.0
100
AcDbArc
 50
135.0
 51
180.0
  0
LINE
  5
44AF
330
1A
100
AcDbEntity
  8
CENTER L
 48
5.0
100
AcDbLine
 10
502.3343594420667
 20
472.4600828803882
 30
0.0
 11
502.3343594420667
 21
458.0663822014626
 31
0.0
  0
LINE
  5
44B0
330
1A
100
AcDbEntity
  8
CENTER L
 48
5.0
100
AcDbLine
 10
509.1886809608904
 20
465.2187978968336
 30
0.0
 11
495.0545701970468
 21
465.2187978968336
 31
0.0
  0
CIRCLE
  5
44B1
330
1A
100
AcDbEntity
  8
SEIHIN
100
AcDbCircle
 10
502.3343594420668
 20
465.2187978968337
 30
0.0
 40
1.5
  0
CIRCLE
  5
44B2
330
1A
100
AcDbEntity
  8
SEIHIN
100
AcDbCircle
 10
502.3343594420668
 20
465.2187978968337
 30
0.0
 40
5.0
  0
LINE
  5
44B3
330
1A
100
AcDbEntity
  8
SEIHIN
100
AcDbLine
 10
547.3343594420667
 20
477.2187978968335
 30
0.0
 11
496.1333493152896
 21
477.2187978968336
 31
0.0
  0
LINE
  5
44B4
330
1A
100
AcDbEntity
  8
SEIHIN
100
AcDbLine
 10
488.3343594420671
 20
472.2482351483564
 30
0.0
 11
488.3343594420669
 21
420.2187978968336
 31
0.0
  0
LINE
  5
44B5
330
1A
100
AcDbEntity
  8
SEIHIN
100
AcDbLine
 10
547.3343594420667
 20
479.2187978968335
 30
0.0
 11
495.3049221905437
 21
479.2187978968336
 31
0.0
  0
LINE
  5
44B6
330
1A
100
AcDbEntity
  8
SEIHIN
100
AcDbLine
 10
495.426242534103
 20
476.9259046780201
 30
0.0
 11
490.62725266088
 21
472.1269148047965
 31
0.0
  0
LINE
  5
44B7
330
1A
100
AcDbEntity
  8
SEIHIN
100
AcDbLine
 10
494.597815409357
 20
478.9259046780202
 30
0.0
 11
488.6272526608804
 21
472.9553419295429
 31
0.0
  0
ARC
  5
44B8
330
1A
100
AcDbEntity
  8
SEIHIN
100
AcDbCircle
 10
496.1333493152896
 20
476.2187978968336
 30
0.0
 40
1.0
100
AcDbArc
 50
89.99999999999994
 51
135.0000000000016
  0
ARC
  5
44B9
330
1A
100
AcDbEntity
  8
SEIHIN
100
AcDbCircle
 10
495.3049221905437
 20
478.2187978968337
 30
0.0
 40
1.0
100
AcDbArc
 50
89.99999999999994
 51
135.0000000000016
  0
ARC
  5
44BA
330
1A
100
AcDbEntity
  8
SEIHIN
100
AcDbCircle
 10
489.3343594420671
 20
472.2482351483564
 30
0.0
 40
1.0
100
AcDbArc
 50
135.000000000002
 51
180.0
  0
ARC
  5
44BB
330
1A
100
AcDbEntity
  8
SEIHIN
100
AcDbCircle
 10
491.3343594420666
 20
471.41980802361
 30
0.0
 40
1.0
100
AcDbArc
 50
135.0000000000026
 51
180.0
  0
LINE
  5
44BC
330
1A
100
AcDbEntity
  8
SEIHIN
100
AcDbLine
 10
490.3343594420666
 20
471.41980802361
 30
0.0
 11
490.3343594420662
 21
420.2187978968335
 31
0.0
  0
ARC
  5
44BD
330
1A
100
AcDbEntity
  8
SEIHIN
100
AcDbCircle
 10
613.8343594420667
 20
412.2187978968335
 30
0.0
 40
2.0
100
AcDbArc
 50
180.0
 51
270.0000000000002
  0
LINE
  5
44BE
330
1A
100
AcDbEntity
  8
SEIHIN
100
AcDbLine
 10
613.8343594420667
 20
410.2187978968335
 30
0.0
 11
615.3343594420668
 21
410.2187978968336
 31
0.0
  0
ARC
  5
44BF
330
1A
100
AcDbEntity
  8
SEIHIN
100
AcDbCircle
 10
605.3343594420661
 20
368.1893606453109
 30
0.0
 40
1.0
100
AcDbArc
 50
315.0000000000033
 51
359.9999999999997
  0
ARC
  5
44C0
330
1A
100
AcDbEntity
  8
SEIHIN
100
AcDbCircle
 10
603.3343594420666
 20
369.0177877700571
 30
0.0
 40
1.0
100
AcDbArc
 50
315.0000000000034
 51
359.9999999999995
  0
LINE
  5
44C1
330
1A
100
AcDbEntity
  8
SEIHIN
100
AcDbLine
 10
606.3343594420662
 20
368.1893606453109
 30
0.0
 11
606.3343594420664
 21
420.2187978968337
 31
0.0
  0
LINE
  5
44C2
330
1A
100
AcDbEntity
  8
SEIHIN
100
AcDbLine
 10
604.3343594420666
 20
369.0177877700571
 30
0.0
 11
604.3343594420671
 21
420.2187978968337
 31
0.0
  0
LINE
  5
44C3
330
1A
100
AcDbEntity
  8
SEIHIN
100
AcDbLine
 10
547.3343594420667
 20
350.2187978968337
 30
0.0
 11
602.2632916302013
 21
350.2187978968336
 31
0.0
  0
LINE
  5
44C4
330
1A
100
AcDbEntity
  8
SEIHIN
100
AcDbLine
 10
617.3343594420666
 20
365.2898657086993
 30
0.0
 11
617.3343594420669
 21
420.2187978968336
 31
0.0
  0
LINE
  5
44C5
330
1A
100
AcDbEntity
  8
SEIHIN
100
AcDbLine
 10
605.7988255361342
 20
351.683263990901
 30
0.0
 11
615.8698933479993
 21
361.7543318027666
 31
0.0
  0
ARC
  5
44C6
330
1A
100
AcDbEntity
  8
SEIHIN
100
AcDbCircle
 10
612.3343594420666
 20
365.2898657086993
 30
0.0
 40
5.0
100
AcDbArc
 50
315.0
 51
0.0
  0
ARC
  5
44C7
330
1A
100
AcDbEntity
  8
SEIHIN
100
AcDbCircle
 10
602.2632916302013
 20
355.2187978968336
 30
0.0
 40
5.0
100
AcDbArc
 50
270.0
 51
315.000000000001
  0
LINE
  5
44C8
330
1A
100
AcDbEntity
  8
SEIHIN
100
AcDbLine
 10
615.3343594420666
 20
365.2898657086993
 30
0.0
 11
615.3343594420668
 21
420.2187978968336
 31
0.0
  0
LINE
  5
44C9
330
1A
100
AcDbEntity
  8
SEIHIN
100
AcDbLine
 10
547.3343594420667
 20
352.2187978968337
 30
0.0
 11
602.2632916302013
 21
352.2187978968336
 31
0.0
  0
ARC
  5
44CA
330
1A
100
AcDbEntity
  8
SEIHIN
100
AcDbCircle
 10
602.2632916302013
 20
355.2187978968336
 30
0.0
 40
3.0
100
AcDbArc
 50
270.0
 51
315.000000000001
  0
LINE
  5
44CB
330
1A
100
AcDbEntity
  8
SEIHIN
100
AcDbLine
 10
604.3846119737611
 20
353.097477553274
 30
0.0
 11
614.4556797856262
 21
363.1685453651396
 31
0.0
  0
ARC
  5
44CC
330
1A
100
AcDbEntity
  8
SEIHIN
100
AcDbCircle
 10
612.3343594420666
 20
365.2898657086993
 30
0.0
 40
3.0
100
AcDbArc
 50
315.0
 51
0.0
  0
LINE
  5
44CD
330
1A
100
AcDbEntity
  8
SEIHIN
100
AcDbLine
 10
547.3343594420667
 20
363.2187978968337
 30
0.0
 11
598.5353695688436
 21
363.2187978968336
 31
0.0
  0
LINE
  5
44CE
330
1A
100
AcDbEntity
  8
SEIHIN
100
AcDbLine
 10
547.3343594420667
 20
361.2187978968337
 30
0.0
 11
599.3637966935896
 21
361.2187978968336
 31
0.0
  0
LINE
  5
44CF
330
1A
100
AcDbEntity
  8
SEIHIN
100
AcDbLine
 10
599.2424763500302
 20
363.5116911156471
 30
0.0
 11
604.0414662232533
 21
368.3106809888706
 31
0.0
  0
LINE
  5
44D0
330
1A
100
AcDbEntity
  8
SEIHIN
100
AcDbLine
 10
600.0709034747763
 20
361.511691115647
 30
0.0
 11
606.0414662232529
 21
367.4822538641244
 31
0.0
  0
ARC
  5
44D1
330
1A
100
AcDbEntity
  8
SEIHIN
100
AcDbCircle
 10
598.5353695688436
 20
364.2187978968336
 30
0.0
 40
1.0
100
AcDbArc
 50
269.9999999999999
 51
315.0000000000016
  0
ARC
  5
44D2
330
1A
100
AcDbEntity
  8
SEIHIN
100
AcDbCircle
 10
599.3637966935896
 20
362.2187978968335
 30
0.0
 40
1.0
100
AcDbArc
 50
269.9999999999999
 51
315.0000000000016
  0
LINE
  5
44D3
330
1A
100
AcDbEntity
  8
SEIHIN
100
AcDbLine
 10
606.3343594420667
 20
388.2187978968336
 30
0.0
 11
615.3343594420671
 21
388.2187978968337
 31
0.0
  0
LINE
  5
44D4
330
1A
100
AcDbEntity
  8
SEIHIN
100
AcDbLine
 10
604.3343594420666
 20
471.41980802361
 30
0.0
 11
604.3343594420671
 21
420.2187978968335
 31
0.0
  0
ARC
  5
44D5
330
1A
100
AcDbEntity
  8
SEIHIN
100
AcDbCircle
 10
603.3343594420666
 20
471.41980802361
 30
0.0
 40
1.0
100
AcDbArc
 50
0.0
 51
44.99999999999737
  0
ARC
  5
44D6
330
1A
100
AcDbEntity
  8
SEIHIN
100
AcDbCircle
 10
605.3343594420661
 20
472.2482351483564
 30
0.0
 40
1.0
100
AcDbArc
 50
0.0
 51
44.99999999999796
  0
ARC
  5
44D7
330
1A
100
AcDbEntity
  8
SEIHIN
100
AcDbCircle
 10
599.3637966935896
 20
478.2187978968337
 30
0.0
 40
1.0
100
AcDbArc
 50
44.99999999999839
 51
90.00000000000005
  0
ARC
  5
44D8
330
1A
100
AcDbEntity
  8
SEIHIN
100
AcDbCircle
 10
598.5353695688436
 20
476.2187978968336
 30
0.0
 40
1.0
100
AcDbArc
 50
44.99999999999839
 51
90.00000000000005
  0
LINE
  5
44D9
330
1A
100
AcDbEntity
  8
SEIHIN
100
AcDbLine
 10
600.0709034747763
 20
478.9259046780202
 30
0.0
 11
606.0414662232529
 21
472.9553419295429
 31
0.0
  0
LINE
  5
44DA
330
1A
100
AcDbEntity
  8
SEIHIN
100
AcDbLine
 10
599.2424763500302
 20
476.9259046780201
 30
0.0
 11
604.0414662232533
 21
472.1269148047965
 31
0.0
  0
LINE
  5
44DB
330
1A
100
AcDbEntity
  8
SEIHIN
100
AcDbLine
 10
547.3343594420667
 20
479.2187978968335
 30
0.0
 11
599.3637966935896
 21
479.2187978968336
 31
0.0
  0
LINE
  5
44DC
330
1A
100
AcDbEntity
  8
SEIHIN
100
AcDbLine
 10
606.3343594420662
 20
472.2482351483564
 30
0.0
 11
606.3343594420664
 21
420.2187978968336
 31
0.0
  0
LINE
  5
44DD
330
1A
100
AcDbEntity
  8
SEIHIN
100
AcDbLine
 10
547.3343594420667
 20
477.2187978968335
 30
0.0
 11
598.5353695688436
 21
477.2187978968336
 31
0.0
  0
LINE
  5
44DE
330
1A
100
AcDbEntity
  8
CENTER L
 48
5.0
100
AcDbLine
 10
508.3744031734777
 20
375.2187978968336
 30
0.0
 11
496.3138415956552
 21
375.2187978968336
 31
0.0
  0
CIRCLE
  5
44DF
330
1A
100
AcDbEntity
  8
SEIHIN
100
AcDbCircle
 10
502.3343594420667
 20
375.2187978968336
 30
0.0
 40
5.0
  0
CIRCLE
  5
44E0
330
1A
100
AcDbEntity
  8
SEIHIN
100
AcDbCircle
 10
502.3343594420667
 20
375.2187978968336
 30
0.0
 40
1.5
  0
LINE
  5
44E1
330
1A
100
AcDbEntity
  8
CENTER L
 48
5.0
100
AcDbLine
 10
502.3343594420667
 20
381.4763940908438
 30
0.0
 11
502.3343594420667
 21
369.0674986974042
 31
0.0
  0
LINE
  5
44E2
330
1A
100
AcDbEntity
  8
CENTER L
 48
5.0
100
AcDbLine
 10
592.3343594420666
 20
381.4763940908438
 30
0.0
 11
592.3343594420666
 21
369.0674986974042
 31
0.0
  0
CIRCLE
  5
44E3
330
1A
100
AcDbEntity
  8
SEIHIN
100
AcDbCircle
 10
547.3343594420667
 20
405.2187978968336
 30
0.0
 40
30.0
  0
CIRCLE
  5
44E4
330
1A
100
AcDbEntity
  8
SEIHIN
100
AcDbCircle
 10
547.3343594420667
 20
405.2187978968336
 30
0.0
 40
40.0
  0
CIRCLE
  5
44E5
330
1A
100
AcDbEntity
  8
SEIHIN
100
AcDbCircle
 10
592.3343594420664
 20
465.2187978968337
 30
0.0
 40
5.0
  0
CIRCLE
  5
44E6
330
1A
100
AcDbEntity
  8
SEIHIN
100
AcDbCircle
 10
592.3343594420664
 20
465.2187978968337
 30
0.0
 40
1.5
  0
CIRCLE
  5
44E7
330
1A
100
AcDbEntity
  8
SEIHIN
100
AcDbCircle
 10
592.3343594420666
 20
375.2187978968336
 30
0.0
 40
1.5
  0
CIRCLE
  5
44E8
330
1A
100
AcDbEntity
  8
SEIHIN
100
AcDbCircle
 10
592.3343594420666
 20
375.2187978968336
 30
0.0
 40
5.0
  0
LINE
  5
44E9
330
1A
100
AcDbEntity
  8
CENTER L
 48
5.0
100
AcDbLine
 10
585.4800379232428
 20
465.2187978968336
 30
0.0
 11
599.6141486870865
 21
465.2187978968336
 31
0.0
  0
LINE
  5
44EA
330
1A
100
AcDbEntity
  8
CENTER L
 48
5.0
100
AcDbLine
 10
586.2943157106555
 20
375.2187978968336
 30
0.0
 11
598.354877288478
 21
375.2187978968336
 31
0.0
  0
LINE
  5
44EB
330
1A
100
AcDbEntity
  8
CENTER L
 48
5.0
100
AcDbLine
 10
592.3343594420666
 20
472.4600828803882
 30
0.0
 11
592.3343594420666
 21
458.0663822014626
 31
0.0
  0
LINE
  5
44EC
330
1A
100
AcDbEntity
  8
SEIHIN
100
AcDbLine
 10
611.8343594420666
 20
430.2187978968336
 30
0.0
 11
611.8343594420666
 21
412.2187978968335
 31
0.0
  0
LINE
  5
44ED
330
1A
100
AcDbEntity
  8
SEIHIN
100
AcDbLine
 10
606.3343594420662
 20
430.2187978968336
 30
0.0
 11
611.8343594420666
 21
430.2187978968336
 31
0.0
  0
ARC
  5
44EE
330
1A
100
AcDbEntity
  8
SEIHIN
100
AcDbCircle
 10
612.3343594420666
 20
475.1477300849678
 30
0.0
 40
3.0
100
AcDbArc
 50
0.0
 51
45.0
  0
LINE
  5
44EF
330
1A
100
AcDbEntity
  8
SEIHIN
100
AcDbLine
 10
604.3846119737611
 20
487.3401182403932
 30
0.0
 11
614.4556797856262
 21
477.2690504285275
 31
0.0
  0
ARC
  5
44F0
330
1A
100
AcDbEntity
  8
SEIHIN
100
AcDbCircle
 10
602.2632916302013
 20
485.2187978968336
 30
0.0
 40
3.0
100
AcDbArc
 50
44.99999999999903
 51
90.0
  0
LINE
  5
44F1
330
1A
100
AcDbEntity
  8
SEIHIN
100
AcDbLine
 10
547.3343594420667
 20
488.2187978968335
 30
0.0
 11
602.2632916302013
 21
488.2187978968336
 31
0.0
  0
LINE
  5
44F2
330
1A
100
AcDbEntity
  8
SEIHIN
100
AcDbLine
 10
615.3343594420666
 20
475.1477300849678
 30
0.0
 11
615.3343594420668
 21
420.2187978968336
 31
0.0
  0
ARC
  5
44F3
330
1A
100
AcDbEntity
  8
SEIHIN
100
AcDbCircle
 10
602.2632916302013
 20
485.2187978968336
 30
0.0
 40
5.0
100
AcDbArc
 50
44.99999999999903
 51
90.0
  0
ARC
  5
44F4
330
1A
100
AcDbEntity
  8
SEIHIN
100
AcDbCircle
 10
612.3343594420666
 20
475.1477300849678
 30
0.0
 40
5.0
100
AcDbArc
 50
0.0
 51
45.0
  0
LINE
  5
44F5
330
1A
100
AcDbEntity
  8
CENTER L
 48
5.0
100
AcDbLine
 10
469.6392685253766
 20
405.2187978968336
 30
0.0
 11
624.2300659541951
 21
405.2187978968336
 31
0.0
  0
LINE
  5
44F6
330
1A
100
AcDbEntity
  8
SEIHIN
100
AcDbLine
 10
605.7988255361342
 20
488.7543318027662
 30
0.0
 11
615.8698933479993
 21
478.6832639909006
 31
0.0
  0
LINE
  5
44F7
330
1A
100
AcDbEntity
  8
SEIHIN
100
AcDbLine
 10
617.3343594420666
 20
475.1477300849678
 30
0.0
 11
617.3343594420669
 21
420.2187978968336
 31
0.0
  0
LINE
  5
44F8
330
1A
100
AcDbEntity
  8
CENTER L
 48
5.0
100
AcDbLine
 10
547.3343594420667
 20
495.0577169069397
 30
0.0
 11
547.3343594420667
 21
338.8814289248517
 31
0.0
  0
LINE
  5
44F9
330
1A
100
AcDbEntity
  8
SEIHIN
100
AcDbLine
 10
547.3343594420667
 20
490.2187978968335
 30
0.0
 11
602.2632916302013
 21
490.2187978968336
 31
0.0
  0
TEXT
  5
44FA
330
1A
100
AcDbEntity
  8
moji
100
AcDbText
 10
527.1925679321745
 20
229.4491863519647
 30
0.0
 40
5.599999999999998
  1
飾りマス角型蓋
 41
0.9
  7
MSｺ_ｼｯｸ
100
AcDbText
  0
LINE
  5
44FB
330
1A
100
AcDbEntity
  8
CENTER_L
 48
5.0
100
AcDbLine
 10
547.3343594420667
 20
309.3099660854509
 30
0.0
 11
547.3343594420667
 21
277.6129486791793
 31
0.0
  0
LINE
  5
44FC
330
1A
100
AcDbEntity
  8
SEIHIN
100
AcDbLine
 10
516.3343594420664
 20
280.3434099619222
 30
0.0
 11
547.3343594420667
 21
280.3434099619222
 31
0.0
  0
LINE
  5
44FD
330
1A
100
AcDbEntity
  8
SEIHIN
100
AcDbLine
 10
509.5161776238849
 20
295.3434099619221
 30
0.0
 11
516.3343594420664
 21
280.3434099619222
 31
0.0
  0
LINE
  5
44FE
330
1A
100
AcDbEntity
  8
SEIHIN
100
AcDbLine
 10
585.1525412602488
 20
295.3434099619222
 30
0.0
 11
578.3343594420671
 21
280.3434099619222
 31
0.0
  0
LINE
  5
44FF
330
1A
100
AcDbEntity
  8
SEIHIN
100
AcDbLine
 10
578.3343594420671
 20
280.3434099619222
 30
0.0
 11
547.3343594420668
 21
280.3434099619222
 31
0.0
  0
LINE
  5
4500
330
1A
100
AcDbEntity
  8
SEIHIN
100
AcDbLine
 10
617.3343594420666
 20
305.3434099619222
 30
0.0
 11
547.3343594420668
 21
305.3434099619221
 31
0.0
  0
DIMENSION
  5
4501
330
1A
100
AcDbEntity
  8
SUNPOU
 48
5.0
100
AcDbDimension
  2
*D17
 10
578.3343594420671
 20
262.1914627285339
 30
0.0
 11
547.3343594420668
 21
267.191462728534
 31
0.0
 70
    32
  1
φ<>
 71
     5
 42
62.00000000000068
  3
STANDARD
100
AcDbAlignedDimension
 13
516.3343594420664
 23
280.3434099619222
 33
0.0
 14
578.3343594420671
 24
280.3434099619222
 34
0.0
100
AcDbRotatedDimension
1001
ACAD
1000
DSTYLE
1002
{
1070
    41
1040
7.0
1070
    42
1040
6.0
1070
    43
1040
14.0
1070
   141
1040
150.0
1070
   147
1040
2.0
1070
   172
1070
     1
1070
   173
1070
     1
1070
   176
1070
     4
1070
   177
1070
     4
1070
   178
1070
     4
1070
   272
1070
     2
1070
   343
1005
6D
1070
   344
1005
6D
1002
}
  0
DIMENSION
  5
4502
330
1A
100
AcDbEntity
  8
SUNPOU
 48
5.0
100
AcDbDimension
  2
*D16
 10
617.3343594420666
 20
246.9413093253209
 30
0.0
 11
547.3343594420667
 21
251.9413093253209
 31
0.0
 70
    32
 71
     5
 42
140.0
  3
STANDARD
100
AcDbAlignedDimension
 13
477.3343594420667
 23
296.3434099619222
 33
0.0
 14
617.3343594420666
 24
296.3434099619222
 34
0.0
100
AcDbRotatedDimension
1001
ACAD
1000
DSTYLE
1002
{
1070
    41
1040
7.0
1070
    42
1040
6.0
1070
    43
1040
14.0
1070
   141
1040
150.0
1070
   147
1040
2.0
1070
   172
1070
     1
1070
   173
1070
     1
1070
   176
1070
     4
1070
   177
1070
     4
1070
   178
1070
     4
1070
   272
1070
     2
1070
   343
1005
6D
1070
   344
1005
6D
1002
}
  0
DIMENSION
  5
4503
330
1A
100
AcDbEntity
  8
SUNPOU
100
AcDbDimension
  2
*D15
 10
647.175526138275
 20
280.3434099619222
 30
0.0
 11
641.1755261382749
 21
292.8434099619223
 31
0.0
 70
    32
 71
     5
 42
25.00000000000006
  3
STANDARD
100
AcDbAlignedDimension
 13
617.3343594420666
 23
305.3434099619222
 33
0.0
 14
578.3343594420671
 24
280.3434099619222
 34
0.0
 50
90.0
100
AcDbRotatedDimension
  0
LINE
  5
4504
330
1A
100
AcDbEntity
  8
SEIHIN
100
AcDbLine
 10
617.3343594420666
 20
305.3434099619222
 30
0.0
 11
617.3343594420666
 21
296.3434099619222
 31
0.0
  0
LINE
  5
4505
330
1A
100
AcDbEntity
  8
SEIHIN
100
AcDbLine
 10
616.3343594420666
 20
295.3434099619222
 30
0.0
 11
547.3343594420668
 21
295.3434099619221
 31
0.0
  0
ARC
  5
4506
330
1A
100
AcDbEntity
  8
SEIHIN
100
AcDbCircle
 10
616.3343594420666
 20
296.3434099619222
 30
0.0
 40
1.0
100
AcDbArc
 50
270.0000000000001
 51
0.0
  0
LINE
  5
4507
330
1A
100
AcDbEntity
  8
SEIHIN
100
AcDbLine
 10
478.3343594420666
 20
295.3434099619222
 30
0.0
 11
547.3343594420664
 21
295.3434099619221
 31
0.0
  0
LINE
  5
4508
330
1A
100
AcDbEntity
  8
SEIHIN
100
AcDbLine
 10
477.3343594420667
 20
305.3434099619222
 30
0.0
 11
547.3343594420664
 21
305.3434099619221
 31
0.0
  0
ARC
  5
4509
330
1A
100
AcDbEntity
  8
SEIHIN
100
AcDbCircle
 10
478.3343594420666
 20
296.3434099619222
 30
0.0
 40
1.0
100
AcDbArc
 50
180.0
 51
269.9999999999999
  0
LINE
  5
450A
330
1A
100
AcDbEntity
  8
SEIHIN
100
AcDbLine
 10
477.3343594420667
 20
305.3434099619222
 30
0.0
 11
477.3343594420667
 21
296.3434099619222
 31
0.0
  0
DIMENSION
  5
450B
330
1A
100
AcDbEntity
  8
SUNPOU
 48
5.0
100
AcDbDimension
  2
*D14
 10
632.4015380594118
 20
295.3434099619222
 30
0.0
 11
632.4015380594117
 21
324.8434099619223
 31
0.0
 70
   160
 71
     5
 42
10.0
  3
STANDARD
100
AcDbAlignedDimension
 13
617.3343594420666
 23
305.3434099619222
 33
0.0
 14
616.3343594420666
 24
295.3434099619222
 34
0.0
 50
90.0
100
AcDbRotatedDimension
1001
ACAD
1000
DSTYLE
1002
{
1070
    41
1040
7.0
1070
    42
1040
6.0
1070
    43
1040
14.0
1070
   141
1040
150.0
1070
   147
1040
2.0
1070
   172
1070
     1
1070
   173
1070
     1
1070
   176
1070
     4
1070
   177
1070
     4
1070
   178
1070
     4
1070
   272
1070
     2
1070
   343
1005
6D
1070
   344
1005
6D
1002
}
  0
LINE
  5
46A6
330
1A
100
AcDbEntity
  8
SEIHIN
100
AcDbLine
 10
604.3343594420666
 20
305.3434099619222
 30
0.0
 11
604.3343594420666
 21
296.3434099619222
 31
0.0
  0
LINE
  5
46A7
330
1A
100
AcDbEntity
  8
SEIHIN
100
AcDbLine
 10
490.3343594420666
 20
305.3434099619222
 30
0.0
 11
490.3343594420666
 21
296.3434099619222
 31
0.0
  0
LINE
  5
46AA
330
1A
100
AcDbEntity
  8
SEIHIN
100
AcDbLine
 10
168.7078861063366
 20
278.0965893161042
 30
0.0
 11
168.7078861063366
 21
269.0965893161042
 31
0.0
  0
LINE
  5
46AB
330
1A
100
AcDbEntity
  8
SEIHIN
100
AcDbLine
 10
155.7078861063367
 20
278.0965893161042
 30
0.0
 11
155.7078861063367
 21
269.0965893161042
 31
0.0
  0
ARC
  5
46AC
330
1A
100
AcDbEntity
  8
SEIHIN
100
AcDbCircle
 10
156.7078861063366
 20
269.0965893161042
 30
0.0
 40
1.0
100
AcDbArc
 50
180.0
 51
269.9999999999999
  0
LINE
  5
46AD
330
1A
100
AcDbEntity
  8
SEIHIN
100
AcDbLine
 10
155.7078861063367
 20
278.0965893161042
 30
0.0
 11
225.7078861063364
 21
278.0965893161041
 31
0.0
  0
LINE
  5
46AE
330
1A
100
AcDbEntity
  8
SEIHIN
100
AcDbLine
 10
295.7078861063367
 20
278.0965893161042
 30
0.0
 11
225.7078861063369
 21
278.0965893161041
 31
0.0
  0
LINE
  5
46AF
330
1A
100
AcDbEntity
  8
SEIHIN
100
AcDbLine
 10
282.7078861063366
 20
278.0965893161042
 30
0.0
 11
282.7078861063366
 21
269.0965893161042
 31
0.0
  0
ARC
  5
46B0
330
1A
100
AcDbEntity
  8
SEIHIN
100
AcDbCircle
 10
294.7078861063367
 20
269.0965893161042
 30
0.0
 40
1.0
100
AcDbArc
 50
270.0000000000001
 51
0.0
  0
LINE
  5
46B1
330
1A
100
AcDbEntity
  8
SEIHIN
100
AcDbLine
 10
295.7078861063367
 20
278.0965893161042
 30
0.0
 11
295.7078861063367
 21
269.0965893161042
 31
0.0
  0
LINE
  5
4733
330
1A
100
AcDbEntity
  8
CENTER L
 48
5.0
100
AcDbLine
 10
547.3343594420668
 20
467.4600828803881
 30
0.0
 11
547.3343594420668
 21
453.0663822014624
 31
0.0
  0
LINE
  5
4734
330
1A
100
AcDbEntity
  8
CENTER L
 48
5.0
100
AcDbLine
 10
540.4800379232431
 20
460.2187978968335
 30
0.0
 11
554.6141486870867
 21
460.2187978968335
 31
0.0
  0
CIRCLE
  5
4736
330
1A
100
AcDbEntity
  8
SEIHIN
100
AcDbCircle
 10
547.3343594420667
 20
460.2187978968335
 30
0.0
 40
5.0
  0
LINE
  5
4738
330
1A
100
AcDbEntity
  8
CENTER L
 48
5.0
100
AcDbLine
 10
586.2943157106555
 20
405.2187978968336
 30
0.0
 11
598.354877288478
 21
405.2187978968336
 31
0.0
  0
CIRCLE
  5
4739
330
1A
100
AcDbEntity
  8
SEIHIN
100
AcDbCircle
 10
592.3343594420666
 20
405.2187978968336
 30
0.0
 40
5.0
  0
LINE
  5
473B
330
1A
100
AcDbEntity
  8
CENTER L
 48
5.0
100
AcDbLine
 10
592.3343594420666
 20
411.4763940908438
 30
0.0
 11
592.3343594420666
 21
399.0674986974042
 31
0.0
  0
LINE
  5
473C
330
1A
100
AcDbEntity
  8
CENTER L
 48
5.0
100
AcDbLine
 10
502.3343594420667
 20
411.4763940908438
 30
0.0
 11
502.3343594420667
 21
399.0674986974042
 31
0.0
  0
CIRCLE
  5
473E
330
1A
100
AcDbEntity
  8
SEIHIN
100
AcDbCircle
 10
502.3343594420667
 20
405.2187978968336
 30
0.0
 40
5.0
  0
LINE
  5
473F
330
1A
100
AcDbEntity
  8
CENTER L
 48
5.0
100
AcDbLine
 10
508.3744031734778
 20
405.2187978968336
 30
0.0
 11
496.3138415956554
 21
405.2187978968336
 31
0.0
  0
LINE
  5
50F3
102
{ACAD_REACTORS
330
56EA
330
56EB
102
}
330
1A
100
AcDbEntity
  8
CENTER L
 48
5.0
100
AcDbLine
 10
153.376182276921
 20
420.2187978968335
 30
0.0
 11
298.2977647963453
 21
420.2187978968336
 31
0.0
  0
LINE
  5
510B
330
1A
100
AcDbEntity
  8
SEIHIN
  6
Continuous
 62
     3
 48
5.0
100
AcDbLine
 10
479.8343594420663
 20
418.7187978968334
 30
0.0
 11
479.3343594420663
 21
418.7188312301668
 31
0.0
  0
LINE
  5
510C
330
1A
100
AcDbEntity
  8
SEIHIN
  6
Continuous
 62
     3
 48
5.0
100
AcDbLine
 10
479.8343594420663
 20
421.7187978968334
 30
0.0
 11
479.3343594420664
 21
421.7188312301669
 31
0.0
  0
ARC
  5
510D
330
1A
100
AcDbEntity
  8
SEIHIN
  6
Continuous
 62
     3
 48
5.0
100
AcDbCircle
 10
479.8343594420663
 20
420.2187978968334
 30
0.0
 40
1.5
100
AcDbArc
 50
270.0
 51
90.0
  0
CIRCLE
  5
5565
330
1A
100
AcDbEntity
  8
SEIHIN
100
AcDbCircle
 10
592.3343594420666
 20
405.2187978968336
 30
0.0
 40
2.0
  0
CIRCLE
  5
5566
330
1A
100
AcDbEntity
  8
SEIHIN
100
AcDbCircle
 10
547.3343594420667
 20
460.2187978968335
 30
0.0
 40
2.0
  0
CIRCLE
  5
5567
330
1A
100
AcDbEntity
  8
SEIHIN
100
AcDbCircle
 10
502.3343594420667
 20
405.2187978968336
 30
0.0
 40
2.0
  0
LINE
  5
5569
330
1A
100
AcDbEntity
  8
CENTER L
 48
5.0
100
AcDbLine
 10
474.0491144975845
 20
420.2579855182111
 30
0.0
 11
620.8882962443809
 21
420.2187978968336
 31
0.0
  0
ARC
  5
556A
330
1A
100
AcDbEntity
  8
SEIHIN
  6
Continuous
 62
     3
 48
5.0
100
AcDbCircle
 10
614.8343594420668
 20
420.2187978968334
 30
0.0
 40
1.5
100
AcDbArc
 50
90.0
 51
270.0
  0
LINE
  5
556B
330
1A
100
AcDbEntity
  8
SEIHIN
  6
Continuous
 62
     3
 48
5.0
100
AcDbLine
 10
614.8343594420668
 20
421.7187978968334
 30
0.0
 11
615.3343594420668
 21
421.7188312301669
 31
0.0
  0
LINE
  5
556C
330
1A
100
AcDbEntity
  8
SEIHIN
  6
Continuous
 62
     3
 48
5.0
100
AcDbLine
 10
614.8343594420668
 20
418.7187978968334
 30
0.0
 11
615.3343594420668
 21
418.7188312301668
 31
0.0
  0
LINE
  5
5572
330
1A
100
AcDbEntity
  8
SEIHIN
  6
Continuous
 62
     3
 48
5.0
100
AcDbLine
 10
545.8343594420669
 20
487.7187978968335
 30
0.0
 11
545.8343261087334
 21
488.2187978968335
 31
0.0
  0
LINE
  5
5573
330
1A
100
AcDbEntity
  8
SEIHIN
  6
Continuous
 62
     3
 48
5.0
100
AcDbLine
 10
548.8343594420668
 20
487.7187978968335
 30
0.0
 11
548.8343261087334
 21
488.2187978968335
 31
0.0
  0
ARC
  5
5574
330
1A
100
AcDbEntity
  8
SEIHIN
  6
Continuous
 62
     3
 48
5.0
100
AcDbCircle
 10
547.3343594420668
 20
487.7187978968336
 30
0.0
 40
1.5
100
AcDbArc
 50
180.0
 51
0.0
  0
ARC
  5
5575
330
1A
100
AcDbEntity
  8
SEIHIN
  6
Continuous
 62
     3
 48
5.0
100
AcDbCircle
 10
547.29834187532
 20
352.7580668373619
 30
0.0
 40
1.5
100
AcDbArc
 50
359.9694184449398
 51
179.9694184449398
  0
LINE
  5
5576
330
1A
100
AcDbEntity
  8
SEIHIN
  6
Continuous
 62
     3
 48
5.0
100
AcDbLine
 10
548.7983416616541
 20
352.7572662141607
 30
0.0
 11
548.798041453925
 21
352.2572663031743
 31
0.0
  0
LINE
  5
5577
330
1A
100
AcDbEntity
  8
SEIHIN
  6
Continuous
 62
     3
 48
5.0
100
AcDbLine
 10
545.7983420889859
 20
352.7588674605632
 30
0.0
 11
545.7980418812568
 21
352.2588675495768
 31
0.0
  0
CIRCLE
  5
5585
330
1A
100
AcDbEntity
  8
SEIHIN
100
AcDbCircle
 10
180.7078861063365
 20
405.1991682326529
 30
0.0
 40
2.0
  0
CIRCLE
  5
5586
330
1A
100
AcDbEntity
  8
SEIHIN
100
AcDbCircle
 10
225.7078861063364
 20
460.1991682326528
 30
0.0
 40
2.0
  0
CIRCLE
  5
5587
330
1A
100
AcDbEntity
  8
SEIHIN
100
AcDbCircle
 10
270.7078861063365
 20
405.1991682326529
 30
0.0
 40
2.0
  0
ARC
  5
5588
102
{ACAD_REACTORS
330
56EA
330
56EB
102
}
330
1A
100
AcDbEntity
  8
SEIHIN
  6
Continuous
 62
     3
 48
5.0
100
AcDbCircle
 10
158.2078861063361
 20
420.1991682326528
 30
0.0
 40
1.5
100
AcDbArc
 50
270.0
 51
90.0
  0
LINE
  5
5589
102
{ACAD_REACTORS
330
56EA
330
56EB
102
}
330
1A
100
AcDbEntity
  8
SEIHIN
  6
Continuous
 62
     3
 48
5.0
100
AcDbLine
 10
158.2078861063361
 20
421.6991682326527
 30
0.0
 11
157.7078861063363
 21
421.6992015659863
 31
0.0
  0
LINE
  5
558A
102
{ACAD_REACTORS
330
56EA
330
56EB
102
}
330
1A
100
AcDbEntity
  8
SEIHIN
  6
Continuous
 62
     3
 48
5.0
100
AcDbLine
 10
158.2078861063361
 20
418.6991682326528
 30
0.0
 11
157.7078861063361
 21
418.6992015659862
 31
0.0
  0
LINE
  5
558B
330
1A
100
AcDbEntity
  8
CENTER L
 48
5.0
100
AcDbLine
 10
186.7479298377476
 20
405.199168232653
 30
0.0
 11
174.6873682599251
 21
405.199168232653
 31
0.0
  0
CIRCLE
  5
558C
330
1A
100
AcDbEntity
  8
SEIHIN
100
AcDbCircle
 10
180.7078861063365
 20
405.199168232653
 30
0.0
 40
5.0
  0
LINE
  5
558D
330
1A
100
AcDbEntity
  8
CENTER L
 48
5.0
100
AcDbLine
 10
180.7078861063365
 20
411.4567644266632
 30
0.0
 11
180.7078861063365
 21
399.0478690332236
 31
0.0
  0
LINE
  5
558E
330
1A
100
AcDbEntity
  8
CENTER L
 48
5.0
100
AcDbLine
 10
270.7078861063365
 20
411.4567644266632
 30
0.0
 11
270.7078861063365
 21
399.0478690332236
 31
0.0
  0
CIRCLE
  5
558F
330
1A
100
AcDbEntity
  8
SEIHIN
100
AcDbCircle
 10
270.7078861063365
 20
405.199168232653
 30
0.0
 40
5.0
  0
LINE
  5
5590
330
1A
100
AcDbEntity
  8
CENTER L
 48
5.0
100
AcDbLine
 10
264.6678423749254
 20
405.199168232653
 30
0.0
 11
276.7284039527478
 21
405.199168232653
 31
0.0
  0
CIRCLE
  5
5591
330
1A
100
AcDbEntity
  8
SEIHIN
100
AcDbCircle
 10
225.7078861063364
 20
460.1991682326529
 30
0.0
 40
5.0
  0
LINE
  5
5592
330
1A
100
AcDbEntity
  8
CENTER L
 48
5.0
100
AcDbLine
 10
218.8535645875129
 20
460.1991682326528
 30
0.0
 11
232.9876753513565
 21
460.1991682326528
 31
0.0
  0
LINE
  5
5593
330
1A
100
AcDbEntity
  8
CENTER L
 48
5.0
100
AcDbLine
 10
225.7078861063367
 20
467.4404532162074
 30
0.0
 11
225.7078861063367
 21
453.0467525372818
 31
0.0
  0
LINE
  5
5594
330
1A
100
AcDbEntity
  8
SEIHIN
100
AcDbLine
 10
225.7078861063364
 20
490.1991682326529
 30
0.0
 11
280.6368182944711
 21
490.199168232653
 31
0.0
  0
LINE
  5
5596
330
1A
100
AcDbEntity
  8
SEIHIN
100
AcDbLine
 10
295.7078861063365
 20
475.1281004207872
 30
0.0
 11
295.7078861063367
 21
420.1991682326529
 31
0.0
  0
LINE
  5
5597
330
1A
100
AcDbEntity
  8
SEIHIN
100
AcDbLine
 10
284.172352200404
 20
488.7347021385856
 30
0.0
 11
294.2434200122691
 21
478.66363432672
 31
0.0
  0
LINE
  5
5598
330
1A
100
AcDbEntity
  8
CENTER L
 48
5.0
100
AcDbLine
 10
152.1040691569883
 20
405.199168232653
 30
0.0
 11
302.603592618465
 21
405.1991682326529
 31
0.0
  0
ARC
  5
5599
330
1A
100
AcDbEntity
  8
SEIHIN
100
AcDbCircle
 10
290.7078861063364
 20
475.1281004207872
 30
0.0
 40
5.0
100
AcDbArc
 50
0.0
 51
45.0
  0
ARC
  5
559A
330
1A
100
AcDbEntity
  8
SEIHIN
100
AcDbCircle
 10
280.6368182944711
 20
485.199168232653
 30
0.0
 40
5.0
100
AcDbArc
 50
44.99999999999903
 51
90.0
  0
LINE
  5
559B
330
1A
100
AcDbEntity
  8
SEIHIN
100
AcDbLine
 10
293.7078861063365
 20
475.1281004207872
 30
0.0
 11
293.7078861063367
 21
420.1991682326529
 31
0.0
  0
LINE
  5
559C
330
1A
100
AcDbEntity
  8
SEIHIN
100
AcDbLine
 10
225.7078861063364
 20
488.1991682326529
 30
0.0
 11
280.6368182944711
 21
488.1991682326529
 31
0.0
  0
ARC
  5
559D
330
1A
100
AcDbEntity
  8
SEIHIN
100
AcDbCircle
 10
280.6368182944711
 20
485.199168232653
 30
0.0
 40
3.0
100
AcDbArc
 50
44.99999999999903
 51
90.0
  0
LINE
  5
559E
330
1A
100
AcDbEntity
  8
SEIHIN
100
AcDbLine
 10
282.7581386380309
 20
487.3204885762126
 30
0.0
 11
292.829206449896
 21
477.2494207643469
 31
0.0
  0
ARC
  5
559F
330
1A
100
AcDbEntity
  8
SEIHIN
100
AcDbCircle
 10
290.7078861063364
 20
475.1281004207872
 30
0.0
 40
3.0
100
AcDbArc
 50
0.0
 51
45.0
  0
LINE
  5
55A2
330
1A
100
AcDbEntity
  8
CENTER L
 48
5.0
100
AcDbLine
 10
270.7078861063365
 20
472.4404532162076
 30
0.0
 11
270.7078861063365
 21
458.0467525372819
 31
0.0
  0
LINE
  5
55A3
330
1A
100
AcDbEntity
  8
CENTER L
 48
5.0
100
AcDbLine
 10
264.6678423749254
 20
375.199168232653
 30
0.0
 11
276.7284039527478
 21
375.199168232653
 31
0.0
  0
LINE
  5
55A4
330
1A
100
AcDbEntity
  8
CENTER L
 48
5.0
100
AcDbLine
 10
263.8535645875127
 20
465.199168232653
 30
0.0
 11
277.9876753513563
 21
465.199168232653
 31
0.0
  0
CIRCLE
  5
55A5
330
1A
100
AcDbEntity
  8
SEIHIN
100
AcDbCircle
 10
270.7078861063365
 20
375.199168232653
 30
0.0
 40
5.0
  0
CIRCLE
  5
55A6
330
1A
100
AcDbEntity
  8
SEIHIN
100
AcDbCircle
 10
270.7078861063365
 20
375.199168232653
 30
0.0
 40
1.5
  0
CIRCLE
  5
55A7
330
1A
100
AcDbEntity
  8
SEIHIN
100
AcDbCircle
 10
270.7078861063362
 20
465.1991682326531
 30
0.0
 40
1.5
  0
CIRCLE
  5
55A8
330
1A
100
AcDbEntity
  8
SEIHIN
100
AcDbCircle
 10
270.7078861063362
 20
465.1991682326531
 30
0.0
 40
5.0
  0
CIRCLE
  5
55A9
330
1A
100
AcDbEntity
  8
SEIHIN
100
AcDbCircle
 10
225.7078861063364
 20
405.199168232653
 30
0.0
 40
40.0
  0
LINE
  5
55AB
330
1A
100
AcDbEntity
  8
CENTER L
 48
5.0
100
AcDbLine
 10
270.7078861063365
 20
381.4567644266631
 30
0.0
 11
270.7078861063365
 21
369.0478690332235
 31
0.0
  0
LINE
  5
55AC
330
1A
100
AcDbEntity
  8
CENTER L
 48
5.0
100
AcDbLine
 10
180.7078861063364
 20
381.4567644266631
 30
0.0
 11
180.7078861063364
 21
369.0478690332235
 31
0.0
  0
CIRCLE
  5
55AD
330
1A
100
AcDbEntity
  8
SEIHIN
100
AcDbCircle
 10
180.7078861063364
 20
375.199168232653
 30
0.0
 40
1.5
  0
CIRCLE
  5
55AE
330
1A
100
AcDbEntity
  8
SEIHIN
100
AcDbCircle
 10
180.7078861063364
 20
375.199168232653
 30
0.0
 40
5.0
  0
LINE
  5
55AF
330
1A
100
AcDbEntity
  8
CENTER L
 48
5.0
100
AcDbLine
 10
186.7479298377475
 20
375.199168232653
 30
0.0
 11
174.687368259925
 21
375.199168232653
 31
0.0
  0
LINE
  5
55B0
330
1A
100
AcDbEntity
  8
SEIHIN
100
AcDbLine
 10
225.7078861063364
 20
477.1991682326529
 30
0.0
 11
276.9088962331134
 21
477.199168232653
 31
0.0
  0
LINE
  5
55B1
330
1A
100
AcDbEntity
  8
SEIHIN
100
AcDbLine
 10
284.707886106336
 20
472.2286054841758
 30
0.0
 11
284.7078861063362
 21
420.1991682326529
 31
0.0
  0
LINE
  5
55B2
330
1A
100
AcDbEntity
  8
SEIHIN
100
AcDbLine
 10
225.7078861063364
 20
479.1991682326529
 30
0.0
 11
277.7373233578594
 21
479.199168232653
 31
0.0
  0
LINE
  5
55B3
330
1A
100
AcDbEntity
  8
SEIHIN
100
AcDbLine
 10
277.6160030143001
 20
476.9062750138395
 30
0.0
 11
282.4149928875231
 21
472.1072851406159
 31
0.0
  0
LINE
  5
55B4
330
1A
100
AcDbEntity
  8
SEIHIN
100
AcDbLine
 10
278.4444301390461
 20
478.9062750138396
 30
0.0
 11
284.4149928875227
 21
472.9357122653623
 31
0.0
  0
ARC
  5
55B5
330
1A
100
AcDbEntity
  8
SEIHIN
100
AcDbCircle
 10
276.9088962331134
 20
476.199168232653
 30
0.0
 40
1.0
100
AcDbArc
 50
44.99999999999839
 51
90.00000000000005
  0
ARC
  5
55B6
330
1A
100
AcDbEntity
  8
SEIHIN
100
AcDbCircle
 10
277.7373233578594
 20
478.199168232653
 30
0.0
 40
1.0
100
AcDbArc
 50
44.99999999999839
 51
90.00000000000005
  0
ARC
  5
55B7
330
1A
100
AcDbEntity
  8
SEIHIN
100
AcDbCircle
 10
283.707886106336
 20
472.2286054841758
 30
0.0
 40
1.0
100
AcDbArc
 50
0.0
 51
44.99999999999796
  0
ARC
  5
55B8
330
1A
100
AcDbEntity
  8
SEIHIN
100
AcDbCircle
 10
281.7078861063365
 20
471.4001783594294
 30
0.0
 40
1.0
100
AcDbArc
 50
0.0
 51
44.99999999999737
  0
LINE
  5
55B9
330
1A
100
AcDbEntity
  8
SEIHIN
100
AcDbLine
 10
282.7078861063364
 20
471.4001783594294
 30
0.0
 11
282.7078861063369
 21
420.1991682326529
 31
0.0
  0
LINE
  5
55BA
330
1A
100
AcDbEntity
  8
SEIHIN
100
AcDbLine
 10
284.7078861063364
 20
388.199168232653
 30
0.0
 11
293.7078861063369
 21
388.1991682326531
 31
0.0
  0
ARC
  5
55BB
330
1A
100
AcDbEntity
  8
SEIHIN
100
AcDbCircle
 10
277.7373233578594
 20
362.1991682326529
 30
0.0
 40
1.0
100
AcDbArc
 50
269.9999999999999
 51
315.0000000000016
  0
ARC
  5
55BC
330
1A
100
AcDbEntity
  8
SEIHIN
100
AcDbCircle
 10
276.9088962331134
 20
364.199168232653
 30
0.0
 40
1.0
100
AcDbArc
 50
269.9999999999999
 51
315.0000000000016
  0
LINE
  5
55BD
330
1A
100
AcDbEntity
  8
SEIHIN
100
AcDbLine
 10
278.4444301390461
 20
361.4920614514664
 30
0.0
 11
284.4149928875227
 21
367.4626241999438
 31
0.0
  0
LINE
  5
55BE
330
1A
100
AcDbEntity
  8
SEIHIN
100
AcDbLine
 10
277.6160030143001
 20
363.4920614514665
 30
0.0
 11
282.4149928875231
 21
368.29105132469
 31
0.0
  0
LINE
  5
55BF
330
1A
100
AcDbEntity
  8
SEIHIN
100
AcDbLine
 10
225.7078861063364
 20
361.1991682326531
 30
0.0
 11
277.7373233578594
 21
361.1991682326529
 31
0.0
  0
LINE
  5
55C0
330
1A
100
AcDbEntity
  8
SEIHIN
100
AcDbLine
 10
225.7078861063364
 20
363.1991682326531
 30
0.0
 11
276.9088962331134
 21
363.199168232653
 31
0.0
  0
ARC
  5
55C1
330
1A
100
AcDbEntity
  8
SEIHIN
100
AcDbCircle
 10
290.7078861063364
 20
365.2702360445187
 30
0.0
 40
3.0
100
AcDbArc
 50
315.0
 51
0.0
  0
LINE
  5
55C2
330
1A
100
AcDbEntity
  8
SEIHIN
100
AcDbLine
 10
282.7581386380309
 20
353.0778478890934
 30
0.0
 11
292.829206449896
 21
363.148915700959
 31
0.0
  0
ARC
  5
55C3
330
1A
100
AcDbEntity
  8
SEIHIN
100
AcDbCircle
 10
280.6368182944711
 20
355.199168232653
 30
0.0
 40
3.0
100
AcDbArc
 50
270.0
 51
315.000000000001
  0
LINE
  5
55C4
330
1A
100
AcDbEntity
  8
SEIHIN
100
AcDbLine
 10
225.7078861063364
 20
352.1991682326531
 30
0.0
 11
280.6368182944711
 21
352.199168232653
 31
0.0
  0
LINE
  5
55C5
330
1A
100
AcDbEntity
  8
SEIHIN
100
AcDbLine
 10
293.7078861063365
 20
365.2702360445187
 30
0.0
 11
293.7078861063367
 21
420.199168232653
 31
0.0
  0
ARC
  5
55C6
330
1A
100
AcDbEntity
  8
SEIHIN
100
AcDbCircle
 10
280.6368182944711
 20
355.199168232653
 30
0.0
 40
5.0
100
AcDbArc
 50
270.0
 51
315.000000000001
  0
ARC
  5
55C7
330
1A
100
AcDbEntity
  8
SEIHIN
100
AcDbCircle
 10
290.7078861063364
 20
365.2702360445187
 30
0.0
 40
5.0
100
AcDbArc
 50
315.0
 51
0.0
  0
LINE
  5
55C8
330
1A
100
AcDbEntity
  8
SEIHIN
100
AcDbLine
 10
284.172352200404
 20
351.6636343267204
 30
0.0
 11
294.2434200122691
 21
361.734702138586
 31
0.0
  0
LINE
  5
55C9
330
1A
100
AcDbEntity
  8
SEIHIN
100
AcDbLine
 10
295.7078861063365
 20
365.2702360445187
 30
0.0
 11
295.7078861063367
 21
420.199168232653
 31
0.0
  0
LINE
  5
55CA
330
1A
100
AcDbEntity
  8
SEIHIN
100
AcDbLine
 10
225.7078861063364
 20
350.1991682326531
 30
0.0
 11
280.6368182944711
 21
350.199168232653
 31
0.0
  0
LINE
  5
55CB
330
1A
100
AcDbEntity
  8
SEIHIN
100
AcDbLine
 10
282.7078861063364
 20
368.9981581058765
 30
0.0
 11
282.7078861063369
 21
420.1991682326531
 31
0.0
  0
LINE
  5
55CC
330
1A
100
AcDbEntity
  8
SEIHIN
100
AcDbLine
 10
284.707886106336
 20
368.1697309811303
 30
0.0
 11
284.7078861063362
 21
420.199168232653
 31
0.0
  0
ARC
  5
55CD
330
1A
100
AcDbEntity
  8
SEIHIN
100
AcDbCircle
 10
281.7078861063365
 20
368.9981581058765
 30
0.0
 40
1.0
100
AcDbArc
 50
315.0000000000034
 51
359.9999999999995
  0
ARC
  5
55CE
330
1A
100
AcDbEntity
  8
SEIHIN
100
AcDbCircle
 10
283.707886106336
 20
368.1697309811303
 30
0.0
 40
1.0
100
AcDbArc
 50
315.0000000000033
 51
359.9999999999997
  0
LINE
  5
55D1
330
1A
100
AcDbEntity
  8
SEIHIN
100
AcDbLine
 10
168.7078861063364
 20
471.4001783594294
 30
0.0
 11
168.707886106336
 21
420.1991682326529
 31
0.0
  0
ARC
  5
55D2
330
1A
100
AcDbEntity
  8
SEIHIN
100
AcDbCircle
 10
169.7078861063364
 20
471.4001783594294
 30
0.0
 40
1.0
100
AcDbArc
 50
135.0000000000026
 51
180.0
  0
ARC
  5
55D3
330
1A
100
AcDbEntity
  8
SEIHIN
100
AcDbCircle
 10
167.7078861063369
 20
472.2286054841758
 30
0.0
 40
1.0
100
AcDbArc
 50
135.000000000002
 51
180.0
  0
ARC
  5
55D4
330
1A
100
AcDbEntity
  8
SEIHIN
100
AcDbCircle
 10
173.6784488548135
 20
478.199168232653
 30
0.0
 40
1.0
100
AcDbArc
 50
89.99999999999994
 51
135.0000000000016
  0
ARC
  5
55D5
330
1A
100
AcDbEntity
  8
SEIHIN
100
AcDbCircle
 10
174.5068759795595
 20
476.199168232653
 30
0.0
 40
1.0
100
AcDbArc
 50
89.99999999999994
 51
135.0000000000016
  0
LINE
  5
55D6
330
1A
100
AcDbEntity
  8
SEIHIN
100
AcDbLine
 10
172.9713420736268
 20
478.9062750138396
 30
0.0
 11
167.0007793251502
 21
472.9357122653623
 31
0.0
  0
LINE
  5
55D7
330
1A
100
AcDbEntity
  8
SEIHIN
100
AcDbLine
 10
173.7997691983728
 20
476.9062750138395
 30
0.0
 11
169.0007793251498
 21
472.1072851406159
 31
0.0
  0
LINE
  5
55D8
330
1A
100
AcDbEntity
  8
SEIHIN
100
AcDbLine
 10
225.7078861063364
 20
479.1991682326529
 30
0.0
 11
173.6784488548135
 21
479.199168232653
 31
0.0
  0
LINE
  5
55D9
330
1A
100
AcDbEntity
  8
SEIHIN
100
AcDbLine
 10
166.7078861063369
 20
472.2286054841758
 30
0.0
 11
166.7078861063366
 21
420.1991682326529
 31
0.0
  0
LINE
  5
55DA
330
1A
100
AcDbEntity
  8
SEIHIN
100
AcDbLine
 10
225.7078861063364
 20
477.1991682326529
 30
0.0
 11
174.5068759795595
 21
477.199168232653
 31
0.0
  0
CIRCLE
  5
55DB
330
1A
100
AcDbEntity
  8
SEIHIN
100
AcDbCircle
 10
180.7078861063367
 20
465.1991682326531
 30
0.0
 40
5.0
  0
CIRCLE
  5
55DC
330
1A
100
AcDbEntity
  8
SEIHIN
100
AcDbCircle
 10
180.7078861063367
 20
465.1991682326531
 30
0.0
 40
1.5
  0
LINE
  5
55DD
330
1A
100
AcDbEntity
  8
CENTER L
 48
5.0
100
AcDbLine
 10
187.5622076251602
 20
465.199168232653
 30
0.0
 11
173.4280968613166
 21
465.199168232653
 31
0.0
  0
LINE
  5
55DE
330
1A
100
AcDbEntity
  8
CENTER L
 48
5.0
100
AcDbLine
 10
180.7078861063364
 20
472.4404532162076
 30
0.0
 11
180.7078861063364
 21
458.0467525372819
 31
0.0
  0
ARC
  5
55DF
330
1A
100
AcDbEntity
  8
SEIHIN
100
AcDbCircle
 10
160.7078861063364
 20
475.1281004207872
 30
0.0
 40
3.0
100
AcDbArc
 50
135.0
 51
180.0
  0
LINE
  5
55E0
330
1A
100
AcDbEntity
  8
SEIHIN
100
AcDbLine
 10
168.657633574642
 20
487.3204885762126
 30
0.0
 11
158.5865657627769
 21
477.2494207643469
 31
0.0
  0
ARC
  5
55E1
330
1A
100
AcDbEntity
  8
SEIHIN
100
AcDbCircle
 10
170.7789539182017
 20
485.199168232653
 30
0.0
 40
3.0
100
AcDbArc
 50
90.0
 51
135.0000000000009
  0
LINE
  5
55E2
330
1A
100
AcDbEntity
  8
SEIHIN
100
AcDbLine
 10
225.7078861063364
 20
488.1991682326529
 30
0.0
 11
170.7789539182017
 21
488.1991682326529
 31
0.0
  0
LINE
  5
55E3
330
1A
100
AcDbEntity
  8
SEIHIN
100
AcDbLine
 10
157.7078861063364
 20
475.1281004207872
 30
0.0
 11
157.7078861063362
 21
420.1991682326529
 31
0.0
  0
ARC
  5
55E4
330
1A
100
AcDbEntity
  8
SEIHIN
100
AcDbCircle
 10
170.7789539182017
 20
485.199168232653
 30
0.0
 40
5.0
100
AcDbArc
 50
90.0
 51
135.0000000000009
  0
ARC
  5
55E5
330
1A
100
AcDbEntity
  8
SEIHIN
100
AcDbCircle
 10
160.7078861063364
 20
475.1281004207872
 30
0.0
 40
5.0
100
AcDbArc
 50
135.0
 51
180.0
  0
LINE
  5
55E6
330
1A
100
AcDbEntity
  8
SEIHIN
100
AcDbLine
 10
167.2434200122689
 20
488.7347021385856
 30
0.0
 11
157.1723522004038
 21
478.66363432672
 31
0.0
  0
LINE
  5
55E7
330
1A
100
AcDbEntity
  8
SEIHIN
100
AcDbLine
 10
155.7078861063364
 20
475.1281004207872
 30
0.0
 11
155.7078861063362
 21
420.1991682326529
 31
0.0
  0
LINE
  5
55E8
330
1A
100
AcDbEntity
  8
SEIHIN
100
AcDbLine
 10
225.7078861063364
 20
490.1991682326529
 30
0.0
 11
170.7789539182017
 21
490.199168232653
 31
0.0
  0
LINE
  5
55E9
330
1A
100
AcDbEntity
  8
SEIHIN
100
AcDbLine
 10
166.7078861063369
 20
368.1697309811303
 30
0.0
 11
166.7078861063366
 21
420.199168232653
 31
0.0
  0
LINE
  5
55EA
330
1A
100
AcDbEntity
  8
SEIHIN
100
AcDbLine
 10
168.7078861063364
 20
368.9981581058765
 30
0.0
 11
168.707886106336
 21
420.1991682326531
 31
0.0
  0
LINE
  5
55EB
330
1A
100
AcDbEntity
  8
SEIHIN
100
AcDbLine
 10
155.7078861063364
 20
365.2702360445187
 30
0.0
 11
155.7078861063362
 21
420.199168232653
 31
0.0
  0
LINE
  5
55EC
330
1A
100
AcDbEntity
  8
SEIHIN
100
AcDbLine
 10
157.7078861063364
 20
365.2702360445187
 30
0.0
 11
157.7078861063362
 21
420.199168232653
 31
0.0
  0
LINE
  5
55ED
330
1A
100
AcDbEntity
  8
SEIHIN
100
AcDbLine
 10
166.7078861063364
 20
388.199168232653
 30
0.0
 11
157.707886106336
 21
388.1991682326531
 31
0.0
  0
LINE
  5
55EE
330
1A
100
AcDbEntity
  8
SEIHIN
100
AcDbLine
 10
225.7078861063364
 20
350.1991682326531
 30
0.0
 11
170.7789539182017
 21
350.199168232653
 31
0.0
  0
LINE
  5
55EF
330
1A
100
AcDbEntity
  8
SEIHIN
100
AcDbLine
 10
225.7078861063364
 20
352.1991682326531
 30
0.0
 11
170.7789539182017
 21
352.199168232653
 31
0.0
  0
LINE
  5
55F0
330
1A
100
AcDbEntity
  8
SEIHIN
100
AcDbLine
 10
225.7078861063364
 20
363.1991682326531
 30
0.0
 11
174.9210895419323
 21
363.199168232653
 31
0.0
  0
LINE
  5
55F1
330
1A
100
AcDbEntity
  8
SEIHIN
100
AcDbLine
 10
225.7078861063364
 20
361.1991682326531
 30
0.0
 11
173.6784488548135
 21
361.1991682326529
 31
0.0
  0
ARC
  5
55F2
330
1A
100
AcDbEntity
  8
SEIHIN
100
AcDbCircle
 10
167.7078861063369
 20
368.1697309811303
 30
0.0
 40
1.0
100
AcDbArc
 50
180.0000000000003
 51
224.9999999999967
  0
ARC
  5
55F3
330
1A
100
AcDbEntity
  8
SEIHIN
100
AcDbCircle
 10
169.7078861063364
 20
368.9981581058765
 30
0.0
 40
1.0
100
AcDbArc
 50
180.0000000000005
 51
224.9999999999966
  0
LINE
  5
55F4
330
1A
100
AcDbEntity
  8
SEIHIN
100
AcDbLine
 10
167.2434200122689
 20
351.6636343267204
 30
0.0
 11
157.1723522004038
 21
361.734702138586
 31
0.0
  0
ARC
  5
55F5
330
1A
100
AcDbEntity
  8
SEIHIN
100
AcDbCircle
 10
160.7078861063364
 20
365.2702360445187
 30
0.0
 40
5.0
100
AcDbArc
 50
180.0
 51
225.0
  0
ARC
  5
55F6
330
1A
100
AcDbEntity
  8
SEIHIN
100
AcDbCircle
 10
170.7789539182017
 20
355.199168232653
 30
0.0
 40
5.0
100
AcDbArc
 50
224.999999999999
 51
270.0
  0
ARC
  5
55F7
330
1A
100
AcDbEntity
  8
SEIHIN
100
AcDbCircle
 10
170.7789539182017
 20
355.199168232653
 30
0.0
 40
3.0
100
AcDbArc
 50
224.999999999999
 51
270.0
  0
LINE
  5
55F8
330
1A
100
AcDbEntity
  8
SEIHIN
100
AcDbLine
 10
168.657633574642
 20
353.0778478890934
 30
0.0
 11
158.5865657627769
 21
363.148915700959
 31
0.0
  0
ARC
  5
55F9
330
1A
100
AcDbEntity
  8
SEIHIN
100
AcDbCircle
 10
160.7078861063364
 20
365.2702360445187
 30
0.0
 40
3.0
100
AcDbArc
 50
180.0
 51
225.0
  0
LINE
  5
55FA
330
1A
100
AcDbEntity
  8
SEIHIN
100
AcDbLine
 10
173.5068759795592
 20
363.78495467028
 30
0.0
 11
169.0007793251498
 21
368.29105132469
 31
0.0
  0
LINE
  5
55FB
330
1A
100
AcDbEntity
  8
SEIHIN
100
AcDbLine
 10
172.9713420736268
 20
361.4920614514664
 30
0.0
 11
167.0007793251502
 21
367.4626241999438
 31
0.0
  0
ARC
  5
55FC
330
1A
100
AcDbEntity
  8
SEIHIN
100
AcDbCircle
 10
173.6784488548135
 20
362.1991682326529
 30
0.0
 40
1.0
100
AcDbArc
 50
224.9999999999984
 51
270.0000000000001
  0
ARC
  5
55FD
102
{ACAD_REACTORS
330
56EA
330
56EB
102
}
330
1A
100
AcDbEntity
  8
SEIHIN
100
AcDbCircle
 10
159.2078861063366
 20
412.1991682326529
 30
0.0
 40
2.0
100
AcDbArc
 50
269.9999999999998
 51
284.9014913346224
  0
LINE
  5
55FE
102
{ACAD_REACTORS
330
56EA
330
56EB
102
}
330
1A
100
AcDbEntity
  8
SEIHIN
100
AcDbLine
 10
159.2078861063366
 20
410.1991682326529
 30
0.0
 11
157.7078861063364
 21
410.199168232653
 31
0.0
  0
LINE
  5
5600
102
{ACAD_REACTORS
330
56EB
102
}
330
1A
100
AcDbEntity
  8
SEIHIN
100
AcDbLine
 10
166.7078861063371
 20
430.1991682326529
 30
0.0
 11
160.5205568551851
 21
430.1991682326533
 31
0.0
  0
ARC
  5
5601
330
1A
100
AcDbEntity
  8
SEIHIN
100
AcDbCircle
 10
174.9210895419323
 20
365.199168232653
 30
0.0
 40
2.0
100
AcDbArc
 50
224.999999999997
 51
270.0000000000001
  0
LINE
  5
5604
330
1A
100
AcDbEntity
  8
SEIHIN
100
AcDbLine
 10
193.7078861063364
 20
361.199168232653
 30
0.0
 11
193.7078861063364
 21
352.1991682326525
 31
0.0
  0
DIMENSION
  5
560C
330
1A
100
AcDbEntity
  8
SUNPOU
100
AcDbDimension
  2
*D89
 10
318.8063306100866
 20
405.1991682326529
 30
0.0
 11
312.8063306100866
 21
447.699168232653
 31
0.0
 70
    32
 71
     5
 42
85.0
  3
STANDARD
100
AcDbAlignedDimension
 13
280.6368182944711
 23
490.199168232653
 33
0.0
 14
302.603592618465
 24
405.1991682326529
 34
0.0
 50
90.0
100
AcDbRotatedDimension
  0
DIMENSION
  5
560D
330
1A
100
AcDbEntity
  8
SUNPOU
100
AcDbDimension
  2
*D88
 10
318.8063306100866
 20
350.199168232653
 30
0.0
 11
312.8063306100866
 21
377.6991682326531
 31
0.0
 70
    32
 71
     5
 42
55.0
  3
STANDARD
100
AcDbAlignedDimension
 13
302.603592618465
 23
405.1991682326529
 33
0.0
 14
280.6368182944711
 24
350.199168232653
 34
0.0
 50
90.0
100
AcDbRotatedDimension
  0
DIMENSION
  5
560E
330
1A
100
AcDbEntity
  8
SUNPOU
100
AcDbDimension
  2
*D87
 10
334.519967754336
 20
350.199168232653
 30
0.0
 11
328.519967754336
 21
420.199168232653
 31
0.0
 70
    32
 71
     5
 42
140.0
  3
STANDARD
100
AcDbAlignedDimension
 13
280.6368182944711
 23
490.199168232653
 33
0.0
 14
280.6368182944711
 24
350.199168232653
 34
0.0
 50
90.0
100
AcDbRotatedDimension
  0
DIMENSION
  5
560F
330
1A
100
AcDbEntity
  8
SUNPOU
 48
5.0
100
AcDbDimension
  2
*D86
 10
139.3940871899376
 20
405.1991682326529
 30
0.0
 11
134.3940871899375
 21
435.199168232653
 31
0.0
 70
    32
 71
     5
 42
60.0
  3
STANDARD
100
AcDbAlignedDimension
 13
173.4280968613166
 23
465.199168232653
 33
0.0
 14
148.0127951896463
 24
405.1991682326529
 34
0.0
 50
90.0
100
AcDbRotatedDimension
1001
ACAD
1000
DSTYLE
1002
{
1070
    41
1040
7.0
1070
    42
1040
6.0
1070
    43
1040
14.0
1070
   141
1040
150.0
1070
   147
1040
2.0
1070
   172
1070
     1
1070
   173
1070
     1
1070
   176
1070
     4
1070
   177
1070
     4
1070
   178
1070
     4
1070
   272
1070
     2
1070
   343
1005
6D
1070
   344
1005
6D
1002
}
  0
DIMENSION
  5
5610
330
1A
100
AcDbEntity
  8
SUNPOU
 48
5.0
100
AcDbDimension
  2
*D85
 10
139.3940871899376
 20
375.199168232653
 30
0.0
 11
134.3940871899375
 21
390.1991682326531
 31
0.0
 70
    32
 71
     5
 42
30.0
  3
STANDARD
100
AcDbAlignedDimension
 13
148.0127951896463
 23
405.1991682326529
 33
0.0
 14
174.687368259925
 24
375.199168232653
 34
0.0
 50
90.0
100
AcDbRotatedDimension
1001
ACAD
1000
DSTYLE
1002
{
1070
    41
1040
7.0
1070
    42
1040
6.0
1070
    43
1040
14.0
1070
   141
1040
150.0
1070
   147
1040
2.0
1070
   172
1070
     1
1070
   173
1070
     1
1070
   176
1070
     4
1070
   177
1070
     4
1070
   178
1070
     4
1070
   272
1070
     2
1070
   343
1005
6D
1070
   344
1005
6D
1002
}
  0
DIMENSION
  5
5611
330
1A
100
AcDbEntity
  8
SUNPOU
100
AcDbDimension
  2
*D84
 10
270.7078861063365
 20
503.8421001460752
 30
0.0
 11
225.7078861063364
 21
509.8421001460752
 31
0.0
 70
    32
 71
     5
 42
90.0
  3
STANDARD
100
AcDbAlignedDimension
 13
180.7078861063364
 23
472.4404532162076
 33
0.0
 14
270.7078861063365
 24
472.4404532162076
 34
0.0
100
AcDbRotatedDimension
  0
LINE
  5
5691
102
{ACAD_REACTORS
330
5697
330
56EA
330
56EB
102
}
330
1A
100
AcDbEntity
  8
SEIHIN
100
AcDbLine
 10
162.7078861063361
 20
412.7187978968338
 30
0.0
 11
162.7078861063362
 21
420.2187978968337
 31
0.0
  0
LINE
  5
5692
102
{ACAD_REACTORS
330
5697
330
56EA
330
56EB
102
}
330
1A
100
AcDbEntity
  8
SEIHIN
100
AcDbLine
 10
162.7078861063362
 20
427.7187978968335
 30
0.0
 11
162.7078861063362
 21
420.2187978968336
 31
0.0
  0
ARC
  5
5693
102
{ACAD_REACTORS
330
5697
330
56EA
330
56EB
102
}
330
1A
100
AcDbEntity
  8
SEIHIN
100
AcDbCircle
 10
160.2078861063362
 20
427.7187978968335
 30
0.0
 40
2.5
100
AcDbArc
 50
0.000000000000007
 51
180.0
  0
LINE
  5
5694
102
{ACAD_REACTORS
330
5697
330
56EA
330
56EB
102
}
330
1A
100
AcDbEntity
  8
SEIHIN
100
AcDbLine
 10
157.7078861063361
 20
427.7187978968335
 30
0.0
 11
157.7078861063362
 21
420.2187978968336
 31
0.0
  0
LINE
  5
5695
102
{ACAD_REACTORS
330
5697
330
56EA
330
56EB
102
}
330
1A
100
AcDbEntity
  8
SEIHIN
100
AcDbLine
 10
157.707886106336
 20
412.7187978968339
 30
0.0
 11
157.7078861063362
 21
420.2187978968338
 31
0.0
  0
ARC
  5
5696
102
{ACAD_REACTORS
330
5697
330
56EA
330
56EB
102
}
330
1A
100
AcDbEntity
  8
SEIHIN
100
AcDbCircle
 10
160.207886106336
 20
412.7187978968339
 30
0.0
 40
2.5
100
AcDbArc
 50
179.9999999999992
 51
359.9999999999992
  0
LINE
  5
5699
102
{ACAD_REACTORS
330
56EA
330
56EB
102
}
330
1A
100
AcDbEntity
  8
SEIHIN
100
AcDbLine
 10
160.207886106336
 20
410.2187978968339
 30
0.0
 11
163.2078861063367
 21
410.2187978968339
 31
0.0
  0
LINE
  5
569A
102
{ACAD_REACTORS
330
56EA
330
56EB
102
}
330
1A
100
AcDbEntity
  8
SEIHIN
100
AcDbLine
 10
161.2078861063366
 20
410.2187978968339
 30
0.0
 11
161.2078861063366
 21
388.199168232653
 31
0.0
  0
LINE
  5
569B
102
{ACAD_REACTORS
330
56EA
330
56EB
102
}
330
1A
100
AcDbEntity
  8
SEIHIN
100
AcDbLine
 10
163.2078861063368
 20
410.2187978968339
 30
0.0
 11
163.2078861063365
 21
388.199168232653
 31
0.0
  0
ARC
  5
569C
102
{ACAD_REACTORS
330
56AB
102
}
330
1A
100
AcDbEntity
  8
SEIHIN
100
AcDbCircle
 10
291.2078861063367
 20
427.7187978968335
 30
0.0
 40
2.5
100
AcDbArc
 50
0.000000000000007
 51
180.0
  0
LINE
  5
569D
102
{ACAD_REACTORS
330
56AB
102
}
330
1A
100
AcDbEntity
  8
SEIHIN
100
AcDbLine
 10
288.7078861063367
 20
427.7187978968335
 30
0.0
 11
288.7078861063367
 21
420.2187978968336
 31
0.0
  0
LINE
  5
569E
330
1A
100
AcDbEntity
  8
SEIHIN
100
AcDbLine
 10
284.7078861063358
 20
430.1991682326529
 30
0.0
 11
290.8952153574878
 21
430.1991682326533
 31
0.0
  0
LINE
  5
569F
102
{ACAD_REACTORS
330
56AB
102
}
330
1A
100
AcDbEntity
  8
SEIHIN
100
AcDbLine
 10
288.7078861063368
 20
412.7187978968338
 30
0.0
 11
288.7078861063367
 21
420.2187978968337
 31
0.0
  0
LINE
  5
56A0
102
{ACAD_REACTORS
330
56AB
102
}
330
1A
100
AcDbEntity
  8
SEIHIN
100
AcDbLine
 10
293.7078861063368
 20
427.7187978968335
 30
0.0
 11
293.7078861063367
 21
420.2187978968336
 31
0.0
  0
LINE
  5
56A1
102
{ACAD_REACTORS
330
56AB
102
}
330
1A
100
AcDbEntity
  8
SEIHIN
100
AcDbLine
 10
293.7078861063369
 20
412.7187978968339
 30
0.0
 11
293.7078861063367
 21
420.2187978968338
 31
0.0
  0
ARC
  5
56A2
102
{ACAD_REACTORS
330
56AB
102
}
330
1A
100
AcDbEntity
  8
SEIHIN
100
AcDbCircle
 10
291.2078861063368
 20
412.7187978968339
 30
0.0
 40
2.5
100
AcDbArc
 50
180.0000000000008
 51
0.0000000000007958
  0
LINE
  5
56A3
330
1A
100
AcDbEntity
  8
SEIHIN
  6
Continuous
 62
     3
 48
5.0
100
AcDbLine
 10
293.2078861063367
 20
418.6991682326528
 30
0.0
 11
293.7078861063367
 21
418.6992015659862
 31
0.0
  0
LINE
  5
56A4
330
1A
100
AcDbEntity
  8
SEIHIN
  6
Continuous
 62
     3
 48
5.0
100
AcDbLine
 10
293.2078861063367
 20
421.6991682326527
 30
0.0
 11
293.7078861063366
 21
421.6992015659863
 31
0.0
  0
ARC
  5
56A5
330
1A
100
AcDbEntity
  8
SEIHIN
  6
Continuous
 62
     3
 48
5.0
100
AcDbCircle
 10
293.2078861063367
 20
420.1991682326528
 30
0.0
 40
1.5
100
AcDbArc
 50
90.0
 51
270.0
  0
LINE
  5
56A6
330
1A
100
AcDbEntity
  8
SEIHIN
100
AcDbLine
 10
288.207886106336
 20
410.2187978968339
 30
0.0
 11
288.2078861063363
 21
388.199168232653
 31
0.0
  0
LINE
  5
56A7
330
1A
100
AcDbEntity
  8
SEIHIN
100
AcDbLine
 10
290.2078861063362
 20
410.2187978968339
 30
0.0
 11
290.2078861063362
 21
388.199168232653
 31
0.0
  0
LINE
  5
56A8
330
1A
100
AcDbEntity
  8
SEIHIN
100
AcDbLine
 10
291.2078861063368
 20
410.2187978968339
 30
0.0
 11
288.2078861063362
 21
410.2187978968339
 31
0.0
  0
ARC
  5
56A9
330
1A
100
AcDbEntity
  8
SEIHIN
100
AcDbCircle
 10
292.2078861063362
 20
412.1991682326529
 30
0.0
 40
2.0
100
AcDbArc
 50
255.0985086653775
 51
270.0000000000002
  0
LINE
  5
56AA
330
1A
100
AcDbEntity
  8
SEIHIN
100
AcDbLine
 10
292.2078861063362
 20
410.1991682326529
 30
0.0
 11
293.7078861063365
 21
410.199168232653
 31
0.0
  0
LINE
  5
5713
102
{ACAD_REACTORS
330
5724
102
}
330
1A
100
AcDbEntity
  8
SEIHIN
100
AcDbLine
 10
233.2078861063365
 20
357.199168232653
 30
0.0
 11
225.7078861063366
 21
357.199168232653
 31
0.0
  0
LINE
  5
5714
102
{ACAD_REACTORS
330
5724
102
}
330
1A
100
AcDbEntity
  8
SEIHIN
100
AcDbLine
 10
218.2078861063368
 20
357.199168232653
 30
0.0
 11
225.7078861063367
 21
357.199168232653
 31
0.0
  0
ARC
  5
5715
102
{ACAD_REACTORS
330
5724
102
}
330
1A
100
AcDbEntity
  8
SEIHIN
100
AcDbCircle
 10
233.2078861063365
 20
354.6991682326531
 30
0.0
 40
2.5
100
AcDbArc
 50
270.0
 51
89.99999999999998
  0
LINE
  5
5716
102
{ACAD_REACTORS
330
5724
102
}
330
1A
100
AcDbEntity
  8
SEIHIN
100
AcDbLine
 10
233.2078861063365
 20
352.199168232653
 30
0.0
 11
225.7078861063366
 21
352.1991682326531
 31
0.0
  0
LINE
  5
5717
102
{ACAD_REACTORS
330
5724
102
}
330
1A
100
AcDbEntity
  8
SEIHIN
100
AcDbLine
 10
218.2078861063368
 20
352.1991682326529
 30
0.0
 11
225.7078861063368
 21
352.1991682326531
 31
0.0
  0
ARC
  5
5718
102
{ACAD_REACTORS
330
5724
102
}
330
1A
100
AcDbEntity
  8
SEIHIN
100
AcDbCircle
 10
218.2078861063368
 20
354.6991682326529
 30
0.0
 40
2.5
100
AcDbArc
 50
90.00000000000079
 51
270.0000000000008
  0
LINE
  5
5719
330
1A
100
AcDbEntity
  8
SEIHIN
100
AcDbLine
 10
215.7078861063368
 20
354.6991682326529
 30
0.0
 11
215.7078861063368
 21
357.6991682326535
 31
0.0
  0
LINE
  5
571A
330
1A
100
AcDbEntity
  8
SEIHIN
100
AcDbLine
 10
215.6882564421559
 20
353.6991682326535
 30
0.0
 11
215.688256442156
 21
352.1991682326533
 31
0.0
  0
ARC
  5
571B
330
1A
100
AcDbEntity
  8
SEIHIN
100
AcDbCircle
 10
217.6882564421558
 20
353.6991682326536
 30
0.0
 40
2.0
100
AcDbArc
 50
165.0985086653775
 51
180.0000000000003
  0
LINE
  5
571C
330
1A
100
AcDbEntity
  8
SEIHIN
  6
Continuous
 62
     3
 48
5.0
100
AcDbLine
 10
224.1882564421558
 20
352.6991682326531
 30
0.0
 11
224.1882897754892
 21
352.1991682326531
 31
0.0
  0
LINE
  5
571D
330
1A
100
AcDbEntity
  8
SEIHIN
  6
Continuous
 62
     3
 48
5.0
100
AcDbLine
 10
227.1882564421558
 20
352.6991682326531
 30
0.0
 11
227.1882897754892
 21
352.1991682326532
 31
0.0
  0
ARC
  5
571E
330
1A
100
AcDbEntity
  8
SEIHIN
  6
Continuous
 62
     3
 48
5.0
100
AcDbCircle
 10
225.6882564421557
 20
352.6991682326531
 30
0.0
 40
1.5
100
AcDbArc
 50
0.000000000000007
 51
180.0
  0
LINE
  5
571F
330
1A
100
AcDbEntity
  8
SEIHIN
100
AcDbLine
 10
215.7078861063368
 20
357.6991682326537
 30
0.0
 11
193.7078861063364
 21
357.6991682326534
 31
0.0
  0
LINE
  5
5720
330
1A
100
AcDbEntity
  8
SEIHIN
100
AcDbLine
 10
215.7078861063368
 20
355.6991682326535
 30
0.0
 11
193.7078861063364
 21
355.6991682326535
 31
0.0
  0
LINE
  5
5721
330
1A
100
AcDbEntity
  8
SEIHIN
100
AcDbLine
 10
235.6882564421559
 20
361.199168232654
 30
0.0
 11
235.6882564421562
 21
355.011838981502
 31
0.0
  0
LINE
  5
5722
330
1A
100
AcDbEntity
  8
CENTER L
 48
5.0
100
AcDbLine
 10
225.7078861063364
 20
347.8674644032379
 30
0.0
 11
225.7078861063365
 21
492.7890469226621
 31
0.0
  0
LINE
  5
5742
330
1A
100
AcDbEntity
  8
SEIHIN
100
AcDbLine
 10
215.7078861063365
 20
484.7384275610133
 30
0.0
 11
193.7078861063361
 21
484.7384275610132
 31
0.0
  0
LINE
  5
5743
330
1A
100
AcDbEntity
  8
SEIHIN
100
AcDbLine
 10
215.7078861063365
 20
482.7384275610131
 30
0.0
 11
193.7078861063361
 21
482.7384275610134
 31
0.0
  0
LINE
  5
5744
330
1A
100
AcDbEntity
  8
SEIHIN
100
AcDbLine
 10
193.7078861063361
 20
479.2384275610138
 30
0.0
 11
193.7078861063361
 21
488.2384275610142
 31
0.0
  0
ARC
  5
5745
330
1A
100
AcDbEntity
  8
SEIHIN
  6
Continuous
 62
     3
 48
5.0
100
AcDbCircle
 10
225.6882564421553
 20
487.7384275610139
 30
0.0
 40
1.5
100
AcDbArc
 50
180.0000000000003
 51
0.0000000000003165
  0
LINE
  5
5746
330
1A
100
AcDbEntity
  8
SEIHIN
  6
Continuous
 62
     3
 48
5.0
100
AcDbLine
 10
227.1882564421554
 20
487.7384275610139
 30
0.0
 11
227.1882897754889
 21
488.2384275610138
 31
0.0
  0
LINE
  5
5747
330
1A
100
AcDbEntity
  8
SEIHIN
  6
Continuous
 62
     3
 48
5.0
100
AcDbLine
 10
224.1882564421554
 20
487.7384275610139
 30
0.0
 11
224.1882897754888
 21
488.2384275610139
 31
0.0
  0
ARC
  5
5748
330
1A
100
AcDbEntity
  8
SEIHIN
100
AcDbCircle
 10
217.6882564421555
 20
486.7384275610134
 30
0.0
 40
2.0
100
AcDbArc
 50
180.0
 51
194.9014913346228
  0
LINE
  5
5749
330
1A
100
AcDbEntity
  8
SEIHIN
100
AcDbLine
 10
215.6882564421555
 20
486.7384275610134
 30
0.0
 11
215.6882564421556
 21
488.2384275610136
 31
0.0
  0
LINE
  5
574A
330
1A
100
AcDbEntity
  8
SEIHIN
100
AcDbLine
 10
215.7078861063365
 20
485.7384275610139
 30
0.0
 11
215.7078861063365
 21
482.7384275610134
 31
0.0
  0
ARC
  5
574B
102
{ACAD_REACTORS
330
5752
102
}
330
1A
100
AcDbEntity
  8
SEIHIN
100
AcDbCircle
 10
218.2078861063364
 20
485.738427561014
 30
0.0
 40
2.5
100
AcDbArc
 50
89.99999999999953
 51
269.9999999999995
  0
LINE
  5
574C
102
{ACAD_REACTORS
330
5752
102
}
330
1A
100
AcDbEntity
  8
SEIHIN
100
AcDbLine
 10
218.2078861063365
 20
488.238427561014
 30
0.0
 11
225.7078861063364
 21
488.2384275610139
 31
0.0
  0
LINE
  5
574D
102
{ACAD_REACTORS
330
5752
102
}
330
1A
100
AcDbEntity
  8
SEIHIN
100
AcDbLine
 10
233.2078861063362
 20
488.238427561014
 30
0.0
 11
225.7078861063362
 21
488.2384275610139
 31
0.0
  0
ARC
  5
574E
102
{ACAD_REACTORS
330
5752
102
}
330
1A
100
AcDbEntity
  8
SEIHIN
100
AcDbCircle
 10
233.2078861063361
 20
485.7384275610139
 30
0.0
 40
2.5
100
AcDbArc
 50
270.0000000000003
 51
90.00000000000033
  0
LINE
  5
574F
102
{ACAD_REACTORS
330
5752
102
}
330
1A
100
AcDbEntity
  8
SEIHIN
100
AcDbLine
 10
218.2078861063364
 20
483.238427561014
 30
0.0
 11
225.7078861063364
 21
483.2384275610139
 31
0.0
  0
LINE
  5
5750
102
{ACAD_REACTORS
330
5752
102
}
330
1A
100
AcDbEntity
  8
SEIHIN
100
AcDbLine
 10
233.2078861063362
 20
483.2384275610139
 30
0.0
 11
225.7078861063362
 21
483.2384275610139
 31
0.0
  0
LINE
  5
5751
330
1A
100
AcDbEntity
  8
SEIHIN
100
AcDbLine
 10
235.6882564421556
 20
479.238427561013
 30
0.0
 11
235.6882564421559
 21
485.425756812165
 31
0.0
  0
ARC
  5
576A
330
1A
100
AcDbEntity
  8
SEIHIN
100
AcDbCircle
 10
225.7078861063365
 20
420.2187978968335
 30
0.0
 40
27.3
100
AcDbArc
 50
129.9010637670864
 51
50.09893623291334
  0
VIEWPORT
  5
22
102
{ACAD_XDICTIONARY
360
577D
102
}
330
17
100
AcDbEntity
 67
     1
  8
0
100
AcDbViewport
 10
313.6808219178083
 20
148.5
 30
0.0
 40
627.3616438356165
 41
297.0
 68
     2
 69
     1
 12
313.6808219178083
 22
148.5
 13
0.0
 23
0.0
 14
1.0
 24
1.0
 15
10.0
 25
10.0
 16
0.0
 26
0.0
 36
1.0
 17
0.0
 27
0.0
 37
0.0
 42
50.0
 43
0.0
 44
0.0
 45
297.0
 50
0.0
 51
0.0
 72
   100
 90
    32768
  1

281
     0
 71
     1
 74
     0
110
0.0
120
0.0
130
0.0
111
1.0
121
0.0
131
0.0
112
0.0
122
1.0
132
0.0
 79
     0
146
0.0
  0
VIEWPORT
  5
64
102
{ACAD_XDICTIONARY
360
577F
102
}
330
17
100
AcDbEntity
 67
     1
  8
VIEWPORT
100
AcDbViewport
 10
210.0
 20
148.5
 30
0.0
 40
420.0
 41
297.0
 68
     1
 69
     2
 12
420.0
 22
297.0
 13
0.0
 23
0.0
 14
10.0
 24
10.0
 15
0.0
 25
0.0
 16
0.0
 26
0.0
 36
1.0
 17
0.0
 27
0.0
 37
0.0
 42
50.0
 43
0.0
 44
0.0
 45
605.8799999999998
 50
0.0
 51
0.0
 72
   100
 90
    32768
  1

281
     0
 71
     1
 74
     0
110
0.0
120
0.0
130
0.0
111
1.0
121
0.0
131
0.0
112
0.0
122
1.0
132
0.0
 79
     0
146
0.0
  0
ENDSEC
  0
SECTION
  2
OBJECTS
  0
DICTIONARY
  5
C
330
0
100
AcDbDictionary
281
     1
  3
ACAD_COLOR
350
3857
  3
ACAD_GROUP
350
D
  3
ACAD_LAYOUT
350
14C
  3
ACAD_MATERIAL
350
3856
  3
ACAD_MLINESTYLE
350
E
  3
ACAD_PLOTSETTINGS
350
14D
  3
ACAD_PLOTSTYLENAME
350
14A
  3
ACDBHEADERROUNDTRIPXREC
350
577A
  3
AcDbVariableDictionary
350
5776
  0
DICTIONARY
  5
CFB
330
1A
100
AcDbDictionary
280
     1
281
     1
  3
ACAD_LAYOUTSELFREF
360
3831
  0
DICTIONARY
  5
CF9
330
17
100
AcDbDictionary
280
     1
281
     1
  3
ACAD_LAYOUTSELFREF
360
3830
  0
DICTIONARY
  5
577D
330
22
100
AcDbDictionary
280
     1
281
     1
  3
ACAD_XREC_ROUNDTRIP
360
577E
  0
DICTIONARY
  5
577F
330
64
100
AcDbDictionary
280
     1
281
     1
  3
ACAD_XREC_ROUNDTRIP
360
5780
  0
DICTIONARY
  5
3857
102
{ACAD_REACTORS
330
C
102
}
330
C
100
AcDbDictionary
281
     1
  0
DICTIONARY
  5
D
102
{ACAD_REACTORS
330
C
102
}
330
C
100
AcDbDictionary
281
     1
  3
*A1
350
5690
  3
*A10
350
56AB
  3
*A11
350
56BB
  3
*A12
350
56CB
  3
*A13
350
56E9
  3
*A14
350
56EA
  3
*A15
350
56EB
  3
*A2
350
56FC
  3
*A3
350
56FD
  3
*A4
350
56FE
  3
*A5
350
5710
  3
*A6
350
5712
  3
*A7
350
5724
  3
*A8
350
5752
  3
*A9
350
5697
  0
DICTIONARY
  5
14C
102
{ACAD_REACTORS
330
C
102
}
330
C
100
AcDbDictionary
281
     1
  3
Model
350
14E
  3
ﾚｲｱｳﾄ1
350
14F
  0
DICTIONARY
  5
3856
102
{ACAD_REACTORS
330
C
102
}
330
C
100
AcDbDictionary
281
     1
  0
DICTIONARY
  5
E
102
{ACAD_REACTORS
330
C
102
}
330
C
100
AcDbDictionary
281
     1
  3
STANDARD
350
13
  0
DICTIONARY
  5
14D
102
{ACAD_REACTORS
330
C
102
}
330
C
100
AcDbDictionary
281
     1
  0
ACDBDICTIONARYWDFLT
  5
14A
102
{ACAD_REACTORS
330
C
102
}
330
C
100
AcDbDictionary
281
     1
  3
Normal
350
14B
100
AcDbDictionaryWithDefault
340
14B
1001
ACAD
1000
TREAT_AS_HARD
1070
     0
1000
TREAT_AS_HARD
1070
     0
1000
TREAT_AS_HARD
1070
     0
1000
TREAT_AS_HARD
1070
     0
1000
TREAT_AS_HARD
1070
     0
1000
TREAT_AS_HARD
1070
     0
1000
TREAT_AS_HARD
1070
     0
1000
TREAT_AS_HARD
1070
     0
  0
DICTIONARY
  5
577A
102
{ACAD_REACTORS
330
C
102
}
330
C
100
AcDbDictionary
281
     1
  3
COLORDICT
350
577C
  3
MATERIALDICT
350
577B
  0
DICTIONARY
  5
5776
102
{ACAD_REACTORS
330
C
102
}
330
C
100
AcDbDictionary
281
     1
  3
DIMASSOC
350
5777
  3
PROJECTNAME
350
5778
  0
XRECORD
  5
3831
102
{ACAD_REACTORS
330
CFB
102
}
330
CFB
100
AcDbXrecord
280
     1
340
1A
  0
XRECORD
  5
3830
102
{ACAD_REACTORS
330
CF9
102
}
330
CF9
100
AcDbXrecord
280
     1
340
17
  0
XRECORD
  5
577E
102
{ACAD_REACTORS
330
577D
102
}
330
577D
100
AcDbXrecord
280
     1
102
SHADEPLOT
 70
     0
  0
XRECORD
  5
5780
102
{ACAD_REACTORS
330
577F
102
}
330
577F
100
AcDbXrecord
280
     1
102
SHADEPLOT
 70
     0
  0
GROUP
  5
5690
102
{ACAD_REACTORS
330
D
102
}
330
D
100
AcDbGroup
300

 70
     1
 71
     1
  0
GROUP
  5
56AB
102
{ACAD_REACTORS
330
D
102
}
330
D
100
AcDbGroup
300

 70
     1
 71
     1
340
569F
340
569D
340
569C
340
56A0
340
56A1
340
56A2
  0
GROUP
  5
56BB
102
{ACAD_REACTORS
330
D
102
}
330
D
100
AcDbGroup
300

 70
     1
 71
     1
  0
GROUP
  5
56CB
102
{ACAD_REACTORS
330
D
102
}
330
D
100
AcDbGroup
300

 70
     1
 71
     1
  0
GROUP
  5
56E9
102
{ACAD_REACTORS
330
D
102
}
330
D
100
AcDbGroup
300

 70
     1
 71
     1
  0
GROUP
  5
56EA
102
{ACAD_REACTORS
330
D
102
}
330
D
100
AcDbGroup
300

 70
     1
 71
     1
340
5699
340
5696
340
5695
340
5694
340
5693
340
5692
340
5691
340
55FE
340
55FD
340
558A
340
5589
340
5588
340
569B
340
569A
340
50F3
  0
GROUP
  5
56EB
102
{ACAD_REACTORS
330
D
102
}
330
D
100
AcDbGroup
300

 70
     1
 71
     1
340
5693
340
5692
340
5600
340
5691
340
5694
340
5695
340
5696
340
5699
340
55FE
340
55FD
340
558A
340
5589
340
5588
340
569B
340
569A
340
50F3
  0
GROUP
  5
56FC
102
{ACAD_REACTORS
330
D
102
}
330
D
100
AcDbGroup
300

 70
     1
 71
     1
  0
GROUP
  5
56FD
102
{ACAD_REACTORS
330
D
102
}
330
D
100
AcDbGroup
300

 70
     1
 71
     1
  0
GROUP
  5
56FE
102
{ACAD_REACTORS
330
D
102
}
330
D
100
AcDbGroup
300

 70
     1
 71
     1
  0
GROUP
  5
5710
102
{ACAD_REACTORS
330
D
102
}
330
D
100
AcDbGroup
300

 70
     1
 71
     1
  0
GROUP
  5
5712
102
{ACAD_REACTORS
330
D
102
}
330
D
100
AcDbGroup
300

 70
     1
 71
     1
  0
GROUP
  5
5724
102
{ACAD_REACTORS
330
D
102
}
330
D
100
AcDbGroup
300

 70
     1
 71
     1
340
5714
340
5713
340
5715
340
5716
340
5717
340
5718
  0
GROUP
  5
5752
102
{ACAD_REACTORS
330
D
102
}
330
D
100
AcDbGroup
300

 70
     1
 71
     1
340
574F
340
5750
340
574E
340
574D
340
574C
340
574B
  0
GROUP
  5
5697
102
{ACAD_REACTORS
330
D
102
}
330
D
100
AcDbGroup
300

 70
     1
 71
     1
340
5691
340
5692
340
5693
340
5694
340
5695
340
5696
  0
LAYOUT
  5
14E
102
{ACAD_XDICTIONARY
360
5781
102
}
102
{ACAD_REACTORS
330
14C
102
}
330
14C
100
AcDbPlotSettings
  1

  2
Acrobat Distiller
  4
A3
  6

 40
3.174999952316284
 41
3.174999952316284
 42
3.17498779296875
 43
3.17498779296875
 44
297.0318298339844
 45
420.1583251953125
 46
7.0
 47
7.0
 48
-3.141893428214643
 49
2.226765358008606
140
826.862778806495
141
580.5215870209385
142
1.0
143
2.043471294016175
 70
 11952
 72
     1
 73
     1
 74
     2
  7
print.ctb
 75
     0
147
0.4893633705196959
148
0.0
149
0.0
100
AcDbLayout
  1
Model
 70
     1
 71
     0
 10
0.0
 20
0.0
 11
12.0
 21
9.0
 12
0.0
 22
0.0
 32
0.0
 14
0.0
 24
0.0
 34
0.0
 15
0.0
 25
0.0
 35
0.0
146
0.0
 13
0.0
 23
0.0
 33
0.0
 16
1.0
 26
0.0
 36
0.0
 17
0.0
 27
1.0
 37
0.0
 76
     0
330
1A
  0
LAYOUT
  5
14F
102
{ACAD_XDICTIONARY
360
5783
102
}
102
{ACAD_REACTORS
330
14C
102
}
330
14C
100
AcDbPlotSettings
  1

  2
Canon LBP-A404 LIPS3
  4

  6

 40
0.0
 41
0.0
 42
0.0
 43
0.0
 44
0.0
 45
0.0
 46
0.0
 47
0.0
 48
0.0
 49
0.0
140
0.0
141
0.0
142
1.0
143
1.0
 70
   688
 72
     0
 73
     0
 74
     5
  7
print.ctb
 75
    16
147
1.0
148
0.0
149
0.0
100
AcDbLayout
  1
ﾚｲｱｳﾄ1
 70
     1
 71
     1
 10
0.0
 20
0.0
 11
420.0
 21
297.0
 12
0.0
 22
0.0
 32
0.0
 14
0.0
 24
0.0
 34
0.0
 15
420.0
 25
297.0
 35
0.0
146
0.0
 13
0.0
 23
0.0
 33
0.0
 16
1.0
 26
0.0
 36
0.0
 17
0.0
 27
1.0
 37
0.0
 76
     0
330
17
331
64
  0
MLINESTYLE
  5
13
102
{ACAD_REACTORS
330
E
102
}
330
E
100
AcDbMlineStyle
  2
STANDARD
 70
     0
  3

 62
     0
 51
90.0
 52
90.0
 71
     2
 49
0.5
 62
   256
  6
BYLAYER
 49
-0.5
 62
   256
  6
BYLAYER
  0
ACDBPLACEHOLDER
  5
14B
102
{ACAD_REACTORS
330
14A
102
}
330
14A
  0
XRECORD
  5
577C
102
{ACAD_REACTORS
330
577A
102
}
330
577A
100
AcDbXrecord
280
     1
340
3857
  0
XRECORD
  5
577B
102
{ACAD_REACTORS
330
577A
102
}
330
577A
100
AcDbXrecord
280
     1
340
3856
  0
DICTIONARYVAR
  5
5777
102
{ACAD_REACTORS
330
5776
102
}
330
5776
100
DictionaryVariables
280
     0
  1
1
  0
DICTIONARYVAR
  5
5778
102
{ACAD_REACTORS
330
5776
102
}
330
5776
100
DictionaryVariables
280
     0
  1

  0
DICTIONARY
  5
5781
330
14E
100
AcDbDictionary
280
     1
281
     1
  3
ACAD_XREC_ROUNDTRIP
360
5782
  0
DICTIONARY
  5
5783
330
14F
100
AcDbDictionary
280
     1
281
     1
  3
ACAD_XREC_ROUNDTRIP
360
5784
  0
XRECORD
  5
5782
102
{ACAD_REACTORS
330
5781
102
}
330
5781
100
AcDbXrecord
280
     1
102
SHADEPLOT
 70
     0
102
SHADEPLOTRESLEVEL
 70
     2
102
SHADEPLOTCUSTOMDPI
 70
   300
  0
XRECORD
  5
5784
102
{ACAD_REACTORS
330
5783
102
}
330
5783
100
AcDbXrecord
280
     1
102
SHADEPLOT
 70
     0
102
SHADEPLOTRESLEVEL
 70
     2
102
SHADEPLOTCUSTOMDPI
 70
   300
  0
ENDSEC
  0
EOF
