  0
SECTION
  2
HEADER
  9
$ACADVER
  1
AC1015
  9
$ACADMAINTVER
 70
    20
  9
$DWGCODEPAGE
  3
ANSI_932
  9
$INSBASE
 10
0.0
 20
0.0
 30
0.0
  9
$EXTMIN
 10
-0.0256328098773793
 20
-0.0755457999653118
 30
-0.0015258207003583
  9
$EXTMAX
 10
797.6000995626677
 20
551.6431754181371
 30
0.0000000349246037
  9
$LIMMIN
 10
0.0
 20
0.0
  9
$LIMMAX
 10
840.0
 20
594.0
  9
$ORTHOMODE
 70
     0
  9
$REGENMODE
 70
     1
  9
$FILLMODE
 70
     1
  9
$QTEXTMODE
 70
     0
  9
$MIRRTEXT
 70
     1
  9
$LTSCALE
 40
1.0
  9
$ATTMODE
 70
     1
  9
$TEXTSIZE
 40
5.0
  9
$TRACEWID
 40
1.0
  9
$TEXTSTYLE
  7
MSｺ_ｼｯｸ
  9
$CLAYER
  8
SEIHIN
  9
$CELTYPE
  6
BYLAYER
  9
$CECOLOR
 62
     3
  9
$CELTSCALE
 40
1.0
  9
$DISPSILH
 70
     0
  9
$DIMSCALE
 40
1.0
  9
$DIMASZ
 40
4.0
  9
$DIMEXO
 40
3.0
  9
$DIMDLI
 40
9.0
  9
$DIMRND
 40
0.0
  9
$DIMDLE
 40
0.0
  9
$DIMEXE
 40
3.0
  9
$DIMTP
 40
0.0
  9
$DIMTM
 40
0.0
  9
$DIMTXT
 40
6.0
  9
$DIMCEN
 40
0.0
  9
$DIMTSZ
 40
0.0
  9
$DIMTOL
 70
     0
  9
$DIMLIM
 70
     0
  9
$DIMTIH
 70
     0
  9
$DIMTOH
 70
     0
  9
$DIMSE1
 70
     0
  9
$DIMSE2
 70
     0
  9
$DIMTAD
 70
     3
  9
$DIMZIN
 70
     0
  9
$DIMBLK
  1
OPEN
  9
$DIMASO
 70
     1
  9
$DIMSHO
 70
     1
  9
$DIMPOST
  1

  9
$DIMAPOST
  1

  9
$DIMALT
 70
     0
  9
$DIMALTD
 70
     2
  9
$DIMALTF
 40
25.4
  9
$DIMLFAC
 40
1.0
  9
$DIMTOFL
 70
     0
  9
$DIMTVP
 40
0.0
  9
$DIMTIX
 70
     0
  9
$DIMSOXD
 70
     0
  9
$DIMSAH
 70
     0
  9
$DIMBLK1
  1

  9
$DIMBLK2
  1

  9
$DIMSTYLE
  2
STANDARD
  9
$DIMCLRD
 70
   256
  9
$DIMCLRE
 70
   256
  9
$DIMCLRT
 70
   256
  9
$DIMTFAC
 40
1.0
  9
$DIMGAP
 40
3.0
  9
$DIMJUST
 70
     0
  9
$DIMSD1
 70
     0
  9
$DIMSD2
 70
     0
  9
$DIMTOLJ
 70
     1
  9
$DIMTZIN
 70
     0
  9
$DIMALTZ
 70
     0
  9
$DIMALTTZ
 70
     0
  9
$DIMUPT
 70
     0
  9
$DIMDEC
 70
     0
  9
$DIMTDEC
 70
     0
  9
$DIMALTU
 70
     2
  9
$DIMALTTD
 70
     2
  9
$DIMTXSTY
  7
STANDARD
  9
$DIMAUNIT
 70
     0
  9
$DIMADEC
 70
     0
  9
$DIMALTRND
 40
0.0
  9
$DIMAZIN
 70
     0
  9
$DIMDSEP
 70
    46
  9
$DIMATFIT
 70
     3
  9
$DIMFRAC
 70
     0
  9
$DIMLDRBLK
  1
OPEN
  9
$DIMLUNIT
 70
     2
  9
$DIMLWD
 70
    -2
  9
$DIMLWE
 70
    -2
  9
$DIMTMOVE
 70
     0
  9
$LUNITS
 70
     2
  9
$LUPREC
 70
     4
  9
$SKETCHINC
 40
1.0
  9
$FILLETRAD
 40
0.0
  9
$AUNITS
 70
     0
  9
$AUPREC
 70
     0
  9
$MENU
  1
.
  9
$ELEVATION
 40
0.0
  9
$PELEVATION
 40
0.0
  9
$THICKNESS
 40
0.0
  9
$LIMCHECK
 70
     0
  9
$CHAMFERA
 40
0.0
  9
$CHAMFERB
 40
0.0
  9
$CHAMFERC
 40
40.0
  9
$CHAMFERD
 40
0.0
  9
$SKPOLY
 70
     0
  9
$TDCREATE
 40
2451806.684426273
  9
$TDUCREATE
 40
2451806.309426273
  9
$TDUPDATE
 40
2456608.379008588
  9
$TDUUPDATE
 40
2456608.004008588
  9
$TDINDWG
 40
0.1271625347
  9
$TDUSRTIMER
 40
0.1271621759
  9
$USRTIMER
 70
     1
  9
$ANGBASE
 50
0.0
  9
$ANGDIR
 70
     0
  9
$PDMODE
 70
     0
  9
$PDSIZE
 40
0.0
  9
$PLINEWID
 40
0.0
  9
$SPLFRAME
 70
     0
  9
$SPLINETYPE
 70
     6
  9
$SPLINESEGS
 70
     8
  9
$HANDSEED
  5
4462
  9
$SURFTAB1
 70
     6
  9
$SURFTAB2
 70
     6
  9
$SURFTYPE
 70
     6
  9
$SURFU
 70
     6
  9
$SURFV
 70
     6
  9
$UCSBASE
  2

  9
$UCSNAME
  2

  9
$UCSORG
 10
0.0
 20
0.0
 30
0.0
  9
$UCSXDIR
 10
1.0
 20
0.0
 30
0.0
  9
$UCSYDIR
 10
0.0
 20
1.0
 30
0.0
  9
$UCSORTHOREF
  2

  9
$UCSORTHOVIEW
 70
     0
  9
$UCSORGTOP
 10
0.0
 20
0.0
 30
0.0
  9
$UCSORGBOTTOM
 10
0.0
 20
0.0
 30
0.0
  9
$UCSORGLEFT
 10
0.0
 20
0.0
 30
0.0
  9
$UCSORGRIGHT
 10
0.0
 20
0.0
 30
0.0
  9
$UCSORGFRONT
 10
0.0
 20
0.0
 30
0.0
  9
$UCSORGBACK
 10
0.0
 20
0.0
 30
0.0
  9
$PUCSBASE
  2

  9
$PUCSNAME
  2

  9
$PUCSORG
 10
0.0
 20
0.0
 30
0.0
  9
$PUCSXDIR
 10
1.0
 20
0.0
 30
0.0
  9
$PUCSYDIR
 10
0.0
 20
1.0
 30
0.0
  9
$PUCSORTHOREF
  2

  9
$PUCSORTHOVIEW
 70
     0
  9
$PUCSORGTOP
 10
0.0
 20
0.0
 30
0.0
  9
$PUCSORGBOTTOM
 10
0.0
 20
0.0
 30
0.0
  9
$PUCSORGLEFT
 10
0.0
 20
0.0
 30
0.0
  9
$PUCSORGRIGHT
 10
0.0
 20
0.0
 30
0.0
  9
$PUCSORGFRONT
 10
0.0
 20
0.0
 30
0.0
  9
$PUCSORGBACK
 10
0.0
 20
0.0
 30
0.0
  9
$USERI1
 70
     0
  9
$USERI2
 70
     0
  9
$USERI3
 70
     0
  9
$USERI4
 70
     0
  9
$USERI5
 70
     0
  9
$USERR1
 40
0.0
  9
$USERR2
 40
0.0
  9
$USERR3
 40
0.0
  9
$USERR4
 40
0.0
  9
$USERR5
 40
0.0
  9
$WORLDVIEW
 70
     1
  9
$SHADEDGE
 70
     3
  9
$SHADEDIF
 70
    70
  9
$TILEMODE
 70
     1
  9
$MAXACTVP
 70
    16
  9
$PINSBASE
 10
0.0
 20
0.0
 30
0.0
  9
$PLIMCHECK
 70
     0
  9
$PEXTMIN
 10
0.0
 20
0.0
 30
0.0
  9
$PEXTMAX
 10
420.0
 20
297.0
 30
0.0
  9
$PLIMMIN
 10
0.0
 20
0.0
  9
$PLIMMAX
 10
420.0
 20
297.0
  9
$UNITMODE
 70
     0
  9
$VISRETAIN
 70
     0
  9
$PLINEGEN
 70
     0
  9
$PSLTSCALE
 70
     1
  9
$TREEDEPTH
 70
  3020
  9
$CMLSTYLE
  2
STANDARD
  9
$CMLJUST
 70
     0
  9
$CMLSCALE
 40
1.0
  9
$PROXYGRAPHICS
 70
     1
  9
$MEASUREMENT
 70
     0
  9
$CELWEIGHT
370
    -1
  9
$ENDCAPS
280
     0
  9
$JOINSTYLE
280
     0
  9
$LWDISPLAY
290
     0
  9
$INSUNITS
 70
     0
  9
$HYPERLINKBASE
  1

  9
$STYLESHEET
  1
monochrome.ctb
  9
$XEDIT
290
     1
  9
$CEPSNTYPE
380
     0
  9
$PSTYLEMODE
290
     1
  9
$FINGERPRINTGUID
  2
{A0FDAB65-E34B-4249-AFFB-F913FBB1E9CB}
  9
$VERSIONGUID
  2
{A8798D2B-CCD7-4C74-8AD3-79B07C24F811}
  9
$EXTNAMES
290
     1
  9
$PSVPSCALE
 40
0.0
  9
$OLESTARTUP
290
     0
  0
ENDSEC
  0
SECTION
  2
CLASSES
  0
CLASS
  1
ACDBDICTIONARYWDFLT
  2
AcDbDictionaryWithDefault
  3
ObjectDBX Classes
 90
        0
280
     0
281
     0
  0
CLASS
  1
ACDBPLACEHOLDER
  2
AcDbPlaceHolder
  3
ObjectDBX Classes
 90
        0
280
     0
281
     0
  0
CLASS
  1
LAYOUT
  2
AcDbLayout
  3
ObjectDBX Classes
 90
        0
280
     0
281
     0
  0
CLASS
  1
DICTIONARYVAR
  2
AcDbDictionaryVar
  3
ObjectDBX Classes
 90
        0
280
     0
281
     0
  0
ENDSEC
  0
SECTION
  2
TABLES
  0
TABLE
  2
VPORT
  5
8
330
0
100
AcDbSymbolTable
 70
     2
  0
VPORT
  5
4456
330
8
100
AcDbSymbolTableRecord
100
AcDbViewportTableRecord
  2
*Active
 70
     0
 10
0.0
 20
0.0
 11
1.0
 21
1.0
 12
634.9380319917733
 22
302.5303991196003
 13
0.0
 23
0.0
 14
5.0
 24
5.0
 15
0.0
 25
0.0
 16
0.0
 26
0.0
 36
1.0
 17
0.0
 27
0.0
 37
0.0
 40
752.6616603779479
 41
2.011264080100125
 42
50.0
 43
0.0
 44
0.0
 50
0.0
 51
0.0
 71
     0
 72
   100
 73
     1
 74
     0
 75
     0
 76
     0
 77
     0
 78
     0
281
     0
 65
     1
110
0.0
120
0.0
130
0.0
111
1.0
121
0.0
131
0.0
112
0.0
122
1.0
132
0.0
 79
     0
146
0.0
  0
ENDTAB
  0
TABLE
  2
LTYPE
  5
5
330
0
100
AcDbSymbolTable
 70
     2
  0
LTYPE
  5
14
330
5
100
AcDbSymbolTableRecord
100
AcDbLinetypeTableRecord
  2
BYBLOCK
 70
     0
  3

 72
    65
 73
     0
 40
0.0
  0
LTYPE
  5
15
330
5
100
AcDbSymbolTableRecord
100
AcDbLinetypeTableRecord
  2
BYLAYER
 70
     0
  3

 72
    65
 73
     0
 40
0.0
  0
LTYPE
  5
16
330
5
100
AcDbSymbolTableRecord
100
AcDbLinetypeTableRecord
  2
CONTINUOUS
 70
     0
  3
Solid line
 72
    65
 73
     0
 40
0.0
  0
LTYPE
  5
135
330
5
100
AcDbSymbolTableRecord
100
AcDbLinetypeTableRecord
  2
CENTER
 70
     0
  3
____ _ ____ _ ____ _ ____ _ ____ _ ____ _ ____ 
 72
    65
 73
     4
 40
2.0
 49
1.25
 74
     0
 49
-0.25
 74
     0
 49
0.25
 74
     0
 49
-0.25
 74
     0
  0
ENDTAB
  0
TABLE
  2
LAYER
  5
2
330
0
100
AcDbSymbolTable
 70
     8
  0
LAYER
  5
F
330
2
100
AcDbSymbolTableRecord
100
AcDbLayerTableRecord
  2
0
 70
     0
 62
     7
  6
CONTINUOUS
370
    -3
390
3BDA
  0
LAYER
  5
62
330
2
100
AcDbSymbolTableRecord
100
AcDbLayerTableRecord
  2
VIEWPORT
 70
     0
 62
     7
  6
CONTINUOUS
370
    -3
390
3BDA
  0
LAYER
  5
65
330
2
100
AcDbSymbolTableRecord
100
AcDbLayerTableRecord
  2
ZUWAKU
 70
     0
 62
     7
  6
CONTINUOUS
370
    -3
390
3BDA
  0
LAYER
  5
1BD
330
2
100
AcDbSymbolTableRecord
100
AcDbLayerTableRecord
  2
DEFPOINTS
 70
     0
 62
     7
  6
CONTINUOUS
290
     0
370
    -3
390
3BDA
  0
LAYER
  5
1BF
330
2
100
AcDbSymbolTableRecord
100
AcDbLayerTableRecord
  2
SEIHIN
 70
     0
 62
     3
  6
CONTINUOUS
370
    -3
390
3BDA
  0
LAYER
  5
1C0
330
2
100
AcDbSymbolTableRecord
100
AcDbLayerTableRecord
  2
CENTER_L
 70
     0
 62
     1
  6
CENTER
370
    -3
390
3BDA
  0
LAYER
  5
1C1
330
2
100
AcDbSymbolTableRecord
100
AcDbLayerTableRecord
  2
SUNPOU
 70
     0
 62
     4
  6
CONTINUOUS
370
    -3
390
3BDA
  0
LAYER
  5
DE3
330
2
100
AcDbSymbolTableRecord
100
AcDbLayerTableRecord
  2
MOJI
 70
     0
 62
     2
  6
CONTINUOUS
370
    -3
390
3BDA
  0
ENDTAB
  0
TABLE
  2
STYLE
  5
3
330
0
100
AcDbSymbolTable
 70
     2
  0
STYLE
  5
10
330
3
100
AcDbSymbolTableRecord
100
AcDbTextStyleTableRecord
  2
STANDARD
 70
     0
 40
0.0
 41
1.0
 50
0.0
 71
     0
 42
5.0
  3
TXT
  4
c:\PROGRAM FILES\AUTOCAD LT\ms\bigfont.shx
  0
STYLE
  5
DD6
330
3
100
AcDbSymbolTableRecord
100
AcDbTextStyleTableRecord
  2
MSｺ_ｼｯｸ
 70
     0
 40
0.0
 41
1.0
 50
0.0
 71
     0
 42
5.0
  3

  4

1001
ACAD
1000
MS Gothic
1071
    32817
  0
ENDTAB
  0
TABLE
  2
VIEW
  5
6
330
0
100
AcDbSymbolTable
 70
     0
  0
ENDTAB
  0
TABLE
  2
UCS
  5
7
330
0
100
AcDbSymbolTable
 70
     0
  0
ENDTAB
  0
TABLE
  2
APPID
  5
9
330
0
100
AcDbSymbolTable
 70
     1
  0
APPID
  5
11
330
9
100
AcDbSymbolTableRecord
100
AcDbRegAppTableRecord
  2
ACAD
 70
     0
  0
ENDTAB
  0
TABLE
  2
DIMSTYLE
  5
A
330
0
100
AcDbSymbolTable
 70
     1
100
AcDbDimStyleTable
 71
     1
340
1D
  0
DIMSTYLE
105
1D
102
{ACAD_REACTORS
330
3938
330
399F
330
39AB
330
391D
330
391E
330
391F
330
3920
330
3921
330
3922
330
3981
330
3D17
330
3D16
330
3CFA
330
3CE2
330
3D91
330
3D9E
330
3DAB
330
3D84
102
}
330
A
100
AcDbSymbolTableRecord
100
AcDbDimStyleTableRecord
  2
STANDARD
 70
     0
 41
4.0
 42
3.0
 43
9.0
 44
3.0
 73
     0
 74
     0
 77
     3
140
6.0
141
0.0
147
3.0
176
   256
177
   256
178
   256
271
     0
272
     0
340
10
341
6D
342
6D
  0
ENDTAB
  0
TABLE
  2
BLOCK_RECORD
  5
1
330
0
100
AcDbSymbolTable
 70
    43
  0
BLOCK_RECORD
  5
1A
102
{ACAD_XDICTIONARY
360
CFB
102
}
330
1
100
AcDbSymbolTableRecord
100
AcDbBlockTableRecord
  2
*MODEL_SPACE
340
3BDB
  0
BLOCK_RECORD
  5
17
102
{ACAD_XDICTIONARY
360
CF9
102
}
330
1
100
AcDbSymbolTableRecord
100
AcDbBlockTableRecord
  2
*PAPER_SPACE
340
3BDC
  0
BLOCK_RECORD
  5
6D
330
1
100
AcDbSymbolTableRecord
100
AcDbBlockTableRecord
  2
_OPEN
340
0
102
{BLKREFS
331
3E45
331
3E46
331
3E50
331
3E51
331
3E58
331
3E59
331
3E5F
331
3E60
331
3E71
331
3E72
331
3E7A
331
3E7B
331
3E85
331
3E86
331
3E8E
331
3E8F
331
3E97
331
3E98
331
3EA1
331
3EA2
331
3EAA
331
3EAB
331
3EB3
331
3EB4
331
3EBC
331
3EBD
331
3EC5
331
3EC6
331
3ECE
331
3ECF
331
3ED6
331
3ED7
331
3EDD
331
3EDE
331
3F2D
331
3F2E
331
41DA
331
41DB
331
41E3
331
41E4
331
41EE
331
41EF
331
41F7
331
41F8
331
4200
331
4201
331
4209
331
420A
331
4212
331
4213
331
421A
331
421B
331
4223
331
4224
331
422C
331
422D
331
4235
331
4236
331
423D
331
423E
331
4244
331
4245
331
424D
331
424E
331
4256
331
4257
331
425F
331
4260
331
4268
331
4269
331
4272
331
4273
331
42E0
331
42E1
331
43C4
331
43C5
331
43CF
331
43D0
331
43D8
331
43D9
331
43E1
331
43E2
102
}
  0
BLOCK_RECORD
  5
2060
330
1
100
AcDbSymbolTableRecord
100
AcDbBlockTableRecord
  2
*X1
340
0
102
{BLKREFS
331
EF4
102
}
  0
BLOCK_RECORD
  5
39B8
330
1
100
AcDbSymbolTableRecord
100
AcDbBlockTableRecord
  2
*D2
340
0
  0
BLOCK_RECORD
  5
39C4
330
1
100
AcDbSymbolTableRecord
100
AcDbBlockTableRecord
  2
*D3
340
0
  0
BLOCK_RECORD
  5
39CC
330
1
100
AcDbSymbolTableRecord
100
AcDbBlockTableRecord
  2
*D4
340
0
  0
BLOCK_RECORD
  5
39DA
330
1
100
AcDbSymbolTableRecord
100
AcDbBlockTableRecord
  2
*D5
340
0
  0
BLOCK_RECORD
  5
39E6
330
1
100
AcDbSymbolTableRecord
100
AcDbBlockTableRecord
  2
*D6
340
0
  0
BLOCK_RECORD
  5
39F2
330
1
100
AcDbSymbolTableRecord
100
AcDbBlockTableRecord
  2
*D7
340
0
  0
BLOCK_RECORD
  5
39FE
330
1
100
AcDbSymbolTableRecord
100
AcDbBlockTableRecord
  2
*D8
340
0
  0
BLOCK_RECORD
  5
3A0C
330
1
100
AcDbSymbolTableRecord
100
AcDbBlockTableRecord
  2
*D9
340
0
  0
BLOCK_RECORD
  5
3A18
330
1
100
AcDbSymbolTableRecord
100
AcDbBlockTableRecord
  2
*D10
340
0
  0
BLOCK_RECORD
  5
3A24
330
1
100
AcDbSymbolTableRecord
100
AcDbBlockTableRecord
  2
*D11
340
0
  0
BLOCK_RECORD
  5
3D18
330
1
100
AcDbSymbolTableRecord
100
AcDbBlockTableRecord
  2
*D12
340
0
  0
BLOCK_RECORD
  5
3D24
330
1
100
AcDbSymbolTableRecord
100
AcDbBlockTableRecord
  2
*D13
340
0
  0
BLOCK_RECORD
  5
3D30
330
1
100
AcDbSymbolTableRecord
100
AcDbBlockTableRecord
  2
*D14
340
0
  0
BLOCK_RECORD
  5
3D39
330
1
100
AcDbSymbolTableRecord
100
AcDbBlockTableRecord
  2
*D15
340
0
  0
BLOCK_RECORD
  5
3D85
330
1
100
AcDbSymbolTableRecord
100
AcDbBlockTableRecord
  2
*D16
340
0
  0
BLOCK_RECORD
  5
3D92
330
1
100
AcDbSymbolTableRecord
100
AcDbBlockTableRecord
  2
*D17
340
0
  0
BLOCK_RECORD
  5
3D9F
330
1
100
AcDbSymbolTableRecord
100
AcDbBlockTableRecord
  2
*D18
340
0
  0
BLOCK_RECORD
  5
3DAC
330
1
100
AcDbSymbolTableRecord
100
AcDbBlockTableRecord
  2
*D19
340
0
  0
ENDTAB
  0
ENDSEC
  0
SECTION
  2
BLOCKS
  0
BLOCK
  5
1B
330
1A
100
AcDbEntity
  8
0
100
AcDbBlockBegin
  2
*MODEL_SPACE
 70
     0
 10
0.0
 20
0.0
 30
0.0
  3
*MODEL_SPACE
  1

  0
ENDBLK
  5
1C
330
1A
100
AcDbEntity
  8
0
100
AcDbBlockEnd
  0
BLOCK
  5
18
330
17
100
AcDbEntity
 67
     1
  8
0
100
AcDbBlockBegin
  2
*PAPER_SPACE
 70
     0
 10
0.0
 20
0.0
 30
0.0
  3
*PAPER_SPACE
  1

  0
ENDBLK
  5
19
330
17
100
AcDbEntity
 67
     1
  8
0
100
AcDbBlockEnd
  0
BLOCK
  5
6E
330
6D
100
AcDbEntity
  8
0
100
AcDbBlockBegin
  2
_OPEN
 70
     0
 10
0.0
 20
0.0
 30
0.0
  3
_OPEN
  1

  0
LINE
  5
6F
330
6D
100
AcDbEntity
  8
0
  6
ByBlock
 62
     0
100
AcDbLine
 10
-1.0
 20
0.1666666666666666
 30
0.0
 11
0.0
 21
0.0
 31
0.0
  0
LINE
  5
70
330
6D
100
AcDbEntity
  8
0
  6
ByBlock
 62
     0
100
AcDbLine
 10
0.0
 20
0.0
 30
0.0
 11
-1.0
 21
-0.1666666666666666
 31
0.0
  0
LINE
  5
71
330
6D
100
AcDbEntity
  8
0
  6
ByBlock
 62
     0
100
AcDbLine
 10
0.0
 20
0.0
 30
0.0
 11
-1.0
 21
0.0
 31
0.0
  0
ENDBLK
  5
72
330
6D
100
AcDbEntity
  8
0
100
AcDbBlockEnd
  0
BLOCK
  5
21F4
330
2060
100
AcDbEntity
  8
0
100
AcDbBlockBegin
  2
*X1
 70
     1
 10
0.0
 20
0.0
 30
0.0
  3
*X1
  1

  0
LINE
  5
2061
330
2060
100
AcDbEntity
  8
0
 62
     0
100
AcDbLine
 10
69.04221216833718
 20
22.60416893857376
 30
0.0
 11
68.39638123862227
 21
23.24999986828874
 31
0.0
  0
LINE
  5
2062
330
2060
100
AcDbEntity
  8
0
 62
     0
100
AcDbLine
 10
69.04221216833718
 20
21.70614332646687
 30
0.0
 11
67.49835562651532
 21
23.24999986828874
 31
0.0
  0
LINE
  5
2063
330
2060
100
AcDbEntity
  8
0
 62
     0
100
AcDbLine
 10
69.04221216833713
 20
20.80811771435993
 30
0.0
 11
66.62107822232218
 21
23.22925166037486
 31
0.0
  0
LINE
  5
2064
330
2060
100
AcDbEntity
  8
0
 62
     0
100
AcDbLine
 10
69.04221216833718
 20
19.91009210225309
 30
0.0
 11
66.24221216833712
 21
22.71009210225309
 31
0.0
  0
LINE
  5
2065
330
2060
100
AcDbEntity
  8
0
 62
     0
100
AcDbLine
 10
69.04221216833718
 20
19.01206649014613
 30
0.0
 11
66.24221216833712
 21
21.8120664901462
 31
0.0
  0
LINE
  5
2066
330
2060
100
AcDbEntity
  8
0
 62
     0
100
AcDbLine
 10
69.04221216833713
 20
18.11404087803919
 30
0.0
 11
66.24221216833706
 21
20.91404087803926
 31
0.0
  0
LINE
  5
2067
330
2060
100
AcDbEntity
  8
0
 62
     0
100
AcDbLine
 10
64.14221216833709
 20
22.11601526593239
 30
0.0
 11
63.0082275659808
 21
23.24999986828874
 31
0.0
  0
LINE
  5
2068
330
2060
100
AcDbEntity
  8
0
 62
     0
100
AcDbLine
 10
69.04221216833718
 20
17.21601526593235
 30
0.0
 11
66.24221216833712
 21
20.01601526593242
 31
0.0
  0
LINE
  5
2069
330
2060
100
AcDbEntity
  8
0
 62
     0
100
AcDbLine
 10
64.14221216833709
 20
21.21798965382549
 30
0.0
 11
62.11020195387385
 21
23.24999986828868
 31
0.0
  0
LINE
  5
206A
330
2060
100
AcDbEntity
  8
0
 62
     0
100
AcDbLine
 10
69.04221216833713
 20
16.3179896538254
 30
0.0
 11
66.24221216833712
 21
19.11798965382547
 31
0.0
  0
LINE
  5
206B
330
2060
100
AcDbEntity
  8
0
 62
     0
100
AcDbLine
 10
64.14221216833709
 20
20.31996404171855
 30
0.0
 11
61.43670120320003
 21
23.02547500685562
 31
0.0
  0
LINE
  5
206C
330
2060
100
AcDbEntity
  8
0
 62
     0
100
AcDbLine
 10
69.04221216833713
 20
15.41996404171851
 30
0.0
 11
66.24221216833706
 21
18.21996404171852
 31
0.0
  0
LINE
  5
206D
330
2060
100
AcDbEntity
  8
0
 62
     0
100
AcDbLine
 10
64.14221216833721
 20
19.42193842961154
 30
0.0
 11
61.34221216833703
 21
22.22193842961166
 31
0.0
  0
LINE
  5
206E
330
2060
100
AcDbEntity
  8
0
 62
     0
100
AcDbLine
 10
69.04221216833718
 20
14.52193842961156
 30
0.0
 11
66.24221216833712
 21
17.32193842961163
 31
0.0
  0
LINE
  5
206F
330
2060
100
AcDbEntity
  8
0
 62
     0
100
AcDbLine
 10
64.14221216833714
 20
18.52391281750465
 30
0.0
 11
61.34221216833703
 21
21.32391281750483
 31
0.0
  0
LINE
  5
2070
330
2060
100
AcDbEntity
  8
0
 62
     0
100
AcDbLine
 10
69.04221216833713
 20
13.62391281750467
 30
0.0
 11
66.24221216833706
 21
16.42391281750474
 31
0.0
  0
LINE
  5
2071
330
2060
100
AcDbEntity
  8
0
 62
     0
100
AcDbLine
 10
64.14221216833714
 20
17.62588720539776
 30
0.0
 11
61.34221216833703
 21
20.42588720539788
 31
0.0
  0
LINE
  5
2072
330
2060
100
AcDbEntity
  8
0
 62
     0
100
AcDbLine
 10
69.04221216833713
 20
12.72588720539778
 30
0.0
 11
66.24221216833706
 21
15.52588720539785
 31
0.0
  0
LINE
  5
2073
330
2060
100
AcDbEntity
  8
0
 62
     0
100
AcDbLine
 10
64.14221216833709
 20
16.72786159329081
 30
0.0
 11
61.34221216833697
 21
19.52786159329093
 31
0.0
  0
LINE
  5
2074
330
2060
100
AcDbEntity
  8
0
 62
     0
100
AcDbLine
 10
69.04221216833708
 20
11.82786159329083
 30
0.0
 11
66.24221216833706
 21
14.6278615932909
 31
0.0
  0
LINE
  5
2075
330
2060
100
AcDbEntity
  8
0
 62
     0
100
AcDbLine
 10
64.14221216833714
 20
15.82983598118397
 30
0.0
 11
61.34221216833703
 21
18.6298359811841
 31
0.0
  0
LINE
  5
2076
330
2060
100
AcDbEntity
  8
0
 62
     0
100
AcDbLine
 10
57.84221216833707
 20
22.12983598118404
 30
0.0
 11
56.72204828123245
 21
23.24999986828868
 31
0.0
  0
LINE
  5
2077
330
2060
100
AcDbEntity
  8
0
 62
     0
100
AcDbLine
 10
69.04221216833713
 20
10.92983598118399
 30
0.0
 11
66.24221216833706
 21
13.72983598118401
 31
0.0
  0
LINE
  5
2078
330
2060
100
AcDbEntity
  8
0
 62
     0
100
AcDbLine
 10
64.14221216833714
 20
14.93181036907702
 30
0.0
 11
61.34221216833697
 21
17.73181036907715
 31
0.0
  0
LINE
  5
2079
330
2060
100
AcDbEntity
  8
0
 62
     0
100
AcDbLine
 10
57.84221216833703
 20
21.23181036907709
 30
0.0
 11
55.82402266912549
 21
23.24999986828868
 31
0.0
  0
LINE
  5
207A
330
2060
100
AcDbEntity
  8
0
 62
     0
100
AcDbLine
 10
69.04221216833713
 20
10.03181036907704
 30
0.0
 11
66.24221216833706
 21
12.83181036907711
 31
0.0
  0
LINE
  5
207B
330
2060
100
AcDbEntity
  8
0
 62
     0
100
AcDbLine
 10
64.14221216833709
 20
14.03378475697013
 30
0.0
 11
61.34221216833703
 21
16.83378475697014
 31
0.0
  0
LINE
  5
207C
330
2060
100
AcDbEntity
  8
0
 62
     0
100
AcDbLine
 10
57.84221216833703
 20
20.3337847569702
 30
0.0
 11
55.14244944501303
 21
23.0335474802942
 31
0.0
  0
LINE
  5
207D
330
2060
100
AcDbEntity
  8
0
 62
     0
100
AcDbLine
 10
69.04221216833708
 20
9.133784756970158
 30
0.0
 11
66.242212168337
 21
11.93378475697016
 31
0.0
  0
LINE
  5
207E
330
2060
100
AcDbEntity
  8
0
 62
     0
100
AcDbLine
 10
64.14221216833714
 20
13.13575914486318
 30
0.0
 11
61.34221216833708
 21
15.93575914486325
 31
0.0
  0
LINE
  5
207F
330
2060
100
AcDbEntity
  8
0
 62
     0
100
AcDbLine
 10
57.84221216833707
 20
19.43575914486325
 30
0.0
 11
55.04221216833706
 21
22.23575914486326
 31
0.0
  0
LINE
  5
2080
330
2060
100
AcDbEntity
  8
0
 62
     0
100
AcDbLine
 10
69.04221216833713
 20
8.235759144863209
 30
0.0
 11
66.24221216833706
 21
11.03575914486327
 31
0.0
  0
LINE
  5
2081
330
2060
100
AcDbEntity
  8
0
 62
     0
100
AcDbLine
 10
64.14221216833709
 20
12.23773353275628
 30
0.0
 11
61.34221216833708
 21
15.03773353275636
 31
0.0
  0
LINE
  5
2082
330
2060
100
AcDbEntity
  8
0
 62
     0
100
AcDbLine
 10
57.84221216833714
 20
18.5377335327563
 30
0.0
 11
55.04221216833713
 21
21.33773353275632
 31
0.0
  0
LINE
  5
2083
330
2060
100
AcDbEntity
  8
0
 62
     0
100
AcDbLine
 10
68.97024681344731
 20
7.409698887646128
 30
0.0
 11
66.24221216833706
 21
10.13773353275638
 31
0.0
  0
LINE
  5
2084
330
2060
100
AcDbEntity
  8
0
 62
     0
100
AcDbLine
 10
64.14221216833714
 20
11.33970792064928
 30
0.0
 11
61.34221216833703
 21
14.13970792064941
 31
0.0
  0
LINE
  5
2085
330
2060
100
AcDbEntity
  8
0
 62
     0
100
AcDbLine
 10
57.84221216833707
 20
17.63970792064941
 30
0.0
 11
55.04221216833713
 21
20.43970792064937
 31
0.0
  0
LINE
  5
2086
330
2060
100
AcDbEntity
  8
0
 62
     0
100
AcDbLine
 10
68.33192022069784
 20
7.149999868288658
 30
0.0
 11
66.242212168337
 21
9.239707920649491
 31
0.0
  0
LINE
  5
2087
330
2060
100
AcDbEntity
  8
0
 62
     0
100
AcDbLine
 10
57.84221216833707
 20
16.74168230854246
 30
0.0
 11
55.04221216833706
 21
19.54168230854241
 31
0.0
  0
LINE
  5
2088
330
2060
100
AcDbEntity
  8
0
 62
     0
100
AcDbLine
 10
64.14221216833714
 20
10.44168230854239
 30
0.0
 11
61.34221216833703
 21
13.24168230854252
 31
0.0
  0
LINE
  5
2089
330
2060
100
AcDbEntity
  8
0
 62
     0
100
AcDbLine
 10
52.41721216833706
 20
22.16668230854247
 30
0.0
 11
51.33389460859074
 21
23.24999986828874
 31
0.0
  0
LINE
  5
208A
330
2060
100
AcDbEntity
  8
0
 62
     0
100
AcDbLine
 10
67.43389460859096
 20
7.149999868288545
 30
0.0
 11
66.242212168337
 21
8.341682308542543
 31
0.0
  0
LINE
  5
208B
330
2060
100
AcDbEntity
  8
0
 62
     0
100
AcDbLine
 10
57.84221216833707
 20
15.84365669643557
 30
0.0
 11
55.04221216833713
 21
18.64365669643557
 31
0.0
  0
LINE
  5
208C
330
2060
100
AcDbEntity
  8
0
 62
     0
100
AcDbLine
 10
52.41721216833706
 20
21.26865669643558
 30
0.0
 11
50.43586899648392
 21
23.24999986828879
 31
0.0
  0
LINE
  5
208D
330
2060
100
AcDbEntity
  8
0
 62
     0
100
AcDbLine
 10
64.11625386769157
 20
9.569614997081146
 30
0.0
 11
61.34221216833703
 21
12.34365669643563
 31
0.0
  0
LINE
  5
208E
330
2060
100
AcDbEntity
  8
0
 62
     0
100
AcDbLine
 10
57.84221216833707
 20
14.94563108432868
 30
0.0
 11
55.04221216833713
 21
17.74563108432863
 31
0.0
  0
LINE
  5
208F
330
2060
100
AcDbEntity
  8
0
 62
     0
100
AcDbLine
 10
52.22163162222324
 20
20.56621163044252
 30
0.0
 11
49.53784338437707
 21
23.24999986828868
 31
0.0
  0
LINE
  5
2090
330
2060
100
AcDbEntity
  8
0
 62
     0
100
AcDbLine
 10
63.92326857243432
 20
8.864574680231385
 30
0.0
 11
61.34221216833703
 21
11.44563108432873
 31
0.0
  0
LINE
  5
2091
330
2060
100
AcDbEntity
  8
0
 62
     0
100
AcDbLine
 10
57.84221216833707
 20
14.04760547222173
 30
0.0
 11
55.04221216833706
 21
16.84760547222174
 31
0.0
  0
LINE
  5
2092
330
2060
100
AcDbEntity
  8
0
 62
     0
100
AcDbLine
 10
51.43981777227009
 20
20.44999986828867
 30
0.0
 11
48.63981777227007
 21
23.24999986828874
 31
0.0
  0
LINE
  5
2093
330
2060
100
AcDbEntity
  8
0
 62
     0
100
AcDbLine
 10
63.59823669651075
 20
8.291580944048007
 30
0.0
 11
61.27069642917752
 21
10.61912121138129
 31
0.0
  0
LINE
  5
2094
330
2060
100
AcDbEntity
  8
0
 62
     0
100
AcDbLine
 10
57.84221216833707
 20
13.14957986011489
 30
0.0
 11
55.04221216833713
 21
15.94957986011485
 31
0.0
  0
LINE
  5
2095
330
2060
100
AcDbEntity
  8
0
 62
     0
100
AcDbLine
 10
50.54179216016326
 20
20.44999986828873
 30
0.0
 11
47.80422543098587
 21
23.18756659746611
 31
0.0
  0
LINE
  5
2096
330
2060
100
AcDbEntity
  8
0
 62
     0
100
AcDbLine
 10
63.16619489918571
 20
7.825597129266212
 30
0.0
 11
60.86911079071001
 21
10.12268123774191
 31
0.0
  0
LINE
  5
2097
330
2060
100
AcDbEntity
  8
0
 62
     0
100
AcDbLine
 10
57.84221216833707
 20
12.25155424800794
 30
0.0
 11
55.04221216833706
 21
15.0515542480079
 31
0.0
  0
LINE
  5
2098
330
2060
100
AcDbEntity
  8
0
 62
     0
100
AcDbLine
 10
49.64376654805629
 20
20.44999986828873
 30
0.0
 11
47.13958500645246
 21
22.95418140989249
 31
0.0
  0
LINE
  5
2099
330
2060
100
AcDbEntity
  8
0
 62
     0
100
AcDbLine
 10
62.63003255425968
 20
7.463733862085347
 30
0.0
 11
60.1437665480563
 21
9.949999868288671
 31
0.0
  0
LINE
  5
209A
330
2060
100
AcDbEntity
  8
0
 62
     0
100
AcDbLine
 10
57.84221216833703
 20
11.353528635901
 30
0.0
 11
55.04221216833713
 21
14.15352863590089
 31
0.0
  0
LINE
  5
209B
330
2060
100
AcDbEntity
  8
0
 62
     0
100
AcDbLine
 10
48.76753076396751
 20
20.42821004027052
 30
0.0
 11
46.59698406924229
 21
22.59875673499573
 31
0.0
  0
LINE
  5
209C
330
2060
100
AcDbEntity
  8
0
 62
     0
100
AcDbLine
 10
61.97361999434838
 20
7.222120809889701
 30
0.0
 11
59.2457409359494
 21
9.949999868288671
 31
0.0
  0
LINE
  5
209D
330
2060
100
AcDbEntity
  8
0
 62
     0
100
AcDbLine
 10
48.39221216833714
 20
19.90550302379392
 30
0.0
 11
46.15887201019774
 21
22.13884318193334
 31
0.0
  0
LINE
  5
209E
330
2060
100
AcDbEntity
  8
0
 62
     0
100
AcDbLine
 10
61.14771532384253
 20
7.149999868288603
 30
0.0
 11
55.04221216833713
 21
13.255503023794
 31
0.0
  0
LINE
  5
209F
330
2060
100
AcDbEntity
  8
0
 62
     0
100
AcDbLine
 10
48.3922121683372
 20
19.00747741168709
 30
0.0
 11
45.82710109784471
 21
21.57258848217958
 31
0.0
  0
LINE
  5
20A0
330
2060
100
AcDbEntity
  8
0
 62
     0
100
AcDbLine
 10
60.24968971173564
 20
7.149999868288603
 30
0.0
 11
55.04221216833718
 21
12.35747741168711
 31
0.0
  0
LINE
  5
20A1
330
2060
100
AcDbEntity
  8
0
 62
     0
100
AcDbLine
 10
48.59875644944093
 20
17.90290751847641
 30
0.0
 11
45.6249225784806
 21
20.87674138943668
 31
0.0
  0
LINE
  5
20A2
330
2060
100
AcDbEntity
  8
0
 62
     0
100
AcDbLine
 10
59.35166409962874
 20
7.149999868288603
 30
0.0
 11
55.04221216833713
 21
11.45945179958022
 31
0.0
  0
LINE
  5
20A3
330
2060
100
AcDbEntity
  8
0
 62
     0
100
AcDbLine
 10
52.81581587102846
 20
12.78782248478194
 30
0.0
 11
45.59221216833708
 21
20.01142618747326
 31
0.0
  0
LINE
  5
20A4
330
2060
100
AcDbEntity
  8
0
 62
     0
100
AcDbLine
 10
43.492212168337
 20
22.11142618747334
 30
0.0
 11
42.35363848752172
 21
23.24999986828868
 31
0.0
  0
LINE
  5
20A5
330
2060
100
AcDbEntity
  8
0
 62
     0
100
AcDbLine
 10
58.4536384875218
 20
7.149999868288603
 30
0.0
 11
55.04221216833713
 21
10.56142618747327
 31
0.0
  0
LINE
  5
20A6
330
2060
100
AcDbEntity
  8
0
 62
     0
100
AcDbLine
 10
52.94221216833715
 20
11.7634005753664
 30
0.0
 11
45.59221216833714
 21
19.11340057536642
 31
0.0
  0
LINE
  5
20A7
330
2060
100
AcDbEntity
  8
0
 62
     0
100
AcDbLine
 10
43.4922121683371
 20
21.21340057536639
 30
0.0
 11
41.45561287541477
 21
23.24999986828879
 31
0.0
  0
LINE
  5
20A8
330
2060
100
AcDbEntity
  8
0
 62
     0
100
AcDbLine
 10
57.53916499667003
 20
7.166447747033543
 30
0.0
 11
55.05866004708201
 21
9.646952696621552
 31
0.0
  0
LINE
  5
20A9
330
2060
100
AcDbEntity
  8
0
 62
     0
100
AcDbLine
 10
43.4922121683371
 20
20.3153749632595
 30
0.0
 11
40.7848222805618
 21
23.02276485103476
 31
0.0
  0
LINE
  5
20AA
330
2060
100
AcDbEntity
  8
0
 62
     0
100
AcDbLine
 10
52.94221216833711
 20
10.86537496325945
 30
0.0
 11
45.61562283621947
 21
18.19196429537714
 31
0.0
  0
LINE
  5
20AB
330
2060
100
AcDbEntity
  8
0
 62
     0
100
AcDbLine
 10
43.4922121683371
 20
19.41734935115255
 30
0.0
 11
40.69221216833709
 21
22.2173493511525
 31
0.0
  0
LINE
  5
20AC
330
2060
100
AcDbEntity
  8
0
 62
     0
100
AcDbLine
 10
52.94221216833699
 20
9.967349351152618
 30
0.0
 11
45.93374225405949
 21
16.97581926543017
 31
0.0
  0
LINE
  5
20AD
330
2060
100
AcDbEntity
  8
0
 62
     0
100
AcDbLine
 10
43.4922121683371
 20
18.51932373904566
 30
0.0
 11
40.69221216833716
 21
21.31932373904561
 31
0.0
  0
LINE
  5
20AE
330
2060
100
AcDbEntity
  8
0
 62
     0
100
AcDbLine
 10
52.83365035074803
 20
9.177885556634748
 30
0.0
 11
50.13801556170972
 21
11.87352034567305
 31
0.0
  0
LINE
  5
20AF
330
2060
100
AcDbEntity
  8
0
 62
     0
100
AcDbLine
 10
43.4922121683371
 20
17.62129812693876
 30
0.0
 11
40.69221216833709
 21
20.42129812693872
 31
0.0
  0
LINE
  5
20B0
330
2060
100
AcDbEntity
  8
0
 62
     0
100
AcDbLine
 10
38.4007252677601
 20
22.71278502751573
 30
0.0
 11
37.8635104269871
 21
23.24999986828879
 31
0.0
  0
LINE
  5
20B1
330
2060
100
AcDbEntity
  8
0
 62
     0
100
AcDbLine
 10
52.56577464298647
 20
8.547735652289418
 30
0.0
 11
50.14221216833714
 21
10.97129812693873
 31
0.0
  0
LINE
  5
20B2
330
2060
100
AcDbEntity
  8
0
 62
     0
100
AcDbLine
 10
43.49221216833706
 20
16.72327251483181
 30
0.0
 11
40.69221216833709
 21
19.52327251483183
 31
0.0
  0
LINE
  5
20B3
330
2060
100
AcDbEntity
  8
0
 62
     0
100
AcDbLine
 10
38.20179760350749
 20
22.01368707966139
 30
0.0
 11
36.96548481488021
 21
23.24999986828874
 31
0.0
  0
LINE
  5
20B4
330
2060
100
AcDbEntity
  8
0
 62
     0
100
AcDbLine
 10
52.18278784481118
 20
8.032696838357765
 30
0.0
 11
50.04492698545067
 21
10.17055769771826
 31
0.0
  0
LINE
  5
20B5
330
2060
100
AcDbEntity
  8
0
 62
     0
100
AcDbLine
 10
43.49221216833706
 20
15.82524690272492
 30
0.0
 11
40.69221216833709
 21
18.62524690272488
 31
0.0
  0
LINE
  5
20B6
330
2060
100
AcDbEntity
  8
0
 62
     0
100
AcDbLine
 10
37.9862714566018
 20
21.33118761446013
 30
0.0
 11
36.07705589313122
 21
23.24040317793077
 31
0.0
  0
LINE
  5
20B7
330
2060
100
AcDbEntity
  8
0
 62
     0
100
AcDbLine
 10
51.69646887969554
 20
7.620990191366387
 30
0.0
 11
49.36745920277331
 21
9.949999868288671
 31
0.0
  0
LINE
  5
20B8
330
2060
100
AcDbEntity
  8
0
 62
     0
100
AcDbLine
 10
43.4922121683371
 20
14.92722129061803
 30
0.0
 11
40.69221216833709
 21
17.72722129061798
 31
0.0
  0
LINE
  5
20B9
330
2060
100
AcDbEntity
  8
0
 62
     0
100
AcDbLine
 10
37.77074530969628
 20
20.64868814925887
 30
0.0
 11
35.64274530969623
 21
22.77668814925891
 31
0.0
  0
LINE
  5
20BA
330
2060
100
AcDbEntity
  8
0
 62
     0
100
AcDbLine
 10
51.10038493123517
 20
7.319048527719927
 30
0.0
 11
48.46943359066642
 21
9.949999868288726
 31
0.0
  0
LINE
  5
20BB
330
2060
100
AcDbEntity
  8
0
 62
     0
100
AcDbLine
 10
43.49221216833706
 20
14.02919567851114
 30
0.0
 11
40.69221216833709
 21
16.8291956785111
 31
0.0
  0
LINE
  5
20BC
330
2060
100
AcDbEntity
  8
0
 62
     0
100
AcDbLine
 10
37.55521916279042
 20
19.96618868405778
 30
0.0
 11
35.42721916279043
 21
22.09418868405776
 31
0.0
  0
LINE
  5
20BD
330
2060
100
AcDbEntity
  8
0
 62
     0
100
AcDbLine
 10
50.36271227958771
 20
7.158695567260507
 30
0.0
 11
47.57140797855953
 21
9.949999868288671
 31
0.0
  0
LINE
  5
20BE
330
2060
100
AcDbEntity
  8
0
 62
     0
100
AcDbLine
 10
43.49221216833706
 20
13.13117006640419
 30
0.0
 11
40.69221216833704
 21
15.93117006640414
 31
0.0
  0
LINE
  5
20BF
330
2060
100
AcDbEntity
  8
0
 62
     0
100
AcDbLine
 10
37.33969301588484
 20
19.2836892188564
 30
0.0
 11
35.21169301588475
 21
21.41168921885645
 31
0.0
  0
LINE
  5
20C0
330
2060
100
AcDbEntity
  8
0
 62
     0
100
AcDbLine
 10
49.47338236645265
 20
7.149999868288603
 30
0.0
 11
46.67338236645258
 21
9.949999868288671
 31
0.0
  0
LINE
  5
20C1
330
2060
100
AcDbEntity
  8
0
 62
     0
100
AcDbLine
 10
43.49221216833706
 20
12.2331444542973
 30
0.0
 11
40.69221216833709
 21
15.03314445429731
 31
0.0
  0
LINE
  5
20C2
330
2060
100
AcDbEntity
  8
0
 62
     0
100
AcDbLine
 10
37.12416686897928
 20
18.60118975365514
 30
0.0
 11
34.99616686897911
 21
20.72918975365524
 31
0.0
  0
LINE
  5
20C3
330
2060
100
AcDbEntity
  8
0
 62
     0
100
AcDbLine
 10
48.57535675434576
 20
7.149999868288658
 30
0.0
 11
46.14174505704936
 21
9.583611565585043
 31
0.0
  0
LINE
  5
20C4
330
2060
100
AcDbEntity
  8
0
 62
     0
100
AcDbLine
 10
36.90864072207352
 20
17.91869028845394
 30
0.0
 11
34.78064072207348
 21
20.04669028845398
 31
0.0
  0
LINE
  5
20C5
330
2060
100
AcDbEntity
  8
0
 62
     0
100
AcDbLine
 10
43.49221216833706
 20
11.33511884219041
 30
0.0
 11
40.69221216833709
 21
14.13511884219036
 31
0.0
  0
LINE
  5
20C6
330
2060
100
AcDbEntity
  8
0
 62
     0
100
AcDbLine
 10
32.64221216833709
 20
22.18511884219037
 30
0.0
 11
31.57733114223879
 21
23.24999986828862
 31
0.0
  0
LINE
  5
20C7
330
2060
100
AcDbEntity
  8
0
 62
     0
100
AcDbLine
 10
47.67733114223886
 20
7.149999868288603
 30
0.0
 11
46.11721216833712
 21
8.710118842190354
 31
0.0
  0
LINE
  5
20C8
330
2060
100
AcDbEntity
  8
0
 62
     0
100
AcDbLine
 10
36.69311457516784
 20
17.23619082325268
 30
0.0
 11
34.56511457516786
 21
19.36419082325267
 31
0.0
  0
LINE
  5
20C9
330
2060
100
AcDbEntity
  8
0
 62
     0
100
AcDbLine
 10
43.49221216833706
 20
10.43709323008346
 30
0.0
 11
40.69221216833704
 21
13.23709323008347
 31
0.0
  0
LINE
  5
20CA
330
2060
100
AcDbEntity
  8
0
 62
     0
100
AcDbLine
 10
32.64221216833709
 20
21.28709323008342
 30
0.0
 11
30.67930553013189
 21
23.24999986828862
 31
0.0
  0
LINE
  5
20CB
330
2060
100
AcDbEntity
  8
0
 62
     0
100
AcDbLine
 10
46.77930553013186
 20
7.149999868288658
 30
0.0
 11
46.11721216833706
 21
7.812093230083404
 31
0.0
  0
LINE
  5
20CC
330
2060
100
AcDbEntity
  8
0
 62
     0
100
AcDbLine
 10
36.47758842826215
 20
16.55369135805142
 30
0.0
 11
34.34958842826211
 21
18.68169135805146
 31
0.0
  0
LINE
  5
20CD
330
2060
100
AcDbEntity
  8
0
 62
     0
100
AcDbLine
 10
32.64221216833703
 20
20.38906761797647
 30
0.0
 11
29.96676723943943
 21
23.06451254687414
 31
0.0
  0
LINE
  5
20CE
330
2060
100
AcDbEntity
  8
0
 62
     0
100
AcDbLine
 10
43.492212168337
 20
9.53906761797657
 30
0.0
 11
40.69221216833704
 21
12.33906761797652
 31
0.0
  0
LINE
  5
20CF
330
2060
100
AcDbEntity
  8
0
 62
     0
100
AcDbLine
 10
36.26206228135653
 20
15.87119189285022
 30
0.0
 11
34.13406228135653
 21
17.9991918928502
 31
0.0
  0
LINE
  5
20D0
330
2060
100
AcDbEntity
  8
0
 62
     0
100
AcDbLine
 10
32.64221216833709
 20
19.49104200586964
 30
0.0
 11
29.84221216833702
 21
22.29104200586965
 31
0.0
  0
LINE
  5
20D1
330
2060
100
AcDbEntity
  8
0
 62
     0
100
AcDbLine
 10
43.49221216833706
 20
8.641042005869678
 30
0.0
 11
40.69221216833704
 21
11.44104200586963
 31
0.0
  0
LINE
  5
20D2
330
2060
100
AcDbEntity
  8
0
 62
     0
100
AcDbLine
 10
36.05697377196463
 20
15.17825479013515
 30
0.0
 11
33.91853613445078
 21
17.316692427649
 31
0.0
  0
LINE
  5
20D3
330
2060
100
AcDbEntity
  8
0
 62
     0
100
AcDbLine
 10
32.64221216833709
 20
18.59301639376269
 30
0.0
 11
29.84221216833702
 21
21.39301639376276
 31
0.0
  0
LINE
  5
20D4
330
2060
100
AcDbEntity
  8
0
 62
     0
100
AcDbLine
 10
43.492212168337
 20
7.743016393762728
 30
0.0
 11
40.69221216833704
 21
10.54301639376274
 31
0.0
  0
LINE
  5
20D5
330
2060
100
AcDbEntity
  8
0
 62
     0
100
AcDbLine
 10
36.47144713139863
 20
13.8657558185942
 30
0.0
 11
33.62798863876617
 21
16.70921431122667
 31
0.0
  0
LINE
  5
20D6
330
2060
100
AcDbEntity
  8
0
 62
     0
100
AcDbLine
 10
32.64221216833715
 20
17.69499078165569
 30
0.0
 11
29.84221216833697
 21
20.49499078165581
 31
0.0
  0
LINE
  5
20D7
330
2060
100
AcDbEntity
  8
0
 62
     0
100
AcDbLine
 10
43.15316717100467
 20
7.184035778988117
 30
0.0
 11
40.69221216833709
 21
9.644990781655735
 31
0.0
  0
LINE
  5
20D8
330
2060
100
AcDbEntity
  8
0
 62
     0
100
AcDbLine
 10
36.88592049083268
 20
12.55325684705332
 30
0.0
 11
29.84221216833702
 21
19.59696516954898
 31
0.0
  0
LINE
  5
20D9
330
2060
100
AcDbEntity
  8
0
 62
     0
100
AcDbLine
 10
27.39221216833715
 20
22.04696516954885
 30
0.0
 11
26.18917746959738
 21
23.24999986828862
 31
0.0
  0
LINE
  5
20DA
330
2060
100
AcDbEntity
  8
0
 62
     0
100
AcDbLine
 10
42.28917746959734
 20
7.149999868288658
 30
0.0
 11
40.69221216833716
 21
8.746965169548843
 31
0.0
  0
LINE
  5
20DB
330
2060
100
AcDbEntity
  8
0
 62
     0
100
AcDbLine
 10
37.30039385026657
 20
11.24075787551243
 30
0.0
 11
29.84221216833702
 21
18.69893955744203
 31
0.0
  0
LINE
  5
20DC
330
2060
100
AcDbEntity
  8
0
 62
     0
100
AcDbLine
 10
27.39221216833715
 20
21.14893955744189
 30
0.0
 11
25.29115185749037
 21
23.24999986828868
 31
0.0
  0
LINE
  5
20DD
330
2060
100
AcDbEntity
  8
0
 62
     0
100
AcDbLine
 10
41.39115185749034
 20
7.149999868288715
 30
0.0
 11
40.69221216833709
 21
7.84893955744195
 31
0.0
  0
LINE
  5
20DE
330
2060
100
AcDbEntity
  8
0
 62
     0
100
AcDbLine
 10
27.12530547294704
 20
20.51782064072506
 30
0.0
 11
24.42508375473563
 21
23.21804235893643
 31
0.0
  0
LINE
  5
20DF
330
2060
100
AcDbEntity
  8
0
 62
     0
100
AcDbLine
 10
37.71486720970051
 20
9.928258903971595
 30
0.0
 11
29.84221216833708
 21
17.80091394533502
 31
0.0
  0
LINE
  5
20E0
330
2060
100
AcDbEntity
  8
0
 62
     0
100
AcDbLine
 10
32.9797210906787
 20
13.76537941088651
 30
0.0
 11
29.84221216833708
 21
16.90288833322813
 31
0.0
  0
LINE
  5
20E1
330
2060
100
AcDbEntity
  8
0
 62
     0
100
AcDbLine
 10
26.2951006332766
 20
20.44999986828855
 30
0.0
 11
23.68704068514836
 21
23.05805981641686
 31
0.0
  0
LINE
  5
20E2
330
2060
100
AcDbEntity
  8
0
 62
     0
100
AcDbLine
 10
38.12934056913451
 20
8.615759932430705
 30
0.0
 11
34.03703287682663
 21
12.70806762473853
 31
0.0
  0
LINE
  5
20E3
330
2060
100
AcDbEntity
  8
0
 62
     0
100
AcDbLine
 10
32.64221216833715
 20
13.20486272112117
 30
0.0
 11
29.84221216833708
 21
16.00486272112124
 31
0.0
  0
LINE
  5
20E4
330
2060
100
AcDbEntity
  8
0
 62
     0
100
AcDbLine
 10
25.39707502116959
 20
20.44999986828867
 30
0.0
 11
23.04831926931762
 21
22.79875562014063
 31
0.0
  0
LINE
  5
20E5
330
2060
100
AcDbEntity
  8
0
 62
     0
100
AcDbLine
 10
38.3643794268451
 20
7.48269546261315
 30
0.0
 11
34.45150623626057
 21
11.39556865319775
 31
0.0
  0
LINE
  5
20E6
330
2060
100
AcDbEntity
  8
0
 62
     0
100
AcDbLine
 10
32.64221216833709
 20
12.30683710901428
 30
0.0
 11
29.84221216833702
 21
15.10683710901429
 31
0.0
  0
LINE
  5
20E7
330
2060
100
AcDbEntity
  8
0
 62
     0
100
AcDbLine
 10
24.55396151862606
 20
20.39508775872531
 30
0.0
 11
22.48957029398309
 21
22.45947898336828
 31
0.0
  0
LINE
  5
20E8
330
2060
100
AcDbEntity
  8
0
 62
     0
100
AcDbLine
 10
37.79904940906277
 20
7.149999868288603
 30
0.0
 11
34.86597959569451
 21
10.08306968165686
 31
0.0
  0
LINE
  5
20E9
330
2060
100
AcDbEntity
  8
0
 62
     0
100
AcDbLine
 10
32.64221216833709
 20
11.40881149690733
 30
0.0
 11
29.84221216833702
 21
14.2088114969074
 31
0.0
  0
LINE
  5
20EA
330
2060
100
AcDbEntity
  8
0
 62
     0
100
AcDbLine
 10
23.98210532578707
 20
20.06891833945735
 30
0.0
 11
22.0019150853713
 21
22.04910857987313
 31
0.0
  0
LINE
  5
20EB
330
2060
100
AcDbEntity
  8
0
 62
     0
100
AcDbLine
 10
36.90102379695582
 20
7.149999868288603
 30
0.0
 11
35.28045295512857
 21
8.770570710115862
 31
0.0
  0
LINE
  5
20EC
330
2060
100
AcDbEntity
  8
0
 62
     0
100
AcDbLine
 10
27.72764130113483
 20
15.42535675200275
 30
0.0
 11
26.21756905205109
 21
16.9354290010865
 31
0.0
  0
LINE
  5
20ED
330
2060
100
AcDbEntity
  8
0
 62
     0
100
AcDbLine
 10
32.64221216833721
 20
10.51078588480038
 30
0.0
 11
29.84221216833708
 21
13.31078588480051
 31
0.0
  0
LINE
  5
20EE
330
2060
100
AcDbEntity
  8
0
 62
     0
100
AcDbLine
 10
23.62598375565812
 20
19.52701429747946
 30
0.0
 11
21.58254905936007
 21
21.57044899377751
 31
0.0
  0
LINE
  5
20EF
330
2060
100
AcDbEntity
  8
0
 62
     0
100
AcDbLine
 10
35.95266518064431
 20
7.200332872493278
 30
0.0
 11
35.702311009053
 21
7.450687044084588
 31
0.0
  0
LINE
  5
20F0
330
2060
100
AcDbEntity
  8
0
 62
     0
100
AcDbLine
 10
27.64112764099293
 20
14.61384480003772
 30
0.0
 11
25.40605710008605
 21
16.84891534094458
 31
0.0
  0
LINE
  5
20F1
330
2060
100
AcDbEntity
  8
0
 62
     0
100
AcDbLine
 10
23.54221216833718
 20
18.71276027269345
 30
0.0
 11
21.2336100383984
 21
21.02136240263223
 31
0.0
  0
LINE
  5
20F2
330
2060
100
AcDbEntity
  8
0
 62
     0
100
AcDbLine
 10
32.64221216833715
 20
9.612760272693435
 30
0.0
 11
29.84221216833702
 21
12.41276027269361
 31
0.0
  0
LINE
  5
20F3
330
2060
100
AcDbEntity
  8
0
 62
     0
100
AcDbLine
 10
27.30927208169487
 20
14.04767474722876
 30
0.0
 11
24.8398870472771
 21
16.51705978164653
 31
0.0
  0
LINE
  5
20F4
330
2060
100
AcDbEntity
  8
0
 62
     0
100
AcDbLine
 10
23.54221216833718
 20
17.81473466058651
 30
0.0
 11
20.96303033118823
 21
20.39391649773546
 31
0.0
  0
LINE
  5
20F5
330
2060
100
AcDbEntity
  8
0
 62
     0
100
AcDbLine
 10
32.64221216833715
 20
8.714734660586543
 30
0.0
 11
29.84221216833708
 21
11.51473466058661
 31
0.0
  0
LINE
  5
20F6
330
2060
100
AcDbEntity
  8
0
 62
     0
100
AcDbLine
 10
23.54221216833718
 20
16.91670904847961
 30
0.0
 11
20.78831645826238
 21
19.67060475855447
 31
0.0
  0
LINE
  5
20F7
330
2060
100
AcDbEntity
  8
0
 62
     0
100
AcDbLine
 10
26.80743863955842
 20
13.65148257725843
 30
0.0
 11
24.44369487730677
 21
16.01522633951009
 31
0.0
  0
LINE
  5
20F8
330
2060
100
AcDbEntity
  8
0
 62
     0
100
AcDbLine
 10
18.11721216833712
 20
22.34170904847974
 30
0.0
 11
17.20892134852812
 21
23.24999986828874
 31
0.0
  0
LINE
  5
20F9
330
2060
100
AcDbEntity
  8
0
 62
     0
100
AcDbLine
 10
32.64221216833721
 20
7.81670904847965
 30
0.0
 11
29.84221216833714
 21
10.61670904847971
 31
0.0
  0
LINE
  5
20FA
330
2060
100
AcDbEntity
  8
0
 62
     0
100
AcDbLine
 10
23.54221216833718
 20
16.01868343637272
 30
0.0
 11
20.74221216833711
 21
18.81868343637279
 31
0.0
  0
LINE
  5
20FB
330
2060
100
AcDbEntity
  8
0
 62
     0
100
AcDbLine
 10
26.107119197131
 20
13.45377640757891
 30
0.0
 11
24.24598870762725
 21
15.31490689708266
 31
0.0
  0
LINE
  5
20FC
330
2060
100
AcDbEntity
  8
0
 62
     0
100
AcDbLine
 10
18.11721216833706
 20
21.44368343637279
 30
0.0
 11
16.31089573642117
 21
23.24999986828868
 31
0.0
  0
LINE
  5
20FD
330
2060
100
AcDbEntity
  8
0
 62
     0
100
AcDbLine
 10
32.35430836706649
 20
7.206587237643418
 30
0.0
 11
29.84221216833708
 21
9.718683436372772
 31
0.0
  0
LINE
  5
20FE
330
2060
100
AcDbEntity
  8
0
 62
     0
100
AcDbLine
 10
23.54221216833718
 20
15.12065782426577
 30
0.0
 11
20.74221216833711
 21
17.92065782426584
 31
0.0
  0
LINE
  5
20FF
330
2060
100
AcDbEntity
  8
0
 62
     0
100
AcDbLine
 10
18.00817819806673
 20
20.65469179453623
 30
0.0
 11
15.41287012431416
 21
23.24999986828874
 31
0.0
  0
LINE
  5
2100
330
2060
100
AcDbEntity
  8
0
 62
     0
100
AcDbLine
 10
31.5128701243143
 20
7.149999868288658
 30
0.0
 11
29.84221216833708
 21
8.820657824265879
 31
0.0
  0
LINE
  5
2101
330
2060
100
AcDbEntity
  8
0
 62
     0
100
AcDbLine
 10
23.54221216833713
 20
14.22263221215888
 30
0.0
 11
20.74221216833706
 21
17.02263221215889
 31
0.0
  0
LINE
  5
2102
330
2060
100
AcDbEntity
  8
0
 62
     0
100
AcDbLine
 10
17.31484451220734
 20
20.44999986828867
 30
0.0
 11
14.51484451220727
 21
23.24999986828874
 31
0.0
  0
LINE
  5
2103
330
2060
100
AcDbEntity
  8
0
 62
     0
100
AcDbLine
 10
30.61484451220735
 20
7.149999868288603
 30
0.0
 11
29.84221216833708
 21
7.922632212158928
 31
0.0
  0
LINE
  5
2104
330
2060
100
AcDbEntity
  8
0
 62
     0
100
AcDbLine
 10
23.54221216833724
 20
13.32460660005193
 30
0.0
 11
20.74221216833711
 21
16.12460660005206
 31
0.0
  0
LINE
  5
2105
330
2060
100
AcDbEntity
  8
0
 62
     0
100
AcDbLine
 10
16.41681890010045
 20
20.44999986828873
 30
0.0
 11
13.6516896279956
 21
23.21512914039357
 31
0.0
  0
LINE
  5
2106
330
2060
100
AcDbEntity
  8
0
 62
     0
100
AcDbLine
 10
27.38960971950018
 20
9.477209048888935
 30
0.0
 11
26.91942134893747
 21
9.947397419451702
 31
0.0
  0
LINE
  5
2107
330
2060
100
AcDbEntity
  8
0
 62
     0
100
AcDbLine
 10
23.54221216833724
 20
12.42658098794498
 30
0.0
 11
20.74221216833711
 21
15.22658098794511
 31
0.0
  0
LINE
  5
2108
330
2060
100
AcDbEntity
  8
0
 62
     0
100
AcDbLine
 10
15.5187932879935
 20
20.44999986828867
 30
0.0
 11
12.95855481951713
 21
23.01023833676509
 31
0.0
  0
LINE
  5
2109
330
2060
100
AcDbEntity
  8
0
 62
     0
100
AcDbLine
 10
27.39221216833721
 20
8.576580987945021
 30
0.0
 11
26.01879328799356
 21
9.949999868288671
 31
0.0
  0
LINE
  5
210A
330
2060
100
AcDbEntity
  8
0
 62
     0
100
AcDbLine
 10
23.54221216833718
 20
11.52855537583803
 30
0.0
 11
20.74221216833717
 21
14.3285553758381
 31
0.0
  0
LINE
  5
210B
330
2060
100
AcDbEntity
  8
0
 62
     0
100
AcDbLine
 10
14.62076767588667
 20
20.44999986828855
 30
0.0
 11
12.39430815966989
 21
22.67645938450533
 31
0.0
  0
LINE
  5
210C
330
2060
100
AcDbEntity
  8
0
 62
     0
100
AcDbLine
 10
27.39221216833715
 20
7.678555375838072
 30
0.0
 11
25.12076767588666
 21
9.949999868288555
 31
0.0
  0
LINE
  5
210D
330
2060
100
AcDbEntity
  8
0
 62
     0
100
AcDbLine
 10
14.11047484827207
 20
20.06226708379637
 30
0.0
 11
11.93621534742914
 21
22.2365265846393
 31
0.0
  0
LINE
  5
210E
330
2060
100
AcDbEntity
  8
0
 62
     0
100
AcDbLine
 10
27.00447938384479
 20
7.168262548223651
 30
0.0
 11
20.74221216833717
 21
13.43052976373127
 31
0.0
  0
LINE
  5
210F
330
2060
100
AcDbEntity
  8
0
 62
     0
100
AcDbLine
 10
14.09221216833714
 20
19.18250415162435
 30
0.0
 11
11.58273414496005
 21
21.69198217500144
 31
0.0
  0
LINE
  5
2110
330
2060
100
AcDbEntity
  8
0
 62
     0
100
AcDbLine
 10
26.1247164516729
 20
7.149999868288603
 30
0.0
 11
20.74221216833717
 21
12.53250415162432
 31
0.0
  0
LINE
  5
2111
330
2060
100
AcDbEntity
  8
0
 62
     0
100
AcDbLine
 10
14.15434787647257
 20
18.22234283138192
 30
0.0
 11
11.35185404266633
 21
21.02483666518821
 31
0.0
  0
LINE
  5
2112
330
2060
100
AcDbEntity
  8
0
 62
     0
100
AcDbLine
 10
25.2266908395659
 20
7.149999868288658
 30
0.0
 11
20.74221216833711
 21
11.63447853951737
 31
0.0
  0
LINE
  5
2113
330
2060
100
AcDbEntity
  8
0
 62
     0
100
AcDbLine
 10
18.4465882595598
 20
13.03207683618785
 30
0.0
 11
11.29221216833718
 21
20.18645292741047
 31
0.0
  0
LINE
  5
2114
330
2060
100
AcDbEntity
  8
0
 62
     0
100
AcDbLine
 10
24.27539314040234
 20
7.203271955345313
 30
0.0
 11
20.79548425539377
 21
10.68318084035388
 31
0.0
  0
LINE
  5
2115
330
2060
100
AcDbEntity
  8
0
 62
     0
100
AcDbLine
 10
18.63848277364502
 20
11.94215670999574
 30
0.0
 11
11.29221216833707
 21
19.28842731530369
 31
0.0
  0
LINE
  5
2116
330
2060
100
AcDbEntity
  8
0
 62
     0
100
AcDbLine
 10
22.90158522780075
 20
7.679054255839957
 30
0.0
 11
21.27126655588836
 21
9.309372927752406
 31
0.0
  0
LINE
  5
2117
330
2060
100
AcDbEntity
  8
0
 62
     0
100
AcDbLine
 10
18.64221216833721
 20
11.0404017031966
 30
0.0
 11
11.29977661575946
 21
18.38283725577429
 31
0.0
  0
LINE
  5
2118
330
2060
100
AcDbEntity
  8
0
 62
     0
100
AcDbLine
 10
18.64221216833709
 20
10.14237609108977
 30
0.0
 11
11.52306737408332
 21
17.26152088534348
 31
0.0
  0
LINE
  5
2119
330
2060
100
AcDbEntity
  8
0
 62
     0
100
AcDbLine
 10
18.56969217220518
 20
9.31687047511485
 30
0.0
 11
15.80630052858612
 21
12.08026211873391
 31
0.0
  0
LINE
  5
211A
330
2060
100
AcDbEntity
  8
0
 62
     0
100
AcDbLine
 10
18.32775423317633
 20
8.660782802036749
 30
0.0
 11
15.84221216833708
 21
11.146324866876
 31
0.0
  0
LINE
  5
211B
330
2060
100
AcDbEntity
  8
0
 62
     0
100
AcDbLine
 10
17.96563498579456
 20
8.12487643731157
 30
0.0
 11
15.8063131360364
 21
10.28419828706972
 31
0.0
  0
LINE
  5
211C
330
2060
100
AcDbEntity
  8
0
 62
     0
100
AcDbLine
 10
17.49940861352769
 20
7.693077197471553
 30
0.0
 11
15.24248594271057
 21
9.949999868288726
 31
0.0
  0
LINE
  5
211D
330
2060
100
AcDbEntity
  8
0
 62
     0
100
AcDbLine
 10
16.92614416579488
 20
7.368316033097472
 30
0.0
 11
14.34446033060362
 21
9.949999868288671
 31
0.0
  0
LINE
  5
211E
330
2060
100
AcDbEntity
  8
0
 62
     0
100
AcDbLine
 10
16.22073157670894
 20
7.17570301007646
 30
0.0
 11
13.44643471849673
 21
9.949999868288671
 31
0.0
  0
LINE
  5
211F
330
2060
100
AcDbEntity
  8
0
 62
     0
100
AcDbLine
 10
15.34840910638979
 20
7.149999868288658
 30
0.0
 11
12.54840910638978
 21
9.949999868288671
 31
0.0
  0
LINE
  5
2120
330
2060
100
AcDbEntity
  8
0
 62
     0
100
AcDbLine
 10
14.45038349428296
 20
7.149999868288603
 30
0.0
 11
11.89705959946508
 21
9.703323763106537
 31
0.0
  0
LINE
  5
2121
330
2060
100
AcDbEntity
  8
0
 62
     0
100
AcDbLine
 10
13.55235788217595
 20
7.149999868288658
 30
0.0
 11
11.81721216833716
 21
8.885145582127449
 31
0.0
  0
LINE
  5
2122
330
2060
100
AcDbEntity
  8
0
 62
     0
100
AcDbLine
 10
12.65433227006911
 20
7.149999868288603
 30
0.0
 11
11.81721216833716
 21
7.987119970020557
 31
0.0
  0
LINE
  5
2123
330
2060
100
AcDbEntity
  8
0
 62
     0
100
AcDbLine
 10
68.63389945300406
 20
7.163131645406167
 30
0.0
 11
69.02908039121985
 21
7.558312583621955
 31
0.0
  0
LINE
  5
2124
330
2060
100
AcDbEntity
  8
0
 62
     0
100
AcDbLine
 10
67.72274206377961
 20
7.149999868288545
 30
0.0
 11
69.0422121683373
 21
8.469469972846241
 31
0.0
  0
LINE
  5
2125
330
2060
100
AcDbEntity
  8
0
 62
     0
100
AcDbLine
 10
66.82471645167272
 20
7.149999868288545
 30
0.0
 11
69.0422121683373
 21
9.367495584953132
 31
0.0
  0
LINE
  5
2126
330
2060
100
AcDbEntity
  8
0
 62
     0
100
AcDbLine
 10
66.27340973158897
 20
7.496718760311749
 30
0.0
 11
69.04221216833724
 21
10.26552119706008
 31
0.0
  0
LINE
  5
2127
330
2060
100
AcDbEntity
  8
0
 62
     0
100
AcDbLine
 10
66.24221216833717
 20
8.363546809166905
 30
0.0
 11
69.04221216833724
 21
11.16354680916691
 31
0.0
  0
LINE
  5
2128
330
2060
100
AcDbEntity
  8
0
 62
     0
100
AcDbLine
 10
66.24221216833723
 20
9.261572421273797
 30
0.0
 11
69.04221216833724
 21
12.06157242127386
 31
0.0
  0
LINE
  5
2129
330
2060
100
AcDbEntity
  8
0
 62
     0
100
AcDbLine
 10
66.24221216833717
 20
10.15959803338074
 30
0.0
 11
69.04221216833724
 21
12.95959803338081
 31
0.0
  0
LINE
  5
212A
330
2060
100
AcDbEntity
  8
0
 62
     0
100
AcDbLine
 10
66.24221216833717
 20
11.05762364548763
 30
0.0
 11
69.04221216833724
 21
13.8576236454877
 31
0.0
  0
LINE
  5
212B
330
2060
100
AcDbEntity
  8
0
 62
     0
100
AcDbLine
 10
62.66877703040245
 20
7.484188507552914
 30
0.0
 11
63.80802352907301
 21
8.62343500622353
 31
0.0
  0
LINE
  5
212C
330
2060
100
AcDbEntity
  8
0
 62
     0
100
AcDbLine
 10
66.24221216833717
 20
11.95564925759452
 30
0.0
 11
69.04221216833724
 21
14.75564925759459
 31
0.0
  0
LINE
  5
212D
330
2060
100
AcDbEntity
  8
0
 62
     0
100
AcDbLine
 10
61.43820886387965
 20
7.151645953137005
 30
0.0
 11
64.14056608348897
 21
9.854003172746272
 31
0.0
  0
LINE
  5
212E
330
2060
100
AcDbEntity
  8
0
 62
     0
100
AcDbLine
 10
66.24221216833717
 20
12.85367486970147
 30
0.0
 11
69.04221216833724
 21
15.65367486970149
 31
0.0
  0
LINE
  5
212F
330
2060
100
AcDbEntity
  8
0
 62
     0
100
AcDbLine
 10
60.53853716692423
 20
7.149999868288545
 30
0.0
 11
64.14221216833727
 21
10.75367486970151
 31
0.0
  0
LINE
  5
2130
330
2060
100
AcDbEntity
  8
0
 62
     0
100
AcDbLine
 10
66.24221216833717
 20
13.75170048180837
 30
0.0
 11
69.04221216833718
 21
16.55170048180844
 31
0.0
  0
LINE
  5
2131
330
2060
100
AcDbEntity
  8
0
 62
     0
100
AcDbLine
 10
59.64051155481735
 20
7.149999868288545
 30
0.0
 11
64.14221216833721
 21
11.65170048180846
 31
0.0
  0
LINE
  5
2132
330
2060
100
AcDbEntity
  8
0
 62
     0
100
AcDbLine
 10
66.24221216833729
 20
14.64972609391532
 30
0.0
 11
69.04221216833724
 21
17.44972609391533
 31
0.0
  0
LINE
  5
2133
330
2060
100
AcDbEntity
  8
0
 62
     0
100
AcDbLine
 10
58.7424859427105
 20
7.149999868288603
 30
0.0
 11
64.14221216833727
 21
12.54972609391535
 31
0.0
  0
LINE
  5
2134
330
2060
100
AcDbEntity
  8
0
 62
     0
100
AcDbLine
 10
61.23762096625615
 20
10.54316050394118
 30
0.0
 11
64.14221216833727
 21
13.44775170602224
 31
0.0
  0
LINE
  5
2135
330
2060
100
AcDbEntity
  8
0
 62
     0
100
AcDbLine
 10
66.24221216833723
 20
15.54775170602226
 30
0.0
 11
69.04221216833724
 21
18.34775170602222
 31
0.0
  0
LINE
  5
2136
330
2060
100
AcDbEntity
  8
0
 62
     0
100
AcDbLine
 10
57.8444603306035
 20
7.149999868288545
 30
0.0
 11
60.74905153268463
 21
10.05459107036961
 31
0.0
  0
LINE
  5
2137
330
2060
100
AcDbEntity
  8
0
 62
     0
100
AcDbLine
 10
61.34221216833714
 20
11.54577731812912
 30
0.0
 11
64.14221216833721
 21
14.34577731812919
 31
0.0
  0
LINE
  5
2138
330
2060
100
AcDbEntity
  8
0
 62
     0
100
AcDbLine
 10
66.24221216833723
 20
16.44577731812915
 30
0.0
 11
69.04221216833718
 21
19.24577731812917
 31
0.0
  0
LINE
  5
2139
330
2060
100
AcDbEntity
  8
0
 62
     0
100
AcDbLine
 10
57.05838446987383
 20
7.261949619665756
 30
0.0
 11
59.74643471849669
 21
9.949999868288614
 31
0.0
  0
LINE
  5
213A
330
2060
100
AcDbEntity
  8
0
 62
     0
100
AcDbLine
 10
61.3422121683372
 20
12.44380293023613
 30
0.0
 11
64.14221216833721
 21
15.24380293023608
 31
0.0
  0
LINE
  5
213B
330
2060
100
AcDbEntity
  8
0
 62
     0
100
AcDbLine
 10
66.24221216833717
 20
17.3438029302361
 30
0.0
 11
69.04221216833718
 21
20.14380293023606
 31
0.0
  0
LINE
  5
213C
330
2060
100
AcDbEntity
  8
0
 62
     0
100
AcDbLine
 10
56.43039760266367
 20
7.531988364562607
 30
0.0
 11
58.84928689203412
 21
9.950877653933046
 31
0.0
  0
LINE
  5
213D
330
2060
100
AcDbEntity
  8
0
 62
     0
100
AcDbLine
 10
61.34221216833726
 20
13.34182854234302
 30
0.0
 11
64.14221216833721
 21
16.14182854234297
 31
0.0
  0
LINE
  5
213E
330
2060
100
AcDbEntity
  8
0
 62
     0
100
AcDbLine
 10
66.24221216833723
 20
18.241828542343
 30
0.0
 11
69.04221216833718
 21
21.04182854234295
 31
0.0
  0
LINE
  5
213F
330
2060
100
AcDbEntity
  8
0
 62
     0
100
AcDbLine
 10
55.9171377212986
 20
7.916754095304327
 30
0.0
 11
58.20580830332142
 21
10.20542467732718
 31
0.0
  0
LINE
  5
2140
330
2060
100
AcDbEntity
  8
0
 62
     0
100
AcDbLine
 10
61.34221216833726
 20
14.23985415444991
 30
0.0
 11
64.14221216833721
 21
17.03985415444992
 31
0.0
  0
LINE
  5
2141
330
2060
100
AcDbEntity
  8
0
 62
     0
100
AcDbLine
 10
66.24221216833723
 20
19.13985415444989
 30
0.0
 11
69.04221216833718
 21
21.9398541544499
 31
0.0
  0
LINE
  5
2142
330
2060
100
AcDbEntity
  8
0
 62
     0
100
AcDbLine
 10
55.5071735460735
 20
8.404815532186146
 30
0.0
 11
57.868570024912
 21
10.76621201102472
 31
0.0
  0
LINE
  5
2143
330
2060
100
AcDbEntity
  8
0
 62
     0
100
AcDbLine
 10
61.3422121683372
 20
15.13787976655686
 30
0.0
 11
64.14221216833727
 21
17.93787976655693
 31
0.0
  0
LINE
  5
2144
330
2060
100
AcDbEntity
  8
0
 62
     0
100
AcDbLine
 10
66.24221216833717
 20
20.03787976655684
 30
0.0
 11
69.03206301478673
 21
22.82773061300639
 31
0.0
  0
LINE
  5
2145
330
2060
100
AcDbEntity
  8
0
 62
     0
100
AcDbLine
 10
55.20724866763948
 20
9.002916265859139
 30
0.0
 11
57.84221216833721
 21
11.6378797665568
 31
0.0
  0
LINE
  5
2146
330
2060
100
AcDbEntity
  8
0
 62
     0
100
AcDbLine
 10
61.34221216833726
 20
16.03590537866369
 30
0.0
 11
64.14221216833732
 21
18.83590537866376
 31
0.0
  0
LINE
  5
2147
330
2060
100
AcDbEntity
  8
0
 62
     0
100
AcDbLine
 10
66.24221216833729
 20
20.93590537866379
 30
0.0
 11
68.55494866970724
 21
23.24864188003374
 31
0.0
  0
LINE
  5
2148
330
2060
100
AcDbEntity
  8
0
 62
     0
100
AcDbLine
 10
55.04983513268303
 20
9.743528343009527
 30
0.0
 11
57.84221216833721
 21
12.5359053786637
 31
0.0
  0
LINE
  5
2149
330
2060
100
AcDbEntity
  8
0
 62
     0
100
AcDbLine
 10
61.3422121683372
 20
16.93393099077064
 30
0.0
 11
64.14221216833727
 21
19.73393099077071
 31
0.0
  0
LINE
  5
214A
330
2060
100
AcDbEntity
  8
0
 62
     0
100
AcDbLine
 10
66.24221216833729
 20
21.83393099077068
 30
0.0
 11
67.65828104585517
 21
23.24999986828862
 31
0.0
  0
LINE
  5
214B
330
2060
100
AcDbEntity
  8
0
 62
     0
100
AcDbLine
 10
55.04221216833723
 20
10.63393099077063
 30
0.0
 11
57.84221216833724
 21
13.4339309907707
 31
0.0
  0
LINE
  5
214C
330
2060
100
AcDbEntity
  8
0
 62
     0
100
AcDbLine
 10
61.3422121683372
 20
17.83195660287759
 30
0.0
 11
64.14221216833727
 21
20.6319566028776
 31
0.0
  0
LINE
  5
214D
330
2060
100
AcDbEntity
  8
0
 62
     0
100
AcDbLine
 10
55.04221216833718
 20
11.53195660287758
 30
0.0
 11
57.84221216833724
 21
14.33195660287765
 31
0.0
  0
LINE
  5
214E
330
2060
100
AcDbEntity
  8
0
 62
     0
100
AcDbLine
 10
66.24225888308462
 20
22.73200331762501
 30
0.0
 11
66.7602087190009
 21
23.24995315354124
 31
0.0
  0
LINE
  5
214F
330
2060
100
AcDbEntity
  8
0
 62
     0
100
AcDbLine
 10
50.72065653762519
 20
7.210400972165529
 30
0.0
 11
52.88181106446035
 21
9.371555499000749
 31
0.0
  0
LINE
  5
2150
330
2060
100
AcDbEntity
  8
0
 62
     0
100
AcDbLine
 10
55.04221216833718
 20
12.42998221498447
 30
0.0
 11
57.84221216833724
 21
15.22998221498454
 31
0.0
  0
LINE
  5
2151
330
2060
100
AcDbEntity
  8
0
 62
     0
100
AcDbLine
 10
61.3422121683372
 20
18.72998221498448
 30
0.0
 11
64.14221216833721
 21
21.52998221498455
 31
0.0
  0
LINE
  5
2152
330
2060
100
AcDbEntity
  8
0
 62
     0
100
AcDbLine
 10
49.76222982164131
 20
7.149999868288658
 30
0.0
 11
52.94221216833715
 21
10.32998221498451
 31
0.0
  0
LINE
  5
2153
330
2060
100
AcDbEntity
  8
0
 62
     0
100
AcDbLine
 10
55.04221216833718
 20
13.32800782709137
 30
0.0
 11
57.84221216833724
 21
16.12800782709143
 31
0.0
  0
LINE
  5
2154
330
2060
100
AcDbEntity
  8
0
 62
     0
100
AcDbLine
 10
61.3422121683372
 20
19.62800782709138
 30
0.0
 11
64.14221216833727
 21
22.42800782709144
 31
0.0
  0
LINE
  5
2155
330
2060
100
AcDbEntity
  8
0
 62
     0
100
AcDbLine
 10
48.86420420953442
 20
7.149999868288603
 30
0.0
 11
52.94221216833722
 21
11.22800782709134
 31
0.0
  0
LINE
  5
2156
330
2060
100
AcDbEntity
  8
0
 62
     0
100
AcDbLine
 10
55.04221216833718
 20
14.22603343919831
 30
0.0
 11
57.84221216833724
 21
17.02603343919832
 31
0.0
  0
LINE
  5
2157
330
2060
100
AcDbEntity
  8
0
 62
     0
100
AcDbLine
 10
61.3422121683372
 20
20.52603343919827
 30
0.0
 11
63.94847471350311
 21
23.13229598436425
 31
0.0
  0
LINE
  5
2158
330
2060
100
AcDbEntity
  8
0
 62
     0
100
AcDbLine
 10
47.96617859742752
 20
7.149999868288658
 30
0.0
 11
52.92789356792422
 21
12.11171483878536
 31
0.0
  0
LINE
  5
2159
330
2060
100
AcDbEntity
  8
0
 62
     0
100
AcDbLine
 10
55.04221216833723
 20
15.12405905130532
 30
0.0
 11
57.84221216833721
 21
17.92405905130527
 31
0.0
  0
LINE
  5
215A
330
2060
100
AcDbEntity
  8
0
 62
     0
100
AcDbLine
 10
61.34221216833714
 20
21.42405905130522
 30
0.0
 11
63.1681529853206
 21
23.24999986828868
 31
0.0
  0
LINE
  5
215B
330
2060
100
AcDbEntity
  8
0
 62
     0
100
AcDbLine
 10
47.06815298532058
 20
7.149999868288658
 30
0.0
 11
52.79298119729549
 21
12.87482808026351
 31
0.0
  0
LINE
  5
215C
330
2060
100
AcDbEntity
  8
0
 62
     0
100
AcDbLine
 10
55.0422121683373
 20
16.02208466341215
 30
0.0
 11
57.84221216833724
 21
18.82208466341216
 31
0.0
  0
LINE
  5
215D
330
2060
100
AcDbEntity
  8
0
 62
     0
100
AcDbLine
 10
50.14221216833732
 20
11.12208466341218
 30
0.0
 11
52.55239374037694
 21
13.5322662354518
 31
0.0
  0
LINE
  5
215E
330
2060
100
AcDbEntity
  8
0
 62
     0
100
AcDbLine
 10
61.3422121683372
 20
22.32208466341211
 30
0.0
 11
62.27012737321377
 21
23.24999986828868
 31
0.0
  0
LINE
  5
215F
330
2060
100
AcDbEntity
  8
0
 62
     0
100
AcDbLine
 10
46.29838272634481
 20
7.278255221419726
 30
0.0
 11
48.9701273732137
 21
9.949999868288614
 31
0.0
  0
LINE
  5
2160
330
2060
100
AcDbEntity
  8
0
 62
     0
100
AcDbLine
 10
50.1223415932099
 20
12.00023970039171
 30
0.0
 11
52.2288944355164
 21
14.1067925426982
 31
0.0
  0
LINE
  5
2161
330
2060
100
AcDbEntity
  8
0
 62
     0
100
AcDbLine
 10
55.04221216833723
 20
16.9201102755191
 30
0.0
 11
57.84221216833721
 21
19.72011027551906
 31
0.0
  0
LINE
  5
2162
330
2060
100
AcDbEntity
  8
0
 62
     0
100
AcDbLine
 10
46.11721216833723
 20
7.995110275519039
 30
0.0
 11
48.07210176110675
 21
9.949999868288614
 31
0.0
  0
LINE
  5
2163
330
2060
100
AcDbEntity
  8
0
 62
     0
100
AcDbLine
 10
49.84795675607102
 20
12.62388047535984
 30
0.0
 11
51.83302331758858
 21
14.60894703687739
 31
0.0
  0
LINE
  5
2164
330
2060
100
AcDbEntity
  8
0
 62
     0
100
AcDbLine
 10
55.04221216833723
 20
17.818135887626
 30
0.0
 11
57.84221216833721
 21
20.61813588762601
 31
0.0
  0
LINE
  5
2165
330
2060
100
AcDbEntity
  8
0
 62
     0
100
AcDbLine
 10
46.11721216833717
 20
8.893135887625987
 30
0.0
 11
47.17407614899985
 21
9.949999868288671
 31
0.0
  0
LINE
  5
2166
330
2060
100
AcDbEntity
  8
0
 62
     0
100
AcDbLine
 10
55.04221216833723
 20
18.71616149973289
 30
0.0
 11
57.84221216833724
 21
21.51616149973284
 31
0.0
  0
LINE
  5
2167
330
2060
100
AcDbEntity
  8
0
 62
     0
100
AcDbLine
 10
49.40668185895396
 20
13.08063119034954
 30
0.0
 11
51.38658084627627
 21
15.06053017767186
 31
0.0
  0
LINE
  5
2168
330
2060
100
AcDbEntity
  8
0
 62
     0
100
AcDbLine
 10
48.95766905290049
 20
13.52964399640302
 30
0.0
 11
50.93756804022286
 21
15.50954298372545
 31
0.0
  0
LINE
  5
2169
330
2060
100
AcDbEntity
  8
0
 62
     0
100
AcDbLine
 10
55.04221216833723
 20
19.61418711183983
 30
0.0
 11
57.84221216833721
 21
22.41418711183979
 31
0.0
  0
LINE
  5
216A
330
2060
100
AcDbEntity
  8
0
 62
     0
100
AcDbLine
 10
42.57802492478599
 20
7.149999868288603
 30
0.0
 11
43.49221216833718
 21
8.064187111839714
 31
0.0
  0
LINE
  5
216B
330
2060
100
AcDbEntity
  8
0
 62
     0
100
AcDbLine
 10
48.50865624684701
 20
13.97865680245649
 30
0.0
 11
50.48855523416937
 21
15.95855578977892
 31
0.0
  0
LINE
  5
216C
330
2060
100
AcDbEntity
  8
0
 62
     0
100
AcDbLine
 10
55.04221216833718
 20
20.51221272394673
 30
0.0
 11
57.65603126023854
 21
23.12603181584802
 31
0.0
  0
LINE
  5
216D
330
2060
100
AcDbEntity
  8
0
 62
     0
100
AcDbLine
 10
41.67999931267906
 20
7.149999868288603
 30
0.0
 11
43.49221216833723
 21
8.96221272394672
 31
0.0
  0
LINE
  5
216E
330
2060
100
AcDbEntity
  8
0
 62
     0
100
AcDbLine
 10
48.05964344079353
 20
14.42766960850997
 30
0.0
 11
50.0395424281159
 21
16.4075685958324
 31
0.0
  0
LINE
  5
216F
330
2060
100
AcDbEntity
  8
0
 62
     0
100
AcDbLine
 10
55.04221216833718
 20
21.41023833605367
 30
0.0
 11
56.88197370057219
 21
23.24999986828868
 31
0.0
  0
LINE
  5
2170
330
2060
100
AcDbEntity
  8
0
 62
     0
100
AcDbLine
 10
40.89358483843414
 20
7.261611006150587
 30
0.0
 11
43.49221216833718
 21
9.860238336053667
 31
0.0
  0
LINE
  5
2171
330
2060
100
AcDbEntity
  8
0
 62
     0
100
AcDbLine
 10
47.6106306347401
 20
14.87668241456339
 30
0.0
 11
49.59052962206249
 21
16.85658140188581
 31
0.0
  0
LINE
  5
2172
330
2060
100
AcDbEntity
  8
0
 62
     0
100
AcDbLine
 10
55.0422121683373
 20
22.30826394816062
 30
0.0
 11
55.9839480884653
 21
23.24999986828862
 31
0.0
  0
LINE
  5
2173
330
2060
100
AcDbEntity
  8
0
 62
     0
100
AcDbLine
 10
40.69221216833721
 20
7.958263948160549
 30
0.0
 11
43.49221216833723
 21
10.7582639481605
 31
0.0
  0
LINE
  5
2174
330
2060
100
AcDbEntity
  8
0
 62
     0
100
AcDbLine
 10
47.16161782868663
 20
15.32569522061686
 30
0.0
 11
49.14151681600902
 21
17.30559420793929
 31
0.0
  0
LINE
  5
2175
330
2060
100
AcDbEntity
  8
0
 62
     0
100
AcDbLine
 10
40.69221216833721
 20
8.856289560267498
 30
0.0
 11
43.49221216833718
 21
11.65628956026744
 31
0.0
  0
LINE
  5
2176
330
2060
100
AcDbEntity
  8
0
 62
     0
100
AcDbLine
 10
46.71463392764531
 20
15.77673693168253
 30
0.0
 11
48.69860746102734
 21
17.7607104650645
 31
0.0
  0
LINE
  5
2177
330
2060
100
AcDbEntity
  8
0
 62
     0
100
AcDbLine
 10
40.69221216833721
 20
9.75431517237439
 30
0.0
 11
43.49221216833718
 21
12.5543151723744
 31
0.0
  0
LINE
  5
2178
330
2060
100
AcDbEntity
  8
0
 62
     0
100
AcDbLine
 10
51.38789686425139
 20
20.44999986828861
 30
0.0
 11
52.41721216833724
 21
21.47931517237441
 31
0.0
  0
LINE
  5
2179
330
2060
100
AcDbEntity
  8
0
 62
     0
100
AcDbLine
 10
38.19955594362699
 20
7.261658947664159
 30
0.0
 11
38.28920830508201
 21
7.351311309119238
 31
0.0
  0
LINE
  5
217A
330
2060
100
AcDbEntity
  8
0
 62
     0
100
AcDbLine
 10
46.31663174882334
 20
16.2767603649674
 30
0.0
 11
48.41626602624194
 21
18.376394642386
 31
0.0
  0
LINE
  5
217B
330
2060
100
AcDbEntity
  8
0
 62
     0
100
AcDbLine
 10
40.69221216833721
 20
10.65234078448128
 30
0.0
 11
43.49221216833723
 21
13.45234078448123
 31
0.0
  0
LINE
  5
217C
330
2060
100
AcDbEntity
  8
0
 62
     0
100
AcDbLine
 10
50.48987125214461
 20
20.44999986828867
 30
0.0
 11
52.41721216833724
 21
22.3773407844813
 31
0.0
  0
LINE
  5
217D
330
2060
100
AcDbEntity
  8
0
 62
     0
100
AcDbLine
 10
37.18987125214454
 20
7.149999868288603
 30
0.0
 11
38.25565034845107
 21
8.215778964595131
 31
0.0
  0
LINE
  5
217E
330
2060
100
AcDbEntity
  8
0
 62
     0
100
AcDbLine
 10
45.99079748442664
 20
16.84895171267766
 30
0.0
 11
48.39221216833731
 21
19.25036639658832
 31
0.0
  0
LINE
  5
217F
330
2060
100
AcDbEntity
  8
0
 62
     0
100
AcDbLine
 10
40.69221216833721
 20
11.55036639658817
 30
0.0
 11
43.49221216833718
 21
14.35036639658818
 31
0.0
  0
LINE
  5
2180
330
2060
100
AcDbEntity
  8
0
 62
     0
100
AcDbLine
 10
49.5918456400376
 20
20.44999986828861
 30
0.0
 11
52.25054323653933
 21
23.10869746479033
 31
0.0
  0
LINE
  5
2181
330
2060
100
AcDbEntity
  8
0
 62
     0
100
AcDbLine
 10
36.29184564003753
 20
7.149999868288545
 30
0.0
 11
38.04012420154538
 21
8.898278429796389
 31
0.0
  0
LINE
  5
2182
330
2060
100
AcDbEntity
  8
0
 62
     0
100
AcDbLine
 10
40.69221216833716
 20
12.44839200869512
 30
0.0
 11
43.49221216833718
 21
15.24839200869507
 31
0.0
  0
LINE
  5
2183
330
2060
100
AcDbEntity
  8
0
 62
     0
100
AcDbLine
 10
45.74741542175654
 20
17.50359526211451
 30
0.0
 11
51.49382002793071
 21
23.24999986828868
 31
0.0
  0
LINE
  5
2184
330
2060
100
AcDbEntity
  8
0
 62
     0
100
AcDbLine
 10
35.69983132938256
 20
7.456011169740519
 30
0.0
 11
37.82459805463969
 21
9.580777894997652
 31
0.0
  0
LINE
  5
2185
330
2060
100
AcDbEntity
  8
0
 62
     0
100
AcDbLine
 10
40.69221216833716
 20
13.34641762080207
 30
0.0
 11
43.4922121683371
 21
16.14641762080202
 31
0.0
  0
LINE
  5
2186
330
2060
100
AcDbEntity
  8
0
 62
     0
100
AcDbLine
 10
45.60870856267086
 20
18.26291401513577
 30
0.0
 11
50.59579441582383
 21
23.24999986828868
 31
0.0
  0
LINE
  5
2187
330
2060
100
AcDbEntity
  8
0
 62
     0
100
AcDbLine
 10
35.48107190773396
 20
8.13527736019887
 30
0.0
 11
37.609071907734
 21
10.26327736019891
 31
0.0
  0
LINE
  5
2188
330
2060
100
AcDbEntity
  8
0
 62
     0
100
AcDbLine
 10
40.69221216833721
 20
14.2444432329089
 30
0.0
 11
43.49221216833718
 21
17.04444323290891
 31
0.0
  0
LINE
  5
2189
330
2060
100
AcDbEntity
  8
0
 62
     0
100
AcDbLine
 10
45.59221216833726
 20
19.14444323290899
 30
0.0
 11
49.69776880371693
 21
23.24999986828868
 31
0.0
  0
LINE
  5
218A
330
2060
100
AcDbEntity
  8
0
 62
     0
100
AcDbLine
 10
35.26554576082833
 20
8.817776825400072
 30
0.0
 11
37.39354576082843
 21
10.94577682540011
 31
0.0
  0
LINE
  5
218B
330
2060
100
AcDbEntity
  8
0
 62
     0
100
AcDbLine
 10
40.69221216833727
 20
15.14246884501591
 30
0.0
 11
43.49221216833718
 21
17.94246884501581
 31
0.0
  0
LINE
  5
218C
330
2060
100
AcDbEntity
  8
0
 62
     0
100
AcDbLine
 10
45.59221216833726
 20
20.04246884501589
 30
0.0
 11
48.79974319161004
 21
23.24999986828868
 31
0.0
  0
LINE
  5
218D
330
2060
100
AcDbEntity
  8
0
 62
     0
100
AcDbLine
 10
35.05001961392264
 20
9.500276290601334
 30
0.0
 11
37.1780196139228
 21
11.62827629060149
 31
0.0
  0
LINE
  5
218E
330
2060
100
AcDbEntity
  8
0
 62
     0
100
AcDbLine
 10
40.69221216833721
 20
16.04049445712286
 30
0.0
 11
43.49221216833723
 21
18.84049445712281
 31
0.0
  0
LINE
  5
218F
330
2060
100
AcDbEntity
  8
0
 62
     0
100
AcDbLine
 10
34.83449346701695
 20
10.18277575580259
 30
0.0
 11
36.96249346701705
 21
12.31077575580263
 31
0.0
  0
LINE
  5
2190
330
2060
100
AcDbEntity
  8
0
 62
     0
100
AcDbLine
 10
45.6455288384584
 20
20.99381112724404
 30
0.0
 11
47.84840090938172
 21
23.19668319816736
 31
0.0
  0
LINE
  5
2191
330
2060
100
AcDbEntity
  8
0
 62
     0
100
AcDbLine
 10
31.80171757950296
 20
7.149999868288603
 30
0.0
 11
32.64221216833715
 21
7.990494457122792
 31
0.0
  0
LINE
  5
2192
330
2060
100
AcDbEntity
  8
0
 62
     0
100
AcDbLine
 10
34.61896732011144
 20
10.86527522100391
 30
0.0
 11
36.74696732011142
 21
12.99327522100389
 31
0.0
  0
LINE
  5
2193
330
2060
100
AcDbEntity
  8
0
 62
     0
100
AcDbLine
 10
40.69221216833727
 20
16.93852006922969
 30
0.0
 11
43.49221216833723
 21
19.73852006922969
 31
0.0
  0
LINE
  5
2194
330
2060
100
AcDbEntity
  8
0
 62
     0
100
AcDbLine
 10
30.90369196739612
 20
7.149999868288545
 30
0.0
 11
32.64221216833727
 21
8.888520069229741
 31
0.0
  0
LINE
  5
2195
330
2060
100
AcDbEntity
  8
0
 62
     0
100
AcDbLine
 10
34.40344117320569
 20
11.54777468620505
 30
0.0
 11
36.53144117320573
 21
13.67577468620515
 31
0.0
  0
LINE
  5
2196
330
2060
100
AcDbEntity
  8
0
 62
     0
100
AcDbLine
 10
40.69221216833721
 20
17.83654568133664
 30
0.0
 11
43.49221216833723
 21
20.6365456813366
 31
0.0
  0
LINE
  5
2197
330
2060
100
AcDbEntity
  8
0
 62
     0
100
AcDbLine
 10
30.08681610294047
 20
7.231149615939897
 30
0.0
 11
32.64221216833727
 21
9.786545681336688
 31
0.0
  0
LINE
  5
2198
330
2060
100
AcDbEntity
  8
0
 62
     0
100
AcDbLine
 10
34.1879150263
 20
12.23027415140632
 30
0.0
 11
36.31591502630004
 21
14.35827415140642
 31
0.0
  0
LINE
  5
2199
330
2060
100
AcDbEntity
  8
0
 62
     0
100
AcDbLine
 10
40.69221216833721
 20
18.73457129344359
 30
0.0
 11
43.49221216833718
 21
21.53457129344354
 31
0.0
  0
LINE
  5
219A
330
2060
100
AcDbEntity
  8
0
 62
     0
100
AcDbLine
 10
29.8422121683372
 20
7.884571293443514
 30
0.0
 11
32.64221216833727
 21
10.68457129344358
 31
0.0
  0
LINE
  5
219B
330
2060
100
AcDbEntity
  8
0
 62
     0
100
AcDbLine
 10
33.97238887939437
 20
12.91277361660752
 30
0.0
 11
36.10038887939452
 21
15.04077361660768
 31
0.0
  0
LINE
  5
219C
330
2060
100
AcDbEntity
  8
0
 62
     0
100
AcDbLine
 10
40.69221216833727
 20
19.63259690555043
 30
0.0
 11
43.49221216833723
 21
22.43259690555043
 31
0.0
  0
LINE
  5
219D
330
2060
100
AcDbEntity
  8
0
 62
     0
100
AcDbLine
 10
29.8422121683372
 20
8.782596905550406
 30
0.0
 11
32.64221216833727
 21
11.58259690555047
 31
0.0
  0
LINE
  5
219E
330
2060
100
AcDbEntity
  8
0
 62
     0
100
AcDbLine
 10
33.73759009242263
 20
13.57600044174279
 30
0.0
 11
36.36788416035352
 21
16.20629450967368
 31
0.0
  0
LINE
  5
219F
330
2060
100
AcDbEntity
  8
0
 62
     0
100
AcDbLine
 10
40.69221216833721
 20
20.53062251765737
 30
0.0
 11
43.29593674583878
 21
23.13434709515888
 31
0.0
  0
LINE
  5
21A0
330
2060
100
AcDbEntity
  8
0
 62
     0
100
AcDbLine
 10
29.8422121683372
 20
9.680622517657353
 30
0.0
 11
32.64221216833727
 21
12.48062251765736
 31
0.0
  0
LINE
  5
21A1
330
2060
100
AcDbEntity
  8
0
 62
     0
100
AcDbLine
 10
33.05040472255523
 20
13.78684068398234
 30
0.0
 11
36.78235751978752
 21
17.51879348121462
 31
0.0
  0
LINE
  5
21A2
330
2060
100
AcDbEntity
  8
0
 62
     0
100
AcDbLine
 10
29.8422121683372
 20
10.57864812976424
 30
0.0
 11
32.6553713526435
 21
13.39180731407054
 31
0.0
  0
LINE
  5
21A3
330
2060
100
AcDbEntity
  8
0
 62
     0
100
AcDbLine
 10
40.69221216833721
 20
21.42864812976426
 30
0.0
 11
42.51356390686157
 21
23.24999986828868
 31
0.0
  0
LINE
  5
21A4
330
2060
100
AcDbEntity
  8
0
 62
     0
100
AcDbLine
 10
26.41356390686155
 20
7.149999868288603
 30
0.0
 11
27.39221216833721
 21
8.128648129764313
 31
0.0
  0
LINE
  5
21A5
330
2060
100
AcDbEntity
  8
0
 62
     0
100
AcDbLine
 10
29.84221216833714
 20
11.47667374187119
 30
0.0
 11
37.19683087922147
 21
18.83129245275552
 31
0.0
  0
LINE
  5
21A6
330
2060
100
AcDbEntity
  8
0
 62
     0
100
AcDbLine
 10
40.69221216833716
 20
22.32667374187121
 30
0.0
 11
41.61553829475457
 21
23.24999986828862
 31
0.0
  0
LINE
  5
21A7
330
2060
100
AcDbEntity
  8
0
 62
     0
100
AcDbLine
 10
25.5155382947546
 20
7.149999868288658
 30
0.0
 11
27.39221216833727
 21
9.02667374187132
 31
0.0
  0
LINE
  5
21A8
330
2060
100
AcDbEntity
  8
0
 62
     0
100
AcDbLine
 10
29.8422121683372
 20
12.37469935397803
 30
0.0
 11
37.61130423865557
 21
20.14379142429646
 31
0.0
  0
LINE
  5
21A9
330
2060
100
AcDbEntity
  8
0
 62
     0
100
AcDbLine
 10
24.62919330699782
 20
7.161680492638707
 30
0.0
 11
27.25087788473103
 21
9.783365070371873
 31
0.0
  0
LINE
  5
21AA
330
2060
100
AcDbEntity
  8
0
 62
     0
100
AcDbLine
 10
29.84221216833714
 20
13.27272496608498
 30
0.0
 11
33.16948707054081
 21
16.59999986828864
 31
0.0
  0
LINE
  5
21AB
330
2060
100
AcDbEntity
  8
0
 62
     0
100
AcDbLine
 10
33.93346990578169
 20
17.36398270352952
 30
0.0
 11
38.02577759808953
 21
21.45629039583735
 31
0.0
  0
LINE
  5
21AC
330
2060
100
AcDbEntity
  8
0
 62
     0
100
AcDbLine
 10
23.86103278955084
 20
7.291545587298627
 30
0.0
 11
26.51948707054077
 21
9.949999868288614
 31
0.0
  0
LINE
  5
21AD
330
2060
100
AcDbEntity
  8
0
 62
     0
100
AcDbLine
 10
29.84221216833714
 20
14.17075057819192
 30
0.0
 11
32.66020273904547
 21
16.9887411489002
 31
0.0
  0
LINE
  5
21AE
330
2060
100
AcDbEntity
  8
0
 62
     0
100
AcDbLine
 10
34.34794326521564
 20
18.67648167507036
 30
0.0
 11
38.40084904989083
 21
22.72938745974562
 31
0.0
  0
LINE
  5
21AF
330
2060
100
AcDbEntity
  8
0
 62
     0
100
AcDbLine
 10
23.19989853272443
 20
7.528436942579219
 30
0.0
 11
25.62146145843388
 21
9.949999868288614
 31
0.0
  0
LINE
  5
21B0
330
2060
100
AcDbEntity
  8
0
 62
     0
100
AcDbLine
 10
29.8422121683372
 20
15.06877619029876
 30
0.0
 11
32.64221216833732
 21
17.86877619029888
 31
0.0
  0
LINE
  5
21B1
330
2060
100
AcDbEntity
  8
0
 62
     0
100
AcDbLine
 10
34.76241662464957
 20
19.98898064661119
 30
0.0
 11
38.00683717732164
 21
23.23340119928326
 31
0.0
  0
LINE
  5
21B2
330
2060
100
AcDbEntity
  8
0
 62
     0
100
AcDbLine
 10
22.62229524856013
 20
7.8488592705217
 30
0.0
 11
24.73835710705299
 21
9.964921129014614
 31
0.0
  0
LINE
  5
21B3
330
2060
100
AcDbEntity
  8
0
 62
     0
100
AcDbLine
 10
29.84221216833714
 20
15.96680180240571
 30
0.0
 11
32.64221216833727
 21
18.76680180240582
 31
0.0
  0
LINE
  5
21B4
330
2060
100
AcDbEntity
  8
0
 62
     0
100
AcDbLine
 10
35.17688998408351
 20
21.30147961815203
 30
0.0
 11
37.12541023422005
 21
23.24999986828862
 31
0.0
  0
LINE
  5
21B5
330
2060
100
AcDbEntity
  8
0
 62
     0
100
AcDbLine
 10
22.11734028217807
 20
8.241929916246588
 30
0.0
 11
24.10404096603468
 21
10.2286306001032
 31
0.0
  0
LINE
  5
21B6
330
2060
100
AcDbEntity
  8
0
 62
     0
100
AcDbLine
 10
29.84221216833714
 20
16.8648274145126
 30
0.0
 11
32.64221216833727
 21
19.66482741451278
 31
0.0
  0
LINE
  5
21B7
330
2060
100
AcDbEntity
  8
0
 62
     0
100
AcDbLine
 10
26.50384630011365
 20
13.52646154628917
 30
0.0
 11
27.66575049033673
 21
14.68836573651225
 31
0.0
  0
LINE
  5
21B8
330
2060
100
AcDbEntity
  8
0
 62
     0
100
AcDbLine
 10
35.5913633435174
 20
22.61397858969292
 30
0.0
 11
36.22738462211311
 21
23.24999986828862
 31
0.0
  0
LINE
  5
21B9
330
2060
100
AcDbEntity
  8
0
 62
     0
100
AcDbLine
 10
21.68090320884823
 20
8.703518455023752
 30
0.0
 11
23.6937900147625
 21
10.71640526093801
 31
0.0
  0
LINE
  5
21BA
330
2060
100
AcDbEntity
  8
0
 62
     0
100
AcDbLine
 10
25.57887345848382
 20
13.49951431676629
 30
0.0
 11
27.6926977198596
 21
15.61333857814202
 31
0.0
  0
LINE
  5
21BB
330
2060
100
AcDbEntity
  8
0
 62
     0
100
AcDbLine
 10
29.8422121683372
 20
17.7628530266196
 30
0.0
 11
32.64221216833727
 21
20.56285302661967
 31
0.0
  0
LINE
  5
21BC
330
2060
100
AcDbEntity
  8
0
 62
     0
100
AcDbLine
 10
21.31388398390527
 20
9.234524842187679
 30
0.0
 11
23.54221216833718
 21
11.46285302661965
 31
0.0
  0
LINE
  5
21BD
330
2060
100
AcDbEntity
  8
0
 62
     0
100
AcDbLine
 10
24.96472688906362
 20
13.78339335945287
 30
0.0
 11
27.40881867717297
 21
16.22748514756227
 31
0.0
  0
LINE
  5
21BE
330
2060
100
AcDbEntity
  8
0
 62
     0
100
AcDbLine
 10
29.8422121683372
 20
18.6608786387265
 30
0.0
 11
32.64221216833727
 21
21.46087863872657
 31
0.0
  0
LINE
  5
21BF
330
2060
100
AcDbEntity
  8
0
 62
     0
100
AcDbLine
 10
21.02256647398053
 20
9.841232944369835
 30
0.0
 11
23.54221216833718
 21
12.36087863872649
 31
0.0
  0
LINE
  5
21C0
330
2060
100
AcDbEntity
  8
0
 62
     0
100
AcDbLine
 10
24.5267669620739
 20
14.24345904457015
 30
0.0
 11
26.94875299205574
 21
16.66544507455194
 31
0.0
  0
LINE
  5
21C1
330
2060
100
AcDbEntity
  8
0
 62
     0
100
AcDbLine
 10
29.8422121683372
 20
19.55890425083345
 30
0.0
 11
32.64221216833727
 21
22.35890425083346
 31
0.0
  0
LINE
  5
21C2
330
2060
100
AcDbEntity
  8
0
 62
     0
100
AcDbLine
 10
20.82142910980587
 20
10.53812119230212
 30
0.0
 11
23.54221216833718
 21
13.25890425083343
 31
0.0
  0
LINE
  5
21C3
330
2060
100
AcDbEntity
  8
0
 62
     0
100
AcDbLine
 10
24.27071622966554
 20
14.88543392426868
 30
0.0
 11
26.30677811235716
 21
16.92149580696036
 31
0.0
  0
LINE
  5
21C4
330
2060
100
AcDbEntity
  8
0
 62
     0
100
AcDbLine
 10
20.74221216833711
 20
11.35692986294031
 30
0.0
 11
23.54221216833718
 21
14.15692986294033
 31
0.0
  0
LINE
  5
21C5
330
2060
100
AcDbEntity
  8
0
 62
     0
100
AcDbLine
 10
29.8422121683372
 20
20.45692986294034
 30
0.0
 11
32.48496205998208
 21
23.09967975458528
 31
0.0
  0
LINE
  5
21C6
330
2060
100
AcDbEntity
  8
0
 62
     0
100
AcDbLine
 10
16.65621541046152
 20
7.270933105064727
 30
0.0
 11
18.52127893156125
 21
9.135996626164455
 31
0.0
  0
LINE
  5
21C7
330
2060
100
AcDbEntity
  8
0
 62
     0
100
AcDbLine
 10
24.38912931314632
 20
15.90187261985636
 30
0.0
 11
25.29033941676954
 21
16.80308272347957
 31
0.0
  0
LINE
  5
21C8
330
2060
100
AcDbEntity
  8
0
 62
     0
100
AcDbLine
 10
20.74221216833711
 20
12.25495547504715
 30
0.0
 11
23.54221216833729
 21
15.05495547504728
 31
0.0
  0
LINE
  5
21C9
330
2060
100
AcDbEntity
  8
0
 62
     0
100
AcDbLine
 10
29.8422121683372
 20
21.35495547504723
 30
0.0
 11
31.73725656157859
 21
23.24999986828862
 31
0.0
  0
LINE
  5
21CA
330
2060
100
AcDbEntity
  8
0
 62
     0
100
AcDbLine
 10
15.63725656157856
 20
7.149999868288603
 30
0.0
 11
18.64221216833732
 21
10.1549554750473
 31
0.0
  0
LINE
  5
21CB
330
2060
100
AcDbEntity
  8
0
 62
     0
100
AcDbLine
 10
20.74221216833711
 20
13.1529810871541
 30
0.0
 11
23.54221216833724
 21
15.95298108715422
 31
0.0
  0
LINE
  5
21CC
330
2060
100
AcDbEntity
  8
0
 62
     0
100
AcDbLine
 10
29.8422121683372
 20
22.25298108715412
 30
0.0
 11
30.8392309494717
 21
23.24999986828868
 31
0.0
  0
LINE
  5
21CD
330
2060
100
AcDbEntity
  8
0
 62
     0
100
AcDbLine
 10
14.73923094947156
 20
7.149999868288545
 30
0.0
 11
18.64221216833726
 21
11.05298108715425
 31
0.0
  0
LINE
  5
21CE
330
2060
100
AcDbEntity
  8
0
 62
     0
100
AcDbLine
 10
20.74221216833711
 20
14.05100669926099
 30
0.0
 11
23.54221216833724
 21
16.85100669926117
 31
0.0
  0
LINE
  5
21CF
330
2060
100
AcDbEntity
  8
0
 62
     0
100
AcDbLine
 10
13.84120533736472
 20
7.149999868288658
 30
0.0
 11
18.63827281577601
 21
11.94706734669995
 31
0.0
  0
LINE
  5
21D0
330
2060
100
AcDbEntity
  8
0
 62
     0
100
AcDbLine
 10
20.74221216833711
 20
14.94903231136794
 30
0.0
 11
23.54221216833724
 21
17.74903231136805
 31
0.0
  0
LINE
  5
21D1
330
2060
100
AcDbEntity
  8
0
 62
     0
100
AcDbLine
 10
26.2431797252579
 20
20.44999986828873
 30
0.0
 11
27.39221216833732
 21
21.59903231136814
 31
0.0
  0
LINE
  5
21D2
330
2060
100
AcDbEntity
  8
0
 62
     0
100
AcDbLine
 10
12.94317972525777
 20
7.149999868288603
 30
0.0
 11
18.52861097945469
 21
12.73543112248552
 31
0.0
  0
LINE
  5
21D3
330
2060
100
AcDbEntity
  8
0
 62
     0
100
AcDbLine
 10
20.74221216833711
 20
15.84705792347483
 30
0.0
 11
23.54221216833724
 21
18.64705792347496
 31
0.0
  0
LINE
  5
21D4
330
2060
100
AcDbEntity
  8
0
 62
     0
100
AcDbLine
 10
15.8422121683372
 20
10.94705792347491
 30
0.0
 11
18.30627223541057
 21
13.41111799054829
 31
0.0
  0
LINE
  5
21D5
330
2060
100
AcDbEntity
  8
0
 62
     0
100
AcDbLine
 10
25.34515411315089
 20
20.44999986828861
 30
0.0
 11
27.39221216833732
 21
22.49705792347498
 31
0.0
  0
LINE
  5
21D6
330
2060
100
AcDbEntity
  8
0
 62
     0
100
AcDbLine
 10
12.10287998841084
 20
7.207725743548563
 30
0.0
 11
14.84515411315089
 21
9.949999868288614
 31
0.0
  0
LINE
  5
21D7
330
2060
100
AcDbEntity
  8
0
 62
     0
100
AcDbLine
 10
20.74221216833706
 20
16.74508353558172
 30
0.0
 11
23.70802687411685
 21
19.71089824136152
 31
0.0
  0
LINE
  5
21D8
330
2060
100
AcDbEntity
  8
0
 62
     0
100
AcDbLine
 10
15.84005307672794
 20
11.84292444397254
 30
0.0
 11
17.99784070073854
 21
14.00071206798321
 31
0.0
  0
LINE
  5
21D9
330
2060
100
AcDbEntity
  8
0
 62
     0
100
AcDbLine
 10
24.28131379526439
 20
20.28418516250906
 30
0.0
 11
27.1587447534174
 21
23.16161612066201
 31
0.0
  0
LINE
  5
21DA
330
2060
100
AcDbEntity
  8
0
 62
     0
100
AcDbLine
 10
11.81721216833722
 20
7.820083535581829
 30
0.0
 11
13.947128501044
 21
9.949999868288614
 31
0.0
  0
LINE
  5
21DB
330
2060
100
AcDbEntity
  8
0
 62
     0
100
AcDbLine
 10
15.62045005722723
 20
12.52134703657884
 30
0.0
 11
17.61559873589965
 21
14.51649571525126
 31
0.0
  0
LINE
  5
21DC
330
2060
100
AcDbEntity
  8
0
 62
     0
100
AcDbLine
 10
20.74221216833706
 20
17.64310914768867
 30
0.0
 11
26.34910288893701
 21
23.24999986828862
 31
0.0
  0
LINE
  5
21DD
330
2060
100
AcDbEntity
  8
0
 62
     0
100
AcDbLine
 10
11.81721216833716
 20
8.718109147688776
 30
0.0
 11
13.04910288893705
 21
9.949999868288671
 31
0.0
  0
LINE
  5
21DE
330
2060
100
AcDbEntity
  8
0
 62
     0
100
AcDbLine
 10
15.19419522892252
 20
12.99311782038097
 30
0.0
 11
17.17409421624489
 21
14.97301680770334
 31
0.0
  0
LINE
  5
21DF
330
2060
100
AcDbEntity
  8
0
 62
     0
100
AcDbLine
 10
20.74221216833711
 20
18.54113475979551
 30
0.0
 11
25.45107727683006
 21
23.24999986828851
 31
0.0
  0
LINE
  5
21E0
330
2060
100
AcDbEntity
  8
0
 62
     0
100
AcDbLine
 10
11.88616409035694
 20
9.685086681815393
 30
0.0
 11
12.08212535481055
 21
9.881047946269005
 31
0.0
  0
LINE
  5
21E1
330
2060
100
AcDbEntity
  8
0
 62
     0
100
AcDbLine
 10
20.7621872824937
 20
19.45913548605903
 30
0.0
 11
24.5330765505667
 21
23.2300247541321
 31
0.0
  0
LINE
  5
21E2
330
2060
100
AcDbEntity
  8
0
 62
     0
100
AcDbLine
 10
14.74518242286904
 20
13.44213062643444
 30
0.0
 11
16.72508141019141
 21
15.42202961375681
 31
0.0
  0
LINE
  5
21E3
330
2060
100
AcDbEntity
  8
0
 62
     0
100
AcDbLine
 10
21.06165071475948
 20
20.65662453043182
 30
0.0
 11
23.33558750619397
 21
22.93056132186632
 31
0.0
  0
LINE
  5
21E4
330
2060
100
AcDbEntity
  8
0
 62
     0
100
AcDbLine
 10
14.29616961681557
 20
13.89114343248792
 30
0.0
 11
16.27606860413794
 21
15.87104241981029
 31
0.0
  0
LINE
  5
21E5
330
2060
100
AcDbEntity
  8
0
 62
     0
100
AcDbLine
 10
13.84715681076215
 20
14.34015623854134
 30
0.0
 11
15.82705579808447
 21
16.32005522586359
 31
0.0
  0
LINE
  5
21E6
330
2060
100
AcDbEntity
  8
0
 62
     0
100
AcDbLine
 10
13.39814400470868
 20
14.78916904459481
 30
0.0
 11
15.378042992031
 21
16.76906803191707
 31
0.0
  0
LINE
  5
21E7
330
2060
100
AcDbEntity
  8
0
 62
     0
100
AcDbLine
 10
12.94913119865521
 20
15.23818185064828
 30
0.0
 11
14.92903018597752
 21
17.21808083797054
 31
0.0
  0
LINE
  5
21E8
330
2060
100
AcDbEntity
  8
0
 62
     0
100
AcDbLine
 10
17.26292360418864
 20
20.44999986828861
 30
0.0
 11
18.11721216833712
 21
21.30428843243714
 31
0.0
  0
LINE
  5
21E9
330
2060
100
AcDbEntity
  8
0
 62
     0
100
AcDbLine
 10
12.50020170662986
 20
15.68727797072989
 30
0.0
 11
14.48026735006232
 21
17.66734361416235
 31
0.0
  0
LINE
  5
21EA
330
2060
100
AcDbEntity
  8
0
 62
     0
100
AcDbLine
 10
16.36489799208175
 20
20.44999986828861
 30
0.0
 11
18.11721216833717
 21
22.20231404454403
 31
0.0
  0
LINE
  5
21EB
330
2060
100
AcDbEntity
  8
0
 62
     0
100
AcDbLine
 10
12.08873378207829
 20
16.1738356582851
 30
0.0
 11
14.15037046877438
 21
18.23547234498124
 31
0.0
  0
LINE
  5
21EC
330
2060
100
AcDbEntity
  8
0
 62
     0
100
AcDbLine
 10
15.4668723799748
 20
20.44999986828861
 30
0.0
 11
18.03065326857603
 21
23.01378075688984
 31
0.0
  0
LINE
  5
21ED
330
2060
100
AcDbEntity
  8
0
 62
     0
100
AcDbLine
 10
11.74827317581582
 20
16.73140066412958
 30
0.0
 11
14.09221216833725
 21
19.07533965665101
 31
0.0
  0
LINE
  5
21EE
330
2060
100
AcDbEntity
  8
0
 62
     0
100
AcDbLine
 10
14.56638011869778
 20
20.44753321911849
 30
0.0
 11
17.36884676786786
 21
23.24999986828862
 31
0.0
  0
LINE
  5
21EF
330
2060
100
AcDbEntity
  8
0
 62
     0
100
AcDbLine
 10
11.48757988008372
 20
17.36873298050443
 30
0.0
 11
14.09467881750731
 21
19.97583191792807
 31
0.0
  0
LINE
  5
21F0
330
2060
100
AcDbEntity
  8
0
 62
     0
100
AcDbLine
 10
11.32576791783566
 20
18.10494663036325
 30
0.0
 11
16.47082115576103
 21
23.24999986828856
 31
0.0
  0
LINE
  5
21F1
330
2060
100
AcDbEntity
  8
0
 62
     0
100
AcDbLine
 10
11.29221216833724
 20
18.96941649297178
 30
0.0
 11
15.57279554365408
 21
23.24999986828862
 31
0.0
  0
LINE
  5
21F2
330
2060
100
AcDbEntity
  8
0
 62
     0
100
AcDbLine
 10
11.29221216833724
 20
19.86744210507868
 30
0.0
 11
14.67476993154713
 21
23.24999986828862
 31
0.0
  0
LINE
  5
21F3
330
2060
100
AcDbEntity
  8
0
 62
     0
100
AcDbLine
 10
11.31240417877546
 20
20.78565972762385
 30
0.0
 11
13.75655230900207
 21
23.22980785785046
 31
0.0
  0
ENDBLK
  5
21F5
330
2060
100
AcDbEntity
  8
0
100
AcDbBlockEnd
  0
BLOCK
  5
39C2
330
39B8
100
AcDbEntity
  8
0
100
AcDbBlockBegin
  2
*D2
 70
     1
 10
0.0
 20
0.0
 30
0.0
  3
*D2
  1

  0
LINE
  5
3E5C
330
39B8
100
AcDbEntity
  8
SUNPOU
 62
     4
370
    -2
100
AcDbLine
 10
250.9062143700772
 20
112.7304714388399
 30
0.0
 11
250.9062143700772
 21
81.99897914058873
 31
0.0
  0
LINE
  5
3E5D
330
39B8
100
AcDbEntity
  8
SUNPOU
 62
     4
370
    -2
100
AcDbLine
 10
324.6068143700771
 20
112.7303714388399
 30
0.0
 11
324.6068143700771
 21
81.99897914058873
 31
0.0
  0
LINE
  5
3E5E
330
39B8
100
AcDbEntity
  8
SUNPOU
 62
     4
370
    -2
100
AcDbLine
 10
257.9062143700772
 20
84.99897914058873
 30
0.0
 11
317.6068143700771
 21
84.99897914058873
 31
0.0
  0
INSERT
  5
3E5F
330
39B8
100
AcDbEntity
  8
SUNPOU
 62
     4
370
    -2
100
AcDbBlockReference
  2
_OPEN
 10
250.9062143700772
 20
84.99897914058873
 30
0.0
 41
7.0
 42
7.0
 43
7.0
 50
180.0
  0
INSERT
  5
3E60
330
39B8
100
AcDbEntity
  8
SUNPOU
 62
     4
370
    -2
100
AcDbBlockReference
  2
_OPEN
 10
324.6068143700771
 20
84.99897914058873
 30
0.0
 41
7.0
 42
7.0
 43
7.0
  0
MTEXT
  5
3E61
330
39B8
100
AcDbEntity
  8
SUNPOU
 62
     4
100
AcDbMText
 10
287.7565143700771
 20
89.99897914058873
 30
0.0
 40
6.0
 41
0.0
 71
     5
 72
     1
  1
\A1;φ74
 73
     1
 44
1.0
1001
ACAD
1000
MTEXTBEGIN
1070
    73
1070
     1
1070
    44
1040
1.0
1070
    74
1070
     0
1000
MTEXTEND
  0
POINT
  5
3E62
330
39B8
100
AcDbEntity
  8
DEFPOINTS
 62
     0
100
AcDbPoint
 10
250.9062143700772
 20
118.7304714388399
 30
0.0
  0
POINT
  5
3E63
330
39B8
100
AcDbEntity
  8
DEFPOINTS
 62
     0
100
AcDbPoint
 10
324.6068143700771
 20
118.7303714388399
 30
0.0
  0
POINT
  5
3E64
330
39B8
100
AcDbEntity
  8
DEFPOINTS
 62
     0
100
AcDbPoint
 10
324.6068143700771
 20
84.99897914058873
 30
0.0
  0
ENDBLK
  5
39C3
330
39B8
100
AcDbEntity
  8
0
100
AcDbBlockEnd
  0
BLOCK
  5
39CA
330
39C4
100
AcDbEntity
  8
0
100
AcDbBlockBegin
  2
*D3
 70
     1
 10
0.0
 20
0.0
 30
0.0
  3
*D3
  1

  0
LINE
  5
3E56
330
39C4
100
AcDbEntity
  8
SUNPOU
 62
     4
370
    -2
100
AcDbLine
 10
268.086649929796
 20
389.6845437242868
 30
0.0
 11
307.4259789042055
 21
413.5260450867624
 31
0.0
  0
MTEXT
  5
3E57
330
39C4
100
AcDbEntity
  8
SUNPOU
 62
     4
100
AcDbMText
 10
294.9088577921672
 20
412.1134950931963
 30
0.0
 40
6.0
 41
0.0
 71
     5
 72
     1
  1
\A1;\U+220560
 11
0.8552028055347051
 21
0.5182935089363649
 31
0.0
 73
     1
 44
1.0
1001
ACAD
1000
MTEXTBEGIN
1070
    73
1070
     1
1070
    44
1040
1.0
1070
    74
1070
     0
1000
MTEXTEND
  0
INSERT
  5
3E58
330
39C4
100
AcDbEntity
  8
SUNPOU
 62
     4
370
    -2
100
AcDbBlockReference
  2
_OPEN
 10
262.1002302910531
 20
386.0564891617322
 30
0.0
 41
7.0
 42
7.0
 43
7.0
 50
211.2178529101818
  0
INSERT
  5
3E59
330
39C4
100
AcDbEntity
  8
SUNPOU
 62
     4
370
    -2
100
AcDbBlockReference
  2
_OPEN
 10
313.4123985429484
 20
417.154099649317
 30
0.0
 41
7.0
 42
7.0
 43
7.0
 50
31.21785291018178
  0
POINT
  5
3E5A
330
39C4
100
AcDbEntity
  8
DEFPOINTS
 62
     0
100
AcDbPoint
 10
313.4123985429484
 20
417.154099649317
 30
0.0
  0
POINT
  5
3E5B
330
39C4
100
AcDbEntity
  8
DEFPOINTS
 62
     0
100
AcDbPoint
 10
262.1002302910531
 20
386.0564891617322
 30
0.0
  0
ENDBLK
  5
39CB
330
39C4
100
AcDbEntity
  8
0
100
AcDbBlockEnd
  0
BLOCK
  5
39D8
330
39CC
100
AcDbEntity
  8
0
100
AcDbBlockBegin
  2
*D4
 70
     1
 10
0.0
 20
0.0
 30
0.0
  3
*D4
  1

  0
LINE
  5
3E4B
330
39CC
100
AcDbEntity
  8
SUNPOU
 62
     4
370
    -2
100
AcDbLine
 10
364.2566143700769
 20
258.7303714388398
 30
0.0
 11
390.9955500331711
 21
258.7303714388398
 31
0.0
  0
LINE
  5
3E4C
330
39CC
100
AcDbEntity
  8
SUNPOU
 62
     4
370
    -2
100
AcDbLine
 10
362.8052143700771
 20
248.7303714388397
 30
0.0
 11
390.9955500331711
 21
248.7303714388397
 31
0.0
  0
LINE
  5
3E4D
330
39CC
100
AcDbEntity
  8
SUNPOU
 62
     4
370
    -2
100
AcDbLine
 10
387.9955500331711
 20
265.7303714388397
 30
0.0
 11
387.9955500331711
 21
272.7303714388398
 31
0.0
  0
LINE
  5
3E4E
330
39CC
100
AcDbEntity
  8
SUNPOU
 62
     4
370
    -2
100
AcDbLine
 10
387.9955500331711
 20
241.7303714388397
 30
0.0
 11
387.9955500331711
 21
223.7303714388397
 31
0.0
  0
LINE
  5
3E4F
330
39CC
100
AcDbEntity
  8
SUNPOU
 62
     4
370
    -2
100
AcDbLine
 10
387.9955500331711
 20
258.7303714388398
 30
0.0
 11
387.9955500331711
 21
248.7303714388397
 31
0.0
  0
INSERT
  5
3E50
330
39CC
100
AcDbEntity
  8
SUNPOU
 62
     4
370
    -2
100
AcDbBlockReference
  2
_OPEN
 10
387.9955500331711
 20
258.7303714388398
 30
0.0
 41
7.0
 42
7.0
 43
7.0
 50
270.0
  0
INSERT
  5
3E51
330
39CC
100
AcDbEntity
  8
SUNPOU
 62
     4
370
    -2
100
AcDbBlockReference
  2
_OPEN
 10
387.9955500331711
 20
248.7303714388397
 30
0.0
 41
7.0
 42
7.0
 43
7.0
 50
90.0
  0
MTEXT
  5
3E52
330
39CC
100
AcDbEntity
  8
SUNPOU
 62
     4
100
AcDbMText
 10
382.9955500331711
 20
229.2303714388397
 30
0.0
 40
6.0
 41
0.0
 71
     5
 72
     1
  1
\A1;10
 11
0.0000000000000001
 21
1.0
 31
0.0
 73
     1
 44
1.0
1001
ACAD
1000
MTEXTBEGIN
1070
    73
1070
     1
1070
    44
1040
1.0
1070
    74
1070
     0
1000
MTEXTEND
  0
POINT
  5
3E53
330
39CC
100
AcDbEntity
  8
DEFPOINTS
 62
     0
100
AcDbPoint
 10
358.2566143700769
 20
258.7303714388398
 30
0.0
  0
POINT
  5
3E54
330
39CC
100
AcDbEntity
  8
DEFPOINTS
 62
     0
100
AcDbPoint
 10
356.8052143700771
 20
248.7303714388397
 30
0.0
  0
POINT
  5
3E55
330
39CC
100
AcDbEntity
  8
DEFPOINTS
 62
     0
100
AcDbPoint
 10
387.9955500331711
 20
248.7303714388397
 30
0.0
  0
ENDBLK
  5
39D9
330
39CC
100
AcDbEntity
  8
0
100
AcDbBlockEnd
  0
BLOCK
  5
39E4
330
39DA
100
AcDbEntity
  8
0
100
AcDbBlockBegin
  2
*D5
 70
     1
 10
0.0
 20
0.0
 30
0.0
  3
*D5
  1

  0
LINE
  5
3E42
330
39DA
100
AcDbEntity
  8
SUNPOU
 62
     4
370
    -2
100
AcDbLine
 10
372.6167143700772
 20
419.6053444055245
 30
0.0
 11
396.8910151651806
 21
419.6053444055245
 31
0.0
  0
LINE
  5
3E43
330
39DA
100
AcDbEntity
  8
SUNPOU
 62
     4
370
    -2
100
AcDbLine
 10
356.7563143699729
 20
401.6052944055245
 30
0.0
 11
396.8910151651806
 21
401.6052944055245
 31
0.0
  0
LINE
  5
3E44
330
39DA
100
AcDbEntity
  8
SUNPOU
 62
     4
370
    -2
100
AcDbLine
 10
393.8910151651806
 20
412.6053444055245
 30
0.0
 11
393.8910151651806
 21
408.6052944055245
 31
0.0
  0
INSERT
  5
3E45
330
39DA
100
AcDbEntity
  8
SUNPOU
 62
     4
370
    -2
100
AcDbBlockReference
  2
_OPEN
 10
393.8910151651806
 20
419.6053444055245
 30
0.0
 41
7.0
 42
7.0
 43
7.0
 50
90.0
  0
INSERT
  5
3E46
330
39DA
100
AcDbEntity
  8
SUNPOU
 62
     4
370
    -2
100
AcDbBlockReference
  2
_OPEN
 10
393.8910151651806
 20
401.6052944055245
 30
0.0
 41
7.0
 42
7.0
 43
7.0
 50
270.0
  0
MTEXT
  5
3E47
330
39DA
100
AcDbEntity
  8
SUNPOU
 62
     4
100
AcDbMText
 10
388.8910151651805
 20
410.6053194055246
 30
0.0
 40
6.0
 41
0.0
 71
     5
 72
     1
  1
\A1;18
 11
0.0000000000000001
 21
1.0
 31
0.0
 73
     1
 44
1.0
1001
ACAD
1000
MTEXTBEGIN
1070
    73
1070
     1
1070
    44
1040
1.0
1070
    74
1070
     0
1000
MTEXTEND
  0
POINT
  5
3E48
330
39DA
100
AcDbEntity
  8
DEFPOINTS
 62
     0
100
AcDbPoint
 10
366.6167143700772
 20
419.6053444055245
 30
0.0
  0
POINT
  5
3E49
330
39DA
100
AcDbEntity
  8
DEFPOINTS
 62
     0
100
AcDbPoint
 10
350.7563143699729
 20
401.6052944055245
 30
0.0
  0
POINT
  5
3E4A
330
39DA
100
AcDbEntity
  8
DEFPOINTS
 62
     0
100
AcDbPoint
 10
393.8910151651806
 20
401.6052944055245
 30
0.0
  0
ENDBLK
  5
39E5
330
39DA
100
AcDbEntity
  8
0
100
AcDbBlockEnd
  0
BLOCK
  5
39F0
330
39E6
100
AcDbEntity
  8
0
100
AcDbBlockBegin
  2
*D6
 70
     1
 10
0.0
 20
0.0
 30
0.0
  3
*D6
  1

  0
LINE
  5
3E94
330
39E6
100
AcDbEntity
  8
SUNPOU
 62
     4
370
    -2
100
AcDbLine
 10
364.2566143700769
 20
258.7303714388398
 30
0.0
 11
423.5063711955779
 21
258.7303714388398
 31
0.0
  0
LINE
  5
3E95
330
39E6
100
AcDbEntity
  8
SUNPOU
 62
     4
370
    -2
100
AcDbLine
 10
322.756527220056
 20
102.7303722862834
 30
0.0
 11
423.5063711955779
 21
102.7303722862833
 31
0.0
  0
LINE
  5
3E96
330
39E6
100
AcDbEntity
  8
SUNPOU
 62
     4
370
    -2
100
AcDbLine
 10
420.506371195578
 20
251.7303714388398
 30
0.0
 11
420.5063711955779
 21
109.7303722862833
 31
0.0
  0
INSERT
  5
3E97
330
39E6
100
AcDbEntity
  8
SUNPOU
 62
     4
370
    -2
100
AcDbBlockReference
  2
_OPEN
 10
420.506371195578
 20
258.7303714388398
 30
0.0
 41
7.0
 42
7.0
 43
7.0
 50
90.0
  0
INSERT
  5
3E98
330
39E6
100
AcDbEntity
  8
SUNPOU
 62
     4
370
    -2
100
AcDbBlockReference
  2
_OPEN
 10
420.5063711955779
 20
102.7303722862833
 30
0.0
 41
7.0
 42
7.0
 43
7.0
 50
270.0
  0
MTEXT
  5
3E99
330
39E6
100
AcDbEntity
  8
SUNPOU
 62
     4
100
AcDbMText
 10
415.5063711955779
 20
180.7303718625616
 30
0.0
 40
6.0
 41
0.0
 71
     5
 72
     1
  1
\A1;156
 11
0.0000000000000001
 21
1.0
 31
0.0
 73
     1
 44
1.0
1001
ACAD
1000
MTEXTBEGIN
1070
    73
1070
     1
1070
    44
1040
1.0
1070
    74
1070
     0
1000
MTEXTEND
  0
POINT
  5
3E9A
330
39E6
100
AcDbEntity
  8
DEFPOINTS
 62
     0
100
AcDbPoint
 10
358.2566143700769
 20
258.7303714388398
 30
0.0
  0
POINT
  5
3E9B
330
39E6
100
AcDbEntity
  8
DEFPOINTS
 62
     0
100
AcDbPoint
 10
316.756527220056
 20
102.7303722862834
 30
0.0
  0
POINT
  5
3E9C
330
39E6
100
AcDbEntity
  8
DEFPOINTS
 62
     0
100
AcDbPoint
 10
420.5063711955779
 20
102.7303722862833
 30
0.0
  0
ENDBLK
  5
39F1
330
39E6
100
AcDbEntity
  8
0
100
AcDbBlockEnd
  0
BLOCK
  5
39FC
330
39F2
100
AcDbEntity
  8
0
100
AcDbBlockBegin
  2
*D7
 70
     1
 10
0.0
 20
0.0
 30
0.0
  3
*D7
  1

  0
LINE
  5
3E8B
330
39F2
100
AcDbEntity
  8
SUNPOU
 62
     4
370
    -2
100
AcDbLine
 10
364.2566143700769
 20
258.7303714388398
 30
0.0
 11
406.3883977982102
 21
258.7303714388398
 31
0.0
  0
LINE
  5
3E8C
330
39F2
100
AcDbEntity
  8
SUNPOU
 62
     4
370
    -2
100
AcDbLine
 10
326.7567143700773
 20
113.7303714388399
 30
0.0
 11
406.3883977982102
 21
113.7303714388399
 31
0.0
  0
LINE
  5
3E8D
330
39F2
100
AcDbEntity
  8
SUNPOU
 62
     4
370
    -2
100
AcDbLine
 10
403.3883977982102
 20
251.7303714388398
 30
0.0
 11
403.3883977982102
 21
120.7303714388399
 31
0.0
  0
INSERT
  5
3E8E
330
39F2
100
AcDbEntity
  8
SUNPOU
 62
     4
370
    -2
100
AcDbBlockReference
  2
_OPEN
 10
403.3883977982102
 20
258.7303714388398
 30
0.0
 41
7.0
 42
7.0
 43
7.0
 50
90.0
  0
INSERT
  5
3E8F
330
39F2
100
AcDbEntity
  8
SUNPOU
 62
     4
370
    -2
100
AcDbBlockReference
  2
_OPEN
 10
403.3883977982102
 20
113.7303714388399
 30
0.0
 41
7.0
 42
7.0
 43
7.0
 50
270.0
  0
MTEXT
  5
3E90
330
39F2
100
AcDbEntity
  8
SUNPOU
 62
     4
100
AcDbMText
 10
398.3883977982102
 20
186.2303714388399
 30
0.0
 40
6.0
 41
0.0
 71
     5
 72
     1
  1
\A1;145
 11
0.0000000000000001
 21
1.0
 31
0.0
 73
     1
 44
1.0
1001
ACAD
1000
MTEXTBEGIN
1070
    73
1070
     1
1070
    44
1040
1.0
1070
    74
1070
     0
1000
MTEXTEND
  0
POINT
  5
3E91
330
39F2
100
AcDbEntity
  8
DEFPOINTS
 62
     0
100
AcDbPoint
 10
358.2566143700769
 20
258.7303714388398
 30
0.0
  0
POINT
  5
3E92
330
39F2
100
AcDbEntity
  8
DEFPOINTS
 62
     0
100
AcDbPoint
 10
320.7567143700773
 20
113.7303714388399
 30
0.0
  0
POINT
  5
3E93
330
39F2
100
AcDbEntity
  8
DEFPOINTS
 62
     0
100
AcDbPoint
 10
403.3883977982102
 20
113.7303714388399
 30
0.0
  0
ENDBLK
  5
39FD
330
39F2
100
AcDbEntity
  8
0
100
AcDbBlockEnd
  0
BLOCK
  5
3A0A
330
39FE
100
AcDbEntity
  8
0
100
AcDbBlockBegin
  2
*D8
 70
     1
 10
0.0
 20
0.0
 30
0.0
  3
*D8
  1

  0
LINE
  5
3E80
330
39FE
100
AcDbEntity
  8
SUNPOU
 62
     4
370
    -2
100
AcDbLine
 10
326.7567143700773
 20
113.7303714388399
 30
0.0
 11
367.6212189575124
 21
113.7303714388399
 31
0.0
  0
LINE
  5
3E81
330
39FE
100
AcDbEntity
  8
SUNPOU
 62
     4
370
    -2
100
AcDbLine
 10
330.6068143700771
 20
127.7303714388399
 30
0.0
 11
367.6212189575124
 21
127.7303714388399
 31
0.0
  0
LINE
  5
3E82
330
39FE
100
AcDbEntity
  8
SUNPOU
 62
     4
370
    -2
100
AcDbLine
 10
364.6212189575124
 20
106.7303714388399
 30
0.0
 11
364.6212189575124
 21
99.7303714388399
 31
0.0
  0
LINE
  5
3E83
330
39FE
100
AcDbEntity
  8
SUNPOU
 62
     4
370
    -2
100
AcDbLine
 10
364.6212189575124
 20
134.7303714388399
 30
0.0
 11
364.6212189575124
 21
160.5303714388399
 31
0.0
  0
LINE
  5
3E84
330
39FE
100
AcDbEntity
  8
SUNPOU
 62
     4
370
    -2
100
AcDbLine
 10
364.6212189575124
 20
113.7303714388399
 30
0.0
 11
364.6212189575124
 21
127.7303714388399
 31
0.0
  0
INSERT
  5
3E85
330
39FE
100
AcDbEntity
  8
SUNPOU
 62
     4
370
    -2
100
AcDbBlockReference
  2
_OPEN
 10
364.6212189575124
 20
113.7303714388399
 30
0.0
 41
7.0
 42
7.0
 43
7.0
 50
90.0
  0
INSERT
  5
3E86
330
39FE
100
AcDbEntity
  8
SUNPOU
 62
     4
370
    -2
100
AcDbBlockReference
  2
_OPEN
 10
364.6212189575124
 20
127.7303714388399
 30
0.0
 41
7.0
 42
7.0
 43
7.0
 50
270.0
  0
MTEXT
  5
3E87
330
39FE
100
AcDbEntity
  8
SUNPOU
 62
     4
100
AcDbMText
 10
359.6212189575124
 20
151.1303714388399
 30
0.0
 40
6.0
 41
0.0
 71
     5
 72
     1
  1
\A1;\U+203B14
 11
0.0000000000000001
 21
1.0
 31
0.0
 73
     1
 44
1.0
1001
ACAD
1000
MTEXTBEGIN
1070
    73
1070
     1
1070
    44
1040
1.0
1070
    74
1070
     0
1000
MTEXTEND
  0
POINT
  5
3E88
330
39FE
100
AcDbEntity
  8
DEFPOINTS
 62
     0
100
AcDbPoint
 10
320.7567143700773
 20
113.7303714388399
 30
0.0
  0
POINT
  5
3E89
330
39FE
100
AcDbEntity
  8
DEFPOINTS
 62
     0
100
AcDbPoint
 10
324.6068143700771
 20
127.7303714388399
 30
0.0
  0
POINT
  5
3E8A
330
39FE
100
AcDbEntity
  8
DEFPOINTS
 62
     0
100
AcDbPoint
 10
364.6212189575124
 20
127.7303714388399
 30
0.0
  0
ENDBLK
  5
3A0B
330
39FE
100
AcDbEntity
  8
0
100
AcDbBlockEnd
  0
BLOCK
  5
3A16
330
3A0C
100
AcDbEntity
  8
0
100
AcDbBlockBegin
  2
*D9
 70
     1
 10
0.0
 20
0.0
 30
0.0
  3
*D9
  1

  0
LINE
  5
3E77
330
3A0C
100
AcDbEntity
  8
SUNPOU
 62
     4
370
    -2
100
AcDbLine
 10
358.2566143700769
 20
264.7303714388398
 30
0.0
 11
358.2566143700769
 21
282.2261374967047
 31
0.0
  0
LINE
  5
3E78
330
3A0C
100
AcDbEntity
  8
SUNPOU
 62
     4
370
    -2
100
AcDbLine
 10
217.2559143700772
 20
264.7303714388398
 30
0.0
 11
217.2559143700772
 21
282.2261374967047
 31
0.0
  0
LINE
  5
3E79
330
3A0C
100
AcDbEntity
  8
SUNPOU
 62
     4
370
    -2
100
AcDbLine
 10
351.256614370077
 20
279.2261374967047
 30
0.0
 11
224.2559143700772
 21
279.2261374967047
 31
0.0
  0
INSERT
  5
3E7A
330
3A0C
100
AcDbEntity
  8
SUNPOU
 62
     4
370
    -2
100
AcDbBlockReference
  2
_OPEN
 10
358.2566143700769
 20
279.2261374967047
 30
0.0
 41
7.0
 42
7.0
 43
7.0
  0
INSERT
  5
3E7B
330
3A0C
100
AcDbEntity
  8
SUNPOU
 62
     4
370
    -2
100
AcDbBlockReference
  2
_OPEN
 10
217.2559143700772
 20
279.2261374967047
 30
0.0
 41
7.0
 42
7.0
 43
7.0
 50
180.0
  0
MTEXT
  5
3E7C
330
3A0C
100
AcDbEntity
  8
SUNPOU
 62
     4
100
AcDbMText
 10
287.756264370077
 20
284.2261374967047
 30
0.0
 40
6.0
 41
0.0
 71
     5
 72
     1
  1
\A1;φ141
 73
     1
 44
1.0
1001
ACAD
1000
MTEXTBEGIN
1070
    73
1070
     1
1070
    44
1040
1.0
1070
    74
1070
     0
1000
MTEXTEND
  0
POINT
  5
3E7D
330
3A0C
100
AcDbEntity
  8
DEFPOINTS
 62
     0
100
AcDbPoint
 10
358.2566143700769
 20
258.7303714388398
 30
0.0
  0
POINT
  5
3E7E
330
3A0C
100
AcDbEntity
  8
DEFPOINTS
 62
     0
100
AcDbPoint
 10
217.2559143700772
 20
258.7303714388398
 30
0.0
  0
POINT
  5
3E7F
330
3A0C
100
AcDbEntity
  8
DEFPOINTS
 62
     0
100
AcDbPoint
 10
217.2559143700772
 20
279.2261374967047
 30
0.0
  0
ENDBLK
  5
3A17
330
3A0C
100
AcDbEntity
  8
0
100
AcDbBlockEnd
  0
BLOCK
  5
3A22
330
3A18
100
AcDbEntity
  8
0
100
AcDbBlockBegin
  2
*D10
 70
     1
 10
0.0
 20
0.0
 30
0.0
  3
*D10
  1

  0
LINE
  5
3E6E
330
3A18
100
AcDbEntity
  8
SUNPOU
 62
     4
370
    -2
100
AcDbLine
 10
302.4716143700774
 20
470.6053444055245
 30
0.0
 11
396.8910151651806
 21
470.6053444055245
 31
0.0
  0
LINE
  5
3E6F
330
3A18
100
AcDbEntity
  8
SUNPOU
 62
     4
370
    -2
100
AcDbLine
 10
372.6167143700772
 20
419.6053444055245
 30
0.0
 11
396.8910151651806
 21
419.6053444055245
 31
0.0
  0
LINE
  5
3E70
330
3A18
100
AcDbEntity
  8
SUNPOU
 62
     4
370
    -2
100
AcDbLine
 10
393.8910151651806
 20
463.6053444055245
 30
0.0
 11
393.8910151651806
 21
426.6053444055245
 31
0.0
  0
INSERT
  5
3E71
330
3A18
100
AcDbEntity
  8
SUNPOU
 62
     4
370
    -2
100
AcDbBlockReference
  2
_OPEN
 10
393.8910151651806
 20
470.6053444055245
 30
0.0
 41
7.0
 42
7.0
 43
7.0
 50
90.0
  0
INSERT
  5
3E72
330
3A18
100
AcDbEntity
  8
SUNPOU
 62
     4
370
    -2
100
AcDbBlockReference
  2
_OPEN
 10
393.8910151651806
 20
419.6053444055245
 30
0.0
 41
7.0
 42
7.0
 43
7.0
 50
270.0
  0
MTEXT
  5
3E73
330
3A18
100
AcDbEntity
  8
SUNPOU
 62
     4
100
AcDbMText
 10
388.8910151651805
 20
445.1053444055246
 30
0.0
 40
6.0
 41
0.0
 71
     5
 72
     1
  1
\A1;51
 11
0.0000000000000001
 21
1.0
 31
0.0
 73
     1
 44
1.0
1001
ACAD
1000
MTEXTBEGIN
1070
    73
1070
     1
1070
    44
1040
1.0
1070
    74
1070
     0
1000
MTEXTEND
  0
POINT
  5
3E74
330
3A18
100
AcDbEntity
  8
DEFPOINTS
 62
     0
100
AcDbPoint
 10
296.4716143700774
 20
470.6053444055245
 30
0.0
  0
POINT
  5
3E75
330
3A18
100
AcDbEntity
  8
DEFPOINTS
 62
     0
100
AcDbPoint
 10
366.6167143700772
 20
419.6053444055245
 30
0.0
  0
POINT
  5
3E76
330
3A18
100
AcDbEntity
  8
DEFPOINTS
 62
     0
100
AcDbPoint
 10
393.8910151651806
 20
419.6053444055245
 30
0.0
  0
ENDBLK
  5
3A23
330
3A18
100
AcDbEntity
  8
0
100
AcDbBlockEnd
  0
BLOCK
  5
3A2E
330
3A24
100
AcDbEntity
  8
0
100
AcDbBlockBegin
  2
*D11
 70
     1
 10
0.0
 20
0.0
 30
0.0
  3
*D11
  1

  0
LINE
  5
3F2A
330
3A24
100
AcDbEntity
  8
SUNPOU
 62
     4
370
    -2
100
AcDbLine
 10
338.7563143700772
 20
386.9186444055246
 30
0.0
 11
338.7563143700772
 21
326.0826199224666
 31
0.0
  0
LINE
  5
3F2B
330
3A24
100
AcDbEntity
  8
SUNPOU
 62
     4
370
    -2
100
AcDbLine
 10
236.7563143700773
 20
386.9186444055246
 30
0.0
 11
236.7563143700773
 21
326.0826199224666
 31
0.0
  0
LINE
  5
3F2C
330
3A24
100
AcDbEntity
  8
SUNPOU
 62
     4
370
    -2
100
AcDbLine
 10
331.7563143700772
 20
329.0826199224666
 30
0.0
 11
243.7563143700773
 21
329.0826199224666
 31
0.0
  0
INSERT
  5
3F2D
330
3A24
100
AcDbEntity
  8
SUNPOU
 62
     4
370
    -2
100
AcDbBlockReference
  2
_OPEN
 10
338.7563143700772
 20
329.0826199224666
 30
0.0
 41
7.0
 42
7.0
 43
7.0
  0
INSERT
  5
3F2E
330
3A24
100
AcDbEntity
  8
SUNPOU
 62
     4
370
    -2
100
AcDbBlockReference
  2
_OPEN
 10
236.7563143700773
 20
329.0826199224666
 30
0.0
 41
7.0
 42
7.0
 43
7.0
 50
180.0
  0
MTEXT
  5
3F2F
330
3A24
100
AcDbEntity
  8
SUNPOU
 62
     4
100
AcDbMText
 10
287.7563143700772
 20
334.0826199224666
 30
0.0
 40
6.0
 41
0.0
 71
     5
 72
     1
  1
\A1;102
 73
     1
 44
1.0
1001
ACAD
1000
MTEXTBEGIN
1070
    73
1070
     1
1070
    44
1040
1.0
1070
    74
1070
     0
1000
MTEXTEND
  0
POINT
  5
3F30
330
3A24
100
AcDbEntity
  8
DEFPOINTS
 62
     0
100
AcDbPoint
 10
338.7563143700772
 20
392.9186444055246
 30
0.0
  0
POINT
  5
3F31
330
3A24
100
AcDbEntity
  8
DEFPOINTS
 62
     0
100
AcDbPoint
 10
236.7563143700773
 20
392.9186444055246
 30
0.0
  0
POINT
  5
3F32
330
3A24
100
AcDbEntity
  8
DEFPOINTS
 62
     0
100
AcDbPoint
 10
236.7563143700773
 20
329.0826199224666
 30
0.0
  0
ENDBLK
  5
3A2F
330
3A24
100
AcDbEntity
  8
0
100
AcDbBlockEnd
  0
BLOCK
  5
3D22
330
3D18
100
AcDbEntity
  8
0
100
AcDbBlockBegin
  2
*D12
 70
     1
 10
0.0
 20
0.0
 30
0.0
  3
*D12
  1

  0
LINE
  5
3EC2
330
3D18
100
AcDbEntity
  8
SUNPOU
 62
     4
370
    -2
100
AcDbLine
 10
632.6619632814701
 20
470.6053444055245
 30
0.0
 11
727.0813640765734
 21
470.6053444055245
 31
0.0
  0
LINE
  5
3EC3
330
3D18
100
AcDbEntity
  8
SUNPOU
 62
     4
370
    -2
100
AcDbLine
 10
702.8070632814701
 20
419.6053444055245
 30
0.0
 11
727.0813640765734
 21
419.6053444055245
 31
0.0
  0
LINE
  5
3EC4
330
3D18
100
AcDbEntity
  8
SUNPOU
 62
     4
370
    -2
100
AcDbLine
 10
724.0813640765734
 20
463.6053444055245
 30
0.0
 11
724.0813640765734
 21
426.6053444055246
 31
0.0
  0
INSERT
  5
3EC5
330
3D18
100
AcDbEntity
  8
SUNPOU
 62
     4
370
    -2
100
AcDbBlockReference
  2
_OPEN
 10
724.0813640765734
 20
470.6053444055245
 30
0.0
 41
7.0
 42
7.0
 43
7.0
 50
90.0
  0
INSERT
  5
3EC6
330
3D18
100
AcDbEntity
  8
SUNPOU
 62
     4
370
    -2
100
AcDbBlockReference
  2
_OPEN
 10
724.0813640765734
 20
419.6053444055245
 30
0.0
 41
7.0
 42
7.0
 43
7.0
 50
270.0
  0
MTEXT
  5
3EC7
330
3D18
100
AcDbEntity
  8
SUNPOU
 62
     4
100
AcDbMText
 10
719.0813640765733
 20
445.1053444055246
 30
0.0
 40
6.0
 41
0.0
 71
     5
 72
     1
  1
\A1;51
 11
0.0000000000000001
 21
1.0
 31
0.0
 73
     1
 44
1.0
1001
ACAD
1000
MTEXTBEGIN
1070
    73
1070
     1
1070
    44
1040
1.0
1070
    74
1070
     0
1000
MTEXTEND
  0
POINT
  5
3EC8
330
3D18
100
AcDbEntity
  8
DEFPOINTS
 62
     0
100
AcDbPoint
 10
626.6619632814702
 20
470.6053444055245
 30
0.0
  0
POINT
  5
3EC9
330
3D18
100
AcDbEntity
  8
DEFPOINTS
 62
     0
100
AcDbPoint
 10
696.8070632814701
 20
419.6053444055245
 30
0.0
  0
POINT
  5
3ECA
330
3D18
100
AcDbEntity
  8
DEFPOINTS
 62
     0
100
AcDbPoint
 10
724.0813640765734
 20
419.6053444055245
 30
0.0
  0
ENDBLK
  5
3D23
330
3D18
100
AcDbEntity
  8
0
100
AcDbBlockEnd
  0
BLOCK
  5
3D2E
330
3D24
100
AcDbEntity
  8
0
100
AcDbBlockBegin
  2
*D13
 70
     1
 10
0.0
 20
0.0
 30
0.0
  3
*D13
  1

  0
LINE
  5
3ECB
330
3D24
100
AcDbEntity
  8
SUNPOU
 62
     4
370
    -2
100
AcDbLine
 10
668.9466632814701
 20
386.9186444055246
 30
0.0
 11
668.9466632814701
 21
328.8617949857262
 31
0.0
  0
LINE
  5
3ECC
330
3D24
100
AcDbEntity
  8
SUNPOU
 62
     4
370
    -2
100
AcDbLine
 10
566.9466632814701
 20
386.9186444055246
 30
0.0
 11
566.9466632814701
 21
328.8617949857262
 31
0.0
  0
LINE
  5
3ECD
330
3D24
100
AcDbEntity
  8
SUNPOU
 62
     4
370
    -2
100
AcDbLine
 10
661.9466632814701
 20
331.8617949857262
 30
0.0
 11
573.9466632814701
 21
331.8617949857262
 31
0.0
  0
INSERT
  5
3ECE
330
3D24
100
AcDbEntity
  8
SUNPOU
 62
     4
370
    -2
100
AcDbBlockReference
  2
_OPEN
 10
668.9466632814701
 20
331.8617949857262
 30
0.0
 41
7.0
 42
7.0
 43
7.0
  0
INSERT
  5
3ECF
330
3D24
100
AcDbEntity
  8
SUNPOU
 62
     4
370
    -2
100
AcDbBlockReference
  2
_OPEN
 10
566.9466632814701
 20
331.8617949857262
 30
0.0
 41
7.0
 42
7.0
 43
7.0
 50
180.0
  0
MTEXT
  5
3ED0
330
3D24
100
AcDbEntity
  8
SUNPOU
 62
     4
100
AcDbMText
 10
617.9466632814701
 20
336.8617949857262
 30
0.0
 40
6.0
 41
0.0
 71
     5
 72
     1
  1
\A1;102
 73
     1
 44
1.0
1001
ACAD
1000
MTEXTBEGIN
1070
    73
1070
     1
1070
    44
1040
1.0
1070
    74
1070
     0
1000
MTEXTEND
  0
POINT
  5
3ED1
330
3D24
100
AcDbEntity
  8
DEFPOINTS
 62
     0
100
AcDbPoint
 10
668.9466632814701
 20
392.9186444055246
 30
0.0
  0
POINT
  5
3ED2
330
3D24
100
AcDbEntity
  8
DEFPOINTS
 62
     0
100
AcDbPoint
 10
566.9466632814701
 20
392.9186444055246
 30
0.0
  0
POINT
  5
3ED3
330
3D24
100
AcDbEntity
  8
DEFPOINTS
 62
     0
100
AcDbPoint
 10
566.9466632814701
 20
331.8617949857262
 30
0.0
  0
ENDBLK
  5
3D2F
330
3D24
100
AcDbEntity
  8
0
100
AcDbBlockEnd
  0
BLOCK
  5
3D37
330
3D30
100
AcDbEntity
  8
0
100
AcDbBlockBegin
  2
*D14
 70
     1
 10
0.0
 20
0.0
 30
0.0
  3
*D14
  1

  0
LINE
  5
3ED4
330
3D30
100
AcDbEntity
  8
SUNPOU
 62
     4
370
    -2
100
AcDbLine
 10
598.2769988411888
 20
389.6845437242867
 30
0.0
 11
637.6163278155984
 21
413.5260450867623
 31
0.0
  0
MTEXT
  5
3ED5
330
3D30
100
AcDbEntity
  8
SUNPOU
 62
     4
100
AcDbMText
 10
625.0992067035601
 20
412.1134950931963
 30
0.0
 40
6.0
 41
0.0
 71
     5
 72
     1
  1
\A1;\U+220560
 11
0.8552028055347056
 21
0.5182935089363641
 31
0.0
 73
     1
 44
1.0
1001
ACAD
1000
MTEXTBEGIN
1070
    73
1070
     1
1070
    44
1040
1.0
1070
    74
1070
     0
1000
MTEXTEND
  0
INSERT
  5
3ED6
330
3D30
100
AcDbEntity
  8
SUNPOU
 62
     4
370
    -2
100
AcDbBlockReference
  2
_OPEN
 10
592.290579202446
 20
386.0564891617321
 30
0.0
 41
7.0
 42
7.0
 43
7.0
 50
211.2178529101818
  0
INSERT
  5
3ED7
330
3D30
100
AcDbEntity
  8
SUNPOU
 62
     4
370
    -2
100
AcDbBlockReference
  2
_OPEN
 10
643.6027474543412
 20
417.1540996493169
 30
0.0
 41
7.0
 42
7.0
 43
7.0
 50
31.21785291018172
  0
POINT
  5
3ED8
330
3D30
100
AcDbEntity
  8
DEFPOINTS
 62
     0
100
AcDbPoint
 10
643.6027474543412
 20
417.1540996493169
 30
0.0
  0
POINT
  5
3ED9
330
3D30
100
AcDbEntity
  8
DEFPOINTS
 62
     0
100
AcDbPoint
 10
592.290579202446
 20
386.0564891617321
 30
0.0
  0
ENDBLK
  5
3D38
330
3D30
100
AcDbEntity
  8
0
100
AcDbBlockEnd
  0
BLOCK
  5
3D43
330
3D39
100
AcDbEntity
  8
0
100
AcDbBlockBegin
  2
*D15
 70
     1
 10
0.0
 20
0.0
 30
0.0
  3
*D15
  1

  0
LINE
  5
3EDA
330
3D39
100
AcDbEntity
  8
SUNPOU
 62
     4
370
    -2
100
AcDbLine
 10
702.8070632814701
 20
419.6053444055245
 30
0.0
 11
727.0813640765734
 21
419.6053444055245
 31
0.0
  0
LINE
  5
3EDB
330
3D39
100
AcDbEntity
  8
SUNPOU
 62
     4
370
    -2
100
AcDbLine
 10
686.9466632813657
 20
401.6052944055245
 30
0.0
 11
727.0813640765734
 21
401.6052944055245
 31
0.0
  0
LINE
  5
3EDC
330
3D39
100
AcDbEntity
  8
SUNPOU
 62
     4
370
    -2
100
AcDbLine
 10
724.0813640765734
 20
412.6053444055245
 30
0.0
 11
724.0813640765734
 21
408.6052944055245
 31
0.0
  0
INSERT
  5
3EDD
330
3D39
100
AcDbEntity
  8
SUNPOU
 62
     4
370
    -2
100
AcDbBlockReference
  2
_OPEN
 10
724.0813640765734
 20
419.6053444055245
 30
0.0
 41
7.0
 42
7.0
 43
7.0
 50
90.0
  0
INSERT
  5
3EDE
330
3D39
100
AcDbEntity
  8
SUNPOU
 62
     4
370
    -2
100
AcDbBlockReference
  2
_OPEN
 10
724.0813640765734
 20
401.6052944055245
 30
0.0
 41
7.0
 42
7.0
 43
7.0
 50
270.0
  0
MTEXT
  5
3EDF
330
3D39
100
AcDbEntity
  8
SUNPOU
 62
     4
100
AcDbMText
 10
719.0813640765733
 20
410.6053194055247
 30
0.0
 40
6.0
 41
0.0
 71
     5
 72
     1
  1
\A1;18
 11
0.0000000000000001
 21
1.0
 31
0.0
 73
     1
 44
1.0
1001
ACAD
1000
MTEXTBEGIN
1070
    73
1070
     1
1070
    44
1040
1.0
1070
    74
1070
     0
1000
MTEXTEND
  0
POINT
  5
3EE0
330
3D39
100
AcDbEntity
  8
DEFPOINTS
 62
     0
100
AcDbPoint
 10
696.8070632814701
 20
419.6053444055245
 30
0.0
  0
POINT
  5
3EE1
330
3D39
100
AcDbEntity
  8
DEFPOINTS
 62
     0
100
AcDbPoint
 10
680.9466632813657
 20
401.6052944055245
 30
0.0
  0
POINT
  5
3EE2
330
3D39
100
AcDbEntity
  8
DEFPOINTS
 62
     0
100
AcDbPoint
 10
724.0813640765734
 20
401.6052944055245
 30
0.0
  0
ENDBLK
  5
3D44
330
3D39
100
AcDbEntity
  8
0
100
AcDbBlockEnd
  0
BLOCK
  5
3D8F
330
3D85
100
AcDbEntity
  8
0
100
AcDbBlockBegin
  2
*D16
 70
     1
 10
0.0
 20
0.0
 30
0.0
  3
*D16
  1

  0
LINE
  5
3EB9
330
3D85
100
AcDbEntity
  8
SUNPOU
370
    -2
100
AcDbLine
 10
586.9466632814699
 20
264.7537585560176
 30
0.0
 11
586.9466632814699
 21
246.6018113226294
 31
0.0
  0
LINE
  5
3EBA
330
3D85
100
AcDbEntity
  8
SUNPOU
370
    -2
100
AcDbLine
 10
648.9466632814705
 20
264.7537585560176
 30
0.0
 11
648.9466632814705
 21
246.6018113226294
 31
0.0
  0
LINE
  5
3EBB
330
3D85
100
AcDbEntity
  8
SUNPOU
370
    -2
100
AcDbLine
 10
590.9466632814699
 20
249.6018113226294
 30
0.0
 11
644.9466632814705
 21
249.6018113226294
 31
0.0
  0
INSERT
  5
3EBC
330
3D85
100
AcDbEntity
  8
SUNPOU
370
    -2
100
AcDbBlockReference
  2
_OPEN
 10
586.9466632814699
 20
249.6018113226294
 30
0.0
 41
4.0
 42
4.0
 43
4.0
 50
180.0
  0
INSERT
  5
3EBD
330
3D85
100
AcDbEntity
  8
SUNPOU
370
    -2
100
AcDbBlockReference
  2
_OPEN
 10
648.9466632814705
 20
249.6018113226294
 30
0.0
 41
4.0
 42
4.0
 43
4.0
  0
MTEXT
  5
3EBE
330
3D85
100
AcDbEntity
  8
SUNPOU
100
AcDbMText
 10
617.9466632814702
 20
255.6018113226294
 30
0.0
 40
6.0
 41
0.0
 71
     5
 72
     1
  1
\A1;φ62
 73
     1
 44
1.0
1001
ACAD
1000
MTEXTBEGIN
1070
    73
1070
     1
1070
    44
1040
1.0
1070
    74
1070
     0
1000
MTEXTEND
  0
POINT
  5
3EBF
330
3D85
100
AcDbEntity
  8
DEFPOINTS
 62
     0
100
AcDbPoint
 10
586.9466632814699
 20
267.7537585560176
 30
0.0
  0
POINT
  5
3EC0
330
3D85
100
AcDbEntity
  8
DEFPOINTS
 62
     0
100
AcDbPoint
 10
648.9466632814705
 20
267.7537585560176
 30
0.0
  0
POINT
  5
3EC1
330
3D85
100
AcDbEntity
  8
DEFPOINTS
 62
     0
100
AcDbPoint
 10
648.9466632814705
 20
249.6018113226294
 30
0.0
  0
ENDBLK
  5
3D90
330
3D85
100
AcDbEntity
  8
0
100
AcDbBlockEnd
  0
BLOCK
  5
3D9C
330
3D92
100
AcDbEntity
  8
0
100
AcDbBlockBegin
  2
*D17
 70
     1
 10
0.0
 20
0.0
 30
0.0
  3
*D17
  1

  0
LINE
  5
3EB0
330
3D92
100
AcDbEntity
  8
SUNPOU
370
    -2
100
AcDbLine
 10
549.94666328147
 20
284.7537585560177
 30
0.0
 11
549.94666328147
 21
231.3516579194163
 31
0.0
  0
LINE
  5
3EB1
330
3D92
100
AcDbEntity
  8
SUNPOU
370
    -2
100
AcDbLine
 10
685.9466632814701
 20
284.7537585560175
 30
0.0
 11
685.9466632814701
 21
231.3516579194163
 31
0.0
  0
LINE
  5
3EB2
330
3D92
100
AcDbEntity
  8
SUNPOU
370
    -2
100
AcDbLine
 10
553.94666328147
 20
234.3516579194163
 30
0.0
 11
681.9466632814701
 21
234.3516579194163
 31
0.0
  0
INSERT
  5
3EB3
330
3D92
100
AcDbEntity
  8
SUNPOU
370
    -2
100
AcDbBlockReference
  2
_OPEN
 10
549.94666328147
 20
234.3516579194163
 30
0.0
 41
4.0
 42
4.0
 43
4.0
 50
180.0
  0
INSERT
  5
3EB4
330
3D92
100
AcDbEntity
  8
SUNPOU
370
    -2
100
AcDbBlockReference
  2
_OPEN
 10
685.9466632814701
 20
234.3516579194163
 30
0.0
 41
4.0
 42
4.0
 43
4.0
  0
MTEXT
  5
3EB5
330
3D92
100
AcDbEntity
  8
SUNPOU
100
AcDbMText
 10
617.9466632814701
 20
240.3516579194163
 30
0.0
 40
6.0
 41
0.0
 71
     5
 72
     1
  1
\A1;φ136
 73
     1
 44
1.0
1001
ACAD
1000
MTEXTBEGIN
1070
    73
1070
     1
1070
    44
1040
1.0
1070
    74
1070
     0
1000
MTEXTEND
  0
POINT
  5
3EB6
330
3D92
100
AcDbEntity
  8
DEFPOINTS
 62
     0
100
AcDbPoint
 10
549.94666328147
 20
287.7537585560176
 30
0.0
  0
POINT
  5
3EB7
330
3D92
100
AcDbEntity
  8
DEFPOINTS
 62
     0
100
AcDbPoint
 10
685.9466632814701
 20
287.7537585560175
 30
0.0
  0
POINT
  5
3EB8
330
3D92
100
AcDbEntity
  8
DEFPOINTS
 62
     0
100
AcDbPoint
 10
685.9466632814701
 20
234.3516579194163
 30
0.0
  0
ENDBLK
  5
3D9D
330
3D92
100
AcDbEntity
  8
0
100
AcDbBlockEnd
  0
BLOCK
  5
3DA9
330
3D9F
100
AcDbEntity
  8
0
100
AcDbBlockBegin
  2
*D18
 70
     1
 10
0.0
 20
0.0
 30
0.0
  3
*D18
  1

  0
LINE
  5
3EA7
330
3D9F
100
AcDbEntity
  8
SUNPOU
370
    -2
100
AcDbLine
 10
686.9466632814701
 20
292.7537585560177
 30
0.0
 11
720.7878299776784
 21
292.7537585560177
 31
0.0
  0
LINE
  5
3EA8
330
3D9F
100
AcDbEntity
  8
SUNPOU
370
    -2
100
AcDbLine
 10
651.9466632814705
 20
267.7537585560176
 30
0.0
 11
720.7878299776784
 21
267.7537585560176
 31
0.0
  0
LINE
  5
3EA9
330
3D9F
100
AcDbEntity
  8
SUNPOU
370
    -2
100
AcDbLine
 10
717.7878299776785
 20
288.7537585560177
 30
0.0
 11
717.7878299776785
 21
271.7537585560176
 31
0.0
  0
INSERT
  5
3EAA
330
3D9F
100
AcDbEntity
  8
SUNPOU
370
    -2
100
AcDbBlockReference
  2
_OPEN
 10
717.7878299776785
 20
292.7537585560177
 30
0.0
 41
4.0
 42
4.0
 43
4.0
 50
90.0
  0
INSERT
  5
3EAB
330
3D9F
100
AcDbEntity
  8
SUNPOU
370
    -2
100
AcDbBlockReference
  2
_OPEN
 10
717.7878299776785
 20
267.7537585560176
 30
0.0
 41
4.0
 42
4.0
 43
4.0
 50
270.0
  0
MTEXT
  5
3EAC
330
3D9F
100
AcDbEntity
  8
SUNPOU
100
AcDbMText
 10
711.7878299776783
 20
280.2537585560178
 30
0.0
 40
6.0
 41
0.0
 71
     5
 72
     1
  1
\A1;25
 11
0.0000000000000001
 21
1.0
 31
0.0
 73
     1
 44
1.0
1001
ACAD
1000
MTEXTBEGIN
1070
    73
1070
     1
1070
    44
1040
1.0
1070
    74
1070
     0
1000
MTEXTEND
  0
POINT
  5
3EAD
330
3D9F
100
AcDbEntity
  8
DEFPOINTS
 62
     0
100
AcDbPoint
 10
683.9466632814701
 20
292.7537585560177
 30
0.0
  0
POINT
  5
3EAE
330
3D9F
100
AcDbEntity
  8
DEFPOINTS
 62
     0
100
AcDbPoint
 10
648.9466632814705
 20
267.7537585560176
 30
0.0
  0
POINT
  5
3EAF
330
3D9F
100
AcDbEntity
  8
DEFPOINTS
 62
     0
100
AcDbPoint
 10
717.7878299776785
 20
267.7537585560176
 30
0.0
  0
ENDBLK
  5
3DAA
330
3D9F
100
AcDbEntity
  8
0
100
AcDbBlockEnd
  0
BLOCK
  5
3DB7
330
3DAC
100
AcDbEntity
  8
0
100
AcDbBlockBegin
  2
*D19
 70
     1
 10
0.0
 20
0.0
 30
0.0
  3
*D19
  1

  0
LINE
  5
3E9D
330
3DAC
100
AcDbEntity
  8
SUNPOU
370
    -2
100
AcDbLine
 10
686.9466632814701
 20
292.7537585560177
 30
0.0
 11
704.371016135265
 21
292.7537585560177
 31
0.0
  0
LINE
  5
3E9E
330
3DAC
100
AcDbEntity
  8
SUNPOU
370
    -2
100
AcDbLine
 10
685.9466632814701
 20
284.7537585560177
 30
0.0
 11
704.371016135265
 21
284.7537585560177
 31
0.0
  0
LINE
  5
3E9F
330
3DAC
100
AcDbEntity
  8
SUNPOU
370
    -2
100
AcDbLine
 10
701.371016135265
 20
280.7537585560177
 30
0.0
 11
701.371016135265
 21
276.7537585560177
 31
0.0
  0
LINE
  5
3EA0
330
3DAC
100
AcDbEntity
  8
SUNPOU
370
    -2
100
AcDbLine
 10
701.371016135265
 20
296.7537585560176
 30
0.0
 11
701.371016135265
 21
310.7537585560177
 31
0.0
  0
INSERT
  5
3EA1
330
3DAC
100
AcDbEntity
  8
SUNPOU
370
    -2
100
AcDbBlockReference
  2
_OPEN
 10
701.371016135265
 20
284.7537585560177
 30
0.0
 41
4.0
 42
4.0
 43
4.0
 50
90.0
  0
INSERT
  5
3EA2
330
3DAC
100
AcDbEntity
  8
SUNPOU
370
    -2
100
AcDbBlockReference
  2
_OPEN
 10
701.371016135265
 20
292.7537585560177
 30
0.0
 41
4.0
 42
4.0
 43
4.0
 50
270.0
  0
MTEXT
  5
3EA3
330
3DAC
100
AcDbEntity
  8
SUNPOU
100
AcDbMText
 10
695.3710161352648
 20
305.7537585560178
 30
0.0
 40
6.0
 41
0.0
 71
     5
 72
     1
  1
\A1;8
 11
0.0000000000000001
 21
1.0
 31
0.0
 73
     1
 44
1.0
1001
ACAD
1000
MTEXTBEGIN
1070
    73
1070
     1
1070
    44
1040
1.0
1070
    74
1070
     0
1000
MTEXTEND
  0
POINT
  5
3EA4
330
3DAC
100
AcDbEntity
  8
DEFPOINTS
 62
     0
100
AcDbPoint
 10
683.9466632814701
 20
292.7537585560177
 30
0.0
  0
POINT
  5
3EA5
330
3DAC
100
AcDbEntity
  8
DEFPOINTS
 62
     0
100
AcDbPoint
 10
682.9466632814701
 20
284.7537585560177
 30
0.0
  0
POINT
  5
3EA6
330
3DAC
100
AcDbEntity
  8
DEFPOINTS
 62
     0
100
AcDbPoint
 10
701.371016135265
 20
284.7537585560177
 30
0.0
  0
ENDBLK
  5
3DB8
330
3DAC
100
AcDbEntity
  8
0
100
AcDbBlockEnd
  0
ENDSEC
  0
SECTION
  2
ENTITIES
  0
LINE
  5
EE6
330
1A
100
AcDbEntity
  8
ZUWAKU
100
AcDbLine
 10
208.646601303624
 20
15.19999986828872
 30
0.0
 11
447.4243639845473
 21
15.19999986828871
 31
0.0
  0
LINE
  5
EE7
330
1A
100
AcDbEntity
  8
ZUWAKU
100
AcDbLine
 10
208.646601303624
 20
15.59999986828871
 30
0.0
 11
447.4243639845473
 21
15.59999986828872
 31
0.0
  0
LINE
  5
EE8
330
1A
100
AcDbEntity
  8
ZUWAKU
100
AcDbLine
 10
208.646601303624
 20
15.39999986828871
 30
0.0
 11
447.4243639845473
 21
15.39999986828871
 31
0.0
  0
LINE
  5
EE9
330
1A
100
AcDbEntity
  8
ZUWAKU
100
AcDbLine
 10
0.0000000135560185
 20
30.7999998682887
 30
0.0
 11
797.4000000135559
 21
30.7999998682887
 31
0.0
  0
LINE
  5
EEA
330
1A
100
AcDbEntity
  8
ZUWAKU
100
AcDbLine
 10
0.0000000135560185
 20
30.5999998682887
 30
0.0
 11
797.4000000135559
 21
30.5999998682887
 31
0.0
  0
LINE
  5
EEB
330
1A
100
AcDbEntity
  8
ZUWAKU
100
AcDbLine
 10
0.0000000135560185
 20
30.39999986828869
 30
0.0
 11
797.4000000135559
 21
30.39999986828869
 31
0.0
  0
LINE
  5
EEC
330
1A
100
AcDbEntity
  8
ZUWAKU
100
AcDbLine
 10
0.0000000135560185
 20
30.19999986828868
 30
0.0
 11
797.4000000135559
 21
30.19999986828868
 31
0.0
  0
LINE
  5
EED
330
1A
100
AcDbEntity
  8
ZUWAKU
100
AcDbLine
 10
0.0000000135560185
 20
29.99999986828868
 30
0.0
 11
797.4000000135559
 21
29.99999986828868
 31
0.0
  0
LWPOLYLINE
  5
EEE
330
1A
100
AcDbEntity
  8
ZUWAKU
100
AcDbPolyline
 90
        4
 70
     1
 43
0.0
 10
0.2000000135559503
 20
551.3999998682886
 10
0.2000000135559503
 20
0.1999998682887281
 10
797.4000000135559
 20
0.1999998682887511
 10
797.4000000135561
 20
551.3999998682886
  0
LWPOLYLINE
  5
EEF
330
1A
100
AcDbEntity
  8
ZUWAKU
100
AcDbPolyline
 90
        4
 70
     1
 43
0.0
 10
0.6000000135559276
 20
550.9999998682888
 10
0.6000000135559276
 20
0.5999998682887055
 10
797.0000000135562
 20
0.5999998682887516
 10
797.000000013556
 20
550.9999998682888
  0
LWPOLYLINE
  5
EF0
330
1A
100
AcDbEntity
  8
ZUWAKU
100
AcDbPolyline
 90
        4
 70
     1
 43
0.0
 10
0.0000000135560185
 20
551.5999998682887
 10
0.0000000135560185
 20
-0.0000001317113174
 10
797.600000013556
 20
-0.0000001317112499
 10
797.600000013556
 20
551.5999998682888
  0
LWPOLYLINE
  5
EF1
330
1A
100
AcDbEntity
  8
ZUWAKU
100
AcDbPolyline
 90
        4
 70
     1
 43
0.0
 10
0.4000000135559958
 20
551.1999998682886
 10
0.4000000135559958
 20
0.3999998682887735
 10
797.200000013556
 20
0.3999998682887504
 10
797.200000013556
 20
551.1999998682886
  0
LWPOLYLINE
  5
EF2
330
1A
100
AcDbEntity
  8
ZUWAKU
100
AcDbPolyline
 90
        4
 70
     1
 43
0.0
 10
0.800000013555973
 20
550.7999998682886
 10
0.800000013555973
 20
0.7999998682887508
 10
796.8000000135559
 20
0.7999998682887508
 10
796.8000000135559
 20
550.7999998682886
  0
TEXT
  5
EF3
330
1A
100
AcDbEntity
  8
MOJI
100
AcDbText
 10
92.95778960172516
 20
12.74117799856344
 30
0.0
 40
6.0
  1
たてとい　丸トップ
 41
0.9
  7
MSｺ_ｼｯｸ
100
AcDbText
  0
INSERT
  5
EF4
330
1A
100
AcDbEntity
  8
ZUWAKU
  6
Continuous
100
AcDbBlockReference
  2
*X1
 10
0.0
 20
0.0
 30
0.0
1001
ACAD
1000
HATCH
1002
{
1070
    19
1000
ANSI37
1040
0.2
1040
0.0
1000
R14_HATCH_DATA
1000
EF4
1011
1.0
1021
0.0
1031
0.0
1011
0.0
1021
1.0
1031
0.0
1011
0.0
1021
0.0
1031
1.0
1040
0.0
1010
0.0
1020
0.0
1030
1.0
1000
ANSI37
1070
     0
1070
     0
1071
        8
1071
        7
1070
     1
1070
     1
1071
       24
1040
14.50226267467587
1040
17.64484834927226
1040
-0.1989123673796348
1040
14.09221216833714
1040
18.63479784293331
1040
0.0
1040
14.09221216833714
1040
19.92499986828869
1040
-0.4142135623730912
1040
14.61721216833711
1040
20.44999986828868
1040
0.0
1040
17.59221216833702
1040
20.44999986828868
1040
0.4142135623731546
1040
18.11721216833712
1040
20.97499986828867
1040
0.0
1040
18.11721216833712
1040
22.7249998682887
1040
0.4142135623731586
1040
17.59221216833702
1040
23.24999986828868
1040
0.0
1040
14.09221216833714
1040
23.24999986828868
1040
0.4142135623730928
1040
11.29221216833718
1040
20.44999986828871
1040
0.0
1040
11.29221216833718
1040
18.63479784293344
1040
0.1989123673796619
1040
12.52236368735361
1040
15.66494936194983
1040
0.0
1040
15.43216166199829
1040
12.75515138730518
1040
-0.1989123673796613
1040
15.84221216833714
1040
11.76520189364399
1040
0.0
1040
15.84221216833714
1040
10.47499986828867
1040
-0.4142135623730911
1040
15.31721216833716
1040
9.949999868288683
1040
0.0
1040
12.34221216833725
1040
9.949999868288683
1040
0.4142135623731526
1040
11.81721216833716
1040
9.424999868288695
1040
0.0
1040
11.81721216833716
1040
7.674999868288675
1040
0.4142135623731526
1040
12.34221216833725
1040
7.149999868288687
1040
0.0
1040
15.84221216833714
1040
7.149999868288687
1040
0.4142135623731045
1040
18.64221216833721
1040
9.949999868288664
1040
0.0
1040
18.64221216833721
1040
11.76520189364393
1040
0.1989123673796604
1040
17.41206064932066
1040
14.73505037462747
1040
0.0
1071
        0
1071
        7
1070
     1
1070
     1
1071
       16
1040
23.54221216833718
1040
19.04999986828869
1040
-0.4142135623730935
1040
24.94221216833716
1040
20.44999986828868
1040
0.0
1040
26.86721216833712
1040
20.44999986828868
1040
0.4142135623731546
1040
27.39221216833721
1040
20.97499986828867
1040
0.0
1040
27.39221216833721
1040
22.7249998682887
1040
0.4142135623730951
1040
26.86721216833723
1040
23.24999986828868
1040
0.0
1040
24.94221216833705
1040
23.24999986828864
1040
0.4142135623730893
1040
20.74221216833711
1040
19.04999986828862
1040
0.0
1040
20.74221216833711
1040
11.34999986828871
1040
0.4142135623730969
1040
24.94221216833716
1040
7.149999868288687
1040
0.0
1040
26.86721216833712
1040
7.149999868288687
1040
0.4142135623731526
1040
27.39221216833721
1040
7.674999868288675
1040
0.0
1040
27.39221216833721
1040
9.424999868288695
1040
0.4142135623730891
1040
26.86721216833723
1040
9.949999868288683
1040
0.0
1040
24.94221216833716
1040
9.949999868288683
1040
-0.4142135623730928
1040
23.54221216833718
1040
11.34999986828867
1040
0.0
1071
        0
1071
        7
1070
     1
1070
     1
1071
        2
1040
24.24221216833712
1040
15.19999986828868
1040
1.0
1040
27.74221216833713
1040
15.19999986828868
1040
1.0
1071
        0
1071
        7
1070
     1
1070
     1
1071
       26
1040
37.31485865051514
1040
19.20504706185211
1040
0.0
1040
38.37649828365296
1040
22.5669059001217
1040
0.5069206636600134
1040
37.87586738445759
1040
23.24999986828868
1040
0.0
1040
36.17697800484836
1040
23.24999986828868
1040
0.3272098845218764
1040
35.676347105653
1040
22.88309383645565
1040
0.0
1040
33.80807723102122
1040
16.96690590012176
1040
-0.3272098845219541
1040
33.30744633182575
1040
16.59999986828868
1040
0.0
1040
33.1672121683373
1040
16.59999986828868
1040
-0.4142135623731526
1040
32.64221216833721
1040
17.12499986828867
1040
0.0
1040
32.64221216833721
1040
22.7249998682887
1040
0.4142135623730951
1040
32.11721216833723
1040
23.24999986828868
1040
0.0
1040
30.36721216833711
1040
23.24999986828868
1040
0.4142135623730871
1040
29.84221216833714
1040
22.7249998682887
1040
0.0
1040
29.84221216833714
1040
7.674999868288675
1040
0.4142135623730891
1040
30.36721216833711
1040
7.149999868288687
1040
0.0
1040
32.11721216833712
1040
7.149999868288687
1040
0.4142135623731526
1040
32.64221216833721
1040
7.674999868288675
1040
0.0
1040
32.64221216833721
1040
13.27499986828869
1040
-0.4142135623731526
1040
33.1672121683373
1040
13.79999986828868
1040
0.0
1040
33.30744633182587
1040
13.79999986828868
1040
-0.3272098845218915
1040
33.80807723102122
1040
13.43309383645561
1040
0.0
1040
35.676347105653
1040
7.516905900121758
1040
0.3272098845218902
1040
36.17697800484836
1040
7.149999868288687
1040
0.0
1040
37.87586738445759
1040
7.149999868288687
1040
0.5069206636600336
1040
38.37649828365296
1040
7.833093836455695
1040
0.0
1040
36.05010690517929
1040
15.19999986828882
1040
0.0
1071
        0
1071
        7
1070
     1
1070
     1
1071
        8
1040
43.4922121683371
1040
22.7249998682887
1040
0.4142135623731546
1040
42.96721216833701
1040
23.24999986828868
1040
0.0
1040
41.21721216833726
1040
23.24999986828868
1040
0.4142135623731507
1040
40.69221216833716
1040
22.7249998682887
1040
0.0
1040
40.69221216833716
1040
7.674999868288675
1040
0.4142135623731526
1040
41.21721216833726
1040
7.149999868288687
1040
0.0
1040
42.96721216833701
1040
7.149999868288687
1040
0.4142135623731526
1040
43.4922121683371
1040
7.674999868288675
1040
0.0
1071
        0
1071
        7
1070
     1
1070
     1
1071
       24
1040
48.3922121683372
1040
19.92499986828869
1040
-0.4142135623731546
1040
48.9172121683373
1040
20.44999986828868
1040
0.0
1040
51.89221216833721
1040
20.44999986828868
1040
0.4142135623730911
1040
52.41721216833718
1040
20.97499986828867
1040
0.0
1040
52.41721216833718
1040
22.7249998682887
1040
0.4142135623730952
1040
51.89221216833721
1040
23.24999986828868
1040
0.0
1040
48.3922121683372
1040
23.24999986828868
1040
0.4142135623731048
1040
45.59221216833714
1040
20.44999986828871
1040
0.0
1040
45.59221216833714
1040
18.63479784293344
1040
0.1989123673796613
1040
46.82236368735368
1040
15.66494936194989
1040
0.0
1040
49.73216166199835
1040
12.75515138730522
1040
-0.1989123673796402
1040
50.14221216833721
1040
11.76520189364415
1040
0.0
1040
50.14221216833721
1040
10.47499986828867
1040
-0.4142135623730911
1040
49.61721216833723
1040
9.949999868288683
1040
0.0
1040
46.64221216833721
1040
9.949999868288683
1040
0.4142135623731526
1040
46.11721216833712
1040
9.424999868288695
1040
0.0
1040
46.11721216833712
1040
7.674999868288675
1040
0.4142135623730891
1040
46.64221216833709
1040
7.149999868288687
1040
0.0
1040
50.14221216833721
1040
7.149999868288687
1040
0.4142135623730925
1040
52.94221216833715
1040
9.949999868288664
1040
0.0
1040
52.94221216833715
1040
11.76520189364393
1040
0.1989123673796675
1040
51.71206064932062
1040
14.73505037462759
1040
0.0
1040
48.80226267467604
1040
17.6448483492721
1040
-0.1989123673796652
1040
48.3922121683372
1040
18.63479784293327
1040
0.0
1071
        0
1071
        7
1070
     1
1070
     1
1071
       16
1040
57.84221216833714
1040
22.72499986828867
1040
0.414213562373103
1040
57.31721216833715
1040
23.24999986828868
1040
0.0
1040
55.56721216833715
1040
23.24999986828868
1040
0.4142135623730871
1040
55.04221216833718
1040
22.7249998682887
1040
0.0
1040
55.04221216833718
1040
9.949999868288664
1040
0.4142135623730927
1040
57.84221216833714
1040
7.149999868288687
1040
0.0
1040
61.34221216833714
1040
7.149999868288687
1040
0.4142135623731045
1040
64.14221216833721
1040
9.949999868288664
1040
0.0
1040
64.14221216833721
1040
22.7249998682887
1040
0.4142135623730951
1040
63.61721216833723
1040
23.24999986828868
1040
0.0
1040
61.86721216833712
1040
23.24999986828868
1040
0.4142135623730871
1040
61.34221216833714
1040
22.7249998682887
1040
0.0
1040
61.34221216833714
1040
10.99999986828866
1040
-0.4142135623730879
1040
60.29221216833718
1040
9.949999868288683
1040
0.0
1040
58.89221216833721
1040
9.949999868288683
1040
-0.4142135623731197
1040
57.84221216833714
1040
10.99999986828866
1040
0.0
1071
        0
1071
        7
1070
     1
1070
     1
1071
        8
1040
69.04221216833718
1040
22.7249998682887
1040
0.4142135623730871
1040
68.51721216833721
1040
23.24999986828868
1040
0.0
1040
66.76721216833721
1040
23.24999986828868
1040
0.4142135623731507
1040
66.24221216833712
1040
22.7249998682887
1040
0.0
1040
66.24221216833712
1040
7.674999868288675
1040
0.4142135623730891
1040
66.76721216833709
1040
7.149999868288687
1040
0.0
1040
68.51721216833721
1040
7.149999868288687
1040
0.4142135623730891
1040
69.04221216833718
1040
7.674999868288675
1040
0.0
1071
        0
1070
     0
1070
     1
1040
0.0
1040
0.2
1070
     0
1070
     2
1040
0.7853981633974483
1040
-900.942304321123
1040
-13.20000013171124
1040
-0.4490128060534576
1040
0.4490128060534577
1070
     0
1040
2.356194490192344
1040
-900.942304321123
1040
-13.20000013171124
1040
-0.4490128060534577
1040
-0.4490128060534576
1070
     0
1040
0.057451373970553
1071
        8
1040
16.07985497657932
1040
15.16717351417423
1040
0.0
1040
22.40451501999519
1040
18.84406205073969
1040
0.0
1040
25.16436789921567
1040
15.5118815143594
1040
0.0
1040
30.91405999519315
1040
16.20129751473018
1040
0.0
1040
41.83847203251274
1040
16.6609097822718
1040
0.0
1040
46.89820090868557
1040
19.41857618469589
1040
0.0
1040
56.55768598595636
1040
18.72915778338369
1040
0.0
1040
67.82707963317875
1040
19.18877005092531
1040
0.0
1002
}
  0
LINE
  5
EF5
330
1A
100
AcDbEntity
  8
ZUWAKU
100
AcDbLine
 10
24.94221216833716
 20
23.24999986828864
 30
0.0
 11
26.86721216833712
 21
23.24999986828868
 31
0.0
  0
LINE
  5
EF6
330
1A
100
AcDbEntity
  8
ZUWAKU
100
AcDbLine
 10
26.86721216833712
 20
20.44999986828868
 30
0.0
 11
24.94221216833716
 21
20.44999986828868
 31
0.0
  0
LINE
  5
EF7
330
1A
100
AcDbEntity
  8
ZUWAKU
100
AcDbLine
 10
24.94221216833716
 20
9.949999868288683
 30
0.0
 11
26.86721216833712
 21
9.949999868288683
 31
0.0
  0
LINE
  5
EF8
330
1A
100
AcDbEntity
  8
ZUWAKU
100
AcDbLine
 10
26.86721216833712
 20
7.149999868288687
 30
0.0
 11
24.94221216833716
 21
7.149999868288687
 31
0.0
  0
CIRCLE
  5
EF9
330
1A
100
AcDbEntity
  8
ZUWAKU
100
AcDbCircle
 10
25.99221216833711
 20
15.19999986828868
 30
0.0
 40
1.75
  0
ARC
  5
EFA
330
1A
100
AcDbEntity
  8
ZUWAKU
100
AcDbCircle
 10
15.49221216833712
 20
18.63479784293337
 30
0.0
 40
1.399999999999999
100
AcDbArc
 50
180.0000000000016
 51
224.9999999999988
  0
LINE
  5
EFB
330
1A
100
AcDbEntity
  8
ZUWAKU
100
AcDbLine
 10
23.54221216833718
 20
19.04999986828868
 30
0.0
 11
23.54221216833718
 21
11.34999986828869
 31
0.0
  0
LINE
  5
EFC
330
1A
100
AcDbEntity
  8
ZUWAKU
100
AcDbLine
 10
20.74221216833711
 20
11.34999986828869
 30
0.0
 11
20.74221216833711
 21
19.04999986828864
 31
0.0
  0
ARC
  5
EFD
330
1A
100
AcDbEntity
  8
ZUWAKU
100
AcDbCircle
 10
15.49221216833712
 20
18.63479784293337
 30
0.0
 40
4.199999999999998
100
AcDbArc
 50
180.0
 51
225.0
  0
ARC
  5
EFE
330
1A
100
AcDbEntity
  8
ZUWAKU
100
AcDbCircle
 10
15.84221216833714
 20
9.949999868288683
 30
0.0
 40
2.799999999999998
100
AcDbArc
 50
270.0
 51
0.0
  0
ARC
  5
EFF
330
1A
100
AcDbEntity
  8
ZUWAKU
100
AcDbCircle
 10
24.94221216833716
 20
11.34999986828869
 30
0.0
 40
4.199999999999998
100
AcDbArc
 50
180.0
 51
270.0
  0
ARC
  5
F00
330
1A
100
AcDbEntity
  8
ZUWAKU
100
AcDbCircle
 10
14.44221216833716
 20
11.76520189364399
 30
0.0
 40
4.199999999999998
100
AcDbArc
 50
0.0
 51
45.0
  0
LINE
  5
F01
330
1A
100
AcDbEntity
  8
ZUWAKU
100
AcDbLine
 10
17.41206064932066
 20
14.73505037462751
 30
0.0
 11
14.50226267467598
 21
17.64484834927218
 31
0.0
  0
LINE
  5
F02
330
1A
100
AcDbEntity
  8
ZUWAKU
100
AcDbLine
 10
15.84221216833714
 20
10.47499986828869
 30
0.0
 11
15.84221216833714
 21
11.76520189364403
 31
0.0
  0
ARC
  5
F03
330
1A
100
AcDbEntity
  8
ZUWAKU
100
AcDbCircle
 10
15.31721216833716
 20
10.47499986828869
 30
0.0
 40
0.525
100
AcDbArc
 50
270.0
 51
0.0
  0
ARC
  5
F04
330
1A
100
AcDbEntity
  8
ZUWAKU
100
AcDbCircle
 10
14.44221216833716
 20
11.76520189364403
 30
0.0
 40
1.399999999999999
100
AcDbArc
 50
0.0
 51
45.0
  0
LINE
  5
F05
330
1A
100
AcDbEntity
  8
ZUWAKU
100
AcDbLine
 10
11.81721216833716
 20
7.674999868288685
 30
0.0
 11
11.81721216833716
 21
9.424999868288685
 31
0.0
  0
ARC
  5
F06
330
1A
100
AcDbEntity
  8
ZUWAKU
100
AcDbCircle
 10
12.34221216833714
 20
7.674999868288685
 30
0.0
 40
0.525
100
AcDbArc
 50
180.0
 51
270.0
  0
ARC
  5
F07
330
1A
100
AcDbEntity
  8
ZUWAKU
100
AcDbCircle
 10
12.34221216833714
 20
9.424999868288685
 30
0.0
 40
0.525
100
AcDbArc
 50
90.0
 51
180.0
  0
LINE
  5
F08
330
1A
100
AcDbEntity
  8
ZUWAKU
100
AcDbLine
 10
12.34221216833714
 20
7.149999868288687
 30
0.0
 11
15.84221216833714
 21
7.149999868288687
 31
0.0
  0
LINE
  5
F09
330
1A
100
AcDbEntity
  8
ZUWAKU
100
AcDbLine
 10
12.34221216833714
 20
9.949999868288683
 30
0.0
 11
15.31721216833716
 21
9.949999868288683
 31
0.0
  0
LINE
  5
F0A
330
1A
100
AcDbEntity
  8
ZUWAKU
100
AcDbLine
 10
12.52236368735361
 20
15.66494936194986
 30
0.0
 11
15.43216166199829
 21
12.7551513873052
 31
0.0
  0
LINE
  5
F0B
330
1A
100
AcDbEntity
  8
ZUWAKU
100
AcDbLine
 10
18.64221216833721
 20
9.949999868288683
 30
0.0
 11
18.64221216833721
 21
11.76520189364403
 31
0.0
  0
ARC
  5
F0C
330
1A
100
AcDbEntity
  8
ZUWAKU
100
AcDbCircle
 10
24.94221216833716
 20
11.34999986828869
 30
0.0
 40
1.399999999999999
100
AcDbArc
 50
180.0
 51
270.0
  0
ARC
  5
F0D
330
1A
100
AcDbEntity
  8
ZUWAKU
100
AcDbCircle
 10
17.59221216833714
 20
22.72499986828868
 30
0.0
 40
0.525
100
AcDbArc
 50
0.0
 51
90.0
  0
ARC
  5
F0E
330
1A
100
AcDbEntity
  8
ZUWAKU
100
AcDbCircle
 10
17.59221216833714
 20
20.97499986828868
 30
0.0
 40
0.525
100
AcDbArc
 50
270.0
 51
0.0
  0
LINE
  5
F0F
330
1A
100
AcDbEntity
  8
ZUWAKU
100
AcDbLine
 10
14.09221216833714
 20
23.24999986828868
 30
0.0
 11
17.59221216833714
 21
23.24999986828868
 31
0.0
  0
ARC
  5
F10
330
1A
100
AcDbEntity
  8
ZUWAKU
100
AcDbCircle
 10
14.61721216833711
 20
19.92499986828868
 30
0.0
 40
0.525
100
AcDbArc
 50
90.0
 51
180.0
  0
LINE
  5
F11
330
1A
100
AcDbEntity
  8
ZUWAKU
100
AcDbLine
 10
14.09221216833714
 20
19.92499986828868
 30
0.0
 11
14.09221216833714
 21
18.63479784293334
 31
0.0
  0
LINE
  5
F12
330
1A
100
AcDbEntity
  8
ZUWAKU
100
AcDbLine
 10
17.59221216833714
 20
20.44999986828868
 30
0.0
 11
14.61721216833711
 21
20.44999986828868
 31
0.0
  0
LINE
  5
F13
330
1A
100
AcDbEntity
  8
ZUWAKU
100
AcDbLine
 10
11.29221216833718
 20
20.44999986828868
 30
0.0
 11
11.29221216833718
 21
18.63479784293334
 31
0.0
  0
ARC
  5
F14
330
1A
100
AcDbEntity
  8
ZUWAKU
100
AcDbCircle
 10
14.09221216833714
 20
20.44999986828868
 30
0.0
 40
2.799999999999998
100
AcDbArc
 50
90.0
 51
180.0
  0
LINE
  5
F15
330
1A
100
AcDbEntity
  8
ZUWAKU
100
AcDbLine
 10
18.11721216833712
 20
22.72499986828868
 30
0.0
 11
18.11721216833712
 21
20.97499986828868
 31
0.0
  0
ARC
  5
F16
330
1A
100
AcDbEntity
  8
ZUWAKU
100
AcDbCircle
 10
24.94221216833716
 20
19.04999986828868
 30
0.0
 40
1.399999999999999
100
AcDbArc
 50
90.0
 51
180.0
  0
ARC
  5
F17
330
1A
100
AcDbEntity
  8
ZUWAKU
100
AcDbCircle
 10
24.94221216833716
 20
19.04999986828864
 30
0.0
 40
4.199999999999998
100
AcDbArc
 50
90.0
 51
180.0
  0
LINE
  5
F18
330
1A
100
AcDbEntity
  8
ZUWAKU
100
AcDbLine
 10
79.32662956154422
 20
29.99999986828868
 30
0.0
 11
79.32662956154445
 21
0.7999998682887508
 31
0.0
  0
LINE
  5
F19
330
1A
100
AcDbEntity
  8
ZUWAKU
100
AcDbLine
 10
79.52662956154426
 20
29.99999986828868
 30
0.0
 11
79.52662956154448
 21
0.7999998682887508
 31
0.0
  0
LINE
  5
F1A
330
1A
100
AcDbEntity
  8
ZUWAKU
100
AcDbLine
 10
79.12662956154441
 20
29.99999986828868
 30
0.0
 11
79.12662956154441
 21
0.7999998682887508
 31
0.0
  0
LINE
  5
F1B
330
1A
100
AcDbEntity
  8
ZUWAKU
100
AcDbLine
 10
64.14221216833721
 20
9.949999868288683
 30
0.0
 11
64.14221216833721
 21
22.72499986828868
 31
0.0
  0
LINE
  5
F1C
330
1A
100
AcDbEntity
  8
ZUWAKU
100
AcDbLine
 10
61.34221216833714
 20
22.72499986828868
 30
0.0
 11
61.34221216833714
 21
10.99999986828868
 31
0.0
  0
LINE
  5
F1D
330
1A
100
AcDbEntity
  8
ZUWAKU
100
AcDbLine
 10
69.04221216833718
 20
7.674999868288685
 30
0.0
 11
69.04221216833718
 21
22.72499986828868
 31
0.0
  0
LINE
  5
F1E
330
1A
100
AcDbEntity
  8
ZUWAKU
100
AcDbLine
 10
66.24221216833712
 20
22.72499986828868
 30
0.0
 11
66.24221216833712
 21
7.674999868288685
 31
0.0
  0
ARC
  5
F1F
330
1A
100
AcDbEntity
  8
ZUWAKU
100
AcDbCircle
 10
49.79221216833717
 20
18.63479784293337
 30
0.0
 40
1.399999999999999
100
AcDbArc
 50
180.0000000000016
 51
224.9999999999988
  0
ARC
  5
F20
330
1A
100
AcDbEntity
  8
ZUWAKU
100
AcDbCircle
 10
49.79221216833717
 20
18.63479784293337
 30
0.0
 40
4.199999999999998
100
AcDbArc
 50
180.0
 51
225.0
  0
LINE
  5
F21
330
1A
100
AcDbEntity
  8
ZUWAKU
100
AcDbLine
 10
37.31485865051514
 20
19.20504706185211
 30
0.0
 11
36.05010690517929
 21
15.1999998682887
 31
0.0
  0
LINE
  5
F22
330
1A
100
AcDbEntity
  8
ZUWAKU
100
AcDbLine
 10
40.69221216833716
 20
22.72499986828868
 30
0.0
 11
40.69221216833716
 21
7.674999868288685
 31
0.0
  0
LINE
  5
F23
330
1A
100
AcDbEntity
  8
ZUWAKU
100
AcDbLine
 10
43.4922121683371
 20
7.674999868288685
 30
0.0
 11
43.4922121683371
 21
22.72499986828868
 31
0.0
  0
LINE
  5
F24
330
1A
100
AcDbEntity
  8
ZUWAKU
100
AcDbLine
 10
55.04221216833718
 20
22.72499986828868
 30
0.0
 11
55.04221216833718
 21
9.949999868288683
 31
0.0
  0
LINE
  5
F25
330
1A
100
AcDbEntity
  8
ZUWAKU
100
AcDbLine
 10
57.84221216833714
 20
10.99999986828868
 30
0.0
 11
57.84221216833714
 21
22.72499986828868
 31
0.0
  0
LINE
  5
F26
330
1A
100
AcDbEntity
  8
ZUWAKU
100
AcDbLine
 10
32.64221216833721
 20
17.12499986828869
 30
0.0
 11
32.64221216833721
 21
22.72499986828868
 31
0.0
  0
LINE
  5
F27
330
1A
100
AcDbEntity
  8
ZUWAKU
100
AcDbLine
 10
29.84221216833714
 20
22.72499986828868
 30
0.0
 11
29.84221216833714
 21
7.674999868288685
 31
0.0
  0
LINE
  5
F28
330
1A
100
AcDbEntity
  8
ZUWAKU
100
AcDbLine
 10
35.676347105653
 20
22.88309383645565
 30
0.0
 11
33.80807723102122
 21
16.96690590012171
 31
0.0
  0
LINE
  5
F29
330
1A
100
AcDbEntity
  8
ZUWAKU
100
AcDbLine
 10
60.29221216833718
 20
9.949999868288683
 30
0.0
 11
58.89221216833721
 21
9.949999868288683
 31
0.0
  0
LINE
  5
F2A
330
1A
100
AcDbEntity
  8
ZUWAKU
100
AcDbLine
 10
57.84221216833714
 20
7.149999868288687
 30
0.0
 11
61.34221216833714
 21
7.149999868288687
 31
0.0
  0
LINE
  5
F2B
330
1A
100
AcDbEntity
  8
ZUWAKU
100
AcDbLine
 10
41.21721216833714
 20
7.149999868288687
 30
0.0
 11
42.96721216833714
 21
7.149999868288687
 31
0.0
  0
LINE
  5
F2C
330
1A
100
AcDbEntity
  8
ZUWAKU
100
AcDbLine
 10
35.676347105653
 20
7.516905900121712
 30
0.0
 11
33.80807723102122
 21
13.43309383645565
 31
0.0
  0
ARC
  5
F2D
330
1A
100
AcDbEntity
  8
ZUWAKU
100
AcDbCircle
 10
33.30744633182587
 20
17.12499986828869
 30
0.0
 40
0.525
100
AcDbArc
 50
270.0
 51
342.474431626277
  0
LINE
  5
F2E
330
1A
100
AcDbEntity
  8
ZUWAKU
100
AcDbLine
 10
33.30744633182587
 20
16.59999986828868
 30
0.0
 11
33.16721216833718
 21
16.59999986828868
 31
0.0
  0
LINE
  5
F2F
330
1A
100
AcDbEntity
  8
ZUWAKU
100
AcDbLine
 10
33.16721216833718
 20
13.79999986828868
 30
0.0
 11
33.30744633182587
 21
13.79999986828868
 31
0.0
  0
ARC
  5
F30
330
1A
100
AcDbEntity
  8
ZUWAKU
100
AcDbCircle
 10
33.16721216833718
 20
17.12499986828869
 30
0.0
 40
0.525
100
AcDbArc
 50
180.0
 51
270.0
  0
LINE
  5
F31
330
1A
100
AcDbEntity
  8
ZUWAKU
100
AcDbLine
 10
30.36721216833711
 20
7.149999868288687
 30
0.0
 11
32.11721216833712
 21
7.149999868288687
 31
0.0
  0
ARC
  5
F32
330
1A
100
AcDbEntity
  8
ZUWAKU
100
AcDbCircle
 10
32.11721216833712
 20
7.674999868288685
 30
0.0
 40
0.525
100
AcDbArc
 50
270.0
 51
0.0
  0
LINE
  5
F33
330
1A
100
AcDbEntity
  8
ZUWAKU
100
AcDbLine
 10
32.64221216833721
 20
7.674999868288685
 30
0.0
 11
32.64221216833721
 21
13.27499986828868
 31
0.0
  0
LINE
  5
F34
330
1A
100
AcDbEntity
  8
ZUWAKU
100
AcDbLine
 10
27.39221216833721
 20
9.424999868288685
 30
0.0
 11
27.39221216833721
 21
7.674999868288685
 31
0.0
  0
ARC
  5
F35
330
1A
100
AcDbEntity
  8
ZUWAKU
100
AcDbCircle
 10
26.86721216833712
 20
7.674999868288685
 30
0.0
 40
0.525
100
AcDbArc
 50
270.0
 51
0.0
  0
ARC
  5
F36
330
1A
100
AcDbEntity
  8
ZUWAKU
100
AcDbCircle
 10
26.86721216833712
 20
9.424999868288685
 30
0.0
 40
0.525
100
AcDbArc
 50
0.0
 51
90.0
  0
ARC
  5
F37
330
1A
100
AcDbEntity
  8
ZUWAKU
100
AcDbCircle
 10
30.36721216833711
 20
7.674999868288685
 30
0.0
 40
0.525
100
AcDbArc
 50
180.0
 51
270.0
  0
ARC
  5
F38
330
1A
100
AcDbEntity
  8
ZUWAKU
100
AcDbCircle
 10
33.30744633182587
 20
13.27499986828868
 30
0.0
 40
0.525
100
AcDbArc
 50
17.52556837372303
 51
90.0
  0
ARC
  5
F39
330
1A
100
AcDbEntity
  8
ZUWAKU
100
AcDbCircle
 10
33.16721216833718
 20
13.27499986828868
 30
0.0
 40
0.525
100
AcDbArc
 50
90.0
 51
180.0
  0
ARC
  5
F3A
330
1A
100
AcDbEntity
  8
ZUWAKU
100
AcDbCircle
 10
41.21721216833714
 20
7.674999868288685
 30
0.0
 40
0.525
100
AcDbArc
 50
180.0
 51
270.0
  0
LINE
  5
F3B
330
1A
100
AcDbEntity
  8
ZUWAKU
100
AcDbLine
 10
36.17697800484847
 20
7.149999868288687
 30
0.0
 11
37.87586738445748
 21
7.149999868288687
 31
0.0
  0
ARC
  5
F3C
330
1A
100
AcDbEntity
  8
ZUWAKU
100
AcDbCircle
 10
37.87586738445748
 20
7.674999868288685
 30
0.0
 40
0.525
100
AcDbArc
 50
270.0
 51
17.52556837372303
  0
LINE
  5
F3D
330
1A
100
AcDbEntity
  8
ZUWAKU
100
AcDbLine
 10
38.37649828365296
 20
7.83309383645566
 30
0.0
 11
36.05010690517929
 21
15.1999998682887
 31
0.0
  0
ARC
  5
F3E
330
1A
100
AcDbEntity
  8
ZUWAKU
100
AcDbCircle
 10
36.17697800484847
 20
7.674999868288685
 30
0.0
 40
0.525
100
AcDbArc
 50
197.525568373723
 51
270.0
  0
ARC
  5
F3F
330
1A
100
AcDbEntity
  8
ZUWAKU
100
AcDbCircle
 10
57.84221216833714
 20
9.949999868288683
 30
0.0
 40
2.799999999999998
100
AcDbArc
 50
180.0
 51
270.0
  0
ARC
  5
F40
330
1A
100
AcDbEntity
  8
ZUWAKU
100
AcDbCircle
 10
50.14221216833721
 20
9.949999868288683
 30
0.0
 40
2.799999999999998
100
AcDbArc
 50
270.0
 51
0.0
  0
LINE
  5
F41
330
1A
100
AcDbEntity
  8
ZUWAKU
100
AcDbLine
 10
51.71206064932072
 20
14.73505037462751
 30
0.0
 11
48.80226267467595
 21
17.64484834927218
 31
0.0
  0
LINE
  5
F42
330
1A
100
AcDbEntity
  8
ZUWAKU
100
AcDbLine
 10
50.14221216833721
 20
10.47499986828869
 30
0.0
 11
50.14221216833721
 21
11.76520189364403
 31
0.0
  0
ARC
  5
F43
330
1A
100
AcDbEntity
  8
ZUWAKU
100
AcDbCircle
 10
48.74221216833712
 20
11.76520189364403
 30
0.0
 40
1.399999999999999
100
AcDbArc
 50
0.0
 51
45.0
  0
ARC
  5
F44
330
1A
100
AcDbEntity
  8
ZUWAKU
100
AcDbCircle
 10
49.61721216833712
 20
10.47499986828869
 30
0.0
 40
0.525
100
AcDbArc
 50
270.0
 51
0.0
  0
LINE
  5
F45
330
1A
100
AcDbEntity
  8
ZUWAKU
100
AcDbLine
 10
46.11721216833712
 20
7.674999868288685
 30
0.0
 11
46.11721216833712
 21
9.424999868288685
 31
0.0
  0
ARC
  5
F46
330
1A
100
AcDbEntity
  8
ZUWAKU
100
AcDbCircle
 10
46.64221216833721
 20
7.674999868288685
 30
0.0
 40
0.525
100
AcDbArc
 50
180.0
 51
270.0
  0
ARC
  5
F47
330
1A
100
AcDbEntity
  8
ZUWAKU
100
AcDbCircle
 10
42.96721216833714
 20
7.674999868288685
 30
0.0
 40
0.525
100
AcDbArc
 50
270.0
 51
0.0
  0
ARC
  5
F48
330
1A
100
AcDbEntity
  8
ZUWAKU
100
AcDbCircle
 10
46.64221216833721
 20
9.424999868288685
 30
0.0
 40
0.525
100
AcDbArc
 50
90.0
 51
180.0
  0
LINE
  5
F49
330
1A
100
AcDbEntity
  8
ZUWAKU
100
AcDbLine
 10
46.64221216833721
 20
9.949999868288683
 30
0.0
 11
49.61721216833712
 21
9.949999868288683
 31
0.0
  0
LINE
  5
F4A
330
1A
100
AcDbEntity
  8
ZUWAKU
100
AcDbLine
 10
46.64221216833721
 20
7.149999868288687
 30
0.0
 11
50.14221216833721
 21
7.149999868288687
 31
0.0
  0
LINE
  5
F4B
330
1A
100
AcDbEntity
  8
ZUWAKU
100
AcDbLine
 10
46.82236368735368
 20
15.66494936194986
 30
0.0
 11
49.73216166199835
 21
12.7551513873052
 31
0.0
  0
LINE
  5
F4C
330
1A
100
AcDbEntity
  8
ZUWAKU
100
AcDbLine
 10
52.94221216833715
 20
9.949999868288683
 30
0.0
 11
52.94221216833715
 21
11.76520189364403
 31
0.0
  0
ARC
  5
F4D
330
1A
100
AcDbEntity
  8
ZUWAKU
100
AcDbCircle
 10
48.74221216833712
 20
11.76520189364399
 30
0.0
 40
4.199999999999998
100
AcDbArc
 50
0.0
 51
45.0
  0
ARC
  5
F4E
330
1A
100
AcDbEntity
  8
ZUWAKU
100
AcDbCircle
 10
58.89221216833721
 20
10.99999986828868
 30
0.0
 40
1.049999999999998
100
AcDbArc
 50
180.0
 51
270.0
  0
ARC
  5
F4F
330
1A
100
AcDbEntity
  8
ZUWAKU
100
AcDbCircle
 10
61.34221216833714
 20
9.949999868288683
 30
0.0
 40
2.799999999999998
100
AcDbArc
 50
270.0
 51
0.0
  0
LINE
  5
F50
330
1A
100
AcDbEntity
  8
ZUWAKU
100
AcDbLine
 10
66.76721216833721
 20
7.149999868288687
 30
0.0
 11
68.51721216833721
 21
7.149999868288687
 31
0.0
  0
ARC
  5
F51
330
1A
100
AcDbEntity
  8
ZUWAKU
100
AcDbCircle
 10
66.76721216833721
 20
7.674999868288685
 30
0.0
 40
0.525
100
AcDbArc
 50
180.0
 51
270.0
  0
ARC
  5
F52
330
1A
100
AcDbEntity
  8
ZUWAKU
100
AcDbCircle
 10
60.29221216833718
 20
10.99999986828868
 30
0.0
 40
1.049999999999998
100
AcDbArc
 50
270.0
 51
0.0
  0
ARC
  5
F53
330
1A
100
AcDbEntity
  8
ZUWAKU
100
AcDbCircle
 10
68.51721216833721
 20
7.674999868288685
 30
0.0
 40
0.525
100
AcDbArc
 50
270.0
 51
0.0
  0
LINE
  5
F54
330
1A
100
AcDbEntity
  8
ZUWAKU
100
AcDbLine
 10
42.96721216833714
 20
23.24999986828868
 30
0.0
 11
41.21721216833714
 21
23.24999986828868
 31
0.0
  0
ARC
  5
F55
330
1A
100
AcDbEntity
  8
ZUWAKU
100
AcDbCircle
 10
32.11721216833712
 20
22.72499986828868
 30
0.0
 40
0.525
100
AcDbArc
 50
0.0
 51
90.0
  0
LINE
  5
F56
330
1A
100
AcDbEntity
  8
ZUWAKU
100
AcDbLine
 10
32.11721216833712
 20
23.24999986828868
 30
0.0
 11
30.36721216833711
 21
23.24999986828868
 31
0.0
  0
ARC
  5
F57
330
1A
100
AcDbEntity
  8
ZUWAKU
100
AcDbCircle
 10
26.86721216833712
 20
22.72499986828868
 30
0.0
 40
0.525
100
AcDbArc
 50
0.0
 51
90.0
  0
ARC
  5
F58
330
1A
100
AcDbEntity
  8
ZUWAKU
100
AcDbCircle
 10
30.36721216833711
 20
22.72499986828868
 30
0.0
 40
0.525
100
AcDbArc
 50
90.0
 51
180.0
  0
ARC
  5
F59
330
1A
100
AcDbEntity
  8
ZUWAKU
100
AcDbCircle
 10
26.86721216833712
 20
20.97499986828868
 30
0.0
 40
0.525
100
AcDbArc
 50
270.0
 51
0.0
  0
LINE
  5
F5A
330
1A
100
AcDbEntity
  8
ZUWAKU
100
AcDbLine
 10
27.39221216833721
 20
22.72499986828868
 30
0.0
 11
27.39221216833721
 21
20.97499986828868
 31
0.0
  0
ARC
  5
F5B
330
1A
100
AcDbEntity
  8
ZUWAKU
100
AcDbCircle
 10
41.21721216833714
 20
22.72499986828868
 30
0.0
 40
0.525
100
AcDbArc
 50
90.0
 51
180.0
  0
LINE
  5
F5C
330
1A
100
AcDbEntity
  8
ZUWAKU
100
AcDbLine
 10
36.17697800484847
 20
23.24999986828868
 30
0.0
 11
37.87586738445748
 21
23.24999986828868
 31
0.0
  0
ARC
  5
F5D
330
1A
100
AcDbEntity
  8
ZUWAKU
100
AcDbCircle
 10
37.87586738445748
 20
22.72499986828868
 30
0.0
 40
0.525
100
AcDbArc
 50
342.474431626277
 51
90.0
  0
LINE
  5
F5E
330
1A
100
AcDbEntity
  8
ZUWAKU
100
AcDbLine
 10
38.37649828365296
 20
22.56690590012171
 30
0.0
 11
37.31485865051514
 21
19.20504706185211
 31
0.0
  0
ARC
  5
F5F
330
1A
100
AcDbEntity
  8
ZUWAKU
100
AcDbCircle
 10
36.17697800484847
 20
22.72499986828868
 30
0.0
 40
0.525
100
AcDbArc
 50
90.0
 51
162.4744316262769
  0
LINE
  5
F60
330
1A
100
AcDbEntity
  8
ZUWAKU
100
AcDbLine
 10
48.3922121683372
 20
23.24999986828868
 30
0.0
 11
51.89221216833721
 21
23.24999986828868
 31
0.0
  0
LINE
  5
F61
330
1A
100
AcDbEntity
  8
ZUWAKU
100
AcDbLine
 10
51.89221216833721
 20
20.44999986828868
 30
0.0
 11
48.91721216833718
 21
20.44999986828868
 31
0.0
  0
ARC
  5
F62
330
1A
100
AcDbEntity
  8
ZUWAKU
100
AcDbCircle
 10
48.91721216833718
 20
19.92499986828868
 30
0.0
 40
0.525
100
AcDbArc
 50
90.0
 51
180.0
  0
LINE
  5
F63
330
1A
100
AcDbEntity
  8
ZUWAKU
100
AcDbLine
 10
48.3922121683372
 20
19.92499986828868
 30
0.0
 11
48.3922121683372
 21
18.63479784293334
 31
0.0
  0
ARC
  5
F64
330
1A
100
AcDbEntity
  8
ZUWAKU
100
AcDbCircle
 10
42.96721216833714
 20
22.72499986828868
 30
0.0
 40
0.525
100
AcDbArc
 50
0.0
 51
90.0
  0
LINE
  5
F65
330
1A
100
AcDbEntity
  8
ZUWAKU
100
AcDbLine
 10
45.59221216833714
 20
20.44999986828868
 30
0.0
 11
45.59221216833714
 21
18.63479784293334
 31
0.0
  0
ARC
  5
F66
330
1A
100
AcDbEntity
  8
ZUWAKU
100
AcDbCircle
 10
48.3922121683372
 20
20.44999986828868
 30
0.0
 40
2.799999999999998
100
AcDbArc
 50
90.0
 51
180.0
  0
ARC
  5
F67
330
1A
100
AcDbEntity
  8
ZUWAKU
100
AcDbCircle
 10
57.31721216833715
 20
22.72499986828868
 30
0.0
 40
0.525
100
AcDbArc
 50
0.0
 51
90.0
  0
ARC
  5
F68
330
1A
100
AcDbEntity
  8
ZUWAKU
100
AcDbCircle
 10
55.56721216833715
 20
22.72499986828868
 30
0.0
 40
0.525
100
AcDbArc
 50
90.0
 51
180.0
  0
LINE
  5
F69
330
1A
100
AcDbEntity
  8
ZUWAKU
100
AcDbLine
 10
57.31721216833715
 20
23.24999986828868
 30
0.0
 11
55.56721216833715
 21
23.24999986828868
 31
0.0
  0
ARC
  5
F6A
330
1A
100
AcDbEntity
  8
ZUWAKU
100
AcDbCircle
 10
51.89221216833721
 20
22.72499986828868
 30
0.0
 40
0.525
100
AcDbArc
 50
0.0
 51
90.0
  0
ARC
  5
F6B
330
1A
100
AcDbEntity
  8
ZUWAKU
100
AcDbCircle
 10
51.89221216833721
 20
20.97499986828868
 30
0.0
 40
0.525
100
AcDbArc
 50
270.0
 51
0.0
  0
LINE
  5
F6C
330
1A
100
AcDbEntity
  8
ZUWAKU
100
AcDbLine
 10
52.41721216833718
 20
22.72499986828868
 30
0.0
 11
52.41721216833718
 21
20.97499986828868
 31
0.0
  0
LINE
  5
F6D
330
1A
100
AcDbEntity
  8
ZUWAKU
100
AcDbLine
 10
68.51721216833721
 20
23.24999986828868
 30
0.0
 11
66.76721216833721
 21
23.24999986828868
 31
0.0
  0
ARC
  5
F6E
330
1A
100
AcDbEntity
  8
ZUWAKU
100
AcDbCircle
 10
66.76721216833721
 20
22.72499986828868
 30
0.0
 40
0.525
100
AcDbArc
 50
90.0
 51
180.0
  0
ARC
  5
F6F
330
1A
100
AcDbEntity
  8
ZUWAKU
100
AcDbCircle
 10
63.61721216833712
 20
22.72499986828868
 30
0.0
 40
0.525
100
AcDbArc
 50
0.0
 51
90.0
  0
LINE
  5
F70
330
1A
100
AcDbEntity
  8
ZUWAKU
100
AcDbLine
 10
63.61721216833712
 20
23.24999986828868
 30
0.0
 11
61.86721216833712
 21
23.24999986828868
 31
0.0
  0
ARC
  5
F71
330
1A
100
AcDbEntity
  8
ZUWAKU
100
AcDbCircle
 10
61.86721216833712
 20
22.72499986828868
 30
0.0
 40
0.525
100
AcDbArc
 50
90.0
 51
180.0
  0
ARC
  5
F72
330
1A
100
AcDbEntity
  8
ZUWAKU
100
AcDbCircle
 10
68.51721216833721
 20
22.72499986828868
 30
0.0
 40
0.525
100
AcDbArc
 50
0.0
 51
90.0
  0
LINE
  5
F75
330
1A
100
AcDbEntity
  8
ZUWAKU
100
AcDbLine
 10
208.2466013036239
 20
29.99999986828868
 30
0.0
 11
208.2466013036239
 21
0.7999998682887508
 31
0.0
  0
LINE
  5
F76
330
1A
100
AcDbEntity
  8
ZUWAKU
100
AcDbLine
 10
208.6466013036238
 20
29.99999986828868
 30
0.0
 11
208.646601303624
 21
0.7999998682887508
 31
0.0
  0
LINE
  5
F77
330
1A
100
AcDbEntity
  8
ZUWAKU
100
AcDbLine
 10
208.4466013036237
 20
29.99999986828868
 30
0.0
 11
208.446601303624
 21
0.7999998682887508
 31
0.0
  0
TEXT
  5
F78
330
1A
100
AcDbEntity
  8
ZUWAKU
100
AcDbText
 10
209.7240463258335
 20
9.6553564066743
 30
0.0
 40
4.0
  1
サイズ
 41
0.9
  7
MSｺ_ｼｯｸ
100
AcDbText
  0
TEXT
  5
F79
330
1A
100
AcDbEntity
  8
ZUWAKU
100
AcDbText
 10
209.7240463258333
 20
24.05535640667426
 30
0.0
 40
4.0
  1
品名
 41
0.9
  7
MSｺ_ｼｯｸ
100
AcDbText
  0
LINE
  5
F7A
330
1A
100
AcDbEntity
  8
ZUWAKU
100
AcDbLine
 10
648.8172025237602
 20
15.19999986828871
 30
0.0
 11
697.2490105620972
 21
15.19999986828871
 31
0.0
  0
LINE
  5
F7B
330
1A
100
AcDbEntity
  8
ZUWAKU
100
AcDbLine
 10
648.8172025237603
 20
15.39999986828872
 30
0.0
 11
697.2490105620972
 21
15.39999986828871
 31
0.0
  0
LINE
  5
F7C
330
1A
100
AcDbEntity
  8
ZUWAKU
100
AcDbLine
 10
648.8172025237602
 20
15.59999986828871
 30
0.0
 11
697.2490105620972
 21
15.59999986828871
 31
0.0
  0
TEXT
  5
F7D
330
1A
100
AcDbEntity
  8
ZUWAKU
100
AcDbText
 10
656.0374517031416
 20
18.66376316516152
 30
0.0
 40
5.599999999999998
  1
　　．  ．　　
 41
0.9
  7
MSｺ_ｼｯｸ
100
AcDbText
  0
LINE
  5
F7E
330
1A
100
AcDbEntity
  8
ZUWAKU
100
AcDbLine
 10
505.1991795116967
 20
15.19999986828872
 30
0.0
 11
552.5269557796685
 21
15.19999986828872
 31
0.0
  0
LINE
  5
F7F
330
1A
100
AcDbEntity
  8
ZUWAKU
100
AcDbLine
 10
505.1991795116967
 20
15.39999986828871
 30
0.0
 11
552.5269557796685
 21
15.39999986828871
 31
0.0
  0
LINE
  5
F80
330
1A
100
AcDbEntity
  8
ZUWAKU
100
AcDbLine
 10
505.1991795116967
 20
15.59999986828871
 30
0.0
 11
552.5269557796685
 21
15.59999986828871
 31
0.0
  0
LINE
  5
F82
330
1A
100
AcDbEntity
  8
ZUWAKU
100
AcDbLine
 10
447.6243639845471
 20
29.99999986828868
 30
0.0
 11
447.6243639845473
 21
0.7999998682887508
 31
0.0
  0
LINE
  5
F83
330
1A
100
AcDbEntity
  8
ZUWAKU
100
AcDbLine
 10
447.8243639845471
 20
29.99999986828868
 30
0.0
 11
447.8243639845475
 21
0.7999998682887508
 31
0.0
  0
LINE
  5
F84
330
1A
100
AcDbEntity
  8
ZUWAKU
100
AcDbLine
 10
447.4243639845473
 20
29.99999986828868
 30
0.0
 11
447.4243639845473
 21
0.7999998682887508
 31
0.0
  0
TEXT
  5
F85
330
1A
100
AcDbEntity
  8
MOJI
100
AcDbText
 10
528.0409079858689
 20
18.00492092569607
 30
0.0
 40
5.599999999999998
  1
Ａ３
 41
0.9
  7
MSｺ_ｼｯｸ
100
AcDbText
  0
LINE
  5
F86
330
1A
100
AcDbEntity
  8
ZUWAKU
100
AcDbLine
 10
504.9991795116969
 20
29.99999986828868
 30
0.0
 11
504.9991795116969
 21
0.7999998682887508
 31
0.0
  0
LINE
  5
F87
330
1A
100
AcDbEntity
  8
ZUWAKU
100
AcDbLine
 10
505.1991795116967
 20
29.99999986828868
 30
0.0
 11
505.1991795116971
 21
0.7999998682887508
 31
0.0
  0
LINE
  5
F88
330
1A
100
AcDbEntity
  8
ZUWAKU
100
AcDbLine
 10
504.799179511697
 20
29.99999986828868
 30
0.0
 11
504.799179511697
 21
0.7999998682887508
 31
0.0
  0
TEXT
  5
F89
330
1A
100
AcDbEntity
  8
ZUWAKU
100
AcDbText
 10
464.0120022211934
 20
2.614070779428174
 30
0.0
 40
3.0
  1
□には色品番が入ります
 41
0.9
  7
MSｺ_ｼｯｸ
100
AcDbText
  0
TEXT
  5
F8A
330
1A
100
AcDbEntity
  8
ZUWAKU
100
AcDbText
 10
506.6766245339066
 20
9.6553564066743
 30
0.0
 40
4.0
  1
縮尺
 41
0.9
  7
MSｺ_ｼｯｸ
100
AcDbText
  0
TEXT
  5
F8B
330
1A
100
AcDbEntity
  8
MOJI
100
AcDbText
 10
528.0409079858689
 20
3.204920925696103
 30
0.0
 40
5.599999999999998
  1
１/２
 41
0.9
  7
MSｺ_ｼｯｸ
100
AcDbText
  0
TEXT
  5
F8C
330
1A
100
AcDbEntity
  8
ZUWAKU
100
AcDbText
 10
449.3018090067569
 20
24.05535640667426
 30
0.0
 40
4.0
  1
品番
 41
0.9
  7
MSｺ_ｼｯｸ
100
AcDbText
  0
TEXT
  5
F8D
330
1A
100
AcDbEntity
  8
ZUWAKU
100
AcDbText
 10
506.6766245339064
 20
24.05535640667426
 30
0.0
 40
4.0
  1
用紙
 41
0.9
  7
MSｺ_ｼｯｸ
100
AcDbText
  0
LINE
  5
F8E
330
1A
100
AcDbEntity
  8
ZUWAKU
100
AcDbLine
 10
648.6172025237602
 20
29.99999986828868
 30
0.0
 11
648.6172025237606
 21
0.7999998682887508
 31
0.0
  0
LINE
  5
F8F
330
1A
100
AcDbEntity
  8
ZUWAKU
100
AcDbLine
 10
648.8172025237603
 20
29.99999986828868
 30
0.0
 11
648.8172025237608
 21
0.7999998682887508
 31
0.0
  0
LINE
  5
F90
330
1A
100
AcDbEntity
  8
ZUWAKU
100
AcDbLine
 10
648.4172025237605
 20
29.99999986828868
 30
0.0
 11
648.4172025237605
 21
0.7999998682887508
 31
0.0
  0
LINE
  5
F91
330
1A
100
AcDbEntity
  8
ZUWAKU
100
AcDbLine
 10
552.7269557796683
 20
29.99999986828868
 30
0.0
 11
552.7269557796683
 21
0.7999998682887508
 31
0.0
  0
LINE
  5
F92
330
1A
100
AcDbEntity
  8
ZUWAKU
100
AcDbLine
 10
552.9269557796683
 20
29.99999986828868
 30
0.0
 11
552.9269557796684
 21
0.7999998682887508
 31
0.0
  0
LINE
  5
F93
330
1A
100
AcDbEntity
  8
ZUWAKU
100
AcDbLine
 10
552.5269557796685
 20
29.99999986828868
 30
0.0
 11
552.5269557796685
 21
0.7999998682887508
 31
0.0
  0
TEXT
  5
F94
330
1A
100
AcDbEntity
  8
ZUWAKU
100
AcDbText
 10
650.2946475459699
 20
24.05535640667426
 30
0.0
 40
4.0
  1
DATE
 41
0.9
  7
MSｺ_ｼｯｸ
100
AcDbText
  0
LINE
  5
F95
330
1A
100
AcDbEntity
  8
ZUWAKU
100
AcDbLine
 10
697.2490105620972
 20
29.99999986828868
 30
0.0
 11
697.2490105620972
 21
0.7999998682887508
 31
0.0
  0
LINE
  5
F96
330
1A
100
AcDbEntity
  8
ZUWAKU
100
AcDbLine
 10
697.4490105620973
 20
29.99999986828868
 30
0.0
 11
697.4490105620973
 21
0.7999998682887508
 31
0.0
  0
LINE
  5
F97
330
1A
100
AcDbEntity
  8
ZUWAKU
100
AcDbLine
 10
697.6490105620971
 20
29.99999986828868
 30
0.0
 11
697.6490105620974
 21
0.7999998682887508
 31
0.0
  0
LINE
  5
F98
330
1A
100
AcDbEntity
  8
ZUWAKU
100
AcDbLine
 10
697.8490105620973
 20
29.99999986828868
 30
0.0
 11
697.8490105620973
 21
0.7999998682887508
 31
0.0
  0
TEXT
  5
F99
330
1A
100
AcDbEntity
  8
ZUWAKU
100
AcDbText
 10
707.171556986235
 20
12.98998991067378
 30
0.0
 40
6.0
  1
積水化学工業株式会社
 41
0.9
  7
MSｺ_ｼｯｸ
100
AcDbText
  0
TEXT
  5
25AA
330
1A
100
AcDbEntity
  8
MOJI
100
AcDbText
 10
231.8536550567537
 20
19.45911593505025
 30
0.0
 40
5.599999999999998
  1
飾りマス丸型
 41
0.9
  7
MSｺ_ｼｯｸ
100
AcDbText
  0
TEXT
  5
2714
330
1A
100
AcDbEntity
  8
MOJI
100
AcDbText
 10
462.1907471063191
 20
11.95770703897881
 30
0.0
 40
5.599999999999998
  1
ＧＦ１６□
 41
0.9
  7
MSｺ_ｼｯｸ
100
AcDbText
  0
TEXT
  5
2971
330
1A
100
AcDbEntity
  8
MOJI
100
AcDbText
 10
231.8536550567537
 20
5.305115438166922
 30
0.0
 40
5.599999999999998
  1
Ｋ－６０
 41
0.9
  7
MSｺ_ｼｯｸ
100
AcDbText
  0
DIMENSION
  5
391D
330
1A
100
AcDbEntity
  8
SUNPOU
100
AcDbDimension
  2
*D6
 10
420.5063711955779
 20
102.7303722862833
 30
0.0
 11
415.5063711955779
 21
180.7303718625616
 31
0.0
 70
    32
 71
     5
 42
155.9999991525564
  3
STANDARD
100
AcDbAlignedDimension
 13
358.2566143700769
 23
258.7303714388398
 33
0.0
 14
316.756527220056
 24
102.7303722862834
 34
0.0
 50
90.0
100
AcDbRotatedDimension
1001
ACAD
1000
DSTYLE
1002
{
1070
    41
1040
7.0
1070
    42
1040
6.0
1070
    43
1040
14.0
1070
    44
1040
3.0
1070
    73
1070
     0
1070
    74
1070
     0
1070
    77
1070
     3
1070
   140
1040
6.0
1070
   141
1040
150.0
1070
   147
1040
2.0
1070
   172
1070
     1
1070
   173
1070
     1
1070
   176
1070
     4
1070
   177
1070
     4
1070
   178
1070
     4
1070
   271
1070
     0
1070
   272
1070
     2
1070
   341
1005
6D
1070
     6
1000
OPEN
1070
     7
1000
OPEN
1002
}
  0
DIMENSION
  5
391E
330
1A
100
AcDbEntity
  8
SUNPOU
100
AcDbDimension
  2
*D7
 10
403.3883977982102
 20
113.7303714388399
 30
0.0
 11
398.3883977982102
 21
186.2303714388399
 31
0.0
 70
    32
 71
     5
 42
144.9999999999999
  3
STANDARD
100
AcDbAlignedDimension
 13
358.2566143700769
 23
258.7303714388398
 33
0.0
 14
320.7567143700773
 24
113.7303714388399
 34
0.0
 50
90.0
100
AcDbRotatedDimension
1001
ACAD
1000
DSTYLE
1002
{
1070
    41
1040
7.0
1070
    42
1040
6.0
1070
    43
1040
14.0
1070
    44
1040
3.0
1070
    73
1070
     0
1070
    74
1070
     0
1070
    77
1070
     3
1070
   140
1040
6.0
1070
   141
1040
150.0
1070
   147
1040
2.0
1070
   172
1070
     1
1070
   173
1070
     1
1070
   176
1070
     4
1070
   177
1070
     4
1070
   178
1070
     4
1070
   271
1070
     0
1070
   272
1070
     2
1070
   341
1005
6D
1070
     6
1000
OPEN
1070
     7
1000
OPEN
1002
}
  0
DIMENSION
  5
391F
330
1A
100
AcDbEntity
  8
SUNPOU
100
AcDbDimension
  2
*D8
 10
364.6212189575124
 20
127.7303714388399
 30
0.0
 11
359.6212189575124
 21
151.1303714388399
 31
0.0
 70
    32
  1
\U+203B<>
 71
     5
 42
14.0
  3
STANDARD
100
AcDbAlignedDimension
 13
320.7567143700773
 23
113.7303714388399
 33
0.0
 14
324.6068143700771
 24
127.7303714388399
 34
0.0
 50
90.0
100
AcDbRotatedDimension
1001
ACAD
1000
DSTYLE
1002
{
1070
    41
1040
7.0
1070
    42
1040
6.0
1070
    43
1040
14.0
1070
    44
1040
3.0
1070
    73
1070
     0
1070
    74
1070
     0
1070
    77
1070
     3
1070
   140
1040
6.0
1070
   141
1040
150.0
1070
   147
1040
2.0
1070
   172
1070
     1
1070
   173
1070
     1
1070
   176
1070
     4
1070
   177
1070
     4
1070
   178
1070
     4
1070
   271
1070
     0
1070
   272
1070
     2
1070
   341
1005
6D
1070
     6
1000
OPEN
1070
     7
1000
OPEN
1002
}
  0
DIMENSION
  5
3920
330
1A
100
AcDbEntity
  8
SUNPOU
100
AcDbDimension
  2
*D9
 10
217.2559143700772
 20
279.2261374967047
 30
0.0
 11
287.756264370077
 21
284.2261374967047
 31
0.0
 70
    32
  1
φ<>
 71
     5
 42
141.0006999999998
  3
STANDARD
100
AcDbAlignedDimension
 13
358.2566143700769
 23
258.7303714388398
 33
0.0
 14
217.2559143700772
 24
258.7303714388398
 34
0.0
100
AcDbRotatedDimension
1001
ACAD
1000
DSTYLE
1002
{
1070
   140
1040
6.0
1070
    74
1070
     0
1070
   172
1070
     1
1070
    73
1070
     0
1070
   272
1070
     2
1070
    77
1070
     3
1070
   173
1070
     1
1070
   147
1040
2.0
1070
    42
1040
6.0
1070
    44
1040
3.0
1070
    43
1040
14.0
1070
   271
1070
     0
1070
   178
1070
     4
1070
   177
1070
     4
1070
   176
1070
     4
1070
   141
1040
150.0
1070
     7
1000
_OPEN
1070
     6
1000
_OPEN
1070
    41
1040
7.0
1002
}
  0
DIMENSION
  5
3921
330
1A
100
AcDbEntity
  8
SUNPOU
100
AcDbDimension
  2
*D10
 10
393.8910151651806
 20
419.6053444055245
 30
0.0
 11
388.8910151651805
 21
445.1053444055246
 31
0.0
 70
    32
 71
     5
 42
51.0
  3
STANDARD
100
AcDbAlignedDimension
 13
296.4716143700774
 23
470.6053444055245
 33
0.0
 14
366.6167143700772
 24
419.6053444055245
 34
0.0
 50
90.0
100
AcDbRotatedDimension
1001
ACAD
1000
DSTYLE
1002
{
1070
   140
1040
6.0
1070
    74
1070
     0
1070
   172
1070
     1
1070
    73
1070
     0
1070
   272
1070
     2
1070
    77
1070
     3
1070
   173
1070
     1
1070
   147
1040
2.0
1070
    42
1040
6.0
1070
    44
1040
3.0
1070
    43
1040
14.0
1070
   271
1070
     0
1070
   178
1070
     4
1070
   177
1070
     4
1070
   176
1070
     4
1070
   141
1040
150.0
1070
     7
1000
_OPEN
1070
     6
1000
_OPEN
1070
    41
1040
7.0
1002
}
  0
DIMENSION
  5
3922
330
1A
100
AcDbEntity
  8
SUNPOU
100
AcDbDimension
  2
*D11
 10
236.7563143700773
 20
329.0826199224666
 30
0.0
 11
287.7563143700772
 21
334.0826199224666
 31
0.0
 70
    32
 71
     5
 42
101.9999999999999
  3
STANDARD
100
AcDbAlignedDimension
 13
338.7563143700772
 23
392.9186444055246
 33
0.0
 14
236.7563143700773
 24
392.9186444055246
 34
0.0
100
AcDbRotatedDimension
1001
ACAD
1000
DSTYLE
1002
{
1070
   140
1040
6.0
1070
    74
1070
     0
1070
   172
1070
     1
1070
    73
1070
     0
1070
   272
1070
     2
1070
    77
1070
     3
1070
   173
1070
     1
1070
   147
1040
2.0
1070
    42
1040
6.0
1070
    44
1040
3.0
1070
    43
1040
14.0
1070
   271
1070
     0
1070
   178
1070
     4
1070
   177
1070
     4
1070
   176
1070
     4
1070
   141
1040
150.0
1070
     7
1000
_OPEN
1070
     6
1000
_OPEN
1070
    41
1040
7.0
1002
}
  0
CIRCLE
  5
3923
330
1A
100
AcDbEntity
  8
SEIHIN
100
AcDbCircle
 10
338.7563143700772
 20
401.6053444055245
 30
0.0
 40
5.0
  0
LINE
  5
3924
330
1A
100
AcDbEntity
  8
CENTER_L
 48
5.0
100
AcDbLine
 10
224.7563143701814
 20
401.6052944055245
 30
0.0
 11
350.7563143699729
 21
401.6052944055245
 31
0.0
  0
LINE
  5
392B
330
1A
100
AcDbEntity
  8
CENTER_L
 48
5.0
100
AcDbLine
 10
209.2554143700774
 20
419.6053444055245
 30
0.0
 11
366.6167143700772
 21
419.6053444055245
 31
0.0
  0
ARC
  5
392D
330
1A
100
AcDbEntity
  8
SEIHIN
 48
5.0
100
AcDbCircle
 10
287.7563143475826
 20
419.6052444055245
 30
0.0
 40
70.50000002256561
100
AcDbArc
 50
0.0000812706092152
 51
359.9999187293907
  0
ARC
  5
392E
330
1A
100
AcDbEntity
  8
SEIHIN
 48
5.0
100
AcDbCircle
 10
287.7563143661713
 20
419.6052444055245
 30
0.0
 40
68.50000000397891
100
AcDbArc
 50
0.000083643473587
 51
359.9999163565263
  0
DIMENSION
  5
3938
330
1A
100
AcDbEntity
  8
SUNPOU
100
AcDbDimension
  2
*D2
 10
324.6068143700771
 20
84.99897914058873
 30
0.0
 11
287.7565143700771
 21
89.99897914058873
 31
0.0
 70
    32
  1
φ<>
 71
     5
 42
73.70059999999989
  3
STANDARD
100
AcDbAlignedDimension
 13
250.9062143700772
 23
118.7304714388399
 33
0.0
 14
324.6068143700771
 24
118.7303714388399
 34
0.0
100
AcDbRotatedDimension
1001
ACAD
1000
DSTYLE
1002
{
1070
    41
1040
7.0
1070
    42
1040
6.0
1070
    43
1040
14.0
1070
    44
1040
3.0
1070
    73
1070
     0
1070
    74
1070
     0
1070
    77
1070
     3
1070
   140
1040
6.0
1070
   141
1040
150.0
1070
   147
1040
2.0
1070
   172
1070
     1
1070
   173
1070
     1
1070
   176
1070
     4
1070
   177
1070
     4
1070
   178
1070
     4
1070
   271
1070
     0
1070
   272
1070
     2
1070
   341
1005
6D
1070
     6
1000
OPEN
1070
     7
1000
OPEN
1002
}
  0
CIRCLE
  5
396E
330
1A
100
AcDbEntity
  8
SEIHIN
100
AcDbCircle
 10
287.7563143700772
 20
470.6053444055245
 30
0.0
 40
5.0
  0
CIRCLE
  5
396F
330
1A
100
AcDbEntity
  8
SEIHIN
100
AcDbCircle
 10
287.7563143700771
 20
470.6053444055245
 30
0.0
 40
1.499999999999943
  0
LINE
  5
3971
330
1A
100
AcDbEntity
  8
CENTER_L
 48
5.0
100
AcDbLine
 10
287.7563143700772
 20
340.8341444055246
 30
0.0
 11
287.7563143700772
 21
498.2958444055248
 31
0.0
  0
ARC
  5
3973
330
1A
100
AcDbEntity
  8
SEIHIN
 48
5.0
100
AcDbCircle
 10
287.7563144326257
 20
401.6052944055245
 30
0.0
 40
39.99999993748265
100
AcDbArc
 50
0.0000716197242106
 51
359.9999283802757
  0
ARC
  5
3974
330
1A
100
AcDbEntity
  8
SEIHIN
 48
5.0
100
AcDbCircle
 10
287.7563144170009
 20
401.6052944055245
 30
0.0
 40
29.99999995311806
100
AcDbArc
 50
0.0000954929660212
 51
359.9999045070338
  0
DIMENSION
  5
3981
330
1A
100
AcDbEntity
  8
SUNPOU
100
AcDbDimension
  2
*D3
 10
262.1002302910531
 20
386.0564891617322
 30
0.0
 11
294.9088577921672
 21
412.1134950931963
 31
0.0
 70
   163
 71
     5
 42
59.99999990623632
  3
STANDARD
100
AcDbDiametricDimension
 15
313.4123985429484
 25
417.154099649317
 35
0.0
 40
0.0
1001
ACAD
1000
DSTYLE
1002
{
1070
   287
1070
     5
1070
    41
1040
7.0
1070
    42
1040
6.0
1070
    43
1040
14.0
1070
   141
1040
150.0
1070
   147
1040
2.0
1070
   172
1070
     1
1070
   173
1070
     1
1070
   176
1070
     4
1070
   177
1070
     4
1070
   178
1070
     4
1070
   272
1070
     2
1070
   279
1070
     2
1070
   288
1070
     1
1070
     6
1000
OPEN
1070
     7
1000
OPEN
1002
}
  0
ARC
  5
3982
330
1A
100
AcDbEntity
  8
SEIHIN
 48
5.0
100
AcDbCircle
 10
287.756313042794
 20
419.6053444122291
 30
0.0
 40
24.94997960490145
100
AcDbArc
 50
183.5316128274973
 51
355.8895468809276
  0
ARC
  5
3983
330
1A
100
AcDbEntity
  8
SEIHIN
 48
5.0
100
AcDbCircle
 10
287.7562751038648
 20
419.6053447561947
 30
0.0
 40
30.50006045090366
100
AcDbArc
 50
198.2746982690865
 51
340.7020075243659
  0
ARC
  5
3984
330
1A
100
AcDbEntity
  8
SEIHIN
 48
5.0
100
AcDbCircle
 10
287.756255984334
 20
419.605344405681
 30
0.0
 40
38.24998170580453
100
AcDbArc
 50
219.7700116332668
 51
320.2297934804765
  0
CIRCLE
  5
3985
330
1A
100
AcDbEntity
  8
SEIHIN
100
AcDbCircle
 10
236.756314370077
 20
401.6053444055245
 30
0.0
 40
1.500000000000055
  0
CIRCLE
  5
3986
330
1A
100
AcDbEntity
  8
SEIHIN
100
AcDbCircle
 10
236.756314370077
 20
401.6053444055245
 30
0.0
 40
5.000000000000056
  0
LINE
  5
3987
330
1A
100
AcDbEntity
  8
CENTER_L
 48
5.0
100
AcDbLine
 10
236.7563143700773
 20
392.9186444055246
 30
0.0
 11
236.7563143700773
 21
411.5178444055247
 31
0.0
  0
LINE
  5
3994
330
1A
100
AcDbEntity
  8
CENTER_L
 48
5.0
100
AcDbLine
 10
274.8951143700772
 20
470.6053444055245
 30
0.0
 11
296.4716143700774
 21
470.6053444055245
 31
0.0
  0
TEXT
  5
3996
330
1A
100
AcDbEntity
  8
SUNPOU
100
AcDbText
 10
611.0858507662036
 20
45.03294024874242
 30
0.0
 40
8.0
  1
※　たてとい部品の差込み寸法を示す。
100
AcDbText
  0
DIMENSION
  5
399F
330
1A
100
AcDbEntity
  8
SUNPOU
100
AcDbDimension
  2
*D4
 10
387.9955500331711
 20
248.7303714388397
 30
0.0
 11
382.9955500331711
 21
229.2303714388397
 31
0.0
 70
    32
 71
     5
 42
10.00000000000011
  3
STANDARD
100
AcDbAlignedDimension
 13
358.2566143700769
 23
258.7303714388398
 33
0.0
 14
356.8052143700771
 24
248.7303714388397
 34
0.0
 50
90.0
100
AcDbRotatedDimension
1001
ACAD
1000
DSTYLE
1002
{
1070
   140
1040
6.0
1070
    74
1070
     0
1070
   172
1070
     1
1070
    73
1070
     0
1070
   272
1070
     2
1070
    77
1070
     3
1070
   173
1070
     1
1070
   147
1040
2.0
1070
    42
1040
6.0
1070
    44
1040
3.0
1070
    43
1040
14.0
1070
   271
1070
     0
1070
   178
1070
     4
1070
   177
1070
     4
1070
   176
1070
     4
1070
   141
1040
150.0
1070
     7
1000
_OPEN
1070
     6
1000
_OPEN
1070
    41
1040
7.0
1002
}
  0
LEADER
  5
39A7
330
1A
100
AcDbEntity
  8
SUNPOU
 62
     4
100
AcDbLeader
  3
STANDARD
 74
     0
 40
6.0
 41
18.2
 76
     3
 10
339.8673160508898
 20
400.5975372487568
 30
0.0
 10
358.7122555043095
 20
377.5343219452288
 30
0.0
 10
380.6060225137747
 20
377.5343219452288
 30
0.0
1001
ACAD
1000
DSTYLE
1002
{
1070
     6
1000
OPEN
1070
    41
1040
7.0
1070
    42
1040
6.0
1070
    43
1040
14.0
1070
    44
1040
3.0
1070
    73
1070
     0
1070
    74
1070
     0
1070
    77
1070
     3
1070
   140
1040
6.0
1070
   141
1040
150.0
1070
   147
1040
2.0
1070
   172
1070
     1
1070
   173
1070
     1
1070
   176
1070
     4
1070
   177
1070
     4
1070
   178
1070
     4
1070
   271
1070
     0
1070
   272
1070
     2
1070
   341
1005
6D
1070
   343
1005
6D
1070
   344
1005
6D
1002
}
1000
LEANOF
1010
0.0
1020
0.0
1030
0.0
  0
MTEXT
  5
39AA
330
1A
100
AcDbEntity
  8
SUNPOU
 62
     4
100
AcDbMText
 10
361.5970683455133
 20
379.5343219452288
 30
0.0
 40
6.0
 41
0.0
 71
     7
 72
     5
  1
φ3.0
 73
     1
 44
1.0
1001
ACAD
1000
MTEXTBEGIN
1070
    73
1070
     1
1070
    44
1040
1.0
1070
    74
1070
     0
1000
MTEXTEND
  0
DIMENSION
  5
39AB
330
1A
100
AcDbEntity
  8
SUNPOU
100
AcDbDimension
  2
*D5
 10
393.8910151651806
 20
401.6052944055245
 30
0.0
 11
388.8910151651805
 21
410.6053194055246
 31
0.0
 70
    32
 71
     5
 42
18.00004999999998
  3
STANDARD
100
AcDbAlignedDimension
 13
366.6167143700772
 23
419.6053444055245
 33
0.0
 14
350.7563143699729
 24
401.6052944055245
 34
0.0
 50
90.0
100
AcDbRotatedDimension
1001
ACAD
1000
DSTYLE
1002
{
1070
   140
1040
6.0
1070
    74
1070
     0
1070
   172
1070
     1
1070
    73
1070
     0
1070
   272
1070
     2
1070
    77
1070
     3
1070
   173
1070
     1
1070
   147
1040
2.0
1070
    42
1040
6.0
1070
    44
1040
3.0
1070
    43
1040
14.0
1070
   271
1070
     0
1070
   178
1070
     4
1070
   177
1070
     4
1070
   176
1070
     4
1070
   141
1040
150.0
1070
     7
1000
_OPEN
1070
     6
1000
_OPEN
1070
    41
1040
7.0
1002
}
  0
CIRCLE
  5
39AC
330
1A
100
AcDbEntity
  8
SEIHIN
100
AcDbCircle
 10
338.756314370077
 20
401.6053444055245
 30
0.0
 40
1.500000000000055
  0
LINE
  5
39AD
330
1A
100
AcDbEntity
  8
CENTER_L
 48
5.0
100
AcDbLine
 10
338.7563143700772
 20
392.9186444055246
 30
0.0
 11
338.7563143700772
 21
411.5178444055247
 31
0.0
  0
LINE
  5
3CE0
330
1A
100
AcDbEntity
  8
CENTER_L
 48
5.0
100
AcDbLine
 10
668.9466632814701
 20
392.9186444055246
 30
0.0
 11
668.9466632814701
 21
411.5178444055247
 31
0.0
  0
CIRCLE
  5
3CE1
330
1A
100
AcDbEntity
  8
SEIHIN
100
AcDbCircle
 10
668.9466632814699
 20
401.6053444055245
 30
0.0
 40
1.500000000000055
  0
DIMENSION
  5
3CE2
330
1A
100
AcDbEntity
  8
SUNPOU
100
AcDbDimension
  2
*D15
 10
724.0813640765734
 20
401.6052944055245
 30
0.0
 11
719.0813640765733
 21
410.6053194055247
 31
0.0
 70
    32
 71
     5
 42
18.00004999999998
  3
STANDARD
100
AcDbAlignedDimension
 13
696.8070632814701
 23
419.6053444055245
 33
0.0
 14
680.9466632813657
 24
401.6052944055245
 34
0.0
 50
90.0
100
AcDbRotatedDimension
1001
ACAD
1000
DSTYLE
1002
{
1070
   140
1040
6.0
1070
    74
1070
     0
1070
   172
1070
     1
1070
    73
1070
     0
1070
   272
1070
     2
1070
    77
1070
     3
1070
   173
1070
     1
1070
   147
1040
2.0
1070
    42
1040
6.0
1070
    44
1040
3.0
1070
    43
1040
14.0
1070
   271
1070
     0
1070
   178
1070
     4
1070
   177
1070
     4
1070
   176
1070
     4
1070
   141
1040
150.0
1070
     7
1000
_OPEN
1070
     6
1000
_OPEN
1070
    41
1040
7.0
1002
}
  0
MTEXT
  5
3CE3
330
1A
100
AcDbEntity
  8
SUNPOU
 62
     4
100
AcDbMText
 10
691.7874172569061
 20
379.5343219452288
 30
0.0
 40
6.0
 41
0.0
 71
     7
 72
     5
  1
φ3.0
 73
     1
 44
1.0
1001
ACAD
1000
MTEXTBEGIN
1070
    73
1070
     1
1070
    44
1040
1.0
1070
    74
1070
     0
1000
MTEXTEND
  0
LEADER
  5
3CE6
330
1A
100
AcDbEntity
  8
SUNPOU
 62
     4
100
AcDbLeader
  3
STANDARD
 74
     0
 40
6.0
 41
18.2
 76
     3
 10
670.0576649622826
 20
400.5975372487568
 30
0.0
 10
688.9026044157024
 20
377.5343219452288
 30
0.0
 10
710.7963714251675
 20
377.5343219452288
 30
0.0
1001
ACAD
1000
DSTYLE
1002
{
1070
     6
1000
OPEN
1070
    41
1040
7.0
1070
    42
1040
6.0
1070
    43
1040
14.0
1070
    44
1040
3.0
1070
    73
1070
     0
1070
    74
1070
     0
1070
    77
1070
     3
1070
   140
1040
6.0
1070
   141
1040
150.0
1070
   147
1040
2.0
1070
   172
1070
     1
1070
   173
1070
     1
1070
   176
1070
     4
1070
   177
1070
     4
1070
   178
1070
     4
1070
   271
1070
     0
1070
   272
1070
     2
1070
   341
1005
6D
1070
   343
1005
6D
1070
   344
1005
6D
1002
}
1000
LEANOF
1010
0.0
1020
0.0
1030
0.0
  0
LINE
  5
3CE7
330
1A
100
AcDbEntity
  8
CENTER_L
 48
5.0
100
AcDbLine
 10
605.0854632814701
 20
470.6053444055245
 30
0.0
 11
626.6619632814702
 21
470.6053444055245
 31
0.0
  0
ARC
  5
3CF3
330
1A
100
AcDbEntity
  8
SEIHIN
 48
5.0
100
AcDbCircle
 10
617.9467614329344
 20
419.6054101165684
 30
0.0
 40
65.99994817545158
100
AcDbArc
 50
109.860676897209
 51
137.7430411209839
  0
LINE
  5
3CF4
330
1A
100
AcDbEntity
  8
CENTER_L
 48
5.0
100
AcDbLine
 10
566.9466632814701
 20
392.9186444055246
 30
0.0
 11
566.9466632814701
 21
411.5178444055247
 31
0.0
  0
CIRCLE
  5
3CF5
330
1A
100
AcDbEntity
  8
SEIHIN
100
AcDbCircle
 10
566.9466632814699
 20
401.6053444055245
 30
0.0
 40
5.000000000000056
  0
CIRCLE
  5
3CF6
330
1A
100
AcDbEntity
  8
SEIHIN
100
AcDbCircle
 10
566.9466632814699
 20
401.6053444055245
 30
0.0
 40
1.500000000000055
  0
DIMENSION
  5
3CFA
330
1A
100
AcDbEntity
  8
SUNPOU
100
AcDbDimension
  2
*D14
 10
592.290579202446
 20
386.0564891617321
 30
0.0
 11
625.0992067035601
 21
412.1134950931963
 31
0.0
 70
   163
 71
     5
 42
59.99999990623632
  3
STANDARD
100
AcDbDiametricDimension
 15
643.6027474543412
 25
417.1540996493169
 35
0.0
 40
0.0
1001
ACAD
1000
DSTYLE
1002
{
1070
   287
1070
     5
1070
    41
1040
7.0
1070
    42
1040
6.0
1070
    43
1040
14.0
1070
   141
1040
150.0
1070
   147
1040
2.0
1070
   172
1070
     1
1070
   173
1070
     1
1070
   176
1070
     4
1070
   177
1070
     4
1070
   178
1070
     4
1070
   272
1070
     2
1070
   279
1070
     2
1070
   288
1070
     1
1070
     6
1000
OPEN
1070
     7
1000
OPEN
1002
}
  0
LINE
  5
3CFB
330
1A
100
AcDbEntity
  8
SEIHIN
 48
5.0
100
AcDbLine
 10
631.9349551298435
 20
355.1046644462812
 30
0.0
 11
628.9466632814701
 21
352.5009481262941
 31
0.0
  0
ARC
  5
3CFF
330
1A
100
AcDbEntity
  8
SEIHIN
 48
5.0
100
AcDbCircle
 10
617.9460091025648
 20
419.6053070983455
 30
0.0
 40
66.00003279939757
100
AcDbArc
 50
269.9901805424403
 51
278.715312191648
  0
ARC
  5
3D07
330
1A
100
AcDbEntity
  8
SEIHIN
 48
5.0
100
AcDbCircle
 10
617.9466633283936
 20
401.6052944055245
 30
0.0
 40
29.99999995311806
100
AcDbArc
 50
0.0000954929660212
 51
359.9999045070338
  0
ARC
  5
3D08
330
1A
100
AcDbEntity
  8
SEIHIN
 48
5.0
100
AcDbCircle
 10
617.9466633440186
 20
401.6052944055245
 30
0.0
 40
39.99999993748265
100
AcDbArc
 50
0.0000716197242106
 51
359.9999283802757
  0
ARC
  5
3D09
330
1A
100
AcDbEntity
  8
SEIHIN
 48
5.0
100
AcDbCircle
 10
617.9466859801878
 20
419.605305073778
 30
0.0
 40
65.99999804935453
100
AcDbArc
 50
162.2363846156073
 51
257.7428534916919
  0
LINE
  5
3D0A
330
1A
100
AcDbEntity
  8
CENTER_L
 48
5.0
100
AcDbLine
 10
617.9466632814701
 20
351.0400039334042
 30
0.0
 11
617.9466632814701
 21
489.7341765362538
 31
0.0
  0
CIRCLE
  5
3D0C
330
1A
100
AcDbEntity
  8
SEIHIN
100
AcDbCircle
 10
617.9466632814698
 20
470.6053444055245
 30
0.0
 40
1.499999999999943
  0
CIRCLE
  5
3D0D
330
1A
100
AcDbEntity
  8
SEIHIN
100
AcDbCircle
 10
617.9466632814701
 20
470.6053444055245
 30
0.0
 40
5.0
  0
ARC
  5
3D0E
330
1A
100
AcDbEntity
  8
SEIHIN
 48
5.0
100
AcDbCircle
 10
617.9466314949804
 20
419.6052893729121
 30
0.0
 40
66.00002889423314
100
AcDbArc
 50
282.236311986569
 51
17.74284396863778
  0
ARC
  5
3D0F
330
1A
100
AcDbEntity
  8
SEIHIN
 48
5.0
100
AcDbCircle
 10
617.9466123379654
 20
419.6053570614331
 30
0.0
 40
65.99994742248707
100
AcDbArc
 50
42.23625613349957
 51
109.8605395160022
  0
ARC
  5
3D12
330
1A
100
AcDbEntity
  8
SEIHIN
 48
5.0
100
AcDbCircle
 10
617.9467132501574
 20
419.6052577849114
 30
0.0
 40
64.00000001821588
100
AcDbArc
 50
29.98976721462783
 51
29.98958816531691
  0
LINE
  5
3D13
330
1A
100
AcDbEntity
  8
CENTER_L
 48
5.0
100
AcDbLine
 10
547.1413557348105
 20
419.6053444055245
 30
0.0
 11
689.3298304487366
 21
419.6053444055246
 31
0.0
  0
LINE
  5
3D14
330
1A
100
AcDbEntity
  8
CENTER_L
 48
5.0
100
AcDbLine
 10
554.9466632815742
 20
401.6052944055245
 30
0.0
 11
680.9466632813657
 21
401.6052944055245
 31
0.0
  0
CIRCLE
  5
3D15
330
1A
100
AcDbEntity
  8
SEIHIN
100
AcDbCircle
 10
668.9466632814701
 20
401.6053444055245
 30
0.0
 40
5.0
  0
DIMENSION
  5
3D16
330
1A
100
AcDbEntity
  8
SUNPOU
100
AcDbDimension
  2
*D13
 10
566.9466632814701
 20
331.8617949857262
 30
0.0
 11
617.9466632814701
 21
336.8617949857262
 31
0.0
 70
    32
 71
     5
 42
102.0
  3
STANDARD
100
AcDbAlignedDimension
 13
668.9466632814701
 23
392.9186444055246
 33
0.0
 14
566.9466632814701
 24
392.9186444055246
 34
0.0
100
AcDbRotatedDimension
1001
ACAD
1000
DSTYLE
1002
{
1070
   140
1040
6.0
1070
    74
1070
     0
1070
   172
1070
     1
1070
    73
1070
     0
1070
   272
1070
     2
1070
    77
1070
     3
1070
   173
1070
     1
1070
   147
1040
2.0
1070
    42
1040
6.0
1070
    44
1040
3.0
1070
    43
1040
14.0
1070
   271
1070
     0
1070
   178
1070
     4
1070
   177
1070
     4
1070
   176
1070
     4
1070
   141
1040
150.0
1070
     7
1000
_OPEN
1070
     6
1000
_OPEN
1070
    41
1040
7.0
1002
}
  0
DIMENSION
  5
3D17
330
1A
100
AcDbEntity
  8
SUNPOU
100
AcDbDimension
  2
*D12
 10
724.0813640765734
 20
419.6053444055245
 30
0.0
 11
719.0813640765733
 21
445.1053444055246
 31
0.0
 70
    32
 71
     5
 42
50.99999999999994
  3
STANDARD
100
AcDbAlignedDimension
 13
626.6619632814702
 23
470.6053444055245
 33
0.0
 14
696.8070632814701
 24
419.6053444055245
 34
0.0
 50
90.0
100
AcDbRotatedDimension
1001
ACAD
1000
DSTYLE
1002
{
1070
   140
1040
6.0
1070
    74
1070
     0
1070
   172
1070
     1
1070
    73
1070
     0
1070
   272
1070
     2
1070
    77
1070
     3
1070
   173
1070
     1
1070
   147
1040
2.0
1070
    42
1040
6.0
1070
    44
1040
3.0
1070
    43
1040
14.0
1070
   271
1070
     0
1070
   178
1070
     4
1070
   177
1070
     4
1070
   176
1070
     4
1070
   141
1040
150.0
1070
     7
1000
_OPEN
1070
     6
1000
_OPEN
1070
    41
1040
7.0
1002
}
  0
ARC
  5
3D68
330
1A
100
AcDbEntity
  8
SEIHIN
100
AcDbCircle
 10
617.9466632814701
 20
419.6053444055245
 30
0.0
 40
68.0
100
AcDbArc
 50
278.4565193352705
 51
21.54348066472956
  0
LINE
  5
3D69
330
1A
100
AcDbEntity
  8
SEIHIN
100
AcDbLine
 10
549.9466632814703
 20
288.7537585560177
 30
0.0
 11
549.9466632814702
 21
287.7537585560175
 31
0.0
  0
LINE
  5
3D6B
330
1A
100
AcDbEntity
  8
SEIHIN
100
AcDbLine
 10
551.9466632814704
 20
292.7537585560177
 30
0.0
 11
617.9466632814701
 21
292.7537585560176
 31
0.0
  0
LINE
  5
3D6C
330
1A
100
AcDbEntity
  8
CENTER_L
 48
5.0
100
AcDbLine
 10
617.9466632814701
 20
296.7203146795463
 30
0.0
 11
617.9466632814701
 21
265.0232972732747
 31
0.0
  0
LINE
  5
3D71
330
1A
100
AcDbEntity
  8
SEIHIN
100
AcDbLine
 10
552.9466632814703
 20
284.7537585560177
 30
0.0
 11
617.9466632814701
 21
284.7537585560176
 31
0.0
  0
LINE
  5
3D72
330
1A
100
AcDbEntity
  8
SEIHIN
100
AcDbLine
 10
551.9466632814704
 20
292.7537585560177
 30
0.0
 11
551.9466632814701
 21
288.7537585560177
 31
0.0
  0
LINE
  5
3D74
330
1A
100
AcDbEntity
  8
SEIHIN
100
AcDbLine
 10
549.9466632814702
 20
287.7537585560175
 30
0.0
 11
552.9466632814703
 21
284.7537585560177
 31
0.0
  0
LINE
  5
3D75
330
1A
100
AcDbEntity
  8
SEIHIN
100
AcDbLine
 10
586.9466632814699
 20
267.7537585560176
 30
0.0
 11
617.9466632814701
 21
267.7537585560176
 31
0.0
  0
LINE
  5
3D79
330
1A
100
AcDbEntity
  8
SEIHIN
100
AcDbLine
 10
579.2193905541974
 20
284.7537585560176
 30
0.0
 11
586.9466632814699
 21
267.7537585560176
 31
0.0
  0
LINE
  5
3D7A
330
1A
100
AcDbEntity
  8
SEIHIN
100
AcDbLine
 10
656.6739360087431
 20
284.7537585560176
 30
0.0
 11
648.9466632814705
 21
267.7537585560176
 31
0.0
  0
LINE
  5
3D7B
330
1A
100
AcDbEntity
  8
SEIHIN
100
AcDbLine
 10
648.9466632814705
 20
267.7537585560176
 30
0.0
 11
617.9466632814703
 21
267.7537585560176
 31
0.0
  0
LINE
  5
3D7C
330
1A
100
AcDbEntity
  8
SEIHIN
100
AcDbLine
 10
685.9466632814701
 20
287.7537585560175
 30
0.0
 11
682.9466632814701
 21
284.7537585560177
 31
0.0
  0
LINE
  5
3D7D
330
1A
100
AcDbEntity
  8
SEIHIN
100
AcDbLine
 10
683.9466632814701
 20
292.7537585560177
 30
0.0
 11
683.9466632814703
 21
288.7537585560177
 31
0.0
  0
LINE
  5
3D7E
330
1A
100
AcDbEntity
  8
SEIHIN
100
AcDbLine
 10
682.9466632814701
 20
284.7537585560177
 30
0.0
 11
617.9466632814703
 21
284.7537585560176
 31
0.0
  0
LINE
  5
3D7F
330
1A
100
AcDbEntity
  8
SEIHIN
100
AcDbLine
 10
685.9466632814701
 20
287.7537585560176
 30
0.0
 11
627.9466632814701
 21
287.7537585560176
 31
0.0
  0
LINE
  5
3D80
330
1A
100
AcDbEntity
  8
SEIHIN
100
AcDbLine
 10
685.9466632814701
 20
288.7537585560177
 30
0.0
 11
628.9466632814701
 21
288.7537585560176
 31
0.0
  0
LINE
  5
3D81
330
1A
100
AcDbEntity
  8
SEIHIN
100
AcDbLine
 10
683.9466632814701
 20
292.7537585560177
 30
0.0
 11
617.9466632814703
 21
292.7537585560176
 31
0.0
  0
LINE
  5
3D82
330
1A
100
AcDbEntity
  8
SEIHIN
100
AcDbLine
 10
685.9466632814701
 20
288.7537585560177
 30
0.0
 11
685.9466632814701
 21
287.7537585560175
 31
0.0
  0
DIMENSION
  5
3D84
330
1A
100
AcDbEntity
  8
SUNPOU
100
AcDbDimension
  2
*D16
 10
648.9466632814705
 20
249.6018113226294
 30
0.0
 11
617.9466632814702
 21
255.6018113226294
 31
0.0
 70
    32
  1
φ<>
 71
     5
 42
62.00000000000068
  3
STANDARD
100
AcDbAlignedDimension
 13
586.9466632814699
 23
267.7537585560176
 33
0.0
 14
648.9466632814705
 24
267.7537585560176
 34
0.0
100
AcDbRotatedDimension
  0
DIMENSION
  5
3D91
330
1A
100
AcDbEntity
  8
SUNPOU
100
AcDbDimension
  2
*D17
 10
685.9466632814701
 20
234.3516579194163
 30
0.0
 11
617.9466632814701
 21
240.3516579194163
 31
0.0
 70
    32
  1
φ<>
 71
     5
 42
136.0000000000001
  3
STANDARD
100
AcDbAlignedDimension
 13
549.94666328147
 23
287.7537585560176
 33
0.0
 14
685.9466632814701
 24
287.7537585560175
 34
0.0
100
AcDbRotatedDimension
  0
DIMENSION
  5
3D9E
330
1A
100
AcDbEntity
  8
SUNPOU
100
AcDbDimension
  2
*D18
 10
717.7878299776785
 20
267.7537585560176
 30
0.0
 11
711.7878299776783
 21
280.2537585560178
 31
0.0
 70
    32
 71
     5
 42
25.00000000000006
  3
STANDARD
100
AcDbAlignedDimension
 13
683.9466632814701
 23
292.7537585560177
 33
0.0
 14
648.9466632814705
 24
267.7537585560176
 34
0.0
 50
90.0
100
AcDbRotatedDimension
  0
DIMENSION
  5
3DAB
330
1A
100
AcDbEntity
  8
SUNPOU
100
AcDbDimension
  2
*D19
 10
701.371016135265
 20
284.7537585560177
 30
0.0
 11
701.3710161352649
 21
305.7537585560178
 31
0.0
 70
   160
 71
     5
 42
8.0
  3
STANDARD
100
AcDbAlignedDimension
 13
683.9466632814701
 23
292.7537585560177
 33
0.0
 14
682.9466632814701
 24
284.7537585560177
 34
0.0
 50
90.0
100
AcDbRotatedDimension
  0
LINE
  5
3E16
330
1A
100
AcDbEntity
  8
SEIHIN
100
AcDbLine
 10
627.9466632814701
 20
292.7537585560176
 30
0.0
 11
627.9466632814701
 21
285.7537585560176
 31
0.0
  0
LINE
  5
3E17
330
1A
100
AcDbEntity
  8
SEIHIN
100
AcDbLine
 10
627.9466632814701
 20
285.7537585560176
 30
0.0
 11
617.9466632814703
 21
285.7537585560176
 31
0.0
  0
LINE
  5
3E18
330
1A
100
AcDbEntity
  8
SEIHIN
100
AcDbLine
 10
628.9466632814701
 20
292.7537585560176
 30
0.0
 11
628.9466632814701
 21
288.7537585560176
 31
0.0
  0
LINE
  5
3E19
330
1A
100
AcDbEntity
  8
SEIHIN
100
AcDbLine
 10
607.9466632814701
 20
285.7537585560176
 30
0.0
 11
617.9466632814698
 21
285.7537585560176
 31
0.0
  0
LINE
  5
3E1A
330
1A
100
AcDbEntity
  8
SEIHIN
100
AcDbLine
 10
606.9466632814701
 20
292.7537585560176
 30
0.0
 11
606.9466632814701
 21
288.7537585560176
 31
0.0
  0
LINE
  5
3E1B
330
1A
100
AcDbEntity
  8
SEIHIN
100
AcDbLine
 10
607.9466632814701
 20
292.7537585560176
 30
0.0
 11
607.9466632814701
 21
285.7537585560176
 31
0.0
  0
LINE
  5
3E1C
330
1A
100
AcDbEntity
  8
SEIHIN
100
AcDbLine
 10
549.9466632814701
 20
288.7537585560177
 30
0.0
 11
606.9466632814701
 21
288.7537585560176
 31
0.0
  0
LINE
  5
3E1D
330
1A
100
AcDbEntity
  8
SEIHIN
100
AcDbLine
 10
549.9466632814701
 20
287.7537585560176
 30
0.0
 11
607.9466632814701
 21
287.7537585560176
 31
0.0
  0
LINE
  5
3E1F
330
1A
100
AcDbEntity
  8
SEIHIN
 48
5.0
100
AcDbLine
 10
627.9466632814701
 20
352.3446575223236
 30
0.0
 11
627.9466632814701
 21
354.3673484736661
 31
0.0
  0
LINE
  5
3E21
330
1A
100
AcDbEntity
  8
SEIHIN
 48
5.0
100
AcDbLine
 10
607.9466632814701
 20
352.3446575223236
 30
0.0
 11
607.9466632814701
 21
354.3673484736661
 31
0.0
  0
ARC
  5
3E22
330
1A
100
AcDbEntity
  8
SEIHIN
 48
5.0
100
AcDbCircle
 10
617.9473174603754
 20
419.6053070983455
 30
0.0
 40
66.00003279939757
100
AcDbArc
 50
261.284687808352
 51
270.0098194575597
  0
LINE
  5
3E23
330
1A
100
AcDbEntity
  8
SEIHIN
 48
5.0
100
AcDbLine
 10
603.9583714330968
 20
355.1046644462812
 30
0.0
 11
606.9466632814701
 21
352.5009481262941
 31
0.0
  0
LINE
  5
3E25
330
1A
100
AcDbEntity
  8
SEIHIN
100
AcDbLine
 10
631.9349551298435
 20
292.7537585560176
 30
0.0
 11
631.9349551298437
 21
288.7537585560176
 31
0.0
  0
LINE
  5
3E26
330
1A
100
AcDbEntity
  8
SEIHIN
100
AcDbLine
 10
603.9583714330969
 20
292.7537585560172
 30
0.0
 11
603.9583714330969
 21
288.7537585560172
 31
0.0
  0
LINE
  5
3E2B
330
1A
100
AcDbEntity
  8
SEIHIN
 48
5.0
100
AcDbLine
 10
555.093289951209
 20
439.7414682889042
 30
0.0
 11
554.3325513980387
 21
443.6312631035109
 31
0.0
  0
ARC
  5
3E2C
330
1A
100
AcDbEntity
  8
SEIHIN
 48
5.0
100
AcDbCircle
 10
617.9469580619581
 20
419.6059295946646
 30
0.0
 40
66.00003279939757
100
AcDbArc
 50
149.9901805424402
 51
158.7153121916479
  0
LINE
  5
3E2D
330
1A
100
AcDbEntity
  8
SEIHIN
 48
5.0
100
AcDbLine
 10
554.6971997646275
 20
444.5754338092806
 30
0.0
 11
556.448901512495
 21
443.5640883336094
 31
0.0
  0
LINE
  5
3E2E
330
1A
100
AcDbEntity
  8
SEIHIN
 48
5.0
100
AcDbLine
 10
564.6971997646274
 20
461.8959418849693
 30
0.0
 11
566.4489015124949
 21
460.8845964092981
 31
0.0
  0
ARC
  5
3E2F
330
1A
100
AcDbEntity
  8
SEIHIN
 48
5.0
100
AcDbCircle
 10
617.9463038830529
 20
419.6047965235634
 30
0.0
 40
66.00003279939757
100
AcDbArc
 50
141.2846878083519
 51
150.0098194575596
  0
LINE
  5
3E30
330
1A
100
AcDbEntity
  8
SEIHIN
 48
5.0
100
AcDbLine
 10
569.0815817995824
 20
463.9699004813884
 30
0.0
 11
565.3325513980387
 21
462.6838219867686
 31
0.0
  0
LINE
  5
3E31
330
1A
100
AcDbEntity
  8
SEIHIN
 48
5.0
100
AcDbLine
 10
666.8117447633581
 20
463.9699004813884
 30
0.0
 11
670.5607751649018
 21
462.6838219867686
 31
0.0
  0
ARC
  5
3E32
330
1A
100
AcDbEntity
  8
SEIHIN
 48
5.0
100
AcDbCircle
 10
617.9470226798875
 20
419.6047965235634
 30
0.0
 40
66.00003279939757
100
AcDbArc
 50
29.99018054244038
 51
38.71531219164804
  0
LINE
  5
3E33
330
1A
100
AcDbEntity
  8
SEIHIN
 48
5.0
100
AcDbLine
 10
671.1961267983128
 20
461.8959418849693
 30
0.0
 11
669.4444250504455
 21
460.8845964092981
 31
0.0
  0
LINE
  5
3E34
330
1A
100
AcDbEntity
  8
SEIHIN
 48
5.0
100
AcDbLine
 10
681.1961267983129
 20
444.5754338092806
 30
0.0
 11
679.4444250504454
 21
443.5640883336094
 31
0.0
  0
ARC
  5
3E35
330
1A
100
AcDbEntity
  8
SEIHIN
 48
5.0
100
AcDbCircle
 10
617.9463685009823
 20
419.6059295946646
 30
0.0
 40
66.00003279939757
100
AcDbArc
 50
21.28468780835211
 51
30.00981945755979
  0
LINE
  5
3E36
330
1A
100
AcDbEntity
  8
SEIHIN
 48
5.0
100
AcDbLine
 10
680.8000366117314
 20
439.7414682889042
 30
0.0
 11
681.5607751649017
 21
443.6312631035109
 31
0.0
  0
ARC
  5
3E37
330
1A
100
AcDbEntity
  8
SEIHIN
100
AcDbCircle
 10
617.9466632814701
 20
419.6053444055245
 30
0.0
 40
68.0
100
AcDbArc
 50
38.45651933527057
 51
141.5434806647295
  0
ARC
  5
3E38
330
1A
100
AcDbEntity
  8
SEIHIN
100
AcDbCircle
 10
617.9466632814701
 20
419.6053444055245
 30
0.0
 40
68.0
100
AcDbArc
 50
158.4565193352705
 51
261.5434806647293
  0
TEXT
  5
3EE3
330
1A
100
AcDbEntity
  8
MOJI
100
AcDbText
 10
601.9446248230815
 20
215.4665618104955
 30
0.0
 40
5.599999999999998
  1
飾りマス丸型蓋
 41
0.9
  7
MSｺ_ｼｯｸ
100
AcDbText
  0
TEXT
  5
3EE4
330
1A
100
AcDbEntity
  8
MOJI
100
AcDbText
 10
265.3644506872734
 20
69.16823931912927
 30
0.0
 40
5.599999999999998
  1
飾りマス丸型本体
 41
0.9
  7
MSｺ_ｼｯｸ
100
AcDbText
  0
ARC
  5
3EFC
330
1A
100
AcDbEntity
  8
SEIHIN
100
AcDbCircle
 10
287.7563536362897
 20
419.6053447561947
 30
0.0
 40
68.0
100
AcDbArc
 50
158.4565193352705
 51
261.5434806647293
  0
ARC
  5
3EFD
330
1A
100
AcDbEntity
  8
SEIHIN
100
AcDbCircle
 10
287.7563536362897
 20
419.6053447561947
 30
0.0
 40
68.0
100
AcDbArc
 50
38.45651933527057
 51
141.5434806647295
  0
LINE
  5
3EFE
330
1A
100
AcDbEntity
  8
SEIHIN
 48
5.0
100
AcDbLine
 10
238.891272154402
 20
463.9699008320585
 30
0.0
 11
235.1422417528584
 21
462.6838223374387
 31
0.0
  0
ARC
  5
3EFF
330
1A
100
AcDbEntity
  8
SEIHIN
 48
5.0
100
AcDbCircle
 10
287.7559942378725
 20
419.6047968742335
 30
0.0
 40
66.00003279939757
100
AcDbArc
 50
141.2846878083519
 51
150.0098194575596
  0
LINE
  5
3F00
330
1A
100
AcDbEntity
  8
SEIHIN
 48
5.0
100
AcDbLine
 10
234.5068901194471
 20
461.8959422356395
 30
0.0
 11
236.2585918673147
 21
460.8845967599683
 31
0.0
  0
LINE
  5
3F01
330
1A
100
AcDbEntity
  8
SEIHIN
 48
5.0
100
AcDbLine
 10
224.5068901194471
 20
444.5754341599507
 30
0.0
 11
226.2585918673146
 21
443.5640886842795
 31
0.0
  0
ARC
  5
3F02
330
1A
100
AcDbEntity
  8
SEIHIN
 48
5.0
100
AcDbCircle
 10
287.7566484167778
 20
419.6059299453347
 30
0.0
 40
66.00003279939757
100
AcDbArc
 50
149.9901805424402
 51
158.7153121916479
  0
LINE
  5
3F03
330
1A
100
AcDbEntity
  8
SEIHIN
 48
5.0
100
AcDbLine
 10
224.9029803060287
 20
439.7414686395743
 30
0.0
 11
224.1422417528584
 21
443.6312634541811
 31
0.0
  0
ARC
  5
3F04
330
1A
100
AcDbEntity
  8
SEIHIN
 48
5.0
100
AcDbCircle
 10
287.7564036049771
 20
419.6052581355815
 30
0.0
 40
64.00000001821588
100
AcDbArc
 50
29.98976721462783
 51
29.98958816531691
  0
ARC
  5
3F05
330
1A
100
AcDbEntity
  8
SEIHIN
 48
5.0
100
AcDbCircle
 10
287.7563763350074
 20
419.6053054244481
 30
0.0
 40
65.99999804935453
100
AcDbArc
 50
162.2363846156073
 51
257.7428534916919
  0
ARC
  5
3F06
330
1A
100
AcDbEntity
  8
SEIHIN
 48
5.0
100
AcDbCircle
 10
287.756451787754
 20
419.6054104672384
 30
0.0
 40
65.99994817545158
100
AcDbArc
 50
109.860676897209
 51
137.7430411209839
  0
ARC
  5
3F07
330
1A
100
AcDbEntity
  8
SEIHIN
 48
5.0
100
AcDbCircle
 10
287.7563026927851
 20
419.6053574121033
 30
0.0
 40
65.99994742248707
100
AcDbArc
 50
42.23625613349957
 51
109.8605395160022
  0
LINE
  5
3F08
330
1A
100
AcDbEntity
  8
SEIHIN
 48
5.0
100
AcDbLine
 10
350.6097269665511
 20
439.7414686395743
 30
0.0
 11
351.3704655197214
 21
443.6312634541811
 31
0.0
  0
ARC
  5
3F09
330
1A
100
AcDbEntity
  8
SEIHIN
 48
5.0
100
AcDbCircle
 10
287.7560588558019
 20
419.6059299453347
 30
0.0
 40
66.00003279939757
100
AcDbArc
 50
21.28468780835211
 51
30.00981945755979
  0
LINE
  5
3F0A
330
1A
100
AcDbEntity
  8
SEIHIN
 48
5.0
100
AcDbLine
 10
351.0058171531325
 20
444.5754341599507
 30
0.0
 11
349.2541154052651
 21
443.5640886842795
 31
0.0
  0
LINE
  5
3F0B
330
1A
100
AcDbEntity
  8
SEIHIN
 48
5.0
100
AcDbLine
 10
341.0058171531325
 20
461.8959422356395
 30
0.0
 11
339.2541154052651
 21
460.8845967599683
 31
0.0
  0
ARC
  5
3F0C
330
1A
100
AcDbEntity
  8
SEIHIN
 48
5.0
100
AcDbCircle
 10
287.7567130347072
 20
419.6047968742335
 30
0.0
 40
66.00003279939757
100
AcDbArc
 50
29.99018054244038
 51
38.71531219164804
  0
LINE
  5
3F0D
330
1A
100
AcDbEntity
  8
SEIHIN
 48
5.0
100
AcDbLine
 10
336.6214351181777
 20
463.9699008320585
 30
0.0
 11
340.3704655197214
 21
462.6838223374387
 31
0.0
  0
ARC
  5
3F0E
330
1A
100
AcDbEntity
  8
SEIHIN
100
AcDbCircle
 10
287.7563536362897
 20
419.6053447561947
 30
0.0
 40
68.0
100
AcDbArc
 50
278.4565193352705
 51
21.54348066472956
  0
ARC
  5
3F0F
330
1A
100
AcDbEntity
  8
SEIHIN
 48
5.0
100
AcDbCircle
 10
287.7563218498001
 20
419.6052897235823
 30
0.0
 40
66.00002889423314
100
AcDbArc
 50
282.236311986569
 51
17.74284396863778
  0
LINE
  5
3F10
330
1A
100
AcDbEntity
  8
SEIHIN
 48
5.0
100
AcDbLine
 10
273.7680617879164
 20
355.1046647969513
 30
0.0
 11
276.7563536362898
 21
352.5009484769642
 31
0.0
  0
ARC
  5
3F11
330
1A
100
AcDbEntity
  8
SEIHIN
 48
5.0
100
AcDbCircle
 10
287.7570078151951
 20
419.6053074490157
 30
0.0
 40
66.00003279939757
100
AcDbArc
 50
261.284687808352
 51
270.0098194575597
  0
LINE
  5
3F12
330
1A
100
AcDbEntity
  8
SEIHIN
 48
5.0
100
AcDbLine
 10
277.7563536362897
 20
352.3446578729938
 30
0.0
 11
277.7563536362897
 21
354.3673488243362
 31
0.0
  0
LINE
  5
3F13
330
1A
100
AcDbEntity
  8
SEIHIN
 48
5.0
100
AcDbLine
 10
297.7563536362898
 20
352.3446578729938
 30
0.0
 11
297.7563536362898
 21
354.3673488243362
 31
0.0
  0
ARC
  5
3F14
330
1A
100
AcDbEntity
  8
SEIHIN
 48
5.0
100
AcDbCircle
 10
287.7556994573845
 20
419.6053074490157
 30
0.0
 40
66.00003279939757
100
AcDbArc
 50
269.9901805424403
 51
278.715312191648
  0
LINE
  5
3F15
330
1A
100
AcDbEntity
  8
SEIHIN
 48
5.0
100
AcDbLine
 10
301.7446454846631
 20
355.1046647969513
 30
0.0
 11
298.7563536362898
 21
352.5009484769642
 31
0.0
  0
LINE
  5
3F3E
330
1A
100
AcDbEntity
  8
CENTER_L
 48
5.0
100
AcDbLine
 10
605.0854632814701
 20
450.6053444055246
 30
0.0
 11
626.6619632814702
 21
450.6053444055246
 31
0.0
  0
CIRCLE
  5
3F49
330
1A
100
AcDbEntity
  8
SEIHIN
100
AcDbCircle
 10
617.9466632814701
 20
450.6053444055246
 30
0.0
 40
5.0
  0
CIRCLE
  5
3F4A
330
1A
100
AcDbEntity
  8
SEIHIN
100
AcDbCircle
 10
617.9466632814701
 20
450.6053444055246
 30
0.0
 40
2.0
  0
LINE
  5
3F4C
330
1A
100
AcDbEntity
  8
CENTER_L
 48
5.0
100
AcDbLine
 10
668.9466632814701
 20
277.3978250329571
 30
0.0
 11
668.9466632814701
 21
295.9970250329572
 31
0.0
  0
LINE
  5
3F4D
330
1A
100
AcDbEntity
  8
CENTER_L
 48
5.0
100
AcDbLine
 10
566.9466632814701
 20
277.3978250329571
 30
0.0
 11
566.9466632814701
 21
295.9970250329572
 31
0.0
  0
LINE
  5
3F4E
330
1A
100
AcDbEntity
  8
SEIHIN
100
AcDbLine
 10
561.9466632814701
 20
283.7537585560177
 30
0.0
 11
561.94666328147
 21
284.7537585560177
 31
0.0
  0
LINE
  5
3F4F
330
1A
100
AcDbEntity
  8
SEIHIN
100
AcDbLine
 10
571.9466632814701
 20
283.7537585560177
 30
0.0
 11
571.9466632814701
 21
284.7537585560176
 31
0.0
  0
LINE
  5
3F50
330
1A
100
AcDbEntity
  8
SEIHIN
100
AcDbLine
 10
561.9466632814701
 20
283.7537585560177
 30
0.0
 11
571.9466632814701
 21
283.7537585560177
 31
0.0
  0
LINE
  5
3F51
330
1A
100
AcDbEntity
  8
SEIHIN
100
AcDbLine
 10
663.9466632814701
 20
283.7537585560177
 30
0.0
 11
673.9466632814701
 21
283.7537585560177
 31
0.0
  0
LINE
  5
3F52
330
1A
100
AcDbEntity
  8
SEIHIN
100
AcDbLine
 10
673.9466632814701
 20
283.7537585560177
 30
0.0
 11
673.9466632814701
 21
284.7537585560176
 31
0.0
  0
LINE
  5
3F53
330
1A
100
AcDbEntity
  8
SEIHIN
100
AcDbLine
 10
663.9466632814701
 20
283.7537585560177
 30
0.0
 11
663.94666328147
 21
284.7537585560177
 31
0.0
  0
CIRCLE
  5
3F54
330
1A
100
AcDbEntity
  8
SEIHIN
100
AcDbCircle
 10
672.9466632814701
 20
419.6053444055246
 30
0.0
 40
2.0
  0
CIRCLE
  5
3F55
330
1A
100
AcDbEntity
  8
SEIHIN
100
AcDbCircle
 10
672.9466632814701
 20
419.6053444055246
 30
0.0
 40
5.0
  0
CIRCLE
  5
3F56
330
1A
100
AcDbEntity
  8
SEIHIN
100
AcDbCircle
 10
562.9466632814702
 20
419.6053444055246
 30
0.0
 40
5.0
  0
CIRCLE
  5
3F57
330
1A
100
AcDbEntity
  8
SEIHIN
100
AcDbCircle
 10
562.9466632814702
 20
419.6053444055246
 30
0.0
 40
2.0
  0
LINE
  5
3F58
330
1A
100
AcDbEntity
  8
CENTER_L
 48
5.0
100
AcDbLine
 10
562.9466632814701
 20
410.9186944055246
 30
0.0
 11
562.9466632814701
 21
429.5178944055247
 31
0.0
  0
LINE
  5
3F59
330
1A
100
AcDbEntity
  8
CENTER_L
 48
5.0
100
AcDbLine
 10
672.9466632814702
 20
410.9186944055246
 30
0.0
 11
672.9466632814702
 21
429.5178944055247
 31
0.0
  0
CIRCLE
  5
3F5A
330
1A
100
AcDbEntity
  8
SEIHIN
100
AcDbCircle
 10
287.7562751038648
 20
450.6053447561947
 30
0.0
 40
2.0
  0
CIRCLE
  5
3F5B
330
1A
100
AcDbEntity
  8
SEIHIN
100
AcDbCircle
 10
287.7562751038648
 20
450.6053447561947
 30
0.0
 40
5.0
  0
LINE
  5
3F5C
330
1A
100
AcDbEntity
  8
CENTER_L
 48
5.0
100
AcDbLine
 10
274.8950751038647
 20
450.6053447561947
 30
0.0
 11
296.4715751038649
 21
450.6053447561947
 31
0.0
  0
CIRCLE
  5
3F5D
330
1A
100
AcDbEntity
  8
SEIHIN
100
AcDbCircle
 10
342.7562751038648
 20
419.6053447561947
 30
0.0
 40
5.0
  0
CIRCLE
  5
3F5E
330
1A
100
AcDbEntity
  8
SEIHIN
100
AcDbCircle
 10
342.7562751038648
 20
419.6053447561947
 30
0.0
 40
2.0
  0
CIRCLE
  5
3F5F
330
1A
100
AcDbEntity
  8
SEIHIN
100
AcDbCircle
 10
232.7562751038649
 20
419.6053447561947
 30
0.0
 40
2.0
  0
CIRCLE
  5
3F60
330
1A
100
AcDbEntity
  8
SEIHIN
100
AcDbCircle
 10
232.7562751038649
 20
419.6053447561947
 30
0.0
 40
5.0
  0
LINE
  5
3F61
330
1A
100
AcDbEntity
  8
CENTER_L
 48
5.0
100
AcDbLine
 10
232.7562751038648
 20
410.9186947561948
 30
0.0
 11
232.7562751038648
 21
429.5178947561948
 31
0.0
  0
LINE
  5
3F62
330
1A
100
AcDbEntity
  8
CENTER_L
 48
5.0
100
AcDbLine
 10
342.7563536362897
 20
410.9186947561948
 30
0.0
 11
342.7563536362897
 21
429.5178947561948
 31
0.0
  0
LINE
  5
43E8
330
1A
100
AcDbEntity
  8
SEIHIN
 48
5.0
100
AcDbLine
 10
334.2874561620515
 20
148.7303714388399
 30
0.0
 11
345.9524158462372
 21
248.7303714388396
 31
0.0
  0
LINE
  5
43E9
330
1A
100
AcDbEntity
  8
SEIHIN
 48
5.0
100
AcDbLine
 10
333.3308726642072
 20
149.0304635286113
 30
0.0
 11
344.9452866206319
 21
248.7303714388396
 31
0.0
  0
LINE
  5
43EA
330
1A
100
AcDbEntity
  8
SEIHIN
 48
5.0
100
AcDbLine
 10
353.2924514171494
 20
248.7303714388396
 30
0.0
 11
339.8409143700773
 21
148.7303714388398
 31
0.0
  0
LINE
  5
43EB
330
1A
100
AcDbEntity
  8
SEIHIN
  6
Continuous
 62
     3
 48
16.0
100
AcDbLine
 10
324.6068143700771
 20
118.7303714388399
 30
0.0
 11
320.7567143700773
 21
113.7303714388399
 31
0.0
  0
LINE
  5
43EC
330
1A
100
AcDbEntity
  8
SEIHIN
  6
Continuous
 62
     3
100
AcDbLine
 10
316.7565432269232
 20
113.7303714387461
 30
0.0
 11
316.756527220056
 21
102.7303722862833
 31
0.0
  0
LINE
  5
43ED
330
1A
100
AcDbEntity
  8
SEIHIN
  6
Continuous
 62
     3
 48
16.0
100
AcDbLine
 10
324.6068143700771
 20
138.7303714388398
 30
0.0
 11
324.6068143700771
 21
118.7303714388399
 31
0.0
  0
LINE
  5
43EE
330
1A
100
AcDbEntity
  8
SEIHIN
 48
5.0
100
AcDbLine
 10
326.7564143700772
 20
138.7303714388398
 30
0.0
 11
287.7563143700772
 21
138.7303714388398
 31
0.0
  0
LINE
  5
43EF
330
1A
100
AcDbEntity
  8
SEIHIN
  6
Continuous
 62
     3
100
AcDbLine
 10
258.7565432269899
 20
113.7304593176279
 30
0.0
 11
258.7565272201367
 21
102.7304697428814
 31
0.0
  0
LINE
  5
43F0
330
1A
100
AcDbEntity
  8
SEIHIN
  6
Continuous
 62
     3
 48
16.0
100
AcDbLine
 10
250.9062143700772
 20
118.7304714388399
 30
0.0
 11
254.7562143700774
 21
113.7304714388398
 31
0.0
  0
LINE
  5
43F1
330
1A
100
AcDbEntity
  8
SEIHIN
  6
Continuous
 62
     3
 48
16.0
100
AcDbLine
 10
250.9063143700772
 20
138.7304714388399
 30
0.0
 11
250.9062143700772
 21
118.7304714388399
 31
0.0
  0
ARC
  5
43F2
330
1A
100
AcDbEntity
  8
SEIHIN
 48
5.0
100
AcDbCircle
 10
231.1464316409064
 20
129.249058239356
 30
0.0
 40
19.9999936938819
100
AcDbArc
 50
28.29854238886965
 51
76.92277073681111
  0
LINE
  5
43F3
330
1A
100
AcDbEntity
  8
SEIHIN
 48
5.0
100
AcDbLine
 10
248.7562143700774
 20
138.7303714388398
 30
0.0
 11
287.7563143700772
 21
138.7303714388398
 31
0.0
  0
LINE
  5
43F4
330
1A
100
AcDbEntity
  8
SEIHIN
  6
Continuous
 62
     3
 48
16.0
100
AcDbLine
 10
316.7565272200574
 20
102.730373134378
 30
0.0
 11
258.7565272202823
 21
102.7305697432146
 31
0.0
  0
LINE
  5
43F5
330
1A
100
AcDbEntity
  8
SEIHIN
  6
Continuous
 62
     3
 48
16.0
100
AcDbLine
 10
324.6068143700771
 20
118.7303714388399
 30
0.0
 11
250.9062143705772
 21
118.7305714388398
 31
0.0
  0
LINE
  5
43F6
330
1A
100
AcDbEntity
  8
SEIHIN
  6
Continuous
 62
     3
 48
16.0
100
AcDbLine
 10
254.7562913700769
 20
113.7303714388399
 30
0.0
 11
320.7567143700773
 21
113.7303714388399
 31
0.0
  0
LINE
  5
43F7
330
1A
100
AcDbEntity
  8
SEIHIN
 48
5.0
100
AcDbLine
 10
336.1695728470468
 20
248.7303714388394
 30
0.0
 11
326.6450361352351
 21
148.7303714388398
 31
0.0
  0
LINE
  5
43F8
330
1A
100
AcDbEntity
  8
SEIHIN
 48
5.0
100
AcDbLine
 10
324.9677853945263
 20
149.0304635286114
 30
0.0
 11
334.4509146794262
 21
248.7303714388396
 31
0.0
  0
LINE
  5
43F9
330
1A
100
AcDbEntity
  8
SEIHIN
 48
5.0
100
AcDbLine
 10
331.9280435947169
 20
248.7303714388394
 30
0.0
 11
322.4041552354496
 21
148.7303714388396
 31
0.0
  0
LINE
  5
43FA
330
1A
100
AcDbEntity
  8
SEIHIN
 48
5.0
100
AcDbLine
 10
323.08744628934
 20
248.7303714388394
 30
0.0
 11
316.3524139867716
 21
148.7303714388398
 31
0.0
  0
LINE
  5
43FB
330
1A
100
AcDbEntity
  8
SEIHIN
 48
5.0
100
AcDbLine
 10
314.0687978693919
 20
149.0304635286114
 30
0.0
 11
320.7743828936131
 21
248.7303714388394
 31
0.0
  0
LINE
  5
43FC
330
1A
100
AcDbEntity
  8
SEIHIN
 48
5.0
100
AcDbLine
 10
317.8926550906927
 20
248.7303714388396
 30
0.0
 11
311.1584168545856
 21
148.7303714388398
 31
0.0
  0
LINE
  5
43FD
330
1A
100
AcDbEntity
  8
SEIHIN
 48
5.0
100
AcDbLine
 10
304.111014906719
 20
148.7303714388399
 30
0.0
 11
307.5975614787921
 21
248.7303714388396
 31
0.0
  0
LINE
  5
43FE
330
1A
100
AcDbEntity
  8
CENTER_L
 48
5.0
100
AcDbLine
 10
287.7563143700772
 20
95.73037143883984
 30
0.0
 11
287.7563143700772
 21
265.7303714388398
 31
0.0
  0
LINE
  5
43FF
330
1A
100
AcDbEntity
  8
SEIHIN
 48
5.0
100
AcDbLine
 10
339.8409143700773
 20
148.7303714388398
 30
0.0
 11
338.7588557720923
 21
148.7303714388397
 31
0.0
  0
LINE
  5
4400
330
1A
100
AcDbEntity
  8
SEIHIN
 48
5.0
100
AcDbLine
 10
287.7563143700772
 20
248.7303714388396
 30
0.0
 11
353.7924514171493
 21
248.7303714388396
 31
0.0
  0
LINE
  5
4401
330
1A
100
AcDbEntity
  8
SEIHIN
 48
5.0
100
AcDbLine
 10
342.9532017493134
 20
248.7303714388396
 30
0.0
 11
331.2887005196088
 21
148.7303714388397
 31
0.0
  0
ARC
  5
4402
330
1A
100
AcDbEntity
  8
SEIHIN
 48
5.0
100
AcDbCircle
 10
344.3661602267339
 20
129.2491064851974
 30
0.0
 40
19.99993835633508
100
AcDbArc
 50
103.0771576433718
 51
151.7015292309439
  0
LINE
  5
4403
330
1A
100
AcDbEntity
  8
SEIHIN
 48
5.0
100
AcDbLine
 10
301.3766580772145
 20
149.0304635286112
 30
0.0
 11
304.8477243028594
 21
248.7303714388396
 31
0.0
  0
LINE
  5
4404
330
1A
100
AcDbEntity
  8
SEIHIN
 48
5.0
100
AcDbLine
 10
298.317863863191
 20
148.7303714388399
 30
0.0
 11
301.8035247692176
 21
248.7303714388396
 31
0.0
  0
LINE
  5
4405
330
1A
100
AcDbEntity
  8
SEIHIN
 48
5.0
100
AcDbLine
 10
350.2167832461867
 20
248.7303714388394
 30
0.0
 11
337.2065856283468
 21
148.7303714388395
 31
0.0
  0
LINE
  5
4406
330
1A
100
AcDbEntity
  8
SEIHIN
 48
5.0
100
AcDbLine
 10
338.5881291016625
 20
149.0304635286114
 30
0.0
 11
351.5423246122085
 21
248.7303714388394
 31
0.0
  0
LINE
  5
4407
330
1A
100
AcDbEntity
  8
SEIHIN
 48
5.0
100
AcDbLine
 10
338.7588557720923
 20
148.7303714388398
 30
0.0
 11
351.7692907034342
 21
248.7303714388394
 31
0.0
  0
LINE
  5
4408
330
1A
100
AcDbEntity
  8
SEIHIN
 48
5.0
100
AcDbLine
 10
353.7924514171493
 20
248.7303714388396
 30
0.0
 11
340.3812813687082
 21
149.0304635286115
 31
0.0
  0
LINE
  5
4409
330
1A
100
AcDbEntity
  8
SEIHIN
100
AcDbLine
 10
290.7555284670007
 20
248.7303714388394
 30
0.0
 11
290.7555284670007
 21
148.7303714388397
 31
0.0
  0
LINE
  5
440A
330
1A
100
AcDbEntity
  8
SEIHIN
100
AcDbLine
 10
287.7563143700772
 20
149.0304635286114
 30
0.0
 11
290.7555284670007
 21
148.7303714388398
 31
0.0
  0
LINE
  5
440B
330
1A
100
AcDbEntity
  8
SEIHIN
100
AcDbLine
 10
298.317863863191
 20
148.7303714388398
 30
0.0
 11
301.3766580772145
 21
149.0304635286114
 31
0.0
  0
LINE
  5
440C
330
1A
100
AcDbEntity
  8
SEIHIN
100
AcDbLine
 10
301.3766580772145
 20
149.0304635286114
 30
0.0
 11
304.111014906719
 21
148.7303714388399
 31
0.0
  0
LINE
  5
440D
330
1A
100
AcDbEntity
  8
SEIHIN
100
AcDbLine
 10
311.1584168545856
 20
148.7303714388398
 30
0.0
 11
314.0687978693918
 21
149.0304635286114
 31
0.0
  0
LINE
  5
440E
330
1A
100
AcDbEntity
  8
SEIHIN
100
AcDbLine
 10
314.0687978693918
 20
149.0304635286114
 30
0.0
 11
316.3524139867716
 21
148.7303714388398
 31
0.0
  0
LINE
  5
440F
330
1A
100
AcDbEntity
  8
SEIHIN
100
AcDbLine
 10
322.4041552354496
 20
148.7303714388398
 30
0.0
 11
324.9677853945263
 21
149.0304635286114
 31
0.0
  0
LINE
  5
4410
330
1A
100
AcDbEntity
  8
SEIHIN
100
AcDbLine
 10
324.9677853945263
 20
149.0304635286114
 30
0.0
 11
326.6450361352351
 21
148.7303714388398
 31
0.0
  0
LINE
  5
4411
330
1A
100
AcDbEntity
  8
SEIHIN
100
AcDbLine
 10
331.2887005196088
 20
148.7303714388398
 30
0.0
 11
333.3308726642072
 21
149.0304635286114
 31
0.0
  0
LINE
  5
4412
330
1A
100
AcDbEntity
  8
SEIHIN
100
AcDbLine
 10
333.3308726642072
 20
149.0304635286114
 30
0.0
 11
334.2874561620515
 21
148.7303714388398
 31
0.0
  0
LINE
  5
4413
330
1A
100
AcDbEntity
  8
SEIHIN
100
AcDbLine
 10
337.2065856283469
 20
148.7303714388398
 30
0.0
 11
338.5881291016624
 21
149.0304635286114
 31
0.0
  0
LINE
  5
4414
330
1A
100
AcDbEntity
  8
SEIHIN
100
AcDbLine
 10
338.5881291016624
 20
149.0304635286114
 30
0.0
 11
338.7588557720923
 21
148.7303714388398
 31
0.0
  0
LINE
  5
4415
330
1A
100
AcDbEntity
  8
SEIHIN
100
AcDbLine
 10
340.3812813687082
 20
149.0304635286115
 30
0.0
 11
339.8409143700772
 21
148.7303714388398
 31
0.0
  0
LINE
  5
4416
330
1A
100
AcDbEntity
  8
SEIHIN
 48
5.0
100
AcDbLine
 10
298.317863863191
 20
148.7303714388396
 30
0.0
 11
290.7555284670022
 21
148.7303714388397
 31
0.0
  0
LINE
  5
4417
330
1A
100
AcDbEntity
  8
SEIHIN
 48
5.0
100
AcDbLine
 10
311.1584168545855
 20
148.7303714388395
 30
0.0
 11
304.1110149067189
 21
148.7303714388396
 31
0.0
  0
LINE
  5
4418
330
1A
100
AcDbEntity
  8
SEIHIN
 48
5.0
100
AcDbLine
 10
322.4041552354497
 20
148.7303714388397
 30
0.0
 11
316.3524139867742
 21
148.7303714388396
 31
0.0
  0
LINE
  5
4419
330
1A
100
AcDbEntity
  8
SEIHIN
 48
5.0
100
AcDbLine
 10
331.2887005196088
 20
148.7303714388399
 30
0.0
 11
326.6450361352351
 21
148.7303714388398
 31
0.0
  0
LINE
  5
441A
330
1A
100
AcDbEntity
  8
SEIHIN
 48
5.0
100
AcDbLine
 10
337.206585628347
 20
148.7303714388399
 30
0.0
 11
334.2874561620516
 21
148.7303714388397
 31
0.0
  0
LINE
  5
441B
330
1A
100
AcDbEntity
  8
SEIHIN
 48
5.0
100
AcDbLine
 10
238.3060431118075
 20
148.7303714388399
 30
0.0
 11
241.2251725781029
 21
148.7303714388397
 31
0.0
  0
LINE
  5
441C
330
1A
100
AcDbEntity
  8
SEIHIN
 48
5.0
100
AcDbLine
 10
244.2239282205457
 20
148.7303714388399
 30
0.0
 11
248.8675926049193
 21
148.7303714388398
 31
0.0
  0
LINE
  5
441D
330
1A
100
AcDbEntity
  8
SEIHIN
 48
5.0
100
AcDbLine
 10
253.1084735047048
 20
148.7303714388397
 30
0.0
 11
259.1602147533803
 21
148.7303714388396
 31
0.0
  0
LINE
  5
441E
330
1A
100
AcDbEntity
  8
SEIHIN
 48
5.0
100
AcDbLine
 10
264.3542118855691
 20
148.7303714388395
 30
0.0
 11
271.4016138334356
 21
148.7303714388396
 31
0.0
  0
LINE
  5
441F
330
1A
100
AcDbEntity
  8
SEIHIN
 48
5.0
100
AcDbLine
 10
277.1947648769635
 20
148.7303714388396
 30
0.0
 11
284.7571002731523
 21
148.7303714388397
 31
0.0
  0
LINE
  5
4420
330
1A
100
AcDbEntity
  8
SEIHIN
100
AcDbLine
 10
235.1313473714463
 20
149.0304635286115
 30
0.0
 11
235.6717143700773
 21
148.7303714388398
 31
0.0
  0
LINE
  5
4421
330
1A
100
AcDbEntity
  8
SEIHIN
100
AcDbLine
 10
236.9244996384921
 20
149.0304635286114
 30
0.0
 11
236.7537729680622
 21
148.7303714388398
 31
0.0
  0
LINE
  5
4422
330
1A
100
AcDbEntity
  8
SEIHIN
100
AcDbLine
 10
238.3060431118076
 20
148.7303714388398
 30
0.0
 11
236.9244996384921
 21
149.0304635286114
 31
0.0
  0
LINE
  5
4423
330
1A
100
AcDbEntity
  8
SEIHIN
100
AcDbLine
 10
242.1817560759473
 20
149.0304635286114
 30
0.0
 11
241.225172578103
 21
148.7303714388398
 31
0.0
  0
LINE
  5
4424
330
1A
100
AcDbEntity
  8
SEIHIN
100
AcDbLine
 10
244.2239282205457
 20
148.7303714388398
 30
0.0
 11
242.1817560759473
 21
149.0304635286114
 31
0.0
  0
LINE
  5
4425
330
1A
100
AcDbEntity
  8
SEIHIN
100
AcDbLine
 10
250.5448433456282
 20
149.0304635286114
 30
0.0
 11
248.8675926049194
 21
148.7303714388398
 31
0.0
  0
LINE
  5
4426
330
1A
100
AcDbEntity
  8
SEIHIN
100
AcDbLine
 10
253.1084735047049
 20
148.7303714388398
 30
0.0
 11
250.5448433456282
 21
149.0304635286114
 31
0.0
  0
LINE
  5
4427
330
1A
100
AcDbEntity
  8
SEIHIN
100
AcDbLine
 10
261.4438308707627
 20
149.0304635286114
 30
0.0
 11
259.160214753383
 21
148.7303714388398
 31
0.0
  0
LINE
  5
4428
330
1A
100
AcDbEntity
  8
SEIHIN
100
AcDbLine
 10
264.354211885569
 20
148.7303714388398
 30
0.0
 11
261.4438308707627
 21
149.0304635286114
 31
0.0
  0
LINE
  5
4429
330
1A
100
AcDbEntity
  8
SEIHIN
100
AcDbLine
 10
274.13597066294
 20
149.0304635286114
 30
0.0
 11
271.4016138334355
 21
148.7303714388399
 31
0.0
  0
LINE
  5
442A
330
1A
100
AcDbEntity
  8
SEIHIN
100
AcDbLine
 10
277.1947648769635
 20
148.7303714388398
 30
0.0
 11
274.13597066294
 21
149.0304635286114
 31
0.0
  0
LINE
  5
442B
330
1A
100
AcDbEntity
  8
SEIHIN
100
AcDbLine
 10
287.7563143700773
 20
149.0304635286114
 30
0.0
 11
284.7571002731539
 21
148.7303714388398
 31
0.0
  0
LINE
  5
442C
330
1A
100
AcDbEntity
  8
SEIHIN
100
AcDbLine
 10
284.7571002731538
 20
248.7303714388394
 30
0.0
 11
284.7571002731539
 21
148.7303714388397
 31
0.0
  0
LINE
  5
442D
330
1A
100
AcDbEntity
  8
SEIHIN
 48
5.0
100
AcDbLine
 10
221.7201773230052
 20
248.7303714388396
 30
0.0
 11
235.1313473714463
 21
149.0304635286115
 31
0.0
  0
LINE
  5
442E
330
1A
100
AcDbEntity
  8
SEIHIN
 48
5.0
100
AcDbLine
 10
236.7537729680622
 20
148.7303714388398
 30
0.0
 11
223.7433380367203
 21
248.7303714388394
 31
0.0
  0
LINE
  5
442F
330
1A
100
AcDbEntity
  8
SEIHIN
 48
5.0
100
AcDbLine
 10
236.924499638492
 20
149.0304635286114
 30
0.0
 11
223.970304127946
 21
248.7303714388394
 31
0.0
  0
LINE
  5
4430
330
1A
100
AcDbEntity
  8
SEIHIN
 48
5.0
100
AcDbLine
 10
225.2958454939678
 20
248.7303714388394
 30
0.0
 11
238.3060431118077
 21
148.7303714388395
 31
0.0
  0
LINE
  5
4431
330
1A
100
AcDbEntity
  8
SEIHIN
 48
5.0
100
AcDbLine
 10
277.1947648769635
 20
148.7303714388399
 30
0.0
 11
273.7091039709369
 21
248.7303714388396
 31
0.0
  0
LINE
  5
4432
330
1A
100
AcDbEntity
  8
SEIHIN
 48
5.0
100
AcDbLine
 10
274.13597066294
 20
149.0304635286112
 30
0.0
 11
270.6649044372952
 21
248.7303714388396
 31
0.0
  0
LINE
  5
4433
330
1A
100
AcDbEntity
  8
SEIHIN
 48
5.0
100
AcDbLine
 10
232.5594269908411
 20
248.7303714388396
 30
0.0
 11
244.2239282205457
 21
148.7303714388397
 31
0.0
  0
LINE
  5
4434
330
1A
100
AcDbEntity
  8
SEIHIN
 48
5.0
100
AcDbLine
 10
287.7563143700773
 20
248.7303714388396
 30
0.0
 11
221.7201773230052
 21
248.7303714388396
 31
0.0
  0
LINE
  5
4435
330
1A
100
AcDbEntity
  8
SEIHIN
 48
5.0
100
AcDbLine
 10
235.6717143700773
 20
148.7303714388398
 30
0.0
 11
236.7537729680623
 21
148.7303714388397
 31
0.0
  0
LINE
  5
4436
330
1A
100
AcDbEntity
  8
SEIHIN
 48
5.0
100
AcDbLine
 10
271.4016138334355
 20
148.7303714388399
 30
0.0
 11
267.9150672613625
 21
248.7303714388396
 31
0.0
  0
LINE
  5
4437
330
1A
100
AcDbEntity
  8
SEIHIN
 48
5.0
100
AcDbLine
 10
257.6199736494618
 20
248.7303714388396
 30
0.0
 11
264.354211885569
 21
148.7303714388398
 31
0.0
  0
LINE
  5
4438
330
1A
100
AcDbEntity
  8
SEIHIN
 48
5.0
100
AcDbLine
 10
261.4438308707627
 20
149.0304635286114
 30
0.0
 11
254.7382458465414
 21
248.7303714388394
 31
0.0
  0
LINE
  5
4439
330
1A
100
AcDbEntity
  8
SEIHIN
 48
5.0
100
AcDbLine
 10
252.4251824508145
 20
248.7303714388394
 30
0.0
 11
259.160214753383
 21
148.7303714388398
 31
0.0
  0
LINE
  5
443A
330
1A
100
AcDbEntity
  8
SEIHIN
 48
5.0
100
AcDbLine
 10
243.5845851454376
 20
248.7303714388394
 30
0.0
 11
253.1084735047049
 21
148.7303714388396
 31
0.0
  0
LINE
  5
443B
330
1A
100
AcDbEntity
  8
SEIHIN
 48
5.0
100
AcDbLine
 10
250.5448433456282
 20
149.0304635286114
 30
0.0
 11
241.0617140607283
 21
248.7303714388396
 31
0.0
  0
LINE
  5
443C
330
1A
100
AcDbEntity
  8
SEIHIN
 48
5.0
100
AcDbLine
 10
239.3430558931078
 20
248.7303714388394
 30
0.0
 11
248.8675926049194
 21
148.7303714388398
 31
0.0
  0
LINE
  5
443D
330
1A
100
AcDbEntity
  8
SEIHIN
 48
5.0
100
AcDbLine
 10
222.2201773230051
 20
248.7303714388396
 30
0.0
 11
235.6717143700773
 21
148.7303714388398
 31
0.0
  0
LINE
  5
443E
330
1A
100
AcDbEntity
  8
SEIHIN
 48
5.0
100
AcDbLine
 10
242.1817560759474
 20
149.0304635286113
 30
0.0
 11
230.5673421195226
 21
248.7303714388396
 31
0.0
  0
LINE
  5
443F
330
1A
100
AcDbEntity
  8
SEIHIN
 48
5.0
100
AcDbLine
 10
241.225172578103
 20
148.7303714388399
 30
0.0
 11
229.5602128939174
 21
248.7303714388396
 31
0.0
  0
LINE
  5
4440
330
1A
100
AcDbEntity
  8
SEIHIN
100
AcDbLine
 10
287.7563143700772
 20
248.7303714388396
 30
0.0
 11
287.7563143700773
 21
149.0304635286114
 31
0.0
  0
LINE
  5
4441
330
1A
100
AcDbEntity
  8
SEIHIN
 48
5.0
100
AcDbLine
 10
217.2559143700772
 20
258.7303714388396
 30
0.0
 11
287.7563143700773
 21
258.7303714388396
 31
0.0
  0
LINE
  5
4442
330
1A
100
AcDbEntity
  8
SEIHIN
 48
5.0
100
AcDbLine
 10
287.7563143700773
 20
248.7303714388396
 30
0.0
 11
218.7074143700773
 21
248.7303714388396
 31
0.0
  0
ARC
  5
4443
330
1A
100
AcDbEntity
  8
SEIHIN
 48
5.0
100
AcDbCircle
 10
218.7073877094738
 20
249.7303967981965
 30
0.0
 40
1.000025359712293
100
AcDbArc
 50
182.867366010937
 51
270.0015275013329
  0
LINE
  5
4444
330
1A
100
AcDbEntity
  8
SEIHIN
 48
5.0
100
AcDbLine
 10
217.2559143700772
 20
258.7303714388396
 30
0.0
 11
217.7086143700773
 21
249.6803714388396
 31
0.0
  0
LINE
  5
4445
330
1A
100
AcDbEntity
  8
SEIHIN
 48
5.0
100
AcDbLine
 10
358.2567143700773
 20
258.7303714388396
 30
0.0
 11
357.8040143700772
 21
249.6803714388396
 31
0.0
  0
LINE
  5
4446
330
1A
100
AcDbEntity
  8
SEIHIN
 48
5.0
100
AcDbLine
 10
358.2567143700773
 20
258.7303714388396
 30
0.0
 11
287.7563143700772
 21
258.7303714388396
 31
0.0
  0
ARC
  5
4447
330
1A
100
AcDbEntity
  8
SEIHIN
 48
5.0
100
AcDbCircle
 10
356.8052410306807
 20
249.7303967981965
 30
0.0
 40
1.000025359712293
100
AcDbArc
 50
269.9984724986671
 51
357.132633989063
  0
LINE
  5
4448
330
1A
100
AcDbEntity
  8
SEIHIN
 48
5.0
100
AcDbLine
 10
287.7563143700772
 20
248.7303714388396
 30
0.0
 11
356.8052143700771
 21
248.7303714388396
 31
0.0
  0
VIEWPORT
  5
22
102
{ACAD_XDICTIONARY
360
445A
102
}
330
17
100
AcDbEntity
 67
     1
  8
0
100
AcDbViewport
 10
313.6808219178082
 20
148.5
 30
0.0
 40
627.3616438356165
 41
297.0
 68
     2
 69
     1
 12
313.6808219178082
 22
148.5
 13
0.0
 23
0.0
 14
1.0
 24
1.0
 15
10.0
 25
10.0
 16
0.0
 26
0.0
 36
1.0
 17
0.0
 27
0.0
 37
0.0
 42
50.0
 43
0.0
 44
0.0
 45
297.0
 50
0.0
 51
0.0
 72
   100
 90
    32768
  1

281
     0
 71
     1
 74
     0
110
0.0
120
0.0
130
0.0
111
1.0
121
0.0
131
0.0
112
0.0
122
1.0
132
0.0
 79
     0
146
0.0
  0
VIEWPORT
  5
64
102
{ACAD_XDICTIONARY
360
445C
102
}
330
17
100
AcDbEntity
 67
     1
  8
VIEWPORT
100
AcDbViewport
 10
210.0
 20
148.5
 30
0.0
 40
420.0
 41
297.0
 68
     1
 69
     2
 12
420.0
 22
297.0
 13
0.0
 23
0.0
 14
10.0
 24
10.0
 15
0.0
 25
0.0
 16
0.0
 26
0.0
 36
1.0
 17
0.0
 27
0.0
 37
0.0
 42
50.0
 43
0.0
 44
0.0
 45
605.8799999999997
 50
0.0
 51
0.0
 72
   100
 90
    32768
  1

281
     0
 71
     1
 74
     0
110
0.0
120
0.0
130
0.0
111
1.0
121
0.0
131
0.0
112
0.0
122
1.0
132
0.0
 79
     0
146
0.0
  0
ENDSEC
  0
SECTION
  2
OBJECTS
  0
DICTIONARY
  5
C
330
0
100
AcDbDictionary
281
     1
  3
ACAD_COLOR
350
3CD1
  3
ACAD_GROUP
350
D
  3
ACAD_LAYOUT
350
14C
  3
ACAD_MATERIAL
350
3CD0
  3
ACAD_MLINESTYLE
350
E
  3
ACAD_PLOTSETTINGS
350
14D
  3
ACAD_PLOTSTYLENAME
350
3BD9
  3
ACDBHEADERROUNDTRIPXREC
350
4457
  3
AcDbVariableDictionary
350
4453
1001
ACAD
1000
TREAT_AS_HARD
1070
     0
  0
DICTIONARY
  5
CFB
330
1A
100
AcDbDictionary
280
     1
281
     1
  3
ACAD_LAYOUTSELFREF
360
3CA5
1001
ACAD
1000
TREAT_AS_HARD
1070
     1
  0
DICTIONARY
  5
CF9
330
17
100
AcDbDictionary
280
     1
281
     1
  3
ACAD_LAYOUTSELFREF
360
3CA4
1001
ACAD
1000
TREAT_AS_HARD
1070
     1
  0
DICTIONARY
  5
445A
330
22
100
AcDbDictionary
280
     1
281
     1
  3
ACAD_XREC_ROUNDTRIP
360
445B
  0
DICTIONARY
  5
445C
330
64
100
AcDbDictionary
280
     1
281
     1
  3
ACAD_XREC_ROUNDTRIP
360
445D
  0
DICTIONARY
  5
3CD1
102
{ACAD_REACTORS
330
C
102
}
330
C
100
AcDbDictionary
281
     1
  0
DICTIONARY
  5
D
102
{ACAD_REACTORS
330
C
102
}
330
C
100
AcDbDictionary
281
     1
1001
ACAD
1000
TREAT_AS_HARD
1070
     0
  0
DICTIONARY
  5
14C
102
{ACAD_REACTORS
330
C
102
}
330
C
100
AcDbDictionary
281
     1
  3
Model
350
3BDB
  3
ﾚｲｱｳﾄ1
350
3BDC
1001
ACAD
1000
TREAT_AS_HARD
1070
     0
  0
DICTIONARY
  5
3CD0
102
{ACAD_REACTORS
330
C
102
}
330
C
100
AcDbDictionary
281
     1
  0
DICTIONARY
  5
E
102
{ACAD_REACTORS
330
C
102
}
330
C
100
AcDbDictionary
281
     1
  3
STANDARD
350
13
1001
ACAD
1000
TREAT_AS_HARD
1070
     0
  0
DICTIONARY
  5
14D
102
{ACAD_REACTORS
330
C
102
}
330
C
100
AcDbDictionary
281
     1
1001
ACAD
1000
TREAT_AS_HARD
1070
     0
  0
ACDBDICTIONARYWDFLT
  5
3BD9
102
{ACAD_REACTORS
330
C
102
}
330
C
100
AcDbDictionary
281
     1
  3
Normal
350
3BDA
100
AcDbDictionaryWithDefault
340
3BDA
1001
ACAD
1000
TREAT_AS_HARD
1070
     0
1000
TREAT_AS_HARD
1070
     0
  0
DICTIONARY
  5
4457
102
{ACAD_REACTORS
330
C
102
}
330
C
100
AcDbDictionary
281
     1
  3
COLORDICT
350
4459
  3
MATERIALDICT
350
4458
  0
DICTIONARY
  5
4453
102
{ACAD_REACTORS
330
C
102
}
330
C
100
AcDbDictionary
281
     1
  3
DIMASSOC
350
4454
  3
PROJECTNAME
350
4455
  0
XRECORD
  5
3CA5
102
{ACAD_REACTORS
330
CFB
102
}
330
CFB
100
AcDbXrecord
280
     1
340
1A
  0
XRECORD
  5
3CA4
102
{ACAD_REACTORS
330
CF9
102
}
330
CF9
100
AcDbXrecord
280
     1
340
17
  0
XRECORD
  5
445B
102
{ACAD_REACTORS
330
445A
102
}
330
445A
100
AcDbXrecord
280
     1
102
SHADEPLOT
 70
     0
  0
XRECORD
  5
445D
102
{ACAD_REACTORS
330
445C
102
}
330
445C
100
AcDbXrecord
280
     1
102
SHADEPLOT
 70
     0
  0
LAYOUT
  5
3BDB
102
{ACAD_XDICTIONARY
360
445E
102
}
102
{ACAD_REACTORS
330
14C
102
}
330
14C
100
AcDbPlotSettings
  1

  2
CubePDF
  4
A3
  6

 40
3.174999952316284
 41
3.174999952316284
 42
3.17498779296875
 43
3.17498779296875
 44
297.0530090332031
 45
420.1583251953125
 46
7.419999999999999
 47
7.5
 48
0.0
 49
0.0
140
0.0
141
0.0
142
1.0
143
2.0
 70
 11956
 72
     1
 73
     1
 74
     1
  7
monochrome.ctb
 75
    17
147
0.5
148
0.0256328098773793
149
0.0755457999653118
100
AcDbLayout
  1
Model
 70
     1
 71
     0
 10
0.0
 20
0.0
 11
12.0
 21
9.0
 12
0.0
 22
0.0
 32
0.0
 14
0.0
 24
0.0
 34
0.0
 15
0.0
 25
0.0
 35
0.0
146
0.0
 13
0.0
 23
0.0
 33
0.0
 16
1.0
 26
0.0
 36
0.0
 17
0.0
 27
1.0
 37
0.0
 76
     0
330
1A
  0
LAYOUT
  5
3BDC
102
{ACAD_XDICTIONARY
360
4460
102
}
102
{ACAD_REACTORS
330
14C
102
}
330
14C
100
AcDbPlotSettings
  1

  2
LP-9200C(CC9E34)
  4

  6

 40
0.0
 41
0.0
 42
0.0
 43
0.0
 44
0.0
 45
0.0
 46
0.0
 47
0.0
 48
0.0
 49
0.0
140
0.0
141
0.0
142
1.0
143
1.0
 70
   688
 72
     0
 73
     0
 74
     5
  7
monochrome.ctb
 75
    16
147
1.0
148
0.0
149
0.0
100
AcDbLayout
  1
ﾚｲｱｳﾄ1
 70
     1
 71
     1
 10
0.0
 20
0.0
 11
420.0
 21
297.0
 12
0.0
 22
0.0
 32
0.0
 14
0.0
 24
0.0
 34
0.0
 15
420.0
 25
297.0
 35
0.0
146
0.0
 13
0.0
 23
0.0
 33
0.0
 16
1.0
 26
0.0
 36
0.0
 17
0.0
 27
1.0
 37
0.0
 76
     0
330
17
331
64
  0
MLINESTYLE
  5
13
102
{ACAD_REACTORS
330
E
102
}
330
E
100
AcDbMlineStyle
  2
STANDARD
 70
     0
  3

 62
     0
 51
90.0
 52
90.0
 71
     2
 49
0.5
 62
   256
  6
BYLAYER
 49
-0.5
 62
   256
  6
BYLAYER
  0
ACDBPLACEHOLDER
  5
3BDA
102
{ACAD_REACTORS
330
3BD9
102
}
330
3BD9
  0
XRECORD
  5
4459
102
{ACAD_REACTORS
330
4457
102
}
330
4457
100
AcDbXrecord
280
     1
340
3CD1
  0
XRECORD
  5
4458
102
{ACAD_REACTORS
330
4457
102
}
330
4457
100
AcDbXrecord
280
     1
340
3CD0
  0
DICTIONARYVAR
  5
4454
102
{ACAD_REACTORS
330
4453
102
}
330
4453
100
DictionaryVariables
280
     0
  1
1
  0
DICTIONARYVAR
  5
4455
102
{ACAD_REACTORS
330
4453
102
}
330
4453
100
DictionaryVariables
280
     0
  1

  0
DICTIONARY
  5
445E
330
3BDB
100
AcDbDictionary
280
     1
281
     1
  3
ACAD_XREC_ROUNDTRIP
360
445F
  0
DICTIONARY
  5
4460
330
3BDC
100
AcDbDictionary
280
     1
281
     1
  3
ACAD_XREC_ROUNDTRIP
360
4461
  0
XRECORD
  5
445F
102
{ACAD_REACTORS
330
445E
102
}
330
445E
100
AcDbXrecord
280
     1
102
SHADEPLOT
 70
     0
102
SHADEPLOTRESLEVEL
 70
     2
102
SHADEPLOTCUSTOMDPI
 70
   300
  0
XRECORD
  5
4461
102
{ACAD_REACTORS
330
4460
102
}
330
4460
100
AcDbXrecord
280
     1
102
SHADEPLOT
 70
     0
102
SHADEPLOTRESLEVEL
 70
     2
102
SHADEPLOTCUSTOMDPI
 70
   300
  0
ENDSEC
  0
EOF
