  0
SECTION
  2
HEADER
  9
$ACADVER
  1
AC1012
  9
$DWGCODEPAGE
  3
dos932
  9
$INSBASE
 10
0.0
 20
0.0
 30
0.0
  9
$EXTMIN
 10
10.05047808566086
 20
4.949376903717846
 30
0.0
  9
$EXTMAX
 10
806.2246110975902
 20
563.7825862828226
 30
0.0
  9
$LIMMIN
 10
0.0
 20
0.0
  9
$LIMMAX
 10
840.0
 20
594.0
  9
$ORTHOMODE
 70
     0
  9
$REGENMODE
 70
     1
  9
$FILLMODE
 70
     1
  9
$QTEXTMODE
 70
     0
  9
$MIRRTEXT
 70
     1
  9
$DRAGMODE
 70
     2
  9
$LTSCALE
 40
2.0
  9
$OSMODE
 70
   319
  9
$ATTMODE
 70
     1
  9
$TEXTSIZE
 40
5.0
  9
$TRACEWID
 40
1.0
  9
$TEXTSTYLE
  7
STANDARD
  9
$CLAYER
  8
CENTER_L
  9
$CELTYPE
  6
BYLAYER
  9
$CECOLOR
 62
   256
  9
$CELTSCALE
 40
1.0
  9
$DELOBJ
 70
     1
  9
$DISPSILH
 70
     0
  9
$DIMSCALE
 40
1.0
  9
$DIMASZ
 40
7.0
  9
$DIMEXO
 40
6.0
  9
$DIMDLI
 40
14.0
  9
$DIMRND
 40
0.0
  9
$DIMDLE
 40
0.0
  9
$DIMEXE
 40
3.0
  9
$DIMTP
 40
0.0
  9
$DIMTM
 40
0.0
  9
$DIMTXT
 40
6.0
  9
$DIMCEN
 40
150.0
  9
$DIMTSZ
 40
0.0
  9
$DIMTOL
 70
     0
  9
$DIMLIM
 70
     0
  9
$DIMTIH
 70
     0
  9
$DIMTOH
 70
     0
  9
$DIMSE1
 70
     0
  9
$DIMSE2
 70
     0
  9
$DIMTAD
 70
     3
  9
$DIMZIN
 70
     0
  9
$DIMBLK
  1

  9
$DIMASO
 70
     1
  9
$DIMSHO
 70
     1
  9
$DIMPOST
  1

  9
$DIMAPOST
  1

  9
$DIMALT
 70
     0
  9
$DIMALTD
 70
     2
  9
$DIMALTF
 40
25.4
  9
$DIMLFAC
 40
1.0
  9
$DIMTOFL
 70
     1
  9
$DIMTVP
 40
0.0
  9
$DIMTIX
 70
     0
  9
$DIMSOXD
 70
     0
  9
$DIMSAH
 70
     1
  9
$DIMBLK1
  1
OPEN
  9
$DIMBLK2
  1
OPEN
  9
$DIMSTYLE
  2
STANDARD
  9
$DIMCLRD
 70
   256
  9
$DIMCLRE
 70
   256
  9
$DIMCLRT
 70
   256
  9
$DIMTFAC
 40
1.0
  9
$DIMGAP
 40
2.0
  9
$DIMJUST
 70
     0
  9
$DIMSD1
 70
     0
  9
$DIMSD2
 70
     0
  9
$DIMTOLJ
 70
     1
  9
$DIMTZIN
 70
     0
  9
$DIMALTZ
 70
     0
  9
$DIMALTTZ
 70
     0
  9
$DIMFIT
 70
     3
  9
$DIMUPT
 70
     0
  9
$DIMUNIT
 70
     2
  9
$DIMDEC
 70
     0
  9
$DIMTDEC
 70
     0
  9
$DIMALTU
 70
     2
  9
$DIMALTTD
 70
     2
  9
$DIMTXSTY
  7
STANDARD
  9
$DIMAUNIT
 70
     0
  9
$LUNITS
 70
     2
  9
$LUPREC
 70
     4
  9
$SKETCHINC
 40
1.0
  9
$FILLETRAD
 40
20.0
  9
$AUNITS
 70
     0
  9
$AUPREC
 70
     0
  9
$MENU
  1
.
  9
$ELEVATION
 40
0.0
  9
$PELEVATION
 40
0.0
  9
$THICKNESS
 40
0.0
  9
$LIMCHECK
 70
     0
  9
$BLIPMODE
 70
     0
  9
$CHAMFERA
 40
20.0
  9
$CHAMFERB
 40
20.0
  9
$CHAMFERC
 40
40.0
  9
$CHAMFERD
 40
0.0
  9
$SKPOLY
 70
     0
  9
$TDCREATE
 40
2451187.619423379
  9
$TDUPDATE
 40
2452423.336541319
  9
$TDINDWG
 40
0.0067012731
  9
$TDUSRTIMER
 40
0.0067012731
  9
$USRTIMER
 70
     1
  9
$ANGBASE
 50
0.0
  9
$ANGDIR
 70
     0
  9
$PDMODE
 70
     0
  9
$PDSIZE
 40
0.0
  9
$PLINEWID
 40
0.0
  9
$COORDS
 70
     1
  9
$SPLFRAME
 70
     0
  9
$SPLINETYPE
 70
     6
  9
$SPLINESEGS
 70
     8
  9
$ATTDIA
 70
     0
  9
$ATTREQ
 70
     1
  9
$HANDLING
 70
 10241
  9
$HANDSEED
  5
2C9
  9
$SURFTAB1
 70
     6
  9
$SURFTAB2
 70
     6
  9
$SURFTYPE
 70
     6
  9
$SURFU
 70
     6
  9
$SURFV
 70
     6
  9
$UCSNAME
  2

  9
$UCSORG
 10
0.0
 20
0.0
 30
0.0
  9
$UCSXDIR
 10
1.0
 20
0.0
 30
0.0
  9
$UCSYDIR
 10
0.0
 20
1.0
 30
0.0
  9
$PUCSNAME
  2

  9
$PUCSORG
 10
0.0
 20
0.0
 30
0.0
  9
$PUCSXDIR
 10
1.0
 20
0.0
 30
0.0
  9
$PUCSYDIR
 10
0.0
 20
1.0
 30
0.0
  9
$USERI1
 70
     0
  9
$USERI2
 70
     0
  9
$USERI3
 70
     0
  9
$USERI4
 70
     0
  9
$USERI5
 70
     0
  9
$USERR1
 40
0.0
  9
$USERR2
 40
0.0
  9
$USERR3
 40
0.0
  9
$USERR4
 40
0.0
  9
$USERR5
 40
0.0
  9
$WORLDVIEW
 70
     1
  9
$SHADEDGE
 70
     3
  9
$SHADEDIF
 70
    70
  9
$TILEMODE
 70
     1
  9
$MAXACTVP
 70
    16
  9
$PINSBASE
 10
0.0
 20
0.0
 30
0.0
  9
$PLIMCHECK
 70
     0
  9
$PEXTMIN
 10
0.0
 20
0.0
 30
0.0
  9
$PEXTMAX
 10
420.0
 20
297.0
 30
0.0
  9
$PLIMMIN
 10
0.0
 20
0.0
  9
$PLIMMAX
 10
420.0
 20
297.0
  9
$UNITMODE
 70
     0
  9
$VISRETAIN
 70
     0
  9
$PLINEGEN
 70
     0
  9
$PSLTSCALE
 70
     1
  9
$TREEDEPTH
 70
  3020
  9
$PICKSTYLE
 70
     1
  9
$CMLSTYLE
  2
STANDARD
  9
$CMLJUST
 70
     0
  9
$CMLSCALE
 40
1.0
  9
$SAVEIMAGES
 70
     1
  0
ENDSEC
  0
SECTION
  2
CLASSES
  0
CLASS
  1
ACDBDICTIONARYWDFLT
  2
AcDbDictionaryWithDefault
  3
AutoCAD 2000
 90
    32768
280
     0
281
     0
  0
CLASS
  1
ACDBPLACEHOLDER
  2
AcDbPlaceHolder
  3
AutoCAD 2000
 90
    32768
280
     0
281
     0
  0
CLASS
  1
LAYOUT
  2
AcDbLayout
  3
AutoCAD 2000
 90
    32768
280
     0
281
     0
  0
CLASS
  1
LONG_TRANSACTION
  2
AcDbLongTransaction
  3
AutoCAD 2000
 90
    32768
280
     0
281
     0
  0
CLASS
  1
LWPOLYLINE
  2
AcDbPolyline
  3
AutoCAD 2000
 90
    32768
280
     0
281
     1
  0
CLASS
  1
HATCH
  2
AcDbHatch
  3
AutoCAD 2000
 90
    32768
280
     0
281
     1
  0
CLASS
  1
XRECORD
  2
AcDbXrecord
  3
AutoCAD 2000
 90
    32768
280
     0
281
     0
  0
CLASS
  1
LONG_TRANSACTION
  2
AcDbLongTransaction
  3
AutoCAD 2000
 90
    32768
280
     0
281
     0
  0
CLASS
  1
LWPOLYLINE
  2
AcDbPolyline
  3
AutoCAD 2000
 90
    32768
280
     0
281
     1
  0
CLASS
  1
HATCH
  2
AcDbHatch
  3
AutoCAD 2000
 90
    32768
280
     0
281
     1
  0
CLASS
  1
XRECORD
  2
AcDbXrecord
  3
AutoCAD 2000
 90
    32768
280
     0
281
     0
  0
ENDSEC
  0
SECTION
  2
TABLES
  0
TABLE
  2
VPORT
  5
8
330
0
100
AcDbSymbolTable
 70
     2
  0
VPORT
  5
2C6
330
8
100
AcDbSymbolTableRecord
100
AcDbViewportTableRecord
  2
*ACTIVE
 70
     0
 10
0.0
 20
0.0
 11
1.0
 21
1.0
 12
408.4619649057811
 22
296.1420361537463
 13
0.0
 23
0.0
 14
5.0
 24
5.0
 15
0.0
 25
0.0
 16
0.0
 26
0.0
 36
1.0
 17
0.0
 27
0.0
 37
0.0
 40
616.7921089038539
 41
1.709909909909909
 42
50.0
 43
0.0
 44
0.0
 50
0.0
 51
0.0
 71
     0
 72
   100
 73
     1
 74
     0
 75
     0
 76
     0
 77
     0
 78
     0
  0
ENDTAB
  0
TABLE
  2
LTYPE
  5
5
330
0
100
AcDbSymbolTable
 70
     4
  0
LTYPE
  5
14
330
5
100
AcDbSymbolTableRecord
100
AcDbLinetypeTableRecord
  2
BYBLOCK
 70
     0
  3

 72
    65
 73
     0
 40
0.0
  0
LTYPE
  5
15
330
5
100
AcDbSymbolTableRecord
100
AcDbLinetypeTableRecord
  2
BYLAYER
 70
     0
  3

 72
    65
 73
     0
 40
0.0
  0
LTYPE
  5
16
330
5
100
AcDbSymbolTableRecord
100
AcDbLinetypeTableRecord
  2
CONTINUOUS
 70
     0
  3
Solid line
 72
    65
 73
     0
 40
0.0
  0
LTYPE
  5
115
330
5
100
AcDbSymbolTableRecord
100
AcDbLinetypeTableRecord
  2
PHANTOM
 70
     0
  3
______  __  __  ______  __  __  ______  __  __ 
 72
    65
 73
     6
 40
2.5
 49
1.25
 74
     0
 49
-0.25
 74
     0
 49
0.25
 74
     0
 49
-0.25
 74
     0
 49
0.25
 74
     0
 49
-0.25
 74
     0
  0
LTYPE
  5
135
330
5
100
AcDbSymbolTableRecord
100
AcDbLinetypeTableRecord
  2
CENTER
 70
     0
  3
____ _ ____ _ ____ _ ____ _ ____ _ ____ _ ____ 
 72
    65
 73
     4
 40
2.0
 49
1.25
 74
     0
 49
-0.25
 74
     0
 49
0.25
 74
     0
 49
-0.25
 74
     0
  0
LTYPE
  5
136
330
5
100
AcDbSymbolTableRecord
100
AcDbLinetypeTableRecord
  2
DASHED
 70
     0
  3
__ __ __ __ __ __ __ __ __ __ __ __ __ __ __ __
 72
    65
 73
     2
 40
0.75
 49
0.5
 74
     0
 49
-0.25
 74
     0
  0
ENDTAB
  0
TABLE
  2
LAYER
  5
2
330
0
100
AcDbSymbolTable
 70
     8
  0
LAYER
  5
F
330
2
100
AcDbSymbolTableRecord
100
AcDbLayerTableRecord
  2
0
 70
     0
 62
     7
  6
CONTINUOUS
  0
LAYER
  5
62
330
2
100
AcDbSymbolTableRecord
100
AcDbLayerTableRecord
  2
VIEWPORT
 70
     0
 62
     7
  6
CONTINUOUS
  0
LAYER
  5
65
330
2
100
AcDbSymbolTableRecord
100
AcDbLayerTableRecord
  2
ZUWAKU
 70
     0
 62
     7
  6
CONTINUOUS
  0
LAYER
  5
14D
330
2
100
AcDbSymbolTableRecord
100
AcDbLayerTableRecord
  2
SEIHIN
 70
     0
 62
     3
  6
CONTINUOUS
  0
LAYER
  5
14E
330
2
100
AcDbSymbolTableRecord
100
AcDbLayerTableRecord
  2
CENTER_L
 70
     0
 62
     1
  6
CENTER
  0
LAYER
  5
14F
330
2
100
AcDbSymbolTableRecord
100
AcDbLayerTableRecord
  2
NOKITOI
 70
     0
 62
     8
  6
PHANTOM
  0
LAYER
  5
1D3
330
2
100
AcDbSymbolTableRecord
100
AcDbLayerTableRecord
  2
SUNPOU
 70
     0
 62
     4
  6
CONTINUOUS
  0
LAYER
  5
1DC
330
2
100
AcDbSymbolTableRecord
100
AcDbLayerTableRecord
  2
DEFPOINTS
 70
     0
 62
     7
  6
CONTINUOUS
  0
ENDTAB
  0
TABLE
  2
STYLE
  5
3
330
0
100
AcDbSymbolTable
 70
     1
  0
STYLE
  5
10
330
3
100
AcDbSymbolTableRecord
100
AcDbTextStyleTableRecord
  2
STANDARD
 70
     0
 40
0.0
 41
1.0
 50
0.0
 71
     0
 42
5.0
  3
TXT
  4
bigfont.shx
  0
ENDTAB
  0
TABLE
  2
VIEW
  5
6
330
0
100
AcDbSymbolTable
 70
     0
  0
ENDTAB
  0
TABLE
  2
UCS
  5
7
330
0
100
AcDbSymbolTable
 70
     0
  0
ENDTAB
  0
TABLE
  2
APPID
  5
9
330
0
100
AcDbSymbolTable
 70
     1
  0
APPID
  5
11
330
9
100
AcDbSymbolTableRecord
100
AcDbRegAppTableRecord
  2
ACAD
 70
     0
  0
ENDTAB
  0
TABLE
  2
DIMSTYLE
  5
A
330
0
100
AcDbSymbolTable
 70
     8
  0
DIMSTYLE
105
1D
102
{ACAD_REACTORS
330
1E1
330
1EE
330
1FD
330
24E
102
}
330
A
100
AcDbSymbolTableRecord
100
AcDbDimStyleTableRecord
  2
STANDARD
 70
     0
  3

  4

  5

  6

  7

 40
1.0
 41
0.18
 42
0.0625
 43
0.38
 44
0.18
 45
0.0
 46
0.0
 47
0.0
 48
0.0
140
0.18
141
0.09
142
0.0
143
25.4
144
1.0
145
0.0
146
1.0
147
0.09
 71
     0
 72
     0
 73
     1
 74
     1
 75
     0
 76
     0
 77
     0
 78
     0
170
     0
171
     2
172
     0
173
     0
174
     0
175
     0
176
     0
177
     0
178
     0
270
     2
271
     4
272
     4
273
     2
274
     2
340
10
275
     0
280
     0
281
     0
282
     0
283
     1
284
     0
285
     0
286
     0
287
     3
288
     0
  0
DIMSTYLE
105
24
330
A
100
AcDbSymbolTableRecord
100
AcDbDimStyleTableRecord
  2
ISO-25
 70
     0
  3

  4

  5

  6

  7

 40
1.0
 41
2.5
 42
0.625
 43
3.75
 44
1.25
 45
0.0
 46
0.0
 47
0.0
 48
0.0
140
2.5
141
2.5
142
0.0
143
0.0394
144
1.0
145
1.0
146
1.0
147
0.625
 71
     0
 72
     0
 73
     1
 74
     0
 75
     0
 76
     0
 77
     1
 78
     8
170
     0
171
     2
172
     1
173
     0
174
     0
175
     0
176
     0
177
     0
178
     0
270
     2
271
     4
272
     4
273
     2
274
     2
340
10
275
     0
280
     0
281
     0
282
     0
283
     1
284
     0
285
     0
286
     0
287
     3
288
     0
  0
DIMSTYLE
105
25
330
A
100
AcDbSymbolTableRecord
100
AcDbDimStyleTableRecord
  2
ISO-35
 70
     0
  3

  4

  5

  6

  7

 40
1.0
 41
3.5
 42
0.875
 43
5.25
 44
1.75
 45
0.0
 46
0.0
 47
0.0
 48
0.0
140
3.5
141
3.5
142
0.0
143
0.0394
144
1.0
145
1.399999999999999
146
1.0
147
0.875
 71
     0
 72
     0
 73
     1
 74
     0
 75
     0
 76
     0
 77
     1
 78
     8
170
     0
171
     2
172
     1
173
     0
174
     0
175
     0
176
     0
177
     0
178
     0
270
     2
271
     4
272
     4
273
     2
274
     2
340
10
275
     0
280
     0
281
     0
282
     0
283
     1
284
     0
285
     0
286
     0
287
     3
288
     0
  0
DIMSTYLE
105
26
330
A
100
AcDbSymbolTableRecord
100
AcDbDimStyleTableRecord
  2
ISO-5
 70
     0
  3

  4

  5

  6

  7

 40
1.0
 41
5.0
 42
1.25
 43
7.5
 44
2.5
 45
0.0
 46
0.0
 47
0.0
 48
0.0
140
5.0
141
5.0
142
0.0
143
0.0394
144
1.0
145
2.0
146
1.0
147
1.25
 71
     0
 72
     0
 73
     1
 74
     0
 75
     0
 76
     0
 77
     1
 78
     8
170
     0
171
     2
172
     1
173
     0
174
     0
175
     0
176
     0
177
     0
178
     0
270
     2
271
     4
272
     4
273
     2
274
     2
340
10
275
     0
280
     0
281
     0
282
     0
283
     1
284
     0
285
     0
286
     0
287
     3
288
     0
  0
DIMSTYLE
105
27
330
A
100
AcDbSymbolTableRecord
100
AcDbDimStyleTableRecord
  2
ISO-7
 70
     0
  3

  4

  5

  6

  7

 40
1.0
 41
7.0
 42
1.75
 43
10.5
 44
3.5
 45
0.0
 46
0.0
 47
0.0
 48
0.0
140
7.0
141
7.0
142
0.0
143
0.0394
144
1.0
145
2.799999999999999
146
1.0
147
1.75
 71
     0
 72
     0
 73
     1
 74
     0
 75
     0
 76
     0
 77
     1
 78
     8
170
     0
171
     2
172
     1
173
     0
174
     0
175
     0
176
     0
177
     0
178
     0
270
     2
271
     4
272
     4
273
     2
274
     2
340
10
275
     0
280
     0
281
     0
282
     0
283
     1
284
     0
285
     0
286
     0
287
     3
288
     0
  0
DIMSTYLE
105
28
330
A
100
AcDbSymbolTableRecord
100
AcDbDimStyleTableRecord
  2
ISO1
 70
     0
  3

  4

  5

  6

  7

 40
1.0
 41
10.0
 42
2.5
 43
15.0
 44
5.0
 45
0.0
 46
0.0
 47
0.0
 48
0.0
140
10.0
141
10.0
142
0.0
143
0.0394
144
1.0
145
4.0
146
1.0
147
2.5
 71
     0
 72
     0
 73
     1
 74
     0
 75
     0
 76
     0
 77
     1
 78
     8
170
     0
171
     2
172
     1
173
     0
174
     0
175
     0
176
     0
177
     0
178
     0
270
     2
271
     4
272
     4
273
     2
274
     2
340
10
275
     0
280
     0
281
     0
282
     0
283
     1
284
     0
285
     0
286
     0
287
     3
288
     0
  0
DIMSTYLE
105
29
330
A
100
AcDbSymbolTableRecord
100
AcDbDimStyleTableRecord
  2
ISO1-4
 70
     0
  3

  4

  5

  6

  7

 40
1.0
 41
14.0
 42
3.5
 43
21.0
 44
7.0
 45
0.0
 46
0.0
 47
0.0
 48
0.0
140
14.0
141
14.0
142
0.0
143
0.0394
144
1.0
145
5.599999999999999
146
1.0
147
3.5
 71
     0
 72
     0
 73
     1
 74
     0
 75
     0
 76
     0
 77
     1
 78
     8
170
     0
171
     2
172
     1
173
     0
174
     0
175
     0
176
     0
177
     0
178
     0
270
     2
271
     4
272
     4
273
     2
274
     2
340
10
275
     0
280
     0
281
     0
282
     0
283
     1
284
     0
285
     0
286
     0
287
     3
288
     0
  0
DIMSTYLE
105
2A
330
A
100
AcDbSymbolTableRecord
100
AcDbDimStyleTableRecord
  2
ISO2
 70
     0
  3

  4

  5

  6

  7

 40
1.0
 41
20.0
 42
5.0
 43
30.0
 44
10.0
 45
0.0
 46
0.0
 47
0.0
 48
0.0
140
20.0
141
20.0
142
0.0
143
0.0394
144
1.0
145
8.0
146
1.0
147
5.0
 71
     0
 72
     0
 73
     1
 74
     0
 75
     0
 76
     0
 77
     1
 78
     8
170
     0
171
     2
172
     1
173
     0
174
     0
175
     0
176
     0
177
     0
178
     0
270
     2
271
     4
272
     4
273
     2
274
     2
340
10
275
     0
280
     0
281
     0
282
     0
283
     1
284
     0
285
     0
286
     0
287
     3
288
     0
  0
ENDTAB
  0
TABLE
  2
BLOCK_RECORD
  5
1
330
0
100
AcDbSymbolTable
 70
     9
  0
BLOCK_RECORD
  5
1A
102
{ACAD_XDICTIONARY
360
2B8
102
}
330
1
100
AcDbSymbolTableRecord
100
AcDbBlockTableRecord
  2
*MODEL_SPACE
  0
BLOCK_RECORD
  5
17
102
{ACAD_XDICTIONARY
360
2B6
102
}
330
1
100
AcDbSymbolTableRecord
100
AcDbBlockTableRecord
  2
*PAPER_SPACE
  0
BLOCK_RECORD
  5
6D
330
1
100
AcDbSymbolTableRecord
100
AcDbBlockTableRecord
  2
_OPEN
  0
BLOCK_RECORD
  5
77
330
1
100
AcDbSymbolTableRecord
100
AcDbBlockTableRecord
  2
A$CD2F0
  0
BLOCK_RECORD
  5
F9
330
1
100
AcDbSymbolTableRecord
100
AcDbBlockTableRecord
  2
A$C3234
  0
BLOCK_RECORD
  5
143
330
1
100
AcDbSymbolTableRecord
100
AcDbBlockTableRecord
  2
A$CF3A4
  0
BLOCK_RECORD
  5
150
330
1
100
AcDbSymbolTableRecord
100
AcDbBlockTableRecord
  2
A$C3321
  0
BLOCK_RECORD
  5
1D4
330
1
100
AcDbSymbolTableRecord
100
AcDbBlockTableRecord
  2
*D5
  0
BLOCK_RECORD
  5
1E2
330
1
100
AcDbSymbolTableRecord
100
AcDbBlockTableRecord
  2
*D6
  0
BLOCK_RECORD
  5
1EF
330
1
100
AcDbSymbolTableRecord
100
AcDbBlockTableRecord
  2
*D7
  0
BLOCK_RECORD
  5
240
330
1
100
AcDbSymbolTableRecord
100
AcDbBlockTableRecord
  2
*D8
  0
ENDTAB
  0
ENDSEC
  0
SECTION
  2
BLOCKS
  0
BLOCK
  5
1B
330
1A
100
AcDbEntity
  8
0
100
AcDbBlockBegin
  2
*MODEL_SPACE
 70
     0
 10
0.0
 20
0.0
 30
0.0
  3
*MODEL_SPACE
  1

  0
ENDBLK
  5
1C
330
1A
100
AcDbEntity
  8
0
100
AcDbBlockEnd
  0
BLOCK
  5
18
330
17
100
AcDbEntity
 67
     1
  8
0
100
AcDbBlockBegin
  2
*PAPER_SPACE
 70
     0
 10
0.0
 20
0.0
 30
0.0
  3
*PAPER_SPACE
  1

  0
ENDBLK
  5
19
330
17
100
AcDbEntity
 67
     1
  8
0
100
AcDbBlockEnd
  0
BLOCK
  5
6E
330
6D
100
AcDbEntity
  8
0
100
AcDbBlockBegin
  2
_OPEN
 70
     0
 10
0.0
 20
0.0
 30
0.0
  3
_OPEN
  1

  0
LINE
  5
6F
330
6D
100
AcDbEntity
  8
0
  6
BYBLOCK
 62
     0
100
AcDbLine
 10
-1.0
 20
0.1666666666666666
 30
0.0
 11
0.0
 21
0.0
 31
0.0
  0
LINE
  5
70
330
6D
100
AcDbEntity
  8
0
  6
BYBLOCK
 62
     0
100
AcDbLine
 10
0.0
 20
0.0
 30
0.0
 11
-1.0
 21
-0.1666666666666666
 31
0.0
  0
LINE
  5
71
330
6D
100
AcDbEntity
  8
0
  6
BYBLOCK
 62
     0
100
AcDbLine
 10
0.0
 20
0.0
 30
0.0
 11
-1.0
 21
0.0
 31
0.0
  0
ENDBLK
  5
72
330
6D
100
AcDbEntity
  8
0
100
AcDbBlockEnd
  0
BLOCK
  5
91
330
77
100
AcDbEntity
  8
0
100
AcDbBlockBegin
  2
A$CD2F0
 70
     0
 10
0.0
 20
0.0
 30
0.0
  3
A$CD2F0
  1

  0
LINE
  5
78
330
77
100
AcDbEntity
  8
ZUWAKU
100
AcDbLine
 10
2.716639021166884
 20
587.7788473616724
 30
0.0
 11
807.7166390211669
 21
587.7788473616724
 31
0.0
  0
TEXT
  5
79
330
77
100
AcDbEntity
  8
ZUWAKU
100
AcDbText
 10
389.5436650117145
 20
15.37079244302776
 30
0.0
 40
9.0
  1
ｻ ｲ ｽﾞ
100
AcDbText
  0
LINE
  5
7A
330
77
100
AcDbEntity
  8
ZUWAKU
 62
     4
100
AcDbLine
 10
2.716639021166884
 20
25.77884736167243
 30
0.0
 11
807.7166390211669
 21
25.77884736167243
 31
0.0
  0
LINE
  5
7B
330
77
100
AcDbEntity
  8
ZUWAKU
100
AcDbLine
 10
2.716639021166884
 20
13.77884736167243
 30
0.0
 11
807.7166390211669
 21
13.77884736167243
 31
0.0
  0
LINE
  5
7C
330
77
100
AcDbEntity
  8
ZUWAKU
100
AcDbLine
 10
2.716639021166884
 20
13.77884736167243
 30
0.0
 11
2.716639021166884
 21
587.7788473616724
 31
0.0
  0
TEXT
  5
7D
330
77
100
AcDbEntity
  8
ZUWAKU
100
AcDbText
 10
8.593452493384686
 20
15.61350796217425
 30
0.0
 40
9.0
  1
品 名
100
AcDbText
  0
LINE
  5
7E
330
77
100
AcDbEntity
  8
ZUWAKU
 62
     4
100
AcDbLine
 10
37.71663902116688
 20
13.77884736167243
 30
0.0
 11
37.71663902116688
 21
25.77884736167243
 31
0.0
  0
TEXT
  5
7F
330
77
100
AcDbEntity
  8
ZUWAKU
100
AcDbText
 10
47.44986737631771
 20
15.90359098434783
 30
0.0
 40
9.0
  1
のきとい ｱｰﾊﾞﾝﾄｯﾌﾟ 
100
AcDbText
  0
LINE
  5
80
330
77
100
AcDbEntity
  8
ZUWAKU
100
AcDbLine
 10
382.7166390211668
 20
13.77884736167243
 30
0.0
 11
382.7166390211668
 21
25.77884736167243
 31
0.0
  0
LINE
  5
81
330
77
100
AcDbEntity
  8
ZUWAKU
100
AcDbLine
 10
807.7166390211669
 20
13.77884736167243
 30
0.0
 11
807.7166390211669
 21
587.7788473616724
 31
0.0
  0
TEXT
  5
82
330
77
100
AcDbEntity
  8
ZUWAKU
100
AcDbText
 10
670.1887912605083
 20
15.17336288424258
 30
0.0
 40
9.0
  1
C
100
AcDbText
  0
TEXT
  5
83
330
77
100
AcDbEntity
  8
ZUWAKU
100
AcDbText
 10
432.0739029613879
 20
15.48841710123315
 30
0.0
 40
9.0
  1
M120
100
AcDbText
  0
LINE
  5
84
330
77
100
AcDbEntity
  8
ZUWAKU
 62
     4
100
AcDbLine
 10
422.7166390211668
 20
13.77884736167243
 30
0.0
 11
422.7166390211668
 21
25.77884736167243
 31
0.0
  0
LINE
  5
85
330
77
100
AcDbEntity
  8
ZUWAKU
 62
     4
100
AcDbLine
 10
663.1652327402143
 20
25.77884736167243
 30
0.0
 11
663.1652327402143
 21
13.77884736167243
 31
0.0
  0
LINE
  5
86
330
77
100
AcDbEntity
  8
ZUWAKU
100
AcDbLine
 10
623.1652327402144
 20
25.77884736167243
 30
0.0
 11
623.1652327402144
 21
13.77884736167243
 31
0.0
  0
TEXT
  5
87
330
77
100
AcDbEntity
  8
ZUWAKU
100
AcDbText
 10
629.9252451662518
 20
15.2950244885219
 30
0.0
 40
9.0
  1
品 番
100
AcDbText
  0
TEXT
  5
88
330
77
100
AcDbEntity
  8
ZUWAKU
 62
     6
 48
10.0
100
AcDbText
 10
800.9631467752434
 20
7.71951220215368
 30
0.0
 40
5.0
  1
A1
100
AcDbText
  0
TEXT
  5
89
330
77
100
AcDbEntity
  8
ZUWAKU
100
AcDbText
 10
796.6138297618425
 20
15.28063247627733
 30
0.0
 40
9.0
  1
1
100
AcDbText
  0
TEXT
  5
8A
330
77
100
AcDbEntity
  8
ZUWAKU
100
AcDbText
 10
778.8359128979406
 20
15.43609136363829
 30
0.0
 40
9.0
  1
1
100
AcDbText
  0
LINE
  5
8B
330
77
100
AcDbEntity
  8
ZUWAKU
 62
     4
100
AcDbLine
 10
771.2087568354572
 20
25.77884736167243
 30
0.0
 11
771.2087568354572
 21
13.77884736167243
 31
0.0
  0
LINE
  5
8C
330
77
100
AcDbEntity
  8
ZUWAKU
100
AcDbLine
 10
728.1652327402143
 20
25.77884736167243
 30
0.0
 11
728.1652327402143
 21
13.77884736167243
 31
0.0
  0
TEXT
  5
8D
330
77
100
AcDbEntity
  8
ZUWAKU
100
AcDbText
 10
737.1388242938436
 20
15.2797855422848
 30
0.0
 40
9.0
  1
尺 度
100
AcDbText
  0
TEXT
  5
8E
330
77
100
AcDbEntity
  8
ZUWAKU
 62
     6
 48
10.0
100
AcDbText
 10
688.1763133345199
 20
7.208902565261325
 30
0.0
 40
5.5
  1
積水化学工業株式会社
100
AcDbText
  0
TEXT
  5
8F
330
77
100
AcDbEntity
  8
ZUWAKU
 62
     6
 48
10.0
100
AcDbText
 10
765.665558220023
 20
7.208904091738133
 30
0.0
 40
5.5
  1
建材
100
AcDbText
  0
LINE
  5
90
330
77
100
AcDbEntity
  8
ZUWAKU
 62
     4
100
AcDbLine
 10
791.6275208411068
 20
22.18080549807177
 30
0.0
 11
787.3993026810478
 21
16.29531849005525
 31
0.0
  0
ENDBLK
  5
92
330
77
100
AcDbEntity
  8
0
100
AcDbBlockEnd
  0
BLOCK
  5
110
330
F9
100
AcDbEntity
  8
0
100
AcDbBlockBegin
  2
A$C3234
 70
     0
 10
0.0
 20
0.0
 30
0.0
  3
A$C3234
  1

  0
TEXT
  5
FA
330
F9
100
AcDbEntity
  8
ZUWAKU
 62
     7
 48
10.0
100
AcDbText
 10
392.4519892862729
 20
1.439753640835363
 30
0.0
 40
3.0
  1
A3
100
AcDbText
  0
LINE
  5
FB
330
F9
100
AcDbEntity
  8
ZUWAKU
 62
     7
 48
10.0
100
AcDbLine
 10
0.9445022657710637
 20
11.26890978878992
 30
0.0
 11
398.944502265771
 21
11.26890978878986
 31
0.0
  0
LINE
  5
FC
330
F9
100
AcDbEntity
  8
ZUWAKU
  6
CONTINUOUS
 62
     7
100
AcDbLine
 10
398.944502265771
 20
280.2689097887899
 30
0.0
 11
0.9445022657710637
 21
280.2689097887899
 31
0.0
  0
LINE
  5
FD
330
F9
100
AcDbEntity
  8
ZUWAKU
  6
CONTINUOUS
 62
     7
100
AcDbLine
 10
398.944502265771
 20
5.268909788789926
 30
0.0
 11
0.9445022657710637
 21
5.268909788789926
 31
0.0
  0
LINE
  5
FE
330
F9
100
AcDbEntity
  8
ZUWAKU
  6
CONTINUOUS
 62
     7
100
AcDbLine
 10
0.9445022657710637
 20
280.2689097887899
 30
0.0
 11
0.9445022657710637
 21
5.268909788789926
 31
0.0
  0
LINE
  5
FF
330
F9
100
AcDbEntity
  8
ZUWAKU
 62
     7
 48
10.0
100
AcDbLine
 10
18.19825083867982
 20
5.268909788789926
 30
0.0
 11
18.19825083867982
 21
11.26890978878992
 31
0.0
  0
TEXT
  5
100
330
F9
100
AcDbEntity
  8
ZUWAKU
 62
     7
100
AcDbText
 10
3.947645978845287
 20
6.139087966400609
 30
0.0
 40
4.0
  1
品 種
100
AcDbText
  0
LINE
  5
101
330
F9
100
AcDbEntity
  8
ZUWAKU
 62
     7
 48
10.0
100
AcDbLine
 10
133.9706825763533
 20
5.268909788789926
 30
0.0
 11
133.9706825763533
 21
11.2689097887899
 31
0.0
  0
LINE
  5
102
330
F9
100
AcDbEntity
  8
ZUWAKU
 62
     7
 48
10.0
100
AcDbLine
 10
100.6761895442148
 20
5.268909788789926
 30
0.0
 11
100.6761895442148
 21
11.26890978878991
 31
0.0
  0
TEXT
  5
103
330
F9
100
AcDbEntity
  8
ZUWAKU
 62
     7
100
AcDbText
 10
137.0758347186445
 20
6.198825149640526
 30
0.0
 40
4.0
  1
B
100
AcDbText
  0
TEXT
  5
104
330
F9
100
AcDbEntity
  8
ZUWAKU
 62
     7
100
AcDbText
 10
103.6473050824784
 20
6.469407223890868
 30
0.0
 40
4.0
  1
品名・ｻ ｲ ｽﾞ
100
AcDbText
  0
TEXT
  5
105
330
F9
100
AcDbEntity
  8
ZUWAKU
 62
     7
100
AcDbText
 10
21.09523233819493
 20
6.429147595577376
 30
0.0
 40
4.0
  1
A
100
AcDbText
  0
LINE
  5
106
330
F9
100
AcDbEntity
  8
ZUWAKU
 62
     7
 48
10.0
100
AcDbLine
 10
380.2808172195803
 20
5.268909788789788
 30
0.0
 11
380.2808172195803
 21
11.26890978878987
 31
0.0
  0
LINE
  5
107
330
F9
100
AcDbEntity
  8
ZUWAKU
 62
     7
 48
10.0
100
AcDbLine
 10
362.825213341788
 20
5.268909788789812
 30
0.0
 11
362.8252133417879
 21
11.26890978878987
 31
0.0
  0
TEXT
  5
108
330
F9
100
AcDbEntity
  8
ZUWAKU
 62
     7
100
AcDbText
 10
365.7670447216169
 20
5.998755426432865
 30
0.0
 40
4.0
  1
尺 度
100
AcDbText
  0
TEXT
  5
109
330
F9
100
AcDbEntity
  8
ZUWAKU
 62
     7
100
AcDbText
 10
385.787994739102
 20
6.15506124778625
 30
0.0
 40
4.0
  1
1/1
100
AcDbText
  0
TEXT
  5
10A
330
F9
100
AcDbEntity
  8
ZUWAKU
 62
     7
100
AcDbText
 10
323.0458499068796
 20
6.329056570036193
 30
0.0
 40
4.0
  1
C
100
AcDbText
  0
TEXT
  5
10B
330
F9
100
AcDbEntity
  8
ZUWAKU
 62
     7
100
AcDbText
 10
306.0874276420948
 20
6.203571194591752
 30
0.0
 40
4.0
  1
品 番
100
AcDbText
  0
LINE
  5
10C
330
F9
100
AcDbEntity
  8
ZUWAKU
 62
     7
 48
10.0
100
AcDbLine
 10
303.086814632647
 20
5.268909788789763
 30
0.0
 11
303.086814632647
 21
11.26890978878988
 31
0.0
  0
LINE
  5
10D
330
F9
100
AcDbEntity
  8
ZUWAKU
 62
     7
 48
10.0
100
AcDbLine
 10
320.2996425914917
 20
5.268909788789763
 30
0.0
 11
320.2996425914917
 21
11.26890978878988
 31
0.0
  0
TEXT
  5
10E
330
F9
100
AcDbEntity
  8
ZUWAKU
 62
     7
 48
10.0
100
AcDbText
 10
339.955797325234
 20
1.522762181566861
 30
0.0
 40
3.0
  1
積水化学工業株式会社  建材
100
AcDbText
  0
LINE
  5
10F
330
F9
100
AcDbEntity
  8
ZUWAKU
  6
CONTINUOUS
 62
     7
100
AcDbLine
 10
398.944502265771
 20
280.2689097887899
 30
0.0
 11
398.944502265771
 21
5.268909788789926
 31
0.0
  0
ENDBLK
  5
111
330
F9
100
AcDbEntity
  8
0
100
AcDbBlockEnd
  0
BLOCK
  5
14B
330
143
100
AcDbEntity
  8
0
100
AcDbBlockBegin
  2
A$CF3A4
 70
     0
 10
0.0
 20
0.0
 30
0.0
  3
A$CF3A4
  1

  0
ARC
  5
144
330
143
100
AcDbEntity
  8
NOKITOI
  6
PHANTOM
 62
     8
 48
5.0
100
AcDbCircle
 10
80.59495796045997
 20
74.06292766590204
 30
0.0
 40
72.49999834682658
100
AcDbArc
 50
183.3350749120032
 51
356.6646084370099
  0
ARC
  5
145
330
143
100
AcDbEntity
  8
NOKITOI
  6
PHANTOM
 62
     8
 48
5.0
100
AcDbCircle
 10
80.59498869216401
 20
74.06292766063646
 30
0.0
 40
73.99994430337933
100
AcDbArc
 50
186.1494207213893
 51
353.8362501063849
  0
LINE
  5
146
330
143
100
AcDbEntity
  8
NOKITOI
  6
PHANTOM
 62
     8
 48
5.0
100
AcDbLine
 10
80.58573532347907
 20
0.0629839358037288
 30
0.0
 11
80.59475762113123
 21
1.562929319352249
 31
0.0
  0
CIRCLE
  5
147
330
143
100
AcDbEntity
  8
NOKITOI
  6
PHANTOM
 62
     8
 48
5.0
100
AcDbCircle
 10
4.294946305132157
 20
69.06322766593419
 30
0.0
 40
2.5
  0
ARC
  5
148
330
143
100
AcDbEntity
  8
NOKITOI
  6
PHANTOM
 62
     8
 48
5.0
100
AcDbCircle
 10
4.294904561265127
 20
69.06309830761043
 30
0.0
 40
4.000032157958927
100
AcDbArc
 50
11.27427064813672
 51
312.959400646181
  0
ARC
  5
149
330
143
100
AcDbEntity
  8
NOKITOI
  6
PHANTOM
 62
     8
 48
5.0
100
AcDbCircle
 10
156.8949444769214
 20
69.06293371431357
 30
0.0
 40
4.00001461247552
100
AcDbArc
 50
228.8355765005938
 51
168.7222042388204
  0
CIRCLE
  5
14A
330
143
100
AcDbEntity
  8
NOKITOI
  6
PHANTOM
 62
     8
 48
5.0
100
AcDbCircle
 10
156.8949463051321
 20
69.06292766593421
 30
0.0
 40
2.5
  0
ENDBLK
  5
14C
330
143
100
AcDbEntity
  8
0
100
AcDbBlockEnd
  0
BLOCK
  5
18F
330
150
100
AcDbEntity
  8
0
100
AcDbBlockBegin
  2
A$C3321
 70
     0
 10
0.0
 20
0.0
 30
0.0
  3
A$C3321
  1

  0
INSERT
  5
151
330
150
100
AcDbEntity
  8
SEIHIN
100
AcDbBlockReference
  2
A$CF3A4
 10
145.9784522947827
 20
217.4190946215877
 30
0.0
  0
ARC
  5
152
330
150
100
AcDbEntity
  8
SEIHIN
  6
CONTINUOUS
 62
     3
 48
16.0
100
AcDbCircle
 10
150.2638876182616
 20
285.382078557436
 30
0.0
 40
4.399999999999991
100
AcDbArc
 50
179.9999999999998
 51
269.9999999999997
  0
ARC
  5
153
330
150
100
AcDbEntity
  8
SEIHIN
  6
CONTINUOUS
 62
     3
 48
16.0
100
AcDbCircle
 10
150.2638876182617
 20
285.382078557436
 30
0.0
 40
5.899999999999934
100
AcDbArc
 50
179.9999999999993
 51
269.9999999999993
  0
LINE
  5
154
330
150
100
AcDbEntity
  8
CENTER_L
  6
CENTER
 62
     1
 48
5.0
100
AcDbLine
 10
226.5641876182618
 20
200.773578557436
 30
0.0
 11
226.5641876182618
 21
299.143378557436
 31
0.0
  0
ARC
  5
155
330
150
100
AcDbEntity
  8
SEIHIN
  6
CONTINUOUS
 62
     3
 48
16.0
100
AcDbCircle
 10
302.8645876182618
 20
285.382078557436
 30
0.0
 40
5.900000000000019
100
AcDbArc
 50
270.0
 51
359.9999999999998
  0
ARC
  5
156
330
150
100
AcDbEntity
  8
SEIHIN
  6
CONTINUOUS
 62
     3
 48
16.0
100
AcDbCircle
 10
302.8645876182618
 20
285.382078557436
 30
0.0
 40
4.400000000000019
100
AcDbArc
 50
270.0
 51
359.9999999999997
  0
TEXT
  5
157
330
150
100
AcDbEntity
  8
ZUWAKU
 62
     7
100
AcDbText
 10
6.602370720587373
 20
3.104169389134796
 30
0.0
 40
8.0
  1
丸トップ　のきとい
100
AcDbText
  0
LINE
  5
158
330
150
100
AcDbEntity
  8
ZUWAKU
 62
     7
 48
10.0
100
AcDbLine
 10
0.8084077215571596
 20
0.7836937755598968
 30
0.0
 11
0.8084077215571667
 21
12.7836937755599
 31
0.0
  0
TEXT
  5
159
330
150
100
AcDbEntity
  8
ZUWAKU
 62
     7
100
AcDbText
 10
238.5635754814866
 20
2.643524497261097
 30
0.0
 40
8.0
  1
止り　１５０
100
AcDbText
  0
TEXT
  5
15A
330
150
100
AcDbEntity
  8
ZUWAKU
 62
     7
100
AcDbText
 10
171.7065162091544
 20
3.184688645761781
 30
0.0
 40
8.0
  1
品名・ｻ ｲ ｽﾞ
100
AcDbText
  0
LINE
  5
15B
330
150
100
AcDbEntity
  8
ZUWAKU
 62
     7
 48
10.0
100
AcDbLine
 10
165.7642851326272
 20
0.7836937755598968
 30
0.0
 11
165.7642851326272
 21
12.78369377555987
 31
0.0
  0
LINE
  5
15C
330
150
100
AcDbEntity
  8
ZUWAKU
 62
     7
 48
10.0
100
AcDbLine
 10
232.3532711969042
 20
0.7836937755598968
 30
0.0
 11
232.3532711969042
 21
12.78369377555985
 31
0.0
  0
ARC
  5
15D
330
150
100
AcDbEntity
  8
SEIHIN
  6
CONTINUOUS
 62
     3
 48
16.0
100
AcDbCircle
 10
226.564205073897
 20
291.4820934106881
 30
0.0
 40
75.50001485334341
100
AcDbArc
 50
269.9999108647568
 51
350.7899421391285
  0
ARC
  5
15E
330
150
100
AcDbEntity
  8
SEIHIN
  6
CONTINUOUS
 62
     3
 48
16.0
100
AcDbCircle
 10
226.5641705863281
 20
291.482063810294
 30
0.0
 40
73.99998525290448
100
AcDbArc
 50
269.9999357605272
 51
351.7755563862692
  0
ARC
  5
15F
330
150
100
AcDbEntity
  8
SEIHIN
  6
CONTINUOUS
 62
     3
 48
16.0
100
AcDbCircle
 10
226.5642889721176
 20
291.4820774054144
 30
0.0
 40
75.49999884804645
100
AcDbArc
 50
189.2098937664268
 51
269.9999230841289
  0
ARC
  5
160
330
150
100
AcDbEntity
  8
SEIHIN
  6
CONTINUOUS
 62
     3
 48
16.0
100
AcDbCircle
 10
226.5642640189463
 20
291.4820989910771
 30
0.0
 40
74.00002043368058
100
AcDbArc
 50
188.2243107364391
 51
269.9999408454652
  0
ARC
  5
161
330
150
100
AcDbEntity
  8
SEIHIN
  6
CONTINUOUS
 62
     3
 48
16.0
100
AcDbCircle
 10
151.9388808313115
 20
279.3820843327695
 30
0.0
 40
0.0999942248967579
100
AcDbArc
 50
9.204080193140733
 51
89.99611113942462
  0
ARC
  5
162
330
150
100
AcDbEntity
  8
SEIHIN
  6
CONTINUOUS
 62
     3
 48
16.0
100
AcDbCircle
 10
153.2263463126104
 20
280.8821143202258
 30
0.0
 40
0.0999642457440711
100
AcDbArc
 50
8.203731299795643
 51
89.97632513964822
  0
LINE
  5
163
330
150
100
AcDbEntity
  8
SEIHIN
  6
CONTINUOUS
 62
     3
 48
16.0
100
AcDbLine
 10
150.2638876182616
 20
280.9820785574359
 30
0.0
 11
153.2263876182618
 21
280.9820785574359
 31
0.0
  0
LINE
  5
164
330
150
100
AcDbEntity
  8
SEIHIN
  6
CONTINUOUS
 62
     3
 48
16.0
100
AcDbLine
 10
150.2638876182616
 20
279.482078557436
 30
0.0
 11
151.9388876182616
 21
279.482078557436
 31
0.0
  0
LINE
  5
165
330
150
100
AcDbEntity
  8
SEIHIN
  6
CONTINUOUS
 62
     3
 48
16.0
100
AcDbLine
 10
302.8645876182618
 20
279.482078557436
 30
0.0
 11
301.1895876182617
 21
279.482078557436
 31
0.0
  0
LINE
  5
166
330
150
100
AcDbEntity
  8
SEIHIN
  6
CONTINUOUS
 62
     3
 48
16.0
100
AcDbLine
 10
302.8645876182618
 20
280.9820785574359
 30
0.0
 11
299.9020876182616
 21
280.9820785574359
 31
0.0
  0
ARC
  5
167
330
150
100
AcDbEntity
  8
SEIHIN
  6
CONTINUOUS
 62
     3
 48
16.0
100
AcDbCircle
 10
301.1895944052117
 20
279.3820843327695
 30
0.0
 40
0.0999942248968208
100
AcDbArc
 50
90.00388886054281
 51
170.7959198068273
  0
ARC
  5
168
330
150
100
AcDbEntity
  8
SEIHIN
  6
CONTINUOUS
 62
     3
 48
16.0
100
AcDbCircle
 10
299.9021289239131
 20
280.8821143202258
 30
0.0
 40
0.0999642457440356
100
AcDbArc
 50
90.02367486035991
 51
171.79626870022
  0
ARC
  5
169
330
150
100
AcDbEntity
  8
SEIHIN
  6
CONTINUOUS
 62
     3
 48
16.0
100
AcDbCircle
 10
226.5638228180699
 20
1538.951078558217
 30
0.0
 40
1249.999792340916
100
AcDbArc
 50
266.5003823737373
 51
273.4994674421109
  0
ARC
  5
16A
330
150
100
AcDbEntity
  8
SEIHIN
  6
CONTINUOUS
 62
     3
 48
16.0
100
AcDbCircle
 10
150.2639186407702
 20
285.3821022773741
 30
0.0
 40
4.400031022572527
100
AcDbArc
 50
74.80366408799281
 51
180.000308873354
  0
ARC
  5
16B
330
150
100
AcDbEntity
  8
SEIHIN
  6
CONTINUOUS
 62
     3
 48
16.0
100
AcDbCircle
 10
150.2638957220641
 20
285.3820847536221
 30
0.0
 40
5.900008103805603
100
AcDbArc
 50
74.80328442076272
 51
180.0000601720048
  0
ARC
  5
16C
330
150
100
AcDbEntity
  8
SEIHIN
  6
CONTINUOUS
 62
     3
 48
16.0
100
AcDbCircle
 10
151.6139049502418
 20
290.3520420861032
 30
0.0
 40
0.7499946804236388
100
AcDbArc
 50
254.8018332221475
 51
74.67787894999196
  0
ARC
  5
16D
330
150
100
AcDbEntity
  8
SEIHIN
  6
CONTINUOUS
 62
     3
 48
16.0
100
AcDbCircle
 10
302.8645795144593
 20
285.382084753622
 30
0.0
 40
5.900008103805688
100
AcDbArc
 50
359.9999398279958
 51
105.1967155792379
  0
ARC
  5
16E
330
150
100
AcDbEntity
  8
SEIHIN
  6
CONTINUOUS
 62
     3
 48
16.0
100
AcDbCircle
 10
302.8645565957532
 20
285.3821022773741
 30
0.0
 40
4.400031022572492
100
AcDbArc
 50
359.9996911266458
 51
105.1963359120061
  0
ARC
  5
16F
330
150
100
AcDbEntity
  8
SEIHIN
  6
CONTINUOUS
 62
     3
 48
16.0
100
AcDbCircle
 10
301.5145702862815
 20
290.3520420861032
 30
0.0
 40
0.749994680423673
100
AcDbArc
 50
105.3221210500192
 51
285.1981667778622
  0
ARC
  5
170
330
150
100
AcDbEntity
  8
SEIHIN
  6
CONTINUOUS
 62
     3
 48
16.0
100
AcDbCircle
 10
553.97550249608
 20
285.382078557436
 30
0.0
 40
5.900000000000019
100
AcDbArc
 50
270.0
 51
359.9999999999998
  0
ARC
  5
171
330
150
100
AcDbEntity
  8
SEIHIN
  6
CONTINUOUS
 62
     3
 48
16.0
100
AcDbCircle
 10
401.3748024960799
 20
285.382078557436
 30
0.0
 40
5.899999999999934
100
AcDbArc
 50
179.9999999999993
 51
269.9999999999993
  0
LINE
  5
172
330
150
100
AcDbEntity
  8
CENTER_L
  6
CENTER
 62
     1
 48
5.0
100
AcDbLine
 10
477.67510249608
 20
200.773578557436
 30
0.0
 11
477.67510249608
 21
299.143378557436
 31
0.0
  0
TEXT
  5
173
330
150
100
AcDbEntity
  8
ZUWAKU
 62
     7
100
AcDbText
 10
610.5036058579567
 20
2.903987338052431
 30
0.0
 40
8.0
  1
ＧＦ９０
100
AcDbText
  0
LINE
  5
174
330
150
100
AcDbEntity
  8
ZUWAKU
 62
     7
 48
10.0
100
AcDbLine
 10
605.0111912271809
 20
0.7836937755595699
 30
0.0
 11
605.0111912271809
 21
12.7836937755598
 31
0.0
  0
LINE
  5
175
330
150
100
AcDbEntity
  8
ZUWAKU
 62
     7
 48
10.0
100
AcDbLine
 10
570.5855353094916
 20
0.7836937755595699
 30
0.0
 11
570.5855353094916
 21
12.78369377555981
 31
0.0
  0
TEXT
  5
176
330
150
100
AcDbEntity
  8
ZUWAKU
 62
     7
100
AcDbText
 10
576.5867613283871
 20
2.653016587163548
 30
0.0
 40
8.0
  1
品 番
100
AcDbText
  0
ARC
  5
177
330
150
100
AcDbEntity
  8
SEIHIN
  6
CONTINUOUS
 62
     3
 48
16.0
100
AcDbCircle
 10
477.6751199517152
 20
291.4820934106881
 30
0.0
 40
75.50001485334341
100
AcDbArc
 50
269.9999108647568
 51
350.7899421391285
  0
ARC
  5
178
330
150
100
AcDbEntity
  8
SEIHIN
  6
CONTINUOUS
 62
     3
 48
16.0
100
AcDbCircle
 10
477.6752038499359
 20
291.4820774054144
 30
0.0
 40
75.49999884804645
100
AcDbArc
 50
189.2098937664268
 51
269.9999230841289
  0
ARC
  5
179
330
150
100
AcDbEntity
  8
SEIHIN
  6
CONTINUOUS
 62
     3
 48
16.0
100
AcDbCircle
 10
403.0497957091297
 20
279.3820843327695
 30
0.0
 40
0.0999942248967579
100
AcDbArc
 50
9.204080193140733
 51
89.99611113942462
  0
LINE
  5
17A
330
150
100
AcDbEntity
  8
SEIHIN
  6
CONTINUOUS
 62
     3
 48
16.0
100
AcDbLine
 10
401.3748024960798
 20
279.482078557436
 30
0.0
 11
403.0498024960799
 21
279.482078557436
 31
0.0
  0
LINE
  5
17B
330
150
100
AcDbEntity
  8
SEIHIN
  6
CONTINUOUS
 62
     3
 48
16.0
100
AcDbLine
 10
553.97550249608
 20
279.482078557436
 30
0.0
 11
552.30050249608
 21
279.482078557436
 31
0.0
  0
ARC
  5
17C
330
150
100
AcDbEntity
  8
SEIHIN
  6
CONTINUOUS
 62
     3
 48
16.0
100
AcDbCircle
 10
552.30050928303
 20
279.3820843327695
 30
0.0
 40
0.0999942248968208
100
AcDbArc
 50
90.00388886054281
 51
170.7959198068273
  0
LINE
  5
17D
330
150
100
AcDbEntity
  8
SEIHIN
  6
CONTINUOUS
 62
     3
 48
16.0
100
AcDbLine
 10
559.8756152697403
 20
400.1798413043494
 30
0.0
 11
477.6753152696795
 21
400.1798413042278
 31
0.0
  0
LINE
  5
17E
330
150
100
AcDbEntity
  8
SEIHIN
  6
CONTINUOUS
 62
     3
 48
16.0
100
AcDbLine
 10
559.8756909389584
 20
380.1798413042424
 30
0.0
 11
477.6752909388976
 21
380.1798413042425
 31
0.0
  0
LINE
  5
17F
330
150
100
AcDbEntity
  8
SEIHIN
  6
CONTINUOUS
 62
     3
 48
16.0
100
AcDbLine
 10
558.8755885058811
 20
378.1798425209046
 30
0.0
 11
477.6752885058194
 21
378.179841304244
 31
0.0
  0
ARC
  5
180
330
150
100
AcDbEntity
  8
SEIHIN
  6
CONTINUOUS
 62
     3
 48
16.0
100
AcDbCircle
 10
477.6747376958882
 20
1538.951078558217
 30
0.0
 40
1249.999792340916
100
AcDbArc
 50
266.5003823737373
 51
273.4994674421109
  0
LINE
  5
181
330
150
100
AcDbEntity
  8
CENTER_L
  6
CENTER
 62
     1
 48
5.0
100
AcDbLine
 10
477.6752257814288
 20
408.8205413043429
 30
0.0
 11
477.6751790557437
 21
370.4118413043715
 31
0.0
  0
ARC
  5
182
330
150
100
AcDbEntity
  8
SEIHIN
  6
CONTINUOUS
 62
     3
 48
16.0
100
AcDbCircle
 10
401.3748105998823
 20
285.3820847536221
 30
0.0
 40
5.900008103805603
100
AcDbArc
 50
83.03995454421023
 51
180.0000601720048
  0
LINE
  5
183
330
150
100
AcDbEntity
  8
SEIHIN
  6
CONTINUOUS
 62
     3
 48
16.0
100
AcDbLine
 10
395.4747909389585
 20
380.1799413043643
 30
0.0
 11
477.6750909388978
 21
380.1798413044858
 31
0.0
  0
LINE
  5
184
330
150
100
AcDbEntity
  8
SEIHIN
  6
CONTINUOUS
 62
     3
 48
16.0
100
AcDbLine
 10
395.4748152697404
 20
400.1799413043495
 30
0.0
 11
477.6751152696797
 21
400.1798413044711
 31
0.0
  0
LINE
  5
185
330
150
100
AcDbEntity
  8
SEIHIN
  6
CONTINUOUS
 62
     3
 48
16.0
100
AcDbLine
 10
396.4747885058795
 20
378.1799400878266
 30
0.0
 11
477.6750885058196
 21
378.1798413044873
 31
0.0
  0
LINE
  5
186
330
150
100
AcDbEntity
  8
SEIHIN
  6
CONTINUOUS
 62
     3
 48
16.0
100
AcDbLine
 10
403.4748152697344
 20
400.1799315720368
 30
0.0
 11
403.4747909389526
 21
380.1799315720515
 31
0.0
  0
LINE
  5
187
330
150
100
AcDbEntity
  8
SEIHIN
  6
CONTINUOUS
 62
     3
 48
16.0
100
AcDbLine
 10
395.4748152697404
 20
400.1799413043495
 30
0.0
 11
395.4747897224194
 21
379.1799413043651
 31
0.0
  0
LINE
  5
188
330
150
100
AcDbEntity
  8
SEIHIN
  6
CONTINUOUS
 62
     3
 48
16.0
100
AcDbLine
 10
395.4747927637672
 20
381.6799413043633
 30
0.0
 11
403.4747927637613
 21
381.6799315720504
 31
0.0
  0
ARC
  5
189
330
150
100
AcDbEntity
  8
SEIHIN
  6
CONTINUOUS
 62
     3
 48
16.0
100
AcDbCircle
 10
396.4747897224187
 20
379.1799400878259
 30
0.0
 40
0.9999999999999431
100
AcDbArc
 50
179.999930297441
 51
269.999930297441
  0
ARC
  5
18A
330
150
100
AcDbEntity
  8
SEIHIN
  6
CONTINUOUS
 62
     3
 48
16.0
100
AcDbCircle
 10
553.9754943922775
 20
285.382084753622
 30
0.0
 40
5.900008103805688
100
AcDbArc
 50
359.9999398279958
 51
96.95204124784787
  0
LINE
  5
18B
330
150
100
AcDbEntity
  8
SEIHIN
  6
CONTINUOUS
 62
     3
 48
16.0
100
AcDbLine
 10
559.8756152697403
 20
400.1798413043494
 30
0.0
 11
559.8755897224195
 21
379.1798413043649
 31
0.0
  0
LINE
  5
18C
330
150
100
AcDbEntity
  8
SEIHIN
  6
CONTINUOUS
 62
     3
 48
16.0
100
AcDbLine
 10
551.8756152697462
 20
400.1798510366621
 30
0.0
 11
551.8755909389644
 21
380.1798510366768
 31
0.0
  0
LINE
  5
18D
330
150
100
AcDbEntity
  8
SEIHIN
  6
CONTINUOUS
 62
     3
 48
16.0
100
AcDbLine
 10
559.8756927637671
 20
381.6798413042414
 30
0.0
 11
551.875692763773
 21
381.6798510365541
 31
0.0
  0
ARC
  5
18E
330
150
100
AcDbEntity
  8
SEIHIN
  6
CONTINUOUS
 62
     3
 48
16.0
100
AcDbCircle
 10
558.87558972242
 20
379.1798425209039
 30
0.0
 40
1.000000000000142
100
AcDbArc
 50
269.9999302974426
 51
359.9999302974426
  0
ENDBLK
  5
190
330
150
100
AcDbEntity
  8
0
100
AcDbBlockEnd
  0
BLOCK
  5
1D5
330
1D4
100
AcDbEntity
  8
0
100
AcDbBlockBegin
  2
*D5
 70
     1
 10
0.0
 20
0.0
 30
0.0
  3
*D5
  1

  0
LINE
  5
1D6
330
1D4
100
AcDbEntity
  8
0
  6
BYBLOCK
 62
     4
100
AcDbLine
 10
422.8599397438593
 20
278.3411557296131
 30
0.0
 11
422.8599397438593
 21
317.8768180390957
 31
0.0
  0
LINE
  5
1D7
330
1D4
100
AcDbEntity
  8
0
  6
BYBLOCK
 62
     4
100
AcDbLine
 10
587.2606397438626
 20
278.3411619257991
 30
0.0
 11
587.2606397438626
 21
317.8768180390957
 31
0.0
  0
LINE
  5
1D8
330
1D4
100
AcDbEntity
  8
0
  6
BYBLOCK
 62
     4
100
AcDbLine
 10
429.8599397438593
 20
314.8768180390957
 30
0.0
 11
580.2606397438625
 21
314.8768180390957
 31
0.0
  0
INSERT
  5
1D9
330
1D4
100
AcDbEntity
  8
0
  6
BYBLOCK
 62
     4
100
AcDbBlockReference
  2
_OPEN
 10
422.8599397438593
 20
314.8768180390957
 30
0.0
 41
7.0
 42
7.0
 43
7.0
 50
180.0
  0
INSERT
  5
1DA
330
1D4
100
AcDbEntity
  8
0
  6
BYBLOCK
 62
     4
100
AcDbBlockReference
  2
_OPEN
 10
587.2606397438626
 20
314.8768180390957
 30
0.0
 41
7.0
 42
7.0
 43
7.0
  0
MTEXT
  5
1DB
330
1D4
100
AcDbEntity
  8
0
  6
BYBLOCK
 62
     4
100
AcDbMText
 10
505.0602897438609
 20
319.8768180390957
 30
0.0
 40
6.0
 41
0.0
 71
     5
 72
     1
  1
\A1;164
1001
ACAD
1000
MTEXTBEGIN
1070
    73
1070
     1
1070
    44
1040
1.0
1070
    74
1070
     0
1000
MTEXTEND
1000
MTEXTBEGIN
1070
    73
1070
     1
1070
    44
1040
1.0
1070
    74
1070
     0
1000
MTEXTEND
  0
POINT
  5
1DD
330
1D4
100
AcDbEntity
  8
DEFPOINTS
  6
BYBLOCK
 62
     0
100
AcDbPoint
 10
422.8599397438593
 20
272.3411557296131
 30
0.0
  0
POINT
  5
1DE
330
1D4
100
AcDbEntity
  8
DEFPOINTS
  6
BYBLOCK
 62
     0
100
AcDbPoint
 10
587.2606397438626
 20
272.3411619257991
 30
0.0
  0
POINT
  5
1DF
330
1D4
100
AcDbEntity
  8
DEFPOINTS
  6
BYBLOCK
 62
     0
100
AcDbPoint
 10
587.2606397438626
 20
314.8768180390957
 30
0.0
  0
ENDBLK
  5
1E0
330
1D4
100
AcDbEntity
  8
0
100
AcDbBlockEnd
  0
BLOCK
  5
1E3
330
1E2
100
AcDbEntity
  8
0
100
AcDbBlockBegin
  2
*D6
 70
     1
 10
0.0
 20
0.0
 30
0.0
  3
*D6
  1

  0
LINE
  5
1E4
330
1E2
100
AcDbEntity
  8
0
  6
BYBLOCK
 62
     4
100
AcDbLine
 10
422.7599478476617
 20
278.2411700296048
 30
0.0
 11
379.6265851596372
 21
278.2411700296048
 31
0.0
  0
LINE
  5
1E5
330
1E2
100
AcDbEntity
  8
0
  6
BYBLOCK
 62
     4
100
AcDbLine
 10
499.0602397438594
 20
202.9411557296131
 30
0.0
 11
379.6265851596372
 21
202.9411557296131
 31
0.0
  0
LINE
  5
1E6
330
1E2
100
AcDbEntity
  8
0
  6
BYBLOCK
 62
     4
100
AcDbLine
 10
382.6265851596372
 20
271.2411700296048
 30
0.0
 11
382.6265851596372
 21
209.9411557296131
 31
0.0
  0
INSERT
  5
1E7
330
1E2
100
AcDbEntity
  8
0
  6
BYBLOCK
 62
     4
100
AcDbBlockReference
  2
_OPEN
 10
382.6265851596372
 20
278.2411700296048
 30
0.0
 41
7.0
 42
7.0
 43
7.0
 50
90.0
  0
INSERT
  5
1E8
330
1E2
100
AcDbEntity
  8
0
  6
BYBLOCK
 62
     4
100
AcDbBlockReference
  2
_OPEN
 10
382.6265851596372
 20
202.9411557296131
 30
0.0
 41
7.0
 42
7.0
 43
7.0
 50
270.0
  0
MTEXT
  5
1E9
330
1E2
100
AcDbEntity
  8
0
  6
BYBLOCK
 62
     4
100
AcDbMText
 10
377.6265851596372
 20
240.5911628796089
 30
0.0
 40
6.0
 41
0.0
 71
     5
 72
     1
  1
\A1;75
 11
0.0
 21
1.0
 31
0.0
1001
ACAD
1000
MTEXTBEGIN
1070
    73
1070
     1
1070
    44
1040
1.0
1070
    74
1070
     0
1000
MTEXTEND
1000
MTEXTBEGIN
1070
    73
1070
     1
1070
    44
1040
1.0
1070
    74
1070
     0
1000
MTEXTEND
  0
POINT
  5
1EA
330
1E2
100
AcDbEntity
  8
DEFPOINTS
  6
BYBLOCK
 62
     0
100
AcDbPoint
 10
428.7599478476616
 20
278.2411700296048
 30
0.0
  0
POINT
  5
1EB
330
1E2
100
AcDbEntity
  8
DEFPOINTS
  6
BYBLOCK
 62
     0
100
AcDbPoint
 10
505.0602397438593
 20
202.9411557296131
 30
0.0
  0
POINT
  5
1EC
330
1E2
100
AcDbEntity
  8
DEFPOINTS
  6
BYBLOCK
 62
     0
100
AcDbPoint
 10
382.6265851596372
 20
202.9411557296131
 30
0.0
  0
ENDBLK
  5
1ED
330
1E2
100
AcDbEntity
  8
0
100
AcDbBlockEnd
  0
BLOCK
  5
1FF
330
1EF
100
AcDbEntity
  8
0
100
AcDbBlockBegin
  2
*D7
 70
     1
 10
0.0
 20
0.0
 30
0.0
  3
*D7
  1

  0
LINE
  5
200
330
1EF
100
AcDbEntity
  8
0
  6
BYBLOCK
 62
     4
100
AcDbLine
 10
416.8599525175197
 20
387.1390184765266
 30
0.0
 11
363.4891218913535
 21
387.1390184765266
 31
0.0
  0
LINE
  5
201
330
1EF
100
AcDbEntity
  8
0
  6
BYBLOCK
 62
     4
100
AcDbLine
 10
417.8599257536588
 20
365.1390172600038
 30
0.0
 11
363.4891218913535
 21
365.1390172600038
 31
0.0
  0
LINE
  5
202
330
1EF
100
AcDbEntity
  8
0
  6
BYBLOCK
 62
     4
100
AcDbLine
 10
366.4891218913535
 20
394.1390184765266
 30
0.0
 11
366.4891218913535
 21
401.1390184765266
 31
0.0
  0
LINE
  5
203
330
1EF
100
AcDbEntity
  8
0
  6
BYBLOCK
 62
     4
100
AcDbLine
 10
366.4891218913535
 20
358.1390172600038
 30
0.0
 11
366.4891218913535
 21
351.1390172600038
 31
0.0
  0
LINE
  5
204
330
1EF
100
AcDbEntity
  8
0
  6
BYBLOCK
 62
     4
100
AcDbLine
 10
366.4891218913535
 20
387.1390184765266
 30
0.0
 11
366.4891218913535
 21
365.1390172600038
 31
0.0
  0
INSERT
  5
205
330
1EF
100
AcDbEntity
  8
0
  6
BYBLOCK
 62
     4
100
AcDbBlockReference
  2
_OPEN
 10
366.4891218913535
 20
387.1390184765266
 30
0.0
 41
7.0
 42
7.0
 43
7.0
 50
270.0
  0
INSERT
  5
206
330
1EF
100
AcDbEntity
  8
0
  6
BYBLOCK
 62
     4
100
AcDbBlockReference
  2
_OPEN
 10
366.4891218913535
 20
365.1390172600038
 30
0.0
 41
7.0
 42
7.0
 43
7.0
 50
90.0
  0
MTEXT
  5
207
330
1EF
100
AcDbEntity
  8
0
  6
BYBLOCK
 62
     4
100
AcDbMText
 10
361.4891218913535
 20
376.1390178682652
 30
0.0
 40
6.0
 41
0.0
 71
     5
 72
     1
  1
\A1;22
 11
0.0
 21
1.0
 31
0.0
1001
ACAD
1000
MTEXTBEGIN
1070
    73
1070
     1
1070
    44
1040
1.0
1070
    74
1070
     0
1000
MTEXTEND
1000
MTEXTBEGIN
1070
    73
1070
     1
1070
    44
1040
1.0
1070
    74
1070
     0
1000
MTEXTEND
  0
POINT
  5
208
330
1EF
100
AcDbEntity
  8
DEFPOINTS
  6
BYBLOCK
 62
     0
100
AcDbPoint
 10
422.8599525175197
 20
387.1390184765266
 30
0.0
  0
POINT
  5
209
330
1EF
100
AcDbEntity
  8
DEFPOINTS
  6
BYBLOCK
 62
     0
100
AcDbPoint
 10
423.8599257536589
 20
365.1390172600038
 30
0.0
  0
POINT
  5
20A
330
1EF
100
AcDbEntity
  8
DEFPOINTS
  6
BYBLOCK
 62
     0
100
AcDbPoint
 10
366.4891218913535
 20
365.1390172600038
 30
0.0
  0
ENDBLK
  5
20B
330
1EF
100
AcDbEntity
  8
0
100
AcDbBlockEnd
  0
BLOCK
  5
268
330
240
100
AcDbEntity
  8
0
100
AcDbBlockBegin
  2
*D8
 70
     1
 10
0.0
 20
0.0
 30
0.0
  3
*D8
  1

  0
LINE
  5
269
330
240
100
AcDbEntity
  8
0
  6
BYBLOCK
 62
     4
100
AcDbLine
 10
416.8599281867378
 20
367.1390184765414
 30
0.0
 11
379.6265851596372
 21
367.1390184765414
 31
0.0
  0
LINE
  5
26A
330
240
100
AcDbEntity
  8
0
  6
BYBLOCK
 62
     4
100
AcDbLine
 10
416.8599525175197
 20
387.1390184765266
 30
0.0
 11
379.6265851596372
 21
387.1390184765266
 31
0.0
  0
LINE
  5
26B
330
240
100
AcDbEntity
  8
0
  6
BYBLOCK
 62
     4
100
AcDbLine
 10
382.6265851596372
 20
374.1390184765414
 30
0.0
 11
382.6265851596372
 21
380.1390184765266
 31
0.0
  0
LINE
  5
26C
330
240
100
AcDbEntity
  8
0
  6
BYBLOCK
 62
     4
100
AcDbLine
 10
382.6265851596372
 20
387.1390184765266
 30
0.0
 11
382.6265851596372
 21
414.3390184765266
 31
0.0
  0
INSERT
  5
26D
330
240
100
AcDbEntity
  8
0
  6
BYBLOCK
 62
     4
100
AcDbBlockReference
  2
_OPEN
 10
382.6265851596372
 20
367.1390184765414
 30
0.0
 41
7.0
 42
7.0
 43
7.0
 50
270.0
  0
INSERT
  5
26E
330
240
100
AcDbEntity
  8
0
  6
BYBLOCK
 62
     4
100
AcDbBlockReference
  2
_OPEN
 10
382.6265851596372
 20
387.1390184765266
 30
0.0
 41
7.0
 42
7.0
 43
7.0
 50
90.0
  0
MTEXT
  5
26F
330
240
100
AcDbEntity
  8
0
  6
BYBLOCK
 62
     4
100
AcDbMText
 10
377.6265851596372
 20
404.2390184765266
 30
0.0
 40
6.0
 41
0.0
 71
     5
 72
     1
  1
\A1;※20
 11
0.0
 21
1.0
 31
0.0
1001
ACAD
1000
MTEXTBEGIN
1070
    73
1070
     1
1070
    44
1040
1.0
1070
    74
1070
     0
1000
MTEXTEND
1000
MTEXTBEGIN
1070
    73
1070
     1
1070
    44
1040
1.0
1070
    74
1070
     0
1000
MTEXTEND
  0
POINT
  5
270
330
240
100
AcDbEntity
  8
DEFPOINTS
  6
BYBLOCK
 62
     0
100
AcDbPoint
 10
422.8599281867379
 20
367.1390184765414
 30
0.0
  0
POINT
  5
271
330
240
100
AcDbEntity
  8
DEFPOINTS
  6
BYBLOCK
 62
     0
100
AcDbPoint
 10
422.8599525175197
 20
387.1390184765266
 30
0.0
  0
POINT
  5
272
330
240
100
AcDbEntity
  8
DEFPOINTS
  6
BYBLOCK
 62
     0
100
AcDbPoint
 10
382.6265851596372
 20
387.1390184765266
 30
0.0
  0
ENDBLK
  5
273
330
240
100
AcDbEntity
  8
0
100
AcDbBlockEnd
  0
ENDSEC
  0
SECTION
  2
ENTITIES
  0
TEXT
  5
11A
330
1A
100
AcDbEntity
  8
ZUWAKU
 62
     7
 48
10.0
100
AcDbText
 10
795.5579444309237
 20
4.974918402528146
 30
0.0
 40
8.0
  1
A1
100
AcDbText
  0
LINE
  5
11B
330
1A
100
AcDbEntity
  8
ZUWAKU
 62
     7
 48
10.0
100
AcDbLine
 10
10.05047808566086
 20
25.78258628282265
 30
0.0
 11
806.0504780856609
 21
25.78258628282253
 31
0.0
  0
LINE
  5
11C
330
1A
100
AcDbEntity
  8
ZUWAKU
  6
CONTINUOUS
 62
     7
100
AcDbLine
 10
806.0504780856609
 20
563.7825862828226
 30
0.0
 11
10.05047808566086
 21
563.7825862828226
 31
0.0
  0
LINE
  5
11D
330
1A
100
AcDbEntity
  8
ZUWAKU
  6
CONTINUOUS
 62
     7
100
AcDbLine
 10
806.0504780856609
 20
13.78258628282265
 30
0.0
 11
10.05047808566086
 21
13.78258628282265
 31
0.0
  0
LINE
  5
11E
330
1A
100
AcDbEntity
  8
ZUWAKU
  6
CONTINUOUS
 62
     7
100
AcDbLine
 10
10.05047808566086
 20
563.7825862828226
 30
0.0
 11
10.05047808566086
 21
13.78258628282265
 31
0.0
  0
LINE
  5
11F
330
1A
100
AcDbEntity
  8
ZUWAKU
 62
     7
 48
10.0
100
AcDbLine
 10
44.55797523147839
 20
13.78258628282265
 30
0.0
 11
44.5579752314784
 21
25.78258628282265
 31
0.0
  0
TEXT
  5
120
330
1A
100
AcDbEntity
  8
ZUWAKU
 62
     7
100
AcDbText
 10
16.05676551180931
 20
15.52294263804401
 30
0.0
 40
8.0
  1
品 種
100
AcDbText
  0
LINE
  5
121
330
1A
100
AcDbEntity
  8
ZUWAKU
 62
     7
 48
10.0
100
AcDbLine
 10
276.1028387068254
 20
13.78258628282265
 30
0.0
 11
276.1028387068254
 21
25.78258628282261
 31
0.0
  0
LINE
  5
122
330
1A
100
AcDbEntity
  8
ZUWAKU
 62
     7
 48
10.0
100
AcDbLine
 10
209.5138526425484
 20
13.78258628282265
 30
0.0
 11
209.5138526425485
 21
25.78258628282263
 31
0.0
  0
TEXT
  5
124
330
1A
100
AcDbEntity
  8
ZUWAKU
 62
     7
100
AcDbText
 10
215.4560837190756
 20
16.18358115302453
 30
0.0
 40
8.0
  1
品名・ｻ ｲ ｽﾞ
100
AcDbText
  0
LINE
  5
126
330
1A
100
AcDbEntity
  8
ZUWAKU
 62
     7
 48
10.0
100
AcDbLine
 10
768.7231079932794
 20
13.78258628282237
 30
0.0
 11
768.7231079932794
 21
25.78258628282254
 31
0.0
  0
LINE
  5
127
330
1A
100
AcDbEntity
  8
ZUWAKU
 62
     7
 48
10.0
100
AcDbLine
 10
733.8119002376948
 20
13.78258628282242
 30
0.0
 11
733.8119002376946
 21
25.78258628282254
 31
0.0
  0
TEXT
  5
128
330
1A
100
AcDbEntity
  8
ZUWAKU
 62
     7
100
AcDbText
 10
739.6955629973526
 20
15.24227755810852
 30
0.0
 40
8.0
  1
尺 度
100
AcDbText
  0
TEXT
  5
129
330
1A
100
AcDbEntity
  8
ZUWAKU
 62
     7
100
AcDbText
 10
779.7374630323229
 20
15.55488920081529
 30
0.0
 40
8.0
  1
1/2
100
AcDbText
  0
TEXT
  5
12B
330
1A
100
AcDbEntity
  8
ZUWAKU
 62
     7
100
AcDbText
 10
620.3363288383084
 20
15.6519090944263
 30
0.0
 40
8.0
  1
品 番
100
AcDbText
  0
LINE
  5
12C
330
1A
100
AcDbEntity
  8
ZUWAKU
 62
     7
 48
10.0
100
AcDbLine
 10
614.3351028194128
 20
13.78258628282232
 30
0.0
 11
614.3351028194128
 21
25.78258628282256
 31
0.0
  0
LINE
  5
12D
330
1A
100
AcDbEntity
  8
ZUWAKU
 62
     7
 48
10.0
100
AcDbLine
 10
648.7607587371021
 20
13.78258628282232
 30
0.0
 11
648.7607587371021
 21
25.78258628282255
 31
0.0
  0
TEXT
  5
12E
330
1A
100
AcDbEntity
  8
ZUWAKU
 62
     7
 48
10.0
100
AcDbText
 10
646.2758615931216
 20
4.949376903717848
 30
0.0
 40
8.0
  1
積水化学工業株式会社  建材
100
AcDbText
  0
LINE
  5
12F
330
1A
100
AcDbEntity
  8
ZUWAKU
  6
CONTINUOUS
 62
     7
100
AcDbLine
 10
806.0504780856609
 20
563.7825862828226
 30
0.0
 11
806.0504780856609
 21
13.78258628282265
 31
0.0
  0
INSERT
  5
192
330
1A
100
AcDbEntity
  8
SEIHIN
100
AcDbBlockReference
  2
A$CF3A4
 10
175.6207282729021
 20
181.8243812138578
 30
0.0
  0
ARC
  5
193
330
1A
100
AcDbEntity
  8
SEIHIN
  6
CONTINUOUS
 62
     3
 48
16.0
100
AcDbCircle
 10
179.906163596381
 20
249.7873651497061
 30
0.0
 40
4.399999999999991
100
AcDbArc
 50
179.9999999999998
 51
269.9999999999997
  0
ARC
  5
194
330
1A
100
AcDbEntity
  8
SEIHIN
  6
CONTINUOUS
 62
     3
 48
16.0
100
AcDbCircle
 10
179.9061635963811
 20
249.7873651497061
 30
0.0
 40
5.899999999999934
100
AcDbArc
 50
179.9999999999993
 51
269.9999999999993
  0
LINE
  5
195
330
1A
100
AcDbEntity
  8
CENTER_L
  6
CENTER
 62
     1
 48
5.0
100
AcDbLine
 10
256.2064635963812
 20
165.1788651497062
 30
0.0
 11
256.2064635963812
 21
263.5486651497061
 31
0.0
  0
ARC
  5
196
330
1A
100
AcDbEntity
  8
SEIHIN
  6
CONTINUOUS
 62
     3
 48
16.0
100
AcDbCircle
 10
332.5068635963812
 20
249.7873651497061
 30
0.0
 40
5.900000000000019
100
AcDbArc
 50
270.0
 51
359.9999999999998
  0
ARC
  5
197
330
1A
100
AcDbEntity
  8
SEIHIN
  6
CONTINUOUS
 62
     3
 48
16.0
100
AcDbCircle
 10
332.5068635963812
 20
249.7873651497061
 30
0.0
 40
4.400000000000019
100
AcDbArc
 50
270.0
 51
359.9999999999997
  0
TEXT
  5
198
330
1A
100
AcDbEntity
  8
ZUWAKU
 62
     7
100
AcDbText
 10
50.3519382305086
 20
16.10306189639755
 30
0.0
 40
8.0
  1
丸トップ　のきとい
100
AcDbText
  0
TEXT
  5
19A
330
1A
100
AcDbEntity
  8
ZUWAKU
 62
     7
100
AcDbText
 10
282.3131429914078
 20
15.64241700452384
 30
0.0
 40
8.0
  1
止り　１５０
100
AcDbText
  0
ARC
  5
19E
330
1A
100
AcDbEntity
  8
SEIHIN
  6
CONTINUOUS
 62
     3
 48
16.0
100
AcDbCircle
 10
256.2064810520164
 20
255.8873800029582
 30
0.0
 40
75.50001485334341
100
AcDbArc
 50
269.9999108647568
 51
350.7899421391285
  0
ARC
  5
19F
330
1A
100
AcDbEntity
  8
SEIHIN
  6
CONTINUOUS
 62
     3
 48
16.0
100
AcDbCircle
 10
256.2064465644475
 20
255.8873504025641
 30
0.0
 40
73.99998525290448
100
AcDbArc
 50
269.9999357605272
 51
351.7755563862692
  0
ARC
  5
1A0
330
1A
100
AcDbEntity
  8
SEIHIN
  6
CONTINUOUS
 62
     3
 48
16.0
100
AcDbCircle
 10
256.206564950237
 20
255.8873639976845
 30
0.0
 40
75.49999884804645
100
AcDbArc
 50
189.2098937664268
 51
269.9999230841289
  0
ARC
  5
1A1
330
1A
100
AcDbEntity
  8
SEIHIN
  6
CONTINUOUS
 62
     3
 48
16.0
100
AcDbCircle
 10
256.2065399970657
 20
255.8873855833472
 30
0.0
 40
74.00002043368058
100
AcDbArc
 50
188.2243107364391
 51
269.9999408454652
  0
ARC
  5
1A2
330
1A
100
AcDbEntity
  8
SEIHIN
  6
CONTINUOUS
 62
     3
 48
16.0
100
AcDbCircle
 10
181.5811568094309
 20
243.7873709250396
 30
0.0
 40
0.0999942248967579
100
AcDbArc
 50
9.204080193140733
 51
89.99611113942462
  0
ARC
  5
1A3
330
1A
100
AcDbEntity
  8
SEIHIN
  6
CONTINUOUS
 62
     3
 48
16.0
100
AcDbCircle
 10
182.8686222907298
 20
245.2874009124959
 30
0.0
 40
0.0999642457440711
100
AcDbArc
 50
8.203731299795643
 51
89.97632513964822
  0
LINE
  5
1A4
330
1A
100
AcDbEntity
  8
SEIHIN
  6
CONTINUOUS
 62
     3
 48
16.0
100
AcDbLine
 10
179.906163596381
 20
245.3873651497061
 30
0.0
 11
182.8686635963812
 21
245.3873651497061
 31
0.0
  0
LINE
  5
1A5
330
1A
100
AcDbEntity
  8
SEIHIN
  6
CONTINUOUS
 62
     3
 48
16.0
100
AcDbLine
 10
179.906163596381
 20
243.8873651497061
 30
0.0
 11
181.5811635963811
 21
243.8873651497061
 31
0.0
  0
LINE
  5
1A6
330
1A
100
AcDbEntity
  8
SEIHIN
  6
CONTINUOUS
 62
     3
 48
16.0
100
AcDbLine
 10
332.5068635963812
 20
243.8873651497061
 30
0.0
 11
330.8318635963811
 21
243.8873651497061
 31
0.0
  0
LINE
  5
1A7
330
1A
100
AcDbEntity
  8
SEIHIN
  6
CONTINUOUS
 62
     3
 48
16.0
100
AcDbLine
 10
332.5068635963812
 20
245.3873651497061
 30
0.0
 11
329.5443635963811
 21
245.3873651497061
 31
0.0
  0
ARC
  5
1A8
330
1A
100
AcDbEntity
  8
SEIHIN
  6
CONTINUOUS
 62
     3
 48
16.0
100
AcDbCircle
 10
330.8318703833311
 20
243.7873709250396
 30
0.0
 40
0.0999942248968208
100
AcDbArc
 50
90.00388886054281
 51
170.7959198068273
  0
ARC
  5
1A9
330
1A
100
AcDbEntity
  8
SEIHIN
  6
CONTINUOUS
 62
     3
 48
16.0
100
AcDbCircle
 10
329.5444049020325
 20
245.2874009124959
 30
0.0
 40
0.0999642457440356
100
AcDbArc
 50
90.02367486035991
 51
171.79626870022
  0
ARC
  5
1AA
330
1A
100
AcDbEntity
  8
SEIHIN
  6
CONTINUOUS
 62
     3
 48
16.0
100
AcDbCircle
 10
256.2060987961893
 20
1503.356365150488
 30
0.0
 40
1249.999792340916
100
AcDbArc
 50
266.5003823737373
 51
273.4994674421109
  0
ARC
  5
1AB
330
1A
100
AcDbEntity
  8
SEIHIN
  6
CONTINUOUS
 62
     3
 48
16.0
100
AcDbCircle
 10
179.9061946188896
 20
249.7873888696442
 30
0.0
 40
4.400031022572527
100
AcDbArc
 50
74.80366408799281
 51
180.000308873354
  0
ARC
  5
1AC
330
1A
100
AcDbEntity
  8
SEIHIN
  6
CONTINUOUS
 62
     3
 48
16.0
100
AcDbCircle
 10
179.9061717001835
 20
249.7873713458923
 30
0.0
 40
5.900008103805603
100
AcDbArc
 50
74.80328442076272
 51
180.0000601720048
  0
ARC
  5
1AD
330
1A
100
AcDbEntity
  8
SEIHIN
  6
CONTINUOUS
 62
     3
 48
16.0
100
AcDbCircle
 10
181.2561809283612
 20
254.7573286783733
 30
0.0
 40
0.7499946804236388
100
AcDbArc
 50
254.8018332221475
 51
74.67787894999196
  0
ARC
  5
1AE
330
1A
100
AcDbEntity
  8
SEIHIN
  6
CONTINUOUS
 62
     3
 48
16.0
100
AcDbCircle
 10
332.5068554925787
 20
249.7873713458921
 30
0.0
 40
5.900008103805688
100
AcDbArc
 50
359.9999398279958
 51
105.1967155792379
  0
ARC
  5
1AF
330
1A
100
AcDbEntity
  8
SEIHIN
  6
CONTINUOUS
 62
     3
 48
16.0
100
AcDbCircle
 10
332.5068325738726
 20
249.7873888696442
 30
0.0
 40
4.400031022572492
100
AcDbArc
 50
359.9996911266458
 51
105.1963359120061
  0
ARC
  5
1B0
330
1A
100
AcDbEntity
  8
SEIHIN
  6
CONTINUOUS
 62
     3
 48
16.0
100
AcDbCircle
 10
331.156846264401
 20
254.7573286783733
 30
0.0
 40
0.749994680423673
100
AcDbArc
 50
105.3221210500192
 51
285.1981667778622
  0
ARC
  5
1B1
330
1A
100
AcDbEntity
  8
SEIHIN
  6
CONTINUOUS
 62
     3
 48
16.0
100
AcDbCircle
 10
603.6177784741994
 20
249.7873651497061
 30
0.0
 40
5.900000000000019
100
AcDbArc
 50
270.0
 51
359.9999999999998
  0
ARC
  5
1B2
330
1A
100
AcDbEntity
  8
SEIHIN
  6
CONTINUOUS
 62
     3
 48
16.0
100
AcDbCircle
 10
451.0170784741993
 20
249.7873651497061
 30
0.0
 40
5.899999999999934
100
AcDbArc
 50
179.9999999999993
 51
269.9999999999993
  0
LINE
  5
1B3
330
1A
100
AcDbEntity
  8
CENTER_L
  6
CENTER
 62
     1
 48
5.0
100
AcDbLine
 10
527.3173784741994
 20
165.1788651497062
 30
0.0
 11
527.3173784741994
 21
263.5486651497061
 31
0.0
  0
TEXT
  5
1B4
330
1A
100
AcDbEntity
  8
ZUWAKU
 62
     7
100
AcDbText
 10
654.2531733678779
 20
15.90287984531518
 30
0.0
 40
8.0
  1
ＧＦ９０
100
AcDbText
  0
ARC
  5
1B8
330
1A
100
AcDbEntity
  8
SEIHIN
  6
CONTINUOUS
 62
     3
 48
16.0
100
AcDbCircle
 10
527.3173959298346
 20
255.8873800029582
 30
0.0
 40
75.50001485334341
100
AcDbArc
 50
269.9999108647568
 51
350.7899421391285
  0
ARC
  5
1B9
330
1A
100
AcDbEntity
  8
SEIHIN
  6
CONTINUOUS
 62
     3
 48
16.0
100
AcDbCircle
 10
527.3174798280552
 20
255.8873639976845
 30
0.0
 40
75.49999884804645
100
AcDbArc
 50
189.2098937664268
 51
269.9999230841289
  0
ARC
  5
1BA
330
1A
100
AcDbEntity
  8
SEIHIN
  6
CONTINUOUS
 62
     3
 48
16.0
100
AcDbCircle
 10
452.6920716872491
 20
243.7873709250396
 30
0.0
 40
0.0999942248967579
100
AcDbArc
 50
9.204080193140733
 51
89.99611113942462
  0
LINE
  5
1BB
330
1A
100
AcDbEntity
  8
SEIHIN
  6
CONTINUOUS
 62
     3
 48
16.0
100
AcDbLine
 10
451.0170784741992
 20
243.8873651497061
 30
0.0
 11
452.6920784741993
 21
243.8873651497061
 31
0.0
  0
LINE
  5
1BC
330
1A
100
AcDbEntity
  8
SEIHIN
  6
CONTINUOUS
 62
     3
 48
16.0
100
AcDbLine
 10
603.6177784741994
 20
243.8873651497061
 30
0.0
 11
601.9427784741993
 21
243.8873651497061
 31
0.0
  0
ARC
  5
1BD
330
1A
100
AcDbEntity
  8
SEIHIN
  6
CONTINUOUS
 62
     3
 48
16.0
100
AcDbCircle
 10
601.9427852611494
 20
243.7873709250396
 30
0.0
 40
0.0999942248968208
100
AcDbArc
 50
90.00388886054281
 51
170.7959198068273
  0
LINE
  5
1BE
330
1A
100
AcDbEntity
  8
SEIHIN
  6
CONTINUOUS
 62
     3
 48
16.0
100
AcDbLine
 10
609.5178912478598
 20
364.5851278966196
 30
0.0
 11
527.3175912477988
 21
364.5851278964979
 31
0.0
  0
LINE
  5
1BF
330
1A
100
AcDbEntity
  8
SEIHIN
  6
CONTINUOUS
 62
     3
 48
16.0
100
AcDbLine
 10
609.5179669170778
 20
344.5851278965126
 30
0.0
 11
527.317566917017
 21
344.5851278965127
 31
0.0
  0
LINE
  5
1C0
330
1A
100
AcDbEntity
  8
SEIHIN
  6
CONTINUOUS
 62
     3
 48
16.0
100
AcDbLine
 10
608.5178644840005
 20
342.5851291131748
 30
0.0
 11
527.3175644839389
 21
342.5851278965142
 31
0.0
  0
ARC
  5
1C1
330
1A
100
AcDbEntity
  8
SEIHIN
  6
CONTINUOUS
 62
     3
 48
16.0
100
AcDbCircle
 10
527.3170136740076
 20
1503.356365150488
 30
0.0
 40
1249.999792340916
100
AcDbArc
 50
266.5003823737373
 51
273.4994674421109
  0
LINE
  5
1C2
330
1A
100
AcDbEntity
  8
CENTER_L
  6
CENTER
 62
     1
 48
5.0
100
AcDbLine
 10
527.3175017595482
 20
373.2258278966131
 30
0.0
 11
527.317455033863
 21
334.8171278966416
 31
0.0
  0
ARC
  5
1C3
330
1A
100
AcDbEntity
  8
SEIHIN
  6
CONTINUOUS
 62
     3
 48
16.0
100
AcDbCircle
 10
451.0170865780017
 20
249.7873713458923
 30
0.0
 40
5.900008103805603
100
AcDbArc
 50
83.03995454421023
 51
180.0000601720048
  0
LINE
  5
1C4
330
1A
100
AcDbEntity
  8
SEIHIN
  6
CONTINUOUS
 62
     3
 48
16.0
100
AcDbLine
 10
445.1170669170779
 20
344.5852278966345
 30
0.0
 11
527.3173669170172
 21
344.585127896756
 31
0.0
  0
LINE
  5
1C5
330
1A
100
AcDbEntity
  8
SEIHIN
  6
CONTINUOUS
 62
     3
 48
16.0
100
AcDbLine
 10
445.1170912478598
 20
364.5852278966196
 30
0.0
 11
527.3173912477991
 21
364.5851278967412
 31
0.0
  0
LINE
  5
1C6
330
1A
100
AcDbEntity
  8
SEIHIN
  6
CONTINUOUS
 62
     3
 48
16.0
100
AcDbLine
 10
446.1170644839989
 20
342.5852266800968
 30
0.0
 11
527.317364483939
 21
342.5851278967575
 31
0.0
  0
LINE
  5
1C7
330
1A
100
AcDbEntity
  8
SEIHIN
  6
CONTINUOUS
 62
     3
 48
16.0
100
AcDbLine
 10
453.1170912478539
 20
364.585218164307
 30
0.0
 11
453.117066917072
 21
344.5852181643217
 31
0.0
  0
LINE
  5
1C8
330
1A
100
AcDbEntity
  8
SEIHIN
  6
CONTINUOUS
 62
     3
 48
16.0
100
AcDbLine
 10
445.1170912478598
 20
364.5852278966196
 30
0.0
 11
445.1170657005389
 21
343.5852278966352
 31
0.0
  0
LINE
  5
1C9
330
1A
100
AcDbEntity
  8
SEIHIN
  6
CONTINUOUS
 62
     3
 48
16.0
100
AcDbLine
 10
445.1170687418866
 20
346.0852278966334
 30
0.0
 11
453.1170687418806
 21
346.0852181643206
 31
0.0
  0
ARC
  5
1CA
330
1A
100
AcDbEntity
  8
SEIHIN
  6
CONTINUOUS
 62
     3
 48
16.0
100
AcDbCircle
 10
446.1170657005381
 20
343.585226680096
 30
0.0
 40
0.9999999999999431
100
AcDbArc
 50
179.999930297441
 51
269.999930297441
  0
ARC
  5
1CB
330
1A
100
AcDbEntity
  8
SEIHIN
  6
CONTINUOUS
 62
     3
 48
16.0
100
AcDbCircle
 10
603.617770370397
 20
249.7873713458921
 30
0.0
 40
5.900008103805688
100
AcDbArc
 50
359.9999398279958
 51
96.95204124784787
  0
LINE
  5
1CC
330
1A
100
AcDbEntity
  8
SEIHIN
  6
CONTINUOUS
 62
     3
 48
16.0
100
AcDbLine
 10
609.5178912478598
 20
364.5851278966196
 30
0.0
 11
609.5178657005389
 21
343.585127896635
 31
0.0
  0
LINE
  5
1CD
330
1A
100
AcDbEntity
  8
SEIHIN
  6
CONTINUOUS
 62
     3
 48
16.0
100
AcDbLine
 10
601.5178912478656
 20
364.5851376289323
 30
0.0
 11
601.5178669170839
 21
344.585137628947
 31
0.0
  0
LINE
  5
1CE
330
1A
100
AcDbEntity
  8
SEIHIN
  6
CONTINUOUS
 62
     3
 48
16.0
100
AcDbLine
 10
609.5179687418865
 20
346.0851278965116
 30
0.0
 11
601.5179687418924
 21
346.0851376288243
 31
0.0
  0
ARC
  5
1CF
330
1A
100
AcDbEntity
  8
SEIHIN
  6
CONTINUOUS
 62
     3
 48
16.0
100
AcDbCircle
 10
608.5178657005394
 20
343.5851291131741
 30
0.0
 40
1.000000000000142
100
AcDbArc
 50
269.9999302974426
 51
359.9999302974426
  0
DIMENSION
  5
1E1
330
1A
100
AcDbEntity
  8
ZUWAKU
100
AcDbDimension
  2
*D5
 10
609.5177784742027
 20
292.3230274591887
 30
0.0
 11
527.317428474201
 21
297.3230274591887
 31
0.0
 12
22.2571387303401
 22
-22.55379057990694
 32
0.0
 70
    32
  3
STANDARD
100
AcDbAlignedDimension
 13
445.1170784741994
 23
249.7873651497061
 33
0.0
 14
609.5177784742027
 24
249.7873713458921
 34
0.0
100
AcDbRotatedDimension
1001
ACAD
1000
DSTYLE
1002
{
1070
   140
1040
6.0
1070
    74
1070
     0
1070
   172
1070
     1
1070
    73
1070
     0
1070
   272
1070
     2
1070
    77
1070
     3
1070
   173
1070
     1
1070
   147
1040
2.0
1070
    42
1040
6.0
1070
    44
1040
3.0
1070
    43
1040
14.0
1070
   271
1070
     0
1070
   178
1070
     4
1070
   177
1070
     4
1070
   176
1070
     4
1070
   141
1040
150.0
1070
     7
1000
_OPEN
1070
     6
1000
_OPEN
1070
    41
1040
7.0
1002
}
  0
DIMENSION
  5
1EE
330
1A
100
AcDbEntity
  8
ZUWAKU
100
AcDbDimension
  2
*D6
 10
404.8837238899773
 20
180.3873651497061
 30
0.0
 11
399.8837238899773
 21
218.037372299702
 31
0.0
 12
22.2571387303401
 22
-22.55379057990694
 32
0.0
 70
    32
  3
STANDARD
100
AcDbAlignedDimension
 13
451.0170865780017
 23
255.6873794496979
 33
0.0
 14
527.3173784741994
 24
180.3873651497061
 34
0.0
 50
90.0
100
AcDbRotatedDimension
1001
ACAD
1000
DSTYLE
1002
{
1070
   140
1040
6.0
1070
    74
1070
     0
1070
   172
1070
     1
1070
    73
1070
     0
1070
   272
1070
     2
1070
    77
1070
     3
1070
   173
1070
     1
1070
   147
1040
2.0
1070
    42
1040
6.0
1070
    44
1040
3.0
1070
    43
1040
14.0
1070
   271
1070
     0
1070
   178
1070
     4
1070
   177
1070
     4
1070
   176
1070
     4
1070
   141
1040
150.0
1070
     7
1000
_OPEN
1070
     6
1000
_OPEN
1070
    41
1040
7.0
1002
}
  0
DIMENSION
  5
1FD
330
1A
100
AcDbEntity
  8
ZUWAKU
100
AcDbDimension
  2
*D7
 10
388.7462606216936
 20
342.5852266800968
 30
0.0
 11
383.7462606216936
 21
353.5852272883583
 31
0.0
 12
22.2571387303401
 22
-22.55379057990694
 32
0.0
 70
    32
  3
STANDARD
100
AcDbAlignedDimension
 13
445.1170912478598
 23
364.5852278966196
 33
0.0
 14
446.117064483999
 24
342.5852266800968
 34
0.0
 50
90.0
100
AcDbRotatedDimension
1001
ACAD
1000
DSTYLE
1002
{
1070
   140
1040
6.0
1070
    74
1070
     0
1070
   172
1070
     1
1070
    73
1070
     0
1070
   272
1070
     2
1070
    77
1070
     3
1070
   173
1070
     1
1070
   147
1040
2.0
1070
    42
1040
6.0
1070
    44
1040
3.0
1070
    43
1040
14.0
1070
   271
1070
     0
1070
   178
1070
     4
1070
   177
1070
     4
1070
   176
1070
     4
1070
   141
1040
150.0
1070
     7
1000
_OPEN
1070
     6
1000
_OPEN
1070
    41
1040
7.0
1002
}
  0
DIMENSION
  5
24E
330
1A
100
AcDbEntity
  8
ZUWAKU
100
AcDbDimension
  2
*D8
 10
404.8837238899773
 20
364.5852278966196
 30
0.0
 11
399.8837238899773
 21
381.6852278966197
 31
0.0
 12
22.2571387303401
 22
-22.55379057990694
 32
0.0
 70
    32
  1
※<>
  3
STANDARD
100
AcDbAlignedDimension
 13
445.1170669170779
 23
344.5852278966345
 33
0.0
 14
445.1170912478598
 24
364.5852278966196
 34
0.0
 50
90.0
100
AcDbRotatedDimension
1001
ACAD
1000
DSTYLE
1002
{
1070
   140
1040
6.0
1070
    74
1070
     0
1070
   172
1070
     1
1070
    73
1070
     0
1070
   272
1070
     2
1070
    77
1070
     3
1070
   173
1070
     1
1070
   147
1040
2.0
1070
    42
1040
6.0
1070
    44
1040
3.0
1070
    43
1040
14.0
1070
   271
1070
     0
1070
   178
1070
     4
1070
   177
1070
     4
1070
   176
1070
     4
1070
   141
1040
150.0
1070
     7
1000
_OPEN
1070
     6
1000
_OPEN
1070
    41
1040
7.0
1002
}
  0
TEXT
  5
274
330
1A
100
AcDbEntity
  8
SUNPOU
 62
     4
100
AcDbText
 10
617.7576063245937
 20
60.99656165821342
 30
0.0
 40
8.0
  1
※　のきといの差込み寸法を示す。
100
AcDbText
  0
VIEWPORT
  5
22
330
17
100
AcDbEntity
 67
     1
  8
0
100
AcDbViewport
 10
313.6808219178082
 20
148.5
 30
0.0
 40
627.3616438356165
 41
297.0
 68
     2
 69
     1
1001
ACAD
1000
MVIEW
1002
{
1070
    16
1010
0.0
1020
0.0
1030
0.0
1010
0.0
1020
0.0
1030
1.0
1040
0.0
1040
297.0
1040
313.6808219178082
1040
148.5
1040
50.0
1040
0.0
1040
0.0
1070
     0
1070
   100
1070
     1
1070
     0
1070
     0
1070
     0
1070
     0
1070
     0
1040
0.0
1040
0.0
1040
0.0
1040
1.0
1040
1.0
1040
10.0
1040
10.0
1070
     0
1002
{
1002
}
1002
}
  0
VIEWPORT
  5
64
330
17
100
AcDbEntity
 67
     1
  8
VIEWPORT
100
AcDbViewport
 10
210.0
 20
148.5
 30
0.0
 40
420.0
 41
297.0
 68
     1
 69
     2
1001
ACAD
1000
MVIEW
1002
{
1070
    16
1010
0.0
1020
0.0
1030
0.0
1010
0.0
1020
0.0
1030
1.0
1040
0.0
1040
605.8799999999998
1040
420.0
1040
297.0
1040
50.0
1040
0.0
1040
0.0
1070
     0
1070
   100
1070
     1
1070
     0
1070
     0
1070
     0
1070
     0
1070
     0
1040
0.0
1040
0.0
1040
0.0
1040
10.0
1040
10.0
1040
0.0
1040
0.0
1070
     0
1002
{
1002
}
1002
}
  0
ENDSEC
  0
SECTION
  2
OBJECTS
  0
DICTIONARY
  5
C
330
0
100
AcDbDictionary
  3
ACAD_GROUP
350
D
  3
ACAD_LAYOUT
350
289
  3
ACAD_MLINESTYLE
350
E
  3
ACAD_PLOTSETTINGS
350
28A
1001
ACAD
1000
TREAT_AS_HARD
1070
     0
  0
DICTIONARY
  5
2B8
330
1A
100
AcDbDictionary
  3
ACAD_LAYOUTSELFREF
350
2C8
1001
ACAD
1000
TREAT_AS_HARD
1070
     1
  0
DICTIONARY
  5
2B6
330
17
100
AcDbDictionary
  3
ACAD_LAYOUTSELFREF
350
2C7
1001
ACAD
1000
TREAT_AS_HARD
1070
     1
  0
DICTIONARY
  5
D
102
{ACAD_REACTORS
330
C
102
}
330
C
100
AcDbDictionary
1001
ACAD
1000
TREAT_AS_HARD
1070
     0
  0
DICTIONARY
  5
289
102
{ACAD_REACTORS
330
C
102
}
330
C
100
AcDbDictionary
1001
ACAD
1000
TREAT_AS_HARD
1070
     0
  0
DICTIONARY
  5
E
102
{ACAD_REACTORS
330
C
102
}
330
C
100
AcDbDictionary
  3
STANDARD
350
13
1001
ACAD
1000
TREAT_AS_HARD
1070
     0
  0
DICTIONARY
  5
28A
102
{ACAD_REACTORS
330
C
102
}
330
C
100
AcDbDictionary
1001
ACAD
1000
TREAT_AS_HARD
1070
     0
  0
XRECORD
  5
2C8
102
{ACAD_REACTORS
330
2B8
102
}
330
2B8
100
AcDbXrecord
340
1A
  0
XRECORD
  5
2C7
102
{ACAD_REACTORS
330
2B6
102
}
330
2B6
100
AcDbXrecord
340
17
  0
MLINESTYLE
  5
13
102
{ACAD_REACTORS
330
E
102
}
330
E
100
AcDbMlineStyle
  2
STANDARD
 70
     0
  3

 62
     0
 51
90.0
 52
90.0
 71
     2
 49
0.5
 62
   256
  6
BYLAYER
 49
-0.5
 62
   256
  6
BYLAYER
  0
ENDSEC
  0
EOF
