  0
SECTION
  2
HEADER
  9
$ACADVER
  1
AC1012
  9
$DWGCODEPAGE
  3
dos932
  9
$INSBASE
 10
0.0
 20
0.0
 30
0.0
  9
$EXTMIN
 10
10.05047808566086
 20
4.949376903717846
 30
0.0
  9
$EXTMAX
 10
806.2246110975902
 20
563.7825862828226
 30
0.0
  9
$LIMMIN
 10
0.0
 20
0.0
  9
$LIMMAX
 10
840.0
 20
594.0
  9
$ORTHOMODE
 70
     0
  9
$REGENMODE
 70
     1
  9
$FILLMODE
 70
     1
  9
$QTEXTMODE
 70
     0
  9
$MIRRTEXT
 70
     1
  9
$DRAGMODE
 70
     2
  9
$LTSCALE
 40
2.0
  9
$OSMODE
 70
   319
  9
$ATTMODE
 70
     1
  9
$TEXTSIZE
 40
5.0
  9
$TRACEWID
 40
1.0
  9
$TEXTSTYLE
  7
STANDARD
  9
$CLAYER
  8
SEIHIN
  9
$CELTYPE
  6
BYLAYER
  9
$CECOLOR
 62
   256
  9
$CELTSCALE
 40
1.0
  9
$DELOBJ
 70
     1
  9
$DISPSILH
 70
     0
  9
$DIMSCALE
 40
1.0
  9
$DIMASZ
 40
7.0
  9
$DIMEXO
 40
6.0
  9
$DIMDLI
 40
14.0
  9
$DIMRND
 40
0.0
  9
$DIMDLE
 40
0.0
  9
$DIMEXE
 40
3.0
  9
$DIMTP
 40
0.0
  9
$DIMTM
 40
0.0
  9
$DIMTXT
 40
6.0
  9
$DIMCEN
 40
150.0
  9
$DIMTSZ
 40
0.0
  9
$DIMTOL
 70
     0
  9
$DIMLIM
 70
     0
  9
$DIMTIH
 70
     0
  9
$DIMTOH
 70
     0
  9
$DIMSE1
 70
     0
  9
$DIMSE2
 70
     0
  9
$DIMTAD
 70
     3
  9
$DIMZIN
 70
     0
  9
$DIMBLK
  1

  9
$DIMASO
 70
     1
  9
$DIMSHO
 70
     1
  9
$DIMPOST
  1

  9
$DIMAPOST
  1

  9
$DIMALT
 70
     0
  9
$DIMALTD
 70
     2
  9
$DIMALTF
 40
25.4
  9
$DIMLFAC
 40
1.0
  9
$DIMTOFL
 70
     1
  9
$DIMTVP
 40
0.0
  9
$DIMTIX
 70
     0
  9
$DIMSOXD
 70
     0
  9
$DIMSAH
 70
     1
  9
$DIMBLK1
  1
OPEN
  9
$DIMBLK2
  1
OPEN
  9
$DIMSTYLE
  2
STANDARD
  9
$DIMCLRD
 70
   256
  9
$DIMCLRE
 70
   256
  9
$DIMCLRT
 70
   256
  9
$DIMTFAC
 40
1.0
  9
$DIMGAP
 40
2.0
  9
$DIMJUST
 70
     0
  9
$DIMSD1
 70
     0
  9
$DIMSD2
 70
     0
  9
$DIMTOLJ
 70
     1
  9
$DIMTZIN
 70
     0
  9
$DIMALTZ
 70
     0
  9
$DIMALTTZ
 70
     0
  9
$DIMFIT
 70
     3
  9
$DIMUPT
 70
     0
  9
$DIMUNIT
 70
     2
  9
$DIMDEC
 70
     0
  9
$DIMTDEC
 70
     0
  9
$DIMALTU
 70
     2
  9
$DIMALTTD
 70
     2
  9
$DIMTXSTY
  7
STANDARD
  9
$DIMAUNIT
 70
     0
  9
$LUNITS
 70
     2
  9
$LUPREC
 70
     4
  9
$SKETCHINC
 40
1.0
  9
$FILLETRAD
 40
1.0
  9
$AUNITS
 70
     0
  9
$AUPREC
 70
     0
  9
$MENU
  1
.
  9
$ELEVATION
 40
0.0
  9
$PELEVATION
 40
0.0
  9
$THICKNESS
 40
0.0
  9
$LIMCHECK
 70
     0
  9
$BLIPMODE
 70
     0
  9
$CHAMFERA
 40
20.0
  9
$CHAMFERB
 40
20.0
  9
$CHAMFERC
 40
40.0
  9
$CHAMFERD
 40
0.0
  9
$SKPOLY
 70
     0
  9
$TDCREATE
 40
2451187.371734606
  9
$TDUPDATE
 40
2452423.334372222
  9
$TDINDWG
 40
0.0125091435
  9
$TDUSRTIMER
 40
0.0125091435
  9
$USRTIMER
 70
     1
  9
$ANGBASE
 50
0.0
  9
$ANGDIR
 70
     0
  9
$PDMODE
 70
     0
  9
$PDSIZE
 40
0.0
  9
$PLINEWID
 40
0.0
  9
$COORDS
 70
     1
  9
$SPLFRAME
 70
     0
  9
$SPLINETYPE
 70
     6
  9
$SPLINESEGS
 70
     8
  9
$ATTDIA
 70
     0
  9
$ATTREQ
 70
     1
  9
$HANDLING
 70
 10241
  9
$HANDSEED
  5
49A
  9
$SURFTAB1
 70
     6
  9
$SURFTAB2
 70
     6
  9
$SURFTYPE
 70
     6
  9
$SURFU
 70
     6
  9
$SURFV
 70
     6
  9
$UCSNAME
  2

  9
$UCSORG
 10
0.0
 20
0.0
 30
0.0
  9
$UCSXDIR
 10
1.0
 20
0.0
 30
0.0
  9
$UCSYDIR
 10
0.0
 20
1.0
 30
0.0
  9
$PUCSNAME
  2

  9
$PUCSORG
 10
0.0
 20
0.0
 30
0.0
  9
$PUCSXDIR
 10
1.0
 20
0.0
 30
0.0
  9
$PUCSYDIR
 10
0.0
 20
1.0
 30
0.0
  9
$USERI1
 70
     0
  9
$USERI2
 70
     0
  9
$USERI3
 70
     0
  9
$USERI4
 70
     0
  9
$USERI5
 70
     0
  9
$USERR1
 40
0.0
  9
$USERR2
 40
0.0
  9
$USERR3
 40
0.0
  9
$USERR4
 40
0.0
  9
$USERR5
 40
0.0
  9
$WORLDVIEW
 70
     1
  9
$SHADEDGE
 70
     3
  9
$SHADEDIF
 70
    70
  9
$TILEMODE
 70
     1
  9
$MAXACTVP
 70
    16
  9
$PINSBASE
 10
0.0
 20
0.0
 30
0.0
  9
$PLIMCHECK
 70
     0
  9
$PEXTMIN
 10
0.0
 20
0.0
 30
0.0
  9
$PEXTMAX
 10
420.0
 20
297.0
 30
0.0
  9
$PLIMMIN
 10
0.0
 20
0.0
  9
$PLIMMAX
 10
420.0
 20
297.0
  9
$UNITMODE
 70
     0
  9
$VISRETAIN
 70
     0
  9
$PLINEGEN
 70
     0
  9
$PSLTSCALE
 70
     1
  9
$TREEDEPTH
 70
  3020
  9
$PICKSTYLE
 70
     1
  9
$CMLSTYLE
  2
STANDARD
  9
$CMLJUST
 70
     0
  9
$CMLSCALE
 40
1.0
  9
$SAVEIMAGES
 70
     1
  0
ENDSEC
  0
SECTION
  2
CLASSES
  0
CLASS
  1
ACDBDICTIONARYWDFLT
  2
AcDbDictionaryWithDefault
  3
AutoCAD 2000
 90
    32768
280
     0
281
     0
  0
CLASS
  1
ACDBPLACEHOLDER
  2
AcDbPlaceHolder
  3
AutoCAD 2000
 90
    32768
280
     0
281
     0
  0
CLASS
  1
LAYOUT
  2
AcDbLayout
  3
AutoCAD 2000
 90
    32768
280
     0
281
     0
  0
CLASS
  1
LONG_TRANSACTION
  2
AcDbLongTransaction
  3
AutoCAD 2000
 90
    32768
280
     0
281
     0
  0
CLASS
  1
LWPOLYLINE
  2
AcDbPolyline
  3
AutoCAD 2000
 90
    32768
280
     0
281
     1
  0
CLASS
  1
HATCH
  2
AcDbHatch
  3
AutoCAD 2000
 90
    32768
280
     0
281
     1
  0
CLASS
  1
XRECORD
  2
AcDbXrecord
  3
AutoCAD 2000
 90
    32768
280
     0
281
     0
  0
CLASS
  1
LONG_TRANSACTION
  2
AcDbLongTransaction
  3
AutoCAD 2000
 90
    32768
280
     0
281
     0
  0
CLASS
  1
LWPOLYLINE
  2
AcDbPolyline
  3
AutoCAD 2000
 90
    32768
280
     0
281
     1
  0
CLASS
  1
HATCH
  2
AcDbHatch
  3
AutoCAD 2000
 90
    32768
280
     0
281
     1
  0
CLASS
  1
XRECORD
  2
AcDbXrecord
  3
AutoCAD 2000
 90
    32768
280
     0
281
     0
  0
ENDSEC
  0
SECTION
  2
TABLES
  0
TABLE
  2
VPORT
  5
8
330
0
100
AcDbSymbolTable
 70
     2
  0
VPORT
  5
497
330
8
100
AcDbSymbolTableRecord
100
AcDbViewportTableRecord
  2
*ACTIVE
 70
     0
 10
0.0
 20
0.0
 11
1.0
 21
1.0
 12
442.2307109247186
 22
324.8507081290052
 13
0.0
 23
0.0
 14
5.0
 24
5.0
 15
0.0
 25
0.0
 16
0.0
 26
0.0
 36
1.0
 17
0.0
 27
0.0
 37
0.0
 40
664.4179707121259
 41
1.70990990990991
 42
50.0
 43
0.0
 44
0.0
 50
0.0
 51
0.0
 71
     0
 72
   100
 73
     1
 74
     0
 75
     0
 76
     0
 77
     0
 78
     0
  0
ENDTAB
  0
TABLE
  2
LTYPE
  5
5
330
0
100
AcDbSymbolTable
 70
     3
  0
LTYPE
  5
14
330
5
100
AcDbSymbolTableRecord
100
AcDbLinetypeTableRecord
  2
BYBLOCK
 70
     0
  3

 72
    65
 73
     0
 40
0.0
  0
LTYPE
  5
15
330
5
100
AcDbSymbolTableRecord
100
AcDbLinetypeTableRecord
  2
BYLAYER
 70
     0
  3

 72
    65
 73
     0
 40
0.0
  0
LTYPE
  5
16
330
5
100
AcDbSymbolTableRecord
100
AcDbLinetypeTableRecord
  2
CONTINUOUS
 70
     0
  3
Solid line
 72
    65
 73
     0
 40
0.0
  0
LTYPE
  5
115
330
5
100
AcDbSymbolTableRecord
100
AcDbLinetypeTableRecord
  2
PHANTOM
 70
     0
  3
______  __  __  ______  __  __  ______  __  __ 
 72
    65
 73
     6
 40
2.5
 49
1.25
 74
     0
 49
-0.25
 74
     0
 49
0.25
 74
     0
 49
-0.25
 74
     0
 49
0.25
 74
     0
 49
-0.25
 74
     0
  0
LTYPE
  5
135
330
5
100
AcDbSymbolTableRecord
100
AcDbLinetypeTableRecord
  2
CENTER
 70
     0
  3
____ _ ____ _ ____ _ ____ _ ____ _ ____ _ ____ 
 72
    65
 73
     4
 40
2.0
 49
1.25
 74
     0
 49
-0.25
 74
     0
 49
0.25
 74
     0
 49
-0.25
 74
     0
  0
ENDTAB
  0
TABLE
  2
LAYER
  5
2
330
0
100
AcDbSymbolTable
 70
     8
  0
LAYER
  5
F
330
2
100
AcDbSymbolTableRecord
100
AcDbLayerTableRecord
  2
0
 70
     0
 62
     7
  6
CONTINUOUS
  0
LAYER
  5
62
330
2
100
AcDbSymbolTableRecord
100
AcDbLayerTableRecord
  2
VIEWPORT
 70
     0
 62
     7
  6
CONTINUOUS
  0
LAYER
  5
65
330
2
100
AcDbSymbolTableRecord
100
AcDbLayerTableRecord
  2
ZUWAKU
 70
     0
 62
     7
  6
CONTINUOUS
  0
LAYER
  5
18B
330
2
100
AcDbSymbolTableRecord
100
AcDbLayerTableRecord
  2
SEIHIN
 70
     0
 62
     3
  6
CONTINUOUS
  0
LAYER
  5
18C
330
2
100
AcDbSymbolTableRecord
100
AcDbLayerTableRecord
  2
SUNPOU
 70
     0
 62
     4
  6
CONTINUOUS
  0
LAYER
  5
18D
330
2
100
AcDbSymbolTableRecord
100
AcDbLayerTableRecord
  2
CENTER_L
 70
     0
 62
     1
  6
CENTER
  0
LAYER
  5
18E
330
2
100
AcDbSymbolTableRecord
100
AcDbLayerTableRecord
  2
DEFPOINTS
 70
     0
 62
     7
  6
CONTINUOUS
  0
LAYER
  5
18F
330
2
100
AcDbSymbolTableRecord
100
AcDbLayerTableRecord
  2
NOKITOI
 70
     0
 62
     8
  6
PHANTOM
  0
ENDTAB
  0
TABLE
  2
STYLE
  5
3
330
0
100
AcDbSymbolTable
 70
     1
  0
STYLE
  5
10
330
3
100
AcDbSymbolTableRecord
100
AcDbTextStyleTableRecord
  2
STANDARD
 70
     0
 40
0.0
 41
1.0
 50
0.0
 71
     0
 42
5.0
  3
TXT
  4
bigfont.shx
  0
ENDTAB
  0
TABLE
  2
VIEW
  5
6
330
0
100
AcDbSymbolTable
 70
     0
  0
ENDTAB
  0
TABLE
  2
UCS
  5
7
330
0
100
AcDbSymbolTable
 70
     0
  0
ENDTAB
  0
TABLE
  2
APPID
  5
9
330
0
100
AcDbSymbolTable
 70
     1
  0
APPID
  5
11
330
9
100
AcDbSymbolTableRecord
100
AcDbRegAppTableRecord
  2
ACAD
 70
     0
  0
ENDTAB
  0
TABLE
  2
DIMSTYLE
  5
A
330
0
100
AcDbSymbolTable
 70
     1
  0
DIMSTYLE
105
1D
102
{ACAD_REACTORS
330
294
330
299
330
30B
330
310
330
350
330
391
102
}
330
A
100
AcDbSymbolTableRecord
100
AcDbDimStyleTableRecord
  2
STANDARD
 70
     0
  3

  4

  5

  6

  7

 40
1.0
 41
0.18
 42
0.0625
 43
0.38
 44
0.18
 45
0.0
 46
0.0
 47
0.0
 48
0.0
140
0.18
141
0.09
142
0.0
143
25.4
144
1.0
145
0.0
146
1.0
147
0.09
 71
     0
 72
     0
 73
     1
 74
     1
 75
     0
 76
     0
 77
     0
 78
     0
170
     0
171
     2
172
     0
173
     0
174
     0
175
     0
176
     0
177
     0
178
     0
270
     2
271
     4
272
     4
273
     2
274
     2
340
10
275
     0
280
     0
281
     0
282
     0
283
     1
284
     0
285
     0
286
     0
287
     3
288
     0
  0
ENDTAB
  0
TABLE
  2
BLOCK_RECORD
  5
1
330
0
100
AcDbSymbolTable
 70
     7
  0
BLOCK_RECORD
  5
1A
102
{ACAD_XDICTIONARY
360
489
102
}
330
1
100
AcDbSymbolTableRecord
100
AcDbBlockTableRecord
  2
*MODEL_SPACE
  0
BLOCK_RECORD
  5
17
102
{ACAD_XDICTIONARY
360
487
102
}
330
1
100
AcDbSymbolTableRecord
100
AcDbBlockTableRecord
  2
*PAPER_SPACE
  0
BLOCK_RECORD
  5
6D
330
1
100
AcDbSymbolTableRecord
100
AcDbBlockTableRecord
  2
_OPEN
  0
BLOCK_RECORD
  5
394
330
1
100
AcDbSymbolTableRecord
100
AcDbBlockTableRecord
  2
*D1
  0
BLOCK_RECORD
  5
3A0
330
1
100
AcDbSymbolTableRecord
100
AcDbBlockTableRecord
  2
*D2
  0
BLOCK_RECORD
  5
3AC
330
1
100
AcDbSymbolTableRecord
100
AcDbBlockTableRecord
  2
*D3
  0
BLOCK_RECORD
  5
3B8
330
1
100
AcDbSymbolTableRecord
100
AcDbBlockTableRecord
  2
*D4
  0
BLOCK_RECORD
  5
3C4
330
1
100
AcDbSymbolTableRecord
100
AcDbBlockTableRecord
  2
*D5
  0
BLOCK_RECORD
  5
3D0
330
1
100
AcDbSymbolTableRecord
100
AcDbBlockTableRecord
  2
*D6
  0
ENDTAB
  0
ENDSEC
  0
SECTION
  2
BLOCKS
  0
BLOCK
  5
1B
330
1A
100
AcDbEntity
  8
0
100
AcDbBlockBegin
  2
*MODEL_SPACE
 70
     0
 10
0.0
 20
0.0
 30
0.0
  3
*MODEL_SPACE
  1

  0
ENDBLK
  5
1C
330
1A
100
AcDbEntity
  8
0
100
AcDbBlockEnd
  0
BLOCK
  5
18
330
17
100
AcDbEntity
 67
     1
  8
0
100
AcDbBlockBegin
  2
*PAPER_SPACE
 70
     0
 10
0.0
 20
0.0
 30
0.0
  3
*PAPER_SPACE
  1

  0
ENDBLK
  5
19
330
17
100
AcDbEntity
 67
     1
  8
0
100
AcDbBlockEnd
  0
BLOCK
  5
6E
330
6D
100
AcDbEntity
  8
0
100
AcDbBlockBegin
  2
_OPEN
 70
     0
 10
0.0
 20
0.0
 30
0.0
  3
_OPEN
  1

  0
LINE
  5
6F
330
6D
100
AcDbEntity
  8
0
  6
BYBLOCK
 62
     0
100
AcDbLine
 10
-1.0
 20
0.1666666666666666
 30
0.0
 11
0.0
 21
0.0
 31
0.0
  0
LINE
  5
70
330
6D
100
AcDbEntity
  8
0
  6
BYBLOCK
 62
     0
100
AcDbLine
 10
0.0
 20
0.0
 30
0.0
 11
-1.0
 21
-0.1666666666666666
 31
0.0
  0
LINE
  5
71
330
6D
100
AcDbEntity
  8
0
  6
BYBLOCK
 62
     0
100
AcDbLine
 10
0.0
 20
0.0
 30
0.0
 11
-1.0
 21
0.0
 31
0.0
  0
ENDBLK
  5
72
330
6D
100
AcDbEntity
  8
0
100
AcDbBlockEnd
  0
BLOCK
  5
3DC
330
394
100
AcDbEntity
  8
0
100
AcDbBlockBegin
  2
*D1
 70
     1
 10
0.0
 20
0.0
 30
0.0
  3
*D1
  1

  0
LINE
  5
3DD
330
394
100
AcDbEntity
  8
0
  6
BYBLOCK
 62
     4
100
AcDbLine
 10
554.5621470096513
 20
197.9342370967588
 30
0.0
 11
554.5621470096513
 21
223.6118558190199
 31
0.0
  0
LINE
  5
3DE
330
394
100
AcDbEntity
  8
0
  6
BYBLOCK
 62
     4
100
AcDbLine
 10
422.6701528138512
 20
197.9342370967588
 30
0.0
 11
422.6701528138512
 21
223.6118558190199
 31
0.0
  0
LINE
  5
3DF
330
394
100
AcDbEntity
  8
0
  6
BYBLOCK
 62
     4
100
AcDbLine
 10
547.5621470096513
 20
220.6118558190199
 30
0.0
 11
429.6701528138512
 21
220.6118558190199
 31
0.0
  0
INSERT
  5
3E0
330
394
100
AcDbEntity
  8
0
  6
BYBLOCK
 62
     4
100
AcDbBlockReference
  2
_OPEN
 10
554.5621470096513
 20
220.6118558190199
 30
0.0
 41
7.0
 42
7.0
 43
7.0
  0
INSERT
  5
3E1
330
394
100
AcDbEntity
  8
0
  6
BYBLOCK
 62
     4
100
AcDbBlockReference
  2
_OPEN
 10
422.6701528138512
 20
220.6118558190199
 30
0.0
 41
7.0
 42
7.0
 43
7.0
 50
180.0
  0
MTEXT
  5
3E2
330
394
100
AcDbEntity
  8
0
  6
BYBLOCK
 62
     4
100
AcDbMText
 10
488.6161499117513
 20
225.6118558190199
 30
0.0
 40
6.0
 41
0.0
 71
     5
 72
     1
  1
\A1;132
1001
ACAD
1000
MTEXTBEGIN
1070
    73
1070
     1
1070
    44
1040
1.0
1070
    74
1070
     0
1000
MTEXTEND
1000
MTEXTBEGIN
1070
    73
1070
     1
1070
    44
1040
1.0
1070
    74
1070
     0
1000
MTEXTEND
  0
POINT
  5
3E3
330
394
100
AcDbEntity
  8
DEFPOINTS
  6
BYBLOCK
 62
     0
100
AcDbPoint
 10
554.5621470096513
 20
191.9342370967588
 30
0.0
  0
POINT
  5
3E4
330
394
100
AcDbEntity
  8
DEFPOINTS
  6
BYBLOCK
 62
     0
100
AcDbPoint
 10
422.6701528138512
 20
191.9342370967588
 30
0.0
  0
POINT
  5
3E5
330
394
100
AcDbEntity
  8
DEFPOINTS
  6
BYBLOCK
 62
     0
100
AcDbPoint
 10
422.6701528138512
 20
220.6118558190199
 30
0.0
  0
ENDBLK
  5
3E6
330
394
100
AcDbEntity
  8
0
100
AcDbBlockEnd
  0
BLOCK
  5
3E7
330
3A0
100
AcDbEntity
  8
0
100
AcDbBlockBegin
  2
*D2
 70
     1
 10
0.0
 20
0.0
 30
0.0
  3
*D2
  1

  0
LINE
  5
3E8
330
3A0
100
AcDbEntity
  8
0
  6
BYBLOCK
 62
     4
100
AcDbLine
 10
617.6161499117512
 20
202.1858561310588
 30
0.0
 11
617.6161499117512
 21
238.3888304556447
 31
0.0
  0
LINE
  5
3E9
330
3A0
100
AcDbEntity
  8
0
  6
BYBLOCK
 62
     4
100
AcDbLine
 10
422.6701528138512
 20
197.9342370967588
 30
0.0
 11
422.6701528138512
 21
238.3888304556447
 31
0.0
  0
LINE
  5
3EA
330
3A0
100
AcDbEntity
  8
0
  6
BYBLOCK
 62
     4
100
AcDbLine
 10
610.6161499117511
 20
235.3888304556447
 30
0.0
 11
429.6701528138512
 21
235.3888304556447
 31
0.0
  0
INSERT
  5
3EB
330
3A0
100
AcDbEntity
  8
0
  6
BYBLOCK
 62
     4
100
AcDbBlockReference
  2
_OPEN
 10
617.6161499117512
 20
235.3888304556447
 30
0.0
 41
7.0
 42
7.0
 43
7.0
  0
INSERT
  5
3EC
330
3A0
100
AcDbEntity
  8
0
  6
BYBLOCK
 62
     4
100
AcDbBlockReference
  2
_OPEN
 10
422.6701528138512
 20
235.3888304556447
 30
0.0
 41
7.0
 42
7.0
 43
7.0
 50
180.0
  0
MTEXT
  5
3ED
330
3A0
100
AcDbEntity
  8
0
  6
BYBLOCK
 62
     4
100
AcDbMText
 10
520.1431513628013
 20
240.3888304556447
 30
0.0
 40
6.0
 41
0.0
 71
     5
 72
     1
  1
\A1;195
1001
ACAD
1000
MTEXTBEGIN
1070
    73
1070
     1
1070
    44
1040
1.0
1070
    74
1070
     0
1000
MTEXTEND
1000
MTEXTBEGIN
1070
    73
1070
     1
1070
    44
1040
1.0
1070
    74
1070
     0
1000
MTEXTEND
  0
POINT
  5
3EE
330
3A0
100
AcDbEntity
  8
DEFPOINTS
  6
BYBLOCK
 62
     0
100
AcDbPoint
 10
617.6161499117512
 20
196.1858561310588
 30
0.0
  0
POINT
  5
3EF
330
3A0
100
AcDbEntity
  8
DEFPOINTS
  6
BYBLOCK
 62
     0
100
AcDbPoint
 10
422.6701528138512
 20
191.9342370967588
 30
0.0
  0
POINT
  5
3F0
330
3A0
100
AcDbEntity
  8
DEFPOINTS
  6
BYBLOCK
 62
     0
100
AcDbPoint
 10
422.6701528138512
 20
235.3888304556447
 30
0.0
  0
ENDBLK
  5
3F1
330
3A0
100
AcDbEntity
  8
0
100
AcDbBlockEnd
  0
BLOCK
  5
3F2
330
3AC
100
AcDbEntity
  8
0
100
AcDbBlockBegin
  2
*D3
 70
     1
 10
0.0
 20
0.0
 30
0.0
  3
*D3
  1

  0
LINE
  5
3F3
330
3AC
100
AcDbEntity
  8
0
  6
BYBLOCK
 62
     4
100
AcDbLine
 10
623.6161499117512
 20
482.7545605411589
 30
0.0
 11
679.5513192144977
 21
482.7545605411589
 31
0.0
  0
LINE
  5
3F4
330
3AC
100
AcDbEntity
  8
0
  6
BYBLOCK
 62
     4
100
AcDbLine
 10
564.9661499117512
 20
283.4045605411588
 30
0.0
 11
679.5513192144977
 21
283.4045605411588
 31
0.0
  0
LINE
  5
3F5
330
3AC
100
AcDbEntity
  8
0
  6
BYBLOCK
 62
     4
100
AcDbLine
 10
676.5513192144977
 20
475.7545605411588
 30
0.0
 11
676.5513192144977
 21
290.4045605411588
 31
0.0
  0
INSERT
  5
3F6
330
3AC
100
AcDbEntity
  8
0
  6
BYBLOCK
 62
     4
100
AcDbBlockReference
  2
_OPEN
 10
676.5513192144977
 20
482.7545605411589
 30
0.0
 41
7.0
 42
7.0
 43
7.0
 50
90.0
  0
INSERT
  5
3F7
330
3AC
100
AcDbEntity
  8
0
  6
BYBLOCK
 62
     4
100
AcDbBlockReference
  2
_OPEN
 10
676.5513192144977
 20
283.4045605411588
 30
0.0
 41
7.0
 42
7.0
 43
7.0
 50
270.0
  0
MTEXT
  5
3F8
330
3AC
100
AcDbEntity
  8
0
  6
BYBLOCK
 62
     4
100
AcDbMText
 10
671.5513192144977
 20
383.0795605411588
 30
0.0
 40
6.0
 41
0.0
 71
     5
 72
     1
  1
\A1;199
 11
0.0
 21
1.0
 31
0.0
1001
ACAD
1000
MTEXTBEGIN
1070
    73
1070
     1
1070
    44
1040
1.0
1070
    74
1070
     0
1000
MTEXTEND
1000
MTEXTBEGIN
1070
    73
1070
     1
1070
    44
1040
1.0
1070
    74
1070
     0
1000
MTEXTEND
  0
POINT
  5
3F9
330
3AC
100
AcDbEntity
  8
DEFPOINTS
  6
BYBLOCK
 62
     0
100
AcDbPoint
 10
617.6161499117512
 20
482.7545605411589
 30
0.0
  0
POINT
  5
3FA
330
3AC
100
AcDbEntity
  8
DEFPOINTS
  6
BYBLOCK
 62
     0
100
AcDbPoint
 10
558.9661499117512
 20
283.4045605411588
 30
0.0
  0
POINT
  5
3FB
330
3AC
100
AcDbEntity
  8
DEFPOINTS
  6
BYBLOCK
 62
     0
100
AcDbPoint
 10
676.5513192144977
 20
283.4045605411588
 30
0.0
  0
ENDBLK
  5
3FC
330
3AC
100
AcDbEntity
  8
0
100
AcDbBlockEnd
  0
BLOCK
  5
3FD
330
3B8
100
AcDbEntity
  8
0
100
AcDbBlockBegin
  2
*D4
 70
     1
 10
0.0
 20
0.0
 30
0.0
  3
*D4
  1

  0
LINE
  5
3FE
330
3B8
100
AcDbEntity
  8
0
  6
BYBLOCK
 62
     4
100
AcDbLine
 10
623.6161499117512
 20
191.9449055046588
 30
0.0
 11
656.9920538668322
 21
191.9449055046588
 31
0.0
  0
LINE
  5
3FF
330
3B8
100
AcDbEntity
  8
0
  6
BYBLOCK
 62
     4
100
AcDbLine
 10
623.6161499117512
 20
130.9449055046588
 30
0.0
 11
656.9920538668322
 21
130.9449055046588
 31
0.0
  0
LINE
  5
400
330
3B8
100
AcDbEntity
  8
0
  6
BYBLOCK
 62
     4
100
AcDbLine
 10
653.9920538668321
 20
184.9449055046589
 30
0.0
 11
653.9920538668321
 21
137.9449055046588
 31
0.0
  0
INSERT
  5
401
330
3B8
100
AcDbEntity
  8
0
  6
BYBLOCK
 62
     4
100
AcDbBlockReference
  2
_OPEN
 10
653.9920538668321
 20
191.9449055046588
 30
0.0
 41
7.0
 42
7.0
 43
7.0
 50
90.0
  0
INSERT
  5
402
330
3B8
100
AcDbEntity
  8
0
  6
BYBLOCK
 62
     4
100
AcDbBlockReference
  2
_OPEN
 10
653.9920538668321
 20
130.9449055046588
 30
0.0
 41
7.0
 42
7.0
 43
7.0
 50
270.0
  0
MTEXT
  5
403
330
3B8
100
AcDbEntity
  8
0
  6
BYBLOCK
 62
     4
100
AcDbMText
 10
648.9920538668322
 20
161.4449055046588
 30
0.0
 40
6.0
 41
0.0
 71
     5
 72
     1
  1
\A1;61
 11
0.0
 21
1.0
 31
0.0
1001
ACAD
1000
MTEXTBEGIN
1070
    73
1070
     1
1070
    44
1040
1.0
1070
    74
1070
     0
1000
MTEXTEND
1000
MTEXTBEGIN
1070
    73
1070
     1
1070
    44
1040
1.0
1070
    74
1070
     0
1000
MTEXTEND
  0
POINT
  5
404
330
3B8
100
AcDbEntity
  8
DEFPOINTS
  6
BYBLOCK
 62
     0
100
AcDbPoint
 10
617.6161499117512
 20
191.9449055046588
 30
0.0
  0
POINT
  5
405
330
3B8
100
AcDbEntity
  8
DEFPOINTS
  6
BYBLOCK
 62
     0
100
AcDbPoint
 10
617.6161499117512
 20
130.9449055046588
 30
0.0
  0
POINT
  5
406
330
3B8
100
AcDbEntity
  8
DEFPOINTS
  6
BYBLOCK
 62
     0
100
AcDbPoint
 10
653.9920538668321
 20
130.9449055046588
 30
0.0
  0
ENDBLK
  5
407
330
3B8
100
AcDbEntity
  8
0
100
AcDbBlockEnd
  0
BLOCK
  5
43F
330
3C4
100
AcDbEntity
  8
0
100
AcDbBlockBegin
  2
*D5
 70
     1
 10
0.0
 20
0.0
 30
0.0
  3
*D5
  1

  0
LINE
  5
440
330
3C4
100
AcDbEntity
  8
0
  6
BYBLOCK
 62
     4
100
AcDbLine
 10
551.6161499117512
 20
377.3811635431588
 30
0.0
 11
551.6161499117512
 21
389.3494023712598
 31
0.0
  0
LINE
  5
441
330
3C4
100
AcDbEntity
  8
0
  6
BYBLOCK
 62
     4
100
AcDbLine
 10
617.6161499117512
 20
348.0545605411588
 30
0.0
 11
617.6161499117512
 21
389.3494023712598
 31
0.0
  0
LINE
  5
442
330
3C4
100
AcDbEntity
  8
0
  6
BYBLOCK
 62
     4
100
AcDbLine
 10
558.6161499117512
 20
386.3494023712598
 30
0.0
 11
610.6161499117511
 21
386.3494023712598
 31
0.0
  0
INSERT
  5
443
330
3C4
100
AcDbEntity
  8
0
  6
BYBLOCK
 62
     4
100
AcDbBlockReference
  2
_OPEN
 10
551.6161499117512
 20
386.3494023712598
 30
0.0
 41
7.0
 42
7.0
 43
7.0
 50
180.0
  0
INSERT
  5
444
330
3C4
100
AcDbEntity
  8
0
  6
BYBLOCK
 62
     4
100
AcDbBlockReference
  2
_OPEN
 10
617.6161499117512
 20
386.3494023712598
 30
0.0
 41
7.0
 42
7.0
 43
7.0
  0
MTEXT
  5
445
330
3C4
100
AcDbEntity
  8
0
  6
BYBLOCK
 62
     4
100
AcDbMText
 10
598.0161499117512
 20
391.3494023712599
 30
0.0
 40
6.0
 41
0.0
 71
     5
 72
     1
  1
\A1;※66
1001
ACAD
1000
MTEXTBEGIN
1070
    73
1070
     1
1070
    44
1040
1.0
1070
    74
1070
     0
1000
MTEXTEND
1000
MTEXTBEGIN
1070
    73
1070
     1
1070
    44
1040
1.0
1070
    74
1070
     0
1000
MTEXTEND
  0
POINT
  5
446
330
3C4
100
AcDbEntity
  8
DEFPOINTS
  6
BYBLOCK
 62
     0
100
AcDbPoint
 10
551.6161499117512
 20
371.3811635431588
 30
0.0
  0
POINT
  5
447
330
3C4
100
AcDbEntity
  8
DEFPOINTS
  6
BYBLOCK
 62
     0
100
AcDbPoint
 10
617.6161499117512
 20
342.0545605411589
 30
0.0
  0
POINT
  5
448
330
3C4
100
AcDbEntity
  8
DEFPOINTS
  6
BYBLOCK
 62
     0
100
AcDbPoint
 10
617.6161499117512
 20
386.3494023712598
 30
0.0
  0
ENDBLK
  5
449
330
3C4
100
AcDbEntity
  8
0
100
AcDbBlockEnd
  0
BLOCK
  5
413
330
3D0
100
AcDbEntity
  8
0
100
AcDbBlockBegin
  2
*D6
 70
     1
 10
0.0
 20
0.0
 30
0.0
  3
*D6
  1

  0
LINE
  5
414
330
3D0
100
AcDbEntity
  8
0
  6
BYBLOCK
 62
     4
100
AcDbLine
 10
623.6161499117512
 20
482.7545605411589
 30
0.0
 11
662.2152765758329
 21
482.7545605411589
 31
0.0
  0
LINE
  5
415
330
3D0
100
AcDbEntity
  8
0
  6
BYBLOCK
 62
     4
100
AcDbLine
 10
623.6161499117512
 20
342.0545605411589
 30
0.0
 11
662.2152765758329
 21
342.0545605411589
 31
0.0
  0
LINE
  5
416
330
3D0
100
AcDbEntity
  8
0
  6
BYBLOCK
 62
     4
100
AcDbLine
 10
659.2152765758329
 20
475.7545605411588
 30
0.0
 11
659.2152765758329
 21
349.0545605411588
 31
0.0
  0
INSERT
  5
417
330
3D0
100
AcDbEntity
  8
0
  6
BYBLOCK
 62
     4
100
AcDbBlockReference
  2
_OPEN
 10
659.2152765758329
 20
482.7545605411589
 30
0.0
 41
7.0
 42
7.0
 43
7.0
 50
90.0
  0
INSERT
  5
418
330
3D0
100
AcDbEntity
  8
0
  6
BYBLOCK
 62
     4
100
AcDbBlockReference
  2
_OPEN
 10
659.2152765758329
 20
342.0545605411589
 30
0.0
 41
7.0
 42
7.0
 43
7.0
 50
270.0
  0
MTEXT
  5
419
330
3D0
100
AcDbEntity
  8
0
  6
BYBLOCK
 62
     4
100
AcDbMText
 10
654.2152765758329
 20
409.8835001962586
 30
0.0
 40
6.0
 41
0.0
 71
     5
 72
     1
  1
\A1;141
 11
0.0
 21
1.0
 31
0.0
1001
ACAD
1000
MTEXTBEGIN
1070
    73
1070
     1
1070
    44
1040
1.0
1070
    74
1070
     0
1000
MTEXTEND
1000
MTEXTBEGIN
1070
    73
1070
     1
1070
    44
1040
1.0
1070
    74
1070
     0
1000
MTEXTEND
  0
POINT
  5
41A
330
3D0
100
AcDbEntity
  8
DEFPOINTS
  6
BYBLOCK
 62
     0
100
AcDbPoint
 10
617.6161499117512
 20
482.7545605411589
 30
0.0
  0
POINT
  5
41B
330
3D0
100
AcDbEntity
  8
DEFPOINTS
  6
BYBLOCK
 62
     0
100
AcDbPoint
 10
617.6161499117512
 20
342.0545605411589
 30
0.0
  0
POINT
  5
41C
330
3D0
100
AcDbEntity
  8
DEFPOINTS
  6
BYBLOCK
 62
     0
100
AcDbPoint
 10
659.2152765758329
 20
342.0545605411589
 30
0.0
  0
ENDBLK
  5
41D
330
3D0
100
AcDbEntity
  8
0
100
AcDbBlockEnd
  0
ENDSEC
  0
SECTION
  2
ENTITIES
  0
TEXT
  5
11A
330
1A
100
AcDbEntity
  8
ZUWAKU
 62
     7
 48
10.0
100
AcDbText
 10
795.5579444309237
 20
4.974918402528146
 30
0.0
 40
8.0
  1
A1
100
AcDbText
  0
LINE
  5
11B
330
1A
100
AcDbEntity
  8
ZUWAKU
 62
     7
 48
10.0
100
AcDbLine
 10
10.05047808566086
 20
25.78258628282265
 30
0.0
 11
806.0504780856609
 21
25.78258628282253
 31
0.0
  0
LINE
  5
11C
330
1A
100
AcDbEntity
  8
ZUWAKU
  6
CONTINUOUS
 62
     7
100
AcDbLine
 10
806.0504780856609
 20
563.7825862828226
 30
0.0
 11
10.05047808566086
 21
563.7825862828226
 31
0.0
  0
LINE
  5
11D
330
1A
100
AcDbEntity
  8
ZUWAKU
  6
CONTINUOUS
 62
     7
100
AcDbLine
 10
806.0504780856609
 20
13.78258628282265
 30
0.0
 11
10.05047808566086
 21
13.78258628282265
 31
0.0
  0
LINE
  5
11E
330
1A
100
AcDbEntity
  8
ZUWAKU
  6
CONTINUOUS
 62
     7
100
AcDbLine
 10
10.05047808566086
 20
563.7825862828226
 30
0.0
 11
10.05047808566086
 21
13.78258628282265
 31
0.0
  0
LINE
  5
11F
330
1A
100
AcDbEntity
  8
ZUWAKU
 62
     7
 48
10.0
100
AcDbLine
 10
44.55797523147839
 20
13.78258628282265
 30
0.0
 11
44.5579752314784
 21
25.78258628282265
 31
0.0
  0
TEXT
  5
120
330
1A
100
AcDbEntity
  8
ZUWAKU
 62
     7
100
AcDbText
 10
16.05676551180931
 20
15.52294263804401
 30
0.0
 40
8.0
  1
品 種
100
AcDbText
  0
LINE
  5
121
330
1A
100
AcDbEntity
  8
ZUWAKU
 62
     7
 48
10.0
100
AcDbLine
 10
276.1028387068254
 20
13.78258628282265
 30
0.0
 11
276.1028387068254
 21
25.78258628282261
 31
0.0
  0
LINE
  5
122
330
1A
100
AcDbEntity
  8
ZUWAKU
 62
     7
 48
10.0
100
AcDbLine
 10
209.5138526425484
 20
13.78258628282265
 30
0.0
 11
209.5138526425485
 21
25.78258628282263
 31
0.0
  0
TEXT
  5
124
330
1A
100
AcDbEntity
  8
ZUWAKU
 62
     7
100
AcDbText
 10
215.4560837190756
 20
16.18358115302453
 30
0.0
 40
8.0
  1
品名・ｻ ｲ ｽﾞ
100
AcDbText
  0
LINE
  5
126
330
1A
100
AcDbEntity
  8
ZUWAKU
 62
     7
 48
10.0
100
AcDbLine
 10
768.7231079932794
 20
13.78258628282237
 30
0.0
 11
768.7231079932794
 21
25.78258628282254
 31
0.0
  0
LINE
  5
127
330
1A
100
AcDbEntity
  8
ZUWAKU
 62
     7
 48
10.0
100
AcDbLine
 10
733.8119002376948
 20
13.78258628282242
 30
0.0
 11
733.8119002376946
 21
25.78258628282254
 31
0.0
  0
TEXT
  5
128
330
1A
100
AcDbEntity
  8
ZUWAKU
 62
     7
100
AcDbText
 10
739.6955629973526
 20
15.24227755810852
 30
0.0
 40
8.0
  1
尺 度
100
AcDbText
  0
TEXT
  5
129
330
1A
100
AcDbEntity
  8
ZUWAKU
 62
     7
100
AcDbText
 10
779.7374630323229
 20
15.55488920081529
 30
0.0
 40
8.0
  1
1/2
100
AcDbText
  0
TEXT
  5
12B
330
1A
100
AcDbEntity
  8
ZUWAKU
 62
     7
100
AcDbText
 10
620.3363288383084
 20
15.6519090944263
 30
0.0
 40
8.0
  1
品 番
100
AcDbText
  0
LINE
  5
12C
330
1A
100
AcDbEntity
  8
ZUWAKU
 62
     7
 48
10.0
100
AcDbLine
 10
614.3351028194128
 20
13.78258628282232
 30
0.0
 11
614.3351028194128
 21
25.78258628282256
 31
0.0
  0
LINE
  5
12D
330
1A
100
AcDbEntity
  8
ZUWAKU
 62
     7
 48
10.0
100
AcDbLine
 10
648.7607587371021
 20
13.78258628282232
 30
0.0
 11
648.7607587371021
 21
25.78258628282255
 31
0.0
  0
TEXT
  5
12E
330
1A
100
AcDbEntity
  8
ZUWAKU
 62
     7
 48
10.0
100
AcDbText
 10
646.2758615931216
 20
4.949376903717848
 30
0.0
 40
8.0
  1
積水化学工業株式会社  建材
100
AcDbText
  0
LINE
  5
12F
330
1A
100
AcDbEntity
  8
ZUWAKU
  6
CONTINUOUS
 62
     7
100
AcDbLine
 10
806.0504780856609
 20
563.7825862828226
 30
0.0
 11
806.0504780856609
 21
13.78258628282265
 31
0.0
  0
DIMENSION
  5
294
330
1A
100
AcDbEntity
  8
SUNPOU
  6
CONTINUOUS
100
AcDbDimension
  2
*D1
 10
422.6701528138512
 20
220.6118558190199
 30
0.0
 11
488.6161499117513
 21
225.6118558190199
 31
0.0
 70
    32
  3
STANDARD
100
AcDbAlignedDimension
 13
554.5621470096513
 23
191.9342370967588
 33
0.0
 14
422.6701528138512
 24
191.9342370967588
 34
0.0
100
AcDbRotatedDimension
1001
ACAD
1000
DSTYLE
1002
{
1070
   140
1040
6.0
1070
    74
1070
     0
1070
   172
1070
     1
1070
    73
1070
     0
1070
   272
1070
     2
1070
    77
1070
     3
1070
   173
1070
     1
1070
   147
1040
2.0
1070
    42
1040
6.0
1070
    44
1040
3.0
1070
    43
1040
14.0
1070
   271
1070
     0
1070
   178
1070
     4
1070
   177
1070
     4
1070
   176
1070
     4
1070
   141
1040
150.0
1070
     7
1000
_OPEN
1070
     6
1000
_OPEN
1070
    41
1040
7.0
1002
}
  0
LINE
  5
295
330
1A
100
AcDbEntity
  8
SEIHIN
  6
CONTINUOUS
100
AcDbLine
 10
440.7355110463512
 20
460.2851994065588
 30
0.0
 11
478.0095481939531
 21
423.011162258957
 31
0.0
  0
LINE
  5
296
330
1A
100
AcDbEntity
  8
CENTER_L
  6
CENTER
 62
     1
 48
5.0
100
AcDbLine
 10
411.2661499117514
 20
489.7545605411588
 30
0.0
 11
565.9661499117511
 21
335.0545605411588
 31
0.0
  0
ARC
  5
297
330
1A
100
AcDbEntity
  8
NOKITOI
  6
PHANTOM
 62
     8
 48
5.0
100
AcDbCircle
 10
488.6161002715723
 20
189.9449061328535
 30
0.0
 40
55.69997777445496
100
AcDbArc
 50
183.4893828011791
 51
356.5101019184219
  0
ARC
  5
298
330
1A
100
AcDbEntity
  8
NOKITOI
  6
PHANTOM
 62
     8
 48
5.0
100
AcDbCircle
 10
488.6161499117513
 20
189.9449043201049
 30
0.0
 40
56.99999881544602
100
AcDbArc
 50
186.7561500022946
 51
353.2434543568847
  0
DIMENSION
  5
299
330
1A
100
AcDbEntity
  8
SUNPOU
  6
CONTINUOUS
100
AcDbDimension
  2
*D2
 10
422.6701528138512
 20
235.3888304556447
 30
0.0
 11
520.1431513628013
 21
240.3888304556447
 31
0.0
 70
    32
  3
STANDARD
100
AcDbAlignedDimension
 13
617.6161499117512
 23
196.1858561310588
 33
0.0
 14
422.6701528138512
 24
191.9342370967588
 34
0.0
100
AcDbRotatedDimension
1001
ACAD
1000
DSTYLE
1002
{
1070
   140
1040
6.0
1070
    74
1070
     0
1070
   172
1070
     1
1070
    73
1070
     0
1070
   272
1070
     2
1070
    77
1070
     3
1070
   173
1070
     1
1070
   147
1040
2.0
1070
    42
1040
6.0
1070
    44
1040
3.0
1070
    43
1040
14.0
1070
   271
1070
     0
1070
   178
1070
     4
1070
   177
1070
     4
1070
   176
1070
     4
1070
   141
1040
150.0
1070
     7
1000
_OPEN
1070
     6
1000
_OPEN
1070
    41
1040
7.0
1002
}
  0
LINE
  5
29A
330
1A
100
AcDbEntity
  8
SEIHIN
  6
CONTINUOUS
 62
     3
 48
16.0
100
AcDbLine
 10
455.2661499117512
 20
462.2707273196589
 30
0.0
 11
438.7499831332512
 21
462.2707273196589
 31
0.0
  0
LINE
  5
29B
330
1A
100
AcDbEntity
  8
SEIHIN
  6
CONTINUOUS
 62
     3
 48
16.0
100
AcDbLine
 10
455.2661499117512
 20
460.2851994065588
 30
0.0
 11
440.7355110463512
 21
460.2851994065588
 31
0.0
  0
LINE
  5
29C
330
1A
100
AcDbEntity
  8
SEIHIN
  6
CONTINUOUS
 62
     3
 48
16.0
100
AcDbLine
 10
453.2661499117512
 20
468.9260281277588
 30
0.0
 11
433.5946823251513
 21
468.9260281277588
 31
0.0
  0
LINE
  5
29D
330
1A
100
AcDbEntity
  8
SEIHIN
  6
CONTINUOUS
 62
     3
 48
16.0
100
AcDbLine
 10
488.6161499117513
 20
320.4045605411588
 30
0.0
 11
431.4543903946685
 21
320.4045605411588
 31
0.0
  0
LINE
  5
29E
330
1A
100
AcDbEntity
  8
SEIHIN
  6
CONTINUOUS
 62
     3
 48
16.0
100
AcDbLine
 10
488.6161499117513
 20
326.4045605411588
 30
0.0
 11
431.4543903946685
 21
326.4045605411589
 31
0.0
  0
LINE
  5
29F
330
1A
100
AcDbEntity
  8
SEIHIN
  6
CONTINUOUS
 62
     3
 48
16.0
100
AcDbLine
 10
488.6161499117513
 20
283.4045605411588
 30
0.0
 11
418.2661499117513
 21
283.4045605411588
 31
0.0
  0
LINE
  5
2A0
330
1A
100
AcDbEntity
  8
SEIHIN
  6
CONTINUOUS
 62
     3
 48
16.0
100
AcDbLine
 10
455.2661499117512
 20
159.0184698573588
 30
0.0
 11
441.9304392696512
 21
159.0184698573588
 31
0.0
  0
ARC
  5
2A1
330
1A
100
AcDbEntity
  8
SEIHIN
  6
CONTINUOUS
 62
     3
 48
16.0
100
AcDbCircle
 10
488.6161499117513
 20
189.9449055046589
 30
0.0
 40
57.0
100
AcDbArc
 50
189.727677499
 51
270.0
  0
ARC
  5
2A2
330
1A
100
AcDbEntity
  8
SEIHIN
  6
CONTINUOUS
 62
     3
 48
16.0
100
AcDbCircle
 10
488.6161499117513
 20
189.9449055046589
 30
0.0
 40
59.0
100
AcDbArc
 50
191.342102092134
 51
270.0
  0
ARC
  5
2A3
330
1A
100
AcDbEntity
  8
SEIHIN
  6
CONTINUOUS
 62
     3
 48
16.0
100
AcDbCircle
 10
488.6161499117513
 20
189.9449055046589
 30
0.0
 40
63.0
100
AcDbArc
 50
189.3569517233999
 51
270.0
  0
LINE
  5
2A4
330
1A
100
AcDbEntity
  8
SEIHIN
  6
CONTINUOUS
 62
     3
 48
16.0
100
AcDbLine
 10
617.6161499117512
 20
482.7545605411589
 30
0.0
 11
418.2661499117513
 21
482.7545605411589
 31
0.0
  0
LINE
  5
2A5
330
1A
100
AcDbEntity
  8
SEIHIN
  6
CONTINUOUS
 62
     3
 48
16.0
100
AcDbLine
 10
582.6161499117512
 20
480.7545605411588
 30
0.0
 11
421.7661499117512
 21
480.7545605411588
 31
0.0
  0
LINE
  5
2A6
330
1A
100
AcDbEntity
  8
SEIHIN
  6
CONTINUOUS
 62
     3
 48
16.0
100
AcDbLine
 10
432.3855697683511
 20
191.9312428523588
 30
0.0
 11
544.8467300550512
 21
191.9312428523588
 31
0.0
  0
LINE
  5
2A7
330
1A
100
AcDbEntity
  8
SEIHIN
  6
CONTINUOUS
 62
     3
 48
16.0
100
AcDbLine
 10
432.0946823251512
 20
326.4045605411588
 30
0.0
 11
432.0946823251512
 21
375.7545605411588
 31
0.0
  0
LINE
  5
2A8
330
1A
100
AcDbEntity
  8
SEIHIN
  6
CONTINUOUS
 62
     3
 48
16.0
100
AcDbLine
 10
420.2661499117512
 20
318.4045605411588
 30
0.0
 11
420.2661499117512
 21
479.2545605411588
 31
0.0
  0
LINE
  5
2A9
330
1A
100
AcDbEntity
  8
SEIHIN
  6
CONTINUOUS
 62
     3
 48
16.0
100
AcDbLine
 10
418.2661499117513
 20
283.4045605411588
 30
0.0
 11
418.2661499117513
 21
482.7545605411589
 31
0.0
  0
ARC
  5
2AA
330
1A
100
AcDbEntity
  8
SEIHIN
  6
CONTINUOUS
 62
     3
 48
16.0
100
AcDbCircle
 10
223.7257786264637
 20
189.9449055046589
 30
0.0
 40
63.0
100
AcDbArc
 50
189.3569517233999
 51
270.0
  0
TEXT
  5
2AB
330
1A
100
AcDbEntity
  8
ZUWAKU
 62
     7
100
AcDbText
 10
50.3519382305086
 20
16.10306189639755
 30
0.0
 40
8.0
  1
丸トップ　のきとい
100
AcDbText
  0
ARC
  5
2AD
330
1A
100
AcDbEntity
  8
SEIHIN
  6
CONTINUOUS
 62
     3
 48
16.0
100
AcDbCircle
 10
223.7257786264637
 20
189.9449055046589
 30
0.0
 40
59.0
100
AcDbArc
 50
190.5475137248344
 51
270.0
  0
LINE
  5
2AE
330
1A
100
AcDbEntity
  8
SEIHIN
  6
CONTINUOUS
 62
     3
 48
16.0
100
AcDbLine
 10
352.7257786264637
 20
196.1858561310588
 30
0.0
 11
352.7257786264637
 21
131.6449055046588
 31
0.0
  0
LINE
  5
2AF
330
1A
100
AcDbEntity
  8
SEIHIN
  6
CONTINUOUS
 62
     3
 48
16.0
100
AcDbLine
 10
307.7257786264636
 20
179.1449055046588
 30
0.0
 11
307.7257786264636
 21
130.9449055046588
 31
0.0
  0
LINE
  5
2B0
330
1A
100
AcDbEntity
  8
SEIHIN
  6
CONTINUOUS
 62
     3
 48
16.0
100
AcDbLine
 10
317.7257786264636
 20
179.1449055046588
 30
0.0
 11
317.7257786264636
 21
130.9449055046588
 31
0.0
  0
LINE
  5
2B1
330
1A
100
AcDbEntity
  8
SEIHIN
  6
CONTINUOUS
 62
     3
 48
16.0
100
AcDbLine
 10
223.7257786264637
 20
130.9449055046588
 30
0.0
 11
307.7257786264636
 21
130.9449055046588
 31
0.0
  0
TEXT
  5
2B2
330
1A
100
AcDbEntity
  8
ZUWAKU
 62
     7
100
AcDbText
 10
282.3131429914078
 20
15.64241700452384
 30
0.0
 40
8.0
  1
曲り　１２０（ＧＫ式）
100
AcDbText
  0
ARC
  5
2B6
330
1A
100
AcDbEntity
  8
SEIHIN
  6
CONTINUOUS
 62
     3
 48
16.0
100
AcDbCircle
 10
223.7257786264637
 20
189.9449055046589
 30
0.0
 40
63.0
100
AcDbArc
 50
270.0
 51
290.526855783987
  0
LINE
  5
2B7
330
1A
100
AcDbEntity
  8
SEIHIN
  6
CONTINUOUS
 62
     3
 48
16.0
100
AcDbLine
 10
317.7257786264636
 20
130.9449055046588
 30
0.0
 11
347.7257786264637
 21
130.9449055046588
 31
0.0
  0
ARC
  5
2B8
330
1A
100
AcDbEntity
  8
SEIHIN
  6
CONTINUOUS
 62
     3
 48
16.0
100
AcDbCircle
 10
312.7257786264637
 20
131.9449055046588
 30
0.0
 40
5.0
100
AcDbArc
 50
191.5369590327999
 51
348.4630409672
  0
LINE
  5
2B9
330
1A
100
AcDbEntity
  8
SEIHIN
  6
CONTINUOUS
 62
     3
 48
16.0
100
AcDbLine
 10
161.6583958880237
 20
179.1449055046588
 30
0.0
 11
307.7257786264636
 21
179.1449055046588
 31
0.0
  0
LINE
  5
2BA
330
1A
100
AcDbEntity
  8
SEIHIN
  6
CONTINUOUS
 62
     3
 48
16.0
100
AcDbLine
 10
352.7257786264637
 20
191.9449055046588
 30
0.0
 11
167.4920813886212
 21
191.913564930951
 31
0.0
  0
LINE
  5
2BB
330
1A
100
AcDbEntity
  8
SEIHIN
  6
CONTINUOUS
 62
     3
 48
16.0
100
AcDbLine
 10
157.7787333875636
 20
185.7393591275753
 30
0.0
 11
157.7797815285637
 21
191.9342370967588
 31
0.0
  0
ARC
  5
2BC
330
1A
100
AcDbEntity
  8
SEIHIN
  6
CONTINUOUS
 62
     3
 48
16.0
100
AcDbCircle
 10
164.1757786264637
 20
185.5449055046588
 30
0.0
 40
6.4
100
AcDbArc
 50
178.2588926860968
 51
245.915253700037
  0
LINE
  5
2BD
330
1A
100
AcDbEntity
  8
SEIHIN
  6
CONTINUOUS
 62
     3
 48
16.0
100
AcDbLine
 10
194.567486833462
 20
191.9181459480806
 30
0.0
 11
157.7797815285637
 21
191.9342370967588
 31
0.0
  0
LINE
  5
2BE
330
1A
100
AcDbEntity
  8
SEIHIN
  6
CONTINUOUS
 62
     3
 48
16.0
100
AcDbLine
 10
166.2145483728637
 20
196.1858561310588
 30
0.0
 11
166.2145483728637
 21
196.1858561310588
 31
0.0
  0
ARC
  5
2BF
330
1A
100
AcDbEntity
  8
SEIHIN
  6
CONTINUOUS
 62
     3
 48
16.0
100
AcDbCircle
 10
164.6252456281637
 20
192.9312428523588
 30
0.0
 40
1.0
100
AcDbArc
 50
266.5177806803999
 51
350.0
  0
LINE
  5
2C0
330
1A
100
AcDbEntity
  8
SEIHIN
  6
CONTINUOUS
 62
     3
 48
16.0
100
AcDbLine
 10
167.4920813886212
 20
191.9135649309511
 30
0.0
 11
167.8368675235637
 21
193.8689442696588
 31
0.0
  0
ARC
  5
2C1
330
1A
100
AcDbEntity
  8
SEIHIN
  6
CONTINUOUS
 62
     3
 48
16.0
100
AcDbCircle
 10
165.8672520174637
 20
194.2162406250589
 30
0.0
 40
2.0
100
AcDbArc
 50
350.0
 51
80.0
  0
LINE
  5
2C2
330
1A
100
AcDbEntity
  8
SEIHIN
  6
CONTINUOUS
 62
     3
 48
16.0
100
AcDbLine
 10
165.6100533811637
 20
192.7575946746588
 30
0.0
 11
166.2145483728637
 21
196.1858561310588
 31
0.0
  0
LINE
  5
2C3
330
1A
100
AcDbEntity
  8
SEIHIN
  6
CONTINUOUS
 62
     3
 48
16.0
100
AcDbLine
 10
281.7288819916638
 20
179.1449055046588
 30
0.0
 11
283.2757790279637
 21
179.1449055046588
 31
0.0
  0
LINE
  5
2C4
330
1A
100
AcDbEntity
  8
SEIHIN
  6
CONTINUOUS
 62
     3
 48
16.0
100
AcDbLine
 10
281.2370088800636
 20
196.1858561310588
 30
0.0
 11
281.2370088800636
 21
196.1858561310588
 31
0.0
  0
LINE
  5
2C5
330
1A
100
AcDbEntity
  8
SEIHIN
  6
CONTINUOUS
 62
     3
 48
16.0
100
AcDbLine
 10
279.9561206567157
 20
191.9325932587592
 30
0.0
 11
279.6146897293636
 21
193.8689442696588
 31
0.0
  0
ARC
  5
2C6
330
1A
100
AcDbEntity
  8
SEIHIN
  6
CONTINUOUS
 62
     3
 48
16.0
100
AcDbCircle
 10
282.8263116247636
 20
192.9312428523588
 30
0.0
 40
1.0
100
AcDbArc
 50
190.0
 51
273.4822193195999
  0
LINE
  5
2C7
330
1A
100
AcDbEntity
  8
SEIHIN
  6
CONTINUOUS
 62
     3
 48
16.0
100
AcDbLine
 10
281.8415038717637
 20
192.7575946746588
 30
0.0
 11
281.2370088800636
 21
196.1858561310588
 31
0.0
  0
ARC
  5
2C8
330
1A
100
AcDbEntity
  8
SEIHIN
  6
CONTINUOUS
 62
     3
 48
16.0
100
AcDbCircle
 10
281.5843052353637
 20
194.2162406250589
 30
0.0
 40
2.0
100
AcDbArc
 50
100.0
 51
190.0
  0
ARC
  5
2C9
330
1A
100
AcDbEntity
  8
SEIHIN
  6
CONTINUOUS
 62
     3
 48
16.0
100
AcDbCircle
 10
283.2757786264636
 20
185.5449055046588
 30
0.0
 40
6.4
100
AcDbArc
 50
86.53716897543914
 51
93.48221931959999
  0
LINE
  5
2CA
330
1A
100
AcDbEntity
  8
SEIHIN
  6
CONTINUOUS
 62
     3
 48
16.0
100
AcDbLine
 10
317.7257786264636
 20
196.1858561310588
 30
0.0
 11
317.7257786264636
 21
185.5449055046588
 31
0.0
  0
LINE
  5
2CB
330
1A
100
AcDbEntity
  8
SEIHIN
  6
CONTINUOUS
 62
     3
 48
16.0
100
AcDbLine
 10
317.7257786264636
 20
179.1449055046588
 30
0.0
 11
352.7257786264637
 21
179.1449055046588
 31
0.0
  0
ARC
  5
2CC
330
1A
100
AcDbEntity
  8
SEIHIN
  6
CONTINUOUS
 62
     3
 48
16.0
100
AcDbCircle
 10
312.7257786264637
 20
156.9885122611588
 30
0.0
 40
22.71355898039999
100
AcDbArc
 50
77.28316518959999
 51
102.7168348104
  0
LINE
  5
2CD
330
1A
100
AcDbEntity
  8
SEIHIN
  6
CONTINUOUS
 62
     3
 48
16.0
100
AcDbLine
 10
352.7257786264637
 20
196.1858561310588
 30
0.0
 11
317.7257786264636
 21
196.1858561310588
 31
0.0
  0
ARC
  5
2CE
330
1A
100
AcDbEntity
  8
NOKITOI
  6
PHANTOM
 62
     8
 48
5.0
100
AcDbCircle
 10
429.0660807260984
 20
185.9450919819463
 30
0.0
 40
4.000015298737716
100
AcDbArc
 50
8.764757762685649
 51
317.431501414648
  0
CIRCLE
  5
2CF
330
1A
100
AcDbEntity
  8
NOKITOI
  6
PHANTOM
 62
     8
 48
5.0
100
AcDbCircle
 10
429.0660850262879
 20
185.9451061329216
 30
0.0
 40
2.7
  0
LINE
  5
2D0
330
1A
100
AcDbEntity
  8
SEIHIN
  6
CONTINUOUS
 62
     3
 48
16.0
100
AcDbLine
 10
422.6691046728512
 20
185.7393591279588
 30
0.0
 11
422.6701528138512
 21
191.9342370967588
 31
0.0
  0
ARC
  5
2D1
330
1A
100
AcDbEntity
  8
SEIHIN
  6
CONTINUOUS
 62
     3
 48
16.0
100
AcDbCircle
 10
432.5987333284512
 20
182.9312428523588
 30
0.0
 40
4.0
100
AcDbArc
 50
1.432096184199999
 51
90.0
  0
LINE
  5
2D2
330
1A
100
AcDbEntity
  8
SEIHIN
  6
CONTINUOUS
 62
     3
 48
16.0
100
AcDbLine
 10
438.9753599670512
 20
190.4562349795588
 30
0.0
 11
438.7499831332512
 21
176.9312428523588
 31
0.0
  0
ARC
  5
2D3
330
1A
100
AcDbEntity
  8
SEIHIN
  6
CONTINUOUS
 62
     3
 48
16.0
100
AcDbCircle
 10
429.0661499117512
 20
185.5449055046588
 30
0.0
 40
4.4
100
AcDbArc
 50
67.59517860699999
 51
270.0000076463
  0
ARC
  5
2D4
330
1A
100
AcDbEntity
  8
SEIHIN
  6
CONTINUOUS
 62
     3
 48
16.0
100
AcDbCircle
 10
429.0661499117512
 20
185.5449055046588
 30
0.0
 40
6.4
100
AcDbArc
 50
86.5177806804
 51
270.0000046842999
  0
LINE
  5
2D5
330
1A
100
AcDbEntity
  8
SEIHIN
  6
CONTINUOUS
 62
     3
 48
16.0
100
AcDbLine
 10
440.4999831332512
 20
191.9338852003588
 30
0.0
 11
440.7355110463512
 21
160.9027908803588
 31
0.0
  0
ARC
  5
2D6
330
1A
100
AcDbEntity
  8
SEIHIN
  6
CONTINUOUS
 62
     3
 48
16.0
100
AcDbCircle
 10
488.6161499117513
 20
189.9449055046589
 30
0.0
 40
56.0
100
AcDbArc
 50
194.0108280749
 51
222.8985049734999
  0
LINE
  5
2D7
330
1A
100
AcDbEntity
  8
SEIHIN
  6
CONTINUOUS
 62
     3
 48
16.0
100
AcDbLine
 10
446.8601922529512
 20
151.1449055046588
 30
0.0
 11
447.5927529136512
 21
151.8256072590588
 31
0.0
  0
LINE
  5
2D8
330
1A
100
AcDbEntity
  8
SEIHIN
  6
CONTINUOUS
 62
     3
 48
16.0
100
AcDbLine
 10
433.3119005270512
 20
176.1449055046588
 30
0.0
 11
434.2821505162512
 21
176.3870107677588
 31
0.0
  0
LINE
  5
2D9
330
1A
100
AcDbEntity
  8
SEIHIN
  6
CONTINUOUS
 62
     3
 48
16.0
100
AcDbLine
 10
430.4999831332512
 20
186.9312428523588
 30
0.0
 11
432.5987333284512
 21
186.9312428523588
 31
0.0
  0
LINE
  5
2DA
330
1A
100
AcDbEntity
  8
SEIHIN
  6
CONTINUOUS
 62
     3
 48
16.0
100
AcDbLine
 10
430.5020380283198
 20
179.1449055046588
 30
0.0
 11
429.0661495102512
 21
179.1449055046588
 31
0.0
  0
LINE
  5
2DB
330
1A
100
AcDbEntity
  8
SEIHIN
  6
CONTINUOUS
 62
     3
 48
16.0
100
AcDbLine
 10
431.4500760566512
 20
181.1449055046588
 30
0.0
 11
429.0661495984513
 21
181.1449055046588
 31
0.0
  0
ARC
  5
2DC
330
1A
100
AcDbEntity
  8
SEIHIN
  6
CONTINUOUS
 62
     3
 48
16.0
100
AcDbCircle
 10
431.4500760566512
 20
180.1449055046589
 30
0.0
 40
1.0
100
AcDbArc
 50
9.727677499
 51
90.0
  0
LINE
  5
2DD
330
1A
100
AcDbEntity
  8
SEIHIN
  6
CONTINUOUS
 62
     3
 48
16.0
100
AcDbLine
 10
430.4999831332512
 20
186.9312428523588
 30
0.0
 11
430.2499831332512
 21
181.1449055046588
 31
0.0
  0
LINE
  5
2DE
330
1A
100
AcDbEntity
  8
SEIHIN
  6
CONTINUOUS
 62
     3
 48
16.0
100
AcDbLine
 10
436.7499831332512
 20
176.9312428523588
 30
0.0
 11
436.5974839141513
 21
183.0312116169588
 31
0.0
  0
LINE
  5
2DF
330
1A
100
AcDbEntity
  8
SEIHIN
  6
CONTINUOUS
 62
     3
 48
16.0
100
AcDbLine
 10
436.7499831332512
 20
176.9312428523588
 30
0.0
 11
438.7499831332512
 21
176.9312428523588
 31
0.0
  0
LINE
  5
2E0
330
1A
100
AcDbEntity
  8
SEIHIN
  6
CONTINUOUS
 62
     3
 48
16.0
100
AcDbLine
 10
436.6446415669512
 20
181.1449055046588
 30
0.0
 11
438.8195945344512
 21
181.1086626729588
 31
0.0
  0
LINE
  5
2E1
330
1A
100
AcDbEntity
  8
SEIHIN
  6
CONTINUOUS
 62
     3
 48
16.0
100
AcDbLine
 10
429.5156169134513
 20
191.9312428523588
 30
0.0
 11
422.6701528138512
 21
191.9342370967588
 31
0.0
  0
LINE
  5
2E2
330
1A
100
AcDbEntity
  8
SEIHIN
  6
CONTINUOUS
 62
     3
 48
16.0
100
AcDbLine
 10
431.1049196581512
 20
196.1858561310588
 30
0.0
 11
431.1049196581512
 21
196.1858561310588
 31
0.0
  0
ARC
  5
2E3
330
1A
100
AcDbEntity
  8
SEIHIN
  6
CONTINUOUS
 62
     3
 48
16.0
100
AcDbCircle
 10
429.5156169134513
 20
192.9312428523588
 30
0.0
 40
1.0
100
AcDbArc
 50
266.5177806803999
 51
350.0
  0
ARC
  5
2E4
330
1A
100
AcDbEntity
  8
SEIHIN
  6
CONTINUOUS
 62
     3
 48
16.0
100
AcDbCircle
 10
431.1243500556512
 20
190.5372809079588
 30
0.0
 40
1.0
100
AcDbArc
 50
247.5951786069999
 51
350.0
  0
LINE
  5
2E5
330
1A
100
AcDbEntity
  8
SEIHIN
  6
CONTINUOUS
 62
     3
 48
16.0
100
AcDbLine
 10
432.1091578086512
 20
190.3636327302588
 30
0.0
 11
432.7272388088513
 21
193.8689442696588
 31
0.0
  0
ARC
  5
2E6
330
1A
100
AcDbEntity
  8
SEIHIN
  6
CONTINUOUS
 62
     3
 48
16.0
100
AcDbCircle
 10
430.7576233027512
 20
194.2162406250589
 30
0.0
 40
2.0
100
AcDbArc
 50
350.0
 51
80.0
  0
LINE
  5
2E7
330
1A
100
AcDbEntity
  8
SEIHIN
  6
CONTINUOUS
 62
     3
 48
16.0
100
AcDbLine
 10
430.5004246664512
 20
192.7575946746588
 30
0.0
 11
431.1049196581512
 21
196.1858561310588
 31
0.0
  0
LINE
  5
2E8
330
1A
100
AcDbEntity
  8
SEIHIN
  6
CONTINUOUS
 62
     3
 48
16.0
100
AcDbLine
 10
424.7499831332512
 20
191.9338852003588
 30
0.0
 11
424.7497016439512
 21
190.2701858510588
 31
0.0
  0
ARC
  5
2E9
330
1A
100
AcDbEntity
  8
SEIHIN
  6
CONTINUOUS
 62
     3
 48
16.0
100
AcDbCircle
 10
440.5000031888512
 20
190.4312428523588
 30
0.0
 40
1.5
100
AcDbArc
 50
90.0
 51
179.0453268869
  0
LINE
  5
2EA
330
1A
100
AcDbEntity
  8
SEIHIN
  6
CONTINUOUS
 62
     3
 48
16.0
100
AcDbLine
 10
426.7049196581512
 20
283.4045605411588
 30
0.0
 11
426.7049196581512
 21
318.4045605411588
 31
0.0
  0
LINE
  5
2EB
330
1A
100
AcDbEntity
  8
SEIHIN
  6
CONTINUOUS
 62
     3
 48
16.0
100
AcDbLine
 10
425.7348327095512
 20
283.4045605411588
 30
0.0
 11
425.7348327095512
 21
318.4045605411588
 31
0.0
  0
LINE
  5
2EC
330
1A
100
AcDbEntity
  8
SEIHIN
  6
CONTINUOUS
 62
     3
 48
16.0
100
AcDbLine
 10
428.3572395120512
 20
283.4045605411588
 30
0.0
 11
428.3572395120512
 21
318.4045605411588
 31
0.0
  0
LINE
  5
2ED
330
1A
100
AcDbEntity
  8
SEIHIN
  6
CONTINUOUS
 62
     3
 48
16.0
100
AcDbLine
 10
432.0946823251512
 20
283.4045605411588
 30
0.0
 11
432.0946823251512
 21
320.4045605411588
 31
0.0
  0
ARC
  5
2EE
330
1A
100
AcDbEntity
  8
SEIHIN
  6
CONTINUOUS
 62
     3
 48
16.0
100
AcDbCircle
 10
431.4543903946685
 20
323.4045605411588
 30
0.0
 40
3.0
100
AcDbArc
 50
90.0
 51
270.0
  0
LINE
  5
2EF
330
1A
100
AcDbEntity
  8
SEIHIN
  6
CONTINUOUS
 62
     3
 48
16.0
100
AcDbLine
 10
428.3572395120512
 20
318.4045605411588
 30
0.0
 11
418.2661499117513
 21
318.4045605411588
 31
0.0
  0
LINE
  5
2F0
330
1A
100
AcDbEntity
  8
SEIHIN
  6
CONTINUOUS
 62
     3
 48
16.0
100
AcDbLine
 10
432.0946823251512
 20
395.7545605411588
 30
0.0
 11
432.0946823251512
 21
445.7545605411588
 31
0.0
  0
LINE
  5
2F1
330
1A
100
AcDbEntity
  8
SEIHIN
  6
CONTINUOUS
 62
     3
 48
16.0
100
AcDbLine
 10
438.7499831332512
 20
375.7545605411588
 30
0.0
 11
438.7499831332512
 21
395.7545605411588
 31
0.0
  0
LINE
  5
2F2
330
1A
100
AcDbEntity
  8
SEIHIN
  6
CONTINUOUS
 62
     3
 48
16.0
100
AcDbLine
 10
440.7355110463512
 20
375.7545605411588
 30
0.0
 11
440.7355110463512
 21
395.7545605411588
 31
0.0
  0
LINE
  5
2F3
330
1A
100
AcDbEntity
  8
SEIHIN
  6
CONTINUOUS
 62
     3
 48
16.0
100
AcDbLine
 10
432.0946823251512
 20
377.7545605411588
 30
0.0
 11
432.0946823251512
 21
393.7545605411587
 31
0.0
  0
LINE
  5
2F4
330
1A
100
AcDbEntity
  8
SEIHIN
  6
CONTINUOUS
 62
     3
 48
16.0
100
AcDbLine
 10
447.5927529136512
 20
349.4045605411588
 30
0.0
 11
433.3119005270512
 21
349.4045605411588
 31
0.0
  0
LINE
  5
2F5
330
1A
100
AcDbEntity
  8
SEIHIN
  6
CONTINUOUS
 62
     3
 48
16.0
100
AcDbLine
 10
447.5927529136512
 20
351.4045605411588
 30
0.0
 11
433.3119005270512
 21
351.4045605411588
 31
0.0
  0
LINE
  5
2F6
330
1A
100
AcDbEntity
  8
SEIHIN
  6
CONTINUOUS
 62
     3
 48
16.0
100
AcDbLine
 10
433.3119005270512
 20
349.4045605411588
 30
0.0
 11
433.3119005270512
 21
351.4045605411588
 31
0.0
  0
LINE
  5
2F7
330
1A
100
AcDbEntity
  8
SEIHIN
  6
CONTINUOUS
 62
     3
 48
16.0
100
AcDbLine
 10
434.2821505162512
 20
349.4045605411588
 30
0.0
 11
434.2821505162512
 21
351.4045605411588
 31
0.0
  0
LINE
  5
2F8
330
1A
100
AcDbEntity
  8
SEIHIN
  6
CONTINUOUS
 62
     3
 48
16.0
100
AcDbLine
 10
447.5927529136512
 20
349.4045605411588
 30
0.0
 11
447.5927529136512
 21
351.4045605411588
 31
0.0
  0
LINE
  5
2F9
330
1A
100
AcDbEntity
  8
SEIHIN
  6
CONTINUOUS
 62
     3
 48
16.0
100
AcDbLine
 10
430.2499831332512
 20
377.7545605411588
 30
0.0
 11
438.7499831332512
 21
377.7545605411588
 31
0.0
  0
LINE
  5
2FA
330
1A
100
AcDbEntity
  8
SEIHIN
  6
CONTINUOUS
 62
     3
 48
16.0
100
AcDbLine
 10
430.2499831332512
 20
375.7545605411588
 30
0.0
 11
440.7355110463512
 21
375.7545605411588
 31
0.0
  0
LINE
  5
2FB
330
1A
100
AcDbEntity
  8
SEIHIN
  6
CONTINUOUS
 62
     3
 48
16.0
100
AcDbLine
 10
430.2499831332512
 20
375.7545605411588
 30
0.0
 11
430.2499831332512
 21
377.7545605411588
 31
0.0
  0
LINE
  5
2FC
330
1A
100
AcDbEntity
  8
SEIHIN
  6
CONTINUOUS
 62
     3
 48
16.0
100
AcDbLine
 10
436.7499831332512
 20
375.7545605411588
 30
0.0
 11
436.7499831332512
 21
377.7545605411588
 31
0.0
  0
LINE
  5
2FD
330
1A
100
AcDbEntity
  8
SEIHIN
  6
CONTINUOUS
 62
     3
 48
16.0
100
AcDbLine
 10
430.2499831332512
 20
395.7545605411588
 30
0.0
 11
440.7355110463512
 21
395.7545605411588
 31
0.0
  0
LINE
  5
2FE
330
1A
100
AcDbEntity
  8
SEIHIN
  6
CONTINUOUS
 62
     3
 48
16.0
100
AcDbLine
 10
430.2499831332512
 20
393.7545605411587
 30
0.0
 11
438.7499831332512
 21
393.7545605411587
 31
0.0
  0
LINE
  5
2FF
330
1A
100
AcDbEntity
  8
SEIHIN
  6
CONTINUOUS
 62
     3
 48
16.0
100
AcDbLine
 10
430.2499831332512
 20
393.7545605411587
 30
0.0
 11
430.2499831332512
 21
395.7545605411588
 31
0.0
  0
LINE
  5
300
330
1A
100
AcDbEntity
  8
SEIHIN
  6
CONTINUOUS
 62
     3
 48
16.0
100
AcDbLine
 10
436.7499831332512
 20
393.7545605411587
 30
0.0
 11
436.7499831332512
 21
395.7545605411588
 31
0.0
  0
ARC
  5
301
330
1A
100
AcDbEntity
  8
SEIHIN
  6
CONTINUOUS
 62
     3
 48
16.0
100
AcDbCircle
 10
421.7661499117512
 20
479.2545605411588
 30
0.0
 40
1.5
100
AcDbArc
 50
90.0
 51
180.0
  0
LINE
  5
302
330
1A
100
AcDbEntity
  8
SEIHIN
  6
CONTINUOUS
 62
     3
 48
16.0
100
AcDbLine
 10
440.7355110463512
 20
445.7545605411588
 30
0.0
 11
440.7355110463512
 21
460.2851994065588
 31
0.0
  0
LINE
  5
303
330
1A
100
AcDbEntity
  8
SEIHIN
  6
CONTINUOUS
 62
     3
 48
16.0
100
AcDbLine
 10
438.7499831332512
 20
445.7545605411588
 30
0.0
 11
438.7499831332512
 21
462.2707273196589
 31
0.0
  0
LINE
  5
304
330
1A
100
AcDbEntity
  8
SEIHIN
  6
CONTINUOUS
 62
     3
 48
16.0
100
AcDbLine
 10
432.0946823251512
 20
447.7545605411588
 30
0.0
 11
432.0946823251512
 21
467.4260281277589
 31
0.0
  0
LINE
  5
305
330
1A
100
AcDbEntity
  8
SEIHIN
  6
CONTINUOUS
 62
     3
 48
16.0
100
AcDbLine
 10
430.2499831332512
 20
447.7545605411588
 30
0.0
 11
438.7499831332512
 21
447.7545605411588
 31
0.0
  0
LINE
  5
306
330
1A
100
AcDbEntity
  8
SEIHIN
  6
CONTINUOUS
 62
     3
 48
16.0
100
AcDbLine
 10
430.2499831332512
 20
445.7545605411588
 30
0.0
 11
440.7355110463512
 21
445.7545605411588
 31
0.0
  0
LINE
  5
307
330
1A
100
AcDbEntity
  8
SEIHIN
  6
CONTINUOUS
 62
     3
 48
16.0
100
AcDbLine
 10
430.2499831332512
 20
445.7545605411588
 30
0.0
 11
430.2499831332512
 21
447.7545605411588
 31
0.0
  0
LINE
  5
308
330
1A
100
AcDbEntity
  8
SEIHIN
  6
CONTINUOUS
 62
     3
 48
16.0
100
AcDbLine
 10
436.7499831332512
 20
445.7545605411588
 30
0.0
 11
436.7499831332512
 21
447.7545605411588
 31
0.0
  0
ARC
  5
309
330
1A
100
AcDbEntity
  8
SEIHIN
  6
CONTINUOUS
 62
     3
 48
16.0
100
AcDbCircle
 10
433.5946823251513
 20
467.4260281277589
 30
0.0
 40
1.5
100
AcDbArc
 50
90.0
 51
180.0
  0
LINE
  5
30A
330
1A
100
AcDbEntity
  8
CENTER_L
  6
CENTER
 62
     1
 48
5.0
100
AcDbLine
 10
488.6161499117513
 20
419.4045605411588
 30
0.0
 11
488.6161499117513
 21
276.4045605411588
 31
0.0
  0
DIMENSION
  5
30B
330
1A
100
AcDbEntity
  8
SUNPOU
  6
CONTINUOUS
100
AcDbDimension
  2
*D3
 10
676.5513192144977
 20
283.4045605411588
 30
0.0
 11
671.5513192144977
 21
383.0795605411588
 31
0.0
 70
    32
  3
STANDARD
100
AcDbAlignedDimension
 13
617.6161499117512
 23
482.7545605411589
 33
0.0
 14
558.9661499117512
 24
283.4045605411588
 34
0.0
 50
90.0
100
AcDbRotatedDimension
1001
ACAD
1000
DSTYLE
1002
{
1070
   140
1040
6.0
1070
    74
1070
     0
1070
   172
1070
     1
1070
    73
1070
     0
1070
   272
1070
     2
1070
    77
1070
     3
1070
   173
1070
     1
1070
   147
1040
2.0
1070
    42
1040
6.0
1070
    44
1040
3.0
1070
    43
1040
14.0
1070
   271
1070
     0
1070
   178
1070
     4
1070
   177
1070
     4
1070
   176
1070
     4
1070
   141
1040
150.0
1070
     7
1000
_OPEN
1070
     6
1000
_OPEN
1070
    41
1040
7.0
1002
}
  0
LINE
  5
30C
330
1A
100
AcDbEntity
  8
SEIHIN
  6
CONTINUOUS
 62
     3
 48
16.0
100
AcDbLine
 10
556.9661499117512
 20
318.4045605411588
 30
0.0
 11
556.9661499117512
 21
344.0545605411589
 31
0.0
  0
LINE
  5
30D
330
1A
100
AcDbEntity
  8
SEIHIN
  6
CONTINUOUS
 62
     3
 48
16.0
100
AcDbLine
 10
545.1376174982511
 20
326.4045605411588
 30
0.0
 11
545.1376174982511
 21
351.4045605411588
 31
0.0
  0
LINE
  5
30E
330
1A
100
AcDbEntity
  8
SEIHIN
  6
CONTINUOUS
 62
     3
 48
16.0
100
AcDbLine
 10
558.9661499117512
 20
283.4045605411588
 30
0.0
 11
558.9661499117512
 21
342.0545605411589
 31
0.0
  0
LINE
  5
30F
330
1A
100
AcDbEntity
  8
CENTER_L
  6
CENTER
 62
     1
 48
5.0
100
AcDbLine
 10
488.6161499117513
 20
171.0913594053588
 30
0.0
 11
488.6161499117513
 21
119.9449055046588
 31
0.0
  0
DIMENSION
  5
310
330
1A
100
AcDbEntity
  8
SUNPOU
  6
CONTINUOUS
100
AcDbDimension
  2
*D4
 10
653.9920538668321
 20
130.9449055046588
 30
0.0
 11
648.9920538668322
 21
161.4449055046588
 31
0.0
 70
    32
  3
STANDARD
100
AcDbAlignedDimension
 13
617.6161499117512
 23
191.9449055046588
 33
0.0
 14
617.6161499117512
 24
130.9449055046588
 34
0.0
 50
90.0
100
AcDbRotatedDimension
1001
ACAD
1000
DSTYLE
1002
{
1070
   140
1040
6.0
1070
    74
1070
     0
1070
   172
1070
     1
1070
    73
1070
     0
1070
   272
1070
     2
1070
    77
1070
     3
1070
   173
1070
     1
1070
   147
1040
2.0
1070
    42
1040
6.0
1070
    44
1040
3.0
1070
    43
1040
14.0
1070
   271
1070
     0
1070
   178
1070
     4
1070
   177
1070
     4
1070
   176
1070
     4
1070
   141
1040
150.0
1070
     7
1000
_OPEN
1070
     6
1000
_OPEN
1070
    41
1040
7.0
1002
}
  0
LINE
  5
311
330
1A
100
AcDbEntity
  8
SEIHIN
  6
CONTINUOUS
 62
     3
 48
16.0
100
AcDbLine
 10
617.6161499117512
 20
196.1858561310588
 30
0.0
 11
617.6161499117511
 21
131.6449055046588
 31
0.0
  0
LINE
  5
312
330
1A
100
AcDbEntity
  8
SEIHIN
  6
CONTINUOUS
 62
     3
 48
16.0
100
AcDbLine
 10
572.6161499117512
 20
179.1449055046588
 30
0.0
 11
572.6161499117512
 21
130.9449055046588
 31
0.0
  0
LINE
  5
313
330
1A
100
AcDbEntity
  8
SEIHIN
  6
CONTINUOUS
 62
     3
 48
16.0
100
AcDbLine
 10
582.6161499117512
 20
179.1449055046588
 30
0.0
 11
582.6161499117512
 21
130.9449055046588
 31
0.0
  0
ARC
  5
314
330
1A
100
AcDbEntity
  8
SEIHIN
  6
CONTINUOUS
 62
     3
 48
16.0
100
AcDbCircle
 10
488.6161499117513
 20
189.9449055046589
 30
0.0
 40
59.0
100
AcDbArc
 50
270.0
 51
348.6578979078659
  0
ARC
  5
315
330
1A
100
AcDbEntity
  8
SEIHIN
  6
CONTINUOUS
 62
     3
 48
16.0
100
AcDbCircle
 10
488.6161499117513
 20
189.9449055046589
 30
0.0
 40
57.0
100
AcDbArc
 50
270.0
 51
350.2723225009999
  0
ARC
  5
316
330
1A
100
AcDbEntity
  8
SEIHIN
  6
CONTINUOUS
 62
     3
 48
16.0
100
AcDbCircle
 10
488.6161499117513
 20
189.9449055046589
 30
0.0
 40
63.0
100
AcDbArc
 50
270.0
 51
350.6430482766
  0
TEXT
  5
317
330
1A
100
AcDbEntity
  8
SUNPOU
 62
     4
100
AcDbText
 10
589.1002506757148
 20
66.67891712378597
 30
0.0
 40
8.0
  1
※　のきといの差込み寸法を示す。
100
AcDbText
  0
LINE
  5
318
330
1A
100
AcDbEntity
  8
SEIHIN
  6
CONTINUOUS
 62
     3
 48
16.0
100
AcDbLine
 10
582.6161499117512
 20
130.9449055046588
 30
0.0
 11
612.6161499117512
 21
130.9449055046588
 31
0.0
  0
LINE
  5
319
330
1A
100
AcDbEntity
  8
SEIHIN
  6
CONTINUOUS
 62
     3
 48
16.0
100
AcDbLine
 10
510.7068719461511
 20
130.9449055046588
 30
0.0
 11
572.6161499117512
 21
130.9449055046588
 31
0.0
  0
ARC
  5
31A
330
1A
100
AcDbEntity
  8
SEIHIN
  6
CONTINUOUS
 62
     3
 48
16.0
100
AcDbCircle
 10
577.6161499117512
 20
131.9449055046588
 30
0.0
 40
5.0
100
AcDbArc
 50
191.5369590327999
 51
348.4630409672
  0
TEXT
  5
31E
330
1A
100
AcDbEntity
  8
ZUWAKU
 62
     7
100
AcDbText
 10
654.2531733678779
 20
15.90287984531518
 30
0.0
 40
8.0
  1
ＧＧ１９
100
AcDbText
  0
LINE
  5
31F
330
1A
100
AcDbEntity
  8
SEIHIN
  6
CONTINUOUS
 62
     3
 48
16.0
100
AcDbLine
 10
617.6161499117512
 20
196.1858561310588
 30
0.0
 11
582.6161499117512
 21
196.1858561310588
 31
0.0
  0
LINE
  5
320
330
1A
100
AcDbEntity
  8
SEIHIN
  6
CONTINUOUS
 62
     3
 48
16.0
100
AcDbLine
 10
582.6161499117512
 20
179.1449055046588
 30
0.0
 11
617.6161499117512
 21
179.1449055046588
 31
0.0
  0
LINE
  5
321
330
1A
100
AcDbEntity
  8
SEIHIN
  6
CONTINUOUS
 62
     3
 48
16.0
100
AcDbLine
 10
617.6161499117512
 20
191.9449055046588
 30
0.0
 11
547.7774216940511
 21
191.9330891567588
 31
0.0
  0
LINE
  5
322
330
1A
100
AcDbEntity
  8
SEIHIN
  6
CONTINUOUS
 62
     3
 48
16.0
100
AcDbLine
 10
525.2661499117513
 20
159.0184698573588
 30
0.0
 11
505.2661499117513
 21
159.0184698573588
 31
0.0
  0
LINE
  5
323
330
1A
100
AcDbEntity
  8
SEIHIN
  6
CONTINUOUS
 62
     3
 48
16.0
100
AcDbLine
 10
505.2661499117513
 20
191.9312428523588
 30
0.0
 11
505.2661499117513
 21
159.0184698573588
 31
0.0
  0
LINE
  5
324
330
1A
100
AcDbEntity
  8
SEIHIN
  6
CONTINUOUS
 62
     3
 48
16.0
100
AcDbLine
 10
455.2661499117512
 20
191.9312428523588
 30
0.0
 11
455.2661499117512
 21
159.0184698573588
 31
0.0
  0
LINE
  5
325
330
1A
100
AcDbEntity
  8
SEIHIN
  6
CONTINUOUS
 62
     3
 48
16.0
100
AcDbLine
 10
455.2661499117512
 20
181.1086626729588
 30
0.0
 11
505.2661499117513
 21
181.1086626729588
 31
0.0
  0
ARC
  5
326
330
1A
100
AcDbEntity
  8
NOKITOI
  6
PHANTOM
 62
     8
 48
5.0
100
AcDbCircle
 10
548.1660666219455
 20
185.9449666995576
 30
0.0
 40
3.999981474645155
100
AcDbArc
 50
222.570219189405
 51
171.2362504387284
  0
CIRCLE
  5
327
330
1A
100
AcDbEntity
  8
NOKITOI
  6
PHANTOM
 62
     8
 48
5.0
100
AcDbCircle
 10
548.166085026288
 20
185.9449061329218
 30
0.0
 40
2.7
  0
LINE
  5
328
330
1A
100
AcDbEntity
  8
SEIHIN
  6
CONTINUOUS
 62
     3
 48
16.0
100
AcDbLine
 10
582.6161499117512
 20
196.1858561310588
 30
0.0
 11
582.6161499117512
 21
185.5449055046588
 31
0.0
  0
LINE
  5
329
330
1A
100
AcDbEntity
  8
SEIHIN
  6
CONTINUOUS
 62
     3
 48
16.0
100
AcDbLine
 10
554.5631951506512
 20
185.7393591279588
 30
0.0
 11
554.5621470096513
 21
191.9342370967588
 31
0.0
  0
LINE
  5
32A
330
1A
100
AcDbEntity
  8
SEIHIN
  6
CONTINUOUS
 62
     3
 48
16.0
100
AcDbLine
 10
538.2569398563513
 20
190.4562349795588
 30
0.0
 11
538.4823166902512
 21
176.9312428523588
 31
0.0
  0
ARC
  5
32B
330
1A
100
AcDbEntity
  8
SEIHIN
  6
CONTINUOUS
 62
     3
 48
16.0
100
AcDbCircle
 10
544.6335664949511
 20
182.9312428523588
 30
0.0
 40
4.0
100
AcDbArc
 50
90.0
 51
178.5679038158
  0
ARC
  5
32C
330
1A
100
AcDbEntity
  8
SEIHIN
  6
CONTINUOUS
 62
     3
 48
16.0
100
AcDbCircle
 10
548.1661499117511
 20
185.5449055046588
 30
0.0
 40
4.4
100
AcDbArc
 50
269.9999923537
 51
112.4048213929999
  0
ARC
  5
32D
330
1A
100
AcDbEntity
  8
SEIHIN
  6
CONTINUOUS
 62
     3
 48
16.0
100
AcDbCircle
 10
548.1661499117511
 20
185.5449055046588
 30
0.0
 40
6.4
100
AcDbArc
 50
269.9999953157
 51
93.48221931959999
  0
LINE
  5
32E
330
1A
100
AcDbEntity
  8
SEIHIN
  6
CONTINUOUS
 62
     3
 48
16.0
100
AcDbLine
 10
536.7323166902512
 20
191.9338852003588
 30
0.0
 11
536.4967887770511
 21
160.9027908803588
 31
0.0
  0
LINE
  5
32F
330
1A
100
AcDbEntity
  8
SEIHIN
  6
CONTINUOUS
 62
     3
 48
16.0
100
AcDbLine
 10
525.2661499117513
 20
191.9312428523588
 30
0.0
 11
525.2661499117513
 21
159.0184698573588
 31
0.0
  0
LINE
  5
330
330
1A
100
AcDbEntity
  8
SEIHIN
  6
CONTINUOUS
 62
     3
 48
16.0
100
AcDbLine
 10
547.4443744302593
 20
179.1449055046588
 30
0.0
 11
572.6161499117512
 21
179.1449055046588
 31
0.0
  0
ARC
  5
331
330
1A
100
AcDbEntity
  8
SEIHIN
  6
CONTINUOUS
 62
     3
 48
16.0
100
AcDbCircle
 10
488.6161499117513
 20
189.9449055046589
 30
0.0
 40
56.0
100
AcDbArc
 50
317.1014950265
 51
345.9891719251
  0
LINE
  5
332
330
1A
100
AcDbEntity
  8
SEIHIN
  6
CONTINUOUS
 62
     3
 48
16.0
100
AcDbLine
 10
530.3721075704512
 20
151.1449055046588
 30
0.0
 11
529.6395469098512
 21
151.8256072590588
 31
0.0
  0
LINE
  5
333
330
1A
100
AcDbEntity
  8
SEIHIN
  6
CONTINUOUS
 62
     3
 48
16.0
100
AcDbLine
 10
540.4823166902511
 20
176.9312428523588
 30
0.0
 11
538.4823166902512
 21
176.9312428523588
 31
0.0
  0
LINE
  5
334
330
1A
100
AcDbEntity
  8
SEIHIN
  6
CONTINUOUS
 62
     3
 48
16.0
100
AcDbLine
 10
540.5876582565512
 20
181.1449055046588
 30
0.0
 11
538.4127052890512
 21
181.1086626729588
 31
0.0
  0
LINE
  5
335
330
1A
100
AcDbEntity
  8
SEIHIN
  6
CONTINUOUS
 62
     3
 48
16.0
100
AcDbLine
 10
525.2661499117513
 20
181.1086626729588
 30
0.0
 11
536.6501525858512
 21
181.1086626729588
 31
0.0
  0
LINE
  5
336
330
1A
100
AcDbEntity
  8
SEIHIN
  6
CONTINUOUS
 62
     3
 48
16.0
100
AcDbLine
 10
545.7822237667512
 20
181.1449055046588
 30
0.0
 11
548.1661502250512
 21
181.1449055046588
 31
0.0
  0
LINE
  5
337
330
1A
100
AcDbEntity
  8
SEIHIN
  6
CONTINUOUS
 62
     3
 48
16.0
100
AcDbLine
 10
546.7302617951827
 20
179.1449055046588
 30
0.0
 11
548.1661503132512
 21
179.1449055046588
 31
0.0
  0
LINE
  5
338
330
1A
100
AcDbEntity
  8
SEIHIN
  6
CONTINUOUS
 62
     3
 48
16.0
100
AcDbLine
 10
546.7323166902511
 20
186.9312428523588
 30
0.0
 11
544.6335664949511
 21
186.9312428523588
 31
0.0
  0
ARC
  5
339
330
1A
100
AcDbEntity
  8
SEIHIN
  6
CONTINUOUS
 62
     3
 48
16.0
100
AcDbCircle
 10
545.7822237667512
 20
180.1449055046589
 30
0.0
 40
1.0
100
AcDbArc
 50
90.0
 51
170.2723225009999
  0
LINE
  5
33A
330
1A
100
AcDbEntity
  8
SEIHIN
  6
CONTINUOUS
 62
     3
 48
16.0
100
AcDbLine
 10
540.4823166902511
 20
176.9312428523588
 30
0.0
 11
540.6348159093512
 21
183.0312116169588
 31
0.0
  0
LINE
  5
33B
330
1A
100
AcDbEntity
  8
SEIHIN
  6
CONTINUOUS
 62
     3
 48
16.0
100
AcDbLine
 10
543.9203992963513
 20
176.1449055046588
 30
0.0
 11
542.9501493071512
 21
176.3870107677588
 31
0.0
  0
LINE
  5
33C
330
1A
100
AcDbEntity
  8
SEIHIN
  6
CONTINUOUS
 62
     3
 48
16.0
100
AcDbLine
 10
546.7323166902511
 20
186.9312428523588
 30
0.0
 11
546.9823166902512
 21
181.1449055046588
 31
0.0
  0
ARC
  5
33D
330
1A
100
AcDbEntity
  8
SEIHIN
  6
CONTINUOUS
 62
     3
 48
16.0
100
AcDbCircle
 10
577.6161499117512
 20
156.9885122611588
 30
0.0
 40
22.71355898039999
100
AcDbArc
 50
77.28316518959999
 51
102.7168348104
  0
ARC
  5
33E
330
1A
100
AcDbEntity
  8
SEIHIN
  6
CONTINUOUS
 62
     3
 48
16.0
100
AcDbCircle
 10
536.7322966346513
 20
190.4312428523588
 30
0.0
 40
1.5
100
AcDbArc
 50
0.9546731130999999
 51
90.0
  0
ARC
  5
33F
330
1A
100
AcDbEntity
  8
SEIHIN
  6
CONTINUOUS
 62
     3
 48
16.0
100
AcDbCircle
 10
547.7166829100512
 20
192.9312428523588
 30
0.0
 40
1.0
100
AcDbArc
 50
190.0
 51
273.4822193195999
  0
LINE
  5
340
330
1A
100
AcDbEntity
  8
SEIHIN
  6
CONTINUOUS
 62
     3
 48
16.0
100
AcDbLine
 10
546.1273801653511
 20
196.1858561310588
 30
0.0
 11
546.1273801653511
 21
196.1858561310588
 31
0.0
  0
LINE
  5
341
330
1A
100
AcDbEntity
  8
SEIHIN
  6
CONTINUOUS
 62
     3
 48
16.0
100
AcDbLine
 10
545.1231420148511
 20
190.3636327302588
 30
0.0
 11
544.5050610146512
 21
193.8689442696588
 31
0.0
  0
ARC
  5
342
330
1A
100
AcDbEntity
  8
SEIHIN
  6
CONTINUOUS
 62
     3
 48
16.0
100
AcDbCircle
 10
546.1079497678512
 20
190.5372809079588
 30
0.0
 40
1.0
100
AcDbArc
 50
190.0
 51
292.404821393
  0
LINE
  5
343
330
1A
100
AcDbEntity
  8
SEIHIN
  6
CONTINUOUS
 62
     3
 48
16.0
100
AcDbLine
 10
546.7318751570513
 20
192.7575946746588
 30
0.0
 11
546.1273801653511
 21
196.1858561310588
 31
0.0
  0
ARC
  5
344
330
1A
100
AcDbEntity
  8
SEIHIN
  6
CONTINUOUS
 62
     3
 48
16.0
100
AcDbCircle
 10
546.4746765206513
 20
194.2162406250589
 30
0.0
 40
2.0
100
AcDbArc
 50
100.0
 51
190.0
  0
LINE
  5
345
330
1A
100
AcDbEntity
  8
SEIHIN
  6
CONTINUOUS
 62
     3
 48
16.0
100
AcDbLine
 10
552.4823166902511
 20
191.9338852003588
 30
0.0
 11
552.4825981794512
 21
190.2701858510588
 31
0.0
  0
LINE
  5
346
330
1A
100
AcDbEntity
  8
SEIHIN
  6
CONTINUOUS
 62
     3
 48
16.0
100
AcDbLine
 10
488.6161499117513
 20
326.4045605411588
 30
0.0
 11
545.7779094288339
 21
326.4045605411588
 31
0.0
  0
LINE
  5
347
330
1A
100
AcDbEntity
  8
SEIHIN
  6
CONTINUOUS
 62
     3
 48
16.0
100
AcDbLine
 10
488.6161499117513
 20
320.4045605411588
 30
0.0
 11
545.7779094288339
 21
320.4045605411589
 31
0.0
  0
LINE
  5
348
330
1A
100
AcDbEntity
  8
SEIHIN
  6
CONTINUOUS
 62
     3
 48
16.0
100
AcDbLine
 10
488.6161499117513
 20
283.4045605411588
 30
0.0
 11
558.9661499117512
 21
283.4045605411588
 31
0.0
  0
LINE
  5
349
330
1A
100
AcDbEntity
  8
SEIHIN
  6
CONTINUOUS
 62
     3
 48
16.0
100
AcDbLine
 10
545.1376174982511
 20
283.4045605411588
 30
0.0
 11
545.1376174982511
 21
320.4045605411588
 31
0.0
  0
LINE
  5
34A
330
1A
100
AcDbEntity
  8
SEIHIN
  6
CONTINUOUS
 62
     3
 48
16.0
100
AcDbLine
 10
548.8750603114511
 20
283.4045605411588
 30
0.0
 11
548.8750603114511
 21
318.4045605411588
 31
0.0
  0
LINE
  5
34B
330
1A
100
AcDbEntity
  8
SEIHIN
  6
CONTINUOUS
 62
     3
 48
16.0
100
AcDbLine
 10
551.4974671139513
 20
283.4045605411588
 30
0.0
 11
551.4974671139513
 21
318.4045605411588
 31
0.0
  0
LINE
  5
34C
330
1A
100
AcDbEntity
  8
SEIHIN
  6
CONTINUOUS
 62
     3
 48
16.0
100
AcDbLine
 10
550.5273801653512
 20
283.4045605411588
 30
0.0
 11
550.5273801653512
 21
318.4045605411588
 31
0.0
  0
LINE
  5
34D
330
1A
100
AcDbEntity
  8
SEIHIN
  6
CONTINUOUS
 62
     3
 48
16.0
100
AcDbLine
 10
548.8750603114511
 20
318.4045605411588
 30
0.0
 11
558.9661499117512
 21
318.4045605411588
 31
0.0
  0
LINE
  5
34F
330
1A
100
AcDbEntity
  8
CENTER_L
  6
CENTER
 62
     1
 48
5.0
100
AcDbLine
 10
481.6161499117512
 20
412.4045605411588
 30
0.0
 11
624.6161499117512
 21
412.4045605411588
 31
0.0
  0
DIMENSION
  5
350
330
1A
100
AcDbEntity
  8
SUNPOU
  6
CONTINUOUS
100
AcDbDimension
  2
*D5
 10
617.6161499117512
 20
386.3494023712598
 30
0.0
 11
598.0161499117512
 21
386.3494023712598
 31
0.0
 70
   160
  1
※<>
  3
STANDARD
100
AcDbAlignedDimension
 13
551.6161499117512
 23
371.3811635431588
 33
0.0
 14
617.6161499117512
 24
342.0545605411589
 34
0.0
100
AcDbRotatedDimension
1001
ACAD
1000
DSTYLE
1002
{
1070
   140
1040
6.0
1070
    74
1070
     0
1070
   172
1070
     1
1070
    73
1070
     0
1070
   272
1070
     2
1070
    77
1070
     3
1070
   173
1070
     1
1070
   280
1070
     2
1070
   147
1040
2.0
1070
    42
1040
6.0
1070
    44
1040
3.0
1070
    43
1040
14.0
1070
   271
1070
     0
1070
   178
1070
     4
1070
   177
1070
     4
1070
   176
1070
     4
1070
   141
1040
150.0
1070
     7
1000
_OPEN
1070
     6
1000
_OPEN
1070
    41
1040
7.0
1002
}
  0
LINE
  5
351
330
1A
100
AcDbEntity
  8
SEIHIN
  6
CONTINUOUS
 62
     3
 48
16.0
100
AcDbLine
 10
617.6161499117512
 20
468.9260281277588
 30
0.0
 11
580.6161499117512
 21
468.9260281277588
 31
0.0
  0
LINE
  5
352
330
1A
100
AcDbEntity
  8
SEIHIN
  6
CONTINUOUS
 62
     3
 48
16.0
100
AcDbLine
 10
617.6161499117512
 20
472.6634709408588
 30
0.0
 11
582.6161499117512
 21
472.6634709408588
 31
0.0
  0
LINE
  5
353
330
1A
100
AcDbEntity
  8
SEIHIN
  6
CONTINUOUS
 62
     3
 48
16.0
100
AcDbLine
 10
617.6161499117512
 20
475.2858777433588
 30
0.0
 11
582.6161499117512
 21
475.2858777433588
 31
0.0
  0
LINE
  5
354
330
1A
100
AcDbEntity
  8
SEIHIN
  6
CONTINUOUS
 62
     3
 48
16.0
100
AcDbLine
 10
617.6161499117512
 20
474.3157907947589
 30
0.0
 11
582.6161499117512
 21
474.3157907947589
 31
0.0
  0
LINE
  5
355
330
1A
100
AcDbEntity
  8
SEIHIN
  6
CONTINUOUS
 62
     3
 48
16.0
100
AcDbLine
 10
617.6161499117512
 20
355.8830929546588
 30
0.0
 11
580.6161499117512
 21
355.8830929546588
 31
0.0
  0
LINE
  5
356
330
1A
100
AcDbEntity
  8
SEIHIN
  6
CONTINUOUS
 62
     3
 48
16.0
100
AcDbLine
 10
617.6161499117512
 20
342.0545605411589
 30
0.0
 11
558.9661499117512
 21
342.0545605411589
 31
0.0
  0
LINE
  5
357
330
1A
100
AcDbEntity
  8
SEIHIN
  6
CONTINUOUS
 62
     3
 48
16.0
100
AcDbLine
 10
617.6161499117512
 20
350.4933302875588
 30
0.0
 11
582.6161499117512
 21
350.4933302875588
 31
0.0
  0
LINE
  5
358
330
1A
100
AcDbEntity
  8
SEIHIN
  6
CONTINUOUS
 62
     3
 48
16.0
100
AcDbLine
 10
617.6161499117512
 20
349.5232433390588
 30
0.0
 11
582.6161499117512
 21
349.5232433390588
 31
0.0
  0
LINE
  5
359
330
1A
100
AcDbEntity
  8
SEIHIN
  6
CONTINUOUS
 62
     3
 48
16.0
100
AcDbLine
 10
617.6161499117512
 20
352.1456501414588
 30
0.0
 11
582.6161499117512
 21
352.1456501414588
 31
0.0
  0
LINE
  5
35A
330
1A
100
AcDbEntity
  8
SEIHIN
  6
CONTINUOUS
 62
     3
 48
16.0
100
AcDbLine
 10
574.6161499117512
 20
412.4045605411588
 30
0.0
 11
574.6161499117512
 21
469.5663200582415
 31
0.0
  0
LINE
  5
35B
330
1A
100
AcDbEntity
  8
SEIHIN
  6
CONTINUOUS
 62
     3
 48
16.0
100
AcDbLine
 10
580.6161499117512
 20
412.4045605411588
 30
0.0
 11
580.6161499117511
 21
469.5663200582415
 31
0.0
  0
LINE
  5
35C
330
1A
100
AcDbEntity
  8
SEIHIN
  6
CONTINUOUS
100
AcDbLine
 10
499.2227516295494
 20
401.7979588233605
 30
0.0
 11
536.4967887770511
 21
364.5239216758588
 31
0.0
  0
LINE
  5
35D
330
1A
100
AcDbEntity
  8
SEIHIN
  6
CONTINUOUS
 62
     3
 48
16.0
100
AcDbLine
 10
580.6161499117512
 20
412.4045605411588
 30
0.0
 11
580.6161499117512
 21
355.2428010240761
 31
0.0
  0
LINE
  5
35E
330
1A
100
AcDbEntity
  8
SEIHIN
  6
CONTINUOUS
 62
     3
 48
16.0
100
AcDbLine
 10
574.6161499117512
 20
412.4045605411588
 30
0.0
 11
574.6161499117513
 21
355.2428010240761
 31
0.0
  0
LINE
  5
35F
330
1A
100
AcDbEntity
  8
SEIHIN
  6
CONTINUOUS
 62
     3
 48
16.0
100
AcDbLine
 10
574.6161499117512
 20
355.8830929546588
 30
0.0
 11
549.6161499117512
 21
355.8830929546588
 31
0.0
  0
LINE
  5
360
330
1A
100
AcDbEntity
  8
SEIHIN
  6
CONTINUOUS
 62
     3
 48
16.0
100
AcDbLine
 10
538.4823166902512
 20
351.4045605411588
 30
0.0
 11
538.4823166902512
 21
362.5383937626588
 31
0.0
  0
LINE
  5
361
330
1A
100
AcDbEntity
  8
SEIHIN
  6
CONTINUOUS
 62
     3
 48
16.0
100
AcDbLine
 10
536.4967887770511
 20
351.4045605411588
 30
0.0
 11
536.4967887770511
 21
364.5239216758588
 31
0.0
  0
LINE
  5
362
330
1A
100
AcDbEntity
  8
SEIHIN
  6
CONTINUOUS
 62
     3
 48
16.0
100
AcDbLine
 10
547.6161499117512
 20
362.5383937626588
 30
0.0
 11
547.6161499117512
 21
354.0383937626588
 31
0.0
  0
LINE
  5
363
330
1A
100
AcDbEntity
  8
SEIHIN
  6
CONTINUOUS
 62
     3
 48
16.0
100
AcDbLine
 10
549.6161499117512
 20
371.3811635431588
 30
0.0
 11
549.6161499117512
 21
354.0383937626588
 31
0.0
  0
LINE
  5
364
330
1A
100
AcDbEntity
  8
SEIHIN
  6
CONTINUOUS
 62
     3
 48
16.0
100
AcDbLine
 10
551.6161499117512
 20
371.3811635431588
 30
0.0
 11
551.6161499117512
 21
357.1003111565588
 31
0.0
  0
LINE
  5
365
330
1A
100
AcDbEntity
  8
SEIHIN
  6
CONTINUOUS
 62
     3
 48
16.0
100
AcDbLine
 10
538.4823166902512
 20
353.4045605411588
 30
0.0
 11
546.9823166902512
 21
353.4045605411588
 31
0.0
  0
LINE
  5
366
330
1A
100
AcDbEntity
  8
SEIHIN
  6
CONTINUOUS
 62
     3
 48
16.0
100
AcDbLine
 10
529.6395469098512
 20
349.4045605411588
 30
0.0
 11
543.9203992963513
 21
349.4045605411588
 31
0.0
  0
LINE
  5
367
330
1A
100
AcDbEntity
  8
SEIHIN
  6
CONTINUOUS
 62
     3
 48
16.0
100
AcDbLine
 10
529.6395469098512
 20
351.4045605411588
 30
0.0
 11
546.9823166902512
 21
351.4045605411588
 31
0.0
  0
LINE
  5
368
330
1A
100
AcDbEntity
  8
SEIHIN
  6
CONTINUOUS
 62
     3
 48
16.0
100
AcDbLine
 10
529.6395469098512
 20
349.4045605411588
 30
0.0
 11
529.6395469098512
 21
351.4045605411588
 31
0.0
  0
LINE
  5
369
330
1A
100
AcDbEntity
  8
SEIHIN
  6
CONTINUOUS
 62
     3
 48
16.0
100
AcDbLine
 10
549.6161499117512
 20
354.0383937626588
 30
0.0
 11
547.6161499117512
 21
354.0383937626588
 31
0.0
  0
LINE
  5
36A
330
1A
100
AcDbEntity
  8
SEIHIN
  6
CONTINUOUS
 62
     3
 48
16.0
100
AcDbLine
 10
546.9823166902512
 20
351.4045605411588
 30
0.0
 11
546.9823166902512
 21
353.4045605411588
 31
0.0
  0
LINE
  5
36B
330
1A
100
AcDbEntity
  8
SEIHIN
  6
CONTINUOUS
 62
     3
 48
16.0
100
AcDbLine
 10
545.1376174982511
 20
353.4045605411588
 30
0.0
 11
545.1376174982511
 21
355.8830929546588
 31
0.0
  0
LINE
  5
36C
330
1A
100
AcDbEntity
  8
SEIHIN
  6
CONTINUOUS
 62
     3
 48
16.0
100
AcDbLine
 10
547.6161499117512
 20
355.8830929546588
 30
0.0
 11
545.1376174982511
 21
355.8830929546588
 31
0.0
  0
LINE
  5
36D
330
1A
100
AcDbEntity
  8
SEIHIN
  6
CONTINUOUS
 62
     3
 48
16.0
100
AcDbLine
 10
540.4823166902511
 20
351.4045605411588
 30
0.0
 11
540.4823166902511
 21
353.4045605411588
 31
0.0
  0
LINE
  5
36E
330
1A
100
AcDbEntity
  8
SEIHIN
  6
CONTINUOUS
 62
     3
 48
16.0
100
AcDbLine
 10
543.9203992963513
 20
349.4045605411588
 30
0.0
 11
543.9203992963513
 21
351.4045605411588
 31
0.0
  0
LINE
  5
36F
330
1A
100
AcDbEntity
  8
SEIHIN
  6
CONTINUOUS
 62
     3
 48
16.0
100
AcDbLine
 10
542.9501493071512
 20
349.4045605411588
 30
0.0
 11
542.9501493071512
 21
351.4045605411588
 31
0.0
  0
LINE
  5
370
330
1A
100
AcDbEntity
  8
SEIHIN
  6
CONTINUOUS
 62
     3
 48
16.0
100
AcDbLine
 10
551.6161499117512
 20
358.0705611457588
 30
0.0
 11
549.6161499117512
 21
358.0705611457588
 31
0.0
  0
LINE
  5
371
330
1A
100
AcDbEntity
  8
SEIHIN
  6
CONTINUOUS
 62
     3
 48
16.0
100
AcDbLine
 10
551.6161499117512
 20
357.1003111565588
 30
0.0
 11
549.6161499117512
 21
357.1003111565588
 31
0.0
  0
LINE
  5
372
330
1A
100
AcDbEntity
  8
SEIHIN
  6
CONTINUOUS
 62
     3
 48
16.0
100
AcDbLine
 10
549.6161499117512
 20
364.5239216758588
 30
0.0
 11
536.4967887770511
 21
364.5239216758588
 31
0.0
  0
LINE
  5
373
330
1A
100
AcDbEntity
  8
SEIHIN
  6
CONTINUOUS
 62
     3
 48
16.0
100
AcDbLine
 10
549.6161499117512
 20
362.5383937626588
 30
0.0
 11
538.4823166902512
 21
362.5383937626588
 31
0.0
  0
LINE
  5
374
330
1A
100
AcDbEntity
  8
SEIHIN
  6
CONTINUOUS
 62
     3
 48
16.0
100
AcDbLine
 10
549.6161499117512
 20
360.5383937626588
 30
0.0
 11
547.6161499117512
 21
360.5383937626588
 31
0.0
  0
LINE
  5
375
330
1A
100
AcDbEntity
  8
SEIHIN
  6
CONTINUOUS
 62
     3
 48
16.0
100
AcDbLine
 10
551.6161499117512
 20
371.3811635431588
 30
0.0
 11
549.6161499117512
 21
371.3811635431588
 31
0.0
  0
LINE
  5
376
330
1A
100
AcDbEntity
  8
SEIHIN
  6
CONTINUOUS
 62
     3
 48
16.0
100
AcDbLine
 10
582.6161499117512
 20
344.0545605411589
 30
0.0
 11
556.9661499117512
 21
344.0545605411589
 31
0.0
  0
LINE
  5
377
330
1A
100
AcDbEntity
  8
SEIHIN
  6
CONTINUOUS
 62
     3
 48
16.0
100
AcDbLine
 10
582.6161499117512
 20
352.1456501414588
 30
0.0
 11
582.6161499117512
 21
342.0545605411589
 31
0.0
  0
LINE
  5
379
330
1A
100
AcDbEntity
  8
SEIHIN
  6
CONTINUOUS
 62
     3
 48
16.0
100
AcDbLine
 10
523.2661499117512
 20
468.9260281277588
 30
0.0
 11
507.2661499117513
 21
468.9260281277588
 31
0.0
  0
LINE
  5
37A
330
1A
100
AcDbEntity
  8
SEIHIN
  6
CONTINUOUS
 62
     3
 48
16.0
100
AcDbLine
 10
525.2661499117513
 20
460.2851994065588
 30
0.0
 11
505.2661499117513
 21
460.2851994065588
 31
0.0
  0
LINE
  5
37B
330
1A
100
AcDbEntity
  8
SEIHIN
  6
CONTINUOUS
 62
     3
 48
16.0
100
AcDbLine
 10
525.2661499117513
 20
462.2707273196589
 30
0.0
 11
505.2661499117513
 21
462.2707273196589
 31
0.0
  0
LINE
  5
37C
330
1A
100
AcDbEntity
  8
SEIHIN
  6
CONTINUOUS
 62
     3
 48
16.0
100
AcDbLine
 10
505.2661499117513
 20
468.9260281277588
 30
0.0
 11
455.2661499117512
 21
468.9260281277588
 31
0.0
  0
LINE
  5
37D
330
1A
100
AcDbEntity
  8
SEIHIN
  6
CONTINUOUS
 62
     3
 48
16.0
100
AcDbLine
 10
455.2661499117512
 20
470.7707273196588
 30
0.0
 11
455.2661499117512
 21
460.2851994065588
 31
0.0
  0
LINE
  5
37E
330
1A
100
AcDbEntity
  8
SEIHIN
  6
CONTINUOUS
 62
     3
 48
16.0
100
AcDbLine
 10
453.2661499117512
 20
470.7707273196588
 30
0.0
 11
453.2661499117512
 21
462.2707273196589
 31
0.0
  0
LINE
  5
37F
330
1A
100
AcDbEntity
  8
SEIHIN
  6
CONTINUOUS
 62
     3
 48
16.0
100
AcDbLine
 10
455.2661499117512
 20
464.2707273196588
 30
0.0
 11
453.2661499117512
 21
464.2707273196588
 31
0.0
  0
LINE
  5
380
330
1A
100
AcDbEntity
  8
SEIHIN
  6
CONTINUOUS
 62
     3
 48
16.0
100
AcDbLine
 10
455.2661499117512
 20
470.7707273196588
 30
0.0
 11
453.2661499117512
 21
470.7707273196588
 31
0.0
  0
LINE
  5
381
330
1A
100
AcDbEntity
  8
SEIHIN
  6
CONTINUOUS
 62
     3
 48
16.0
100
AcDbLine
 10
507.2661499117513
 20
470.7707273196588
 30
0.0
 11
507.2661499117513
 21
462.2707273196589
 31
0.0
  0
LINE
  5
382
330
1A
100
AcDbEntity
  8
SEIHIN
  6
CONTINUOUS
 62
     3
 48
16.0
100
AcDbLine
 10
505.2661499117513
 20
470.7707273196588
 30
0.0
 11
505.2661499117513
 21
460.2851994065588
 31
0.0
  0
LINE
  5
383
330
1A
100
AcDbEntity
  8
SEIHIN
  6
CONTINUOUS
 62
     3
 48
16.0
100
AcDbLine
 10
507.2661499117513
 20
464.2707273196588
 30
0.0
 11
505.2661499117513
 21
464.2707273196588
 31
0.0
  0
LINE
  5
384
330
1A
100
AcDbEntity
  8
SEIHIN
  6
CONTINUOUS
 62
     3
 48
16.0
100
AcDbLine
 10
507.2661499117513
 20
470.7707273196588
 30
0.0
 11
505.2661499117513
 21
470.7707273196588
 31
0.0
  0
LINE
  5
385
330
1A
100
AcDbEntity
  8
SEIHIN
  6
CONTINUOUS
 62
     3
 48
16.0
100
AcDbLine
 10
582.6161499117512
 20
472.6634709408588
 30
0.0
 11
582.6161499117512
 21
482.7545605411589
 31
0.0
  0
LINE
  5
386
330
1A
100
AcDbEntity
  8
SEIHIN
  6
CONTINUOUS
 62
     3
 48
16.0
100
AcDbLine
 10
574.6161499117512
 20
468.9260281277588
 30
0.0
 11
525.2661499117513
 21
468.9260281277588
 31
0.0
  0
LINE
  5
387
330
1A
100
AcDbEntity
  8
SEIHIN
  6
CONTINUOUS
 62
     3
 48
16.0
100
AcDbLine
 10
549.6161499117512
 20
453.4279575392588
 30
0.0
 11
549.6161499117512
 21
467.7088099258588
 31
0.0
  0
LINE
  5
388
330
1A
100
AcDbEntity
  8
SEIHIN
  6
CONTINUOUS
 62
     3
 48
16.0
100
AcDbLine
 10
551.6161499117512
 20
453.4279575392588
 30
0.0
 11
551.6161499117512
 21
467.7088099258588
 31
0.0
  0
LINE
  5
389
330
1A
100
AcDbEntity
  8
SEIHIN
  6
CONTINUOUS
 62
     3
 48
16.0
100
AcDbLine
 10
551.6161499117512
 20
453.4279575392588
 30
0.0
 11
549.6161499117512
 21
453.4279575392588
 31
0.0
  0
LINE
  5
38A
330
1A
100
AcDbEntity
  8
SEIHIN
  6
CONTINUOUS
 62
     3
 48
16.0
100
AcDbLine
 10
525.2661499117513
 20
470.7707273196588
 30
0.0
 11
525.2661499117513
 21
460.2851994065588
 31
0.0
  0
LINE
  5
38B
330
1A
100
AcDbEntity
  8
SEIHIN
  6
CONTINUOUS
 62
     3
 48
16.0
100
AcDbLine
 10
523.2661499117512
 20
470.7707273196588
 30
0.0
 11
523.2661499117512
 21
462.2707273196589
 31
0.0
  0
LINE
  5
38C
330
1A
100
AcDbEntity
  8
SEIHIN
  6
CONTINUOUS
 62
     3
 48
16.0
100
AcDbLine
 10
525.2661499117513
 20
464.2707273196588
 30
0.0
 11
523.2661499117512
 21
464.2707273196588
 31
0.0
  0
LINE
  5
38D
330
1A
100
AcDbEntity
  8
SEIHIN
  6
CONTINUOUS
 62
     3
 48
16.0
100
AcDbLine
 10
525.2661499117513
 20
470.7707273196588
 30
0.0
 11
523.2661499117512
 21
470.7707273196588
 31
0.0
  0
LINE
  5
38E
330
1A
100
AcDbEntity
  8
SEIHIN
  6
CONTINUOUS
 62
     3
 48
16.0
100
AcDbLine
 10
551.6161499117512
 20
467.7088099258588
 30
0.0
 11
549.6161499117512
 21
467.7088099258588
 31
0.0
  0
LINE
  5
38F
330
1A
100
AcDbEntity
  8
SEIHIN
  6
CONTINUOUS
 62
     3
 48
16.0
100
AcDbLine
 10
551.6161499117512
 20
466.7385599366588
 30
0.0
 11
549.6161499117512
 21
466.7385599366588
 31
0.0
  0
DIMENSION
  5
391
330
1A
100
AcDbEntity
  8
SUNPOU
  6
CONTINUOUS
100
AcDbDimension
  2
*D6
 10
659.2152765758329
 20
342.0545605411589
 30
0.0
 11
659.2152765758329
 21
409.8835001962586
 31
0.0
 70
   160
  3
STANDARD
100
AcDbAlignedDimension
 13
617.6161499117512
 23
482.7545605411589
 33
0.0
 14
617.6161499117512
 24
342.0545605411589
 34
0.0
 50
90.0
100
AcDbRotatedDimension
1001
ACAD
1000
DSTYLE
1002
{
1070
   140
1040
6.0
1070
    74
1070
     0
1070
   172
1070
     1
1070
    73
1070
     0
1070
   272
1070
     2
1070
    77
1070
     3
1070
   173
1070
     1
1070
   147
1040
2.0
1070
    42
1040
6.0
1070
    44
1040
3.0
1070
    43
1040
14.0
1070
   271
1070
     0
1070
   178
1070
     4
1070
   177
1070
     4
1070
   176
1070
     4
1070
   141
1040
150.0
1070
     7
1000
_OPEN
1070
     6
1000
_OPEN
1070
    41
1040
7.0
1002
}
  0
LINE
  5
392
330
1A
100
AcDbEntity
  8
SEIHIN
  6
CONTINUOUS
 62
     3
 48
16.0
100
AcDbLine
 10
617.6161499117512
 20
412.4045605411588
 30
0.0
 11
617.6161499117512
 21
482.7545605411589
 31
0.0
  0
LINE
  5
393
330
1A
100
AcDbEntity
  8
SEIHIN
  6
CONTINUOUS
 62
     3
 48
16.0
100
AcDbLine
 10
617.6161499117512
 20
412.4045605411588
 30
0.0
 11
617.6161499117512
 21
342.0545605411589
 31
0.0
  0
ARC
  5
421
330
1A
100
AcDbEntity
  8
SEIHIN
  6
CONTINUOUS
 62
     3
 48
16.0
100
AcDbCircle
 10
545.7779094288339
 20
323.4045605411588
 30
0.0
 40
3.0
100
AcDbArc
 50
270.0
 51
90.0
  0
ARC
  5
423
330
1A
100
AcDbEntity
  8
SEIHIN
  6
CONTINUOUS
 62
     3
 48
16.0
100
AcDbCircle
 10
577.6161499117514
 20
469.5663200582415
 30
0.0
 40
3.0
100
AcDbArc
 50
359.9999999999999
 51
179.9999999999999
  0
ARC
  5
426
330
1A
100
AcDbEntity
  8
SEIHIN
 48
16.0
100
AcDbCircle
 10
577.6161499117513
 20
355.2428010240761
 30
0.0
 40
3.0
100
AcDbArc
 50
180.0
 51
0.0
  0
CIRCLE
  5
429
330
1A
100
AcDbEntity
  8
SEIHIN
100
AcDbCircle
 10
577.6161499117514
 20
469.5663200582415
 30
0.0
 40
2.9
  0
CIRCLE
  5
42A
330
1A
100
AcDbEntity
  8
SEIHIN
100
AcDbCircle
 10
577.6161499117513
 20
355.2428010240761
 30
0.0
 40
2.9
  0
CIRCLE
  5
42B
330
1A
100
AcDbEntity
  8
SEIHIN
100
AcDbCircle
 10
545.7779094288339
 20
323.4045605411588
 30
0.0
 40
2.9
  0
CIRCLE
  5
42C
330
1A
100
AcDbEntity
  8
SEIHIN
100
AcDbCircle
 10
431.4543903946685
 20
323.4045605411588
 30
0.0
 40
2.9
  0
LINE
  5
432
330
1A
100
AcDbEntity
  8
SEIHIN
  6
CONTINUOUS
 62
     3
 48
16.0
100
AcDbLine
 10
347.7257786264637
 20
179.1449055046589
 30
0.0
 11
347.7257786264637
 21
130.9449055046588
 31
0.0
  0
LINE
  5
434
330
1A
100
AcDbEntity
  8
SEIHIN
100
AcDbLine
 10
352.7257786264637
 20
131.6449055046588
 30
0.0
 11
347.7257786264637
 21
130.9449055046588
 31
0.0
  0
ARC
  5
435
330
1A
100
AcDbEntity
  8
SEIHIN
  6
CONTINUOUS
 62
     3
 48
16.0
100
AcDbCircle
 10
488.6161499117513
 20
189.9449055046589
 30
0.0
 40
58.3
100
AcDbArc
 50
270.0
 51
348.5222022911239
  0
ARC
  5
436
330
1A
100
AcDbEntity
  8
SEIHIN
  6
CONTINUOUS
 62
     3
 48
16.0
100
AcDbCircle
 10
488.6161499117513
 20
189.9449055046589
 30
0.0
 40
58.3
100
AcDbArc
 50
191.4777977088759
 51
270.0
  0
ARC
  5
437
330
1A
100
AcDbEntity
  8
SEIHIN
  6
CONTINUOUS
 62
     3
 48
16.0
100
AcDbCircle
 10
430.5020380283198
 20
178.1449055046588
 30
0.0
 40
1.0
100
AcDbArc
 50
11.47779770887604
 51
90.0
  0
ARC
  5
438
330
1A
100
AcDbEntity
  8
SEIHIN
  6
CONTINUOUS
 62
     3
 48
16.0
100
AcDbCircle
 10
429.7879253932431
 20
178.1449055046588
 30
0.0
 40
1.0
100
AcDbArc
 50
11.34210209213362
 51
90.0
  0
ARC
  5
439
330
1A
100
AcDbEntity
  8
SEIHIN
  6
CONTINUOUS
 62
     3
 48
16.0
100
AcDbCircle
 10
547.4443744302593
 20
178.1449055046588
 30
0.0
 40
1.0
100
AcDbArc
 50
90.0
 51
168.6578979078673
  0
ARC
  5
43A
330
1A
100
AcDbEntity
  8
SEIHIN
  6
CONTINUOUS
 62
     3
 48
16.0
100
AcDbCircle
 10
546.7302617951827
 20
178.1449055046588
 30
0.0
 40
1.0
100
AcDbArc
 50
90.0
 51
168.5222022911261
  0
LINE
  5
43C
330
1A
100
AcDbEntity
  8
SEIHIN
  6
CONTINUOUS
 62
     3
 48
16.0
100
AcDbLine
 10
612.6161499117512
 20
179.1449055046589
 30
0.0
 11
612.6161499117512
 21
130.9449055046588
 31
0.0
  0
LINE
  5
43D
330
1A
100
AcDbEntity
  8
SEIHIN
100
AcDbLine
 10
617.6161499117512
 20
131.6449055046588
 30
0.0
 11
612.6161499117512
 21
130.9449055046588
 31
0.0
  0
VIEWPORT
  5
22
330
17
100
AcDbEntity
 67
     1
  8
0
100
AcDbViewport
 10
313.6808219178082
 20
148.5
 30
0.0
 40
627.3616438356165
 41
297.0
 68
     2
 69
     1
1001
ACAD
1000
MVIEW
1002
{
1070
    16
1010
0.0
1020
0.0
1030
0.0
1010
0.0
1020
0.0
1030
1.0
1040
0.0
1040
297.0
1040
313.6808219178082
1040
148.5
1040
50.0
1040
0.0
1040
0.0
1070
     0
1070
   100
1070
     1
1070
     0
1070
     0
1070
     0
1070
     0
1070
     0
1040
0.0
1040
0.0
1040
0.0
1040
1.0
1040
1.0
1040
10.0
1040
10.0
1070
     0
1002
{
1002
}
1002
}
  0
VIEWPORT
  5
64
330
17
100
AcDbEntity
 67
     1
  8
VIEWPORT
100
AcDbViewport
 10
210.0
 20
148.5
 30
0.0
 40
420.0
 41
297.0
 68
     1
 69
     2
1001
ACAD
1000
MVIEW
1002
{
1070
    16
1010
0.0
1020
0.0
1030
0.0
1010
0.0
1020
0.0
1030
1.0
1040
0.0
1040
605.8799999999998
1040
420.0
1040
297.0
1040
50.0
1040
0.0
1040
0.0
1070
     0
1070
   100
1070
     1
1070
     0
1070
     0
1070
     0
1070
     0
1070
     0
1040
0.0
1040
0.0
1040
0.0
1040
10.0
1040
10.0
1040
0.0
1040
0.0
1070
     0
1002
{
1002
}
1002
}
  0
ENDSEC
  0
SECTION
  2
OBJECTS
  0
DICTIONARY
  5
C
330
0
100
AcDbDictionary
  3
ACAD_GROUP
350
D
  3
ACAD_LAYOUT
350
45A
  3
ACAD_MLINESTYLE
350
E
  3
ACAD_PLOTSETTINGS
350
45B
1001
ACAD
1000
TREAT_AS_HARD
1070
     0
  0
DICTIONARY
  5
489
330
1A
100
AcDbDictionary
  3
ACAD_LAYOUTSELFREF
350
499
1001
ACAD
1000
TREAT_AS_HARD
1070
     1
  0
DICTIONARY
  5
487
330
17
100
AcDbDictionary
  3
ACAD_LAYOUTSELFREF
350
498
1001
ACAD
1000
TREAT_AS_HARD
1070
     1
  0
DICTIONARY
  5
D
102
{ACAD_REACTORS
330
C
102
}
330
C
100
AcDbDictionary
1001
ACAD
1000
TREAT_AS_HARD
1070
     0
  0
DICTIONARY
  5
45A
102
{ACAD_REACTORS
330
C
102
}
330
C
100
AcDbDictionary
1001
ACAD
1000
TREAT_AS_HARD
1070
     0
  0
DICTIONARY
  5
E
102
{ACAD_REACTORS
330
C
102
}
330
C
100
AcDbDictionary
  3
STANDARD
350
13
1001
ACAD
1000
TREAT_AS_HARD
1070
     0
  0
DICTIONARY
  5
45B
102
{ACAD_REACTORS
330
C
102
}
330
C
100
AcDbDictionary
1001
ACAD
1000
TREAT_AS_HARD
1070
     0
  0
XRECORD
  5
499
102
{ACAD_REACTORS
330
489
102
}
330
489
100
AcDbXrecord
340
1A
  0
XRECORD
  5
498
102
{ACAD_REACTORS
330
487
102
}
330
487
100
AcDbXrecord
340
17
  0
MLINESTYLE
  5
13
102
{ACAD_REACTORS
330
E
102
}
330
E
100
AcDbMlineStyle
  2
STANDARD
 70
     0
  3

 62
     0
 51
90.0
 52
90.0
 71
     2
 49
0.5
 62
   256
  6
BYLAYER
 49
-0.5
 62
   256
  6
BYLAYER
  0
ENDSEC
  0
EOF
