  0
SECTION
  2
HEADER
  9
$ACADVER
  1
AC1012
  9
$DWGCODEPAGE
  3
dos932
  9
$INSBASE
 10
0.0
 20
0.0
 30
0.0
  9
$EXTMIN
 10
10.0360127096485
 20
4.921601730540487
 30
-0.0000000000112498
  9
$EXTMAX
 10
806.2518329711769
 20
563.79062024433
 30
0.0000000000002956
  9
$LIMMIN
 10
0.0
 20
0.0
  9
$LIMMAX
 10
840.0
 20
594.0
  9
$ORTHOMODE
 70
     1
  9
$REGENMODE
 70
     1
  9
$FILLMODE
 70
     1
  9
$QTEXTMODE
 70
     0
  9
$MIRRTEXT
 70
     1
  9
$DRAGMODE
 70
     2
  9
$LTSCALE
 40
2.0
  9
$OSMODE
 70
    37
  9
$ATTMODE
 70
     1
  9
$TEXTSIZE
 40
5.0
  9
$TRACEWID
 40
1.0
  9
$TEXTSTYLE
  7
STANDARD
  9
$CLAYER
  8
SUNPOU
  9
$CELTYPE
  6
BYLAYER
  9
$CECOLOR
 62
   256
  9
$CELTSCALE
 40
1.0
  9
$DELOBJ
 70
     1
  9
$DISPSILH
 70
     0
  9
$DIMSCALE
 40
1.0
  9
$DIMASZ
 40
7.0
  9
$DIMEXO
 40
6.0
  9
$DIMDLI
 40
14.0
  9
$DIMRND
 40
0.0
  9
$DIMDLE
 40
0.0
  9
$DIMEXE
 40
3.0
  9
$DIMTP
 40
0.0
  9
$DIMTM
 40
0.0
  9
$DIMTXT
 40
6.0
  9
$DIMCEN
 40
150.0
  9
$DIMTSZ
 40
0.0
  9
$DIMTOL
 70
     0
  9
$DIMLIM
 70
     0
  9
$DIMTIH
 70
     0
  9
$DIMTOH
 70
     0
  9
$DIMSE1
 70
     0
  9
$DIMSE2
 70
     0
  9
$DIMTAD
 70
     3
  9
$DIMZIN
 70
     0
  9
$DIMBLK
  1

  9
$DIMASO
 70
     1
  9
$DIMSHO
 70
     1
  9
$DIMPOST
  1

  9
$DIMAPOST
  1

  9
$DIMALT
 70
     0
  9
$DIMALTD
 70
     2
  9
$DIMALTF
 40
25.4
  9
$DIMLFAC
 40
1.0
  9
$DIMTOFL
 70
     1
  9
$DIMTVP
 40
0.0
  9
$DIMTIX
 70
     0
  9
$DIMSOXD
 70
     0
  9
$DIMSAH
 70
     1
  9
$DIMBLK1
  1
OPEN
  9
$DIMBLK2
  1
OPEN
  9
$DIMSTYLE
  2
STANDARD
  9
$DIMCLRD
 70
   256
  9
$DIMCLRE
 70
   256
  9
$DIMCLRT
 70
   256
  9
$DIMTFAC
 40
1.0
  9
$DIMGAP
 40
2.0
  9
$DIMJUST
 70
     0
  9
$DIMSD1
 70
     0
  9
$DIMSD2
 70
     0
  9
$DIMTOLJ
 70
     1
  9
$DIMTZIN
 70
     0
  9
$DIMALTZ
 70
     0
  9
$DIMALTTZ
 70
     0
  9
$DIMFIT
 70
     3
  9
$DIMUPT
 70
     0
  9
$DIMUNIT
 70
     2
  9
$DIMDEC
 70
     0
  9
$DIMTDEC
 70
     0
  9
$DIMALTU
 70
     2
  9
$DIMALTTD
 70
     2
  9
$DIMTXSTY
  7
STANDARD
  9
$DIMAUNIT
 70
     0
  9
$LUNITS
 70
     2
  9
$LUPREC
 70
     4
  9
$SKETCHINC
 40
1.0
  9
$FILLETRAD
 40
20.0
  9
$AUNITS
 70
     0
  9
$AUPREC
 70
     0
  9
$MENU
  1
.
  9
$ELEVATION
 40
0.0
  9
$PELEVATION
 40
0.0
  9
$THICKNESS
 40
0.0
  9
$LIMCHECK
 70
     0
  9
$BLIPMODE
 70
     0
  9
$CHAMFERA
 40
20.0
  9
$CHAMFERB
 40
20.0
  9
$CHAMFERC
 40
40.0
  9
$CHAMFERD
 40
0.0
  9
$SKPOLY
 70
     0
  9
$TDCREATE
 40
2451074.898570254
  9
$TDUPDATE
 40
2452395.847527800
  9
$TDINDWG
 40
0.0234813542
  9
$TDUSRTIMER
 40
0.0234813542
  9
$USRTIMER
 70
     1
  9
$ANGBASE
 50
0.0
  9
$ANGDIR
 70
     0
  9
$PDMODE
 70
     0
  9
$PDSIZE
 40
0.0
  9
$PLINEWID
 40
0.0
  9
$COORDS
 70
     1
  9
$SPLFRAME
 70
     0
  9
$SPLINETYPE
 70
     6
  9
$SPLINESEGS
 70
     8
  9
$ATTDIA
 70
     0
  9
$ATTREQ
 70
     1
  9
$HANDLING
 70
 10241
  9
$HANDSEED
  5
F4F
  9
$SURFTAB1
 70
     6
  9
$SURFTAB2
 70
     6
  9
$SURFTYPE
 70
     6
  9
$SURFU
 70
     6
  9
$SURFV
 70
     6
  9
$UCSNAME
  2

  9
$UCSORG
 10
0.0
 20
0.0
 30
0.0
  9
$UCSXDIR
 10
1.0
 20
0.0
 30
0.0
  9
$UCSYDIR
 10
0.0
 20
1.0
 30
0.0
  9
$PUCSNAME
  2

  9
$PUCSORG
 10
0.0
 20
0.0
 30
0.0
  9
$PUCSXDIR
 10
1.0
 20
0.0
 30
0.0
  9
$PUCSYDIR
 10
0.0
 20
1.0
 30
0.0
  9
$USERI1
 70
     0
  9
$USERI2
 70
     0
  9
$USERI3
 70
     0
  9
$USERI4
 70
     0
  9
$USERI5
 70
     0
  9
$USERR1
 40
0.0
  9
$USERR2
 40
0.0
  9
$USERR3
 40
0.0
  9
$USERR4
 40
0.0
  9
$USERR5
 40
0.0
  9
$WORLDVIEW
 70
     1
  9
$SHADEDGE
 70
     3
  9
$SHADEDIF
 70
    70
  9
$TILEMODE
 70
     1
  9
$MAXACTVP
 70
    16
  9
$PINSBASE
 10
0.0
 20
0.0
 30
0.0
  9
$PLIMCHECK
 70
     0
  9
$PEXTMIN
 10
0.0
 20
0.0
 30
0.0
  9
$PEXTMAX
 10
420.0
 20
297.0
 30
0.0
  9
$PLIMMIN
 10
0.0
 20
0.0
  9
$PLIMMAX
 10
420.0
 20
297.0
  9
$UNITMODE
 70
     0
  9
$VISRETAIN
 70
     0
  9
$PLINEGEN
 70
     0
  9
$PSLTSCALE
 70
     1
  9
$TREEDEPTH
 70
  3020
  9
$PICKSTYLE
 70
     1
  9
$CMLSTYLE
  2
STANDARD
  9
$CMLJUST
 70
     0
  9
$CMLSCALE
 40
1.0
  9
$SAVEIMAGES
 70
     1
  0
ENDSEC
  0
SECTION
  2
CLASSES
  0
CLASS
  1
ACDBDICTIONARYWDFLT
  2
AcDbDictionaryWithDefault
  3
AutoCAD 2000
 90
    32768
280
     0
281
     0
  0
CLASS
  1
ACDBPLACEHOLDER
  2
AcDbPlaceHolder
  3
AutoCAD 2000
 90
    32768
280
     0
281
     0
  0
CLASS
  1
LAYOUT
  2
AcDbLayout
  3
AutoCAD 2000
 90
    32768
280
     0
281
     0
  0
CLASS
  1
LONG_TRANSACTION
  2
AcDbLongTransaction
  3
AutoCAD 2000
 90
    32768
280
     0
281
     0
  0
CLASS
  1
LWPOLYLINE
  2
AcDbPolyline
  3
AutoCAD 2000
 90
    32768
280
     0
281
     1
  0
CLASS
  1
HATCH
  2
AcDbHatch
  3
AutoCAD 2000
 90
    32768
280
     0
281
     1
  0
CLASS
  1
XRECORD
  2
AcDbXrecord
  3
AutoCAD 2000
 90
    32768
280
     0
281
     0
  0
CLASS
  1
LONG_TRANSACTION
  2
AcDbLongTransaction
  3
AutoCAD 2000
 90
    32768
280
     0
281
     0
  0
CLASS
  1
LWPOLYLINE
  2
AcDbPolyline
  3
AutoCAD 2000
 90
    32768
280
     0
281
     1
  0
CLASS
  1
HATCH
  2
AcDbHatch
  3
AutoCAD 2000
 90
    32768
280
     0
281
     1
  0
CLASS
  1
XRECORD
  2
AcDbXrecord
  3
AutoCAD 2000
 90
    32768
280
     0
281
     0
  0
CLASS
  1
LONG_TRANSACTION
  2
AcDbLongTransaction
  3
AutoCAD 2000
 90
    32768
280
     0
281
     0
  0
CLASS
  1
LWPOLYLINE
  2
AcDbPolyline
  3
AutoCAD 2000
 90
    32768
280
     0
281
     1
  0
CLASS
  1
HATCH
  2
AcDbHatch
  3
AutoCAD 2000
 90
    32768
280
     0
281
     1
  0
CLASS
  1
XRECORD
  2
AcDbXrecord
  3
AutoCAD 2000
 90
    32768
280
     0
281
     0
  0
ENDSEC
  0
SECTION
  2
TABLES
  0
TABLE
  2
VPORT
  5
8
330
0
100
AcDbSymbolTable
 70
     4
  0
VPORT
  5
EF2
330
8
100
AcDbSymbolTableRecord
100
AcDbViewportTableRecord
  2
*ACTIVE
 70
     0
 10
0.0
 20
0.0
 11
1.0
 21
1.0
 12
420.0
 22
297.0
 13
0.0
 23
0.0
 14
5.0
 24
5.0
 15
0.0
 25
0.0
 16
0.0
 26
0.0
 36
1.0
 17
0.0
 27
0.0
 37
0.0
 40
600.6245353159852
 41
2.169459962756052
 42
50.0
 43
0.0
 44
0.0
 50
0.0
 51
0.0
 71
     0
 72
   100
 73
     1
 74
     0
 75
     0
 76
     0
 77
     0
 78
     0
  0
ENDTAB
  0
TABLE
  2
LTYPE
  5
5
330
0
100
AcDbSymbolTable
 70
     2
  0
LTYPE
  5
14
330
5
100
AcDbSymbolTableRecord
100
AcDbLinetypeTableRecord
  2
BYBLOCK
 70
     0
  3

 72
    65
 73
     0
 40
0.0
  0
LTYPE
  5
15
330
5
100
AcDbSymbolTableRecord
100
AcDbLinetypeTableRecord
  2
BYLAYER
 70
     0
  3

 72
    65
 73
     0
 40
0.0
  0
LTYPE
  5
16
330
5
100
AcDbSymbolTableRecord
100
AcDbLinetypeTableRecord
  2
CONTINUOUS
 70
     0
  3
Solid line
 72
    65
 73
     0
 40
0.0
  0
LTYPE
  5
135
330
5
100
AcDbSymbolTableRecord
100
AcDbLinetypeTableRecord
  2
CENTER
 70
     0
  3
____ _ ____ _ ____ _ ____ _ ____ _ ____ _ ____ 
 72
    65
 73
     4
 40
2.0
 49
1.25
 74
     0
 49
-0.25
 74
     0
 49
0.25
 74
     0
 49
-0.25
 74
     0
  0
ENDTAB
  0
TABLE
  2
LAYER
  5
2
330
0
100
AcDbSymbolTable
 70
     7
  0
LAYER
  5
F
330
2
100
AcDbSymbolTableRecord
100
AcDbLayerTableRecord
  2
0
 70
     0
 62
     7
  6
CONTINUOUS
  0
LAYER
  5
62
330
2
100
AcDbSymbolTableRecord
100
AcDbLayerTableRecord
  2
VIEWPORT
 70
     0
 62
     7
  6
CONTINUOUS
  0
LAYER
  5
65
330
2
100
AcDbSymbolTableRecord
100
AcDbLayerTableRecord
  2
ZUWAKU
 70
     0
 62
     7
  6
CONTINUOUS
  0
LAYER
  5
147
330
2
100
AcDbSymbolTableRecord
100
AcDbLayerTableRecord
  2
SEIHIN
 70
     0
 62
     3
  6
CONTINUOUS
  0
LAYER
  5
148
330
2
100
AcDbSymbolTableRecord
100
AcDbLayerTableRecord
  2
SUNPOU
 70
     0
 62
     4
  6
CONTINUOUS
  0
LAYER
  5
149
330
2
100
AcDbSymbolTableRecord
100
AcDbLayerTableRecord
  2
CENTER_L
 70
     0
 62
     1
  6
CENTER
  0
LAYER
  5
7C0
330
2
100
AcDbSymbolTableRecord
100
AcDbLayerTableRecord
  2
DEFPOINTS
 70
     0
 62
     7
  6
CONTINUOUS
  0
ENDTAB
  0
TABLE
  2
STYLE
  5
3
330
0
100
AcDbSymbolTable
 70
     1
  0
STYLE
  5
10
330
3
100
AcDbSymbolTableRecord
100
AcDbTextStyleTableRecord
  2
STANDARD
 70
     0
 40
0.0
 41
1.0
 50
0.0
 71
     0
 42
5.0
  3
TXT
  4
bigfont.shx
  0
ENDTAB
  0
TABLE
  2
VIEW
  5
6
330
0
100
AcDbSymbolTable
 70
     0
  0
ENDTAB
  0
TABLE
  2
UCS
  5
7
330
0
100
AcDbSymbolTable
 70
     0
  0
ENDTAB
  0
TABLE
  2
APPID
  5
9
330
0
100
AcDbSymbolTable
 70
     1
  0
APPID
  5
11
330
9
100
AcDbSymbolTableRecord
100
AcDbRegAppTableRecord
  2
ACAD
 70
     0
  0
ENDTAB
  0
TABLE
  2
DIMSTYLE
  5
A
330
0
100
AcDbSymbolTable
 70
     1
  0
DIMSTYLE
105
1D
102
{ACAD_REACTORS
330
92A
330
7C5
330
7F9
330
7EC
330
7DF
330
7D2
330
806
330
820
330
813
330
B1A
330
B67
330
CA1
330
CAE
330
CBB
330
B0B
330
B13
330
AFE
330
B14
330
ADF
330
AE7
330
AD7
330
DD6
330
DE3
330
DF0
330
DFD
330
E0A
330
E18
330
E25
330
D0E
330
D12
330
D13
330
D11
330
D32
330
D31
330
D3C
102
}
330
A
100
AcDbSymbolTableRecord
100
AcDbDimStyleTableRecord
  2
STANDARD
 70
     0
  3

  4

  5

  6

  7

 40
1.0
 41
0.18
 42
0.0625
 43
0.38
 44
0.18
 45
0.0
 46
0.0
 47
0.0
 48
0.0
140
0.18
141
0.09
142
0.0
143
25.4
144
1.0
145
0.0
146
1.0
147
0.09
 71
     0
 72
     0
 73
     1
 74
     1
 75
     0
 76
     0
 77
     0
 78
     0
170
     0
171
     2
172
     0
173
     0
174
     0
175
     0
176
     0
177
     0
178
     0
270
     2
271
     4
272
     4
273
     2
274
     2
340
10
275
     0
280
     0
281
     0
282
     0
283
     1
284
     0
285
     0
286
     0
287
     3
288
     0
  0
ENDTAB
  0
TABLE
  2
BLOCK_RECORD
  5
1
330
0
100
AcDbSymbolTable
 70
    46
  0
BLOCK_RECORD
  5
1A
102
{ACAD_XDICTIONARY
360
984
102
}
330
1
100
AcDbSymbolTableRecord
100
AcDbBlockTableRecord
  2
*MODEL_SPACE
  0
BLOCK_RECORD
  5
17
102
{ACAD_XDICTIONARY
360
982
102
}
330
1
100
AcDbSymbolTableRecord
100
AcDbBlockTableRecord
  2
*PAPER_SPACE
  0
BLOCK_RECORD
  5
6D
330
1
100
AcDbSymbolTableRecord
100
AcDbBlockTableRecord
  2
_OPEN
  0
BLOCK_RECORD
  5
7B8
330
1
100
AcDbSymbolTableRecord
100
AcDbBlockTableRecord
  2
*D1
  0
BLOCK_RECORD
  5
7C6
330
1
100
AcDbSymbolTableRecord
100
AcDbBlockTableRecord
  2
*D2
  0
BLOCK_RECORD
  5
7D3
330
1
100
AcDbSymbolTableRecord
100
AcDbBlockTableRecord
  2
*D3
  0
BLOCK_RECORD
  5
7E0
330
1
100
AcDbSymbolTableRecord
100
AcDbBlockTableRecord
  2
*D4
  0
BLOCK_RECORD
  5
7ED
330
1
100
AcDbSymbolTableRecord
100
AcDbBlockTableRecord
  2
*D5
  0
BLOCK_RECORD
  5
7FA
330
1
100
AcDbSymbolTableRecord
100
AcDbBlockTableRecord
  2
*D6
  0
BLOCK_RECORD
  5
807
330
1
100
AcDbSymbolTableRecord
100
AcDbBlockTableRecord
  2
*D7
  0
BLOCK_RECORD
  5
814
330
1
100
AcDbSymbolTableRecord
100
AcDbBlockTableRecord
  2
*D8
  0
BLOCK_RECORD
  5
91E
330
1
100
AcDbSymbolTableRecord
100
AcDbBlockTableRecord
  2
*D9
  0
BLOCK_RECORD
  5
9C9
330
1
100
AcDbSymbolTableRecord
100
AcDbBlockTableRecord
  2
*D10
  0
BLOCK_RECORD
  5
9D5
330
1
100
AcDbSymbolTableRecord
100
AcDbBlockTableRecord
  2
*D11
  0
BLOCK_RECORD
  5
9E1
330
1
100
AcDbSymbolTableRecord
100
AcDbBlockTableRecord
  2
*D12
  0
BLOCK_RECORD
  5
9ED
330
1
100
AcDbSymbolTableRecord
100
AcDbBlockTableRecord
  2
*D13
  0
BLOCK_RECORD
  5
9F9
330
1
100
AcDbSymbolTableRecord
100
AcDbBlockTableRecord
  2
*D14
  0
BLOCK_RECORD
  5
A05
330
1
100
AcDbSymbolTableRecord
100
AcDbBlockTableRecord
  2
*D15
  0
BLOCK_RECORD
  5
A13
330
1
100
AcDbSymbolTableRecord
100
AcDbBlockTableRecord
  2
*D16
  0
BLOCK_RECORD
  5
A1F
330
1
100
AcDbSymbolTableRecord
100
AcDbBlockTableRecord
  2
*D17
  0
BLOCK_RECORD
  5
A2B
330
1
100
AcDbSymbolTableRecord
100
AcDbBlockTableRecord
  2
*D18
  0
BLOCK_RECORD
  5
B6F
330
1
100
AcDbSymbolTableRecord
100
AcDbBlockTableRecord
  2
*D20
  0
BLOCK_RECORD
  5
B7B
330
1
100
AcDbSymbolTableRecord
100
AcDbBlockTableRecord
  2
*D21
  0
BLOCK_RECORD
  5
B87
330
1
100
AcDbSymbolTableRecord
100
AcDbBlockTableRecord
  2
*D22
  0
BLOCK_RECORD
  5
B93
330
1
100
AcDbSymbolTableRecord
100
AcDbBlockTableRecord
  2
*D23
  0
BLOCK_RECORD
  5
B9F
330
1
100
AcDbSymbolTableRecord
100
AcDbBlockTableRecord
  2
*D24
  0
BLOCK_RECORD
  5
BAB
330
1
100
AcDbSymbolTableRecord
100
AcDbBlockTableRecord
  2
*D25
  0
BLOCK_RECORD
  5
BB7
330
1
100
AcDbSymbolTableRecord
100
AcDbBlockTableRecord
  2
*D26
  0
BLOCK_RECORD
  5
BC3
330
1
100
AcDbSymbolTableRecord
100
AcDbBlockTableRecord
  2
*D27
  0
BLOCK_RECORD
  5
BCF
330
1
100
AcDbSymbolTableRecord
100
AcDbBlockTableRecord
  2
*D28
  0
BLOCK_RECORD
  5
CA2
330
1
100
AcDbSymbolTableRecord
100
AcDbBlockTableRecord
  2
*D29
  0
BLOCK_RECORD
  5
CAF
330
1
100
AcDbSymbolTableRecord
100
AcDbBlockTableRecord
  2
*D30
  0
BLOCK_RECORD
  5
CBC
330
1
100
AcDbSymbolTableRecord
100
AcDbBlockTableRecord
  2
*D31
  0
BLOCK_RECORD
  5
D43
330
1
100
AcDbSymbolTableRecord
100
AcDbBlockTableRecord
  2
*D32
  0
BLOCK_RECORD
  5
D4F
330
1
100
AcDbSymbolTableRecord
100
AcDbBlockTableRecord
  2
*D33
  0
BLOCK_RECORD
  5
D5B
330
1
100
AcDbSymbolTableRecord
100
AcDbBlockTableRecord
  2
*D34
  0
BLOCK_RECORD
  5
D67
330
1
100
AcDbSymbolTableRecord
100
AcDbBlockTableRecord
  2
*D35
  0
BLOCK_RECORD
  5
D73
330
1
100
AcDbSymbolTableRecord
100
AcDbBlockTableRecord
  2
*D36
  0
BLOCK_RECORD
  5
D7F
330
1
100
AcDbSymbolTableRecord
100
AcDbBlockTableRecord
  2
*D37
  0
BLOCK_RECORD
  5
D8B
330
1
100
AcDbSymbolTableRecord
100
AcDbBlockTableRecord
  2
*D38
  0
BLOCK_RECORD
  5
DD7
330
1
100
AcDbSymbolTableRecord
100
AcDbBlockTableRecord
  2
*D39
  0
BLOCK_RECORD
  5
DE4
330
1
100
AcDbSymbolTableRecord
100
AcDbBlockTableRecord
  2
*D40
  0
BLOCK_RECORD
  5
DF1
330
1
100
AcDbSymbolTableRecord
100
AcDbBlockTableRecord
  2
*D41
  0
BLOCK_RECORD
  5
DFE
330
1
100
AcDbSymbolTableRecord
100
AcDbBlockTableRecord
  2
*D42
  0
BLOCK_RECORD
  5
E0B
330
1
100
AcDbSymbolTableRecord
100
AcDbBlockTableRecord
  2
*D43
  0
BLOCK_RECORD
  5
E19
330
1
100
AcDbSymbolTableRecord
100
AcDbBlockTableRecord
  2
*D44
  0
BLOCK_RECORD
  5
E26
330
1
100
AcDbSymbolTableRecord
100
AcDbBlockTableRecord
  2
*D45
  0
ENDTAB
  0
ENDSEC
  0
SECTION
  2
BLOCKS
  0
BLOCK
  5
1B
330
1A
100
AcDbEntity
  8
0
100
AcDbBlockBegin
  2
*MODEL_SPACE
 70
     0
 10
0.0
 20
0.0
 30
0.0
  3
*MODEL_SPACE
  1

  0
ENDBLK
  5
1C
330
1A
100
AcDbEntity
  8
0
100
AcDbBlockEnd
  0
BLOCK
  5
18
330
17
100
AcDbEntity
 67
     1
  8
0
100
AcDbBlockBegin
  2
*PAPER_SPACE
 70
     0
 10
0.0
 20
0.0
 30
0.0
  3
*PAPER_SPACE
  1

  0
ENDBLK
  5
19
330
17
100
AcDbEntity
 67
     1
  8
0
100
AcDbBlockEnd
  0
BLOCK
  5
6E
330
6D
100
AcDbEntity
  8
0
100
AcDbBlockBegin
  2
_OPEN
 70
     0
 10
0.0
 20
0.0
 30
0.0
  3
_OPEN
  1

  0
LINE
  5
6F
330
6D
100
AcDbEntity
  8
0
  6
BYBLOCK
 62
     0
100
AcDbLine
 10
-1.0
 20
0.1666666666666666
 30
0.0
 11
0.0
 21
0.0
 31
0.0
  0
LINE
  5
70
330
6D
100
AcDbEntity
  8
0
  6
BYBLOCK
 62
     0
100
AcDbLine
 10
0.0
 20
0.0
 30
0.0
 11
-1.0
 21
-0.1666666666666666
 31
0.0
  0
LINE
  5
71
330
6D
100
AcDbEntity
  8
0
  6
BYBLOCK
 62
     0
100
AcDbLine
 10
0.0
 20
0.0
 30
0.0
 11
-1.0
 21
0.0
 31
0.0
  0
ENDBLK
  5
72
330
6D
100
AcDbEntity
  8
0
100
AcDbBlockEnd
  0
BLOCK
  5
7B9
330
7B8
100
AcDbEntity
  8
0
100
AcDbBlockBegin
  2
*D1
 70
     1
 10
0.0
 20
0.0
 30
0.0
  3
*D1
  1

  0
LINE
  5
7BA
330
7B8
100
AcDbEntity
  8
0
  6
BYBLOCK
 62
     4
100
AcDbLine
 10
361.3428154183509
 20
405.6713727594356
 30
0.0
 11
405.8900448965696
 21
405.6713727594356
 31
0.0
  0
LINE
  5
7BB
330
7B8
100
AcDbEntity
  8
0
  6
BYBLOCK
 62
     4
100
AcDbLine
 10
324.3426154183508
 20
261.6711727594357
 30
0.0
 11
405.8900448965696
 21
261.6711727594357
 31
0.0
  0
LINE
  5
7BC
330
7B8
100
AcDbEntity
  8
0
  6
BYBLOCK
 62
     4
100
AcDbLine
 10
402.8900448965696
 20
398.6713727594356
 30
0.0
 11
402.8900448965696
 21
268.6711727594357
 31
0.0
  0
INSERT
  5
7BD
330
7B8
100
AcDbEntity
  8
0
  6
BYBLOCK
 62
     4
100
AcDbBlockReference
  2
_OPEN
 10
402.8900448965696
 20
405.6713727594356
 30
0.0
 41
7.0
 42
7.0
 43
7.0
 50
90.0
  0
INSERT
  5
7BE
330
7B8
100
AcDbEntity
  8
0
  6
BYBLOCK
 62
     4
100
AcDbBlockReference
  2
_OPEN
 10
402.8900448965696
 20
261.6711727594357
 30
0.0
 41
7.0
 42
7.0
 43
7.0
 50
270.0
  0
MTEXT
  5
7BF
330
7B8
100
AcDbEntity
  8
0
  6
BYBLOCK
 62
     4
100
AcDbMText
 10
397.8900448965696
 20
333.6712727594357
 30
0.0
 40
6.0
 41
0.0
 71
     5
 72
     1
  1
\A1;144
 11
0.0
 21
1.0
 31
0.0
1001
ACAD
1000
MTEXTBEGIN
1070
    73
1070
     1
1070
    44
1040
1.0
1070
    74
1070
     0
1000
MTEXTEND
1000
MTEXTBEGIN
1070
    73
1070
     1
1070
    44
1040
1.0
1070
    74
1070
     0
1000
MTEXTEND
1000
MTEXTBEGIN
1070
    73
1070
     1
1070
    44
1040
1.0
1070
    74
1070
     0
1000
MTEXTEND
  0
POINT
  5
7C1
330
7B8
100
AcDbEntity
  8
DEFPOINTS
  6
BYBLOCK
 62
     0
100
AcDbPoint
 10
355.342815418351
 20
405.6713727594356
 30
0.0
  0
POINT
  5
7C2
330
7B8
100
AcDbEntity
  8
DEFPOINTS
  6
BYBLOCK
 62
     0
100
AcDbPoint
 10
318.3426154183508
 20
261.6711727594357
 30
0.0
  0
POINT
  5
7C3
330
7B8
100
AcDbEntity
  8
DEFPOINTS
  6
BYBLOCK
 62
     0
100
AcDbPoint
 10
402.8900448965696
 20
261.6711727594357
 30
0.0
  0
ENDBLK
  5
7C4
330
7B8
100
AcDbEntity
  8
0
100
AcDbBlockEnd
  0
BLOCK
  5
891
330
7C6
100
AcDbEntity
  8
0
100
AcDbBlockBegin
  2
*D2
 70
     1
 10
0.0
 20
0.0
 30
0.0
  3
*D2
  1

  0
LINE
  5
892
330
7C6
100
AcDbEntity
  8
0
  6
BYBLOCK
 62
     4
100
AcDbLine
 10
324.3426154183508
 20
261.6711727594357
 30
0.0
 11
405.3067115632362
 21
261.6711727594357
 31
0.0
  0
LINE
  5
893
330
7C6
100
AcDbEntity
  8
0
  6
BYBLOCK
 62
     4
100
AcDbLine
 10
315.342515418351
 20
231.6712727594357
 30
0.0
 11
405.3067115632362
 21
231.6712727594357
 31
0.0
  0
LINE
  5
894
330
7C6
100
AcDbEntity
  8
0
  6
BYBLOCK
 62
     4
100
AcDbLine
 10
402.3067115632362
 20
268.6711727594357
 30
0.0
 11
402.3067115632362
 21
275.6711727594357
 31
0.0
  0
LINE
  5
895
330
7C6
100
AcDbEntity
  8
0
  6
BYBLOCK
 62
     4
100
AcDbLine
 10
402.3067115632362
 20
224.6712727594357
 30
0.0
 11
402.3067115632362
 21
217.6712727594356
 31
0.0
  0
LINE
  5
896
330
7C6
100
AcDbEntity
  8
0
  6
BYBLOCK
 62
     4
100
AcDbLine
 10
402.3067115632362
 20
261.6711727594357
 30
0.0
 11
402.3067115632362
 21
231.6712727594357
 31
0.0
  0
INSERT
  5
897
330
7C6
100
AcDbEntity
  8
0
  6
BYBLOCK
 62
     4
100
AcDbBlockReference
  2
_OPEN
 10
402.3067115632362
 20
261.6711727594357
 30
0.0
 41
7.0
 42
7.0
 43
7.0
 50
270.0
  0
INSERT
  5
898
330
7C6
100
AcDbEntity
  8
0
  6
BYBLOCK
 62
     4
100
AcDbBlockReference
  2
_OPEN
 10
402.3067115632362
 20
231.6712727594357
 30
0.0
 41
7.0
 42
7.0
 43
7.0
 50
90.0
  0
MTEXT
  5
899
330
7C6
100
AcDbEntity
  8
0
  6
BYBLOCK
 62
     4
100
AcDbMText
 10
397.3067115632362
 20
246.6712227594357
 30
0.0
 40
6.0
 41
0.0
 71
     5
 72
     1
  1
\A1;※a 30
 11
0.0
 21
1.0
 31
0.0
1001
ACAD
1000
MTEXTBEGIN
1070
    73
1070
     1
1070
    44
1040
1.0
1070
    74
1070
     0
1000
MTEXTEND
1000
MTEXTBEGIN
1070
    73
1070
     1
1070
    44
1040
1.0
1070
    74
1070
     0
1000
MTEXTEND
1000
MTEXTBEGIN
1070
    73
1070
     1
1070
    44
1040
1.0
1070
    74
1070
     0
1000
MTEXTEND
  0
POINT
  5
89A
330
7C6
100
AcDbEntity
  8
DEFPOINTS
  6
BYBLOCK
 62
     0
100
AcDbPoint
 10
318.3426154183508
 20
261.6711727594357
 30
0.0
  0
POINT
  5
89B
330
7C6
100
AcDbEntity
  8
DEFPOINTS
  6
BYBLOCK
 62
     0
100
AcDbPoint
 10
309.342515418351
 20
231.6712727594357
 30
0.0
  0
POINT
  5
89C
330
7C6
100
AcDbEntity
  8
DEFPOINTS
  6
BYBLOCK
 62
     0
100
AcDbPoint
 10
402.3067115632362
 20
231.6712727594357
 30
0.0
  0
ENDBLK
  5
89D
330
7C6
100
AcDbEntity
  8
0
100
AcDbBlockEnd
  0
BLOCK
  5
8CC
330
7D3
100
AcDbEntity
  8
0
100
AcDbBlockBegin
  2
*D3
 70
     1
 10
0.0
 20
0.0
 30
0.0
  3
*D3
  1

  0
LINE
  5
8CD
330
7D3
100
AcDbEntity
  8
0
  6
BYBLOCK
 62
     4
100
AcDbLine
 10
315.342515418351
 20
231.6712727594357
 30
0.0
 11
405.3067115632362
 21
231.6712727594357
 31
0.0
  0
LINE
  5
8CE
330
7D3
100
AcDbEntity
  8
0
  6
BYBLOCK
 62
     4
100
AcDbLine
 10
309.242415418351
 20
201.6712727594358
 30
0.0
 11
405.3067115632362
 21
201.6712727594358
 31
0.0
  0
LINE
  5
8CF
330
7D3
100
AcDbEntity
  8
0
  6
BYBLOCK
 62
     4
100
AcDbLine
 10
402.3067115632362
 20
238.6712727594356
 30
0.0
 11
402.3067115632362
 21
245.6712727594357
 31
0.0
  0
LINE
  5
8D0
330
7D3
100
AcDbEntity
  8
0
  6
BYBLOCK
 62
     4
100
AcDbLine
 10
402.3067115632362
 20
194.6712727594358
 30
0.0
 11
402.3067115632362
 21
187.6712727594357
 31
0.0
  0
LINE
  5
8D1
330
7D3
100
AcDbEntity
  8
0
  6
BYBLOCK
 62
     4
100
AcDbLine
 10
402.3067115632362
 20
231.6712727594357
 30
0.0
 11
402.3067115632362
 21
201.6712727594358
 31
0.0
  0
INSERT
  5
8D2
330
7D3
100
AcDbEntity
  8
0
  6
BYBLOCK
 62
     4
100
AcDbBlockReference
  2
_OPEN
 10
402.3067115632362
 20
231.6712727594357
 30
0.0
 41
7.0
 42
7.0
 43
7.0
 50
270.0
  0
INSERT
  5
8D3
330
7D3
100
AcDbEntity
  8
0
  6
BYBLOCK
 62
     4
100
AcDbBlockReference
  2
_OPEN
 10
402.3067115632362
 20
201.6712727594358
 30
0.0
 41
7.0
 42
7.0
 43
7.0
 50
90.0
  0
MTEXT
  5
8D4
330
7D3
100
AcDbEntity
  8
0
  6
BYBLOCK
 62
     4
100
AcDbMText
 10
397.3067115632362
 20
216.6712727594357
 30
0.0
 40
6.0
 41
0.0
 71
     5
 72
     1
  1
\A1;※b 30
 11
0.0
 21
1.0
 31
0.0
1001
ACAD
1000
MTEXTBEGIN
1070
    73
1070
     1
1070
    44
1040
1.0
1070
    74
1070
     0
1000
MTEXTEND
1000
MTEXTBEGIN
1070
    73
1070
     1
1070
    44
1040
1.0
1070
    74
1070
     0
1000
MTEXTEND
1000
MTEXTBEGIN
1070
    73
1070
     1
1070
    44
1040
1.0
1070
    74
1070
     0
1000
MTEXTEND
  0
POINT
  5
8D5
330
7D3
100
AcDbEntity
  8
DEFPOINTS
  6
BYBLOCK
 62
     0
100
AcDbPoint
 10
309.342515418351
 20
231.6712727594357
 30
0.0
  0
POINT
  5
8D6
330
7D3
100
AcDbEntity
  8
DEFPOINTS
  6
BYBLOCK
 62
     0
100
AcDbPoint
 10
303.242415418351
 20
201.6712727594358
 30
0.0
  0
POINT
  5
8D7
330
7D3
100
AcDbEntity
  8
DEFPOINTS
  6
BYBLOCK
 62
     0
100
AcDbPoint
 10
402.3067115632362
 20
201.6712727594358
 30
0.0
  0
ENDBLK
  5
8D8
330
7D3
100
AcDbEntity
  8
0
100
AcDbBlockEnd
  0
BLOCK
  5
8EF
330
7E0
100
AcDbEntity
  8
0
100
AcDbBlockBegin
  2
*D4
 70
     1
 10
0.0
 20
0.0
 30
0.0
  3
*D4
  1

  0
LINE
  5
8F0
330
7E0
100
AcDbEntity
  8
0
  6
BYBLOCK
 62
     4
100
AcDbLine
 10
303.742415418351
 20
196.1712727594357
 30
0.0
 11
303.742415418351
 21
166.0151898648775
 31
0.0
  0
LINE
  5
8F1
330
7E0
100
AcDbEntity
  8
0
  6
BYBLOCK
 62
     4
100
AcDbLine
 10
246.942515418351
 20
196.1713727594357
 30
0.0
 11
246.942515418351
 21
166.0151898648775
 31
0.0
  0
LINE
  5
8F2
330
7E0
100
AcDbEntity
  8
0
  6
BYBLOCK
 62
     4
100
AcDbLine
 10
296.742415418351
 20
169.0151898648775
 30
0.0
 11
253.942515418351
 21
169.0151898648775
 31
0.0
  0
INSERT
  5
8F3
330
7E0
100
AcDbEntity
  8
0
  6
BYBLOCK
 62
     4
100
AcDbBlockReference
  2
_OPEN
 10
303.742415418351
 20
169.0151898648775
 30
0.0
 41
7.0
 42
7.0
 43
7.0
  0
INSERT
  5
8F4
330
7E0
100
AcDbEntity
  8
0
  6
BYBLOCK
 62
     4
100
AcDbBlockReference
  2
_OPEN
 10
246.942515418351
 20
169.0151898648775
 30
0.0
 41
7.0
 42
7.0
 43
7.0
 50
180.0
  0
MTEXT
  5
8F5
330
7E0
100
AcDbEntity
  8
0
  6
BYBLOCK
 62
     4
100
AcDbMText
 10
275.342465418351
 20
174.0151898648775
 30
0.0
 40
6.0
 41
0.0
 71
     5
 72
     1
  1
\A1;φ 57
1001
ACAD
1000
MTEXTBEGIN
1070
    73
1070
     1
1070
    44
1040
1.0
1070
    74
1070
     0
1000
MTEXTEND
1000
MTEXTBEGIN
1070
    73
1070
     1
1070
    44
1040
1.0
1070
    74
1070
     0
1000
MTEXTEND
1000
MTEXTBEGIN
1070
    73
1070
     1
1070
    44
1040
1.0
1070
    74
1070
     0
1000
MTEXTEND
  0
POINT
  5
8F6
330
7E0
100
AcDbEntity
  8
DEFPOINTS
  6
BYBLOCK
 62
     0
100
AcDbPoint
 10
303.742415418351
 20
202.1712727594357
 30
0.0
  0
POINT
  5
8F7
330
7E0
100
AcDbEntity
  8
DEFPOINTS
  6
BYBLOCK
 62
     0
100
AcDbPoint
 10
246.942515418351
 20
202.1713727594358
 30
0.0
  0
POINT
  5
8F8
330
7E0
100
AcDbEntity
  8
DEFPOINTS
  6
BYBLOCK
 62
     0
100
AcDbPoint
 10
246.942515418351
 20
169.0151898648775
 30
0.0
  0
ENDBLK
  5
8F9
330
7E0
100
AcDbEntity
  8
0
100
AcDbBlockEnd
  0
BLOCK
  5
910
330
7ED
100
AcDbEntity
  8
0
100
AcDbBlockBegin
  2
*D5
 70
     1
 10
0.0
 20
0.0
 30
0.0
  3
*D5
  1

  0
LINE
  5
911
330
7ED
100
AcDbEntity
  8
0
  6
BYBLOCK
 62
     4
100
AcDbLine
 10
310.792515418351
 20
228.6712727594358
 30
0.0
 11
310.792515418351
 21
146.4845536997593
 31
0.0
  0
LINE
  5
912
330
7ED
100
AcDbEntity
  8
0
  6
BYBLOCK
 62
     4
100
AcDbLine
 10
239.892515418351
 20
228.6713727594357
 30
0.0
 11
239.892515418351
 21
146.4845536997593
 31
0.0
  0
LINE
  5
913
330
7ED
100
AcDbEntity
  8
0
  6
BYBLOCK
 62
     4
100
AcDbLine
 10
303.7925154183509
 20
149.4845536997593
 30
0.0
 11
246.892515418351
 21
149.4845536997593
 31
0.0
  0
INSERT
  5
914
330
7ED
100
AcDbEntity
  8
0
  6
BYBLOCK
 62
     4
100
AcDbBlockReference
  2
_OPEN
 10
310.792515418351
 20
149.4845536997593
 30
0.0
 41
7.0
 42
7.0
 43
7.0
  0
INSERT
  5
915
330
7ED
100
AcDbEntity
  8
0
  6
BYBLOCK
 62
     4
100
AcDbBlockReference
  2
_OPEN
 10
239.892515418351
 20
149.4845536997593
 30
0.0
 41
7.0
 42
7.0
 43
7.0
 50
180.0
  0
MTEXT
  5
916
330
7ED
100
AcDbEntity
  8
0
  6
BYBLOCK
 62
     4
100
AcDbMText
 10
275.3425154183509
 20
154.4845536997593
 30
0.0
 40
6.0
 41
0.0
 71
     5
 72
     1
  1
\A1;φ 71
1001
ACAD
1000
MTEXTBEGIN
1070
    73
1070
     1
1070
    44
1040
1.0
1070
    74
1070
     0
1000
MTEXTEND
1000
MTEXTBEGIN
1070
    73
1070
     1
1070
    44
1040
1.0
1070
    74
1070
     0
1000
MTEXTEND
1000
MTEXTBEGIN
1070
    73
1070
     1
1070
    44
1040
1.0
1070
    74
1070
     0
1000
MTEXTEND
  0
POINT
  5
917
330
7ED
100
AcDbEntity
  8
DEFPOINTS
  6
BYBLOCK
 62
     0
100
AcDbPoint
 10
310.792515418351
 20
234.6712727594357
 30
0.0
  0
POINT
  5
918
330
7ED
100
AcDbEntity
  8
DEFPOINTS
  6
BYBLOCK
 62
     0
100
AcDbPoint
 10
239.892515418351
 20
234.6713727594357
 30
0.0
  0
POINT
  5
919
330
7ED
100
AcDbEntity
  8
DEFPOINTS
  6
BYBLOCK
 62
     0
100
AcDbPoint
 10
239.892515418351
 20
149.4845536997593
 30
0.0
  0
ENDBLK
  5
91A
330
7ED
100
AcDbEntity
  8
0
100
AcDbBlockEnd
  0
BLOCK
  5
7FB
330
7FA
100
AcDbEntity
  8
0
100
AcDbBlockBegin
  2
*D6
 70
     1
 10
0.0
 20
0.0
 30
0.0
  3
*D6
  1

  0
LINE
  5
7FC
330
7FA
100
AcDbEntity
  8
0
  6
BYBLOCK
 62
     4
100
AcDbLine
 10
195.342715418351
 20
411.6715727594356
 30
0.0
 11
195.342715418351
 21
450.2003574313771
 31
0.0
  0
LINE
  5
7FD
330
7FA
100
AcDbEntity
  8
0
  6
BYBLOCK
 62
     4
100
AcDbLine
 10
355.342815418351
 20
411.6713727594357
 30
0.0
 11
355.342815418351
 21
450.2003574313771
 31
0.0
  0
LINE
  5
7FE
330
7FA
100
AcDbEntity
  8
0
  6
BYBLOCK
 62
     4
100
AcDbLine
 10
202.342715418351
 20
447.2003574313771
 30
0.0
 11
348.3428154183509
 21
447.2003574313771
 31
0.0
  0
INSERT
  5
7FF
330
7FA
100
AcDbEntity
  8
0
  6
BYBLOCK
 62
     4
100
AcDbBlockReference
  2
_OPEN
 10
195.342715418351
 20
447.2003574313771
 30
0.0
 41
7.0
 42
7.0
 43
7.0
 50
180.0
  0
INSERT
  5
800
330
7FA
100
AcDbEntity
  8
0
  6
BYBLOCK
 62
     4
100
AcDbBlockReference
  2
_OPEN
 10
355.342815418351
 20
447.2003574313771
 30
0.0
 41
7.0
 42
7.0
 43
7.0
  0
MTEXT
  5
801
330
7FA
100
AcDbEntity
  8
0
  6
BYBLOCK
 62
     4
100
AcDbMText
 10
275.342765418351
 20
452.2003574313771
 30
0.0
 40
6.0
 41
0.0
 71
     5
 72
     1
  1
\A1;160
1001
ACAD
1000
MTEXTBEGIN
1070
    73
1070
     1
1070
    44
1040
1.0
1070
    74
1070
     0
1000
MTEXTEND
1000
MTEXTBEGIN
1070
    73
1070
     1
1070
    44
1040
1.0
1070
    74
1070
     0
1000
MTEXTEND
1000
MTEXTBEGIN
1070
    73
1070
     1
1070
    44
1040
1.0
1070
    74
1070
     0
1000
MTEXTEND
  0
POINT
  5
802
330
7FA
100
AcDbEntity
  8
DEFPOINTS
  6
BYBLOCK
 62
     0
100
AcDbPoint
 10
195.342715418351
 20
405.6715727594356
 30
0.0
  0
POINT
  5
803
330
7FA
100
AcDbEntity
  8
DEFPOINTS
  6
BYBLOCK
 62
     0
100
AcDbPoint
 10
355.342815418351
 20
405.6713727594356
 30
0.0
  0
POINT
  5
804
330
7FA
100
AcDbEntity
  8
DEFPOINTS
  6
BYBLOCK
 62
     0
100
AcDbPoint
 10
355.342815418351
 20
447.2003574313771
 30
0.0
  0
ENDBLK
  5
805
330
7FA
100
AcDbEntity
  8
0
100
AcDbBlockEnd
  0
BLOCK
  5
808
330
807
100
AcDbEntity
  8
0
100
AcDbBlockBegin
  2
*D7
 70
     1
 10
0.0
 20
0.0
 30
0.0
  3
*D7
  1

  0
LINE
  5
809
330
807
100
AcDbEntity
  8
0
  6
BYBLOCK
 62
     4
100
AcDbLine
 10
631.4702646632081
 20
411.6714727594358
 30
0.0
 11
631.4702646632081
 21
450.2003574313771
 31
0.0
  0
LINE
  5
80A
330
807
100
AcDbEntity
  8
0
  6
BYBLOCK
 62
     4
100
AcDbLine
 10
503.4701646632081
 20
411.6715727594356
 30
0.0
 11
503.4701646632081
 21
450.2003574313771
 31
0.0
  0
LINE
  5
80B
330
807
100
AcDbEntity
  8
0
  6
BYBLOCK
 62
     4
100
AcDbLine
 10
624.4702646632081
 20
447.2003574313771
 30
0.0
 11
510.470164663208
 21
447.2003574313771
 31
0.0
  0
INSERT
  5
80C
330
807
100
AcDbEntity
  8
0
  6
BYBLOCK
 62
     4
100
AcDbBlockReference
  2
_OPEN
 10
631.4702646632081
 20
447.2003574313771
 30
0.0
 41
7.0
 42
7.0
 43
7.0
  0
INSERT
  5
80D
330
807
100
AcDbEntity
  8
0
  6
BYBLOCK
 62
     4
100
AcDbBlockReference
  2
_OPEN
 10
503.4701646632081
 20
447.2003574313771
 30
0.0
 41
7.0
 42
7.0
 43
7.0
 50
180.0
  0
MTEXT
  5
80E
330
807
100
AcDbEntity
  8
0
  6
BYBLOCK
 62
     4
100
AcDbMText
 10
567.4702146632081
 20
452.2003574313771
 30
0.0
 40
6.0
 41
0.0
 71
     5
 72
     1
  1
\A1;128
1001
ACAD
1000
MTEXTBEGIN
1070
    73
1070
     1
1070
    44
1040
1.0
1070
    74
1070
     0
1000
MTEXTEND
1000
MTEXTBEGIN
1070
    73
1070
     1
1070
    44
1040
1.0
1070
    74
1070
     0
1000
MTEXTEND
1000
MTEXTBEGIN
1070
    73
1070
     1
1070
    44
1040
1.0
1070
    74
1070
     0
1000
MTEXTEND
  0
POINT
  5
80F
330
807
100
AcDbEntity
  8
DEFPOINTS
  6
BYBLOCK
 62
     0
100
AcDbPoint
 10
631.4702646632081
 20
405.6714727594358
 30
0.0
  0
POINT
  5
810
330
807
100
AcDbEntity
  8
DEFPOINTS
  6
BYBLOCK
 62
     0
100
AcDbPoint
 10
503.4701646632081
 20
405.6715727594356
 30
0.0
  0
POINT
  5
811
330
807
100
AcDbEntity
  8
DEFPOINTS
  6
BYBLOCK
 62
     0
100
AcDbPoint
 10
503.4701646632081
 20
447.2003574313771
 30
0.0
  0
ENDBLK
  5
812
330
807
100
AcDbEntity
  8
0
100
AcDbBlockEnd
  0
BLOCK
  5
815
330
814
100
AcDbEntity
  8
0
100
AcDbBlockBegin
  2
*D8
 70
     1
 10
0.0
 20
0.0
 30
0.0
  3
*D8
  1

  0
LINE
  5
816
330
814
100
AcDbEntity
  8
0
  6
BYBLOCK
 62
     4
100
AcDbLine
 10
629.4999646632081
 20
271.6404727594357
 30
0.0
 11
629.4999646632081
 21
166.0151898648775
 31
0.0
  0
LINE
  5
817
330
814
100
AcDbEntity
  8
0
  6
BYBLOCK
 62
     4
100
AcDbLine
 10
579.4701646632081
 20
188.6705727611829
 30
0.0
 11
579.4701646632081
 21
166.0151898648775
 31
0.0
  0
LINE
  5
818
330
814
100
AcDbEntity
  8
0
  6
BYBLOCK
 62
     4
100
AcDbLine
 10
622.4999646632081
 20
169.0151898648775
 30
0.0
 11
586.4701646632081
 21
169.0151898648775
 31
0.0
  0
INSERT
  5
819
330
814
100
AcDbEntity
  8
0
  6
BYBLOCK
 62
     4
100
AcDbBlockReference
  2
_OPEN
 10
629.4999646632081
 20
169.0151898648775
 30
0.0
 41
7.0
 42
7.0
 43
7.0
  0
INSERT
  5
81A
330
814
100
AcDbEntity
  8
0
  6
BYBLOCK
 62
     4
100
AcDbBlockReference
  2
_OPEN
 10
579.4701646632081
 20
169.0151898648775
 30
0.0
 41
7.0
 42
7.0
 43
7.0
 50
180.0
  0
MTEXT
  5
81B
330
814
100
AcDbEntity
  8
0
  6
BYBLOCK
 62
     4
100
AcDbMText
 10
604.4850646632081
 20
174.0151898648775
 30
0.0
 40
6.0
 41
0.0
 71
     5
 72
     1
  1
\A1;50
1001
ACAD
1000
MTEXTBEGIN
1070
    73
1070
     1
1070
    44
1040
1.0
1070
    74
1070
     0
1000
MTEXTEND
1000
MTEXTBEGIN
1070
    73
1070
     1
1070
    44
1040
1.0
1070
    74
1070
     0
1000
MTEXTEND
1000
MTEXTBEGIN
1070
    73
1070
     1
1070
    44
1040
1.0
1070
    74
1070
     0
1000
MTEXTEND
  0
POINT
  5
81C
330
814
100
AcDbEntity
  8
DEFPOINTS
  6
BYBLOCK
 62
     0
100
AcDbPoint
 10
629.4999646632081
 20
277.6404727594357
 30
0.0
  0
POINT
  5
81D
330
814
100
AcDbEntity
  8
DEFPOINTS
  6
BYBLOCK
 62
     0
100
AcDbPoint
 10
579.4701646632081
 20
194.6705727611829
 30
0.0
  0
POINT
  5
81E
330
814
100
AcDbEntity
  8
DEFPOINTS
  6
BYBLOCK
 62
     0
100
AcDbPoint
 10
579.4701646632081
 20
169.0151898648775
 30
0.0
  0
ENDBLK
  5
81F
330
814
100
AcDbEntity
  8
0
100
AcDbBlockEnd
  0
BLOCK
  5
91F
330
91E
100
AcDbEntity
  8
0
100
AcDbBlockBegin
  2
*D9
 70
     1
 10
0.0
 20
0.0
 30
0.0
  3
*D9
  1

  0
LINE
  5
920
330
91E
100
AcDbEntity
  8
0
  6
BYBLOCK
 62
     4
100
AcDbLine
 10
361.3428154183509
 20
405.6713727594356
 30
0.0
 11
425.5192051495469
 21
405.6713727594356
 31
0.0
  0
LINE
  5
921
330
91E
100
AcDbEntity
  8
0
  6
BYBLOCK
 62
     4
100
AcDbLine
 10
309.242415418351
 20
201.6712727594358
 30
0.0
 11
425.5192051495469
 21
201.6712727594358
 31
0.0
  0
LINE
  5
922
330
91E
100
AcDbEntity
  8
0
  6
BYBLOCK
 62
     4
100
AcDbLine
 10
422.5192051495469
 20
398.6713727594356
 30
0.0
 11
422.5192051495469
 21
208.6712727594357
 31
0.0
  0
INSERT
  5
923
330
91E
100
AcDbEntity
  8
0
  6
BYBLOCK
 62
     4
100
AcDbBlockReference
  2
_OPEN
 10
422.5192051495469
 20
405.6713727594356
 30
0.0
 41
7.0
 42
7.0
 43
7.0
 50
90.0
  0
INSERT
  5
924
330
91E
100
AcDbEntity
  8
0
  6
BYBLOCK
 62
     4
100
AcDbBlockReference
  2
_OPEN
 10
422.5192051495469
 20
201.6712727594358
 30
0.0
 41
7.0
 42
7.0
 43
7.0
 50
270.0
  0
MTEXT
  5
925
330
91E
100
AcDbEntity
  8
0
  6
BYBLOCK
 62
     4
100
AcDbMText
 10
417.5192051495469
 20
303.6713227594357
 30
0.0
 40
6.0
 41
0.0
 71
     5
 72
     1
  1
\A1;204
 11
0.0
 21
1.0
 31
0.0
1001
ACAD
1000
MTEXTBEGIN
1070
    73
1070
     1
1070
    44
1040
1.0
1070
    74
1070
     0
1000
MTEXTEND
1000
MTEXTBEGIN
1070
    73
1070
     1
1070
    44
1040
1.0
1070
    74
1070
     0
1000
MTEXTEND
1000
MTEXTBEGIN
1070
    73
1070
     1
1070
    44
1040
1.0
1070
    74
1070
     0
1000
MTEXTEND
  0
POINT
  5
926
330
91E
100
AcDbEntity
  8
DEFPOINTS
  6
BYBLOCK
 62
     0
100
AcDbPoint
 10
355.342815418351
 20
405.6713727594356
 30
0.0
  0
POINT
  5
927
330
91E
100
AcDbEntity
  8
DEFPOINTS
  6
BYBLOCK
 62
     0
100
AcDbPoint
 10
303.242415418351
 20
201.6712727594358
 30
0.0
  0
POINT
  5
928
330
91E
100
AcDbEntity
  8
DEFPOINTS
  6
BYBLOCK
 62
     0
100
AcDbPoint
 10
422.5192051495469
 20
201.6712727594358
 30
0.0
  0
ENDBLK
  5
929
330
91E
100
AcDbEntity
  8
0
100
AcDbBlockEnd
  0
BLOCK
  5
9D3
330
9C9
100
AcDbEntity
  8
0
100
AcDbBlockBegin
  2
*D10
 70
     1
 10
0.0
 20
0.0
 30
0.0
  3
*D10
  1

  0
LINE
  5
9CA
330
9C9
100
AcDbEntity
  8
0
  6
BYBLOCK
 62
     4
100
AcDbLine
 10
129.4772467383034
 20
187.6374804619568
 30
0.0
 11
151.000045953184
 21
187.6374804619568
 31
0.0
  0
LINE
  5
9CB
330
9C9
100
AcDbEntity
  8
0
  6
BYBLOCK
 62
     4
100
AcDbLine
 10
129.4772467383034
 20
162.6374804619568
 30
0.0
 11
151.000045953184
 21
162.6374804619568
 31
0.0
  0
LINE
  5
9CC
330
9C9
100
AcDbEntity
  8
0
  6
BYBLOCK
 62
     4
100
AcDbLine
 10
149.5000459531841
 20
184.6374804619568
 30
0.0
 11
149.5000459531841
 21
165.6374804619568
 31
0.0
  0
INSERT
  5
9CD
330
9C9
100
AcDbEntity
  8
0
  6
BYBLOCK
 62
     4
100
AcDbBlockReference
  2
_OPEN
 10
149.5000459531841
 20
187.6374804619568
 30
0.0
 41
3.0
 42
3.0
 43
3.0
 50
90.0
  0
INSERT
  5
9CE
330
9C9
100
AcDbEntity
  8
0
  6
BYBLOCK
 62
     4
100
AcDbBlockReference
  2
_OPEN
 10
149.5000459531841
 20
162.6374804619568
 30
0.0
 41
3.0
 42
3.0
 43
3.0
 50
270.0
  0
MTEXT
  5
9CF
330
9C9
100
AcDbEntity
  8
0
  6
BYBLOCK
 62
     4
100
AcDbMText
 10
147.000045953184
 20
175.1374804619568
 30
0.0
 40
3.0
 41
0.0
 71
     5
 72
     1
  1
\A1;※ 25
 11
0.0
 21
1.0
 31
0.0
1001
ACAD
1000
MTEXTBEGIN
1070
    73
1070
     1
1070
    44
1040
1.0
1070
    74
1070
     0
1000
MTEXTEND
1000
MTEXTBEGIN
1070
    73
1070
     1
1070
    44
1040
1.0
1070
    74
1070
     0
1000
MTEXTEND
1000
MTEXTBEGIN
1070
    73
1070
     1
1070
    44
1040
1.0
1070
    74
1070
     0
1000
MTEXTEND
  0
POINT
  5
9D0
330
9C9
100
AcDbEntity
  8
DEFPOINTS
  6
BYBLOCK
 62
     0
100
AcDbPoint
 10
126.4772467383034
 20
187.6374804619568
 30
0.0
  0
POINT
  5
9D1
330
9C9
100
AcDbEntity
  8
DEFPOINTS
  6
BYBLOCK
 62
     0
100
AcDbPoint
 10
126.4772467383034
 20
162.6374804619568
 30
0.0
  0
POINT
  5
9D2
330
9C9
100
AcDbEntity
  8
DEFPOINTS
  6
BYBLOCK
 62
     0
100
AcDbPoint
 10
149.5000459531841
 20
162.6374804619568
 30
0.0
  0
ENDBLK
  5
9D4
330
9C9
100
AcDbEntity
  8
0
100
AcDbBlockEnd
  0
BLOCK
  5
9DF
330
9D5
100
AcDbEntity
  8
0
100
AcDbBlockBegin
  2
*D11
 70
     1
 10
0.0
 20
0.0
 30
0.0
  3
*D11
  1

  0
LINE
  5
9D6
330
9D5
100
AcDbEntity
  8
0
  6
BYBLOCK
 62
     4
100
AcDbLine
 10
136.6910279561568
 20
87.87428046195689
 30
0.0
 11
136.6910279561568
 21
55.03015686399248
 31
0.0
  0
LINE
  5
9D7
330
9D5
100
AcDbEntity
  8
0
  6
BYBLOCK
 62
     4
100
AcDbLine
 10
69.47782795615683
 20
127.7212804619568
 30
0.0
 11
69.47782795615683
 21
55.03015686399248
 31
0.0
  0
LINE
  5
9D8
330
9D5
100
AcDbEntity
  8
0
  6
BYBLOCK
 62
     4
100
AcDbLine
 10
133.6910279561568
 20
56.53015686399249
 30
0.0
 11
72.47782795615683
 21
56.53015686399249
 31
0.0
  0
INSERT
  5
9D9
330
9D5
100
AcDbEntity
  8
0
  6
BYBLOCK
 62
     4
100
AcDbBlockReference
  2
_OPEN
 10
136.6910279561568
 20
56.53015686399249
 30
0.0
 41
3.0
 42
3.0
 43
3.0
  0
INSERT
  5
9DA
330
9D5
100
AcDbEntity
  8
0
  6
BYBLOCK
 62
     4
100
AcDbBlockReference
  2
_OPEN
 10
69.47782795615683
 20
56.53015686399249
 30
0.0
 41
3.0
 42
3.0
 43
3.0
 50
180.0
  0
MTEXT
  5
9DB
330
9D5
100
AcDbEntity
  8
0
  6
BYBLOCK
 62
     4
100
AcDbMText
 10
103.0844279561568
 20
59.03015686399249
 30
0.0
 40
3.0
 41
0.0
 71
     5
 72
     1
  1
\A1;67
1001
ACAD
1000
MTEXTBEGIN
1070
    73
1070
     1
1070
    44
1040
1.0
1070
    74
1070
     0
1000
MTEXTEND
1000
MTEXTBEGIN
1070
    73
1070
     1
1070
    44
1040
1.0
1070
    74
1070
     0
1000
MTEXTEND
1000
MTEXTBEGIN
1070
    73
1070
     1
1070
    44
1040
1.0
1070
    74
1070
     0
1000
MTEXTEND
  0
POINT
  5
9DC
330
9D5
100
AcDbEntity
  8
DEFPOINTS
  6
BYBLOCK
 62
     0
100
AcDbPoint
 10
136.6910279561568
 20
90.87428046195688
 30
0.0
  0
POINT
  5
9DD
330
9D5
100
AcDbEntity
  8
DEFPOINTS
  6
BYBLOCK
 62
     0
100
AcDbPoint
 10
69.47782795615683
 20
130.7212804619568
 30
0.0
  0
POINT
  5
9DE
330
9D5
100
AcDbEntity
  8
DEFPOINTS
  6
BYBLOCK
 62
     0
100
AcDbPoint
 10
69.47782795615683
 20
56.53015686399249
 30
0.0
  0
ENDBLK
  5
9E0
330
9D5
100
AcDbEntity
  8
0
100
AcDbBlockEnd
  0
BLOCK
  5
9EB
330
9E1
100
AcDbEntity
  8
0
100
AcDbBlockBegin
  2
*D12
 70
     1
 10
0.0
 20
0.0
 30
0.0
  3
*D12
  1

  0
LINE
  5
9E2
330
9E1
100
AcDbEntity
  8
0
  6
BYBLOCK
 62
     4
100
AcDbLine
 10
164.9903467383035
 20
143.9742804619569
 30
0.0
 11
189.2645297361102
 21
143.9742804619569
 31
0.0
  0
LINE
  5
9E3
330
9E1
100
AcDbEntity
  8
0
  6
BYBLOCK
 62
     4
100
AcDbLine
 10
164.9903467383035
 20
90.87428046195688
 30
0.0
 11
189.2645297361102
 21
90.87428046195688
 31
0.0
  0
LINE
  5
9E4
330
9E1
100
AcDbEntity
  8
0
  6
BYBLOCK
 62
     4
100
AcDbLine
 10
187.7645297361102
 20
140.9742804619568
 30
0.0
 11
187.7645297361102
 21
93.87428046195688
 31
0.0
  0
INSERT
  5
9E5
330
9E1
100
AcDbEntity
  8
0
  6
BYBLOCK
 62
     4
100
AcDbBlockReference
  2
_OPEN
 10
187.7645297361102
 20
143.9742804619569
 30
0.0
 41
3.0
 42
3.0
 43
3.0
 50
90.0
  0
INSERT
  5
9E6
330
9E1
100
AcDbEntity
  8
0
  6
BYBLOCK
 62
     4
100
AcDbBlockReference
  2
_OPEN
 10
187.7645297361102
 20
90.87428046195688
 30
0.0
 41
3.0
 42
3.0
 43
3.0
 50
270.0
  0
MTEXT
  5
9E7
330
9E1
100
AcDbEntity
  8
0
  6
BYBLOCK
 62
     4
100
AcDbMText
 10
185.2645297361102
 20
117.4242804619568
 30
0.0
 40
3.0
 41
0.0
 71
     5
 72
     1
  1
\A1;φ 53
 11
0.0
 21
1.0
 31
0.0
1001
ACAD
1000
MTEXTBEGIN
1070
    73
1070
     1
1070
    44
1040
1.0
1070
    74
1070
     0
1000
MTEXTEND
1000
MTEXTBEGIN
1070
    73
1070
     1
1070
    44
1040
1.0
1070
    74
1070
     0
1000
MTEXTEND
1000
MTEXTBEGIN
1070
    73
1070
     1
1070
    44
1040
1.0
1070
    74
1070
     0
1000
MTEXTEND
  0
POINT
  5
9E8
330
9E1
100
AcDbEntity
  8
DEFPOINTS
  6
BYBLOCK
 62
     0
100
AcDbPoint
 10
161.9903467383035
 20
143.9742804619569
 30
0.0
  0
POINT
  5
9E9
330
9E1
100
AcDbEntity
  8
DEFPOINTS
  6
BYBLOCK
 62
     0
100
AcDbPoint
 10
161.9903467383035
 20
90.87428046195688
 30
0.0
  0
POINT
  5
9EA
330
9E1
100
AcDbEntity
  8
DEFPOINTS
  6
BYBLOCK
 62
     0
100
AcDbPoint
 10
187.7645297361102
 20
90.87428046195688
 30
0.0
  0
ENDBLK
  5
9EC
330
9E1
100
AcDbEntity
  8
0
100
AcDbBlockEnd
  0
BLOCK
  5
9F7
330
9ED
100
AcDbEntity
  8
0
100
AcDbBlockBegin
  2
*D13
 70
     1
 10
0.0
 20
0.0
 30
0.0
  3
*D13
  1

  0
LINE
  5
9EE
330
9ED
100
AcDbEntity
  8
0
  6
BYBLOCK
 62
     4
100
AcDbLine
 10
104.1779279561567
 20
187.6374804619568
 30
0.0
 11
137.3222958636415
 21
187.6374804619568
 31
0.0
  0
LINE
  5
9EF
330
9ED
100
AcDbEntity
  8
0
  6
BYBLOCK
 62
     4
100
AcDbLine
 10
104.1779279561567
 20
160.6374804619568
 30
0.0
 11
137.3222958636415
 21
160.6374804619568
 31
0.0
  0
LINE
  5
9F0
330
9ED
100
AcDbEntity
  8
0
  6
BYBLOCK
 62
     4
100
AcDbLine
 10
135.8222958636415
 20
184.6374804619568
 30
0.0
 11
135.8222958636415
 21
163.6374804619568
 31
0.0
  0
INSERT
  5
9F1
330
9ED
100
AcDbEntity
  8
0
  6
BYBLOCK
 62
     4
100
AcDbBlockReference
  2
_OPEN
 10
135.8222958636415
 20
187.6374804619568
 30
0.0
 41
3.0
 42
3.0
 43
3.0
 50
90.0
  0
INSERT
  5
9F2
330
9ED
100
AcDbEntity
  8
0
  6
BYBLOCK
 62
     4
100
AcDbBlockReference
  2
_OPEN
 10
135.8222958636415
 20
160.6374804619568
 30
0.0
 41
3.0
 42
3.0
 43
3.0
 50
270.0
  0
MTEXT
  5
9F3
330
9ED
100
AcDbEntity
  8
0
  6
BYBLOCK
 62
     4
100
AcDbMText
 10
133.3222958636415
 20
174.1374804619568
 30
0.0
 40
3.0
 41
0.0
 71
     5
 72
     1
  1
\A1;27
 11
0.0
 21
1.0
 31
0.0
1001
ACAD
1000
MTEXTBEGIN
1070
    73
1070
     1
1070
    44
1040
1.0
1070
    74
1070
     0
1000
MTEXTEND
1000
MTEXTBEGIN
1070
    73
1070
     1
1070
    44
1040
1.0
1070
    74
1070
     0
1000
MTEXTEND
1000
MTEXTBEGIN
1070
    73
1070
     1
1070
    44
1040
1.0
1070
    74
1070
     0
1000
MTEXTEND
  0
POINT
  5
9F4
330
9ED
100
AcDbEntity
  8
DEFPOINTS
  6
BYBLOCK
 62
     0
100
AcDbPoint
 10
101.1779279561567
 20
187.6374804619568
 30
0.0
  0
POINT
  5
9F5
330
9ED
100
AcDbEntity
  8
DEFPOINTS
  6
BYBLOCK
 62
     0
100
AcDbPoint
 10
101.1779279561567
 20
160.6374804619568
 30
0.0
  0
POINT
  5
9F6
330
9ED
100
AcDbEntity
  8
DEFPOINTS
  6
BYBLOCK
 62
     0
100
AcDbPoint
 10
135.8222958636415
 20
160.6374804619568
 30
0.0
  0
ENDBLK
  5
9F8
330
9ED
100
AcDbEntity
  8
0
100
AcDbBlockEnd
  0
BLOCK
  5
A03
330
9F9
100
AcDbEntity
  8
0
100
AcDbBlockBegin
  2
*D14
 70
     1
 10
0.0
 20
0.0
 30
0.0
  3
*D14
  1

  0
LINE
  5
9FA
330
9F9
100
AcDbEntity
  8
0
  6
BYBLOCK
 62
     4
100
AcDbLine
 10
126.4772467383034
 20
190.6374804619568
 30
0.0
 11
126.4772467383034
 21
213.7138166728241
 31
0.0
  0
LINE
  5
9FB
330
9F9
100
AcDbEntity
  8
0
  6
BYBLOCK
 62
     4
100
AcDbLine
 10
63.07724673827363
 20
190.6376704928295
 30
0.0
 11
63.07724673827363
 21
213.7138166728241
 31
0.0
  0
LINE
  5
9FC
330
9F9
100
AcDbEntity
  8
0
  6
BYBLOCK
 62
     4
100
AcDbLine
 10
123.4772467383034
 20
212.2138166728241
 30
0.0
 11
66.07724673827362
 21
212.2138166728241
 31
0.0
  0
INSERT
  5
9FD
330
9F9
100
AcDbEntity
  8
0
  6
BYBLOCK
 62
     4
100
AcDbBlockReference
  2
_OPEN
 10
126.4772467383034
 20
212.2138166728241
 30
0.0
 41
3.0
 42
3.0
 43
3.0
  0
INSERT
  5
9FE
330
9F9
100
AcDbEntity
  8
0
  6
BYBLOCK
 62
     4
100
AcDbBlockReference
  2
_OPEN
 10
63.07724673827363
 20
212.2138166728241
 30
0.0
 41
3.0
 42
3.0
 43
3.0
 50
180.0
  0
MTEXT
  5
9FF
330
9F9
100
AcDbEntity
  8
0
  6
BYBLOCK
 62
     4
100
AcDbMText
 10
94.77724673828854
 20
214.7138166728241
 30
0.0
 40
3.0
 41
0.0
 71
     5
 72
     1
  1
\A1;φ63
1001
ACAD
1000
MTEXTBEGIN
1070
    73
1070
     1
1070
    44
1040
1.0
1070
    74
1070
     0
1000
MTEXTEND
1000
MTEXTBEGIN
1070
    73
1070
     1
1070
    44
1040
1.0
1070
    74
1070
     0
1000
MTEXTEND
1000
MTEXTBEGIN
1070
    73
1070
     1
1070
    44
1040
1.0
1070
    74
1070
     0
1000
MTEXTEND
  0
POINT
  5
A00
330
9F9
100
AcDbEntity
  8
DEFPOINTS
  6
BYBLOCK
 62
     0
100
AcDbPoint
 10
126.4772467383034
 20
187.6374804619568
 30
0.0
  0
POINT
  5
A01
330
9F9
100
AcDbEntity
  8
DEFPOINTS
  6
BYBLOCK
 62
     0
100
AcDbPoint
 10
63.07724673827363
 20
187.6376704928295
 30
0.0
  0
POINT
  5
A02
330
9F9
100
AcDbEntity
  8
DEFPOINTS
  6
BYBLOCK
 62
     0
100
AcDbPoint
 10
63.07724673827363
 20
212.2138166728241
 30
0.0
  0
ENDBLK
  5
A04
330
9F9
100
AcDbEntity
  8
0
100
AcDbBlockEnd
  0
BLOCK
  5
A11
330
A05
100
AcDbEntity
  8
0
100
AcDbBlockBegin
  2
*D15
 70
     1
 10
0.0
 20
0.0
 30
0.0
  3
*D15
  1

  0
LINE
  5
A06
330
A05
100
AcDbEntity
  8
0
  6
BYBLOCK
 62
     4
100
AcDbLine
 10
353.6279279561568
 20
193.2788804619567
 30
0.0
 11
353.6279279561568
 21
205.4935158716886
 31
0.0
  0
LINE
  5
A07
330
A05
100
AcDbEntity
  8
0
  6
BYBLOCK
 62
     4
100
AcDbLine
 10
364.2344779561566
 20
156.8505804619567
 30
0.0
 11
364.2344779561566
 21
205.4935158716886
 31
0.0
  0
LINE
  5
A08
330
A05
100
AcDbEntity
  8
0
  6
BYBLOCK
 62
     4
100
AcDbLine
 10
350.6279279561567
 20
203.9935158716886
 30
0.0
 11
347.6279279561568
 21
203.9935158716886
 31
0.0
  0
LINE
  5
A09
330
A05
100
AcDbEntity
  8
0
  6
BYBLOCK
 62
     4
100
AcDbLine
 10
367.2344779561567
 20
203.9935158716886
 30
0.0
 11
370.2344779561566
 21
203.9935158716886
 31
0.0
  0
LINE
  5
A0A
330
A05
100
AcDbEntity
  8
0
  6
BYBLOCK
 62
     4
100
AcDbLine
 10
353.6279279561568
 20
203.9935158716886
 30
0.0
 11
364.2344779561566
 21
203.9935158716886
 31
0.0
  0
INSERT
  5
A0B
330
A05
100
AcDbEntity
  8
0
  6
BYBLOCK
 62
     4
100
AcDbBlockReference
  2
_OPEN
 10
353.6279279561568
 20
203.9935158716886
 30
0.0
 41
3.0
 42
3.0
 43
3.0
  0
INSERT
  5
A0C
330
A05
100
AcDbEntity
  8
0
  6
BYBLOCK
 62
     4
100
AcDbBlockReference
  2
_OPEN
 10
364.2344779561566
 20
203.9935158716886
 30
0.0
 41
3.0
 42
3.0
 43
3.0
 50
180.0
  0
MTEXT
  5
A0D
330
A05
100
AcDbEntity
  8
0
  6
BYBLOCK
 62
     4
100
AcDbMText
 10
358.9312029561567
 20
206.4935158716886
 30
0.0
 40
3.0
 41
0.0
 71
     5
 72
     1
  1
\A1;22
1001
ACAD
1000
MTEXTBEGIN
1070
    73
1070
     1
1070
    44
1040
1.0
1070
    74
1070
     0
1000
MTEXTEND
1000
MTEXTBEGIN
1070
    73
1070
     1
1070
    44
1040
1.0
1070
    74
1070
     0
1000
MTEXTEND
1000
MTEXTBEGIN
1070
    73
1070
     1
1070
    44
1040
1.0
1070
    74
1070
     0
1000
MTEXTEND
  0
POINT
  5
A0E
330
A05
100
AcDbEntity
  8
DEFPOINTS
  6
BYBLOCK
 62
     0
100
AcDbPoint
 10
353.6279279561568
 20
190.2788804619567
 30
0.0
  0
POINT
  5
A0F
330
A05
100
AcDbEntity
  8
DEFPOINTS
  6
BYBLOCK
 62
     0
100
AcDbPoint
 10
364.2344779561566
 20
153.8505804619567
 30
0.0
  0
POINT
  5
A10
330
A05
100
AcDbEntity
  8
DEFPOINTS
  6
BYBLOCK
 62
     0
100
AcDbPoint
 10
364.2344779561566
 20
203.9935158716886
 30
0.0
  0
ENDBLK
  5
A12
330
A05
100
AcDbEntity
  8
0
100
AcDbBlockEnd
  0
BLOCK
  5
A1D
330
A13
100
AcDbEntity
  8
0
100
AcDbBlockBegin
  2
*D16
 70
     1
 10
0.0
 20
0.0
 30
0.0
  3
*D16
  1

  0
LINE
  5
A14
330
A13
100
AcDbEntity
  8
0
  6
BYBLOCK
 62
     4
100
AcDbLine
 10
94.77714673830348
 20
127.7212804619568
 30
0.0
 11
94.77714673830348
 21
65.80091119149961
 31
0.0
  0
LINE
  5
A15
330
A13
100
AcDbEntity
  8
0
  6
BYBLOCK
 62
     4
100
AcDbLine
 10
131.9903467383035
 20
84.27428046195686
 30
0.0
 11
131.9903467383035
 21
65.80091119149961
 31
0.0
  0
LINE
  5
A16
330
A13
100
AcDbEntity
  8
0
  6
BYBLOCK
 62
     4
100
AcDbLine
 10
97.77714673830349
 20
67.3009111914996
 30
0.0
 11
128.9903467383035
 21
67.3009111914996
 31
0.0
  0
INSERT
  5
A17
330
A13
100
AcDbEntity
  8
0
  6
BYBLOCK
 62
     4
100
AcDbBlockReference
  2
_OPEN
 10
94.77714673830348
 20
67.3009111914996
 30
0.0
 41
3.0
 42
3.0
 43
3.0
 50
180.0
  0
INSERT
  5
A18
330
A13
100
AcDbEntity
  8
0
  6
BYBLOCK
 62
     4
100
AcDbBlockReference
  2
_OPEN
 10
131.9903467383035
 20
67.3009111914996
 30
0.0
 41
3.0
 42
3.0
 43
3.0
  0
MTEXT
  5
A19
330
A13
100
AcDbEntity
  8
0
  6
BYBLOCK
 62
     4
100
AcDbMText
 10
113.3837467383034
 20
69.8009111914996
 30
0.0
 40
3.0
 41
0.0
 71
     5
 72
     1
  1
\A1;37
1001
ACAD
1000
MTEXTBEGIN
1070
    73
1070
     1
1070
    44
1040
1.0
1070
    74
1070
     0
1000
MTEXTEND
1000
MTEXTBEGIN
1070
    73
1070
     1
1070
    44
1040
1.0
1070
    74
1070
     0
1000
MTEXTEND
1000
MTEXTBEGIN
1070
    73
1070
     1
1070
    44
1040
1.0
1070
    74
1070
     0
1000
MTEXTEND
  0
POINT
  5
A1A
330
A13
100
AcDbEntity
  8
DEFPOINTS
  6
BYBLOCK
 62
     0
100
AcDbPoint
 10
94.77714673830348
 20
130.7212804619568
 30
0.0
  0
POINT
  5
A1B
330
A13
100
AcDbEntity
  8
DEFPOINTS
  6
BYBLOCK
 62
     0
100
AcDbPoint
 10
131.9903467383035
 20
87.27428046195687
 30
0.0
  0
POINT
  5
A1C
330
A13
100
AcDbEntity
  8
DEFPOINTS
  6
BYBLOCK
 62
     0
100
AcDbPoint
 10
131.9903467383035
 20
67.3009111914996
 30
0.0
  0
ENDBLK
  5
A1E
330
A13
100
AcDbEntity
  8
0
100
AcDbBlockEnd
  0
BLOCK
  5
A29
330
A1F
100
AcDbEntity
  8
0
100
AcDbBlockBegin
  2
*D17
 70
     1
 10
0.0
 20
0.0
 30
0.0
  3
*D17
  1

  0
LINE
  5
A20
330
A1F
100
AcDbEntity
  8
0
  6
BYBLOCK
 62
     4
100
AcDbLine
 10
60.0772467383035
 20
187.6375804619567
 30
0.0
 11
36.26391061864478
 21
187.6375804619567
 31
0.0
  0
LINE
  5
A21
330
A1F
100
AcDbEntity
  8
0
  6
BYBLOCK
 62
     4
100
AcDbLine
 10
108.3553467383035
 20
117.4242804619568
 30
0.0
 11
36.26391061864478
 21
117.4242804619568
 31
0.0
  0
LINE
  5
A22
330
A1F
100
AcDbEntity
  8
0
  6
BYBLOCK
 62
     4
100
AcDbLine
 10
37.76391061864478
 20
184.6375804619567
 30
0.0
 11
37.76391061864478
 21
120.4242804619568
 31
0.0
  0
INSERT
  5
A23
330
A1F
100
AcDbEntity
  8
0
  6
BYBLOCK
 62
     4
100
AcDbBlockReference
  2
_OPEN
 10
37.76391061864478
 20
187.6375804619567
 30
0.0
 41
3.0
 42
3.0
 43
3.0
 50
90.0
  0
INSERT
  5
A24
330
A1F
100
AcDbEntity
  8
0
  6
BYBLOCK
 62
     4
100
AcDbBlockReference
  2
_OPEN
 10
37.76391061864478
 20
117.4242804619568
 30
0.0
 41
3.0
 42
3.0
 43
3.0
 50
270.0
  0
MTEXT
  5
A25
330
A1F
100
AcDbEntity
  8
0
  6
BYBLOCK
 62
     4
100
AcDbMText
 10
35.26391061864478
 20
152.5309304619567
 30
0.0
 40
3.0
 41
0.0
 71
     5
 72
     1
  1
\A1;70
 11
0.0
 21
1.0
 31
0.0
1001
ACAD
1000
MTEXTBEGIN
1070
    73
1070
     1
1070
    44
1040
1.0
1070
    74
1070
     0
1000
MTEXTEND
1000
MTEXTBEGIN
1070
    73
1070
     1
1070
    44
1040
1.0
1070
    74
1070
     0
1000
MTEXTEND
1000
MTEXTBEGIN
1070
    73
1070
     1
1070
    44
1040
1.0
1070
    74
1070
     0
1000
MTEXTEND
  0
POINT
  5
A26
330
A1F
100
AcDbEntity
  8
DEFPOINTS
  6
BYBLOCK
 62
     0
100
AcDbPoint
 10
63.0772467383035
 20
187.6375804619567
 30
0.0
  0
POINT
  5
A27
330
A1F
100
AcDbEntity
  8
DEFPOINTS
  6
BYBLOCK
 62
     0
100
AcDbPoint
 10
111.3553467383035
 20
117.4242804619568
 30
0.0
  0
POINT
  5
A28
330
A1F
100
AcDbEntity
  8
DEFPOINTS
  6
BYBLOCK
 62
     0
100
AcDbPoint
 10
37.76391061864478
 20
117.4242804619568
 30
0.0
  0
ENDBLK
  5
A2A
330
A1F
100
AcDbEntity
  8
0
100
AcDbBlockEnd
  0
BLOCK
  5
A35
330
A2B
100
AcDbEntity
  8
0
100
AcDbBlockBegin
  2
*D18
 70
     1
 10
0.0
 20
0.0
 30
0.0
  3
*D18
  1

  0
LINE
  5
A2C
330
A2B
100
AcDbEntity
  8
0
  6
BYBLOCK
 62
     4
100
AcDbLine
 10
334.7779279561566
 20
187.6375804619567
 30
0.0
 11
325.3889738314506
 21
187.6375804619567
 31
0.0
  0
LINE
  5
A2D
330
A2B
100
AcDbEntity
  8
0
  6
BYBLOCK
 62
     4
100
AcDbLine
 10
347.9593279561567
 20
129.5309804619568
 30
0.0
 11
325.3889738314506
 21
129.5309804619568
 31
0.0
  0
LINE
  5
A2E
330
A2B
100
AcDbEntity
  8
0
  6
BYBLOCK
 62
     4
100
AcDbLine
 10
326.8889738314506
 20
184.6375804619567
 30
0.0
 11
326.8889738314506
 21
132.5309804619567
 31
0.0
  0
INSERT
  5
A2F
330
A2B
100
AcDbEntity
  8
0
  6
BYBLOCK
 62
     4
100
AcDbBlockReference
  2
_OPEN
 10
326.8889738314506
 20
187.6375804619567
 30
0.0
 41
3.0
 42
3.0
 43
3.0
 50
90.0
  0
INSERT
  5
A30
330
A2B
100
AcDbEntity
  8
0
  6
BYBLOCK
 62
     4
100
AcDbBlockReference
  2
_OPEN
 10
326.8889738314506
 20
129.5309804619568
 30
0.0
 41
3.0
 42
3.0
 43
3.0
 50
270.0
  0
MTEXT
  5
A31
330
A2B
100
AcDbEntity
  8
0
  6
BYBLOCK
 62
     4
100
AcDbMText
 10
324.3889738314505
 20
158.5842804619567
 30
0.0
 40
3.0
 41
0.0
 71
     5
 72
     1
  1
\A1;116
 11
0.0
 21
1.0
 31
0.0
1001
ACAD
1000
MTEXTBEGIN
1070
    73
1070
     1
1070
    44
1040
1.0
1070
    74
1070
     0
1000
MTEXTEND
1000
MTEXTBEGIN
1070
    73
1070
     1
1070
    44
1040
1.0
1070
    74
1070
     0
1000
MTEXTEND
1000
MTEXTBEGIN
1070
    73
1070
     1
1070
    44
1040
1.0
1070
    74
1070
     0
1000
MTEXTEND
  0
POINT
  5
A32
330
A2B
100
AcDbEntity
  8
DEFPOINTS
  6
BYBLOCK
 62
     0
100
AcDbPoint
 10
337.7779279561566
 20
187.6375804619567
 30
0.0
  0
POINT
  5
A33
330
A2B
100
AcDbEntity
  8
DEFPOINTS
  6
BYBLOCK
 62
     0
100
AcDbPoint
 10
350.9593279561567
 20
129.5309804619568
 30
0.0
  0
POINT
  5
A34
330
A2B
100
AcDbEntity
  8
DEFPOINTS
  6
BYBLOCK
 62
     0
100
AcDbPoint
 10
326.8889738314506
 20
129.5309804619568
 30
0.0
  0
ENDBLK
  5
A36
330
A2B
100
AcDbEntity
  8
0
100
AcDbBlockEnd
  0
BLOCK
  5
B79
330
B6F
100
AcDbEntity
  8
0
100
AcDbBlockBegin
  2
*D20
 70
     1
 10
0.0
 20
0.0
 30
0.0
  3
*D20
  1

  0
LINE
  5
C3E
330
B6F
100
AcDbEntity
  8
SUNPOU
  6
CONTINUOUS
 62
     4
100
AcDbLine
 10
186.3373366422463
 20
340.3508466756016
 30
0.0
 11
162.5240005225876
 21
340.3508466756016
 31
0.0
  0
LINE
  5
C3F
330
B6F
100
AcDbEntity
  8
SUNPOU
  6
CONTINUOUS
 62
     4
100
AcDbLine
 10
234.6154366422463
 20
270.1375466756017
 30
0.0
 11
162.5240005225875
 21
270.1375466756017
 31
0.0
  0
LINE
  5
C40
330
B6F
100
AcDbEntity
  8
SUNPOU
  6
CONTINUOUS
 62
     4
100
AcDbLine
 10
164.0240005225876
 20
337.3508466756017
 30
0.0
 11
164.0240005225875
 21
273.1375466756017
 31
0.0
  0
INSERT
  5
C41
330
B6F
100
AcDbEntity
  8
SUNPOU
  6
CONTINUOUS
 62
     4
100
AcDbBlockReference
  2
_OPEN
 10
164.0240005225876
 20
340.3508466756016
 30
0.0
 41
3.0
 42
3.0
 43
3.0
 50
90.0
  0
INSERT
  5
C42
330
B6F
100
AcDbEntity
  8
SUNPOU
  6
CONTINUOUS
 62
     4
100
AcDbBlockReference
  2
_OPEN
 10
164.0240005225875
 20
270.1375466756017
 30
0.0
 41
3.0
 42
3.0
 43
3.0
 50
270.0
  0
MTEXT
  5
C43
330
B6F
100
AcDbEntity
  8
SUNPOU
  6
CONTINUOUS
 62
     4
100
AcDbMText
 10
161.5240005225875
 20
305.2441966756017
 30
0.0
 40
3.0
 41
0.0
 71
     5
 72
     1
  1
\A1;70
 11
0.0000000000000001
 21
1.0
 31
0.0
1001
ACAD
1000
MTEXTBEGIN
1070
    73
1070
     1
1070
    44
1040
1.0
1070
    74
1070
     0
1000
MTEXTEND
  0
POINT
  5
C44
330
B6F
100
AcDbEntity
  8
DEFPOINTS
  6
CONTINUOUS
 62
     0
100
AcDbPoint
 10
189.3373366422463
 20
340.3508466756016
 30
0.0
  0
POINT
  5
C45
330
B6F
100
AcDbEntity
  8
DEFPOINTS
  6
CONTINUOUS
 62
     0
100
AcDbPoint
 10
237.6154366422463
 20
270.1375466756017
 30
0.0
  0
POINT
  5
C46
330
B6F
100
AcDbEntity
  8
DEFPOINTS
  6
CONTINUOUS
 62
     0
100
AcDbPoint
 10
164.0240005225875
 20
270.1375466756017
 30
0.0
  0
ENDBLK
  5
B7A
330
B6F
100
AcDbEntity
  8
0
100
AcDbBlockEnd
  0
BLOCK
  5
B85
330
B7B
100
AcDbEntity
  8
0
100
AcDbBlockBegin
  2
*D21
 70
     1
 10
0.0
 20
0.0
 30
0.0
  3
*D21
  1

  0
LINE
  5
C50
330
B7B
100
AcDbEntity
  8
SUNPOU
  6
CONTINUOUS
 62
     4
100
AcDbLine
 10
288.2504366422462
 20
240.5875466756018
 30
0.0
 11
288.2504366422462
 21
207.7434230776374
 31
0.0
  0
LINE
  5
C51
330
B7B
100
AcDbEntity
  8
SUNPOU
  6
CONTINUOUS
 62
     4
100
AcDbLine
 10
221.0372366422463
 20
280.4345466756018
 30
0.0
 11
221.0372366422463
 21
207.7434230776374
 31
0.0
  0
LINE
  5
C52
330
B7B
100
AcDbEntity
  8
SUNPOU
  6
CONTINUOUS
 62
     4
100
AcDbLine
 10
285.2504366422463
 20
209.2434230776374
 30
0.0
 11
224.0372366422462
 21
209.2434230776374
 31
0.0
  0
INSERT
  5
C53
330
B7B
100
AcDbEntity
  8
SUNPOU
  6
CONTINUOUS
 62
     4
100
AcDbBlockReference
  2
_OPEN
 10
288.2504366422462
 20
209.2434230776374
 30
0.0
 41
3.0
 42
3.0
 43
3.0
  0
INSERT
  5
C54
330
B7B
100
AcDbEntity
  8
SUNPOU
  6
CONTINUOUS
 62
     4
100
AcDbBlockReference
  2
_OPEN
 10
221.0372366422463
 20
209.2434230776374
 30
0.0
 41
3.0
 42
3.0
 43
3.0
 50
180.0
  0
MTEXT
  5
C55
330
B7B
100
AcDbEntity
  8
SUNPOU
  6
CONTINUOUS
 62
     4
100
AcDbMText
 10
254.6438366422463
 20
211.7434230776374
 30
0.0
 40
3.0
 41
0.0
 71
     5
 72
     1
  1
\A1;67
1001
ACAD
1000
MTEXTBEGIN
1070
    73
1070
     1
1070
    44
1040
1.0
1070
    74
1070
     0
1000
MTEXTEND
  0
POINT
  5
C56
330
B7B
100
AcDbEntity
  8
DEFPOINTS
  6
CONTINUOUS
 62
     0
100
AcDbPoint
 10
288.2504366422462
 20
243.5875466756018
 30
0.0
  0
POINT
  5
C57
330
B7B
100
AcDbEntity
  8
DEFPOINTS
  6
CONTINUOUS
 62
     0
100
AcDbPoint
 10
221.0372366422463
 20
283.4345466756018
 30
0.0
  0
POINT
  5
C58
330
B7B
100
AcDbEntity
  8
DEFPOINTS
  6
CONTINUOUS
 62
     0
100
AcDbPoint
 10
221.0372366422463
 20
209.2434230776374
 30
0.0
  0
ENDBLK
  5
B86
330
B7B
100
AcDbEntity
  8
0
100
AcDbBlockEnd
  0
BLOCK
  5
B91
330
B87
100
AcDbEntity
  8
0
100
AcDbBlockBegin
  2
*D22
 70
     1
 10
0.0
 20
0.0
 30
0.0
  3
*D22
  1

  0
LINE
  5
C47
330
B87
100
AcDbEntity
  8
SUNPOU
  6
CONTINUOUS
 62
     4
100
AcDbLine
 10
221.0372366422463
 20
280.4345466756018
 30
0.0
 11
221.0372366422463
 21
218.5141774051445
 31
0.0
  0
LINE
  5
C48
330
B87
100
AcDbEntity
  8
SUNPOU
  6
CONTINUOUS
 62
     4
100
AcDbLine
 10
258.2504366422463
 20
236.9875466756018
 30
0.0
 11
258.2504366422463
 21
218.5141774051445
 31
0.0
  0
LINE
  5
C49
330
B87
100
AcDbEntity
  8
SUNPOU
  6
CONTINUOUS
 62
     4
100
AcDbLine
 10
224.0372366422462
 20
220.0141774051445
 30
0.0
 11
255.2504366422463
 21
220.0141774051445
 31
0.0
  0
INSERT
  5
C4A
330
B87
100
AcDbEntity
  8
SUNPOU
  6
CONTINUOUS
 62
     4
100
AcDbBlockReference
  2
_OPEN
 10
221.0372366422463
 20
220.0141774051445
 30
0.0
 41
3.0
 42
3.0
 43
3.0
 50
180.0
  0
INSERT
  5
C4B
330
B87
100
AcDbEntity
  8
SUNPOU
  6
CONTINUOUS
 62
     4
100
AcDbBlockReference
  2
_OPEN
 10
258.2504366422463
 20
220.0141774051445
 30
0.0
 41
3.0
 42
3.0
 43
3.0
  0
MTEXT
  5
C4C
330
B87
100
AcDbEntity
  8
SUNPOU
  6
CONTINUOUS
 62
     4
100
AcDbMText
 10
239.6438366422462
 20
222.5141774051445
 30
0.0
 40
3.0
 41
0.0
 71
     5
 72
     1
  1
\A1;37
1001
ACAD
1000
MTEXTBEGIN
1070
    73
1070
     1
1070
    44
1040
1.0
1070
    74
1070
     0
1000
MTEXTEND
  0
POINT
  5
C4D
330
B87
100
AcDbEntity
  8
DEFPOINTS
  6
CONTINUOUS
 62
     0
100
AcDbPoint
 10
221.0372366422463
 20
283.4345466756018
 30
0.0
  0
POINT
  5
C4E
330
B87
100
AcDbEntity
  8
DEFPOINTS
  6
CONTINUOUS
 62
     0
100
AcDbPoint
 10
258.2504366422463
 20
239.9875466756018
 30
0.0
  0
POINT
  5
C4F
330
B87
100
AcDbEntity
  8
DEFPOINTS
  6
CONTINUOUS
 62
     0
100
AcDbPoint
 10
258.2504366422463
 20
220.0141774051445
 30
0.0
  0
ENDBLK
  5
B92
330
B87
100
AcDbEntity
  8
0
100
AcDbBlockEnd
  0
BLOCK
  5
B9D
330
B93
100
AcDbEntity
  8
0
100
AcDbBlockBegin
  2
*D23
 70
     1
 10
0.0
 20
0.0
 30
0.0
  3
*D23
  1

  0
LINE
  5
C59
330
B93
100
AcDbEntity
  8
SUNPOU
  6
CONTINUOUS
 62
     4
100
AcDbLine
 10
291.2504366422463
 20
296.6875466756018
 30
0.0
 11
315.524619640053
 21
296.6875466756018
 31
0.0
  0
LINE
  5
C5A
330
B93
100
AcDbEntity
  8
SUNPOU
  6
CONTINUOUS
 62
     4
100
AcDbLine
 10
291.2504366422463
 20
243.5875466756018
 30
0.0
 11
315.524619640053
 21
243.5875466756018
 31
0.0
  0
LINE
  5
C5B
330
B93
100
AcDbEntity
  8
SUNPOU
  6
CONTINUOUS
 62
     4
100
AcDbLine
 10
314.024619640053
 20
293.6875466756018
 30
0.0
 11
314.024619640053
 21
246.5875466756018
 31
0.0
  0
INSERT
  5
C5C
330
B93
100
AcDbEntity
  8
SUNPOU
  6
CONTINUOUS
 62
     4
100
AcDbBlockReference
  2
_OPEN
 10
314.024619640053
 20
296.6875466756018
 30
0.0
 41
3.0
 42
3.0
 43
3.0
 50
90.0
  0
INSERT
  5
C5D
330
B93
100
AcDbEntity
  8
SUNPOU
  6
CONTINUOUS
 62
     4
100
AcDbBlockReference
  2
_OPEN
 10
314.024619640053
 20
243.5875466756018
 30
0.0
 41
3.0
 42
3.0
 43
3.0
 50
270.0
  0
MTEXT
  5
C5E
330
B93
100
AcDbEntity
  8
SUNPOU
  6
CONTINUOUS
 62
     4
100
AcDbMText
 10
311.524619640053
 20
270.1375466756019
 30
0.0
 40
3.0
 41
0.0
 71
     5
 72
     1
  1
\A1;φ 53
 11
0.0000000000000001
 21
1.0
 31
0.0
1001
ACAD
1000
MTEXTBEGIN
1070
    73
1070
     1
1070
    44
1040
1.0
1070
    74
1070
     0
1000
MTEXTEND
  0
POINT
  5
C5F
330
B93
100
AcDbEntity
  8
DEFPOINTS
  6
CONTINUOUS
 62
     0
100
AcDbPoint
 10
288.2504366422462
 20
296.6875466756018
 30
0.0
  0
POINT
  5
C60
330
B93
100
AcDbEntity
  8
DEFPOINTS
  6
CONTINUOUS
 62
     0
100
AcDbPoint
 10
288.2504366422462
 20
243.5875466756018
 30
0.0
  0
POINT
  5
C61
330
B93
100
AcDbEntity
  8
DEFPOINTS
  6
CONTINUOUS
 62
     0
100
AcDbPoint
 10
314.024619640053
 20
243.5875466756018
 30
0.0
  0
ENDBLK
  5
B9E
330
B93
100
AcDbEntity
  8
0
100
AcDbBlockEnd
  0
BLOCK
  5
BA9
330
B9F
100
AcDbEntity
  8
0
100
AcDbBlockBegin
  2
*D24
 70
     1
 10
0.0
 20
0.0
 30
0.0
  3
*D24
  1

  0
LINE
  5
C62
330
B9F
100
AcDbEntity
  8
SUNPOU
  6
CONTINUOUS
 62
     4
100
AcDbLine
 10
252.7373366422462
 20
343.3507466756018
 30
0.0
 11
252.7373366422462
 21
366.427082886469
 31
0.0
  0
LINE
  5
C63
330
B9F
100
AcDbEntity
  8
SUNPOU
  6
CONTINUOUS
 62
     4
100
AcDbLine
 10
189.3373366422164
 20
343.3509367064745
 30
0.0
 11
189.3373366422164
 21
366.427082886469
 31
0.0
  0
LINE
  5
C64
330
B9F
100
AcDbEntity
  8
SUNPOU
  6
CONTINUOUS
 62
     4
100
AcDbLine
 10
249.7373366422461
 20
364.927082886469
 30
0.0
 11
192.3373366422164
 21
364.927082886469
 31
0.0
  0
INSERT
  5
C65
330
B9F
100
AcDbEntity
  8
SUNPOU
  6
CONTINUOUS
 62
     4
100
AcDbBlockReference
  2
_OPEN
 10
252.7373366422462
 20
364.927082886469
 30
0.0
 41
3.0
 42
3.0
 43
3.0
  0
INSERT
  5
C66
330
B9F
100
AcDbEntity
  8
SUNPOU
  6
CONTINUOUS
 62
     4
100
AcDbBlockReference
  2
_OPEN
 10
189.3373366422164
 20
364.927082886469
 30
0.0
 41
3.0
 42
3.0
 43
3.0
 50
180.0
  0
MTEXT
  5
C67
330
B9F
100
AcDbEntity
  8
SUNPOU
  6
CONTINUOUS
 62
     4
100
AcDbMText
 10
221.0373366422313
 20
367.427082886469
 30
0.0
 40
3.0
 41
0.0
 71
     5
 72
     1
  1
\A1;φ63
1001
ACAD
1000
MTEXTBEGIN
1070
    73
1070
     1
1070
    44
1040
1.0
1070
    74
1070
     0
1000
MTEXTEND
  0
POINT
  5
C68
330
B9F
100
AcDbEntity
  8
DEFPOINTS
  6
CONTINUOUS
 62
     0
100
AcDbPoint
 10
252.7373366422462
 20
340.3507466756018
 30
0.0
  0
POINT
  5
C69
330
B9F
100
AcDbEntity
  8
DEFPOINTS
  6
CONTINUOUS
 62
     0
100
AcDbPoint
 10
189.3373366422164
 20
340.3509367064744
 30
0.0
  0
POINT
  5
C6A
330
B9F
100
AcDbEntity
  8
DEFPOINTS
  6
CONTINUOUS
 62
     0
100
AcDbPoint
 10
189.3373366422164
 20
364.927082886469
 30
0.0
  0
ENDBLK
  5
BAA
330
B9F
100
AcDbEntity
  8
0
100
AcDbBlockEnd
  0
BLOCK
  5
BB5
330
BAB
100
AcDbEntity
  8
0
100
AcDbBlockBegin
  2
*D25
 70
     1
 10
0.0
 20
0.0
 30
0.0
  3
*D25
  1

  0
LINE
  5
C74
330
BAB
100
AcDbEntity
  8
SUNPOU
  6
CONTINUOUS
 62
     4
100
AcDbLine
 10
255.7373366422461
 20
340.3507466756018
 30
0.0
 11
288.881704549731
 21
340.3507466756018
 31
0.0
  0
LINE
  5
C75
330
BAB
100
AcDbEntity
  8
SUNPOU
  6
CONTINUOUS
 62
     4
100
AcDbLine
 10
255.7373366422461
 20
313.3507466756018
 30
0.0
 11
288.881704549731
 21
313.3507466756018
 31
0.0
  0
LINE
  5
C76
330
BAB
100
AcDbEntity
  8
SUNPOU
  6
CONTINUOUS
 62
     4
100
AcDbLine
 10
287.381704549731
 20
337.3507466756018
 30
0.0
 11
287.381704549731
 21
316.3507466756018
 31
0.0
  0
INSERT
  5
C77
330
BAB
100
AcDbEntity
  8
SUNPOU
  6
CONTINUOUS
 62
     4
100
AcDbBlockReference
  2
_OPEN
 10
287.381704549731
 20
340.3507466756018
 30
0.0
 41
3.0
 42
3.0
 43
3.0
 50
90.0
  0
INSERT
  5
C78
330
BAB
100
AcDbEntity
  8
SUNPOU
  6
CONTINUOUS
 62
     4
100
AcDbBlockReference
  2
_OPEN
 10
287.381704549731
 20
313.3507466756018
 30
0.0
 41
3.0
 42
3.0
 43
3.0
 50
270.0
  0
MTEXT
  5
C79
330
BAB
100
AcDbEntity
  8
SUNPOU
  6
CONTINUOUS
 62
     4
100
AcDbMText
 10
284.8817045497309
 20
326.8507466756019
 30
0.0
 40
3.0
 41
0.0
 71
     5
 72
     1
  1
\A1;27
 11
0.0000000000000001
 21
1.0
 31
0.0
1001
ACAD
1000
MTEXTBEGIN
1070
    73
1070
     1
1070
    44
1040
1.0
1070
    74
1070
     0
1000
MTEXTEND
  0
POINT
  5
C7A
330
BAB
100
AcDbEntity
  8
DEFPOINTS
  6
CONTINUOUS
 62
     0
100
AcDbPoint
 10
252.7373366422462
 20
340.3507466756018
 30
0.0
  0
POINT
  5
C7B
330
BAB
100
AcDbEntity
  8
DEFPOINTS
  6
CONTINUOUS
 62
     0
100
AcDbPoint
 10
252.7373366422462
 20
313.3507466756018
 30
0.0
  0
POINT
  5
C7C
330
BAB
100
AcDbEntity
  8
DEFPOINTS
  6
CONTINUOUS
 62
     0
100
AcDbPoint
 10
287.381704549731
 20
313.3507466756018
 30
0.0
  0
ENDBLK
  5
BB6
330
BAB
100
AcDbEntity
  8
0
100
AcDbBlockEnd
  0
BLOCK
  5
BC1
330
BB7
100
AcDbEntity
  8
0
100
AcDbBlockBegin
  2
*D26
 70
     1
 10
0.0
 20
0.0
 30
0.0
  3
*D26
  1

  0
LINE
  5
C6B
330
BB7
100
AcDbEntity
  8
SUNPOU
  6
CONTINUOUS
 62
     4
100
AcDbLine
 10
255.7373366422461
 20
340.3507466756018
 30
0.0
 11
277.2601358571268
 21
340.3507466756018
 31
0.0
  0
LINE
  5
C6C
330
BB7
100
AcDbEntity
  8
SUNPOU
  6
CONTINUOUS
 62
     4
100
AcDbLine
 10
255.7373366422461
 20
315.3507466756018
 30
0.0
 11
277.2601358571268
 21
315.3507466756018
 31
0.0
  0
LINE
  5
C6D
330
BB7
100
AcDbEntity
  8
SUNPOU
  6
CONTINUOUS
 62
     4
100
AcDbLine
 10
275.7601358571268
 20
337.3507466756018
 30
0.0
 11
275.7601358571268
 21
318.3507466756018
 31
0.0
  0
INSERT
  5
C6E
330
BB7
100
AcDbEntity
  8
SUNPOU
  6
CONTINUOUS
 62
     4
100
AcDbBlockReference
  2
_OPEN
 10
275.7601358571268
 20
340.3507466756018
 30
0.0
 41
3.0
 42
3.0
 43
3.0
 50
90.0
  0
INSERT
  5
C6F
330
BB7
100
AcDbEntity
  8
SUNPOU
  6
CONTINUOUS
 62
     4
100
AcDbBlockReference
  2
_OPEN
 10
275.7601358571268
 20
315.3507466756018
 30
0.0
 41
3.0
 42
3.0
 43
3.0
 50
270.0
  0
MTEXT
  5
C70
330
BB7
100
AcDbEntity
  8
SUNPOU
  6
CONTINUOUS
 62
     4
100
AcDbMText
 10
273.2601358571268
 20
327.8507466756019
 30
0.0
 40
3.0
 41
0.0
 71
     5
 72
     1
  1
\A1;※ 25
 11
0.0000000000000001
 21
1.0
 31
0.0
1001
ACAD
1000
MTEXTBEGIN
1070
    73
1070
     1
1070
    44
1040
1.0
1070
    74
1070
     0
1000
MTEXTEND
  0
POINT
  5
C71
330
BB7
100
AcDbEntity
  8
DEFPOINTS
  6
CONTINUOUS
 62
     0
100
AcDbPoint
 10
252.7373366422462
 20
340.3507466756018
 30
0.0
  0
POINT
  5
C72
330
BB7
100
AcDbEntity
  8
DEFPOINTS
  6
CONTINUOUS
 62
     0
100
AcDbPoint
 10
252.7373366422462
 20
315.3507466756018
 30
0.0
  0
POINT
  5
C73
330
BB7
100
AcDbEntity
  8
DEFPOINTS
  6
CONTINUOUS
 62
     0
100
AcDbPoint
 10
275.7601358571268
 20
315.3507466756018
 30
0.0
  0
ENDBLK
  5
BC2
330
BB7
100
AcDbEntity
  8
0
100
AcDbBlockEnd
  0
BLOCK
  5
BCD
330
BC3
100
AcDbEntity
  8
0
100
AcDbBlockBegin
  2
*D27
 70
     1
 10
0.0
 20
0.0
 30
0.0
  3
*D27
  1

  0
LINE
  5
C98
330
BC3
100
AcDbEntity
  8
SUNPOU
  6
CONTINUOUS
 62
     4
100
AcDbLine
 10
556.8291966290298
 20
340.3508466756016
 30
0.0
 11
536.5512883796178
 21
340.3508466756016
 31
0.0
  0
LINE
  5
C99
330
BC3
100
AcDbEntity
  8
SUNPOU
  6
CONTINUOUS
 62
     4
100
AcDbLine
 10
583.1919966290302
 20
224.1376466756018
 30
0.0
 11
536.5512883796177
 21
224.1376466756018
 31
0.0
  0
LINE
  5
C9A
330
BC3
100
AcDbEntity
  8
SUNPOU
  6
CONTINUOUS
 62
     4
100
AcDbLine
 10
538.0512883796178
 20
337.3508466756017
 30
0.0
 11
538.0512883796177
 21
227.1376466756018
 31
0.0
  0
INSERT
  5
C9B
330
BC3
100
AcDbEntity
  8
SUNPOU
  6
CONTINUOUS
 62
     4
100
AcDbBlockReference
  2
_OPEN
 10
538.0512883796178
 20
340.3508466756016
 30
0.0
 41
3.0
 42
3.0
 43
3.0
 50
90.0
  0
INSERT
  5
C9C
330
BC3
100
AcDbEntity
  8
SUNPOU
  6
CONTINUOUS
 62
     4
100
AcDbBlockReference
  2
_OPEN
 10
538.0512883796177
 20
224.1376466756018
 30
0.0
 41
3.0
 42
3.0
 43
3.0
 50
270.0
  0
MTEXT
  5
C9D
330
BC3
100
AcDbEntity
  8
SUNPOU
  6
CONTINUOUS
 62
     4
100
AcDbMText
 10
535.5512883796177
 20
282.2442466756017
 30
0.0
 40
3.0
 41
0.0
 71
     5
 72
     1
  1
\A1;116
 11
0.0000000000000001
 21
1.0
 31
0.0
1001
ACAD
1000
MTEXTBEGIN
1070
    73
1070
     1
1070
    44
1040
1.0
1070
    74
1070
     0
1000
MTEXTEND
  0
POINT
  5
C9E
330
BC3
100
AcDbEntity
  8
DEFPOINTS
  6
CONTINUOUS
 62
     0
100
AcDbPoint
 10
559.8291966290299
 20
340.3508466756016
 30
0.0
  0
POINT
  5
C9F
330
BC3
100
AcDbEntity
  8
DEFPOINTS
  6
CONTINUOUS
 62
     0
100
AcDbPoint
 10
586.1919966290302
 20
224.1376466756018
 30
0.0
  0
POINT
  5
CA0
330
BC3
100
AcDbEntity
  8
DEFPOINTS
  6
CONTINUOUS
 62
     0
100
AcDbPoint
 10
538.0512883796177
 20
224.1376466756018
 30
0.0
  0
ENDBLK
  5
BCE
330
BC3
100
AcDbEntity
  8
0
100
AcDbBlockEnd
  0
BLOCK
  5
BD9
330
BCF
100
AcDbEntity
  8
0
100
AcDbBlockBegin
  2
*D28
 70
     1
 10
0.0
 20
0.0
 30
0.0
  3
*D28
  1

  0
LINE
  5
C8F
330
BCF
100
AcDbEntity
  8
SUNPOU
  6
CONTINUOUS
 62
     4
100
AcDbLine
 10
591.5291966290301
 20
348.6334466756017
 30
0.0
 11
591.5291966290301
 21
374.5627174950653
 31
0.0
  0
LINE
  5
C90
330
BCF
100
AcDbEntity
  8
SUNPOU
  6
CONTINUOUS
 62
     4
100
AcDbLine
 10
612.7422966290301
 20
275.7768466756017
 30
0.0
 11
612.7422966290301
 21
374.5627174950653
 31
0.0
  0
LINE
  5
C91
330
BCF
100
AcDbEntity
  8
SUNPOU
  6
CONTINUOUS
 62
     4
100
AcDbLine
 10
594.5291966290301
 20
373.0627174950654
 30
0.0
 11
609.7422966290301
 21
373.0627174950654
 31
0.0
  0
INSERT
  5
C92
330
BCF
100
AcDbEntity
  8
SUNPOU
  6
CONTINUOUS
 62
     4
100
AcDbBlockReference
  2
_OPEN
 10
591.5291966290301
 20
373.0627174950654
 30
0.0
 41
3.0
 42
3.0
 43
3.0
 50
180.0
  0
INSERT
  5
C93
330
BCF
100
AcDbEntity
  8
SUNPOU
  6
CONTINUOUS
 62
     4
100
AcDbBlockReference
  2
_OPEN
 10
612.7422966290301
 20
373.0627174950654
 30
0.0
 41
3.0
 42
3.0
 43
3.0
  0
MTEXT
  5
C94
330
BCF
100
AcDbEntity
  8
SUNPOU
  6
CONTINUOUS
 62
     4
100
AcDbMText
 10
602.1357466290301
 20
375.5627174950654
 30
0.0
 40
3.0
 41
0.0
 71
     5
 72
     1
  1
\A1;22
1001
ACAD
1000
MTEXTBEGIN
1070
    73
1070
     1
1070
    44
1040
1.0
1070
    74
1070
     0
1000
MTEXTEND
  0
POINT
  5
C95
330
BCF
100
AcDbEntity
  8
DEFPOINTS
  6
CONTINUOUS
 62
     0
100
AcDbPoint
 10
591.5291966290301
 20
345.6334466756016
 30
0.0
  0
POINT
  5
C96
330
BCF
100
AcDbEntity
  8
DEFPOINTS
  6
CONTINUOUS
 62
     0
100
AcDbPoint
 10
612.7422966290301
 20
272.7768466756017
 30
0.0
  0
POINT
  5
C97
330
BCF
100
AcDbEntity
  8
DEFPOINTS
  6
CONTINUOUS
 62
     0
100
AcDbPoint
 10
612.7422966290301
 20
373.0627174950654
 30
0.0
  0
ENDBLK
  5
BDA
330
BCF
100
AcDbEntity
  8
0
100
AcDbBlockEnd
  0
BLOCK
  5
CAC
330
CA2
100
AcDbEntity
  8
0
100
AcDbBlockBegin
  2
*D29
 70
     1
 10
0.0
 20
0.0
 30
0.0
  3
*D29
  1

  0
LINE
  5
EF5
330
CA2
100
AcDbEntity
  8
SUNPOU
100
AcDbLine
 10
623.9373422200074
 20
351.6334466756017
 30
0.0
 11
623.9373422200074
 21
389.6504392870785
 31
0.0
  0
LINE
  5
EF6
330
CA2
100
AcDbEntity
  8
SUNPOU
100
AcDbLine
 10
645.1504422200073
 20
278.7768466756017
 30
0.0
 11
645.1504422200073
 21
389.6504392870785
 31
0.0
  0
LINE
  5
EF7
330
CA2
100
AcDbEntity
  8
SUNPOU
100
AcDbLine
 10
630.9373422200073
 20
386.6504392870785
 30
0.0
 11
638.1504422200073
 21
386.6504392870785
 31
0.0
  0
INSERT
  5
EF8
330
CA2
100
AcDbEntity
  8
SUNPOU
100
AcDbBlockReference
  2
_OPEN
 10
623.9373422200074
 20
386.6504392870785
 30
0.0
 41
7.0
 42
7.0
 43
7.0
 50
180.0
  0
INSERT
  5
EF9
330
CA2
100
AcDbEntity
  8
SUNPOU
100
AcDbBlockReference
  2
_OPEN
 10
645.1504422200073
 20
386.6504392870785
 30
0.0
 41
7.0
 42
7.0
 43
7.0
  0
MTEXT
  5
EFA
330
CA2
100
AcDbEntity
  8
SUNPOU
100
AcDbMText
 10
634.5438922200074
 20
391.6504392870785
 30
0.0
 40
6.0
 41
0.0
 71
     5
 72
     1
  1
\A1;21
  0
POINT
  5
EFB
330
CA2
100
AcDbEntity
  8
DEFPOINTS
 62
     0
100
AcDbPoint
 10
623.9373422200074
 20
345.6334466756016
 30
0.0
  0
POINT
  5
EFC
330
CA2
100
AcDbEntity
  8
DEFPOINTS
 62
     0
100
AcDbPoint
 10
645.1504422200073
 20
272.7768466756017
 30
0.0
  0
POINT
  5
EFD
330
CA2
100
AcDbEntity
  8
DEFPOINTS
 62
     0
100
AcDbPoint
 10
645.1504422200073
 20
386.6504392870785
 30
0.0
  0
ENDBLK
  5
CAD
330
CA2
100
AcDbEntity
  8
0
100
AcDbBlockEnd
  0
BLOCK
  5
CB9
330
CAF
100
AcDbEntity
  8
0
100
AcDbBlockBegin
  2
*D30
 70
     1
 10
0.0
 20
0.0
 30
0.0
  3
*D30
  1

  0
LINE
  5
EFE
330
CAF
100
AcDbEntity
  8
SUNPOU
100
AcDbLine
 10
586.2373422197074
 20
340.3508466756016
 30
0.0
 11
554.4946987790267
 21
340.3508466756016
 31
0.0
  0
LINE
  5
EFF
330
CAF
100
AcDbEntity
  8
SUNPOU
100
AcDbLine
 10
609.000342220007
 20
254.1376466756016
 30
0.0
 11
554.4946987790266
 21
254.1376466756017
 31
0.0
  0
LINE
  5
F00
330
CAF
100
AcDbEntity
  8
SUNPOU
100
AcDbLine
 10
557.4946987790267
 20
333.3508466756017
 30
0.0
 11
557.4946987790267
 21
261.1376466756016
 31
0.0
  0
INSERT
  5
F01
330
CAF
100
AcDbEntity
  8
SUNPOU
100
AcDbBlockReference
  2
_OPEN
 10
557.4946987790267
 20
340.3508466756016
 30
0.0
 41
7.0
 42
7.0
 43
7.0
 50
90.0
  0
INSERT
  5
F02
330
CAF
100
AcDbEntity
  8
SUNPOU
100
AcDbBlockReference
  2
_OPEN
 10
557.4946987790266
 20
254.1376466756017
 30
0.0
 41
7.0
 42
7.0
 43
7.0
 50
270.0
  0
MTEXT
  5
F03
330
CAF
100
AcDbEntity
  8
SUNPOU
100
AcDbMText
 10
552.4946987790266
 20
297.2442466756017
 30
0.0
 40
6.0
 41
0.0
 71
     5
 72
     1
  1
\A1;86
 11
0.0000000000000001
 21
1.0
 31
0.0
  0
POINT
  5
F04
330
CAF
100
AcDbEntity
  8
DEFPOINTS
 62
     0
100
AcDbPoint
 10
592.2373422197074
 20
340.3508466756016
 30
0.0
  0
POINT
  5
F05
330
CAF
100
AcDbEntity
  8
DEFPOINTS
 62
     0
100
AcDbPoint
 10
615.000342220007
 20
254.1376466756016
 30
0.0
  0
POINT
  5
F06
330
CAF
100
AcDbEntity
  8
DEFPOINTS
 62
     0
100
AcDbPoint
 10
557.4946987790266
 20
254.1376466756017
 30
0.0
  0
ENDBLK
  5
CBA
330
CAF
100
AcDbEntity
  8
0
100
AcDbBlockEnd
  0
BLOCK
  5
CC6
330
CBC
100
AcDbEntity
  8
0
100
AcDbBlockBegin
  2
*D31
 70
     1
 10
0.0
 20
0.0
 30
0.0
  3
*D31
  1

  0
LINE
  5
F07
330
CBC
100
AcDbEntity
  8
SUNPOU
100
AcDbLine
 10
586.2373422200071
 20
340.3509466756016
 30
0.0
 11
537.7692554907413
 21
340.3509466756016
 31
0.0
  0
LINE
  5
F08
330
CBC
100
AcDbEntity
  8
SUNPOU
100
AcDbLine
 10
612.6001422200074
 20
224.1376466756018
 30
0.0
 11
537.7692554907412
 21
224.1376466756018
 31
0.0
  0
LINE
  5
F09
330
CBC
100
AcDbEntity
  8
SUNPOU
100
AcDbLine
 10
540.7692554907413
 20
333.3509466756016
 30
0.0
 11
540.7692554907412
 21
231.1376466756018
 31
0.0
  0
INSERT
  5
F0A
330
CBC
100
AcDbEntity
  8
SUNPOU
100
AcDbBlockReference
  2
_OPEN
 10
540.7692554907413
 20
340.3509466756016
 30
0.0
 41
7.0
 42
7.0
 43
7.0
 50
90.0
  0
INSERT
  5
F0B
330
CBC
100
AcDbEntity
  8
SUNPOU
100
AcDbBlockReference
  2
_OPEN
 10
540.7692554907412
 20
224.1376466756018
 30
0.0
 41
7.0
 42
7.0
 43
7.0
 50
270.0
  0
MTEXT
  5
F0C
330
CBC
100
AcDbEntity
  8
SUNPOU
100
AcDbMText
 10
535.7692554907412
 20
282.2442966756018
 30
0.0
 40
6.0
 41
0.0
 71
     5
 72
     1
  1
\A1;116
 11
0.0000000000000001
 21
1.0
 31
0.0
  0
POINT
  5
F0D
330
CBC
100
AcDbEntity
  8
DEFPOINTS
 62
     0
100
AcDbPoint
 10
592.2373422200071
 20
340.3509466756016
 30
0.0
  0
POINT
  5
F0E
330
CBC
100
AcDbEntity
  8
DEFPOINTS
 62
     0
100
AcDbPoint
 10
618.6001422200074
 20
224.1376466756018
 30
0.0
  0
POINT
  5
F0F
330
CBC
100
AcDbEntity
  8
DEFPOINTS
 62
     0
100
AcDbPoint
 10
540.7692554907412
 20
224.1376466756018
 30
0.0
  0
ENDBLK
  5
CC7
330
CBC
100
AcDbEntity
  8
0
100
AcDbBlockEnd
  0
BLOCK
  5
D4D
330
D43
100
AcDbEntity
  8
0
100
AcDbBlockBegin
  2
*D32
 70
     1
 10
0.0
 20
0.0
 30
0.0
  3
*D32
  1

  0
LINE
  5
D97
330
D43
100
AcDbEntity
  8
SUNPOU
  6
CONTINUOUS
 62
     4
100
AcDbLine
 10
-3.082678491215347
 20
340.3508466756016
 30
0.0
 11
-26.89601461087407
 21
340.3508466756016
 31
0.0
  0
LINE
  5
D98
330
D43
100
AcDbEntity
  8
SUNPOU
  6
CONTINUOUS
 62
     4
100
AcDbLine
 10
45.19542150878464
 20
270.1375466756017
 30
0.0
 11
-26.89601461087408
 21
270.1375466756017
 31
0.0
  0
LINE
  5
D99
330
D43
100
AcDbEntity
  8
SUNPOU
  6
CONTINUOUS
 62
     4
100
AcDbLine
 10
-25.39601461087407
 20
337.3508466756017
 30
0.0
 11
-25.39601461087409
 21
273.1375466756017
 31
0.0
  0
INSERT
  5
D9A
330
D43
100
AcDbEntity
  8
SUNPOU
  6
CONTINUOUS
 62
     4
100
AcDbBlockReference
  2
_OPEN
 10
-25.39601461087407
 20
340.3508466756016
 30
0.0
 41
3.0
 42
3.0
 43
3.0
 50
90.0
  0
INSERT
  5
D9B
330
D43
100
AcDbEntity
  8
SUNPOU
  6
CONTINUOUS
 62
     4
100
AcDbBlockReference
  2
_OPEN
 10
-25.39601461087409
 20
270.1375466756017
 30
0.0
 41
3.0
 42
3.0
 43
3.0
 50
270.0
  0
MTEXT
  5
D9C
330
D43
100
AcDbEntity
  8
SUNPOU
  6
CONTINUOUS
 62
     4
100
AcDbMText
 10
-27.89601461087413
 20
305.2441966756017
 30
0.0
 40
3.0
 41
0.0
 71
     5
 72
     1
  1
\A1;70
 11
0.0000000000000001
 21
1.0
 31
0.0
1001
ACAD
1000
MTEXTBEGIN
1070
    73
1070
     1
1070
    44
1040
1.0
1070
    74
1070
     0
1000
MTEXTEND
  0
POINT
  5
D9D
330
D43
100
AcDbEntity
  8
DEFPOINTS
  6
CONTINUOUS
 62
     0
100
AcDbPoint
 10
-0.0826784912153471
 20
340.3508466756016
 30
0.0
  0
POINT
  5
D9E
330
D43
100
AcDbEntity
  8
DEFPOINTS
  6
CONTINUOUS
 62
     0
100
AcDbPoint
 10
48.19542150878465
 20
270.1375466756017
 30
0.0
  0
POINT
  5
D9F
330
D43
100
AcDbEntity
  8
DEFPOINTS
  6
CONTINUOUS
 62
     0
100
AcDbPoint
 10
-25.39601461087409
 20
270.1375466756017
 30
0.0
  0
ENDBLK
  5
D4E
330
D43
100
AcDbEntity
  8
0
100
AcDbBlockEnd
  0
BLOCK
  5
D59
330
D4F
100
AcDbEntity
  8
0
100
AcDbBlockBegin
  2
*D33
 70
     1
 10
0.0
 20
0.0
 30
0.0
  3
*D33
  1

  0
LINE
  5
DA0
330
D4F
100
AcDbEntity
  8
SUNPOU
  6
CONTINUOUS
 62
     4
100
AcDbLine
 10
98.83042150878464
 20
240.5875466756018
 30
0.0
 11
98.83042150878464
 21
207.7434230776374
 31
0.0
  0
LINE
  5
DA1
330
D4F
100
AcDbEntity
  8
SUNPOU
  6
CONTINUOUS
 62
     4
100
AcDbLine
 10
31.6172215087846
 20
280.4345466756018
 30
0.0
 11
31.6172215087846
 21
207.7434230776374
 31
0.0
  0
LINE
  5
DA2
330
D4F
100
AcDbEntity
  8
SUNPOU
  6
CONTINUOUS
 62
     4
100
AcDbLine
 10
95.83042150878464
 20
209.2434230776374
 30
0.0
 11
34.61722150878461
 21
209.2434230776374
 31
0.0
  0
INSERT
  5
DA3
330
D4F
100
AcDbEntity
  8
SUNPOU
  6
CONTINUOUS
 62
     4
100
AcDbBlockReference
  2
_OPEN
 10
98.83042150878464
 20
209.2434230776374
 30
0.0
 41
3.0
 42
3.0
 43
3.0
  0
INSERT
  5
DA4
330
D4F
100
AcDbEntity
  8
SUNPOU
  6
CONTINUOUS
 62
     4
100
AcDbBlockReference
  2
_OPEN
 10
31.6172215087846
 20
209.2434230776374
 30
0.0
 41
3.0
 42
3.0
 43
3.0
 50
180.0
  0
MTEXT
  5
DA5
330
D4F
100
AcDbEntity
  8
SUNPOU
  6
CONTINUOUS
 62
     4
100
AcDbMText
 10
65.22382150878462
 20
211.7434230776374
 30
0.0
 40
3.0
 41
0.0
 71
     5
 72
     1
  1
\A1;67
1001
ACAD
1000
MTEXTBEGIN
1070
    73
1070
     1
1070
    44
1040
1.0
1070
    74
1070
     0
1000
MTEXTEND
  0
POINT
  5
DA6
330
D4F
100
AcDbEntity
  8
DEFPOINTS
  6
CONTINUOUS
 62
     0
100
AcDbPoint
 10
98.83042150878464
 20
243.5875466756018
 30
0.0
  0
POINT
  5
DA7
330
D4F
100
AcDbEntity
  8
DEFPOINTS
  6
CONTINUOUS
 62
     0
100
AcDbPoint
 10
31.6172215087846
 20
283.4345466756018
 30
0.0
  0
POINT
  5
DA8
330
D4F
100
AcDbEntity
  8
DEFPOINTS
  6
CONTINUOUS
 62
     0
100
AcDbPoint
 10
31.6172215087846
 20
209.2434230776374
 30
0.0
  0
ENDBLK
  5
D5A
330
D4F
100
AcDbEntity
  8
0
100
AcDbBlockEnd
  0
BLOCK
  5
D65
330
D5B
100
AcDbEntity
  8
0
100
AcDbBlockBegin
  2
*D34
 70
     1
 10
0.0
 20
0.0
 30
0.0
  3
*D34
  1

  0
LINE
  5
DA9
330
D5B
100
AcDbEntity
  8
SUNPOU
  6
CONTINUOUS
 62
     4
100
AcDbLine
 10
31.6172215087846
 20
280.4345466756018
 30
0.0
 11
31.6172215087846
 21
218.5141774051445
 31
0.0
  0
LINE
  5
DAA
330
D5B
100
AcDbEntity
  8
SUNPOU
  6
CONTINUOUS
 62
     4
100
AcDbLine
 10
68.83042150878464
 20
236.9875466756018
 30
0.0
 11
68.83042150878464
 21
218.5141774051445
 31
0.0
  0
LINE
  5
DAB
330
D5B
100
AcDbEntity
  8
SUNPOU
  6
CONTINUOUS
 62
     4
100
AcDbLine
 10
34.61722150878461
 20
220.0141774051445
 30
0.0
 11
65.83042150878464
 21
220.0141774051445
 31
0.0
  0
INSERT
  5
DAC
330
D5B
100
AcDbEntity
  8
SUNPOU
  6
CONTINUOUS
 62
     4
100
AcDbBlockReference
  2
_OPEN
 10
31.6172215087846
 20
220.0141774051445
 30
0.0
 41
3.0
 42
3.0
 43
3.0
 50
180.0
  0
INSERT
  5
DAD
330
D5B
100
AcDbEntity
  8
SUNPOU
  6
CONTINUOUS
 62
     4
100
AcDbBlockReference
  2
_OPEN
 10
68.83042150878464
 20
220.0141774051445
 30
0.0
 41
3.0
 42
3.0
 43
3.0
  0
MTEXT
  5
DAE
330
D5B
100
AcDbEntity
  8
SUNPOU
  6
CONTINUOUS
 62
     4
100
AcDbMText
 10
50.22382150878462
 20
222.5141774051445
 30
0.0
 40
3.0
 41
0.0
 71
     5
 72
     1
  1
\A1;37
1001
ACAD
1000
MTEXTBEGIN
1070
    73
1070
     1
1070
    44
1040
1.0
1070
    74
1070
     0
1000
MTEXTEND
  0
POINT
  5
DAF
330
D5B
100
AcDbEntity
  8
DEFPOINTS
  6
CONTINUOUS
 62
     0
100
AcDbPoint
 10
31.6172215087846
 20
283.4345466756018
 30
0.0
  0
POINT
  5
DB0
330
D5B
100
AcDbEntity
  8
DEFPOINTS
  6
CONTINUOUS
 62
     0
100
AcDbPoint
 10
68.83042150878464
 20
239.9875466756018
 30
0.0
  0
POINT
  5
DB1
330
D5B
100
AcDbEntity
  8
DEFPOINTS
  6
CONTINUOUS
 62
     0
100
AcDbPoint
 10
68.83042150878464
 20
220.0141774051445
 30
0.0
  0
ENDBLK
  5
D66
330
D5B
100
AcDbEntity
  8
0
100
AcDbBlockEnd
  0
BLOCK
  5
D71
330
D67
100
AcDbEntity
  8
0
100
AcDbBlockBegin
  2
*D35
 70
     1
 10
0.0
 20
0.0
 30
0.0
  3
*D35
  1

  0
LINE
  5
DB2
330
D67
100
AcDbEntity
  8
SUNPOU
  6
CONTINUOUS
 62
     4
100
AcDbLine
 10
101.8304215087846
 20
296.6875466756018
 30
0.0
 11
126.1046045065914
 21
296.6875466756018
 31
0.0
  0
LINE
  5
DB3
330
D67
100
AcDbEntity
  8
SUNPOU
  6
CONTINUOUS
 62
     4
100
AcDbLine
 10
101.8304215087846
 20
243.5875466756018
 30
0.0
 11
126.1046045065913
 21
243.5875466756018
 31
0.0
  0
LINE
  5
DB4
330
D67
100
AcDbEntity
  8
SUNPOU
  6
CONTINUOUS
 62
     4
100
AcDbLine
 10
124.6046045065914
 20
293.6875466756018
 30
0.0
 11
124.6046045065913
 21
246.5875466756018
 31
0.0
  0
INSERT
  5
DB5
330
D67
100
AcDbEntity
  8
SUNPOU
  6
CONTINUOUS
 62
     4
100
AcDbBlockReference
  2
_OPEN
 10
124.6046045065914
 20
296.6875466756018
 30
0.0
 41
3.0
 42
3.0
 43
3.0
 50
90.0
  0
INSERT
  5
DB6
330
D67
100
AcDbEntity
  8
SUNPOU
  6
CONTINUOUS
 62
     4
100
AcDbBlockReference
  2
_OPEN
 10
124.6046045065913
 20
243.5875466756018
 30
0.0
 41
3.0
 42
3.0
 43
3.0
 50
270.0
  0
MTEXT
  5
DB7
330
D67
100
AcDbEntity
  8
SUNPOU
  6
CONTINUOUS
 62
     4
100
AcDbMText
 10
122.1046045065913
 20
270.1375466756018
 30
0.0
 40
3.0
 41
0.0
 71
     5
 72
     1
  1
\A1;φ 53
 11
0.0000000000000001
 21
1.0
 31
0.0
1001
ACAD
1000
MTEXTBEGIN
1070
    73
1070
     1
1070
    44
1040
1.0
1070
    74
1070
     0
1000
MTEXTEND
  0
POINT
  5
DB8
330
D67
100
AcDbEntity
  8
DEFPOINTS
  6
CONTINUOUS
 62
     0
100
AcDbPoint
 10
98.83042150878464
 20
296.6875466756018
 30
0.0
  0
POINT
  5
DB9
330
D67
100
AcDbEntity
  8
DEFPOINTS
  6
CONTINUOUS
 62
     0
100
AcDbPoint
 10
98.83042150878464
 20
243.5875466756018
 30
0.0
  0
POINT
  5
DBA
330
D67
100
AcDbEntity
  8
DEFPOINTS
  6
CONTINUOUS
 62
     0
100
AcDbPoint
 10
124.6046045065913
 20
243.5875466756018
 30
0.0
  0
ENDBLK
  5
D72
330
D67
100
AcDbEntity
  8
0
100
AcDbBlockEnd
  0
BLOCK
  5
D7D
330
D73
100
AcDbEntity
  8
0
100
AcDbBlockBegin
  2
*D36
 70
     1
 10
0.0
 20
0.0
 30
0.0
  3
*D36
  1

  0
LINE
  5
DBB
330
D73
100
AcDbEntity
  8
SUNPOU
  6
CONTINUOUS
 62
     4
100
AcDbLine
 10
63.31732150878451
 20
343.3507466756018
 30
0.0
 11
63.31732150878451
 21
366.427082886469
 31
0.0
  0
LINE
  5
DBC
330
D73
100
AcDbEntity
  8
SUNPOU
  6
CONTINUOUS
 62
     4
100
AcDbLine
 10
-0.0826784912452466
 20
343.3509367064745
 30
0.0
 11
-0.0826784912452452
 21
366.427082886469
 31
0.0
  0
LINE
  5
DBD
330
D73
100
AcDbEntity
  8
SUNPOU
  6
CONTINUOUS
 62
     4
100
AcDbLine
 10
60.31732150878451
 20
364.927082886469
 30
0.0
 11
2.917321508754754
 21
364.927082886469
 31
0.0
  0
INSERT
  5
DBE
330
D73
100
AcDbEntity
  8
SUNPOU
  6
CONTINUOUS
 62
     4
100
AcDbBlockReference
  2
_OPEN
 10
63.31732150878451
 20
364.927082886469
 30
0.0
 41
3.0
 42
3.0
 43
3.0
  0
INSERT
  5
DBF
330
D73
100
AcDbEntity
  8
SUNPOU
  6
CONTINUOUS
 62
     4
100
AcDbBlockReference
  2
_OPEN
 10
-0.0826784912452453
 20
364.927082886469
 30
0.0
 41
3.0
 42
3.0
 43
3.0
 50
180.0
  0
MTEXT
  5
DC0
330
D73
100
AcDbEntity
  8
SUNPOU
  6
CONTINUOUS
 62
     4
100
AcDbMText
 10
31.61732150876963
 20
367.427082886469
 30
0.0
 40
3.0
 41
0.0
 71
     5
 72
     1
  1
\A1;φ63
1001
ACAD
1000
MTEXTBEGIN
1070
    73
1070
     1
1070
    44
1040
1.0
1070
    74
1070
     0
1000
MTEXTEND
  0
POINT
  5
DC1
330
D73
100
AcDbEntity
  8
DEFPOINTS
  6
CONTINUOUS
 62
     0
100
AcDbPoint
 10
63.31732150878451
 20
340.3507466756018
 30
0.0
  0
POINT
  5
DC2
330
D73
100
AcDbEntity
  8
DEFPOINTS
  6
CONTINUOUS
 62
     0
100
AcDbPoint
 10
-0.0826784912452468
 20
340.3509367064744
 30
0.0
  0
POINT
  5
DC3
330
D73
100
AcDbEntity
  8
DEFPOINTS
  6
CONTINUOUS
 62
     0
100
AcDbPoint
 10
-0.0826784912452453
 20
364.927082886469
 30
0.0
  0
ENDBLK
  5
D7E
330
D73
100
AcDbEntity
  8
0
100
AcDbBlockEnd
  0
BLOCK
  5
D89
330
D7F
100
AcDbEntity
  8
0
100
AcDbBlockBegin
  2
*D37
 70
     1
 10
0.0
 20
0.0
 30
0.0
  3
*D37
  1

  0
LINE
  5
DC4
330
D7F
100
AcDbEntity
  8
SUNPOU
  6
CONTINUOUS
 62
     4
100
AcDbLine
 10
66.3173215087845
 20
340.3507466756018
 30
0.0
 11
99.46168941626934
 21
340.3507466756018
 31
0.0
  0
LINE
  5
DC5
330
D7F
100
AcDbEntity
  8
SUNPOU
  6
CONTINUOUS
 62
     4
100
AcDbLine
 10
66.31732150878452
 20
313.3507466756018
 30
0.0
 11
99.46168941626934
 21
313.3507466756018
 31
0.0
  0
LINE
  5
DC6
330
D7F
100
AcDbEntity
  8
SUNPOU
  6
CONTINUOUS
 62
     4
100
AcDbLine
 10
97.96168941626934
 20
337.3507466756018
 30
0.0
 11
97.96168941626934
 21
316.3507466756018
 31
0.0
  0
INSERT
  5
DC7
330
D7F
100
AcDbEntity
  8
SUNPOU
  6
CONTINUOUS
 62
     4
100
AcDbBlockReference
  2
_OPEN
 10
97.96168941626934
 20
340.3507466756018
 30
0.0
 41
3.0
 42
3.0
 43
3.0
 50
90.0
  0
INSERT
  5
DC8
330
D7F
100
AcDbEntity
  8
SUNPOU
  6
CONTINUOUS
 62
     4
100
AcDbBlockReference
  2
_OPEN
 10
97.96168941626934
 20
313.3507466756018
 30
0.0
 41
3.0
 42
3.0
 43
3.0
 50
270.0
  0
MTEXT
  5
DC9
330
D7F
100
AcDbEntity
  8
SUNPOU
  6
CONTINUOUS
 62
     4
100
AcDbMText
 10
95.46168941626929
 20
326.8507466756018
 30
0.0
 40
3.0
 41
0.0
 71
     5
 72
     1
  1
\A1;27
 11
0.0000000000000001
 21
1.0
 31
0.0
1001
ACAD
1000
MTEXTBEGIN
1070
    73
1070
     1
1070
    44
1040
1.0
1070
    74
1070
     0
1000
MTEXTEND
  0
POINT
  5
DCA
330
D7F
100
AcDbEntity
  8
DEFPOINTS
  6
CONTINUOUS
 62
     0
100
AcDbPoint
 10
63.31732150878451
 20
340.3507466756018
 30
0.0
  0
POINT
  5
DCB
330
D7F
100
AcDbEntity
  8
DEFPOINTS
  6
CONTINUOUS
 62
     0
100
AcDbPoint
 10
63.31732150878451
 20
313.3507466756018
 30
0.0
  0
POINT
  5
DCC
330
D7F
100
AcDbEntity
  8
DEFPOINTS
  6
CONTINUOUS
 62
     0
100
AcDbPoint
 10
97.96168941626934
 20
313.3507466756018
 30
0.0
  0
ENDBLK
  5
D8A
330
D7F
100
AcDbEntity
  8
0
100
AcDbBlockEnd
  0
BLOCK
  5
D95
330
D8B
100
AcDbEntity
  8
0
100
AcDbBlockBegin
  2
*D38
 70
     1
 10
0.0
 20
0.0
 30
0.0
  3
*D38
  1

  0
LINE
  5
DCD
330
D8B
100
AcDbEntity
  8
SUNPOU
  6
CONTINUOUS
 62
     4
100
AcDbLine
 10
66.3173215087845
 20
340.3507466756018
 30
0.0
 11
87.84012072366522
 21
340.3507466756018
 31
0.0
  0
LINE
  5
DCE
330
D8B
100
AcDbEntity
  8
SUNPOU
  6
CONTINUOUS
 62
     4
100
AcDbLine
 10
66.31732150878452
 20
315.3507466756018
 30
0.0
 11
87.84012072366522
 21
315.3507466756018
 31
0.0
  0
LINE
  5
DCF
330
D8B
100
AcDbEntity
  8
SUNPOU
  6
CONTINUOUS
 62
     4
100
AcDbLine
 10
86.34012072366521
 20
337.3507466756018
 30
0.0
 11
86.34012072366521
 21
318.3507466756018
 31
0.0
  0
INSERT
  5
DD0
330
D8B
100
AcDbEntity
  8
SUNPOU
  6
CONTINUOUS
 62
     4
100
AcDbBlockReference
  2
_OPEN
 10
86.34012072366521
 20
340.3507466756018
 30
0.0
 41
3.0
 42
3.0
 43
3.0
 50
90.0
  0
INSERT
  5
DD1
330
D8B
100
AcDbEntity
  8
SUNPOU
  6
CONTINUOUS
 62
     4
100
AcDbBlockReference
  2
_OPEN
 10
86.34012072366521
 20
315.3507466756018
 30
0.0
 41
3.0
 42
3.0
 43
3.0
 50
270.0
  0
MTEXT
  5
DD2
330
D8B
100
AcDbEntity
  8
SUNPOU
  6
CONTINUOUS
 62
     4
100
AcDbMText
 10
83.84012072366516
 20
327.8507466756018
 30
0.0
 40
3.0
 41
0.0
 71
     5
 72
     1
  1
\A1;※ 25
 11
0.0000000000000001
 21
1.0
 31
0.0
1001
ACAD
1000
MTEXTBEGIN
1070
    73
1070
     1
1070
    44
1040
1.0
1070
    74
1070
     0
1000
MTEXTEND
  0
POINT
  5
DD3
330
D8B
100
AcDbEntity
  8
DEFPOINTS
  6
CONTINUOUS
 62
     0
100
AcDbPoint
 10
63.31732150878451
 20
340.3507466756018
 30
0.0
  0
POINT
  5
DD4
330
D8B
100
AcDbEntity
  8
DEFPOINTS
  6
CONTINUOUS
 62
     0
100
AcDbPoint
 10
63.31732150878451
 20
315.3507466756018
 30
0.0
  0
POINT
  5
DD5
330
D8B
100
AcDbEntity
  8
DEFPOINTS
  6
CONTINUOUS
 62
     0
100
AcDbPoint
 10
86.34012072366521
 20
315.3507466756018
 30
0.0
  0
ENDBLK
  5
D96
330
D8B
100
AcDbEntity
  8
0
100
AcDbBlockEnd
  0
BLOCK
  5
DE1
330
DD7
100
AcDbEntity
  8
0
100
AcDbBlockBegin
  2
*D39
 70
     1
 10
0.0
 20
0.0
 30
0.0
  3
*D39
  1

  0
LINE
  5
F10
330
DD7
100
AcDbEntity
  8
SUNPOU
100
AcDbLine
 10
189.3373366422463
 20
346.3509466756016
 30
0.0
 11
189.3373366422463
 21
389.0330991846249
 31
0.0
  0
LINE
  5
F11
330
DD7
100
AcDbEntity
  8
SUNPOU
100
AcDbLine
 10
252.7373366422462
 20
346.3507466756018
 30
0.0
 11
252.7373366422462
 21
389.0330991846249
 31
0.0
  0
LINE
  5
F12
330
DD7
100
AcDbEntity
  8
SUNPOU
100
AcDbLine
 10
196.3373366422463
 20
386.0330991846249
 30
0.0
 11
245.7373366422462
 21
386.0330991846249
 31
0.0
  0
INSERT
  5
F13
330
DD7
100
AcDbEntity
  8
SUNPOU
100
AcDbBlockReference
  2
_OPEN
 10
189.3373366422463
 20
386.0330991846249
 30
0.0
 41
7.0
 42
7.0
 43
7.0
 50
180.0
  0
INSERT
  5
F14
330
DD7
100
AcDbEntity
  8
SUNPOU
100
AcDbBlockReference
  2
_OPEN
 10
252.7373366422462
 20
386.0330991846249
 30
0.0
 41
7.0
 42
7.0
 43
7.0
  0
MTEXT
  5
F15
330
DD7
100
AcDbEntity
  8
SUNPOU
100
AcDbMText
 10
221.0373366422462
 20
391.0330991846249
 30
0.0
 40
6.0
 41
0.0
 71
     5
 72
     1
  1
\A1;φ63
  0
POINT
  5
F16
330
DD7
100
AcDbEntity
  8
DEFPOINTS
 62
     0
100
AcDbPoint
 10
189.3373366422463
 20
340.3509466756016
 30
0.0
  0
POINT
  5
F17
330
DD7
100
AcDbEntity
  8
DEFPOINTS
 62
     0
100
AcDbPoint
 10
252.7373366422462
 20
340.3507466756018
 30
0.0
  0
POINT
  5
F18
330
DD7
100
AcDbEntity
  8
DEFPOINTS
 62
     0
100
AcDbPoint
 10
252.7373366422462
 20
386.0330991846249
 30
0.0
  0
ENDBLK
  5
DE2
330
DD7
100
AcDbEntity
  8
0
100
AcDbBlockEnd
  0
BLOCK
  5
DEE
330
DE4
100
AcDbEntity
  8
0
100
AcDbBlockBegin
  2
*D40
 70
     1
 10
0.0
 20
0.0
 30
0.0
  3
*D40
  1

  0
LINE
  5
F19
330
DE4
100
AcDbEntity
  8
SUNPOU
100
AcDbLine
 10
183.3373366422463
 20
340.3509466756016
 30
0.0
 11
150.7503344384381
 21
340.3509466756016
 31
0.0
  0
LINE
  5
F1A
330
DE4
100
AcDbEntity
  8
SUNPOU
100
AcDbLine
 10
231.6154366422463
 20
270.1375466756017
 30
0.0
 11
150.7503344384381
 21
270.1375466756017
 31
0.0
  0
LINE
  5
F1B
330
DE4
100
AcDbEntity
  8
SUNPOU
100
AcDbLine
 10
153.7503344384381
 20
333.3509466756016
 30
0.0
 11
153.7503344384381
 21
277.1375466756017
 31
0.0
  0
INSERT
  5
F1C
330
DE4
100
AcDbEntity
  8
SUNPOU
100
AcDbBlockReference
  2
_OPEN
 10
153.7503344384381
 20
340.3509466756016
 30
0.0
 41
7.0
 42
7.0
 43
7.0
 50
90.0
  0
INSERT
  5
F1D
330
DE4
100
AcDbEntity
  8
SUNPOU
100
AcDbBlockReference
  2
_OPEN
 10
153.7503344384381
 20
270.1375466756017
 30
0.0
 41
7.0
 42
7.0
 43
7.0
 50
270.0
  0
MTEXT
  5
F1E
330
DE4
100
AcDbEntity
  8
SUNPOU
100
AcDbMText
 10
148.750334438438
 20
305.2442466756017
 30
0.0
 40
6.0
 41
0.0
 71
     5
 72
     1
  1
\A1;70
 11
0.0000000000000001
 21
1.0
 31
0.0
  0
POINT
  5
F1F
330
DE4
100
AcDbEntity
  8
DEFPOINTS
 62
     0
100
AcDbPoint
 10
189.3373366422463
 20
340.3509466756016
 30
0.0
  0
POINT
  5
F20
330
DE4
100
AcDbEntity
  8
DEFPOINTS
 62
     0
100
AcDbPoint
 10
237.6154366422463
 20
270.1375466756017
 30
0.0
  0
POINT
  5
F21
330
DE4
100
AcDbEntity
  8
DEFPOINTS
 62
     0
100
AcDbPoint
 10
153.7503344384381
 20
270.1375466756017
 30
0.0
  0
ENDBLK
  5
DEF
330
DE4
100
AcDbEntity
  8
0
100
AcDbBlockEnd
  0
BLOCK
  5
DFB
330
DF1
100
AcDbEntity
  8
0
100
AcDbBlockBegin
  2
*D41
 70
     1
 10
0.0
 20
0.0
 30
0.0
  3
*D41
  1

  0
LINE
  5
F22
330
DF1
100
AcDbEntity
  8
SUNPOU
100
AcDbLine
 10
221.0372366422463
 20
277.4345466756018
 30
0.0
 11
221.0372366422463
 21
198.8266869152755
 31
0.0
  0
LINE
  5
F23
330
DF1
100
AcDbEntity
  8
SUNPOU
100
AcDbLine
 10
258.2504366422463
 20
233.9875466756017
 30
0.0
 11
258.2504366422463
 21
198.8266869152755
 31
0.0
  0
LINE
  5
F24
330
DF1
100
AcDbEntity
  8
SUNPOU
100
AcDbLine
 10
228.0372366422462
 20
201.8266869152755
 30
0.0
 11
251.2504366422463
 21
201.8266869152755
 31
0.0
  0
INSERT
  5
F25
330
DF1
100
AcDbEntity
  8
SUNPOU
100
AcDbBlockReference
  2
_OPEN
 10
221.0372366422463
 20
201.8266869152755
 30
0.0
 41
7.0
 42
7.0
 43
7.0
 50
180.0
  0
INSERT
  5
F26
330
DF1
100
AcDbEntity
  8
SUNPOU
100
AcDbBlockReference
  2
_OPEN
 10
258.2504366422463
 20
201.8266869152755
 30
0.0
 41
7.0
 42
7.0
 43
7.0
  0
MTEXT
  5
F27
330
DF1
100
AcDbEntity
  8
SUNPOU
100
AcDbMText
 10
239.6438366422462
 20
206.8266869152755
 30
0.0
 40
6.0
 41
0.0
 71
     5
 72
     1
  1
\A1;37
  0
POINT
  5
F28
330
DF1
100
AcDbEntity
  8
DEFPOINTS
 62
     0
100
AcDbPoint
 10
221.0372366422463
 20
283.4345466756018
 30
0.0
  0
POINT
  5
F29
330
DF1
100
AcDbEntity
  8
DEFPOINTS
 62
     0
100
AcDbPoint
 10
258.2504366422463
 20
239.9875466756018
 30
0.0
  0
POINT
  5
F2A
330
DF1
100
AcDbEntity
  8
DEFPOINTS
 62
     0
100
AcDbPoint
 10
258.2504366422463
 20
201.8266869152755
 30
0.0
  0
ENDBLK
  5
DFC
330
DF1
100
AcDbEntity
  8
0
100
AcDbBlockEnd
  0
BLOCK
  5
E08
330
DFE
100
AcDbEntity
  8
0
100
AcDbBlockBegin
  2
*D42
 70
     1
 10
0.0
 20
0.0
 30
0.0
  3
*D42
  1

  0
LINE
  5
F2B
330
DFE
100
AcDbEntity
  8
SUNPOU
100
AcDbLine
 10
221.0372366422463
 20
277.4345466756018
 30
0.0
 11
221.0372366422463
 21
180.9642474274207
 31
0.0
  0
LINE
  5
F2C
330
DFE
100
AcDbEntity
  8
SUNPOU
100
AcDbLine
 10
288.2504366422462
 20
237.5875466756018
 30
0.0
 11
288.2504366422462
 21
180.9642474274207
 31
0.0
  0
LINE
  5
F2D
330
DFE
100
AcDbEntity
  8
SUNPOU
100
AcDbLine
 10
228.0372366422462
 20
183.9642474274207
 30
0.0
 11
281.2504366422463
 21
183.9642474274207
 31
0.0
  0
INSERT
  5
F2E
330
DFE
100
AcDbEntity
  8
SUNPOU
100
AcDbBlockReference
  2
_OPEN
 10
221.0372366422463
 20
183.9642474274207
 30
0.0
 41
7.0
 42
7.0
 43
7.0
 50
180.0
  0
INSERT
  5
F2F
330
DFE
100
AcDbEntity
  8
SUNPOU
100
AcDbBlockReference
  2
_OPEN
 10
288.2504366422462
 20
183.9642474274207
 30
0.0
 41
7.0
 42
7.0
 43
7.0
  0
MTEXT
  5
F30
330
DFE
100
AcDbEntity
  8
SUNPOU
100
AcDbMText
 10
254.6438366422463
 20
188.9642474274207
 30
0.0
 40
6.0
 41
0.0
 71
     5
 72
     1
  1
\A1;67
  0
POINT
  5
F31
330
DFE
100
AcDbEntity
  8
DEFPOINTS
 62
     0
100
AcDbPoint
 10
221.0372366422463
 20
283.4345466756018
 30
0.0
  0
POINT
  5
F32
330
DFE
100
AcDbEntity
  8
DEFPOINTS
 62
     0
100
AcDbPoint
 10
288.2504366422462
 20
243.5875466756018
 30
0.0
  0
POINT
  5
F33
330
DFE
100
AcDbEntity
  8
DEFPOINTS
 62
     0
100
AcDbPoint
 10
288.2504366422462
 20
183.9642474274207
 30
0.0
  0
ENDBLK
  5
E09
330
DFE
100
AcDbEntity
  8
0
100
AcDbBlockEnd
  0
BLOCK
  5
E15
330
E0B
100
AcDbEntity
  8
0
100
AcDbBlockBegin
  2
*D43
 70
     1
 10
0.0
 20
0.0
 30
0.0
  3
*D43
  1

  0
LINE
  5
F34
330
E0B
100
AcDbEntity
  8
SUNPOU
100
AcDbLine
 10
294.2504366422463
 20
296.6875466756018
 30
0.0
 11
325.4961867912729
 21
296.6875466756018
 31
0.0
  0
LINE
  5
F35
330
E0B
100
AcDbEntity
  8
SUNPOU
100
AcDbLine
 10
294.2504366422463
 20
243.5875466756018
 30
0.0
 11
325.4961867912729
 21
243.5875466756018
 31
0.0
  0
LINE
  5
F36
330
E0B
100
AcDbEntity
  8
SUNPOU
100
AcDbLine
 10
322.4961867912729
 20
289.6875466756018
 30
0.0
 11
322.4961867912729
 21
250.5875466756017
 31
0.0
  0
INSERT
  5
F37
330
E0B
100
AcDbEntity
  8
SUNPOU
100
AcDbBlockReference
  2
_OPEN
 10
322.4961867912729
 20
296.6875466756018
 30
0.0
 41
7.0
 42
7.0
 43
7.0
 50
90.0
  0
INSERT
  5
F38
330
E0B
100
AcDbEntity
  8
SUNPOU
100
AcDbBlockReference
  2
_OPEN
 10
322.4961867912729
 20
243.5875466756018
 30
0.0
 41
7.0
 42
7.0
 43
7.0
 50
270.0
  0
MTEXT
  5
F39
330
E0B
100
AcDbEntity
  8
SUNPOU
100
AcDbMText
 10
317.4961867912729
 20
270.1375466756019
 30
0.0
 40
6.0
 41
0.0
 71
     5
 72
     1
  1
\A1;φ53
 11
0.0000000000000001
 21
1.0
 31
0.0
  0
POINT
  5
F3A
330
E0B
100
AcDbEntity
  8
DEFPOINTS
 62
     0
100
AcDbPoint
 10
288.2504366422462
 20
296.6875466756018
 30
0.0
  0
POINT
  5
F3B
330
E0B
100
AcDbEntity
  8
DEFPOINTS
 62
     0
100
AcDbPoint
 10
288.2504366422462
 20
243.5875466756018
 30
0.0
  0
POINT
  5
F3C
330
E0B
100
AcDbEntity
  8
DEFPOINTS
 62
     0
100
AcDbPoint
 10
322.4961867912729
 20
243.5875466756018
 30
0.0
  0
ENDBLK
  5
E16
330
E0B
100
AcDbEntity
  8
0
100
AcDbBlockEnd
  0
BLOCK
  5
E23
330
E19
100
AcDbEntity
  8
0
100
AcDbBlockBegin
  2
*D44
 70
     1
 10
0.0
 20
0.0
 30
0.0
  3
*D44
  1

  0
LINE
  5
F3D
330
E19
100
AcDbEntity
  8
SUNPOU
100
AcDbLine
 10
258.7373366422461
 20
340.3507466756018
 30
0.0
 11
285.824148375083
 21
340.3507466756018
 31
0.0
  0
LINE
  5
F3E
330
E19
100
AcDbEntity
  8
SUNPOU
100
AcDbLine
 10
258.7373366422462
 20
315.3507466756018
 30
0.0
 11
285.824148375083
 21
315.3507466756018
 31
0.0
  0
LINE
  5
F3F
330
E19
100
AcDbEntity
  8
SUNPOU
100
AcDbLine
 10
282.824148375083
 20
333.3507466756018
 30
0.0
 11
282.824148375083
 21
322.3507466756018
 31
0.0
  0
INSERT
  5
F40
330
E19
100
AcDbEntity
  8
SUNPOU
100
AcDbBlockReference
  2
_OPEN
 10
282.824148375083
 20
340.3507466756018
 30
0.0
 41
7.0
 42
7.0
 43
7.0
 50
90.0
  0
INSERT
  5
F41
330
E19
100
AcDbEntity
  8
SUNPOU
100
AcDbBlockReference
  2
_OPEN
 10
282.824148375083
 20
315.3507466756018
 30
0.0
 41
7.0
 42
7.0
 43
7.0
 50
270.0
  0
MTEXT
  5
F42
330
E19
100
AcDbEntity
  8
SUNPOU
100
AcDbMText
 10
277.824148375083
 20
327.8507466756019
 30
0.0
 40
6.0
 41
0.0
 71
     5
 72
     1
  1
\A1;\U+203B25
 11
0.0000000000000001
 21
1.0
 31
0.0
  0
POINT
  5
F43
330
E19
100
AcDbEntity
  8
DEFPOINTS
 62
     0
100
AcDbPoint
 10
252.7373366422462
 20
340.3507466756018
 30
0.0
  0
POINT
  5
F44
330
E19
100
AcDbEntity
  8
DEFPOINTS
 62
     0
100
AcDbPoint
 10
252.7373366422462
 20
315.3507466756018
 30
0.0
  0
POINT
  5
F45
330
E19
100
AcDbEntity
  8
DEFPOINTS
 62
     0
100
AcDbPoint
 10
282.824148375083
 20
315.3507466756018
 30
0.0
  0
ENDBLK
  5
E24
330
E19
100
AcDbEntity
  8
0
100
AcDbBlockEnd
  0
BLOCK
  5
E30
330
E26
100
AcDbEntity
  8
0
100
AcDbBlockBegin
  2
*D45
 70
     1
 10
0.0
 20
0.0
 30
0.0
  3
*D45
  1

  0
LINE
  5
F46
330
E26
100
AcDbEntity
  8
SUNPOU
100
AcDbLine
 10
258.7373366422461
 20
340.3507466756018
 30
0.0
 11
305.3807894151223
 21
340.3507466756018
 31
0.0
  0
LINE
  5
F47
330
E26
100
AcDbEntity
  8
SUNPOU
100
AcDbLine
 10
258.7373366422462
 20
313.3507466756018
 30
0.0
 11
305.3807894151223
 21
313.3507466756018
 31
0.0
  0
LINE
  5
F48
330
E26
100
AcDbEntity
  8
SUNPOU
100
AcDbLine
 10
302.3807894151222
 20
333.3507466756018
 30
0.0
 11
302.3807894151222
 21
320.3507466756018
 31
0.0
  0
INSERT
  5
F49
330
E26
100
AcDbEntity
  8
SUNPOU
100
AcDbBlockReference
  2
_OPEN
 10
302.3807894151222
 20
340.3507466756018
 30
0.0
 41
7.0
 42
7.0
 43
7.0
 50
90.0
  0
INSERT
  5
F4A
330
E26
100
AcDbEntity
  8
SUNPOU
100
AcDbBlockReference
  2
_OPEN
 10
302.3807894151222
 20
313.3507466756018
 30
0.0
 41
7.0
 42
7.0
 43
7.0
 50
270.0
  0
MTEXT
  5
F4B
330
E26
100
AcDbEntity
  8
SUNPOU
100
AcDbMText
 10
297.3807894151222
 20
326.8507466756019
 30
0.0
 40
6.0
 41
0.0
 71
     5
 72
     1
  1
\A1;27
 11
0.0000000000000001
 21
1.0
 31
0.0
  0
POINT
  5
F4C
330
E26
100
AcDbEntity
  8
DEFPOINTS
 62
     0
100
AcDbPoint
 10
252.7373366422462
 20
340.3507466756018
 30
0.0
  0
POINT
  5
F4D
330
E26
100
AcDbEntity
  8
DEFPOINTS
 62
     0
100
AcDbPoint
 10
252.7373366422462
 20
313.3507466756018
 30
0.0
  0
POINT
  5
F4E
330
E26
100
AcDbEntity
  8
DEFPOINTS
 62
     0
100
AcDbPoint
 10
302.3807894151222
 20
313.3507466756018
 30
0.0
  0
ENDBLK
  5
E31
330
E26
100
AcDbEntity
  8
0
100
AcDbBlockEnd
  0
ENDSEC
  0
SECTION
  2
ENTITIES
  0
TEXT
  5
11A
330
1A
100
AcDbEntity
  8
ZUWAKU
 62
     7
 48
10.0
100
AcDbText
 10
795.5579444309237
 20
4.974918402528146
 30
0.0
 40
8.0
  1
A1
100
AcDbText
  0
LINE
  5
11B
330
1A
100
AcDbEntity
  8
ZUWAKU
 62
     7
 48
10.0
100
AcDbLine
 10
10.05047808566086
 20
25.78258628282265
 30
0.0
 11
806.0504780856609
 21
25.78258628282253
 31
0.0
  0
LINE
  5
11C
330
1A
100
AcDbEntity
  8
ZUWAKU
  6
CONTINUOUS
 62
     7
100
AcDbLine
 10
806.0504780856609
 20
563.7825862828226
 30
0.0
 11
10.05047808566086
 21
563.7825862828226
 31
0.0
  0
LINE
  5
11D
330
1A
100
AcDbEntity
  8
ZUWAKU
  6
CONTINUOUS
 62
     7
100
AcDbLine
 10
806.0504780856609
 20
13.78258628282265
 30
0.0
 11
10.05047808566086
 21
13.78258628282265
 31
0.0
  0
LINE
  5
11E
330
1A
100
AcDbEntity
  8
ZUWAKU
  6
CONTINUOUS
 62
     7
100
AcDbLine
 10
10.05047808566086
 20
563.7825862828226
 30
0.0
 11
10.05047808566086
 21
13.78258628282265
 31
0.0
  0
LINE
  5
11F
330
1A
100
AcDbEntity
  8
ZUWAKU
 62
     7
 48
10.0
100
AcDbLine
 10
44.55797523147839
 20
13.78258628282265
 30
0.0
 11
44.5579752314784
 21
25.78258628282265
 31
0.0
  0
TEXT
  5
120
330
1A
100
AcDbEntity
  8
ZUWAKU
 62
     7
100
AcDbText
 10
16.05676551180931
 20
15.52294263804401
 30
0.0
 40
8.0
  1
品 種
100
AcDbText
  0
LINE
  5
121
330
1A
100
AcDbEntity
  8
ZUWAKU
 62
     7
 48
10.0
100
AcDbLine
 10
276.1028387068254
 20
13.78258628282265
 30
0.0
 11
276.1028387068254
 21
25.78258628282261
 31
0.0
  0
LINE
  5
122
330
1A
100
AcDbEntity
  8
ZUWAKU
 62
     7
 48
10.0
100
AcDbLine
 10
209.5138526425484
 20
13.78258628282265
 30
0.0
 11
209.5138526425485
 21
25.78258628282263
 31
0.0
  0
TEXT
  5
124
330
1A
100
AcDbEntity
  8
ZUWAKU
 62
     7
100
AcDbText
 10
215.4560837190756
 20
16.18358115302453
 30
0.0
 40
8.0
  1
品名・ｻ ｲ ｽﾞ
100
AcDbText
  0
LINE
  5
126
330
1A
100
AcDbEntity
  8
ZUWAKU
 62
     7
 48
10.0
100
AcDbLine
 10
768.7231079932794
 20
13.78258628282237
 30
0.0
 11
768.7231079932794
 21
25.78258628282254
 31
0.0
  0
LINE
  5
127
330
1A
100
AcDbEntity
  8
ZUWAKU
 62
     7
 48
10.0
100
AcDbLine
 10
733.8119002376948
 20
13.78258628282242
 30
0.0
 11
733.8119002376946
 21
25.78258628282254
 31
0.0
  0
TEXT
  5
128
330
1A
100
AcDbEntity
  8
ZUWAKU
 62
     7
100
AcDbText
 10
739.6955629973526
 20
15.24227755810852
 30
0.0
 40
8.0
  1
尺 度
100
AcDbText
  0
TEXT
  5
129
330
1A
100
AcDbEntity
  8
ZUWAKU
 62
     7
100
AcDbText
 10
779.7374630323229
 20
15.55488920081529
 30
0.0
 40
8.0
  1
1/2
100
AcDbText
  0
TEXT
  5
12B
330
1A
100
AcDbEntity
  8
ZUWAKU
 62
     7
100
AcDbText
 10
620.3363288383084
 20
15.6519090944263
 30
0.0
 40
8.0
  1
品 番
100
AcDbText
  0
LINE
  5
12C
330
1A
100
AcDbEntity
  8
ZUWAKU
 62
     7
 48
10.0
100
AcDbLine
 10
614.3351028194128
 20
13.78258628282232
 30
0.0
 11
614.3351028194128
 21
25.78258628282256
 31
0.0
  0
LINE
  5
12D
330
1A
100
AcDbEntity
  8
ZUWAKU
 62
     7
 48
10.0
100
AcDbLine
 10
648.7607587371021
 20
13.78258628282232
 30
0.0
 11
648.7607587371021
 21
25.78258628282255
 31
0.0
  0
TEXT
  5
12E
330
1A
100
AcDbEntity
  8
ZUWAKU
 62
     7
 48
10.0
100
AcDbText
 10
646.2758615931216
 20
4.949376903717848
 30
0.0
 40
8.0
  1
積水化学工業株式会社  建材
100
AcDbText
  0
LINE
  5
12F
330
1A
100
AcDbEntity
  8
ZUWAKU
  6
CONTINUOUS
 62
     7
100
AcDbLine
 10
806.0504780856609
 20
563.7825862828226
 30
0.0
 11
806.0504780856609
 21
13.78258628282265
 31
0.0
  0
TEXT
  5
4B2
330
1A
100
AcDbEntity
  8
ZUWAKU
 62
     7
100
AcDbText
 10
50.3519382305086
 20
16.10306189639755
 30
0.0
 40
8.0
  1
丸トップ　たてとい
100
AcDbText
  0
LINE
  5
AD8
330
1A
100
AcDbEntity
  8
SEIHIN
  6
CONTINUOUS
 62
     3
 48
5.0
100
AcDbLine
 10
252.7373366422462
 20
303.8802466756018
 30
0.0
 11
256.3299366422463
 21
300.2875466756019
 31
0.0
  0
LINE
  5
AD9
330
1A
100
AcDbEntity
  8
CENTER_L
  6
CENTER
 62
     1
 48
5.0
100
AcDbLine
 10
221.0373366422462
 20
348.4776466756018
 30
0.0
 11
221.0372366422463
 21
283.4345466756018
 31
0.0
  0
LINE
  5
ADA
330
1A
100
AcDbEntity
  8
SEIHIN
  6
CONTINUOUS
 62
     3
 48
5.0
100
AcDbLine
 10
252.7373366422462
 20
303.8802466756018
 30
0.0
 11
208.5135366422462
 21
259.6565466756017
 31
0.0
  0
ARC
  5
ADB
330
1A
100
AcDbEntity
  8
SEIHIN
  6
CONTINUOUS
 62
     3
 48
5.0
100
AcDbCircle
 10
257.3372287788083
 20
306.9877656597825
 30
0.0
 40
67.99999213680312
100
AcDbArc
 50
179.9998474787692
 51
224.9998372564567
  0
TEXT
  5
AE0
330
1A
100
AcDbEntity
  8
ZUWAKU
 62
     7
100
AcDbText
 10
282.3131429914078
 20
15.64241700452384
 30
0.0
 40
8.0
  1
自在エルボ　ＵＴ６０
100
AcDbText
  0
LINE
  5
AE4
330
1A
100
AcDbEntity
  8
CENTER_L
  6
CENTER
 62
     1
 48
5.0
100
AcDbLine
 10
237.6154366422463
 20
270.1375466756017
 30
0.0
 11
296.8981366422461
 21
270.1375466756017
 31
0.0
  0
LINE
  5
AE5
330
1A
100
AcDbEntity
  8
SEIHIN
  6
CONTINUOUS
 62
     3
 48
5.0
100
AcDbLine
 10
288.2504366422462
 20
243.5875466756018
 30
0.0
 11
269.2504366422463
 21
243.5875466756018
 31
0.0
  0
LINE
  5
AE6
330
1A
100
AcDbEntity
  8
SEIHIN
  6
CONTINUOUS
 62
     3
 48
5.0
100
AcDbLine
 10
288.2504366422462
 20
296.6875466756018
 30
0.0
 11
269.2504366422463
 21
296.6875466756018
 31
0.0
  0
ARC
  5
AE8
330
1A
100
AcDbEntity
  8
SEIHIN
  6
CONTINUOUS
 62
     3
 48
5.0
100
AcDbCircle
 10
256.3374556260769
 20
307.9875388121907
 30
0.0
 40
67.99999213669301
100
AcDbArc
 50
224.9998052651878
 51
269.9998997459982
  0
LINE
  5
AE9
330
1A
100
AcDbEntity
  8
SEIHIN
  6
CONTINUOUS
 62
     3
 48
5.0
100
AcDbLine
 10
258.2504366422463
 20
239.9875466756018
 30
0.0
 11
258.2504366422463
 21
300.2875466756019
 31
0.0
  0
LINE
  5
AEA
330
1A
100
AcDbEntity
  8
SEIHIN
  6
CONTINUOUS
 62
     3
 48
5.0
100
AcDbLine
 10
266.2504366422463
 20
242.5874466756018
 30
0.0
 11
266.2504366422463
 21
270.1374466756018
 31
0.0
  0
LINE
  5
AEB
330
1A
100
AcDbEntity
  8
SEIHIN
  6
CONTINUOUS
 62
     3
 48
5.0
100
AcDbLine
 10
264.2504366422463
 20
242.5874466756018
 30
0.0
 11
264.2504366422463
 21
270.1374466756018
 31
0.0
  0
LINE
  5
AEC
330
1A
100
AcDbEntity
  8
SEIHIN
  6
CONTINUOUS
 62
     3
 48
5.0
100
AcDbLine
 10
269.2504366422463
 20
243.5874466756018
 30
0.0
 11
266.2504366422463
 21
270.1374466756018
 31
0.0
  0
LINE
  5
AED
330
1A
100
AcDbEntity
  8
SEIHIN
  6
CONTINUOUS
 62
     3
 48
5.0
100
AcDbLine
 10
261.2504366422462
 20
243.5874466756018
 30
0.0
 11
264.2504366422463
 21
270.1374466756018
 31
0.0
  0
LINE
  5
AEE
330
1A
100
AcDbEntity
  8
SEIHIN
  6
CONTINUOUS
 62
     3
 48
5.0
100
AcDbLine
 10
264.2504366422463
 20
242.5874466756018
 30
0.0
 11
261.2504366422462
 21
243.5874466756018
 31
0.0
  0
LINE
  5
AEF
330
1A
100
AcDbEntity
  8
SEIHIN
  6
CONTINUOUS
 62
     3
 48
5.0
100
AcDbLine
 10
266.2504366422463
 20
242.5874466756018
 30
0.0
 11
269.2504366422463
 21
243.5874466756018
 31
0.0
  0
LINE
  5
AF0
330
1A
100
AcDbEntity
  8
SEIHIN
  6
CONTINUOUS
 62
     3
 48
5.0
100
AcDbLine
 10
258.2504366422463
 20
239.9875466756018
 30
0.0
 11
256.3374366422463
 21
239.9875466756018
 31
0.0
  0
LINE
  5
AF1
330
1A
100
AcDbEntity
  8
SEIHIN
  6
CONTINUOUS
 62
     3
 48
5.0
100
AcDbLine
 10
264.2504366422463
 20
242.5875466756018
 30
0.0
 11
266.2504366422463
 21
242.5875466756018
 31
0.0
  0
LINE
  5
AF2
330
1A
100
AcDbEntity
  8
SEIHIN
  6
CONTINUOUS
 62
     3
 48
5.0
100
AcDbLine
 10
261.2504366422462
 20
243.5875466756018
 30
0.0
 11
258.2504366422463
 21
243.5875466756018
 31
0.0
  0
LINE
  5
AF3
330
1A
100
AcDbEntity
  8
CENTER_L
  6
CENTER
 62
     1
 48
5.0
100
AcDbLine
 10
218.1300366422461
 20
294.2579466756018
 30
0.0
 11
244.4721366422462
 21
267.9158466756017
 31
0.0
  0
LINE
  5
AF4
330
1A
100
AcDbEntity
  8
SEIHIN
  6
CONTINUOUS
 62
     3
 48
5.0
100
AcDbLine
 10
209.2539366422463
 20
258.9045466756017
 30
0.0
 11
211.8826366422462
 21
256.2758466756018
 31
0.0
  0
LINE
  5
AF5
330
1A
100
AcDbEntity
  8
SEIHIN
  6
CONTINUOUS
 62
     3
 48
5.0
100
AcDbLine
 10
261.2504366422462
 20
296.6876466756017
 30
0.0
 11
264.2504366422463
 21
270.1376466756018
 31
0.0
  0
LINE
  5
AF6
330
1A
100
AcDbEntity
  8
SEIHIN
  6
CONTINUOUS
 62
     3
 48
5.0
100
AcDbLine
 10
269.2504366422463
 20
296.6876466756017
 30
0.0
 11
266.2504366422463
 21
270.1376466756018
 31
0.0
  0
LINE
  5
AF7
330
1A
100
AcDbEntity
  8
SEIHIN
  6
CONTINUOUS
 62
     3
 48
5.0
100
AcDbLine
 10
264.2504366422463
 20
297.6876466756017
 30
0.0
 11
264.2504366422463
 21
270.1376466756018
 31
0.0
  0
LINE
  5
AF8
330
1A
100
AcDbEntity
  8
SEIHIN
  6
CONTINUOUS
 62
     3
 48
5.0
100
AcDbLine
 10
266.2504366422463
 20
297.6876466756017
 30
0.0
 11
266.2504366422463
 21
270.1376466756018
 31
0.0
  0
LINE
  5
AF9
330
1A
100
AcDbEntity
  8
SEIHIN
  6
CONTINUOUS
 62
     3
 48
5.0
100
AcDbLine
 10
264.2504366422463
 20
297.6876466756017
 30
0.0
 11
261.2504366422462
 21
296.6876466756017
 31
0.0
  0
LINE
  5
AFA
330
1A
100
AcDbEntity
  8
SEIHIN
  6
CONTINUOUS
 62
     3
 48
5.0
100
AcDbLine
 10
261.2504366422462
 20
296.6875466756018
 30
0.0
 11
258.2504366422463
 21
296.6875466756018
 31
0.0
  0
LINE
  5
AFB
330
1A
100
AcDbEntity
  8
SEIHIN
  6
CONTINUOUS
 62
     3
 48
5.0
100
AcDbLine
 10
256.3299366422463
 20
300.2875466756019
 30
0.0
 11
258.2504366422463
 21
300.2875466756019
 31
0.0
  0
LINE
  5
AFC
330
1A
100
AcDbEntity
  8
SEIHIN
  6
CONTINUOUS
 62
     3
 48
5.0
100
AcDbLine
 10
266.2504366422463
 20
297.6876466756017
 30
0.0
 11
269.2504366422463
 21
296.6876466756017
 31
0.0
  0
LINE
  5
AFD
330
1A
100
AcDbEntity
  8
SEIHIN
  6
CONTINUOUS
 62
     3
 48
5.0
100
AcDbLine
 10
264.2504366422463
 20
297.6875466756017
 30
0.0
 11
266.2504366422463
 21
297.6875466756017
 31
0.0
  0
LINE
  5
AFF
330
1A
100
AcDbEntity
  8
SEIHIN
  6
CONTINUOUS
 62
     3
 48
5.0
100
AcDbLine
 10
278.6438366422462
 20
270.1374466756018
 30
0.0
 11
281.6437366422462
 21
243.5874466756018
 31
0.0
  0
LINE
  5
B00
330
1A
100
AcDbEntity
  8
SEIHIN
  6
CONTINUOUS
 62
     3
 48
5.0
100
AcDbLine
 10
281.7504366422463
 20
270.1374466756018
 30
0.0
 11
281.7503366422463
 21
243.5874466756018
 31
0.0
  0
LINE
  5
B01
330
1A
100
AcDbEntity
  8
SEIHIN
  6
CONTINUOUS
 62
     3
 48
5.0
100
AcDbLine
 10
288.2504366422462
 20
270.1375466756017
 30
0.0
 11
288.2504366422462
 21
243.5875466756018
 31
0.0
  0
LINE
  5
B02
330
1A
100
AcDbEntity
  8
SEIHIN
  6
CONTINUOUS
 62
     3
 48
5.0
100
AcDbLine
 10
286.8570366422461
 20
270.1374466756018
 30
0.0
 11
283.8569366422463
 21
243.5874466756018
 31
0.0
  0
LINE
  5
B03
330
1A
100
AcDbEntity
  8
SEIHIN
  6
CONTINUOUS
 62
     3
 48
5.0
100
AcDbLine
 10
283.7504366422463
 20
270.1374466756018
 30
0.0
 11
283.7503366422461
 21
243.5874466756018
 31
0.0
  0
LINE
  5
B04
330
1A
100
AcDbEntity
  8
SEIHIN
  6
CONTINUOUS
 62
     3
 48
5.0
100
AcDbLine
 10
283.7504366422463
 20
270.1374466756018
 30
0.0
 11
283.7503366422461
 21
243.5874466756018
 31
0.0
  0
LINE
  5
B05
330
1A
100
AcDbEntity
  8
SEIHIN
  6
CONTINUOUS
 62
     3
 48
5.0
100
AcDbLine
 10
288.2504366422462
 20
270.1375466756017
 30
0.0
 11
288.2504366422462
 21
296.6875466756018
 31
0.0
  0
LINE
  5
B06
330
1A
100
AcDbEntity
  8
SEIHIN
  6
CONTINUOUS
 62
     3
 48
5.0
100
AcDbLine
 10
281.7504366422463
 20
270.1376466756018
 30
0.0
 11
281.7503366422463
 21
296.6876466756017
 31
0.0
  0
LINE
  5
B07
330
1A
100
AcDbEntity
  8
SEIHIN
  6
CONTINUOUS
 62
     3
 48
5.0
100
AcDbLine
 10
283.7504366422463
 20
270.1376466756018
 30
0.0
 11
283.7503366422461
 21
296.6876466756017
 31
0.0
  0
LINE
  5
B08
330
1A
100
AcDbEntity
  8
SEIHIN
  6
CONTINUOUS
 62
     3
 48
5.0
100
AcDbLine
 10
286.8570366422461
 20
270.1375466756017
 30
0.0
 11
283.8569366422463
 21
296.6876466756017
 31
0.0
  0
LINE
  5
B09
330
1A
100
AcDbEntity
  8
SEIHIN
  6
CONTINUOUS
 62
     3
 48
5.0
100
AcDbLine
 10
283.7504366422463
 20
270.1376466756018
 30
0.0
 11
283.7503366422461
 21
296.6876466756017
 31
0.0
  0
LINE
  5
B0A
330
1A
100
AcDbEntity
  8
SEIHIN
  6
CONTINUOUS
 62
     3
 48
5.0
100
AcDbLine
 10
278.6438366422462
 20
270.1375466756017
 30
0.0
 11
281.6437366422462
 21
296.6876466756017
 31
0.0
  0
LINE
  5
B0C
330
1A
100
AcDbEntity
  8
SEIHIN
  6
CONTINUOUS
 62
     3
 48
5.0
100
AcDbLine
 10
221.0372366422463
 20
313.3507466756018
 30
0.0
 11
189.3372366422462
 21
313.3509466756017
 31
0.0
  0
LINE
  5
B0D
330
1A
100
AcDbEntity
  8
SEIHIN
  6
CONTINUOUS
 62
     3
 48
5.0
100
AcDbLine
 10
221.0373366422462
 20
340.3507466756018
 30
0.0
 11
189.3373366422463
 21
340.3508466756016
 31
0.0
  0
LINE
  5
B0E
330
1A
100
AcDbEntity
  8
SEIHIN
  6
CONTINUOUS
 62
     3
 48
5.0
100
AcDbLine
 10
189.3373366422463
 20
340.3509466756016
 30
0.0
 11
189.3372366422462
 21
306.9879466756017
 31
0.0
  0
LINE
  5
B0F
330
1A
100
AcDbEntity
  8
SEIHIN
  6
CONTINUOUS
 62
     3
 48
5.0
100
AcDbLine
 10
187.6373366422462
 20
335.3508466756018
 30
0.0
 11
189.3373366422463
 21
335.3508466756018
 31
0.0
  0
LINE
  5
B10
330
1A
100
AcDbEntity
  8
SEIHIN
  6
CONTINUOUS
 62
     3
 48
5.0
100
AcDbLine
 10
189.3373366422463
 20
340.3509466756016
 30
0.0
 11
187.6373366422462
 21
335.3508466756018
 31
0.0
  0
POINT
  5
B11
330
1A
100
AcDbEntity
  8
SEIHIN
  6
CONTINUOUS
 62
     3
 48
5.0
100
AcDbPoint
 10
187.6373366422462
 20
335.3508466756018
 30
0.0
  0
POINT
  5
B12
330
1A
100
AcDbEntity
  8
SEIHIN
  6
CONTINUOUS
 62
     3
 48
5.0
100
AcDbPoint
 10
189.3373366422463
 20
340.3508466756016
 30
0.0
  0
LINE
  5
B15
330
1A
100
AcDbEntity
  8
SEIHIN
  6
CONTINUOUS
 62
     3
 48
5.0
100
AcDbLine
 10
221.0373366422462
 20
313.3507466756018
 30
0.0
 11
252.7373366422462
 21
313.3507466756018
 31
0.0
  0
LINE
  5
B16
330
1A
100
AcDbEntity
  8
SEIHIN
  6
CONTINUOUS
 62
     3
 48
5.0
100
AcDbLine
 10
221.0373366422462
 20
340.3507466756018
 30
0.0
 11
252.7373366422462
 21
340.3507466756018
 31
0.0
  0
LINE
  5
B17
330
1A
100
AcDbEntity
  8
SEIHIN
  6
CONTINUOUS
 62
     3
 48
5.0
100
AcDbLine
 10
252.7373366422462
 20
340.3507466756018
 30
0.0
 11
252.7373366422462
 21
303.8802466756018
 31
0.0
  0
LINE
  5
B18
330
1A
100
AcDbEntity
  8
SEIHIN
  6
CONTINUOUS
 62
     3
 48
5.0
100
AcDbLine
 10
254.4373366422462
 20
335.3507466756018
 30
0.0
 11
252.7373366422462
 21
335.3507466756018
 31
0.0
  0
LINE
  5
B19
330
1A
100
AcDbEntity
  8
SEIHIN
  6
CONTINUOUS
 62
     3
 48
5.0
100
AcDbLine
 10
252.7373366422462
 20
340.3507466756018
 30
0.0
 11
254.4373366422462
 21
335.3507466756018
 31
0.0
  0
LINE
  5
B1B
330
1A
100
AcDbEntity
  8
CENTER_L
  6
CENTER
 62
     1
 48
5.0
100
AcDbLine
 10
645.1504422200073
 20
272.7768466756017
 30
0.0
 11
645.1503422200076
 21
220.4857466756017
 31
0.0
  0
ARC
  5
B1C
330
1A
100
AcDbEntity
  8
SEIHIN
  6
CONTINUOUS
 62
     3
 48
5.0
100
AcDbCircle
 10
607.3003356914987
 20
256.050762555404
 30
0.0
 40
68.00000652978059
100
AcDbArc
 50
359.999649585954
 51
44.6974392699933
  0
LINE
  5
B1D
330
1A
100
AcDbEntity
  8
SEIHIN
  6
CONTINUOUS
 62
     3
 48
5.0
100
AcDbLine
 10
436.0034182590379
 20
270.1375466756017
 30
0.0
 11
437.5534182590381
 21
313.3507466756018
 31
0.0
  0
LINE
  5
B1E
330
1A
100
AcDbEntity
  8
SEIHIN
  6
CONTINUOUS
 62
     3
 48
5.0
100
AcDbLine
 10
375.7034182590382
 20
270.1375466756017
 30
0.0
 11
374.153418259038
 21
313.3507466756018
 31
0.0
  0
LINE
  5
B1F
330
1A
100
AcDbEntity
  8
CENTER_L
  6
CENTER
 62
     1
 48
5.0
100
AcDbLine
 10
405.8534182590383
 20
348.4776466756018
 30
0.0
 11
405.8532182590384
 21
232.0698466756017
 31
0.0
  0
ARC
  5
B20
330
1A
100
AcDbEntity
  8
SEIHIN
  6
CONTINUOUS
 62
     3
 48
5.0
100
AcDbCircle
 10
660.2371990013899
 20
306.9878510153154
 30
0.0
 40
67.99995678144954
100
AcDbArc
 50
179.9999193980278
 51
224.9999687553624
  0
ARC
  5
B21
330
1A
100
AcDbEntity
  8
SEIHIN
  6
CONTINUOUS
 62
     3
 48
5.0
100
AcDbCircle
 10
405.8535130238692
 20
273.7302466757322
 30
0.0
 40
30.15001121873718
100
AcDbArc
 50
356.5828433071295
 51
183.4143010846753
  0
LINE
  5
B22
330
1A
100
AcDbEntity
  8
SEIHIN
  6
CONTINUOUS
 62
     3
 48
5.0
100
AcDbLine
 10
655.6373422200072
 20
303.8802466756018
 30
0.0
 11
611.413542220007
 21
259.6565466756016
 31
0.0
  0
TEXT
  5
B23
330
1A
100
AcDbEntity
  8
SUNPOU
  6
CONTINUOUS
 62
     4
100
AcDbText
 10
620.5965311405179
 20
39.83032629390425
 30
0.0
 40
8.0
  1
※　たてといの差込み寸法を示す。
100
AcDbText
  0
TEXT
  5
B24
330
1A
100
AcDbEntity
  8
ZUWAKU
 62
     7
100
AcDbText
 10
654.2531733678779
 20
15.90287984531516
 30
0.0
 40
8.0
  1
ＧＧ２１
100
AcDbText
  0
LINE
  5
B28
330
1A
100
AcDbEntity
  8
CENTER_L
  6
CENTER
 62
     1
 48
5.0
100
AcDbLine
 10
366.9870182590382
 20
270.1375466756017
 30
0.0
 11
443.2182182590381
 21
270.1375466756017
 31
0.0
  0
ARC
  5
B29
330
1A
100
AcDbEntity
  8
SEIHIN
  6
CONTINUOUS
 62
     3
 48
5.0
100
AcDbCircle
 10
405.8535031278934
 20
287.620446675665
 30
0.0
 40
26.54997501665153
100
AcDbArc
 50
199.2228501513741
 51
340.7766927558513
  0
ARC
  5
B2A
330
1A
100
AcDbEntity
  8
SEIHIN
  6
CONTINUOUS
 62
     3
 48
5.0
100
AcDbCircle
 10
405.8534719943914
 20
271.1375466726329
 30
0.0
 40
28.14997143479653
100
AcDbArc
 50
43.56271327059316
 51
136.4311068639922
  0
ARC
  5
B2B
330
1A
100
AcDbEntity
  8
SEIHIN
  6
CONTINUOUS
 62
     3
 48
5.0
100
AcDbCircle
 10
405.8534451556506
 20
269.1375466763447
 30
0.0
 40
28.14999088117017
100
AcDbArc
 50
223.5657654706819
 51
316.4373243787115
  0
ARC
  5
B2C
330
1A
100
AcDbEntity
  8
SEIHIN
  6
CONTINUOUS
 62
     3
 48
5.0
100
AcDbCircle
 10
406.8534182590383
 20
270.1375466756906
 30
0.0
 40
28.15000000008883
100
AcDbArc
 50
270.0
 51
89.99979646259566
  0
ARC
  5
B2D
330
1A
100
AcDbEntity
  8
SEIHIN
  6
CONTINUOUS
 62
     3
 48
5.0
100
AcDbCircle
 10
405.8534182731191
 20
270.1374966756018
 30
0.0
 40
28.14999998596356
100
AcDbArc
 50
0.000101768702172
 51
359.9998982312978
  0
ARC
  5
B2E
330
1A
100
AcDbEntity
  8
SEIHIN
  6
CONTINUOUS
 62
     3
 48
5.0
100
AcDbCircle
 10
405.8534182731473
 20
270.1374966756018
 30
0.0
 40
26.54999998593776
100
AcDbArc
 50
0.0001079016567604
 51
359.9998920983432
  0
ARC
  5
B2F
330
1A
100
AcDbEntity
  8
SEIHIN
  6
CONTINUOUS
 62
     3
 48
5.0
100
AcDbCircle
 10
405.8534182738476
 20
270.1374966756018
 30
0.0
 40
30.14999998523204
100
AcDbArc
 50
0.0000950178768486
 51
359.9999049821231
  0
ARC
  5
B30
330
1A
100
AcDbEntity
  8
SEIHIN
  6
CONTINUOUS
 62
     3
 48
5.0
100
AcDbCircle
 10
404.8532182590381
 20
270.137546675513
 30
0.0
 40
28.15000000008883
100
AcDbArc
 50
90.0
 51
269.9997964625956
  0
LINE
  5
B35
330
1A
100
AcDbEntity
  8
SEIHIN
  6
CONTINUOUS
 62
     3
 48
5.0
100
AcDbLine
 10
672.700442220007
 20
246.1374466756018
 30
0.0
 11
645.1505422200071
 21
246.1375466756016
 31
0.0
  0
LINE
  5
B36
330
1A
100
AcDbEntity
  8
SEIHIN
  6
CONTINUOUS
 62
     3
 48
5.0
100
AcDbLine
 10
672.700442220007
 20
248.1374466756018
 30
0.0
 11
645.1505422200071
 21
248.1375466756016
 31
0.0
  0
LINE
  5
B37
330
1A
100
AcDbEntity
  8
SEIHIN
  6
CONTINUOUS
 62
     3
 48
5.0
100
AcDbLine
 10
671.700442220007
 20
243.1373466756017
 30
0.0
 11
645.1505422200071
 21
246.1375466756016
 31
0.0
  0
LINE
  5
B38
330
1A
100
AcDbEntity
  8
SEIHIN
  6
CONTINUOUS
 62
     3
 48
5.0
100
AcDbLine
 10
671.700442220007
 20
251.1374466756017
 30
0.0
 11
645.1505422200071
 21
248.1375466756016
 31
0.0
  0
LINE
  5
B39
330
1A
100
AcDbEntity
  8
SEIHIN
  6
CONTINUOUS
 62
     3
 48
5.0
100
AcDbLine
 10
645.1502422200073
 20
224.1375466756017
 30
0.0
 11
671.7002422200071
 21
224.1374466756017
 31
0.0
  0
LINE
  5
B3A
330
1A
100
AcDbEntity
  8
SEIHIN
  6
CONTINUOUS
 62
     3
 48
5.0
100
AcDbLine
 10
645.1503422200076
 20
225.5309466756017
 30
0.0
 11
671.700442220007
 21
228.5309466756017
 31
0.0
  0
LINE
  5
B3B
330
1A
100
AcDbEntity
  8
SEIHIN
  6
CONTINUOUS
 62
     3
 48
5.0
100
AcDbLine
 10
645.1503422200076
 20
228.6374466756017
 30
0.0
 11
671.700442220007
 21
228.6375466756016
 31
0.0
  0
LINE
  5
B3C
330
1A
100
AcDbEntity
  8
SEIHIN
  6
CONTINUOUS
 62
     3
 48
5.0
100
AcDbLine
 10
645.1503422200076
 20
228.6374466756017
 30
0.0
 11
671.700442220007
 21
228.6375466756016
 31
0.0
  0
LINE
  5
B3D
330
1A
100
AcDbEntity
  8
SEIHIN
  6
CONTINUOUS
 62
     3
 48
5.0
100
AcDbLine
 10
645.1503422200076
 20
230.6374466756017
 30
0.0
 11
671.700442220007
 21
230.6375466756017
 31
0.0
  0
LINE
  5
B3E
330
1A
100
AcDbEntity
  8
SEIHIN
  6
CONTINUOUS
 62
     3
 48
5.0
100
AcDbLine
 10
645.1503422200076
 20
233.7441466756017
 30
0.0
 11
671.700442220007
 21
230.7440466756017
 31
0.0
  0
LINE
  5
B3F
330
1A
100
AcDbEntity
  8
SEIHIN
  6
CONTINUOUS
 62
     3
 48
5.0
100
AcDbLine
 10
675.3003422200072
 20
254.1373466756017
 30
0.0
 11
615.000342220007
 21
254.1376466756016
 31
0.0
  0
LINE
  5
B40
330
1A
100
AcDbEntity
  8
SEIHIN
  6
CONTINUOUS
 62
     3
 48
5.0
100
AcDbLine
 10
645.1502422200073
 20
224.1375466756017
 30
0.0
 11
618.6001422200074
 21
224.1376466756018
 31
0.0
  0
LINE
  5
B41
330
1A
100
AcDbEntity
  8
SEIHIN
  6
CONTINUOUS
 62
     3
 48
5.0
100
AcDbLine
 10
645.1502422200073
 20
228.6374466756017
 30
0.0
 11
618.6001422200074
 21
228.6377466756017
 31
0.0
  0
LINE
  5
B42
330
1A
100
AcDbEntity
  8
SEIHIN
  6
CONTINUOUS
 62
     3
 48
5.0
100
AcDbLine
 10
645.1502422200073
 20
225.5309466756017
 30
0.0
 11
618.6001422200074
 21
228.5311466756017
 31
0.0
  0
LINE
  5
B43
330
1A
100
AcDbEntity
  8
SEIHIN
  6
CONTINUOUS
 62
     3
 48
5.0
100
AcDbLine
 10
645.1502422200073
 20
228.6374466756017
 30
0.0
 11
618.6001422200074
 21
228.6377466756017
 31
0.0
  0
LINE
  5
B44
330
1A
100
AcDbEntity
  8
SEIHIN
  6
CONTINUOUS
 62
     3
 48
5.0
100
AcDbLine
 10
617.6003422200074
 20
248.1376466756016
 30
0.0
 11
645.1503422200076
 21
248.1375466756016
 31
0.0
  0
LINE
  5
B45
330
1A
100
AcDbEntity
  8
SEIHIN
  6
CONTINUOUS
 62
     3
 48
5.0
100
AcDbLine
 10
617.6003422200074
 20
246.1376466756016
 30
0.0
 11
645.1503422200076
 21
246.1375466756016
 31
0.0
  0
LINE
  5
B46
330
1A
100
AcDbEntity
  8
SEIHIN
  6
CONTINUOUS
 62
     3
 48
5.0
100
AcDbLine
 10
618.6003422200074
 20
251.1376466756018
 30
0.0
 11
645.1503422200076
 21
248.1375466756016
 31
0.0
  0
LINE
  5
B47
330
1A
100
AcDbEntity
  8
SEIHIN
  6
CONTINUOUS
 62
     3
 48
5.0
100
AcDbLine
 10
618.6003422200074
 20
243.1375466756017
 30
0.0
 11
645.1503422200076
 21
246.1375466756016
 31
0.0
  0
LINE
  5
B48
330
1A
100
AcDbEntity
  8
SEIHIN
  6
CONTINUOUS
 62
     3
 48
5.0
100
AcDbLine
 10
645.1502422200073
 20
230.6374466756017
 30
0.0
 11
618.6001422200074
 21
230.6377466756017
 31
0.0
  0
LINE
  5
B49
330
1A
100
AcDbEntity
  8
SEIHIN
  6
CONTINUOUS
 62
     3
 48
5.0
100
AcDbLine
 10
645.1503422200076
 20
233.7441466756017
 30
0.0
 11
618.6001422200074
 21
230.7443466756018
 31
0.0
  0
LINE
  5
B4A
330
1A
100
AcDbEntity
  8
SEIHIN
  6
CONTINUOUS
 62
     3
 48
5.0
100
AcDbLine
 10
618.6001422200074
 20
224.1376466756018
 30
0.0
 11
618.6003422200074
 21
243.1375466756017
 31
0.0
  0
LINE
  5
B4B
330
1A
100
AcDbEntity
  8
SEIHIN
  6
CONTINUOUS
 62
     3
 48
5.0
100
AcDbLine
 10
615.0004422200072
 20
256.0581466756017
 30
0.0
 11
615.000342220007
 21
254.1376466756016
 31
0.0
  0
LINE
  5
B4C
330
1A
100
AcDbEntity
  8
SEIHIN
  6
CONTINUOUS
 62
     3
 48
5.0
100
AcDbLine
 10
611.4077422200071
 20
259.6507466756016
 30
0.0
 11
615.0004422200072
 21
256.0581466756017
 31
0.0
  0
LINE
  5
B4D
330
1A
100
AcDbEntity
  8
SEIHIN
  6
CONTINUOUS
 62
     3
 48
5.0
100
AcDbLine
 10
617.6003422200074
 20
248.1376466756016
 30
0.0
 11
618.6003422200074
 21
251.1376466756018
 31
0.0
  0
LINE
  5
B4E
330
1A
100
AcDbEntity
  8
SEIHIN
  6
CONTINUOUS
 62
     3
 48
5.0
100
AcDbLine
 10
617.6003422200074
 20
246.1376466756016
 30
0.0
 11
618.6003422200074
 21
243.1375466756017
 31
0.0
  0
LINE
  5
B4F
330
1A
100
AcDbEntity
  8
SEIHIN
  6
CONTINUOUS
 62
     3
 48
5.0
100
AcDbLine
 10
617.6003422200074
 20
248.1376466756016
 30
0.0
 11
617.6003422200074
 21
246.1376466756016
 31
0.0
  0
LINE
  5
B50
330
1A
100
AcDbEntity
  8
SEIHIN
  6
CONTINUOUS
 62
     3
 48
5.0
100
AcDbLine
 10
618.6003422200074
 20
251.1376466756018
 30
0.0
 11
618.6003422200074
 21
254.1376466756016
 31
0.0
  0
LINE
  5
B51
330
1A
100
AcDbEntity
  8
SEIHIN
  6
CONTINUOUS
 62
     3
 48
5.0
100
AcDbLine
 10
671.7002422200071
 20
224.1374466756017
 30
0.0
 11
671.700442220007
 21
243.1373466756017
 31
0.0
  0
LINE
  5
B52
330
1A
100
AcDbEntity
  8
SEIHIN
  6
CONTINUOUS
 62
     3
 48
5.0
100
AcDbLine
 10
672.700442220007
 20
248.1374466756018
 30
0.0
 11
671.700442220007
 21
251.1374466756017
 31
0.0
  0
LINE
  5
B53
330
1A
100
AcDbEntity
  8
SEIHIN
  6
CONTINUOUS
 62
     3
 48
5.0
100
AcDbLine
 10
672.700442220007
 20
246.1374466756018
 30
0.0
 11
671.700442220007
 21
243.1373466756017
 31
0.0
  0
LINE
  5
B54
330
1A
100
AcDbEntity
  8
SEIHIN
  6
CONTINUOUS
 62
     3
 48
5.0
100
AcDbLine
 10
672.700442220007
 20
248.1374466756018
 30
0.0
 11
672.700442220007
 21
246.1374466756018
 31
0.0
  0
LINE
  5
B55
330
1A
100
AcDbEntity
  8
SEIHIN
  6
CONTINUOUS
 62
     3
 48
5.0
100
AcDbLine
 10
671.700442220007
 20
251.1374466756017
 30
0.0
 11
671.700442220007
 21
254.1374466756018
 31
0.0
  0
LINE
  5
B56
330
1A
100
AcDbEntity
  8
SEIHIN
  6
CONTINUOUS
 62
     3
 48
5.0
100
AcDbLine
 10
675.3003422200072
 20
254.1373466756017
 30
0.0
 11
675.3003422200072
 21
256.0504466756018
 31
0.0
  0
LINE
  5
B58
330
1A
100
AcDbEntity
  8
SEIHIN
  6
CONTINUOUS
 62
     3
 48
5.0
100
AcDbLine
 10
623.9372422200071
 20
313.3507466756017
 30
0.0
 11
592.2372422200074
 21
313.3509466756017
 31
0.0
  0
LINE
  5
B59
330
1A
100
AcDbEntity
  8
SEIHIN
  6
CONTINUOUS
 62
     3
 48
5.0
100
AcDbLine
 10
623.9373422200074
 20
340.3507466756017
 30
0.0
 11
592.2373422200071
 21
340.3508466756016
 31
0.0
  0
LINE
  5
B5A
330
1A
100
AcDbEntity
  8
SEIHIN
  6
CONTINUOUS
 62
     3
 48
5.0
100
AcDbLine
 10
405.8534182590383
 20
313.3507466756018
 30
0.0
 11
437.5534182590381
 21
313.3507466756018
 31
0.0
  0
LINE
  5
B5B
330
1A
100
AcDbEntity
  8
SEIHIN
  6
CONTINUOUS
 62
     3
 48
5.0
100
AcDbLine
 10
405.8534182590383
 20
340.3507466756018
 30
0.0
 11
437.5534182590381
 21
340.3507466756018
 31
0.0
  0
LINE
  5
B5C
330
1A
100
AcDbEntity
  8
SEIHIN
  6
CONTINUOUS
 62
     3
 48
5.0
100
AcDbLine
 10
405.8533182590381
 20
313.3507466756018
 30
0.0
 11
374.1533182590383
 21
313.3509466756017
 31
0.0
  0
LINE
  5
B5D
330
1A
100
AcDbEntity
  8
SEIHIN
  6
CONTINUOUS
 62
     3
 48
5.0
100
AcDbLine
 10
405.8534182590383
 20
340.3507466756018
 30
0.0
 11
374.153418259038
 21
340.3508466756016
 31
0.0
  0
LINE
  5
B5E
330
1A
100
AcDbEntity
  8
SEIHIN
  6
CONTINUOUS
 62
     3
 48
5.0
100
AcDbLine
 10
374.153418259038
 20
340.3509466756016
 30
0.0
 11
374.153418259038
 21
313.3508466756016
 31
0.0
  0
LINE
  5
B5F
330
1A
100
AcDbEntity
  8
SEIHIN
  6
CONTINUOUS
 62
     3
 48
5.0
100
AcDbLine
 10
403.3534182590381
 20
335.3507466756018
 30
0.0
 11
405.8534182590383
 21
335.3507466756018
 31
0.0
  0
LINE
  5
B60
330
1A
100
AcDbEntity
  8
SEIHIN
  6
CONTINUOUS
 62
     3
 48
5.0
100
AcDbLine
 10
404.8534182590383
 20
340.3508466756016
 30
0.0
 11
403.3534182590381
 21
335.3507466756018
 31
0.0
  0
LINE
  5
B61
330
1A
100
AcDbEntity
  8
SEIHIN
  6
CONTINUOUS
 62
     3
 48
5.0
100
AcDbLine
 10
406.8534182590383
 20
340.3507466756018
 30
0.0
 11
408.3534182590383
 21
335.3507466756018
 31
0.0
  0
LINE
  5
B62
330
1A
100
AcDbEntity
  8
SEIHIN
  6
CONTINUOUS
 62
     3
 48
5.0
100
AcDbLine
 10
408.3534182590383
 20
335.3507466756018
 30
0.0
 11
405.8534182590383
 21
335.3507466756018
 31
0.0
  0
LINE
  5
B63
330
1A
100
AcDbEntity
  8
SEIHIN
  6
CONTINUOUS
 62
     3
 48
5.0
100
AcDbLine
 10
437.5534182590381
 20
340.3507466756018
 30
0.0
 11
437.5534182590381
 21
313.3507466756018
 31
0.0
  0
LINE
  5
B64
330
1A
100
AcDbEntity
  8
SEIHIN
  6
CONTINUOUS
 62
     3
 48
5.0
100
AcDbLine
 10
592.2373422200071
 20
340.3509466756016
 30
0.0
 11
592.2372422200074
 21
306.9879466756016
 31
0.0
  0
LINE
  5
B65
330
1A
100
AcDbEntity
  8
SEIHIN
  6
CONTINUOUS
 62
     3
 48
5.0
100
AcDbLine
 10
590.5373422200073
 20
335.3508466756017
 30
0.0
 11
592.2373422200071
 21
335.3508466756017
 31
0.0
  0
LINE
  5
B66
330
1A
100
AcDbEntity
  8
SEIHIN
  6
CONTINUOUS
 62
     3
 48
5.0
100
AcDbLine
 10
592.2373422200071
 20
340.3509466756016
 30
0.0
 11
590.5373422200073
 21
335.3508466756017
 31
0.0
  0
LINE
  5
B68
330
1A
100
AcDbEntity
  8
SEIHIN
  6
CONTINUOUS
 62
     3
 48
5.0
100
AcDbLine
 10
655.6373422200072
 20
340.3507466756017
 30
0.0
 11
655.6373422200072
 21
303.8802466756018
 31
0.0
  0
LINE
  5
B69
330
1A
100
AcDbEntity
  8
CENTER_L
  6
CENTER
 62
     1
 48
5.0
100
AcDbLine
 10
623.9373422200074
 20
345.6334466756016
 30
0.0
 11
623.9372422200071
 21
283.4345466756018
 31
0.0
  0
LINE
  5
B6A
330
1A
100
AcDbEntity
  8
CENTER_L
  6
CENTER
 62
     1
 48
5.0
100
AcDbLine
 10
620.6476422200076
 20
294.6404466756017
 30
0.0
 11
648.9847422200073
 21
266.3031466756017
 31
0.0
  0
LINE
  5
B6B
330
1A
100
AcDbEntity
  8
SEIHIN
  6
CONTINUOUS
 62
     3
 48
5.0
100
AcDbLine
 10
623.9373422200074
 20
313.3507466756017
 30
0.0
 11
655.6373422200072
 21
313.3507466756017
 31
0.0
  0
LINE
  5
B6C
330
1A
100
AcDbEntity
  8
SEIHIN
  6
CONTINUOUS
 62
     3
 48
5.0
100
AcDbLine
 10
623.9373422200074
 20
340.3507466756017
 30
0.0
 11
655.6373422200072
 21
340.3507466756017
 31
0.0
  0
LINE
  5
B6D
330
1A
100
AcDbEntity
  8
SEIHIN
  6
CONTINUOUS
 62
     3
 48
5.0
100
AcDbLine
 10
657.3373422200075
 20
335.3507466756017
 30
0.0
 11
655.6373422200072
 21
335.3507466756017
 31
0.0
  0
LINE
  5
B6E
330
1A
100
AcDbEntity
  8
SEIHIN
  6
CONTINUOUS
 62
     3
 48
5.0
100
AcDbLine
 10
655.6373422200072
 20
340.3507466756017
 30
0.0
 11
657.3373422200075
 21
335.3507466756017
 31
0.0
  0
DIMENSION
  5
CA1
330
1A
100
AcDbEntity
  8
SUNPOU
100
AcDbDimension
  2
*D29
 10
645.1504422200073
 20
386.6504392870785
 30
0.0
 11
634.5438922200074
 21
391.6504392870785
 31
0.0
 70
    32
  3
STANDARD
100
AcDbAlignedDimension
 13
623.9373422200074
 23
345.6334466756016
 33
0.0
 14
645.1504422200073
 24
272.7768466756017
 34
0.0
100
AcDbRotatedDimension
1001
ACAD
1000
DSTYLE
1002
{
1070
    41
1040
7.0
1070
    42
1040
6.0
1070
    43
1040
14.0
1070
    44
1040
3.0
1070
    73
1070
     0
1070
    74
1070
     0
1070
    77
1070
     3
1070
   140
1040
6.0
1070
   141
1040
150.0
1070
   147
1040
2.0
1070
   172
1070
     1
1070
   173
1070
     1
1070
   176
1070
   256
1070
   177
1070
   256
1070
   178
1070
   256
1070
   271
1070
     0
1070
   272
1070
     0
1070
   341
1005
6D
1070
     6
1000
OPEN
1070
     7
1000
OPEN
1070
   371
1070
    -1
1070
   372
1070
    -1
1002
}
  0
DIMENSION
  5
CAE
330
1A
100
AcDbEntity
  8
SUNPOU
100
AcDbDimension
  2
*D30
 10
557.4946987790266
 20
254.1376466756017
 30
0.0
 11
552.4946987790266
 21
297.2442466756017
 31
0.0
 70
    32
  3
STANDARD
100
AcDbAlignedDimension
 13
592.2373422197074
 23
340.3508466756016
 33
0.0
 14
615.000342220007
 24
254.1376466756016
 34
0.0
 50
90.0
100
AcDbRotatedDimension
1001
ACAD
1000
DSTYLE
1002
{
1070
    41
1040
7.0
1070
    42
1040
6.0
1070
    43
1040
14.0
1070
    44
1040
3.0
1070
    73
1070
     0
1070
    74
1070
     0
1070
    77
1070
     3
1070
   140
1040
6.0
1070
   141
1040
150.0
1070
   147
1040
2.0
1070
   172
1070
     1
1070
   173
1070
     1
1070
   176
1070
   256
1070
   177
1070
   256
1070
   178
1070
   256
1070
   271
1070
     0
1070
   272
1070
     0
1070
   341
1005
6D
1070
     6
1000
OPEN
1070
     7
1000
OPEN
1070
   371
1070
    -1
1070
   372
1070
    -1
1002
}
  0
DIMENSION
  5
CBB
330
1A
100
AcDbEntity
  8
SUNPOU
100
AcDbDimension
  2
*D31
 10
540.7692554907412
 20
224.1376466756018
 30
0.0
 11
535.7692554907412
 21
282.2442966756018
 31
0.0
 70
    32
  3
STANDARD
100
AcDbAlignedDimension
 13
592.2373422200071
 23
340.3509466756016
 33
0.0
 14
618.6001422200074
 24
224.1376466756018
 34
0.0
 50
90.0
100
AcDbRotatedDimension
1001
ACAD
1000
DSTYLE
1002
{
1070
    41
1040
7.0
1070
    42
1040
6.0
1070
    43
1040
14.0
1070
    44
1040
3.0
1070
    73
1070
     0
1070
    74
1070
     0
1070
    77
1070
     3
1070
   140
1040
6.0
1070
   141
1040
150.0
1070
   147
1040
2.0
1070
   172
1070
     1
1070
   173
1070
     1
1070
   176
1070
   256
1070
   177
1070
   256
1070
   178
1070
   256
1070
   271
1070
     0
1070
   272
1070
     0
1070
   341
1005
6D
1070
     6
1000
OPEN
1070
     7
1000
OPEN
1070
   371
1070
    -1
1070
   372
1070
    -1
1002
}
  0
DIMENSION
  5
DD6
330
1A
100
AcDbEntity
  8
SUNPOU
100
AcDbDimension
  2
*D39
 10
252.7373366422462
 20
386.0330991846249
 30
0.0
 11
221.0373366422462
 21
391.0330991846249
 31
0.0
 70
    32
  1
φ<>
  3
STANDARD
100
AcDbAlignedDimension
 13
189.3373366422463
 23
340.3509466756016
 33
0.0
 14
252.7373366422462
 24
340.3507466756018
 34
0.0
100
AcDbRotatedDimension
1001
ACAD
1000
DSTYLE
1002
{
1070
    41
1040
7.0
1070
    42
1040
6.0
1070
    43
1040
14.0
1070
    44
1040
3.0
1070
    73
1070
     0
1070
    74
1070
     0
1070
    77
1070
     3
1070
   140
1040
6.0
1070
   141
1040
150.0
1070
   147
1040
2.0
1070
   172
1070
     1
1070
   173
1070
     1
1070
   176
1070
   256
1070
   177
1070
   256
1070
   178
1070
   256
1070
   271
1070
     0
1070
   272
1070
     0
1070
   341
1005
6D
1070
     6
1000
OPEN
1070
     7
1000
OPEN
1070
   371
1070
    -1
1070
   372
1070
    -1
1002
}
  0
DIMENSION
  5
DE3
330
1A
100
AcDbEntity
  8
SUNPOU
100
AcDbDimension
  2
*D40
 10
153.7503344384381
 20
270.1375466756017
 30
0.0
 11
148.750334438438
 21
305.2442466756017
 31
0.0
 70
    32
  3
STANDARD
100
AcDbAlignedDimension
 13
189.3373366422463
 23
340.3509466756016
 33
0.0
 14
237.6154366422463
 24
270.1375466756017
 34
0.0
 50
90.0
100
AcDbRotatedDimension
1001
ACAD
1000
DSTYLE
1002
{
1070
    41
1040
7.0
1070
    42
1040
6.0
1070
    43
1040
14.0
1070
    44
1040
3.0
1070
    73
1070
     0
1070
    74
1070
     0
1070
    77
1070
     3
1070
   140
1040
6.0
1070
   141
1040
150.0
1070
   147
1040
2.0
1070
   172
1070
     1
1070
   173
1070
     1
1070
   176
1070
   256
1070
   177
1070
   256
1070
   178
1070
   256
1070
   271
1070
     0
1070
   272
1070
     0
1070
   341
1005
6D
1070
     6
1000
OPEN
1070
     7
1000
OPEN
1070
   371
1070
    -1
1070
   372
1070
    -1
1002
}
  0
DIMENSION
  5
DF0
330
1A
100
AcDbEntity
  8
SUNPOU
100
AcDbDimension
  2
*D41
 10
258.2504366422463
 20
201.8266869152755
 30
0.0
 11
239.6438366422462
 21
206.8266869152755
 31
0.0
 70
    32
  3
STANDARD
100
AcDbAlignedDimension
 13
221.0372366422463
 23
283.4345466756018
 33
0.0
 14
258.2504366422463
 24
239.9875466756018
 34
0.0
100
AcDbRotatedDimension
1001
ACAD
1000
DSTYLE
1002
{
1070
    41
1040
7.0
1070
    42
1040
6.0
1070
    43
1040
14.0
1070
    44
1040
3.0
1070
    73
1070
     0
1070
    74
1070
     0
1070
    77
1070
     3
1070
   140
1040
6.0
1070
   141
1040
150.0
1070
   147
1040
2.0
1070
   172
1070
     1
1070
   173
1070
     1
1070
   176
1070
   256
1070
   177
1070
   256
1070
   178
1070
   256
1070
   271
1070
     0
1070
   272
1070
     0
1070
   341
1005
6D
1070
     6
1000
OPEN
1070
     7
1000
OPEN
1070
   371
1070
    -1
1070
   372
1070
    -1
1002
}
  0
DIMENSION
  5
DFD
330
1A
100
AcDbEntity
  8
SUNPOU
100
AcDbDimension
  2
*D42
 10
288.2504366422462
 20
183.9642474274207
 30
0.0
 11
254.6438366422463
 21
188.9642474274207
 31
0.0
 70
    32
  3
STANDARD
100
AcDbAlignedDimension
 13
221.0372366422463
 23
283.4345466756018
 33
0.0
 14
288.2504366422462
 24
243.5875466756018
 34
0.0
100
AcDbRotatedDimension
1001
ACAD
1000
DSTYLE
1002
{
1070
    41
1040
7.0
1070
    42
1040
6.0
1070
    43
1040
14.0
1070
    44
1040
3.0
1070
    73
1070
     0
1070
    74
1070
     0
1070
    77
1070
     3
1070
   140
1040
6.0
1070
   141
1040
150.0
1070
   147
1040
2.0
1070
   172
1070
     1
1070
   173
1070
     1
1070
   176
1070
   256
1070
   177
1070
   256
1070
   178
1070
   256
1070
   271
1070
     0
1070
   272
1070
     0
1070
   341
1005
6D
1070
     6
1000
OPEN
1070
     7
1000
OPEN
1070
   371
1070
    -1
1070
   372
1070
    -1
1002
}
  0
DIMENSION
  5
E0A
330
1A
100
AcDbEntity
  8
SUNPOU
100
AcDbDimension
  2
*D43
 10
322.4961867912729
 20
243.5875466756018
 30
0.0
 11
317.4961867912729
 21
270.1375466756019
 31
0.0
 70
    32
  1
φ<>
  3
STANDARD
100
AcDbAlignedDimension
 13
288.2504366422462
 23
296.6875466756018
 33
0.0
 14
288.2504366422462
 24
243.5875466756018
 34
0.0
 50
90.0
100
AcDbRotatedDimension
1001
ACAD
1000
DSTYLE
1002
{
1070
    41
1040
7.0
1070
    42
1040
6.0
1070
    43
1040
14.0
1070
    44
1040
3.0
1070
    73
1070
     0
1070
    74
1070
     0
1070
    77
1070
     3
1070
   140
1040
6.0
1070
   141
1040
150.0
1070
   147
1040
2.0
1070
   172
1070
     1
1070
   173
1070
     1
1070
   176
1070
   256
1070
   177
1070
   256
1070
   178
1070
   256
1070
   271
1070
     0
1070
   272
1070
     0
1070
   341
1005
6D
1070
     6
1000
OPEN
1070
     7
1000
OPEN
1070
   371
1070
    -1
1070
   372
1070
    -1
1002
}
  0
DIMENSION
  5
E18
330
1A
100
AcDbEntity
  8
SUNPOU
100
AcDbDimension
  2
*D44
 10
282.824148375083
 20
315.3507466756018
 30
0.0
 11
277.824148375083
 21
327.8507466756019
 31
0.0
 70
    32
  1
\U+203B<>
  3
STANDARD
100
AcDbAlignedDimension
 13
252.7373366422462
 23
340.3507466756018
 33
0.0
 14
252.7373366422462
 24
315.3507466756018
 34
0.0
 50
90.0
100
AcDbRotatedDimension
1001
ACAD
1000
DSTYLE
1002
{
1070
    41
1040
7.0
1070
    42
1040
6.0
1070
    43
1040
14.0
1070
    44
1040
3.0
1070
    73
1070
     0
1070
    74
1070
     0
1070
    77
1070
     3
1070
   140
1040
6.0
1070
   141
1040
150.0
1070
   147
1040
2.0
1070
   172
1070
     1
1070
   173
1070
     1
1070
   176
1070
   256
1070
   177
1070
   256
1070
   178
1070
   256
1070
   271
1070
     0
1070
   272
1070
     0
1070
   341
1005
6D
1070
     6
1000
OPEN
1070
     7
1000
OPEN
1070
   371
1070
    -1
1070
   372
1070
    -1
1002
}
  0
DIMENSION
  5
E25
330
1A
100
AcDbEntity
  8
SUNPOU
100
AcDbDimension
  2
*D45
 10
302.3807894151222
 20
313.3507466756018
 30
0.0
 11
297.3807894151222
 21
326.8507466756019
 31
0.0
 70
    32
  3
STANDARD
100
AcDbAlignedDimension
 13
252.7373366422462
 23
340.3507466756018
 33
0.0
 14
252.7373366422462
 24
313.3507466756018
 34
0.0
 50
90.0
100
AcDbRotatedDimension
1001
ACAD
1000
DSTYLE
1002
{
1070
    41
1040
7.0
1070
    42
1040
6.0
1070
    43
1040
14.0
1070
    44
1040
3.0
1070
    73
1070
     0
1070
    74
1070
     0
1070
    77
1070
     3
1070
   140
1040
6.0
1070
   141
1040
150.0
1070
   147
1040
2.0
1070
   172
1070
     1
1070
   173
1070
     1
1070
   176
1070
   256
1070
   177
1070
   256
1070
   178
1070
   256
1070
   271
1070
     0
1070
   272
1070
     0
1070
   341
1005
6D
1070
     6
1000
OPEN
1070
     7
1000
OPEN
1070
   371
1070
    -1
1070
   372
1070
    -1
1002
}
  0
VIEWPORT
  5
22
330
17
100
AcDbEntity
 67
     1
  8
0
100
AcDbViewport
 10
313.6808219178082
 20
148.5
 30
0.0
 40
627.3616438356165
 41
297.0
 68
     2
 69
     1
1001
ACAD
1000
MVIEW
1002
{
1070
    16
1010
0.0
1020
0.0
1030
0.0
1010
0.0
1020
0.0
1030
1.0
1040
0.0
1040
297.0
1040
313.6808219178082
1040
148.5
1040
50.0
1040
0.0
1040
0.0
1070
     0
1070
   100
1070
     1
1070
     0
1070
     0
1070
     0
1070
     0
1070
     0
1040
0.0
1040
0.0
1040
0.0
1040
1.0
1040
1.0
1040
10.0
1040
10.0
1070
     0
1002
{
1002
}
1002
}
  0
VIEWPORT
  5
64
330
17
100
AcDbEntity
 67
     1
  8
VIEWPORT
100
AcDbViewport
 10
210.0
 20
148.5
 30
0.0
 40
420.0
 41
297.0
 68
     1
 69
     2
1001
ACAD
1000
MVIEW
1002
{
1070
    16
1010
0.0
1020
0.0
1030
0.0
1010
0.0
1020
0.0
1030
1.0
1040
0.0
1040
605.8799999999998
1040
420.0
1040
297.0
1040
50.0
1040
0.0
1040
0.0
1070
     0
1070
   100
1070
     1
1070
     0
1070
     0
1070
     0
1070
     0
1070
     0
1040
0.0
1040
0.0
1040
0.0
1040
10.0
1040
10.0
1040
0.0
1040
0.0
1070
     0
1002
{
1002
}
1002
}
  0
ENDSEC
  0
SECTION
  2
OBJECTS
  0
DICTIONARY
  5
C
330
0
100
AcDbDictionary
  3
ACAD_GROUP
350
D
  3
ACAD_LAYOUT
350
955
  3
ACAD_MLINESTYLE
350
E
  3
ACAD_PLOTSETTINGS
350
956
1001
ACAD
1000
TREAT_AS_HARD
1070
     0
  0
DICTIONARY
  5
984
330
1A
100
AcDbDictionary
  3
ACAD_LAYOUTSELFREF
350
EF4
1001
ACAD
1000
TREAT_AS_HARD
1070
     1
  0
DICTIONARY
  5
982
330
17
100
AcDbDictionary
  3
ACAD_LAYOUTSELFREF
350
EF3
1001
ACAD
1000
TREAT_AS_HARD
1070
     1
  0
DICTIONARY
  5
D
102
{ACAD_REACTORS
330
C
102
}
330
C
100
AcDbDictionary
1001
ACAD
1000
TREAT_AS_HARD
1070
     0
  0
DICTIONARY
  5
955
102
{ACAD_REACTORS
330
C
102
}
330
C
100
AcDbDictionary
1001
ACAD
1000
TREAT_AS_HARD
1070
     0
  0
DICTIONARY
  5
E
102
{ACAD_REACTORS
330
C
102
}
330
C
100
AcDbDictionary
  3
STANDARD
350
13
1001
ACAD
1000
TREAT_AS_HARD
1070
     0
  0
DICTIONARY
  5
956
102
{ACAD_REACTORS
330
C
102
}
330
C
100
AcDbDictionary
1001
ACAD
1000
TREAT_AS_HARD
1070
     0
  0
XRECORD
  5
EF4
102
{ACAD_REACTORS
330
984
102
}
330
984
100
AcDbXrecord
340
1A
  0
XRECORD
  5
EF3
102
{ACAD_REACTORS
330
982
102
}
330
982
100
AcDbXrecord
340
17
  0
MLINESTYLE
  5
13
102
{ACAD_REACTORS
330
E
102
}
330
E
100
AcDbMlineStyle
  2
STANDARD
 70
     0
  3

 62
     0
 51
90.0
 52
90.0
 71
     2
 49
0.5
 62
   256
  6
BYLAYER
 49
-0.5
 62
   256
  6
BYLAYER
  0
ENDSEC
  0
EOF
