  0
SECTION
  2
HEADER
  9
$ACADVER
  1
AC1012
  9
$DWGCODEPAGE
  3
dos932
  9
$INSBASE
 10
0.0
 20
0.0
 30
0.0
  9
$EXTMIN
 10
10.05047808566086
 20
4.949376903717846
 30
0.0
  9
$EXTMAX
 10
806.2246110975902
 20
563.7825862828226
 30
0.0
  9
$LIMMIN
 10
0.0
 20
0.0
  9
$LIMMAX
 10
840.0
 20
594.0
  9
$ORTHOMODE
 70
     0
  9
$REGENMODE
 70
     1
  9
$FILLMODE
 70
     1
  9
$QTEXTMODE
 70
     0
  9
$MIRRTEXT
 70
     1
  9
$DRAGMODE
 70
     2
  9
$LTSCALE
 40
2.0
  9
$OSMODE
 70
   319
  9
$ATTMODE
 70
     1
  9
$TEXTSIZE
 40
5.0
  9
$TRACEWID
 40
1.0
  9
$TEXTSTYLE
  7
STANDARD
  9
$CLAYER
  8
NOKITOI
  9
$CELTYPE
  6
BYLAYER
  9
$CECOLOR
 62
   256
  9
$CELTSCALE
 40
1.0
  9
$DELOBJ
 70
     1
  9
$DISPSILH
 70
     0
  9
$DIMSCALE
 40
1.0
  9
$DIMASZ
 40
7.0
  9
$DIMEXO
 40
6.0
  9
$DIMDLI
 40
14.0
  9
$DIMRND
 40
0.0
  9
$DIMDLE
 40
0.0
  9
$DIMEXE
 40
3.0
  9
$DIMTP
 40
0.0
  9
$DIMTM
 40
0.0
  9
$DIMTXT
 40
6.0
  9
$DIMCEN
 40
150.0
  9
$DIMTSZ
 40
0.0
  9
$DIMTOL
 70
     0
  9
$DIMLIM
 70
     0
  9
$DIMTIH
 70
     0
  9
$DIMTOH
 70
     0
  9
$DIMSE1
 70
     0
  9
$DIMSE2
 70
     0
  9
$DIMTAD
 70
     3
  9
$DIMZIN
 70
     0
  9
$DIMBLK
  1

  9
$DIMASO
 70
     1
  9
$DIMSHO
 70
     1
  9
$DIMPOST
  1

  9
$DIMAPOST
  1

  9
$DIMALT
 70
     0
  9
$DIMALTD
 70
     2
  9
$DIMALTF
 40
25.4
  9
$DIMLFAC
 40
1.0
  9
$DIMTOFL
 70
     1
  9
$DIMTVP
 40
0.0
  9
$DIMTIX
 70
     0
  9
$DIMSOXD
 70
     0
  9
$DIMSAH
 70
     1
  9
$DIMBLK1
  1
OPEN
  9
$DIMBLK2
  1
OPEN
  9
$DIMSTYLE
  2
STANDARD
  9
$DIMCLRD
 70
   256
  9
$DIMCLRE
 70
   256
  9
$DIMCLRT
 70
   256
  9
$DIMTFAC
 40
1.0
  9
$DIMGAP
 40
2.0
  9
$DIMJUST
 70
     0
  9
$DIMSD1
 70
     0
  9
$DIMSD2
 70
     0
  9
$DIMTOLJ
 70
     1
  9
$DIMTZIN
 70
     0
  9
$DIMALTZ
 70
     0
  9
$DIMALTTZ
 70
     0
  9
$DIMFIT
 70
     3
  9
$DIMUPT
 70
     0
  9
$DIMUNIT
 70
     2
  9
$DIMDEC
 70
     0
  9
$DIMTDEC
 70
     0
  9
$DIMALTU
 70
     2
  9
$DIMALTTD
 70
     2
  9
$DIMTXSTY
  7
STANDARD
  9
$DIMAUNIT
 70
     0
  9
$LUNITS
 70
     2
  9
$LUPREC
 70
     4
  9
$SKETCHINC
 40
1.0
  9
$FILLETRAD
 40
1.5
  9
$AUNITS
 70
     0
  9
$AUPREC
 70
     0
  9
$MENU
  1
.
  9
$ELEVATION
 40
0.0
  9
$PELEVATION
 40
0.0
  9
$THICKNESS
 40
0.0
  9
$LIMCHECK
 70
     0
  9
$BLIPMODE
 70
     0
  9
$CHAMFERA
 40
20.0
  9
$CHAMFERB
 40
20.0
  9
$CHAMFERC
 40
40.0
  9
$CHAMFERD
 40
0.0
  9
$SKPOLY
 70
     0
  9
$TDCREATE
 40
2451186.560747916
  9
$TDUPDATE
 40
2452422.709213310
  9
$TDINDWG
 40
0.0144526620
  9
$TDUSRTIMER
 40
0.0144526620
  9
$USRTIMER
 70
     1
  9
$ANGBASE
 50
0.0
  9
$ANGDIR
 70
     0
  9
$PDMODE
 70
     0
  9
$PDSIZE
 40
0.0
  9
$PLINEWID
 40
0.0
  9
$COORDS
 70
     1
  9
$SPLFRAME
 70
     0
  9
$SPLINETYPE
 70
     6
  9
$SPLINESEGS
 70
     8
  9
$ATTDIA
 70
     0
  9
$ATTREQ
 70
     1
  9
$HANDLING
 70
 10241
  9
$HANDSEED
  5
48E
  9
$SURFTAB1
 70
     6
  9
$SURFTAB2
 70
     6
  9
$SURFTYPE
 70
     6
  9
$SURFU
 70
     6
  9
$SURFV
 70
     6
  9
$UCSNAME
  2

  9
$UCSORG
 10
0.0
 20
0.0
 30
0.0
  9
$UCSXDIR
 10
1.0
 20
0.0
 30
0.0
  9
$UCSYDIR
 10
0.0
 20
1.0
 30
0.0
  9
$PUCSNAME
  2

  9
$PUCSORG
 10
0.0
 20
0.0
 30
0.0
  9
$PUCSXDIR
 10
1.0
 20
0.0
 30
0.0
  9
$PUCSYDIR
 10
0.0
 20
1.0
 30
0.0
  9
$USERI1
 70
     0
  9
$USERI2
 70
     0
  9
$USERI3
 70
     0
  9
$USERI4
 70
     0
  9
$USERI5
 70
     0
  9
$USERR1
 40
0.0
  9
$USERR2
 40
0.0
  9
$USERR3
 40
0.0
  9
$USERR4
 40
0.0
  9
$USERR5
 40
0.0
  9
$WORLDVIEW
 70
     1
  9
$SHADEDGE
 70
     3
  9
$SHADEDIF
 70
    70
  9
$TILEMODE
 70
     1
  9
$MAXACTVP
 70
    16
  9
$PINSBASE
 10
0.0
 20
0.0
 30
0.0
  9
$PLIMCHECK
 70
     0
  9
$PEXTMIN
 10
0.0
 20
0.0
 30
0.0
  9
$PEXTMAX
 10
420.0
 20
297.0
 30
0.0
  9
$PLIMMIN
 10
0.0
 20
0.0
  9
$PLIMMAX
 10
420.0
 20
297.0
  9
$UNITMODE
 70
     0
  9
$VISRETAIN
 70
     0
  9
$PLINEGEN
 70
     0
  9
$PSLTSCALE
 70
     1
  9
$TREEDEPTH
 70
  3020
  9
$PICKSTYLE
 70
     1
  9
$CMLSTYLE
  2
STANDARD
  9
$CMLJUST
 70
     0
  9
$CMLSCALE
 40
1.0
  9
$SAVEIMAGES
 70
     1
  0
ENDSEC
  0
SECTION
  2
CLASSES
  0
CLASS
  1
ACDBDICTIONARYWDFLT
  2
AcDbDictionaryWithDefault
  3
AutoCAD 2000
 90
    32768
280
     0
281
     0
  0
CLASS
  1
ACDBPLACEHOLDER
  2
AcDbPlaceHolder
  3
AutoCAD 2000
 90
    32768
280
     0
281
     0
  0
CLASS
  1
LAYOUT
  2
AcDbLayout
  3
AutoCAD 2000
 90
    32768
280
     0
281
     0
  0
CLASS
  1
LONG_TRANSACTION
  2
AcDbLongTransaction
  3
AutoCAD 2000
 90
    32768
280
     0
281
     0
  0
CLASS
  1
LWPOLYLINE
  2
AcDbPolyline
  3
AutoCAD 2000
 90
    32768
280
     0
281
     1
  0
CLASS
  1
HATCH
  2
AcDbHatch
  3
AutoCAD 2000
 90
    32768
280
     0
281
     1
  0
CLASS
  1
XRECORD
  2
AcDbXrecord
  3
AutoCAD 2000
 90
    32768
280
     0
281
     0
  0
CLASS
  1
LONG_TRANSACTION
  2
AcDbLongTransaction
  3
AutoCAD 2000
 90
    32768
280
     0
281
     0
  0
CLASS
  1
LWPOLYLINE
  2
AcDbPolyline
  3
AutoCAD 2000
 90
    32768
280
     0
281
     1
  0
CLASS
  1
HATCH
  2
AcDbHatch
  3
AutoCAD 2000
 90
    32768
280
     0
281
     1
  0
CLASS
  1
XRECORD
  2
AcDbXrecord
  3
AutoCAD 2000
 90
    32768
280
     0
281
     0
  0
ENDSEC
  0
SECTION
  2
TABLES
  0
TABLE
  2
VPORT
  5
8
330
0
100
AcDbSymbolTable
 70
     2
  0
VPORT
  5
482
330
8
100
AcDbSymbolTableRecord
100
AcDbViewportTableRecord
  2
*ACTIVE
 70
     0
 10
0.0
 20
0.0
 11
1.0
 21
1.0
 12
437.7979669196276
 22
321.9913921109033
 13
0.0
 23
0.0
 14
5.0
 24
5.0
 15
0.0
 25
0.0
 16
0.0
 26
0.0
 36
1.0
 17
0.0
 27
0.0
 37
0.0
 40
647.1636190385359
 41
1.709909909909909
 42
50.0
 43
0.0
 44
0.0
 50
0.0
 51
0.0
 71
     0
 72
   100
 73
     1
 74
     0
 75
     0
 76
     0
 77
     0
 78
     0
  0
ENDTAB
  0
TABLE
  2
LTYPE
  5
5
330
0
100
AcDbSymbolTable
 70
     3
  0
LTYPE
  5
14
330
5
100
AcDbSymbolTableRecord
100
AcDbLinetypeTableRecord
  2
BYBLOCK
 70
     0
  3

 72
    65
 73
     0
 40
0.0
  0
LTYPE
  5
15
330
5
100
AcDbSymbolTableRecord
100
AcDbLinetypeTableRecord
  2
BYLAYER
 70
     0
  3

 72
    65
 73
     0
 40
0.0
  0
LTYPE
  5
16
330
5
100
AcDbSymbolTableRecord
100
AcDbLinetypeTableRecord
  2
CONTINUOUS
 70
     0
  3
Solid line
 72
    65
 73
     0
 40
0.0
  0
LTYPE
  5
115
330
5
100
AcDbSymbolTableRecord
100
AcDbLinetypeTableRecord
  2
PHANTOM
 70
     0
  3
______  __  __  ______  __  __  ______  __  __ 
 72
    65
 73
     6
 40
2.5
 49
1.25
 74
     0
 49
-0.25
 74
     0
 49
0.25
 74
     0
 49
-0.25
 74
     0
 49
0.25
 74
     0
 49
-0.25
 74
     0
  0
LTYPE
  5
135
330
5
100
AcDbSymbolTableRecord
100
AcDbLinetypeTableRecord
  2
CENTER
 70
     0
  3
____ _ ____ _ ____ _ ____ _ ____ _ ____ _ ____ 
 72
    65
 73
     4
 40
2.0
 49
1.25
 74
     0
 49
-0.25
 74
     0
 49
0.25
 74
     0
 49
-0.25
 74
     0
  0
ENDTAB
  0
TABLE
  2
LAYER
  5
2
330
0
100
AcDbSymbolTable
 70
     8
  0
LAYER
  5
F
330
2
100
AcDbSymbolTableRecord
100
AcDbLayerTableRecord
  2
0
 70
     0
 62
     7
  6
CONTINUOUS
  0
LAYER
  5
62
330
2
100
AcDbSymbolTableRecord
100
AcDbLayerTableRecord
  2
VIEWPORT
 70
     0
 62
     7
  6
CONTINUOUS
  0
LAYER
  5
65
330
2
100
AcDbSymbolTableRecord
100
AcDbLayerTableRecord
  2
ZUWAKU
 70
     0
 62
     7
  6
CONTINUOUS
  0
LAYER
  5
143
330
2
100
AcDbSymbolTableRecord
100
AcDbLayerTableRecord
  2
SEIHIN
 70
     0
 62
     3
  6
CONTINUOUS
  0
LAYER
  5
144
330
2
100
AcDbSymbolTableRecord
100
AcDbLayerTableRecord
  2
SUNPOU
 70
     0
 62
     4
  6
CONTINUOUS
  0
LAYER
  5
145
330
2
100
AcDbSymbolTableRecord
100
AcDbLayerTableRecord
  2
CENTER_L
 70
     0
 62
     1
  6
CENTER
  0
LAYER
  5
146
330
2
100
AcDbSymbolTableRecord
100
AcDbLayerTableRecord
  2
NOKITOI
 70
     0
 62
     8
  6
PHANTOM
  0
LAYER
  5
333
330
2
100
AcDbSymbolTableRecord
100
AcDbLayerTableRecord
  2
DEFPOINTS
 70
     0
 62
     7
  6
CONTINUOUS
  0
ENDTAB
  0
TABLE
  2
STYLE
  5
3
330
0
100
AcDbSymbolTable
 70
     1
  0
STYLE
  5
10
330
3
100
AcDbSymbolTableRecord
100
AcDbTextStyleTableRecord
  2
STANDARD
 70
     0
 40
0.0
 41
1.0
 50
0.0
 71
     0
 42
5.0
  3
TXT
  4
bigfont.shx
  0
ENDTAB
  0
TABLE
  2
VIEW
  5
6
330
0
100
AcDbSymbolTable
 70
     0
  0
ENDTAB
  0
TABLE
  2
UCS
  5
7
330
0
100
AcDbSymbolTable
 70
     0
  0
ENDTAB
  0
TABLE
  2
APPID
  5
9
330
0
100
AcDbSymbolTable
 70
     1
  0
APPID
  5
11
330
9
100
AcDbSymbolTableRecord
100
AcDbRegAppTableRecord
  2
ACAD
 70
     0
  0
ENDTAB
  0
TABLE
  2
DIMSTYLE
  5
A
330
0
100
AcDbSymbolTable
 70
     1
  0
DIMSTYLE
105
1D
102
{ACAD_REACTORS
330
338
330
345
330
359
330
366
330
373
330
380
330
39B
102
}
330
A
100
AcDbSymbolTableRecord
100
AcDbDimStyleTableRecord
  2
STANDARD
 70
     0
  3

  4

  5

  6

  7

 40
1.0
 41
0.18
 42
0.0625
 43
0.38
 44
0.18
 45
0.0
 46
0.0
 47
0.0
 48
0.0
140
0.18
141
0.09
142
0.0
143
25.4
144
1.0
145
0.0
146
1.0
147
0.09
 71
     0
 72
     0
 73
     1
 74
     1
 75
     0
 76
     0
 77
     0
 78
     0
170
     0
171
     2
172
     0
173
     0
174
     0
175
     0
176
     0
177
     0
178
     0
270
     2
271
     4
272
     4
273
     2
274
     2
340
10
275
     0
280
     0
281
     0
282
     0
283
     1
284
     0
285
     0
286
     0
287
     3
288
     0
  0
ENDTAB
  0
TABLE
  2
BLOCK_RECORD
  5
1
330
0
100
AcDbSymbolTable
 70
     8
  0
BLOCK_RECORD
  5
1A
102
{ACAD_XDICTIONARY
360
46B
102
}
330
1
100
AcDbSymbolTableRecord
100
AcDbBlockTableRecord
  2
*MODEL_SPACE
  0
BLOCK_RECORD
  5
17
102
{ACAD_XDICTIONARY
360
469
102
}
330
1
100
AcDbSymbolTableRecord
100
AcDbBlockTableRecord
  2
*PAPER_SPACE
  0
BLOCK_RECORD
  5
6D
330
1
100
AcDbSymbolTableRecord
100
AcDbBlockTableRecord
  2
_OPEN
  0
BLOCK_RECORD
  5
32B
330
1
100
AcDbSymbolTableRecord
100
AcDbBlockTableRecord
  2
*D1
  0
BLOCK_RECORD
  5
339
330
1
100
AcDbSymbolTableRecord
100
AcDbBlockTableRecord
  2
*D2
  0
BLOCK_RECORD
  5
34D
330
1
100
AcDbSymbolTableRecord
100
AcDbBlockTableRecord
  2
*D3
  0
BLOCK_RECORD
  5
35A
330
1
100
AcDbSymbolTableRecord
100
AcDbBlockTableRecord
  2
*D4
  0
BLOCK_RECORD
  5
367
330
1
100
AcDbSymbolTableRecord
100
AcDbBlockTableRecord
  2
*D5
  0
BLOCK_RECORD
  5
374
330
1
100
AcDbSymbolTableRecord
100
AcDbBlockTableRecord
  2
*D6
  0
BLOCK_RECORD
  5
38F
330
1
100
AcDbSymbolTableRecord
100
AcDbBlockTableRecord
  2
*D7
  0
ENDTAB
  0
ENDSEC
  0
SECTION
  2
BLOCKS
  0
BLOCK
  5
1B
330
1A
100
AcDbEntity
  8
0
100
AcDbBlockBegin
  2
*MODEL_SPACE
 70
     0
 10
0.0
 20
0.0
 30
0.0
  3
*MODEL_SPACE
  1

  0
ENDBLK
  5
1C
330
1A
100
AcDbEntity
  8
0
100
AcDbBlockEnd
  0
BLOCK
  5
18
330
17
100
AcDbEntity
 67
     1
  8
0
100
AcDbBlockBegin
  2
*PAPER_SPACE
 70
     0
 10
0.0
 20
0.0
 30
0.0
  3
*PAPER_SPACE
  1

  0
ENDBLK
  5
19
330
17
100
AcDbEntity
 67
     1
  8
0
100
AcDbBlockEnd
  0
BLOCK
  5
6E
330
6D
100
AcDbEntity
  8
0
100
AcDbBlockBegin
  2
_OPEN
 70
     0
 10
0.0
 20
0.0
 30
0.0
  3
_OPEN
  1

  0
LINE
  5
6F
330
6D
100
AcDbEntity
  8
0
  6
BYBLOCK
 62
     0
100
AcDbLine
 10
-1.0
 20
0.1666666666666666
 30
0.0
 11
0.0
 21
0.0
 31
0.0
  0
LINE
  5
70
330
6D
100
AcDbEntity
  8
0
  6
BYBLOCK
 62
     0
100
AcDbLine
 10
0.0
 20
0.0
 30
0.0
 11
-1.0
 21
-0.1666666666666666
 31
0.0
  0
LINE
  5
71
330
6D
100
AcDbEntity
  8
0
  6
BYBLOCK
 62
     0
100
AcDbLine
 10
0.0
 20
0.0
 30
0.0
 11
-1.0
 21
0.0
 31
0.0
  0
ENDBLK
  5
72
330
6D
100
AcDbEntity
  8
0
100
AcDbBlockEnd
  0
BLOCK
  5
3DF
330
32B
100
AcDbEntity
  8
0
100
AcDbBlockBegin
  2
*D1
 70
     1
 10
0.0
 20
0.0
 30
0.0
  3
*D1
  1

  0
LINE
  5
3FF
330
32B
100
AcDbEntity
  8
SUNPOU
 62
     4
100
AcDbLine
 10
321.0554945781894
 20
196.4132774734764
 30
0.0
 11
321.0554945781894
 21
228.3099420178611
 31
0.0
  0
LINE
  5
400
330
32B
100
AcDbEntity
  8
SUNPOU
 62
     4
100
AcDbLine
 10
439.3554945781892
 20
196.4132774734764
 30
0.0
 11
439.3554945781892
 21
228.3099420178611
 31
0.0
  0
LINE
  5
401
330
32B
100
AcDbEntity
  8
SUNPOU
 62
     4
100
AcDbLine
 10
328.0554945781894
 20
225.3099420178612
 30
0.0
 11
432.3554945781892
 21
225.3099420178612
 31
0.0
  0
INSERT
  5
402
330
32B
100
AcDbEntity
  8
SUNPOU
 62
     4
100
AcDbBlockReference
  2
_OPEN
 10
321.0554945781894
 20
225.3099420178612
 30
0.0
 41
7.0
 42
7.0
 43
7.0
 50
180.0
  0
INSERT
  5
403
330
32B
100
AcDbEntity
  8
SUNPOU
 62
     4
100
AcDbBlockReference
  2
_OPEN
 10
439.3554945781892
 20
225.3099420178612
 30
0.0
 41
7.0
 42
7.0
 43
7.0
  0
MTEXT
  5
404
330
32B
100
AcDbEntity
  8
SUNPOU
 62
     4
100
AcDbMText
 10
380.2054945781893
 20
230.3099420178611
 30
0.0
 40
6.0
 41
0.0
 71
     5
 72
     1
  1
\A1;118
1001
ACAD
1000
MTEXTBEGIN
1070
    73
1070
     1
1070
    44
1040
1.0
1070
    74
1070
     0
1000
MTEXTEND
1000
MTEXTBEGIN
1070
    73
1070
     1
1070
    44
1040
1.0
1070
    74
1070
     0
1000
MTEXTEND
  0
POINT
  5
405
330
32B
100
AcDbEntity
  8
DEFPOINTS
 62
     0
100
AcDbPoint
 10
321.0554945781894
 20
190.4132774734764
 30
0.0
  0
POINT
  5
406
330
32B
100
AcDbEntity
  8
DEFPOINTS
 62
     0
100
AcDbPoint
 10
439.3554945781892
 20
190.4132774734764
 30
0.0
  0
POINT
  5
407
330
32B
100
AcDbEntity
  8
DEFPOINTS
 62
     0
100
AcDbPoint
 10
439.3554945781892
 20
225.3099420178612
 30
0.0
  0
ENDBLK
  5
3E9
330
32B
100
AcDbEntity
  8
0
100
AcDbBlockEnd
  0
BLOCK
  5
3D4
330
339
100
AcDbEntity
  8
0
100
AcDbBlockBegin
  2
*D2
 70
     1
 10
0.0
 20
0.0
 30
0.0
  3
*D2
  1

  0
LINE
  5
408
330
339
100
AcDbEntity
  8
SUNPOU
 62
     4
100
AcDbLine
 10
321.0554945781894
 20
196.4132774734764
 30
0.0
 11
321.0554945781894
 21
245.1642275225883
 31
0.0
  0
LINE
  5
409
330
339
100
AcDbEntity
  8
SUNPOU
 62
     4
100
AcDbLine
 10
474.2053945781893
 20
196.4132774734764
 30
0.0
 11
474.2053945781893
 21
245.1642275225883
 31
0.0
  0
LINE
  5
40A
330
339
100
AcDbEntity
  8
SUNPOU
 62
     4
100
AcDbLine
 10
328.0554945781894
 20
242.1642275225883
 30
0.0
 11
467.2053945781893
 21
242.1642275225883
 31
0.0
  0
INSERT
  5
40B
330
339
100
AcDbEntity
  8
SUNPOU
 62
     4
100
AcDbBlockReference
  2
_OPEN
 10
321.0554945781894
 20
242.1642275225883
 30
0.0
 41
7.0
 42
7.0
 43
7.0
 50
180.0
  0
INSERT
  5
40C
330
339
100
AcDbEntity
  8
SUNPOU
 62
     4
100
AcDbBlockReference
  2
_OPEN
 10
474.2053945781893
 20
242.1642275225883
 30
0.0
 41
7.0
 42
7.0
 43
7.0
  0
MTEXT
  5
40D
330
339
100
AcDbEntity
  8
SUNPOU
 62
     4
100
AcDbMText
 10
397.6304445781894
 20
247.1642275225883
 30
0.0
 40
6.0
 41
0.0
 71
     5
 72
     1
  1
\A1;153
1001
ACAD
1000
MTEXTBEGIN
1070
    73
1070
     1
1070
    44
1040
1.0
1070
    74
1070
     0
1000
MTEXTEND
1000
MTEXTBEGIN
1070
    73
1070
     1
1070
    44
1040
1.0
1070
    74
1070
     0
1000
MTEXTEND
  0
POINT
  5
40E
330
339
100
AcDbEntity
  8
DEFPOINTS
 62
     0
100
AcDbPoint
 10
321.0554945781894
 20
190.4132774734764
 30
0.0
  0
POINT
  5
40F
330
339
100
AcDbEntity
  8
DEFPOINTS
 62
     0
100
AcDbPoint
 10
474.2053945781893
 20
190.4132774734764
 30
0.0
  0
POINT
  5
410
330
339
100
AcDbEntity
  8
DEFPOINTS
 62
     0
100
AcDbPoint
 10
474.2053945781893
 20
242.1642275225883
 30
0.0
  0
ENDBLK
  5
3DE
330
339
100
AcDbEntity
  8
0
100
AcDbBlockEnd
  0
BLOCK
  5
34E
330
34D
100
AcDbEntity
  8
0
100
AcDbBlockBegin
  2
*D3
 70
     1
 10
0.0
 20
0.0
 30
0.0
  3
*D3
  1

  0
LINE
  5
411
330
34D
100
AcDbEntity
  8
SUNPOU
 62
     4
100
AcDbLine
 10
480.2055945781892
 20
442.0529774734762
 30
0.0
 11
544.6275417972819
 21
442.0529774734762
 31
0.0
  0
LINE
  5
412
330
34D
100
AcDbEntity
  8
SUNPOU
 62
     4
100
AcDbLine
 10
445.3555945781892
 20
288.9027774734762
 30
0.0
 11
544.6275417972819
 21
288.9027774734762
 31
0.0
  0
LINE
  5
413
330
34D
100
AcDbEntity
  8
SUNPOU
 62
     4
100
AcDbLine
 10
541.6275417972819
 20
435.0529774734762
 30
0.0
 11
541.6275417972819
 21
295.9027774734762
 31
0.0
  0
INSERT
  5
414
330
34D
100
AcDbEntity
  8
SUNPOU
 62
     4
100
AcDbBlockReference
  2
_OPEN
 10
541.6275417972819
 20
442.0529774734762
 30
0.0
 41
7.0
 42
7.0
 43
7.0
 50
90.0
  0
INSERT
  5
415
330
34D
100
AcDbEntity
  8
SUNPOU
 62
     4
100
AcDbBlockReference
  2
_OPEN
 10
541.6275417972819
 20
288.9027774734762
 30
0.0
 41
7.0
 42
7.0
 43
7.0
 50
270.0
  0
MTEXT
  5
416
330
34D
100
AcDbEntity
  8
SUNPOU
 62
     4
100
AcDbMText
 10
536.6275417972818
 20
365.4778774734763
 30
0.0
 40
6.0
 41
0.0
 71
     5
 72
     1
  1
\A1;153
 11
0.0000000000000001
 21
1.0
 31
0.0
1001
ACAD
1000
MTEXTBEGIN
1070
    73
1070
     1
1070
    44
1040
1.0
1070
    74
1070
     0
1000
MTEXTEND
1000
MTEXTBEGIN
1070
    73
1070
     1
1070
    44
1040
1.0
1070
    74
1070
     0
1000
MTEXTEND
  0
POINT
  5
417
330
34D
100
AcDbEntity
  8
DEFPOINTS
 62
     0
100
AcDbPoint
 10
474.2055945781892
 20
442.0529774734762
 30
0.0
  0
POINT
  5
418
330
34D
100
AcDbEntity
  8
DEFPOINTS
 62
     0
100
AcDbPoint
 10
439.3555945781892
 20
288.9027774734762
 30
0.0
  0
POINT
  5
419
330
34D
100
AcDbEntity
  8
DEFPOINTS
 62
     0
100
AcDbPoint
 10
541.6275417972819
 20
288.9027774734762
 30
0.0
  0
ENDBLK
  5
358
330
34D
100
AcDbEntity
  8
0
100
AcDbBlockEnd
  0
BLOCK
  5
35B
330
35A
100
AcDbEntity
  8
0
100
AcDbBlockBegin
  2
*D4
 70
     1
 10
0.0
 20
0.0
 30
0.0
  3
*D4
  1

  0
LINE
  5
41A
330
35A
100
AcDbEntity
  8
SUNPOU
 62
     4
100
AcDbLine
 10
480.2055945781892
 20
442.0529774734762
 30
0.0
 11
525.5076391748925
 21
442.0529774734762
 31
0.0
  0
LINE
  5
41B
330
35A
100
AcDbEntity
  8
SUNPOU
 62
     4
100
AcDbLine
 10
480.2055945781892
 20
323.7527774734763
 30
0.0
 11
525.5076391748925
 21
323.7527774734763
 31
0.0
  0
LINE
  5
41C
330
35A
100
AcDbEntity
  8
SUNPOU
 62
     4
100
AcDbLine
 10
522.5076391748926
 20
435.0529774734762
 30
0.0
 11
522.5076391748926
 21
330.7527774734763
 31
0.0
  0
INSERT
  5
41D
330
35A
100
AcDbEntity
  8
SUNPOU
 62
     4
100
AcDbBlockReference
  2
_OPEN
 10
522.5076391748926
 20
442.0529774734762
 30
0.0
 41
7.0
 42
7.0
 43
7.0
 50
90.0
  0
INSERT
  5
41E
330
35A
100
AcDbEntity
  8
SUNPOU
 62
     4
100
AcDbBlockReference
  2
_OPEN
 10
522.5076391748926
 20
323.7527774734763
 30
0.0
 41
7.0
 42
7.0
 43
7.0
 50
270.0
  0
MTEXT
  5
41F
330
35A
100
AcDbEntity
  8
SUNPOU
 62
     4
100
AcDbMText
 10
517.5076391748924
 20
382.9028774734764
 30
0.0
 40
6.0
 41
0.0
 71
     5
 72
     1
  1
\A1;118
 11
0.0000000000000001
 21
1.0
 31
0.0
1001
ACAD
1000
MTEXTBEGIN
1070
    73
1070
     1
1070
    44
1040
1.0
1070
    74
1070
     0
1000
MTEXTEND
1000
MTEXTBEGIN
1070
    73
1070
     1
1070
    44
1040
1.0
1070
    74
1070
     0
1000
MTEXTEND
  0
POINT
  5
420
330
35A
100
AcDbEntity
  8
DEFPOINTS
 62
     0
100
AcDbPoint
 10
474.2055945781892
 20
442.0529774734762
 30
0.0
  0
POINT
  5
421
330
35A
100
AcDbEntity
  8
DEFPOINTS
 62
     0
100
AcDbPoint
 10
474.2055945781892
 20
323.7527774734763
 30
0.0
  0
POINT
  5
422
330
35A
100
AcDbEntity
  8
DEFPOINTS
 62
     0
100
AcDbPoint
 10
522.5076391748926
 20
323.7527774734763
 30
0.0
  0
ENDBLK
  5
365
330
35A
100
AcDbEntity
  8
0
100
AcDbBlockEnd
  0
BLOCK
  5
368
330
367
100
AcDbEntity
  8
0
100
AcDbBlockBegin
  2
*D5
 70
     1
 10
0.0
 20
0.0
 30
0.0
  3
*D5
  1

  0
ARC
  5
485
330
367
100
AcDbEntity
  8
SUNPOU
 62
     4
100
AcDbCircle
 10
380.2055638475568
 20
357.9798208827603
 30
0.0
 40
26.15086146861254
100
AcDbArc
 50
285.3829082516785
 51
29.61717011294055
  0
INSERT
  5
486
330
367
100
AcDbEntity
  8
SUNPOU
 62
     4
100
AcDbBlockReference
  2
_OPEN
 10
380.2055412611469
 20
331.8289594141574
 30
0.0
 41
7.0
 42
7.0
 43
7.0
 50
187.6914293827546
  0
INSERT
  5
487
330
367
100
AcDbEntity
  8
SUNPOU
 62
     4
100
AcDbBlockReference
  2
_OPEN
 10
398.6969740636936
 20
376.4713136231832
 30
0.0
 41
7.0
 42
7.0
 43
7.0
 50
127.3086489818645
  0
MTEXT
  5
488
330
367
100
AcDbEntity
  8
SUNPOU
 62
     4
100
AcDbMText
 10
399.7464173886079
 20
349.8857499816853
 30
0.0
 40
6.0
 41
0.0
 71
     5
 72
     1
  1
\A1;135°
 11
0.3826828005604568
 21
0.9238797942130815
 31
0.0
  0
POINT
  5
489
330
367
100
AcDbEntity
  8
DEFPOINTS
 62
     0
100
AcDbPoint
 10
398.6970184325944
 20
339.4883725111466
 30
0.0
  0
POINT
  5
48A
330
367
100
AcDbEntity
  8
DEFPOINTS
 62
     0
100
AcDbPoint
 10
410.2253766768028
 20
387.9997676857592
 30
0.0
  0
POINT
  5
48B
330
367
100
AcDbEntity
  8
DEFPOINTS
 62
     0
100
AcDbPoint
 10
380.2054981401603
 20
281.9028774734764
 30
0.0
  0
POINT
  5
48C
330
367
100
AcDbEntity
  8
DEFPOINTS
 62
     0
100
AcDbPoint
 10
380.2055723977433
 20
367.8793464595737
 30
0.0
  0
POINT
  5
48D
330
367
100
AcDbEntity
  8
DEFPOINTS
 62
     0
100
AcDbPoint
 10
375.108801966456
 20
352.8830362556043
 30
0.0
  0
ENDBLK
  5
372
330
367
100
AcDbEntity
  8
0
100
AcDbBlockEnd
  0
BLOCK
  5
375
330
374
100
AcDbEntity
  8
0
100
AcDbBlockBegin
  2
*D6
 70
     1
 10
0.0
 20
0.0
 30
0.0
  3
*D6
  1

  0
LINE
  5
42C
330
374
100
AcDbEntity
  8
SUNPOU
 62
     4
100
AcDbLine
 10
480.2055945781892
 20
190.4132774734764
 30
0.0
 11
525.5621531738425
 21
190.4132774734764
 31
0.0
  0
LINE
  5
42D
330
374
100
AcDbEntity
  8
SUNPOU
 62
     4
100
AcDbLine
 10
480.2053945781893
 20
137.6132774734762
 30
0.0
 11
525.5621531738425
 21
137.6132774734762
 31
0.0
  0
LINE
  5
42E
330
374
100
AcDbEntity
  8
SUNPOU
 62
     4
100
AcDbLine
 10
522.5621531738425
 20
183.4132774734763
 30
0.0
 11
522.5621531738425
 21
144.6132774734762
 31
0.0
  0
INSERT
  5
42F
330
374
100
AcDbEntity
  8
SUNPOU
 62
     4
100
AcDbBlockReference
  2
_OPEN
 10
522.5621531738425
 20
190.4132774734764
 30
0.0
 41
7.0
 42
7.0
 43
7.0
 50
90.0
  0
INSERT
  5
430
330
374
100
AcDbEntity
  8
SUNPOU
 62
     4
100
AcDbBlockReference
  2
_OPEN
 10
522.5621531738425
 20
137.6132774734762
 30
0.0
 41
7.0
 42
7.0
 43
7.0
 50
270.0
  0
MTEXT
  5
431
330
374
100
AcDbEntity
  8
SUNPOU
 62
     4
100
AcDbMText
 10
517.5621531738425
 20
164.0132774734764
 30
0.0
 40
6.0
 41
0.0
 71
     5
 72
     1
  1
\A1;53
 11
0.0000000000000001
 21
1.0
 31
0.0
1001
ACAD
1000
MTEXTBEGIN
1070
    73
1070
     1
1070
    44
1040
1.0
1070
    74
1070
     0
1000
MTEXTEND
1000
MTEXTBEGIN
1070
    73
1070
     1
1070
    44
1040
1.0
1070
    74
1070
     0
1000
MTEXTEND
  0
POINT
  5
432
330
374
100
AcDbEntity
  8
DEFPOINTS
 62
     0
100
AcDbPoint
 10
474.2055945781892
 20
190.4132774734764
 30
0.0
  0
POINT
  5
433
330
374
100
AcDbEntity
  8
DEFPOINTS
 62
     0
100
AcDbPoint
 10
474.2053945781893
 20
137.6132774734762
 30
0.0
  0
POINT
  5
434
330
374
100
AcDbEntity
  8
DEFPOINTS
 62
     0
100
AcDbPoint
 10
522.5621531738425
 20
137.6132774734762
 30
0.0
  0
ENDBLK
  5
37F
330
374
100
AcDbEntity
  8
0
100
AcDbBlockEnd
  0
BLOCK
  5
3C1
330
38F
100
AcDbEntity
  8
0
100
AcDbBlockBegin
  2
*D7
 70
     1
 10
0.0
 20
0.0
 30
0.0
  3
*D7
  1

  0
LINE
  5
435
330
38F
100
AcDbEntity
  8
SEIHIN
 62
     4
100
AcDbLine
 10
433.3555945781892
 20
288.9027774734762
 30
0.0
 11
413.5483238553543
 21
288.9027774734762
 31
0.0
  0
LINE
  5
436
330
38F
100
AcDbEntity
  8
SEIHIN
 62
     4
100
AcDbLine
 10
433.3555945781892
 20
323.9027774734762
 30
0.0
 11
413.5483238553543
 21
323.9027774734762
 31
0.0
  0
LINE
  5
437
330
38F
100
AcDbEntity
  8
SEIHIN
 62
     4
100
AcDbLine
 10
416.5483238553543
 20
295.9027774734762
 30
0.0
 11
416.5483238553543
 21
316.9027774734762
 31
0.0
  0
INSERT
  5
438
330
38F
100
AcDbEntity
  8
SEIHIN
 62
     4
100
AcDbBlockReference
  2
_OPEN
 10
416.5483238553543
 20
288.9027774734762
 30
0.0
 41
7.0
 42
7.0
 43
7.0
 50
270.0
  0
INSERT
  5
439
330
38F
100
AcDbEntity
  8
SEIHIN
 62
     4
100
AcDbBlockReference
  2
_OPEN
 10
416.5483238553543
 20
323.9027774734762
 30
0.0
 41
7.0
 42
7.0
 43
7.0
 50
90.0
  0
MTEXT
  5
43A
330
38F
100
AcDbEntity
  8
SEIHIN
 62
     4
100
AcDbMText
 10
411.5483238553542
 20
306.4027774734762
 30
0.0
 40
6.0
 41
0.0
 71
     5
 72
     1
  1
\A1;※35
 11
0.0000000000000001
 21
1.0
 31
0.0
1001
ACAD
1000
MTEXTBEGIN
1070
    73
1070
     1
1070
    44
1040
1.0
1070
    74
1070
     0
1000
MTEXTEND
1000
MTEXTBEGIN
1070
    73
1070
     1
1070
    44
1040
1.0
1070
    74
1070
     0
1000
MTEXTEND
  0
POINT
  5
43B
330
38F
100
AcDbEntity
  8
DEFPOINTS
 62
     0
100
AcDbPoint
 10
439.3555945781892
 20
288.9027774734762
 30
0.0
  0
POINT
  5
43C
330
38F
100
AcDbEntity
  8
DEFPOINTS
 62
     0
100
AcDbPoint
 10
439.3555945781892
 20
323.9027774734762
 30
0.0
  0
POINT
  5
43D
330
38F
100
AcDbEntity
  8
DEFPOINTS
 62
     0
100
AcDbPoint
 10
416.5483238553543
 20
323.9027774734762
 30
0.0
  0
ENDBLK
  5
3CD
330
38F
100
AcDbEntity
  8
0
100
AcDbBlockEnd
  0
ENDSEC
  0
SECTION
  2
ENTITIES
  0
TEXT
  5
11A
330
1A
100
AcDbEntity
  8
ZUWAKU
 62
     7
 48
10.0
100
AcDbText
 10
795.5579444309237
 20
4.974918402528146
 30
0.0
 40
8.0
  1
A1
100
AcDbText
  0
LINE
  5
11B
330
1A
100
AcDbEntity
  8
ZUWAKU
 62
     7
 48
10.0
100
AcDbLine
 10
10.05047808566086
 20
25.78258628282265
 30
0.0
 11
806.0504780856609
 21
25.78258628282253
 31
0.0
  0
LINE
  5
11C
330
1A
100
AcDbEntity
  8
ZUWAKU
  6
CONTINUOUS
 62
     7
100
AcDbLine
 10
806.0504780856609
 20
563.7825862828226
 30
0.0
 11
10.05047808566086
 21
563.7825862828226
 31
0.0
  0
LINE
  5
11D
330
1A
100
AcDbEntity
  8
ZUWAKU
  6
CONTINUOUS
 62
     7
100
AcDbLine
 10
806.0504780856609
 20
13.78258628282265
 30
0.0
 11
10.05047808566086
 21
13.78258628282265
 31
0.0
  0
LINE
  5
11E
330
1A
100
AcDbEntity
  8
ZUWAKU
  6
CONTINUOUS
 62
     7
100
AcDbLine
 10
10.05047808566086
 20
563.7825862828226
 30
0.0
 11
10.05047808566086
 21
13.78258628282265
 31
0.0
  0
LINE
  5
11F
330
1A
100
AcDbEntity
  8
ZUWAKU
 62
     7
 48
10.0
100
AcDbLine
 10
44.55797523147839
 20
13.78258628282265
 30
0.0
 11
44.5579752314784
 21
25.78258628282265
 31
0.0
  0
TEXT
  5
120
330
1A
100
AcDbEntity
  8
ZUWAKU
 62
     7
100
AcDbText
 10
16.05676551180931
 20
15.52294263804401
 30
0.0
 40
8.0
  1
品 種
100
AcDbText
  0
LINE
  5
121
330
1A
100
AcDbEntity
  8
ZUWAKU
 62
     7
 48
10.0
100
AcDbLine
 10
276.1028387068254
 20
13.78258628282265
 30
0.0
 11
276.1028387068254
 21
25.78258628282261
 31
0.0
  0
LINE
  5
122
330
1A
100
AcDbEntity
  8
ZUWAKU
 62
     7
 48
10.0
100
AcDbLine
 10
209.5138526425484
 20
13.78258628282265
 30
0.0
 11
209.5138526425485
 21
25.78258628282263
 31
0.0
  0
TEXT
  5
124
330
1A
100
AcDbEntity
  8
ZUWAKU
 62
     7
100
AcDbText
 10
215.4560837190756
 20
16.18358115302453
 30
0.0
 40
8.0
  1
品名・ｻ ｲ ｽﾞ
100
AcDbText
  0
LINE
  5
126
330
1A
100
AcDbEntity
  8
ZUWAKU
 62
     7
 48
10.0
100
AcDbLine
 10
768.7231079932794
 20
13.78258628282237
 30
0.0
 11
768.7231079932794
 21
25.78258628282254
 31
0.0
  0
LINE
  5
127
330
1A
100
AcDbEntity
  8
ZUWAKU
 62
     7
 48
10.0
100
AcDbLine
 10
733.8119002376948
 20
13.78258628282242
 30
0.0
 11
733.8119002376946
 21
25.78258628282254
 31
0.0
  0
TEXT
  5
128
330
1A
100
AcDbEntity
  8
ZUWAKU
 62
     7
100
AcDbText
 10
739.6955629973526
 20
15.24227755810852
 30
0.0
 40
8.0
  1
尺 度
100
AcDbText
  0
TEXT
  5
129
330
1A
100
AcDbEntity
  8
ZUWAKU
 62
     7
100
AcDbText
 10
779.7374630323229
 20
15.55488920081529
 30
0.0
 40
8.0
  1
1/2
100
AcDbText
  0
TEXT
  5
12B
330
1A
100
AcDbEntity
  8
ZUWAKU
 62
     7
100
AcDbText
 10
620.3363288383084
 20
15.6519090944263
 30
0.0
 40
8.0
  1
品 番
100
AcDbText
  0
LINE
  5
12C
330
1A
100
AcDbEntity
  8
ZUWAKU
 62
     7
 48
10.0
100
AcDbLine
 10
614.3351028194128
 20
13.78258628282232
 30
0.0
 11
614.3351028194128
 21
25.78258628282256
 31
0.0
  0
LINE
  5
12D
330
1A
100
AcDbEntity
  8
ZUWAKU
 62
     7
 48
10.0
100
AcDbLine
 10
648.7607587371021
 20
13.78258628282232
 30
0.0
 11
648.7607587371021
 21
25.78258628282255
 31
0.0
  0
TEXT
  5
12E
330
1A
100
AcDbEntity
  8
ZUWAKU
 62
     7
 48
10.0
100
AcDbText
 10
646.2758615931216
 20
4.949376903717848
 30
0.0
 40
8.0
  1
積水化学工業株式会社  建材
100
AcDbText
  0
LINE
  5
12F
330
1A
100
AcDbEntity
  8
ZUWAKU
  6
CONTINUOUS
 62
     7
100
AcDbLine
 10
806.0504780856609
 20
563.7825862828226
 30
0.0
 11
806.0504780856609
 21
13.78258628282265
 31
0.0
  0
ARC
  5
239
330
1A
100
AcDbEntity
  8
NOKITOI
  6
PHANTOM
 62
     8
 48
5.0
100
AcDbCircle
 10
380.2195598660448
 20
188.9132875068492
 30
0.0
 40
50.300012
100
AcDbArc
 50
188.6764639999999
 51
351.2914929999999
  0
ARC
  5
23A
330
1A
100
AcDbEntity
  8
NOKITOI
  6
PHANTOM
 62
     8
 48
5.0
100
AcDbCircle
 10
380.2195598660448
 20
188.9132875068492
 30
0.0
 40
49.00000099999999
100
AcDbArc
 50
185.413376
 51
354.5863799999999
  0
LINE
  5
23B
330
1A
100
AcDbEntity
  8
SEIHIN
  6
CONTINUOUS
 62
     3
 48
16.0
100
AcDbLine
 10
474.2055945781892
 20
190.4132774734764
 30
0.0
 11
380.2054945781894
 21
190.4132774734764
 31
0.0
  0
LINE
  5
23C
330
1A
100
AcDbEntity
  8
SEIHIN
  6
CONTINUOUS
 62
     3
 48
16.0
100
AcDbLine
 10
421.5081945781894
 20
179.4132774734762
 30
0.0
 11
380.2054945781894
 21
179.4132774734762
 31
0.0
  0
LINE
  5
23D
330
1A
100
AcDbEntity
  8
CENTER_L
  6
CENTER
 62
     1
 48
5.0
100
AcDbLine
 10
450.9162945781894
 20
312.1920774734764
 30
0.0
 11
339.8397945781892
 21
423.2685774734764
 31
0.0
  0
LINE
  5
23E
330
1A
100
AcDbEntity
  8
SEIHIN
  6
CONTINUOUS
 62
     3
 48
16.0
100
AcDbLine
 10
404.3774338351292
 20
313.9027774734762
 30
0.0
 11
394.1879945781894
 21
313.9027774734762
 31
0.0
  0
LINE
  5
23F
330
1A
100
AcDbEntity
  8
SEIHIN
  6
CONTINUOUS
 62
     3
 48
16.0
100
AcDbLine
 10
405.4699945781893
 20
325.9027774734763
 30
0.0
 11
393.6879945781894
 21
325.9027774734763
 31
0.0
  0
LINE
  5
240
330
1A
100
AcDbEntity
  8
SEIHIN
  6
CONTINUOUS
 62
     3
 48
16.0
100
AcDbLine
 10
409.4371945781892
 20
327.9027774734763
 30
0.0
 11
393.6879945781894
 21
327.9027774734763
 31
0.0
  0
LINE
  5
241
330
1A
100
AcDbEntity
  8
SEIHIN
  6
CONTINUOUS
 62
     3
 48
16.0
100
AcDbLine
 10
380.2055945781893
 20
288.9028774734764
 30
0.0
 11
439.3555945781892
 21
288.9027774734762
 31
0.0
  0
LINE
  5
242
330
1A
100
AcDbEntity
  8
CENTER_L
  6
CENTER
 62
     1
 48
5.0
100
AcDbLine
 10
481.2055945781893
 20
382.9029774734763
 30
0.0
 11
395.2291363638178
 21
382.9029774734763
 31
0.0
  0
LINE
  5
243
330
1A
100
AcDbEntity
  8
SEIHIN
  6
CONTINUOUS
 62
     3
 48
16.0
100
AcDbLine
 10
439.2055945781892
 20
432.1379774734763
 30
0.0
 11
375.3055945781894
 21
432.1380774734762
 31
0.0
  0
LINE
  5
244
330
1A
100
AcDbEntity
  8
SEIHIN
  6
CONTINUOUS
 62
     3
 48
16.0
100
AcDbLine
 10
474.2055945781892
 20
440.0529774734763
 30
0.0
 11
372.0340945781894
 21
440.0529774734763
 31
0.0
  0
LINE
  5
245
330
1A
100
AcDbEntity
  8
SEIHIN
  6
CONTINUOUS
 62
     3
 48
16.0
100
AcDbLine
 10
474.2055945781892
 20
442.0529774734762
 30
0.0
 11
371.2055945781892
 21
442.0528774734763
 31
0.0
  0
LINE
  5
246
330
1A
100
AcDbEntity
  8
SEIHIN
  6
CONTINUOUS
 62
     3
 48
16.0
100
AcDbLine
 10
330.9703945781894
 20
387.8028774734762
 30
0.0
 11
421.6054945781892
 21
332.9027774734762
 31
0.0
  0
LINE
  5
247
330
1A
100
AcDbEntity
  8
SEIHIN
  6
CONTINUOUS
 62
     3
 48
16.0
100
AcDbLine
 10
375.3055945781894
 20
432.1380774734762
 30
0.0
 11
430.2056945781894
 21
341.5029774734763
 31
0.0
  0
LINE
  5
248
330
1A
100
AcDbEntity
  8
SEIHIN
  6
CONTINUOUS
 62
     3
 48
16.0
100
AcDbLine
 10
392.6412945781892
 20
138.1132774734762
 30
0.0
 11
439.3554945781892
 21
138.1132774734762
 31
0.0
  0
ARC
  5
249
330
1A
100
AcDbEntity
  8
SEIHIN
  6
CONTINUOUS
 62
     3
 48
16.0
100
AcDbCircle
 10
380.2054504400276
 20
188.9132427175146
 30
0.0
 40
52.29996524406821
100
AcDbArc
 50
269.999938802109
 51
346.4364699695415
  0
ARC
  5
24A
330
1A
100
AcDbEntity
  8
SEIHIN
  6
CONTINUOUS
 62
     3
 48
16.0
100
AcDbCircle
 10
380.2054966161206
 20
188.913279129337
 30
0.0
 40
50.30000165596428
100
AcDbArc
 50
269.9998837705243
 51
348.1892359232528
  0
ARC
  5
24B
330
1A
100
AcDbEntity
  8
SEIHIN
  6
CONTINUOUS
 62
     3
 48
16.0
100
AcDbCircle
 10
380.2055035537513
 20
188.9132816588574
 30
0.0
 40
49.09999339704766
100
AcDbArc
 50
290.3967702463002
 51
299.6032862875535
  0
ARC
  5
24C
330
1A
100
AcDbEntity
  8
SEIHIN
  6
CONTINUOUS
 62
     3
 48
16.0
100
AcDbCircle
 10
380.2051947708461
 20
188.9131376708041
 30
0.0
 40
46.29997460274805
100
AcDbArc
 50
286.9301317020379
 51
303.0707454985952
  0
ARC
  5
24F
330
1A
100
AcDbEntity
  8
SEIHIN
  6
CONTINUOUS
 62
     3
 48
16.0
100
AcDbCircle
 10
356.4409945781894
 20
315.4028774734764
 30
0.0
 40
1.5
100
AcDbArc
 50
180.0
 51
270.0
  0
LINE
  5
250
330
1A
100
AcDbEntity
  8
SEIHIN
  6
CONTINUOUS
 62
     3
 48
16.0
100
AcDbLine
 10
366.7229945781893
 20
314.4028774734763
 30
0.0
 11
366.7229945781893
 21
327.9028774734764
 31
0.0
  0
LINE
  5
251
330
1A
100
AcDbEntity
  8
SEIHIN
  6
CONTINUOUS
 62
     3
 48
16.0
100
AcDbLine
 10
393.6879945781894
 20
314.4027774734762
 30
0.0
 11
393.6879945781894
 21
327.9027774734763
 31
0.0
  0
ARC
  5
252
330
1A
100
AcDbEntity
  8
SEIHIN
  6
CONTINUOUS
 62
     3
 48
16.0
100
AcDbCircle
 10
335.8641945781893
 20
315.4028774734764
 30
0.0
 40
1.5
100
AcDbArc
 50
180.0
 51
270.0
  0
ARC
  5
253
330
1A
100
AcDbEntity
  8
SEIHIN
  6
CONTINUOUS
 62
     3
 48
16.0
100
AcDbCircle
 10
333.8303945781892
 20
315.4028774734764
 30
0.0
 40
1.5
100
AcDbArc
 50
180.0
 51
270.0
  0
LINE
  5
254
330
1A
100
AcDbEntity
  8
SEIHIN
  6
CONTINUOUS
 62
     3
 48
16.0
100
AcDbLine
 10
332.3303945781892
 20
288.9028774734764
 30
0.0
 11
332.3303945781892
 21
323.9028774734764
 31
0.0
  0
LINE
  5
255
330
1A
100
AcDbEntity
  8
SEIHIN
  6
CONTINUOUS
 62
     3
 48
16.0
100
AcDbLine
 10
338.4177945781893
 20
314.4028774734763
 30
0.0
 11
338.4177945781893
 21
327.9028774734764
 31
0.0
  0
LINE
  5
256
330
1A
100
AcDbEntity
  8
SEIHIN
  6
CONTINUOUS
 62
     3
 48
16.0
100
AcDbLine
 10
321.0554945781894
 20
288.9028774734764
 30
0.0
 11
321.0554945781894
 21
391.9027774734763
 31
0.0
  0
LINE
  5
257
330
1A
100
AcDbEntity
  8
SEIHIN
  6
CONTINUOUS
 62
     3
 48
16.0
100
AcDbLine
 10
323.0554945781894
 20
288.9028774734764
 30
0.0
 11
323.0554945781894
 21
391.0743774734762
 31
0.0
  0
LINE
  5
259
330
1A
100
AcDbEntity
  8
CENTER_L
  6
CENTER
 62
     1
 48
5.0
100
AcDbLine
 10
380.2054981401603
 20
281.9028774734764
 30
0.0
 11
380.2055723977432
 21
367.8793464595737
 31
0.0
  0
TEXT
  5
25A
330
1A
100
AcDbEntity
  8
ZUWAKU
 62
     7
100
AcDbText
 10
50.3519382305086
 20
16.10306189639755
 30
0.0
 40
8.0
  1
丸トップ　のきとい
100
AcDbText
  0
ARC
  5
25C
330
1A
100
AcDbEntity
  8
SEIHIN
  6
CONTINUOUS
 62
     3
 48
16.0
100
AcDbCircle
 10
380.2055067730536
 20
188.9132678707266
 30
0.0
 40
52.29999039737066
100
AcDbArc
 50
193.5633263386847
 51
269.9998770880804
  0
LINE
  5
25D
330
1A
100
AcDbEntity
  8
CENTER_L
  6
CENTER
 62
     1
 48
5.0
100
AcDbLine
 10
380.2054945781894
 20
127.7960774734763
 30
0.0
 11
380.2054945781894
 21
202.5774774734763
 31
0.0
  0
TEXT
  5
25E
330
1A
100
AcDbEntity
  8
ZUWAKU
 62
     7
100
AcDbText
 10
282.3131429914078
 20
15.64241700452384
 30
0.0
 40
8.0
  1
内隅曲り　１０５
100
AcDbText
  0
ARC
  5
263
330
1A
100
AcDbEntity
  8
SEIHIN
  6
CONTINUOUS
 62
     3
 48
16.0
100
AcDbCircle
 10
331.3303959818187
 20
187.9132789607489
 30
0.0
 40
0.9999844448769373
100
AcDbArc
 50
226.6532392575087
 51
46.66133884090437
  0
LINE
  5
264
330
1A
100
AcDbEntity
  8
SEIHIN
  6
CONTINUOUS
 62
     3
 48
16.0
100
AcDbLine
 10
327.5554945781894
 20
179.4132774734762
 30
0.0
 11
332.0332945781892
 21
179.4132774734762
 31
0.0
  0
ARC
  5
265
330
1A
100
AcDbEntity
  8
SEIHIN
  6
CONTINUOUS
 62
     3
 48
16.0
100
AcDbCircle
 10
334.8409708947942
 20
179.6529438939916
 30
0.0
 40
2.799962144368723
100
AcDbArc
 50
98.07020018686962
 51
191.5385043538448
  0
ARC
  5
266
330
1A
100
AcDbEntity
  8
SEIHIN
  6
CONTINUOUS
 62
     3
 48
16.0
100
AcDbCircle
 10
327.5555162311942
 20
183.9132868117706
 30
0.0
 40
6.5000216530115
100
AcDbArc
 50
46.658269857487
 51
180.0000823143182
  0
LINE
  5
267
330
1A
100
AcDbEntity
  8
SEIHIN
  6
CONTINUOUS
 62
     3
 48
16.0
100
AcDbLine
 10
321.0554945781894
 20
190.4132774734764
 30
0.0
 11
380.2054945781894
 21
190.4132774734764
 31
0.0
  0
ARC
  5
268
330
1A
100
AcDbEntity
  8
SEIHIN
  6
CONTINUOUS
 62
     3
 48
16.0
100
AcDbCircle
 10
380.2054574968135
 20
188.9133076031045
 30
0.0
 40
50.30003012966765
100
AcDbArc
 50
191.8105576865981
 51
269.9999283306269
  0
ARC
  5
269
330
1A
100
AcDbEntity
  8
NOKITOI
  6
PHANTOM
 62
     8
 48
5.0
100
AcDbCircle
 10
327.4579598660448
 20
183.9133875068492
 30
0.0
 40
3.999994
100
AcDbArc
 50
5.413986
 51
185.413851
  0
LINE
  5
26A
330
1A
100
AcDbEntity
  8
SEIHIN
  6
CONTINUOUS
 62
     3
 48
16.0
100
AcDbLine
 10
321.0554945781894
 20
183.9132774734764
 30
0.0
 11
321.0554945781894
 21
190.4132774734764
 31
0.0
  0
ARC
  5
26B
330
1A
100
AcDbEntity
  8
SEIHIN
  6
CONTINUOUS
 62
     3
 48
16.0
100
AcDbCircle
 10
327.5554974720764
 20
183.9132787215631
 30
0.0
 40
4.500002893887122
100
AcDbArc
 50
46.65952874859491
 51
180.0000158911239
  0
ARC
  5
26C
330
1A
100
AcDbEntity
  8
NOKITOI
  6
PHANTOM
 62
     8
 48
5.0
100
AcDbCircle
 10
327.4579598660448
 20
183.9133875068492
 30
0.0
 40
4.000029
100
AcDbArc
 50
185.413851
 51
319.252818
  0
ARC
  5
26D
330
1A
100
AcDbEntity
  8
SEIHIN
  6
CONTINUOUS
 62
     3
 48
16.0
100
AcDbCircle
 10
327.5554945781895
 20
183.9132774734763
 30
0.0
 40
4.500000000000042
100
AcDbArc
 50
179.9999999999994
 51
269.9999999999994
  0
ARC
  5
26E
330
1A
100
AcDbEntity
  8
SEIHIN
  6
CONTINUOUS
 62
     3
 48
16.0
100
AcDbCircle
 10
327.5554945778048
 20
183.9132774738608
 30
0.0
 40
6.500000000384615
100
AcDbArc
 50
179.9991185298593
 51
270.0000000033901
  0
CIRCLE
  5
26F
330
1A
100
AcDbEntity
  8
NOKITOI
  6
PHANTOM
 62
     8
 48
5.0
100
AcDbCircle
 10
327.4579598660448
 20
183.9133875068492
 30
0.0
 40
2.7
  0
LINE
  5
270
330
1A
100
AcDbEntity
  8
SEIHIN
  6
CONTINUOUS
 62
     3
 48
16.0
100
AcDbLine
 10
327.5554945781894
 20
177.4132774734762
 30
0.0
 11
329.1123640837246
 21
177.4132774734762
 31
0.0
  0
ARC
  5
271
330
1A
100
AcDbEntity
  8
SEIHIN
  6
CONTINUOUS
 62
     3
 48
16.0
100
AcDbCircle
 10
328.3919995218084
 20
176.4132735809915
 30
0.0
 40
1.00000389249693
100
AcDbArc
 50
13.56822092544145
 51
90.00028324740394
  0
ARC
  5
272
330
1A
100
AcDbEntity
  8
SEIHIN
  6
CONTINUOUS
 62
     3
 48
16.0
100
AcDbCircle
 10
329.9915398986061
 20
178.4132406498322
 30
0.0
 40
1.000036824670916
100
AcDbArc
 50
11.81365208712462
 51
90.00259657298906
  0
ARC
  5
273
330
1A
100
AcDbEntity
  8
SEIHIN
  6
CONTINUOUS
 62
     3
 48
16.0
100
AcDbCircle
 10
427.1441087880094
 20
188.979955311007
 30
0.0
 40
52.93523718762862
100
AcDbArc
 50
190.4118345789187
 51
234.9213301081006
  0
ARC
  5
274
330
1A
100
AcDbEntity
  8
SEIHIN
  6
CONTINUOUS
 62
     3
 48
16.0
100
AcDbCircle
 10
380.2054756150464
 20
188.9133403332637
 30
0.0
 40
49.09997703211585
100
AcDbArc
 50
191.5373966640325
 51
202.0371170668338
  0
ARC
  5
275
330
1A
100
AcDbEntity
  8
SEIHIN
  6
CONTINUOUS
 62
     3
 48
16.0
100
AcDbCircle
 10
380.205456229948
 20
188.9134045982946
 30
0.0
 40
46.29999955716011
100
AcDbArc
 50
188.0703772250569
 51
205.5026921330582
  0
ARC
  5
276
330
1A
100
AcDbEntity
  8
SEIHIN
  6
CONTINUOUS
 62
     3
 48
16.0
100
AcDbCircle
 10
364.068985671519
 20
145.5162730646466
 30
0.0
 40
2.799967079269671
100
AcDbArc
 50
249.6021649610771
 51
343.0692217138434
  0
ARC
  5
277
330
1A
100
AcDbEntity
  8
SEIHIN
  6
CONTINUOUS
 62
     3
 48
16.0
100
AcDbCircle
 10
380.2054978084666
 20
188.9132759671568
 30
0.0
 40
46.29995399549609
100
AcDbArc
 50
236.9293805134671
 51
253.0701148181009
  0
ARC
  5
278
330
1A
100
AcDbEntity
  8
SEIHIN
  6
CONTINUOUS
 62
     3
 48
16.0
100
AcDbCircle
 10
380.205610484514
 20
188.9131277983633
 30
0.0
 40
49.10001403452501
100
AcDbArc
 50
202.0448891608241
 51
233.4620899480078
  0
ARC
  5
279
330
1A
100
AcDbEntity
  8
SEIHIN
  6
CONTINUOUS
 62
     3
 48
16.0
100
AcDbCircle
 10
380.2055619507669
 20
188.9132460567703
 30
0.0
 40
49.09996261058057
100
AcDbArc
 50
240.3964566220884
 51
249.6028723473769
  0
ARC
  5
27A
330
1A
100
AcDbEntity
  8
SEIHIN
  6
CONTINUOUS
 62
     3
 48
16.0
100
AcDbCircle
 10
352.6407984737153
 20
151.7127781740809
 30
0.0
 40
2.800009862482459
100
AcDbArc
 50
233.4619541374366
 51
326.9290672742673
  0
ARC
  5
27B
330
1A
100
AcDbEntity
  8
SEIHIN
  6
CONTINUOUS
 62
     3
 48
16.0
100
AcDbCircle
 10
357.3336023028353
 20
148.6570456978355
 30
0.0
 40
2.799981990109182
100
AcDbArc
 50
146.9303789402435
 51
240.395778007436
  0
ARC
  5
27C
330
1A
100
AcDbEntity
  8
SEIHIN
  6
CONTINUOUS
 62
     3
 48
16.0
100
AcDbCircle
 10
337.2880767763786
 20
171.5411843886928
 30
0.0
 40
2.799961364908202
100
AcDbArc
 50
202.0380303026216
 51
295.5046106681589
  0
ARC
  5
27D
330
1A
100
AcDbEntity
  8
SEIHIN
  6
CONTINUOUS
 62
     3
 48
16.0
100
AcDbCircle
 10
339.6994182833744
 20
166.4869514751553
 30
0.0
 40
2.800024190008826
100
AcDbArc
 50
115.5063984096162
 51
208.9718195565144
  0
ARC
  5
27E
330
1A
100
AcDbEntity
  8
SEIHIN
  6
CONTINUOUS
 62
     3
 48
16.0
100
AcDbCircle
 10
380.2053505630078
 20
188.9132604759535
 30
0.0
 40
49.09998300249688
100
AcDbArc
 50
270.00005136222
 51
283.4627771963332
  0
ARC
  5
27F
330
1A
100
AcDbEntity
  8
SEIHIN
  6
CONTINUOUS
 62
     3
 48
16.0
100
AcDbCircle
 10
380.2054413412112
 20
188.9132837570357
 30
0.0
 40
49.10000628358166
100
AcDbArc
 50
256.537226010152
 51
269.9999454312942
  0
ARC
  5
280
330
1A
100
AcDbEntity
  8
SEIHIN
  6
CONTINUOUS
 62
     3
 48
16.0
100
AcDbCircle
 10
369.4263006385605
 20
143.8855668933159
 30
0.0
 40
2.800035267633369
100
AcDbArc
 50
163.0714647975016
 51
256.5368070924618
  0
ARC
  5
281
330
1A
100
AcDbEntity
  8
SEIHIN
  6
CONTINUOUS
 62
     3
 48
16.0
100
AcDbCircle
 10
390.9845885178182
 20
143.8855668933159
 30
0.0
 40
2.800035267633402
100
AcDbArc
 50
283.4631929075377
 51
16.92853520249754
  0
ARC
  5
282
330
1A
100
AcDbEntity
  8
SEIHIN
  6
CONTINUOUS
 62
     3
 48
16.0
100
AcDbCircle
 10
396.3419410870344
 20
145.5163039543642
 30
0.0
 40
2.799982926695184
100
AcDbArc
 50
196.9292013081181
 51
290.3968935298125
  0
LINE
  5
283
330
1A
100
AcDbEntity
  8
SEIHIN
  6
CONTINUOUS
 62
     3
 48
16.0
100
AcDbLine
 10
334.8905945781893
 20
179.4132774734762
 30
0.0
 11
380.2054945781894
 21
179.4132774734762
 31
0.0
  0
LINE
  5
284
330
1A
100
AcDbEntity
  8
SEIHIN
  6
CONTINUOUS
 62
     3
 48
16.0
100
AcDbLine
 10
372.0336945781892
 20
190.4132774734764
 30
0.0
 11
372.0336945781892
 21
179.4132774734762
 31
0.0
  0
LINE
  5
285
330
1A
100
AcDbEntity
  8
SEIHIN
  6
CONTINUOUS
 62
     3
 48
16.0
100
AcDbLine
 10
380.2054945781894
 20
288.9028774734764
 30
0.0
 11
321.0554945781894
 21
288.9028774734764
 31
0.0
  0
LINE
  5
28C
330
1A
100
AcDbEntity
  8
SEIHIN
  6
CONTINUOUS
 62
     3
 48
16.0
100
AcDbLine
 10
356.0336203127261
 20
313.9028774734763
 30
0.0
 11
366.2229945781892
 21
313.9028774734764
 31
0.0
  0
LINE
  5
28D
330
1A
100
AcDbEntity
  8
SEIHIN
  6
CONTINUOUS
 62
     3
 48
16.0
100
AcDbLine
 10
333.8303945781892
 20
313.9028774734764
 30
0.0
 11
337.9177945781892
 21
313.9028774734764
 31
0.0
  0
ARC
  5
28E
330
1A
100
AcDbEntity
  8
SEIHIN
  6
CONTINUOUS
 62
     3
 48
16.0
100
AcDbCircle
 10
337.9177945781893
 20
314.4028774734764
 30
0.0
 40
0.5000000000000569
100
AcDbArc
 50
269.9999999999934
 51
359.9999999999934
  0
ARC
  5
28F
330
1A
100
AcDbEntity
  8
SEIHIN
  6
CONTINUOUS
 62
     3
 48
16.0
100
AcDbCircle
 10
366.2229945781893
 20
314.4028774734764
 30
0.0
 40
0.5000000000000569
100
AcDbArc
 50
269.9999999999934
 51
359.9999999999934
  0
ARC
  5
290
330
1A
100
AcDbEntity
  8
SEIHIN
  6
CONTINUOUS
 62
     3
 48
16.0
100
AcDbCircle
 10
394.1879945781894
 20
314.4027774734762
 30
0.0
 40
0.5
100
AcDbArc
 50
180.0
 51
270.0
  0
LINE
  5
291
330
1A
100
AcDbEntity
  8
SEIHIN
  6
CONTINUOUS
 62
     3
 48
16.0
100
AcDbLine
 10
321.0554945781894
 20
391.9027774734763
 30
0.0
 11
346.1305945781893
 21
416.9778774734764
 31
0.0
  0
LINE
  5
292
330
1A
100
AcDbEntity
  8
SEIHIN
  6
CONTINUOUS
 62
     3
 48
16.0
100
AcDbLine
 10
353.1379945781894
 20
409.9704774734763
 30
0.0
 11
330.9703945781894
 21
387.8028774734762
 31
0.0
  0
LINE
  5
293
330
1A
100
AcDbEntity
  8
SEIHIN
  6
CONTINUOUS
 62
     3
 48
16.0
100
AcDbLine
 10
347.5447945781892
 20
415.5636774734763
 30
0.0
 11
323.0554945781894
 21
391.0743774734762
 31
0.0
  0
LINE
  5
294
330
1A
100
AcDbEntity
  8
SEIHIN
  6
CONTINUOUS
 62
     3
 48
16.0
100
AcDbLine
 10
330.9703945781894
 20
327.9028774734764
 30
0.0
 11
338.4177945781893
 21
327.9028774734764
 31
0.0
  0
LINE
  5
295
330
1A
100
AcDbEntity
  8
SEIHIN
  6
CONTINUOUS
 62
     3
 48
16.0
100
AcDbLine
 10
321.0554945781894
 20
323.9028774734764
 30
0.0
 11
332.3303945781892
 21
323.9028774734764
 31
0.0
  0
LINE
  5
296
330
1A
100
AcDbEntity
  8
SEIHIN
  6
CONTINUOUS
 62
     3
 48
16.0
100
AcDbLine
 10
334.3641945781893
 20
325.9028774734764
 30
0.0
 11
330.9703945781894
 21
327.9028774734764
 31
0.0
  0
LINE
  5
297
330
1A
100
AcDbEntity
  8
SEIHIN
  6
CONTINUOUS
 62
     3
 48
16.0
100
AcDbLine
 10
330.9703945781894
 20
323.9028774734764
 30
0.0
 11
330.9703945781894
 21
387.8028774734762
 31
0.0
  0
LINE
  5
29C
330
1A
100
AcDbEntity
  8
SEIHIN
  6
CONTINUOUS
 62
     3
 48
16.0
100
AcDbLine
 10
350.9737945781894
 20
327.9028774734764
 30
0.0
 11
366.7229945781893
 21
327.9028774734764
 31
0.0
  0
LINE
  5
29D
330
1A
100
AcDbEntity
  8
SEIHIN
  6
CONTINUOUS
 62
     3
 48
16.0
100
AcDbLine
 10
354.9409945781894
 20
325.9028774734764
 30
0.0
 11
366.7229945781893
 21
325.9028774734764
 31
0.0
  0
LINE
  5
29E
330
1A
100
AcDbEntity
  8
SEIHIN
  6
CONTINUOUS
 62
     3
 48
16.0
100
AcDbLine
 10
338.4177945781893
 20
323.9028774734764
 30
0.0
 11
354.5336203127261
 21
323.9028774734764
 31
0.0
  0
LINE
  5
29F
330
1A
100
AcDbEntity
  8
SEIHIN
  6
CONTINUOUS
 62
     3
 48
16.0
100
AcDbLine
 10
334.3641945781893
 20
325.9028774734764
 30
0.0
 11
338.4177945781893
 21
325.9028774734764
 31
0.0
  0
LINE
  5
2A0
330
1A
100
AcDbEntity
  8
SEIHIN
  6
CONTINUOUS
 62
     3
 48
16.0
100
AcDbLine
 10
334.3641945781893
 20
315.4028774734764
 30
0.0
 11
334.3641945781893
 21
325.9028774734764
 31
0.0
  0
LINE
  5
2A1
330
1A
100
AcDbEntity
  8
SEIHIN
  6
CONTINUOUS
 62
     3
 48
16.0
100
AcDbLine
 10
350.9737945781894
 20
323.9028774734764
 30
0.0
 11
350.9737945781894
 21
327.9028774734764
 31
0.0
  0
LINE
  5
2A2
330
1A
100
AcDbEntity
  8
SEIHIN
  6
CONTINUOUS
 62
     3
 48
16.0
100
AcDbLine
 10
354.9409945781894
 20
325.9028774734764
 30
0.0
 11
350.9737945781894
 21
327.9028774734764
 31
0.0
  0
LINE
  5
2A3
330
1A
100
AcDbEntity
  8
SEIHIN
  6
CONTINUOUS
 62
     3
 48
16.0
100
AcDbLine
 10
354.9409945781894
 20
315.4028774734764
 30
0.0
 11
354.9409945781894
 21
325.9028774734764
 31
0.0
  0
LINE
  5
2A4
330
1A
100
AcDbEntity
  8
SEIHIN
  6
CONTINUOUS
 62
     3
 48
16.0
100
AcDbLine
 10
393.6879945781894
 20
323.9027774734762
 30
0.0
 11
380.2055945781893
 21
323.9027774734762
 31
0.0
  0
LINE
  5
2A5
330
1A
100
AcDbEntity
  8
SEIHIN
  6
CONTINUOUS
 62
     3
 48
16.0
100
AcDbLine
 10
366.7229945781893
 20
323.9028774734764
 30
0.0
 11
380.2054945781894
 21
323.9028774734764
 31
0.0
  0
LINE
  5
2A6
330
1A
100
AcDbEntity
  8
SEIHIN
  6
CONTINUOUS
 62
     3
 48
16.0
100
AcDbLine
 10
347.5447945781892
 20
415.5636774734763
 30
0.0
 11
372.0340945781894
 21
440.0529774734763
 31
0.0
  0
LINE
  5
2A7
330
1A
100
AcDbEntity
  8
SEIHIN
  6
CONTINUOUS
 62
     3
 48
16.0
100
AcDbLine
 10
371.2055945781892
 20
442.0528774734763
 30
0.0
 11
346.1305945781893
 21
416.9778774734764
 31
0.0
  0
LINE
  5
2A8
330
1A
100
AcDbEntity
  8
SEIHIN
  6
CONTINUOUS
 62
     3
 48
16.0
100
AcDbLine
 10
353.1379945781894
 20
409.9704774734763
 30
0.0
 11
375.3055945781894
 21
432.1380774734762
 31
0.0
  0
LINE
  5
2A9
330
1A
100
AcDbEntity
  8
SEIHIN
  6
CONTINUOUS
 62
     3
 48
16.0
100
AcDbLine
 10
439.3555945781892
 20
288.9027774734762
 30
0.0
 11
439.3555945781892
 21
323.7527774734763
 31
0.0
  0
ARC
  5
2AA
330
1A
100
AcDbEntity
  8
SEIHIN
  6
CONTINUOUS
 62
     3
 48
16.0
100
AcDbCircle
 10
426.5806945781892
 20
315.4027774734761
 30
0.0
 40
1.499999999999971
100
AcDbArc
 50
270.0000000000054
 51
0.0000000000054281
  0
ARC
  5
2AB
330
1A
100
AcDbEntity
  8
SEIHIN
  6
CONTINUOUS
 62
     3
 48
16.0
100
AcDbCircle
 10
424.5467945781893
 20
315.4027774734763
 30
0.0
 40
1.500000000000056
100
AcDbArc
 50
270.0000000000021
 51
0.0000000000021713
  0
LINE
  5
2AC
330
1A
100
AcDbEntity
  8
SEIHIN
  6
CONTINUOUS
 62
     3
 48
16.0
100
AcDbLine
 10
421.9932945781892
 20
314.4027774734762
 30
0.0
 11
421.9932945781892
 21
323.9027774734762
 31
0.0
  0
ARC
  5
2AD
330
1A
100
AcDbEntity
  8
SEIHIN
  6
CONTINUOUS
 62
     3
 48
16.0
100
AcDbCircle
 10
403.9699945781893
 20
315.4027774734764
 30
0.0
 40
1.500000000000142
100
AcDbArc
 50
269.9999999999989
 51
359.9999999999989
  0
LINE
  5
2AF
330
1A
100
AcDbEntity
  8
SEIHIN
  6
CONTINUOUS
 62
     3
 48
16.0
100
AcDbLine
 10
428.0806945781892
 20
288.9027774734762
 30
0.0
 11
428.0806945781892
 21
323.9027774734762
 31
0.0
  0
TEXT
  5
2B0
330
1A
100
AcDbEntity
  8
ZUWAKU
 62
     7
100
AcDbText
 10
654.2531733678779
 20
15.90287984531518
 30
0.0
 40
8.0
  1
ＧＧ５１
100
AcDbText
  0
LINE
  5
2B6
330
1A
100
AcDbEntity
  8
SEIHIN
  6
CONTINUOUS
 62
     3
 48
16.0
100
AcDbLine
 10
469.2053945781892
 20
136.6132774734762
 30
0.0
 11
443.3554945781892
 21
136.6132774734762
 31
0.0
  0
LINE
  5
2B7
330
1A
100
AcDbEntity
  8
SEIHIN
  6
CONTINUOUS
 62
     3
 48
16.0
100
AcDbLine
 10
431.2985733879842
 20
177.4132774734762
 30
0.0
 11
474.2053945781893
 21
177.4132774734762
 31
0.0
  0
LINE
  5
2B8
330
1A
100
AcDbEntity
  8
SEIHIN
  6
CONTINUOUS
 62
     3
 48
16.0
100
AcDbLine
 10
421.6054945781892
 20
190.4132774734764
 30
0.0
 11
421.3554945781893
 21
162.1273774734763
 31
0.0
  0
LINE
  5
2B9
330
1A
100
AcDbEntity
  8
SEIHIN
  6
CONTINUOUS
 62
     3
 48
16.0
100
AcDbLine
 10
423.1203945781892
 20
188.9283774734763
 30
0.0
 11
423.2904945781894
 21
171.9613774734763
 31
0.0
  0
ARC
  5
2BA
330
1A
100
AcDbEntity
  8
SEIHIN
  6
CONTINUOUS
 62
     3
 48
16.0
100
AcDbCircle
 10
380.2054858903486
 20
188.9132486748779
 30
0.0
 40
49.10000579277916
100
AcDbArc
 50
337.9628860169424
 51
348.4626002521912
  0
ARC
  5
2BB
330
1A
100
AcDbEntity
  8
SEIHIN
  6
CONTINUOUS
 62
     3
 48
16.0
100
AcDbCircle
 10
380.2054692856979
 20
188.9131936301076
 30
0.0
 40
46.29996201816533
100
AcDbArc
 50
334.4973007450484
 51
351.9296298968365
  0
LINE
  5
2BC
330
1A
100
AcDbEntity
  8
SEIHIN
  6
CONTINUOUS
 62
     3
 48
16.0
100
AcDbLine
 10
439.3554945781892
 20
138.1132774734762
 30
0.0
 11
439.3554945781892
 21
177.4132774734762
 31
0.0
  0
LINE
  5
2BD
330
1A
100
AcDbEntity
  8
SEIHIN
  6
CONTINUOUS
 62
     3
 48
16.0
100
AcDbLine
 10
443.3554945781892
 20
136.6132774734762
 30
0.0
 11
443.3554945781892
 21
177.4132774734762
 31
0.0
  0
ARC
  5
2BE
330
1A
100
AcDbEntity
  8
SEIHIN
  6
CONTINUOUS
 62
     3
 48
16.0
100
AcDbCircle
 10
380.2054698487811
 20
188.9132455396169
 30
0.0
 40
49.09995609464797
100
AcDbArc
 50
306.5373920212875
 51
337.9546834353825
  0
ARC
  5
2BF
330
1A
100
AcDbEntity
  8
SEIHIN
  6
CONTINUOUS
 62
     3
 48
16.0
100
AcDbCircle
 10
407.7700906826634
 20
151.7127781740809
 30
0.0
 40
2.800009862482564
100
AcDbArc
 50
213.0709327257323
 51
306.5380458625639
  0
ARC
  5
2C0
330
1A
100
AcDbEntity
  8
SEIHIN
  6
CONTINUOUS
 62
     3
 48
16.0
100
AcDbCircle
 10
403.0772868535434
 20
148.6570456978355
 30
0.0
 40
2.799981990109142
100
AcDbArc
 50
299.6042219925631
 51
33.06962105975736
  0
ARC
  5
2C1
330
1A
100
AcDbEntity
  8
SEIHIN
  6
CONTINUOUS
 62
     3
 48
16.0
100
AcDbCircle
 10
420.7115798920387
 20
166.4869233174349
 30
0.0
 40
2.800002660687892
100
AcDbArc
 50
331.0285951289492
 51
64.49586310960862
  0
ARC
  5
2C2
330
1A
100
AcDbEntity
  8
SEIHIN
  6
CONTINUOUS
 62
     3
 48
16.0
100
AcDbCircle
 10
423.1228717086428
 20
171.5412074358421
 30
0.0
 40
2.800007712415426
100
AcDbArc
 50
244.4944966788095
 51
337.9618448251686
  0
LINE
  5
2C3
330
1A
100
AcDbEntity
  8
SEIHIN
  6
CONTINUOUS
 62
     3
 48
16.0
100
AcDbLine
 10
439.3554945781892
 20
138.1132774734762
 30
0.0
 11
443.3554945781892
 21
136.6132774734762
 31
0.0
  0
ARC
  5
2C4
330
1A
100
AcDbEntity
  8
NOKITOI
  6
PHANTOM
 62
     8
 48
5.0
100
AcDbCircle
 10
432.9811598660448
 20
183.9131875068492
 30
0.0
 40
3.999958
100
AcDbArc
 50
121.784767
 51
174.584588
  0
ARC
  5
2C5
330
1A
100
AcDbEntity
  8
NOKITOI
  6
PHANTOM
 62
     8
 48
5.0
100
AcDbCircle
 10
432.9811598660448
 20
183.9131875068492
 30
0.0
 40
3.999994
100
AcDbArc
 50
220.269583
 51
121.7840119999999
  0
LINE
  5
2C6
330
1A
100
AcDbEntity
  8
SEIHIN
  6
CONTINUOUS
 62
     3
 48
16.0
100
AcDbLine
 10
431.8554945781892
 20
185.4132774734764
 30
0.0
 11
428.5313945781894
 21
185.4132774734764
 31
0.0
  0
LINE
  5
2C7
330
1A
100
AcDbEntity
  8
SEIHIN
  6
CONTINUOUS
 62
     3
 48
16.0
100
AcDbLine
 10
432.8554945781894
 20
179.4132774734762
 30
0.0
 11
428.3776945781894
 21
179.4132774734762
 31
0.0
  0
ARC
  5
2C8
330
1A
100
AcDbEntity
  8
SEIHIN
  6
CONTINUOUS
 62
     3
 48
16.0
100
AcDbCircle
 10
430.4194094922018
 20
178.4132895911232
 30
0.0
 40
0.9999878824642546
100
AcDbArc
 50
90.0008545203296
 51
168.1886262195346
  0
ARC
  5
2C9
330
1A
100
AcDbEntity
  8
SEIHIN
  6
CONTINUOUS
 62
     3
 48
16.0
100
AcDbCircle
 10
432.8554573673859
 20
183.9132935215383
 30
0.0
 40
4.500037210832113
100
AcDbArc
 50
359.999795671419
 51
133.3412088104165
  0
ARC
  5
2CA
330
1A
100
AcDbEntity
  8
SEIHIN
  6
CONTINUOUS
 62
     3
 48
16.0
100
AcDbCircle
 10
432.8554729251845
 20
183.9132868117707
 30
0.0
 40
6.500021653011459
100
AcDbArc
 50
359.9999176856815
 51
133.3417301425127
  0
ARC
  5
2CB
330
1A
100
AcDbEntity
  8
SEIHIN
  6
CONTINUOUS
 62
     3
 48
16.0
100
AcDbCircle
 10
429.0805460654619
 20
187.9133288771058
 30
0.0
 40
0.9999844423810237
100
AcDbArc
 50
133.3428281243049
 51
313.3425937772748
  0
LINE
  5
2CC
330
1A
100
AcDbEntity
  8
SEIHIN
  6
CONTINUOUS
 62
     3
 48
16.0
100
AcDbLine
 10
425.5322945781894
 20
182.4882774734764
 30
0.0
 11
425.4468945781892
 21
179.0692774734764
 31
0.0
  0
ARC
  5
2CD
330
1A
100
AcDbEntity
  8
SEIHIN
  6
CONTINUOUS
 62
     3
 48
16.0
100
AcDbCircle
 10
425.569957037701
 20
179.6528889159743
 30
0.0
 40
2.800011134672433
100
AcDbArc
 50
348.4628485032746
 51
81.93074335360401
  0
LINE
  5
2CE
330
1A
100
AcDbEntity
  8
SEIHIN
  6
CONTINUOUS
 62
     3
 48
16.0
100
AcDbLine
 10
424.4935945781892
 20
175.4132774734762
 30
0.0
 11
423.2558945781892
 21
175.4132774734762
 31
0.0
  0
LINE
  5
2CF
330
1A
100
AcDbEntity
  8
SEIHIN
  6
CONTINUOUS
 62
     3
 48
16.0
100
AcDbLine
 10
425.5203945781894
 20
179.4132774734762
 30
0.0
 11
423.2157945781892
 21
179.4132774734762
 31
0.0
  0
ARC
  5
2D0
330
1A
100
AcDbEntity
  8
SEIHIN
  6
CONTINUOUS
 62
     3
 48
16.0
100
AcDbCircle
 10
428.5313752843486
 20
182.4132586560944
 30
0.0
 40
3.000018817444012
100
AcDbArc
 50
89.99963151709609
 51
178.5671057541987
  0
ARC
  5
2D1
330
1A
100
AcDbEntity
  8
SEIHIN
  6
CONTINUOUS
 62
     3
 48
16.0
100
AcDbCircle
 10
421.620432963359
 20
188.9132394727723
 30
0.0
 40
1.500038001195107
100
AcDbArc
 50
0.5782242001702577
 51
90.00146616833866
  0
LINE
  5
2D2
330
1A
100
AcDbEntity
  8
SEIHIN
  6
CONTINUOUS
 62
     3
 48
16.0
100
AcDbLine
 10
439.3554945781892
 20
183.9132774734764
 30
0.0
 11
439.3554945781892
 21
190.4132774734764
 31
0.0
  0
ARC
  5
2D3
330
1A
100
AcDbEntity
  8
SEIHIN
  6
CONTINUOUS
 62
     3
 48
16.0
100
AcDbCircle
 10
432.8554945781893
 20
183.9132774734762
 30
0.0
 40
6.499999999999985
100
AcDbArc
 50
270.000000000001
 51
0.0000000000008769
  0
CIRCLE
  5
2D4
330
1A
100
AcDbEntity
  8
NOKITOI
  6
PHANTOM
 62
     8
 48
5.0
100
AcDbCircle
 10
432.9811598660448
 20
183.9131875068492
 30
0.0
 40
2.7
  0
LINE
  5
2D5
330
1A
100
AcDbEntity
  8
SEIHIN
  6
CONTINUOUS
 62
     3
 48
16.0
100
AcDbLine
 10
432.8554945781894
 20
177.4132774734762
 30
0.0
 11
432.0189945781892
 21
177.4132774734762
 31
0.0
  0
ARC
  5
2D6
330
1A
100
AcDbEntity
  8
SEIHIN
  6
CONTINUOUS
 62
     3
 48
16.0
100
AcDbCircle
 10
432.0189896345702
 20
176.4132735809915
 30
0.0
 40
1.000003892496932
100
AcDbArc
 50
89.99971675259564
 51
166.4317790745584
  0
LINE
  5
2D7
330
1A
100
AcDbEntity
  8
SEIHIN
  6
CONTINUOUS
 62
     3
 48
16.0
100
AcDbLine
 10
431.8554945781892
 20
185.4132774734764
 30
0.0
 11
432.3554945781892
 21
179.4133774734763
 31
0.0
  0
ARC
  5
2D8
330
1A
100
AcDbEntity
  8
SEIHIN
  6
CONTINUOUS
 62
     3
 48
16.0
100
AcDbCircle
 10
432.8554945781893
 20
183.9132774734763
 30
0.0
 40
4.500000000000042
100
AcDbArc
 50
270.0000000000007
 51
0.0000000000005428
  0
LINE
  5
2D9
330
1A
100
AcDbEntity
  8
SEIHIN
  6
CONTINUOUS
 62
     3
 48
16.0
100
AcDbLine
 10
474.2053945781893
 20
137.6132774734762
 30
0.0
 11
474.2053945781893
 21
190.4132774734764
 31
0.0
  0
LINE
  5
2DA
330
1A
100
AcDbEntity
  8
SEIHIN
  6
CONTINUOUS
 62
     3
 48
16.0
100
AcDbLine
 10
469.2054945781894
 20
177.4132774734762
 30
0.0
 11
469.2054945781894
 21
136.6132774734762
 31
0.0
  0
LINE
  5
2DD
330
1A
100
AcDbEntity
  8
SEIHIN
  6
CONTINUOUS
 62
     3
 48
16.0
100
AcDbLine
 10
469.2053945781892
 20
136.6132774734762
 30
0.0
 11
474.2053945781893
 21
137.6132774734762
 31
0.0
  0
ARC
  5
2E6
330
1A
100
AcDbEntity
  8
SEIHIN
  6
CONTINUOUS
 62
     3
 48
16.0
100
AcDbCircle
 10
422.4932945781892
 20
314.4027774734762
 30
0.0
 40
0.5
100
AcDbArc
 50
180.0
 51
270.0
  0
LINE
  5
2E7
330
1A
100
AcDbEntity
  8
SEIHIN
  6
CONTINUOUS
 62
     3
 48
16.0
100
AcDbLine
 10
426.5806945781894
 20
313.9027774734762
 30
0.0
 11
422.4932945781892
 21
313.9027774734762
 31
0.0
  0
LINE
  5
2E8
330
1A
100
AcDbEntity
  8
SEIHIN
  6
CONTINUOUS
 62
     3
 48
16.0
100
AcDbLine
 10
474.2055945781892
 20
382.9028774734764
 30
0.0
 11
474.2055945781892
 21
442.0529774734762
 31
0.0
  0
LINE
  5
2E9
330
1A
100
AcDbEntity
  8
SEIHIN
  6
CONTINUOUS
 62
     3
 48
16.0
100
AcDbLine
 10
449.2055945781892
 20
407.0747517389396
 30
0.0
 11
449.2055945781892
 21
396.8853774734763
 31
0.0
  0
LINE
  5
2EA
330
1A
100
AcDbEntity
  8
SEIHIN
  6
CONTINUOUS
 62
     3
 48
16.0
100
AcDbLine
 10
437.2055945781894
 20
408.1673774734763
 30
0.0
 11
437.2055945781894
 21
396.3853774734762
 31
0.0
  0
LINE
  5
2EB
330
1A
100
AcDbEntity
  8
SEIHIN
  6
CONTINUOUS
 62
     3
 48
16.0
100
AcDbLine
 10
435.2055945781892
 20
412.1345774734764
 30
0.0
 11
435.2055945781892
 21
396.3853774734762
 31
0.0
  0
ARC
  5
2EC
330
1A
100
AcDbEntity
  8
SEIHIN
  6
CONTINUOUS
 62
     3
 48
16.0
100
AcDbCircle
 10
447.7055945781892
 20
406.6673774734764
 30
0.0
 40
1.5
100
AcDbArc
 50
0.0
 51
90.0
  0
LINE
  5
2ED
330
1A
100
AcDbEntity
  8
SEIHIN
  6
CONTINUOUS
 62
     3
 48
16.0
100
AcDbLine
 10
474.2056945781894
 20
335.0277774734763
 30
0.0
 11
439.2055945781892
 21
335.0277774734763
 31
0.0
  0
LINE
  5
2EE
330
1A
100
AcDbEntity
  8
SEIHIN
  6
CONTINUOUS
 62
     3
 48
16.0
100
AcDbLine
 10
474.2055945781892
 20
323.7528774734763
 30
0.0
 11
439.3555945781892
 21
323.7527774734763
 31
0.0
  0
LINE
  5
2EF
330
1A
100
AcDbEntity
  8
SEIHIN
  6
CONTINUOUS
 62
     3
 48
16.0
100
AcDbLine
 10
449.2055945781892
 20
358.7309382165365
 30
0.0
 11
449.2055945781892
 21
368.9203774734763
 31
0.0
  0
LINE
  5
2F0
330
1A
100
AcDbEntity
  8
SEIHIN
  6
CONTINUOUS
 62
     3
 48
16.0
100
AcDbLine
 10
437.2055945781894
 20
357.6383774734764
 30
0.0
 11
437.2055945781894
 21
369.4203774734763
 31
0.0
  0
LINE
  5
2F1
330
1A
100
AcDbEntity
  8
SEIHIN
  6
CONTINUOUS
 62
     3
 48
16.0
100
AcDbLine
 10
435.2056945781892
 20
353.6711774734762
 30
0.0
 11
435.2055945781892
 21
369.4203774734763
 31
0.0
  0
LINE
  5
2F2
330
1A
100
AcDbEntity
  8
SEIHIN
  6
CONTINUOUS
 62
     3
 48
16.0
100
AcDbLine
 10
439.2056945781894
 20
341.5028774734762
 30
0.0
 11
421.6055945781894
 21
341.5029774734763
 31
0.0
  0
LINE
  5
2F3
330
1A
100
AcDbEntity
  8
SEIHIN
  6
CONTINUOUS
 62
     3
 48
16.0
100
AcDbLine
 10
439.2056945781894
 20
340.0028774734763
 30
0.0
 11
423.1055945781894
 21
340.0029774734763
 31
0.0
  0
LINE
  5
2F4
330
1A
100
AcDbEntity
  8
SEIHIN
  6
CONTINUOUS
 62
     3
 48
16.0
100
AcDbLine
 10
437.2055945781894
 20
333.6677774734762
 30
0.0
 11
429.4406945781894
 21
333.6677774734762
 31
0.0
  0
LINE
  5
2F5
330
1A
100
AcDbEntity
  8
SEIHIN
  6
CONTINUOUS
 62
     3
 48
16.0
100
AcDbLine
 10
431.8554945781892
 20
325.9027774734763
 30
0.0
 11
423.1054945781894
 21
325.9027774734763
 31
0.0
  0
LINE
  5
2F6
330
1A
100
AcDbEntity
  8
SEIHIN
  6
CONTINUOUS
 62
     3
 48
16.0
100
AcDbLine
 10
439.3555945781892
 20
323.9027774734762
 30
0.0
 11
405.8774485179735
 21
323.9027774734762
 31
0.0
  0
LINE
  5
2F7
330
1A
100
AcDbEntity
  8
SEIHIN
  6
CONTINUOUS
 62
     3
 48
16.0
100
AcDbLine
 10
421.6054945781892
 20
323.9027774734762
 30
0.0
 11
421.6054945781892
 21
341.5028774734762
 31
0.0
  0
LINE
  5
2F8
330
1A
100
AcDbEntity
  8
SEIHIN
  6
CONTINUOUS
 62
     3
 48
16.0
100
AcDbLine
 10
423.1054945781894
 20
323.9027774734762
 30
0.0
 11
423.1054945781894
 21
340.0028774734763
 31
0.0
  0
LINE
  5
2F9
330
1A
100
AcDbEntity
  8
SEIHIN
  6
CONTINUOUS
 62
     3
 48
16.0
100
AcDbLine
 10
405.4699945781893
 20
325.9027774734763
 30
0.0
 11
409.4371945781892
 21
327.9027774734763
 31
0.0
  0
LINE
  5
2FA
330
1A
100
AcDbEntity
  8
SEIHIN
  6
CONTINUOUS
 62
     3
 48
16.0
100
AcDbLine
 10
409.4371945781892
 20
323.9027774734762
 30
0.0
 11
409.4371945781892
 21
327.9027774734763
 31
0.0
  0
LINE
  5
2FB
330
1A
100
AcDbEntity
  8
SEIHIN
  6
CONTINUOUS
 62
     3
 48
16.0
100
AcDbLine
 10
405.4699945781893
 20
315.4027774734763
 30
0.0
 11
405.4699945781893
 21
325.9027774734763
 31
0.0
  0
LINE
  5
2FC
330
1A
100
AcDbEntity
  8
SEIHIN
  6
CONTINUOUS
 62
     3
 48
16.0
100
AcDbLine
 10
429.4406945781894
 20
325.9027774734763
 30
0.0
 11
429.4406945781894
 21
333.6676774734763
 31
0.0
  0
LINE
  5
2FD
330
1A
100
AcDbEntity
  8
SEIHIN
  6
CONTINUOUS
 62
     3
 48
16.0
100
AcDbLine
 10
425.6054945781892
 20
323.9027774734762
 30
0.0
 11
425.6054945781892
 21
325.9027774734763
 31
0.0
  0
LINE
  5
2FE
330
1A
100
AcDbEntity
  8
SEIHIN
  6
CONTINUOUS
 62
     3
 48
16.0
100
AcDbLine
 10
426.0467945781893
 20
315.4027774734763
 30
0.0
 11
426.0467945781893
 21
323.9027774734762
 31
0.0
  0
LINE
  5
2FF
330
1A
100
AcDbEntity
  8
SEIHIN
  6
CONTINUOUS
 62
     3
 48
16.0
100
AcDbLine
 10
449.2056945781894
 20
336.5277774734763
 30
0.0
 11
449.2056945781894
 21
340.6151774734762
 31
0.0
  0
LINE
  5
300
330
1A
100
AcDbEntity
  8
SEIHIN
  6
CONTINUOUS
 62
     3
 48
16.0
100
AcDbLine
 10
437.2055945781894
 20
331.2529774734763
 30
0.0
 11
437.2055945781894
 21
340.0029774734763
 31
0.0
  0
ARC
  5
301
330
1A
100
AcDbEntity
  8
SEIHIN
  6
CONTINUOUS
 62
     3
 48
16.0
100
AcDbCircle
 10
447.7056945781893
 20
338.5615774734763
 30
0.0
 40
1.500000000000085
100
AcDbArc
 50
269.9999999999967
 51
359.9999999999967
  0
LINE
  5
302
330
1A
100
AcDbEntity
  8
SEIHIN
  6
CONTINUOUS
 62
     3
 48
16.0
100
AcDbLine
 10
439.2055945781892
 20
323.7527774734763
 30
0.0
 11
439.2057064763726
 21
357.2309235338857
 31
0.0
  0
LINE
  5
303
330
1A
100
AcDbEntity
  8
SEIHIN
  6
CONTINUOUS
 62
     3
 48
16.0
100
AcDbLine
 10
447.7056945781892
 20
337.0615774734762
 30
0.0
 11
439.2055945781892
 21
337.0615774734762
 31
0.0
  0
LINE
  5
304
330
1A
100
AcDbEntity
  8
SEIHIN
  6
CONTINUOUS
 62
     3
 48
16.0
100
AcDbLine
 10
431.8554945781892
 20
323.9027774734762
 30
0.0
 11
431.8554945781892
 21
325.9027774734763
 31
0.0
  0
LINE
  5
305
330
1A
100
AcDbEntity
  8
SEIHIN
  6
CONTINUOUS
 62
     3
 48
16.0
100
AcDbLine
 10
439.2055945781892
 20
331.2529774734763
 30
0.0
 11
437.2055945781894
 21
331.2529774734763
 31
0.0
  0
LINE
  5
306
330
1A
100
AcDbEntity
  8
SEIHIN
  6
CONTINUOUS
 62
     3
 48
16.0
100
AcDbLine
 10
439.2055945781892
 20
337.5029774734763
 30
0.0
 11
437.2055945781894
 21
337.5029774734763
 31
0.0
  0
LINE
  5
307
330
1A
100
AcDbEntity
  8
SEIHIN
  6
CONTINUOUS
 62
     3
 48
16.0
100
AcDbLine
 10
457.2637945781893
 20
323.6893774734763
 30
0.0
 11
457.2637945781893
 21
323.6893774734763
 31
0.0
  0
ARC
  5
308
330
1A
100
AcDbEntity
  8
SEIHIN
  6
CONTINUOUS
 62
     3
 48
16.0
100
AcDbCircle
 10
447.7056945781893
 20
336.5277774734764
 30
0.0
 40
1.500000000000085
100
AcDbArc
 50
269.9999999999967
 51
359.9999999999967
  0
LINE
  5
309
330
1A
100
AcDbEntity
  8
SEIHIN
  6
CONTINUOUS
 62
     3
 48
16.0
100
AcDbLine
 10
439.2055945781891
 20
353.6711774734762
 30
0.0
 11
435.2056945781892
 21
353.6711774734762
 31
0.0
  0
LINE
  5
30A
330
1A
100
AcDbEntity
  8
SEIHIN
  6
CONTINUOUS
 62
     3
 48
16.0
100
AcDbLine
 10
447.7055945781892
 20
357.6383774734764
 30
0.0
 11
437.2055945781894
 21
357.6383774734764
 31
0.0
  0
LINE
  5
30B
330
1A
100
AcDbEntity
  8
SEIHIN
  6
CONTINUOUS
 62
     3
 48
16.0
100
AcDbLine
 10
448.7056945781894
 20
341.1151774734763
 30
0.0
 11
439.2056945781894
 21
341.1150774734764
 31
0.0
  0
LINE
  5
30C
330
1A
100
AcDbEntity
  8
SEIHIN
  6
CONTINUOUS
 62
     3
 48
16.0
100
AcDbLine
 10
437.2055945781894
 20
357.6383774734764
 30
0.0
 11
435.2056945781892
 21
353.6711774734762
 31
0.0
  0
ARC
  5
30D
330
1A
100
AcDbEntity
  8
SEIHIN
  6
CONTINUOUS
 62
     3
 48
16.0
100
AcDbCircle
 10
448.7056945781893
 20
340.6151774734762
 30
0.0
 40
0.5000000000000569
100
AcDbArc
 50
359.9999999999934
 51
89.99999999999349
  0
ARC
  5
30E
330
1A
100
AcDbEntity
  8
SEIHIN
  6
CONTINUOUS
 62
     3
 48
16.0
100
AcDbCircle
 10
447.7055945781892
 20
359.1383774734763
 30
0.0
 40
1.5
100
AcDbArc
 50
270.0
 51
0.0
  0
LINE
  5
310
330
1A
100
AcDbEntity
  8
SEIHIN
  6
CONTINUOUS
 62
     3
 48
16.0
100
AcDbLine
 10
439.2055945781892
 20
396.3853774734762
 30
0.0
 11
439.2055945781892
 21
382.9029774734763
 31
0.0
  0
LINE
  5
311
330
1A
100
AcDbEntity
  8
SEIHIN
  6
CONTINUOUS
 62
     3
 48
16.0
100
AcDbLine
 10
448.7055945781892
 20
369.4203774734763
 30
0.0
 11
435.2055945781892
 21
369.4203774734763
 31
0.0
  0
LINE
  5
312
330
1A
100
AcDbEntity
  8
SEIHIN
  6
CONTINUOUS
 62
     3
 48
16.0
100
AcDbLine
 10
439.2055945781892
 20
369.4203774734763
 30
0.0
 11
439.2056945781894
 21
382.9028774734764
 31
0.0
  0
ARC
  5
313
330
1A
100
AcDbEntity
  8
SEIHIN
  6
CONTINUOUS
 62
     3
 48
16.0
100
AcDbCircle
 10
448.7055945781892
 20
368.9203774734763
 30
0.0
 40
0.5
100
AcDbArc
 50
0.0
 51
90.0
  0
LINE
  5
314
330
1A
100
AcDbEntity
  8
SEIHIN
  6
CONTINUOUS
 62
     3
 48
16.0
100
AcDbLine
 10
448.7055945781892
 20
396.3853774734762
 30
0.0
 11
435.2055945781892
 21
396.3853774734762
 31
0.0
  0
ARC
  5
315
330
1A
100
AcDbEntity
  8
SEIHIN
  6
CONTINUOUS
 62
     3
 48
16.0
100
AcDbCircle
 10
448.7055945781892
 20
396.8853774734763
 30
0.0
 40
0.5000000000000569
100
AcDbArc
 50
270.0000000000065
 51
0.0000000000065138
  0
LINE
  5
316
330
1A
100
AcDbEntity
  8
SEIHIN
  6
CONTINUOUS
 62
     3
 48
16.0
100
AcDbLine
 10
474.2055945781892
 20
382.9027774734761
 30
0.0
 11
474.2055945781892
 21
323.7527774734763
 31
0.0
  0
LINE
  5
317
330
1A
100
AcDbEntity
  8
SEIHIN
  6
CONTINUOUS
 62
     3
 48
16.0
100
AcDbLine
 10
474.2055945781892
 20
430.7779774734763
 30
0.0
 11
439.2055945781892
 21
430.7780774734764
 31
0.0
  0
LINE
  5
318
330
1A
100
AcDbEntity
  8
SEIHIN
  6
CONTINUOUS
 62
     3
 48
16.0
100
AcDbLine
 10
437.2055945781894
 20
428.7441774734763
 30
0.0
 11
435.2055945781892
 21
432.1380774734762
 31
0.0
  0
LINE
  5
319
330
1A
100
AcDbEntity
  8
SEIHIN
  6
CONTINUOUS
 62
     3
 48
16.0
100
AcDbLine
 10
435.2055945781892
 20
432.1379774734763
 30
0.0
 11
435.2055945781892
 21
424.6906774734764
 31
0.0
  0
ARC
  5
31A
330
1A
100
AcDbEntity
  8
SEIHIN
  6
CONTINUOUS
 62
     3
 48
16.0
100
AcDbCircle
 10
447.7055945781891
 20
429.2779774734762
 30
0.0
 40
1.500000000000085
100
AcDbArc
 50
359.9999999999967
 51
89.99999999999674
  0
LINE
  5
31B
330
1A
100
AcDbEntity
  8
SEIHIN
  6
CONTINUOUS
 62
     3
 48
16.0
100
AcDbLine
 10
447.7055945781892
 20
428.7441774734763
 30
0.0
 11
437.2055945781894
 21
428.7441774734763
 31
0.0
  0
LINE
  5
31C
330
1A
100
AcDbEntity
  8
SEIHIN
  6
CONTINUOUS
 62
     3
 48
16.0
100
AcDbLine
 10
448.7055945781892
 20
424.6905774734763
 30
0.0
 11
435.2055945781892
 21
424.6906774734764
 31
0.0
  0
LINE
  5
31D
330
1A
100
AcDbEntity
  8
SEIHIN
  6
CONTINUOUS
 62
     3
 48
16.0
100
AcDbLine
 10
439.2055945781892
 20
412.1345774734764
 30
0.0
 11
435.2055945781892
 21
412.1345774734764
 31
0.0
  0
LINE
  5
31E
330
1A
100
AcDbEntity
  8
SEIHIN
  6
CONTINUOUS
 62
     3
 48
16.0
100
AcDbLine
 10
447.7055945781892
 20
408.1673774734763
 30
0.0
 11
437.2055945781894
 21
408.1673774734763
 31
0.0
  0
LINE
  5
31F
330
1A
100
AcDbEntity
  8
SEIHIN
  6
CONTINUOUS
 62
     3
 48
16.0
100
AcDbLine
 10
439.2055945781892
 20
424.6906774734764
 30
0.0
 11
439.2055945781892
 21
408.5747517389396
 31
0.0
  0
LINE
  5
320
330
1A
100
AcDbEntity
  8
SEIHIN
  6
CONTINUOUS
 62
     3
 48
16.0
100
AcDbLine
 10
437.2055945781894
 20
408.1673774734763
 30
0.0
 11
435.2055945781892
 21
412.1345774734764
 31
0.0
  0
LINE
  5
321
330
1A
100
AcDbEntity
  8
SEIHIN
  6
CONTINUOUS
 62
     3
 48
16.0
100
AcDbLine
 10
437.2055945781894
 20
428.7441774734763
 30
0.0
 11
437.2055945781894
 21
424.6906774734764
 31
0.0
  0
ARC
  5
323
330
1A
100
AcDbEntity
  8
SEIHIN
  6
CONTINUOUS
 62
     3
 48
16.0
100
AcDbCircle
 10
448.7055945781892
 20
425.1905774734764
 30
0.0
 40
0.5
100
AcDbArc
 50
270.0
 51
0.0
  0
LINE
  5
324
330
1A
100
AcDbEntity
  8
SEIHIN
  6
CONTINUOUS
 62
     3
 48
16.0
100
AcDbLine
 10
449.2055945781892
 20
429.2779774734762
 30
0.0
 11
449.2055945781892
 21
425.1905774734764
 31
0.0
  0
ARC
  5
325
330
1A
100
AcDbEntity
  8
SEIHIN
  6
CONTINUOUS
 62
     3
 48
16.0
100
AcDbCircle
 10
447.7055945781892
 20
427.2441774734764
 30
0.0
 40
1.5
100
AcDbArc
 50
0.0
 51
90.0
  0
LINE
  5
326
330
1A
100
AcDbEntity
  8
SEIHIN
  6
CONTINUOUS
 62
     3
 48
16.0
100
AcDbLine
 10
439.2055945781892
 20
442.0529774734762
 30
0.0
 11
439.2055945781892
 21
430.7780774734764
 31
0.0
  0
ARC
  5
327
330
1A
100
AcDbEntity
  8
SEIHIN
  6
CONTINUOUS
 62
     3
 48
16.0
100
AcDbCircle
 10
380.2054504400276
 20
188.9132427175146
 30
0.0
 40
51.59996524406821
100
AcDbArc
 50
269.999938802109
 51
346.2525842013545
  0
ARC
  5
328
330
1A
100
AcDbEntity
  8
SEIHIN
  6
CONTINUOUS
 62
     3
 48
16.0
100
AcDbCircle
 10
380.2055067730536
 20
188.9132678707266
 30
0.0
 40
51.59999039737066
100
AcDbArc
 50
193.7474373022801
 51
269.9998770880804
  0
ARC
  5
329
330
1A
100
AcDbEntity
  8
SEIHIN
  6
CONTINUOUS
 62
     3
 48
16.0
100
AcDbCircle
 10
431.2985733879842
 20
176.4132774734762
 30
0.0
 40
1.0
100
AcDbArc
 50
90.0
 51
166.2525842013558
  0
ARC
  5
32A
330
1A
100
AcDbEntity
  8
SEIHIN
  6
CONTINUOUS
 62
     3
 48
16.0
100
AcDbCircle
 10
329.1123640837246
 20
176.4132774734762
 30
0.0
 40
1.0
100
AcDbArc
 50
13.74743730228028
 51
90.0
  0
DIMENSION
  5
338
330
1A
100
AcDbEntity
  8
SUNPOU
100
AcDbDimension
  2
*D1
 10
439.3554945781892
 20
225.3099420178612
 30
0.0
 11
380.2054945781893
 21
230.3099420178611
 31
0.0
 70
    32
  3
STANDARD
100
AcDbAlignedDimension
 13
321.0554945781894
 23
190.4132774734764
 33
0.0
 14
439.3554945781892
 24
190.4132774734764
 34
0.0
100
AcDbRotatedDimension
1001
ACAD
1000
DSTYLE
1002
{
1070
   140
1040
6.0
1070
    74
1070
     0
1070
   172
1070
     1
1070
    73
1070
     0
1070
   272
1070
     2
1070
    77
1070
     3
1070
   173
1070
     1
1070
   147
1040
2.0
1070
    42
1040
6.0
1070
    44
1040
3.0
1070
    43
1040
14.0
1070
   271
1070
     0
1070
   178
1070
     4
1070
   177
1070
     4
1070
   176
1070
     4
1070
   141
1040
150.0
1070
     7
1000
_OPEN
1070
     6
1000
_OPEN
1070
    41
1040
7.0
1002
}
  0
DIMENSION
  5
345
330
1A
100
AcDbEntity
  8
SUNPOU
100
AcDbDimension
  2
*D2
 10
474.2053945781893
 20
242.1642275225883
 30
0.0
 11
397.6304445781894
 21
247.1642275225883
 31
0.0
 70
    32
  3
STANDARD
100
AcDbAlignedDimension
 13
321.0554945781894
 23
190.4132774734764
 33
0.0
 14
474.2053945781893
 24
190.4132774734764
 34
0.0
100
AcDbRotatedDimension
1001
ACAD
1000
DSTYLE
1002
{
1070
   140
1040
6.0
1070
    74
1070
     0
1070
   172
1070
     1
1070
    73
1070
     0
1070
   272
1070
     2
1070
    77
1070
     3
1070
   173
1070
     1
1070
   147
1040
2.0
1070
    42
1040
6.0
1070
    44
1040
3.0
1070
    43
1040
14.0
1070
   271
1070
     0
1070
   178
1070
     4
1070
   177
1070
     4
1070
   176
1070
     4
1070
   141
1040
150.0
1070
     7
1000
_OPEN
1070
     6
1000
_OPEN
1070
    41
1040
7.0
1002
}
  0
LINE
  5
346
330
1A
100
AcDbEntity
  8
CENTER_L
 48
5.0
100
AcDbLine
 10
410.2253766768027
 20
387.9997676857591
 30
0.0
 11
375.1088019664559
 21
352.8830362556043
 31
0.0
  0
DIMENSION
  5
359
330
1A
100
AcDbEntity
  8
SUNPOU
100
AcDbDimension
  2
*D3
 10
541.6275417972819
 20
288.9027774734762
 30
0.0
 11
536.6275417972818
 21
365.4778774734763
 31
0.0
 70
    32
  3
STANDARD
100
AcDbAlignedDimension
 13
474.2055945781892
 23
442.0529774734762
 33
0.0
 14
439.3555945781892
 24
288.9027774734762
 34
0.0
 50
90.0
100
AcDbRotatedDimension
1001
ACAD
1000
DSTYLE
1002
{
1070
   140
1040
6.0
1070
    74
1070
     0
1070
   172
1070
     1
1070
    73
1070
     0
1070
   272
1070
     2
1070
    77
1070
     3
1070
   173
1070
     1
1070
   147
1040
2.0
1070
    42
1040
6.0
1070
    44
1040
3.0
1070
    43
1040
14.0
1070
   271
1070
     0
1070
   178
1070
     4
1070
   177
1070
     4
1070
   176
1070
     4
1070
   141
1040
150.0
1070
     7
1000
_OPEN
1070
     6
1000
_OPEN
1070
    41
1040
7.0
1002
}
  0
DIMENSION
  5
366
330
1A
100
AcDbEntity
  8
SUNPOU
100
AcDbDimension
  2
*D4
 10
522.5076391748926
 20
323.7527774734763
 30
0.0
 11
517.5076391748924
 21
382.9028774734764
 31
0.0
 70
    32
  3
STANDARD
100
AcDbAlignedDimension
 13
474.2055945781892
 23
442.0529774734762
 33
0.0
 14
474.2055945781892
 24
323.7527774734763
 34
0.0
 50
90.0
100
AcDbRotatedDimension
1001
ACAD
1000
DSTYLE
1002
{
1070
   140
1040
6.0
1070
    74
1070
     0
1070
   172
1070
     1
1070
    73
1070
     0
1070
   272
1070
     2
1070
    77
1070
     3
1070
   173
1070
     1
1070
   147
1040
2.0
1070
    42
1040
6.0
1070
    44
1040
3.0
1070
    43
1040
14.0
1070
   271
1070
     0
1070
   178
1070
     4
1070
   177
1070
     4
1070
   176
1070
     4
1070
   141
1040
150.0
1070
     7
1000
_OPEN
1070
     6
1000
_OPEN
1070
    41
1040
7.0
1002
}
  0
DIMENSION
  5
373
330
1A
100
AcDbEntity
  8
SUNPOU
100
AcDbDimension
  2
*D5
 10
375.108801966456
 20
352.8830362556043
 30
0.0
 11
399.7464173886079
 21
349.8857499816854
 31
0.0
 70
    34
  3
STANDARD
100
AcDb2LineAngularDimension
 13
380.2054981401603
 23
281.9028774734764
 33
0.0
 14
380.2055723977432
 24
367.8793464595737
 34
0.0
 15
410.2253766768027
 25
387.9997676857591
 35
0.0
 16
398.6970184325944
 26
339.4883725111466
 36
0.0
1001
ACAD
1000
DSTYLE
1002
{
1070
   271
1070
     0
1070
   271
1070
     0
1070
   140
1040
6.0
1070
    74
1070
     0
1070
   172
1070
     1
1070
    73
1070
     0
1070
   272
1070
     2
1070
    77
1070
     3
1070
   173
1070
     1
1070
   147
1040
2.0
1070
    42
1040
6.0
1070
    44
1040
3.0
1070
    43
1040
14.0
1070
   271
1070
     0
1070
   178
1070
     4
1070
   177
1070
     4
1070
   176
1070
     4
1070
   141
1040
150.0
1070
     7
1000
_OPEN
1070
     6
1000
_OPEN
1070
    41
1040
7.0
1002
}
  0
DIMENSION
  5
380
330
1A
100
AcDbEntity
  8
SUNPOU
100
AcDbDimension
  2
*D6
 10
522.5621531738425
 20
137.6132774734762
 30
0.0
 11
517.5621531738425
 21
164.0132774734764
 31
0.0
 70
    32
  3
STANDARD
100
AcDbAlignedDimension
 13
474.2055945781892
 23
190.4132774734764
 33
0.0
 14
474.2053945781893
 24
137.6132774734762
 34
0.0
 50
90.0
100
AcDbRotatedDimension
1001
ACAD
1000
DSTYLE
1002
{
1070
   140
1040
6.0
1070
    74
1070
     0
1070
   172
1070
     1
1070
    73
1070
     0
1070
   272
1070
     2
1070
    77
1070
     3
1070
   173
1070
     1
1070
   147
1040
2.0
1070
    42
1040
6.0
1070
    44
1040
3.0
1070
    43
1040
14.0
1070
   271
1070
     0
1070
   178
1070
     4
1070
   177
1070
     4
1070
   176
1070
     4
1070
   141
1040
150.0
1070
     7
1000
_OPEN
1070
     6
1000
_OPEN
1070
    41
1040
7.0
1002
}
  0
LINE
  5
385
330
1A
100
AcDbEntity
  8
SEIHIN
  6
CONTINUOUS
 62
     3
 48
16.0
100
AcDbLine
 10
354.5336203127261
 20
315.4028774734764
 30
0.0
 11
354.5336203127261
 21
323.9028774734764
 31
0.0
  0
ARC
  5
386
330
1A
100
AcDbEntity
  8
SEIHIN
  6
CONTINUOUS
 62
     3
 48
16.0
100
AcDbCircle
 10
356.0336203127261
 20
315.4028774734764
 30
0.0
 40
1.5
100
AcDbArc
 50
180.0
 51
270.0
  0
LINE
  5
388
330
1A
100
AcDbEntity
  8
SEIHIN
  6
CONTINUOUS
 62
     3
 48
16.0
100
AcDbLine
 10
405.877433835127
 20
315.4027748823864
 30
0.0
 11
405.8774485180696
 21
323.902833127987
 31
0.0
  0
ARC
  5
389
330
1A
100
AcDbEntity
  8
SEIHIN
  6
CONTINUOUS
 62
     3
 48
16.0
100
AcDbCircle
 10
404.3774338351292
 20
315.4027774734762
 30
0.0
 40
1.5
100
AcDbArc
 50
270.0
 51
359.9999010276614
  0
LINE
  5
38A
330
1A
100
AcDbEntity
  8
SEIHIN
  6
CONTINUOUS
 62
     3
 48
16.0
100
AcDbLine
 10
447.7055971692792
 20
357.2309382165387
 30
0.0
 11
439.2055389236787
 21
357.2309235335962
 31
0.0
  0
ARC
  5
38B
330
1A
100
AcDbEntity
  8
SEIHIN
  6
CONTINUOUS
 62
     3
 48
16.0
100
AcDbCircle
 10
447.7055945781895
 20
358.7309382165365
 30
0.0
 40
1.5
100
AcDbArc
 50
270.0000989723385
 51
0.0
  0
LINE
  5
38C
330
1A
100
AcDbEntity
  8
SEIHIN
  6
CONTINUOUS
 62
     3
 48
16.0
100
AcDbLine
 10
447.7055945781892
 20
408.5747517389396
 30
0.0
 11
439.2054945781894
 21
408.5747517389396
 31
0.0
  0
ARC
  5
38E
330
1A
100
AcDbEntity
  8
SEIHIN
  6
CONTINUOUS
 62
     3
 48
16.0
100
AcDbCircle
 10
447.7055945781892
 20
407.0747517389396
 30
0.0
 40
1.5
100
AcDbArc
 50
0.0
 51
90.0
  0
DIMENSION
  5
39B
330
1A
100
AcDbEntity
  8
SEIHIN
100
AcDbDimension
  2
*D7
 10
416.5483238553543
 20
323.9027774734762
 30
0.0
 11
416.5483238553543
 21
306.4027774734762
 31
0.0
 70
   160
  1
※<>
  3
STANDARD
100
AcDbAlignedDimension
 13
439.3555945781892
 23
288.9027774734762
 33
0.0
 14
439.3555945781892
 24
323.9027774734762
 34
0.0
 50
90.0
100
AcDbRotatedDimension
1001
ACAD
1000
DSTYLE
1002
{
1070
   140
1040
6.0
1070
    74
1070
     0
1070
   172
1070
     1
1070
    73
1070
     0
1070
   272
1070
     2
1070
    77
1070
     3
1070
   173
1070
     1
1070
   147
1040
2.0
1070
    42
1040
6.0
1070
    44
1040
3.0
1070
    43
1040
14.0
1070
   271
1070
     0
1070
   178
1070
     4
1070
   177
1070
     4
1070
   176
1070
     4
1070
   141
1040
150.0
1070
     7
1000
_OPEN
1070
     6
1000
_OPEN
1070
    41
1040
7.0
1002
}
  0
TEXT
  5
3CE
330
1A
100
AcDbEntity
  8
SUNPOU
 62
     4
100
AcDbText
 10
605.6540227007326
 20
60.77052172621247
 30
0.0
 40
8.0
  1
※　のきといの差込み寸法を示す。
100
AcDbText
  0
VIEWPORT
  5
22
330
17
100
AcDbEntity
 67
     1
  8
0
100
AcDbViewport
 10
313.6808219178082
 20
148.5
 30
0.0
 40
627.3616438356165
 41
297.0
 68
     2
 69
     1
1001
ACAD
1000
MVIEW
1002
{
1070
    16
1010
0.0
1020
0.0
1030
0.0
1010
0.0
1020
0.0
1030
1.0
1040
0.0
1040
297.0
1040
313.6808219178082
1040
148.5
1040
50.0
1040
0.0
1040
0.0
1070
     0
1070
   100
1070
     1
1070
     0
1070
     0
1070
     0
1070
     0
1070
     0
1040
0.0
1040
0.0
1040
0.0
1040
1.0
1040
1.0
1040
10.0
1040
10.0
1070
     0
1002
{
1002
}
1002
}
  0
VIEWPORT
  5
64
330
17
100
AcDbEntity
 67
     1
  8
VIEWPORT
100
AcDbViewport
 10
210.0
 20
148.5
 30
0.0
 40
420.0
 41
297.0
 68
     1
 69
     2
1001
ACAD
1000
MVIEW
1002
{
1070
    16
1010
0.0
1020
0.0
1030
0.0
1010
0.0
1020
0.0
1030
1.0
1040
0.0
1040
605.8799999999998
1040
420.0
1040
297.0
1040
50.0
1040
0.0
1040
0.0
1070
     0
1070
   100
1070
     1
1070
     0
1070
     0
1070
     0
1070
     0
1070
     0
1040
0.0
1040
0.0
1040
0.0
1040
10.0
1040
10.0
1040
0.0
1040
0.0
1070
     0
1002
{
1002
}
1002
}
  0
ENDSEC
  0
SECTION
  2
OBJECTS
  0
DICTIONARY
  5
C
330
0
100
AcDbDictionary
  3
ACAD_GROUP
350
D
  3
ACAD_LAYOUT
350
3F7
  3
ACAD_MLINESTYLE
350
E
  3
ACAD_PLOTSETTINGS
350
3F8
1001
ACAD
1000
TREAT_AS_HARD
1070
     0
  0
DICTIONARY
  5
46B
330
1A
100
AcDbDictionary
  3
ACAD_LAYOUTSELFREF
350
484
1001
ACAD
1000
TREAT_AS_HARD
1070
     1
  0
DICTIONARY
  5
469
330
17
100
AcDbDictionary
  3
ACAD_LAYOUTSELFREF
350
483
1001
ACAD
1000
TREAT_AS_HARD
1070
     1
  0
DICTIONARY
  5
D
102
{ACAD_REACTORS
330
C
102
}
330
C
100
AcDbDictionary
1001
ACAD
1000
TREAT_AS_HARD
1070
     0
  0
DICTIONARY
  5
3F7
102
{ACAD_REACTORS
330
C
102
}
330
C
100
AcDbDictionary
1001
ACAD
1000
TREAT_AS_HARD
1070
     0
  0
DICTIONARY
  5
E
102
{ACAD_REACTORS
330
C
102
}
330
C
100
AcDbDictionary
  3
STANDARD
350
13
1001
ACAD
1000
TREAT_AS_HARD
1070
     0
  0
DICTIONARY
  5
3F8
102
{ACAD_REACTORS
330
C
102
}
330
C
100
AcDbDictionary
1001
ACAD
1000
TREAT_AS_HARD
1070
     0
  0
XRECORD
  5
484
102
{ACAD_REACTORS
330
46B
102
}
330
46B
100
AcDbXrecord
340
1A
  0
XRECORD
  5
483
102
{ACAD_REACTORS
330
469
102
}
330
469
100
AcDbXrecord
340
17
  0
MLINESTYLE
  5
13
102
{ACAD_REACTORS
330
E
102
}
330
E
100
AcDbMlineStyle
  2
STANDARD
 70
     0
  3

 62
     0
 51
90.0
 52
90.0
 71
     2
 49
0.5
 62
   256
  6
BYLAYER
 49
-0.5
 62
   256
  6
BYLAYER
  0
ENDSEC
  0
EOF
