  0
SECTION
  2
HEADER
  9
$ACADVER
  1
AC1012
  9
$DWGCODEPAGE
  3
dos932
  9
$INSBASE
 10
0.0
 20
0.0
 30
0.0
  9
$EXTMIN
 10
10.05047808566086
 20
4.949376903717846
 30
0.0
  9
$EXTMAX
 10
806.2246110975902
 20
563.7825862828226
 30
0.0
  9
$LIMMIN
 10
0.0
 20
0.0
  9
$LIMMAX
 10
840.0
 20
594.0
  9
$ORTHOMODE
 70
     0
  9
$REGENMODE
 70
     1
  9
$FILLMODE
 70
     1
  9
$QTEXTMODE
 70
     0
  9
$MIRRTEXT
 70
     1
  9
$DRAGMODE
 70
     2
  9
$LTSCALE
 40
2.0
  9
$OSMODE
 70
   319
  9
$ATTMODE
 70
     1
  9
$TEXTSIZE
 40
5.0
  9
$TRACEWID
 40
1.0
  9
$TEXTSTYLE
  7
STANDARD
  9
$CLAYER
  8
CENTER_L
  9
$CELTYPE
  6
BYLAYER
  9
$CECOLOR
 62
   256
  9
$CELTSCALE
 40
1.0
  9
$DELOBJ
 70
     1
  9
$DISPSILH
 70
     0
  9
$DIMSCALE
 40
1.0
  9
$DIMASZ
 40
7.0
  9
$DIMEXO
 40
6.0
  9
$DIMDLI
 40
14.0
  9
$DIMRND
 40
0.0
  9
$DIMDLE
 40
0.0
  9
$DIMEXE
 40
3.0
  9
$DIMTP
 40
0.0
  9
$DIMTM
 40
0.0
  9
$DIMTXT
 40
6.0
  9
$DIMCEN
 40
150.0
  9
$DIMTSZ
 40
0.0
  9
$DIMTOL
 70
     0
  9
$DIMLIM
 70
     0
  9
$DIMTIH
 70
     0
  9
$DIMTOH
 70
     0
  9
$DIMSE1
 70
     0
  9
$DIMSE2
 70
     0
  9
$DIMTAD
 70
     3
  9
$DIMZIN
 70
     0
  9
$DIMBLK
  1

  9
$DIMASO
 70
     1
  9
$DIMSHO
 70
     1
  9
$DIMPOST
  1

  9
$DIMAPOST
  1

  9
$DIMALT
 70
     0
  9
$DIMALTD
 70
     2
  9
$DIMALTF
 40
25.4
  9
$DIMLFAC
 40
1.0
  9
$DIMTOFL
 70
     1
  9
$DIMTVP
 40
0.0
  9
$DIMTIX
 70
     0
  9
$DIMSOXD
 70
     0
  9
$DIMSAH
 70
     1
  9
$DIMBLK1
  1
OPEN
  9
$DIMBLK2
  1
OPEN
  9
$DIMSTYLE
  2
STANDARD
  9
$DIMCLRD
 70
   256
  9
$DIMCLRE
 70
   256
  9
$DIMCLRT
 70
   256
  9
$DIMTFAC
 40
1.0
  9
$DIMGAP
 40
2.0
  9
$DIMJUST
 70
     0
  9
$DIMSD1
 70
     0
  9
$DIMSD2
 70
     0
  9
$DIMTOLJ
 70
     1
  9
$DIMTZIN
 70
     0
  9
$DIMALTZ
 70
     0
  9
$DIMALTTZ
 70
     0
  9
$DIMFIT
 70
     3
  9
$DIMUPT
 70
     0
  9
$DIMUNIT
 70
     2
  9
$DIMDEC
 70
     0
  9
$DIMTDEC
 70
     0
  9
$DIMALTU
 70
     2
  9
$DIMALTTD
 70
     2
  9
$DIMTXSTY
  7
STANDARD
  9
$DIMAUNIT
 70
     0
  9
$LUNITS
 70
     2
  9
$LUPREC
 70
     4
  9
$SKETCHINC
 40
1.0
  9
$FILLETRAD
 40
20.0
  9
$AUNITS
 70
     0
  9
$AUPREC
 70
     0
  9
$MENU
  1
.
  9
$ELEVATION
 40
0.0
  9
$PELEVATION
 40
0.0
  9
$THICKNESS
 40
0.0
  9
$LIMCHECK
 70
     0
  9
$BLIPMODE
 70
     0
  9
$CHAMFERA
 40
20.0
  9
$CHAMFERB
 40
20.0
  9
$CHAMFERC
 40
40.0
  9
$CHAMFERD
 40
0.0
  9
$SKPOLY
 70
     0
  9
$TDCREATE
 40
2450994.354346065
  9
$TDUPDATE
 40
2452422.710793055
  9
$TDINDWG
 40
0.0045408565
  9
$TDUSRTIMER
 40
0.0045408565
  9
$USRTIMER
 70
     1
  9
$ANGBASE
 50
0.0
  9
$ANGDIR
 70
     0
  9
$PDMODE
 70
     1
  9
$PDSIZE
 40
0.0
  9
$PLINEWID
 40
0.0
  9
$COORDS
 70
     1
  9
$SPLFRAME
 70
     0
  9
$SPLINETYPE
 70
     6
  9
$SPLINESEGS
 70
     8
  9
$ATTDIA
 70
     0
  9
$ATTREQ
 70
     1
  9
$HANDLING
 70
 10241
  9
$HANDSEED
  5
579
  9
$SURFTAB1
 70
     6
  9
$SURFTAB2
 70
     6
  9
$SURFTYPE
 70
     6
  9
$SURFU
 70
     6
  9
$SURFV
 70
     6
  9
$UCSNAME
  2

  9
$UCSORG
 10
0.0
 20
0.0
 30
0.0
  9
$UCSXDIR
 10
1.0
 20
0.0
 30
0.0
  9
$UCSYDIR
 10
0.0
 20
1.0
 30
0.0
  9
$PUCSNAME
  2

  9
$PUCSORG
 10
0.0
 20
0.0
 30
0.0
  9
$PUCSXDIR
 10
1.0
 20
0.0
 30
0.0
  9
$PUCSYDIR
 10
0.0
 20
1.0
 30
0.0
  9
$USERI1
 70
     0
  9
$USERI2
 70
     0
  9
$USERI3
 70
     0
  9
$USERI4
 70
     0
  9
$USERI5
 70
     0
  9
$USERR1
 40
0.0
  9
$USERR2
 40
0.0
  9
$USERR3
 40
0.0
  9
$USERR4
 40
0.0
  9
$USERR5
 40
0.0
  9
$WORLDVIEW
 70
     1
  9
$SHADEDGE
 70
     3
  9
$SHADEDIF
 70
    70
  9
$TILEMODE
 70
     1
  9
$MAXACTVP
 70
    16
  9
$PINSBASE
 10
0.0
 20
0.0
 30
0.0
  9
$PLIMCHECK
 70
     0
  9
$PEXTMIN
 10
0.0
 20
0.0
 30
0.0
  9
$PEXTMAX
 10
420.0
 20
297.0
 30
0.0
  9
$PLIMMIN
 10
0.0
 20
0.0
  9
$PLIMMAX
 10
420.0
 20
297.0
  9
$UNITMODE
 70
     0
  9
$VISRETAIN
 70
     0
  9
$PLINEGEN
 70
     0
  9
$PSLTSCALE
 70
     1
  9
$TREEDEPTH
 70
  3020
  9
$PICKSTYLE
 70
     1
  9
$CMLSTYLE
  2
STANDARD
  9
$CMLJUST
 70
     0
  9
$CMLSCALE
 40
1.0
  9
$SAVEIMAGES
 70
     1
  0
ENDSEC
  0
SECTION
  2
CLASSES
  0
CLASS
  1
ACDBDICTIONARYWDFLT
  2
AcDbDictionaryWithDefault
  3
AutoCAD 2000
 90
    32768
280
     0
281
     0
  0
CLASS
  1
ACDBPLACEHOLDER
  2
AcDbPlaceHolder
  3
AutoCAD 2000
 90
    32768
280
     0
281
     0
  0
CLASS
  1
LAYOUT
  2
AcDbLayout
  3
AutoCAD 2000
 90
    32768
280
     0
281
     0
  0
CLASS
  1
LONG_TRANSACTION
  2
AcDbLongTransaction
  3
AutoCAD 2000
 90
    32768
280
     0
281
     0
  0
CLASS
  1
LWPOLYLINE
  2
AcDbPolyline
  3
AutoCAD 2000
 90
    32768
280
     0
281
     1
  0
CLASS
  1
HATCH
  2
AcDbHatch
  3
AutoCAD 2000
 90
    32768
280
     0
281
     1
  0
CLASS
  1
XRECORD
  2
AcDbXrecord
  3
AutoCAD 2000
 90
    32768
280
     0
281
     0
  0
CLASS
  1
LONG_TRANSACTION
  2
AcDbLongTransaction
  3
AutoCAD 2000
 90
    32768
280
     0
281
     0
  0
CLASS
  1
LWPOLYLINE
  2
AcDbPolyline
  3
AutoCAD 2000
 90
    32768
280
     0
281
     1
  0
CLASS
  1
HATCH
  2
AcDbHatch
  3
AutoCAD 2000
 90
    32768
280
     0
281
     1
  0
CLASS
  1
XRECORD
  2
AcDbXrecord
  3
AutoCAD 2000
 90
    32768
280
     0
281
     0
  0
ENDSEC
  0
SECTION
  2
TABLES
  0
TABLE
  2
VPORT
  5
8
330
0
100
AcDbSymbolTable
 70
     2
  0
VPORT
  5
576
330
8
100
AcDbSymbolTableRecord
100
AcDbViewportTableRecord
  2
*ACTIVE
 70
     0
 10
0.0
 20
0.0
 11
1.0
 21
1.0
 12
397.2411252667321
 22
298.24422014964
 13
0.0
 23
0.0
 14
5.0
 24
5.0
 15
0.0
 25
0.0
 16
0.0
 26
0.0
 36
1.0
 17
0.0
 27
0.0
 37
0.0
 40
607.2335224747679
 41
1.709909909909909
 42
50.0
 43
0.0
 44
0.0
 50
0.0
 51
0.0
 71
     0
 72
   100
 73
     1
 74
     0
 75
     0
 76
     0
 77
     0
 78
     0
  0
ENDTAB
  0
TABLE
  2
LTYPE
  5
5
330
0
100
AcDbSymbolTable
 70
     3
  0
LTYPE
  5
14
330
5
100
AcDbSymbolTableRecord
100
AcDbLinetypeTableRecord
  2
BYBLOCK
 70
     0
  3

 72
    65
 73
     0
 40
0.0
  0
LTYPE
  5
15
330
5
100
AcDbSymbolTableRecord
100
AcDbLinetypeTableRecord
  2
BYLAYER
 70
     0
  3

 72
    65
 73
     0
 40
0.0
  0
LTYPE
  5
16
330
5
100
AcDbSymbolTableRecord
100
AcDbLinetypeTableRecord
  2
CONTINUOUS
 70
     0
  3
Solid line
 72
    65
 73
     0
 40
0.0
  0
LTYPE
  5
115
330
5
100
AcDbSymbolTableRecord
100
AcDbLinetypeTableRecord
  2
PHANTOM
 70
     0
  3
______  __  __  ______  __  __  ______  __  __ 
 72
    65
 73
     6
 40
2.5
 49
1.25
 74
     0
 49
-0.25
 74
     0
 49
0.25
 74
     0
 49
-0.25
 74
     0
 49
0.25
 74
     0
 49
-0.25
 74
     0
  0
LTYPE
  5
135
330
5
100
AcDbSymbolTableRecord
100
AcDbLinetypeTableRecord
  2
CENTER
 70
     0
  3
____ _ ____ _ ____ _ ____ _ ____ _ ____ _ ____ 
 72
    65
 73
     4
 40
2.0
 49
1.25
 74
     0
 49
-0.25
 74
     0
 49
0.25
 74
     0
 49
-0.25
 74
     0
  0
ENDTAB
  0
TABLE
  2
LAYER
  5
2
330
0
100
AcDbSymbolTable
 70
     8
  0
LAYER
  5
F
330
2
100
AcDbSymbolTableRecord
100
AcDbLayerTableRecord
  2
0
 70
     0
 62
     7
  6
CONTINUOUS
  0
LAYER
  5
62
330
2
100
AcDbSymbolTableRecord
100
AcDbLayerTableRecord
  2
VIEWPORT
 70
     0
 62
     7
  6
CONTINUOUS
  0
LAYER
  5
65
330
2
100
AcDbSymbolTableRecord
100
AcDbLayerTableRecord
  2
ZUWAKU
 70
     0
 62
     7
  6
CONTINUOUS
  0
LAYER
  5
170
330
2
100
AcDbSymbolTableRecord
100
AcDbLayerTableRecord
  2
SEIHIN
 70
     0
 62
     3
  6
CONTINUOUS
  0
LAYER
  5
171
330
2
100
AcDbSymbolTableRecord
100
AcDbLayerTableRecord
  2
SUNPOU
 70
     0
 62
     4
  6
CONTINUOUS
  0
LAYER
  5
172
330
2
100
AcDbSymbolTableRecord
100
AcDbLayerTableRecord
  2
CENTER_L
 70
     0
 62
     1
  6
CENTER
  0
LAYER
  5
173
330
2
100
AcDbSymbolTableRecord
100
AcDbLayerTableRecord
  2
NOKITOI
 70
     0
 62
     9
  6
PHANTOM
  0
LAYER
  5
174
330
2
100
AcDbSymbolTableRecord
100
AcDbLayerTableRecord
  2
DEFPOINTS
 70
     0
 62
     7
  6
CONTINUOUS
  0
ENDTAB
  0
TABLE
  2
STYLE
  5
3
330
0
100
AcDbSymbolTable
 70
     1
  0
STYLE
  5
10
330
3
100
AcDbSymbolTableRecord
100
AcDbTextStyleTableRecord
  2
STANDARD
 70
     0
 40
0.0
 41
1.0
 50
0.0
 71
     0
 42
5.0
  3
TXT
  4
bigfont.shx
  0
ENDTAB
  0
TABLE
  2
VIEW
  5
6
330
0
100
AcDbSymbolTable
 70
     0
  0
ENDTAB
  0
TABLE
  2
UCS
  5
7
330
0
100
AcDbSymbolTable
 70
     0
  0
ENDTAB
  0
TABLE
  2
APPID
  5
9
330
0
100
AcDbSymbolTable
 70
     1
  0
APPID
  5
11
330
9
100
AcDbSymbolTableRecord
100
AcDbRegAppTableRecord
  2
ACAD
 70
     0
  0
ENDTAB
  0
TABLE
  2
DIMSTYLE
  5
A
330
0
100
AcDbSymbolTable
 70
     1
  0
DIMSTYLE
105
1D
102
{ACAD_REACTORS
330
335
330
336
102
}
330
A
100
AcDbSymbolTableRecord
100
AcDbDimStyleTableRecord
  2
STANDARD
 70
     0
  3

  4

  5

  6

  7

 40
1.0
 41
0.18
 42
0.0625
 43
0.38
 44
0.18
 45
0.0
 46
0.0
 47
0.0
 48
0.0
140
0.18
141
0.09
142
0.0
143
25.4
144
1.0
145
0.0
146
1.0
147
0.09
 71
     0
 72
     0
 73
     1
 74
     1
 75
     0
 76
     0
 77
     0
 78
     0
170
     0
171
     2
172
     0
173
     0
174
     0
175
     0
176
     0
177
     0
178
     0
270
     2
271
     4
272
     4
273
     2
274
     2
340
10
275
     0
280
     0
281
     0
282
     0
283
     1
284
     0
285
     0
286
     0
287
     3
288
     0
  0
ENDTAB
  0
TABLE
  2
BLOCK_RECORD
  5
1
330
0
100
AcDbSymbolTable
 70
     3
  0
BLOCK_RECORD
  5
1A
102
{ACAD_XDICTIONARY
360
568
102
}
330
1
100
AcDbSymbolTableRecord
100
AcDbBlockTableRecord
  2
*MODEL_SPACE
  0
BLOCK_RECORD
  5
17
102
{ACAD_XDICTIONARY
360
566
102
}
330
1
100
AcDbSymbolTableRecord
100
AcDbBlockTableRecord
  2
*PAPER_SPACE
  0
BLOCK_RECORD
  5
6D
330
1
100
AcDbSymbolTableRecord
100
AcDbBlockTableRecord
  2
_OPEN
  0
BLOCK_RECORD
  5
4F1
330
1
100
AcDbSymbolTableRecord
100
AcDbBlockTableRecord
  2
*D1
  0
BLOCK_RECORD
  5
4FD
330
1
100
AcDbSymbolTableRecord
100
AcDbBlockTableRecord
  2
*D2
  0
ENDTAB
  0
ENDSEC
  0
SECTION
  2
BLOCKS
  0
BLOCK
  5
1B
330
1A
100
AcDbEntity
  8
0
100
AcDbBlockBegin
  2
*MODEL_SPACE
 70
     0
 10
0.0
 20
0.0
 30
0.0
  3
*MODEL_SPACE
  1

  0
ENDBLK
  5
1C
330
1A
100
AcDbEntity
  8
0
100
AcDbBlockEnd
  0
BLOCK
  5
18
330
17
100
AcDbEntity
 67
     1
  8
0
100
AcDbBlockBegin
  2
*PAPER_SPACE
 70
     0
 10
0.0
 20
0.0
 30
0.0
  3
*PAPER_SPACE
  1

  0
ENDBLK
  5
19
330
17
100
AcDbEntity
 67
     1
  8
0
100
AcDbBlockEnd
  0
BLOCK
  5
6E
330
6D
100
AcDbEntity
  8
0
100
AcDbBlockBegin
  2
_OPEN
 70
     0
 10
0.0
 20
0.0
 30
0.0
  3
_OPEN
  1

  0
LINE
  5
6F
330
6D
100
AcDbEntity
  8
0
  6
BYBLOCK
 62
     0
100
AcDbLine
 10
-1.0
 20
0.1666666666666666
 30
0.0
 11
0.0
 21
0.0
 31
0.0
  0
LINE
  5
70
330
6D
100
AcDbEntity
  8
0
  6
BYBLOCK
 62
     0
100
AcDbLine
 10
0.0
 20
0.0
 30
0.0
 11
-1.0
 21
-0.1666666666666666
 31
0.0
  0
LINE
  5
71
330
6D
100
AcDbEntity
  8
0
  6
BYBLOCK
 62
     0
100
AcDbLine
 10
0.0
 20
0.0
 30
0.0
 11
-1.0
 21
0.0
 31
0.0
  0
ENDBLK
  5
72
330
6D
100
AcDbEntity
  8
0
100
AcDbBlockEnd
  0
BLOCK
  5
51F
330
4F1
100
AcDbEntity
  8
0
100
AcDbBlockBegin
  2
*D1
 70
     1
 10
0.0
 20
0.0
 30
0.0
  3
*D1
  1

  0
LINE
  5
520
330
4F1
100
AcDbEntity
  8
0
  6
BYBLOCK
 62
     4
100
AcDbLine
 10
500.1770614673731
 20
233.2754065729136
 30
0.0
 11
500.1770614673731
 21
350.2025762538555
 31
0.0
  0
LINE
  5
521
330
4F1
100
AcDbEntity
  8
0
  6
BYBLOCK
 62
     4
100
AcDbLine
 10
100.177161467373
 20
233.2757065729136
 30
0.0
 11
100.177161467373
 21
350.2025762538555
 31
0.0
  0
LINE
  5
522
330
4F1
100
AcDbEntity
  8
0
  6
BYBLOCK
 62
     4
100
AcDbLine
 10
493.1770614673731
 20
347.2025762538555
 30
0.0
 11
107.177161467373
 21
347.2025762538555
 31
0.0
  0
INSERT
  5
523
330
4F1
100
AcDbEntity
  8
0
  6
BYBLOCK
 62
     4
100
AcDbBlockReference
  2
_OPEN
 10
500.1770614673731
 20
347.2025762538555
 30
0.0
 41
7.0
 42
7.0
 43
7.0
  0
INSERT
  5
524
330
4F1
100
AcDbEntity
  8
0
  6
BYBLOCK
 62
     4
100
AcDbBlockReference
  2
_OPEN
 10
100.177161467373
 20
347.2025762538555
 30
0.0
 41
7.0
 42
7.0
 43
7.0
 50
180.0
  0
MTEXT
  5
525
330
4F1
100
AcDbEntity
  8
0
  6
BYBLOCK
 62
     4
100
AcDbMText
 10
300.1771114673731
 20
352.2025762538555
 30
0.0
 40
6.0
 41
0.0
 71
     5
 72
     1
  1
\A1;400
1001
ACAD
1000
MTEXTBEGIN
1070
    73
1070
     1
1070
    44
1040
1.0
1070
    74
1070
     0
1000
MTEXTEND
1000
MTEXTBEGIN
1070
    73
1070
     1
1070
    44
1040
1.0
1070
    74
1070
     0
1000
MTEXTEND
  0
POINT
  5
526
330
4F1
100
AcDbEntity
  8
DEFPOINTS
  6
BYBLOCK
 62
     0
100
AcDbPoint
 10
500.1770614673731
 20
227.2754065729136
 30
0.0
  0
POINT
  5
527
330
4F1
100
AcDbEntity
  8
DEFPOINTS
  6
BYBLOCK
 62
     0
100
AcDbPoint
 10
100.177161467373
 20
227.2757065729137
 30
0.0
  0
POINT
  5
528
330
4F1
100
AcDbEntity
  8
DEFPOINTS
  6
BYBLOCK
 62
     0
100
AcDbPoint
 10
100.177161467373
 20
347.2025762538555
 30
0.0
  0
ENDBLK
  5
529
330
4F1
100
AcDbEntity
  8
0
100
AcDbBlockEnd
  0
BLOCK
  5
52A
330
4FD
100
AcDbEntity
  8
0
100
AcDbBlockBegin
  2
*D2
 70
     1
 10
0.0
 20
0.0
 30
0.0
  3
*D2
  1

  0
LINE
  5
52B
330
4FD
100
AcDbEntity
  8
0
  6
BYBLOCK
 62
     4
100
AcDbLine
 10
306.1770614673729
 20
314.2757065729134
 30
0.0
 11
539.5867484842601
 21
314.2757065729134
 31
0.0
  0
LINE
  5
52C
330
4FD
100
AcDbEntity
  8
0
  6
BYBLOCK
 62
     4
100
AcDbLine
 10
506.1770614673731
 20
213.7754065729135
 30
0.0
 11
539.5867484842601
 21
213.7754065729135
 31
0.0
  0
LINE
  5
52D
330
4FD
100
AcDbEntity
  8
0
  6
BYBLOCK
 62
     4
100
AcDbLine
 10
536.5867484842602
 20
307.2757065729134
 30
0.0
 11
536.5867484842602
 21
220.7754065729135
 31
0.0
  0
INSERT
  5
52E
330
4FD
100
AcDbEntity
  8
0
  6
BYBLOCK
 62
     4
100
AcDbBlockReference
  2
_OPEN
 10
536.5867484842602
 20
314.2757065729134
 30
0.0
 41
7.0
 42
7.0
 43
7.0
 50
90.0
  0
INSERT
  5
52F
330
4FD
100
AcDbEntity
  8
0
  6
BYBLOCK
 62
     4
100
AcDbBlockReference
  2
_OPEN
 10
536.5867484842602
 20
213.7754065729135
 30
0.0
 41
7.0
 42
7.0
 43
7.0
 50
270.0
  0
MTEXT
  5
530
330
4FD
100
AcDbEntity
  8
0
  6
BYBLOCK
 62
     4
100
AcDbMText
 10
531.5867484842601
 20
264.0255565729134
 30
0.0
 40
6.0
 41
0.0
 71
     5
 72
     1
  1
\A1;101
 11
0.0
 21
1.0
 31
0.0
1001
ACAD
1000
MTEXTBEGIN
1070
    73
1070
     1
1070
    44
1040
1.0
1070
    74
1070
     0
1000
MTEXTEND
1000
MTEXTBEGIN
1070
    73
1070
     1
1070
    44
1040
1.0
1070
    74
1070
     0
1000
MTEXTEND
  0
POINT
  5
531
330
4FD
100
AcDbEntity
  8
DEFPOINTS
  6
BYBLOCK
 62
     0
100
AcDbPoint
 10
300.1770614673729
 20
314.2757065729134
 30
0.0
  0
POINT
  5
532
330
4FD
100
AcDbEntity
  8
DEFPOINTS
  6
BYBLOCK
 62
     0
100
AcDbPoint
 10
500.1770614673731
 20
213.7754065729135
 30
0.0
  0
POINT
  5
533
330
4FD
100
AcDbEntity
  8
DEFPOINTS
  6
BYBLOCK
 62
     0
100
AcDbPoint
 10
536.5867484842602
 20
213.7754065729135
 30
0.0
  0
ENDBLK
  5
534
330
4FD
100
AcDbEntity
  8
0
100
AcDbBlockEnd
  0
ENDSEC
  0
SECTION
  2
ENTITIES
  0
TEXT
  5
11A
330
1A
100
AcDbEntity
  8
ZUWAKU
 62
     7
 48
10.0
100
AcDbText
 10
795.5579444309237
 20
4.974918402528146
 30
0.0
 40
8.0
  1
A1
100
AcDbText
  0
LINE
  5
11B
330
1A
100
AcDbEntity
  8
ZUWAKU
 62
     7
 48
10.0
100
AcDbLine
 10
10.05047808566086
 20
25.78258628282265
 30
0.0
 11
806.0504780856609
 21
25.78258628282253
 31
0.0
  0
LINE
  5
11C
330
1A
100
AcDbEntity
  8
ZUWAKU
  6
CONTINUOUS
 62
     7
100
AcDbLine
 10
806.0504780856609
 20
563.7825862828226
 30
0.0
 11
10.05047808566086
 21
563.7825862828226
 31
0.0
  0
LINE
  5
11D
330
1A
100
AcDbEntity
  8
ZUWAKU
  6
CONTINUOUS
 62
     7
100
AcDbLine
 10
806.0504780856609
 20
13.78258628282265
 30
0.0
 11
10.05047808566086
 21
13.78258628282265
 31
0.0
  0
LINE
  5
11E
330
1A
100
AcDbEntity
  8
ZUWAKU
  6
CONTINUOUS
 62
     7
100
AcDbLine
 10
10.05047808566086
 20
563.7825862828226
 30
0.0
 11
10.05047808566086
 21
13.78258628282265
 31
0.0
  0
LINE
  5
11F
330
1A
100
AcDbEntity
  8
ZUWAKU
 62
     7
 48
10.0
100
AcDbLine
 10
44.55797523147839
 20
13.78258628282265
 30
0.0
 11
44.5579752314784
 21
25.78258628282265
 31
0.0
  0
TEXT
  5
120
330
1A
100
AcDbEntity
  8
ZUWAKU
 62
     7
100
AcDbText
 10
16.05676551180931
 20
15.52294263804401
 30
0.0
 40
8.0
  1
品 種
100
AcDbText
  0
LINE
  5
121
330
1A
100
AcDbEntity
  8
ZUWAKU
 62
     7
 48
10.0
100
AcDbLine
 10
276.1028387068254
 20
13.78258628282265
 30
0.0
 11
276.1028387068254
 21
25.78258628282261
 31
0.0
  0
LINE
  5
122
330
1A
100
AcDbEntity
  8
ZUWAKU
 62
     7
 48
10.0
100
AcDbLine
 10
209.5138526425484
 20
13.78258628282265
 30
0.0
 11
209.5138526425485
 21
25.78258628282263
 31
0.0
  0
TEXT
  5
123
330
1A
100
AcDbEntity
  8
ZUWAKU
 62
     7
100
AcDbText
 10
282.3131429914078
 20
15.64241700452384
 30
0.0
 40
8.0
  1
水返し　型
100
AcDbText
  0
TEXT
  5
124
330
1A
100
AcDbEntity
  8
ZUWAKU
 62
     7
100
AcDbText
 10
215.4560837190756
 20
16.18358115302453
 30
0.0
 40
8.0
  1
品名・ｻ ｲ ｽﾞ
100
AcDbText
  0
TEXT
  5
125
330
1A
100
AcDbEntity
  8
ZUWAKU
 62
     7
100
AcDbText
 10
50.3519382305086
 20
16.10306189639755
 30
0.0
 40
8.0
  1
丸トップ　のきとい
100
AcDbText
  0
LINE
  5
126
330
1A
100
AcDbEntity
  8
ZUWAKU
 62
     7
 48
10.0
100
AcDbLine
 10
768.7231079932794
 20
13.78258628282237
 30
0.0
 11
768.7231079932794
 21
25.78258628282254
 31
0.0
  0
LINE
  5
127
330
1A
100
AcDbEntity
  8
ZUWAKU
 62
     7
 48
10.0
100
AcDbLine
 10
733.8119002376948
 20
13.78258628282242
 30
0.0
 11
733.8119002376946
 21
25.78258628282254
 31
0.0
  0
TEXT
  5
128
330
1A
100
AcDbEntity
  8
ZUWAKU
 62
     7
100
AcDbText
 10
739.6955629973526
 20
15.24227755810852
 30
0.0
 40
8.0
  1
尺 度
100
AcDbText
  0
TEXT
  5
129
330
1A
100
AcDbEntity
  8
ZUWAKU
 62
     7
100
AcDbText
 10
779.7374630323229
 20
15.55488920081529
 30
0.0
 40
8.0
  1
1/2
100
AcDbText
  0
TEXT
  5
12A
330
1A
100
AcDbEntity
  8
ZUWAKU
 62
     7
100
AcDbText
 10
654.2531733678779
 20
15.90287984531518
 30
0.0
 40
8.0
  1
ＧＧ８１
100
AcDbText
  0
TEXT
  5
12B
330
1A
100
AcDbEntity
  8
ZUWAKU
 62
     7
100
AcDbText
 10
620.3363288383084
 20
15.6519090944263
 30
0.0
 40
8.0
  1
品 番
100
AcDbText
  0
LINE
  5
12C
330
1A
100
AcDbEntity
  8
ZUWAKU
 62
     7
 48
10.0
100
AcDbLine
 10
614.3351028194128
 20
13.78258628282232
 30
0.0
 11
614.3351028194128
 21
25.78258628282256
 31
0.0
  0
LINE
  5
12D
330
1A
100
AcDbEntity
  8
ZUWAKU
 62
     7
 48
10.0
100
AcDbLine
 10
648.7607587371021
 20
13.78258628282232
 30
0.0
 11
648.7607587371021
 21
25.78258628282255
 31
0.0
  0
TEXT
  5
12E
330
1A
100
AcDbEntity
  8
ZUWAKU
 62
     7
 48
10.0
100
AcDbText
 10
646.2758615931216
 20
4.949376903717848
 30
0.0
 40
8.0
  1
積水化学工業株式会社  建材
100
AcDbText
  0
LINE
  5
12F
330
1A
100
AcDbEntity
  8
ZUWAKU
  6
CONTINUOUS
 62
     7
100
AcDbLine
 10
806.0504780856609
 20
563.7825862828226
 30
0.0
 11
806.0504780856609
 21
13.78258628282265
 31
0.0
  0
DIMENSION
  5
335
330
1A
100
AcDbEntity
  8
SUNPOU
  6
CONTINUOUS
 62
     4
100
AcDbDimension
  2
*D1
 10
100.177161467373
 20
347.2025762538555
 30
0.0
 11
300.1771114673731
 21
352.2025762538555
 31
0.0
 70
    32
  3
STANDARD
100
AcDbAlignedDimension
 13
500.1770614673731
 23
227.2754065729136
 33
0.0
 14
100.177161467373
 24
227.2757065729137
 34
0.0
100
AcDbRotatedDimension
1001
ACAD
1000
DSTYLE
1002
{
1070
   140
1040
6.0
1070
    74
1070
     0
1070
   172
1070
     1
1070
    73
1070
     0
1070
   272
1070
     2
1070
    77
1070
     3
1070
   173
1070
     1
1070
   147
1040
2.0
1070
    42
1040
6.0
1070
    44
1040
3.0
1070
    43
1040
14.0
1070
   271
1070
     0
1070
   178
1070
     4
1070
   177
1070
     4
1070
   176
1070
     4
1070
   141
1040
150.0
1070
     7
1000
_OPEN
1070
     6
1000
_OPEN
1070
    41
1040
7.0
1002
}
  0
DIMENSION
  5
336
330
1A
100
AcDbEntity
  8
SUNPOU
  6
CONTINUOUS
 62
     4
100
AcDbDimension
  2
*D2
 10
536.5867484842602
 20
213.7754065729135
 30
0.0
 11
531.5867484842601
 21
264.0255565729134
 31
0.0
 70
    32
  3
STANDARD
100
AcDbAlignedDimension
 13
300.1770614673729
 23
314.2757065729134
 33
0.0
 14
500.1770614673731
 24
213.7754065729135
 34
0.0
 50
90.0
100
AcDbRotatedDimension
1001
ACAD
1000
DSTYLE
1002
{
1070
   140
1040
6.0
1070
    74
1070
     0
1070
   172
1070
     1
1070
    73
1070
     0
1070
   272
1070
     2
1070
    77
1070
     3
1070
   173
1070
     1
1070
   147
1040
2.0
1070
    42
1040
6.0
1070
    44
1040
3.0
1070
    43
1040
14.0
1070
   271
1070
     0
1070
   178
1070
     4
1070
   177
1070
     4
1070
   176
1070
     4
1070
   141
1040
150.0
1070
     7
1000
_OPEN
1070
     6
1000
_OPEN
1070
    41
1040
7.0
1002
}
  0
ARC
  5
337
330
1A
100
AcDbEntity
  8
SEIHIN
  6
CONTINUOUS
 62
     3
100
AcDbCircle
 10
409.2090933906605
 20
245.7800824522794
 30
0.0
 40
5.59087151157957
100
AcDbArc
 50
26.93548893711625
 51
91.17051123373213
  0
ARC
  5
338
330
1A
100
AcDbEntity
  8
SEIHIN
  6
CONTINUOUS
 62
     3
100
AcDbCircle
 10
409.2090933906605
 20
245.7800824522794
 30
0.0
 40
4.09087151157957
100
AcDbArc
 50
14.08492818300911
 51
91.17051123373213
  0
ARC
  5
339
330
1A
100
AcDbEntity
  8
SEIHIN
  6
CONTINUOUS
 62
     3
100
AcDbCircle
 10
414.0740831003093
 20
236.0984215766171
 30
0.0
 40
10.71483626179281
100
AcDbArc
 50
34.75237602101422
 51
94.80274480163052
  0
ARC
  5
33A
330
1A
100
AcDbEntity
  8
SEIHIN
  6
CONTINUOUS
 62
     3
100
AcDbCircle
 10
407.3745233110491
 20
218.3910617715603
 30
0.0
 40
24.57671218758521
100
AcDbArc
 50
74.04319295697392
 51
95.83393958207009
  0
ARC
  5
33B
330
1A
100
AcDbEntity
  8
SEIHIN
  6
CONTINUOUS
 62
     3
100
AcDbCircle
 10
407.3745233110491
 20
218.3910617715603
 30
0.0
 40
26.07671218758521
100
AcDbArc
 50
74.04319295697392
 51
117.6246862071666
  0
ARC
  5
33C
330
1A
100
AcDbEntity
  8
SEIHIN
  6
CONTINUOUS
 62
     3
 48
16.0
100
AcDbCircle
 10
413.1770631651805
 20
273.2756068578854
 30
0.0
 40
9.999965551190552
100
AcDbArc
 50
61.89223329580451
 51
137.1639900379257
  0
ARC
  5
33D
330
1A
100
AcDbEntity
  8
SEIHIN
  6
CONTINUOUS
 62
     3
 48
16.0
100
AcDbCircle
 10
438.1770101580967
 20
269.2754293260802
 30
0.0
 40
23.99994869137812
100
AcDbArc
 50
147.71031321374
 51
179.9995768534501
  0
ARC
  5
33E
330
1A
100
AcDbEntity
  8
SEIHIN
  6
CONTINUOUS
 62
     3
 48
16.0
100
AcDbCircle
 10
413.1770521017797
 20
273.2756125675531
 30
0.0
 40
19.99997766686329
100
AcDbArc
 50
24.35727092590938
 51
90.39846897309161
  0
ARC
  5
33F
330
1A
100
AcDbEntity
  8
SEIHIN
  6
CONTINUOUS
 62
     3
 48
16.0
100
AcDbCircle
 10
413.1771325786687
 20
273.2755831136091
 30
0.0
 40
13.99994254155289
100
AcDbArc
 50
36.02966827048517
 51
107.4558370739767
  0
ARC
  5
340
330
1A
100
AcDbEntity
  8
SEIHIN
  6
CONTINUOUS
 62
     3
 48
16.0
100
AcDbCircle
 10
406.7859938939865
 20
197.2757315460388
 30
0.0
 40
7.000024973200297
100
AcDbArc
 50
269.999734585505
 51
345.2025542624747
  0
ARC
  5
341
330
1A
100
AcDbEntity
  8
SEIHIN
  6
CONTINUOUS
 62
     3
 48
16.0
100
AcDbCircle
 10
395.177117260564
 20
284.2755722095684
 30
0.0
 40
20.00003436339386
100
AcDbArc
 50
26.74214061926462
 51
89.99987335703876
  0
LINE
  5
342
330
1A
100
AcDbEntity
  8
SEIHIN
  6
CONTINUOUS
 62
     3
 48
16.0
100
AcDbLine
 10
500.1770614673731
 20
213.7754065729135
 30
0.0
 11
300.177061467373
 21
213.7757065729136
 31
0.0
  0
LINE
  5
343
330
1A
100
AcDbEntity
  8
SEIHIN
  6
CONTINUOUS
 62
     3
 48
16.0
100
AcDbLine
 10
490.1770614673731
 20
227.2755065729136
 30
0.0
 11
300.177061467373
 21
227.2757065729137
 31
0.0
  0
ARC
  5
344
330
1A
100
AcDbEntity
  8
SEIHIN
  6
CONTINUOUS
 62
     3
100
AcDbCircle
 10
363.4821726341648
 20
274.2824701181307
 30
0.0
 40
2.321491290185403
100
AcDbArc
 50
120.5678724843257
 51
226.3950682446708
  0
ARC
  5
345
330
1A
100
AcDbEntity
  8
SEIHIN
  6
CONTINUOUS
 62
     3
100
AcDbCircle
 10
381.9549673901513
 20
271.5064864729327
 30
0.0
 40
3.359490229808325
100
AcDbArc
 50
99.05736656910143
 51
158.5119440220416
  0
ARC
  5
346
330
1A
100
AcDbEntity
  8
SEIHIN
  6
CONTINUOUS
 62
     3
100
AcDbCircle
 10
369.6733776396541
 20
272.8533576901698
 30
0.0
 40
2.735290164744515
100
AcDbArc
 50
142.9145879554248
 51
257.9217821726913
  0
ARC
  5
347
330
1A
100
AcDbEntity
  8
SEIHIN
  6
CONTINUOUS
 62
     3
100
AcDbCircle
 10
363.4821726341648
 20
274.2824701181307
 30
0.0
 40
3.821491290185403
100
AcDbArc
 50
130.170285622792
 51
210.2945973697634
  0
ARC
  5
348
330
1A
100
AcDbEntity
  8
SEIHIN
  6
CONTINUOUS
 62
     3
100
AcDbCircle
 10
368.3548354014027
 20
273.2570098918767
 30
0.0
 40
3.015752441835978
100
AcDbArc
 50
122.9134815920084
 51
259.8486474580745
  0
ARC
  5
349
330
1A
100
AcDbEntity
  8
SEIHIN
  6
CONTINUOUS
 62
     3
100
AcDbCircle
 10
381.270319228202
 20
268.508993582325
 30
0.0
 40
6.317015608998731
100
AcDbArc
 50
31.49672350326845
 51
88.58686539725667
  0
ARC
  5
34A
330
1A
100
AcDbEntity
  8
SEIHIN
  6
CONTINUOUS
 62
     3
100
AcDbCircle
 10
378.2785906417897
 20
275.0309747162981
 30
0.0
 40
2.358988763812304
100
AcDbArc
 50
147.6282295129197
 51
283.4924173095857
  0
ARC
  5
34B
330
1A
100
AcDbEntity
  8
SEIHIN
  6
CONTINUOUS
 62
     3
100
AcDbCircle
 10
381.270319228202
 20
268.508993582325
 30
0.0
 40
7.817015608998731
100
AcDbArc
 50
29.87407843920401
 51
93.33684242251186
  0
ARC
  5
34C
330
1A
100
AcDbEntity
  8
SEIHIN
  6
CONTINUOUS
 62
     3
100
AcDbCircle
 10
387.9048462255004
 20
272.2300176208261
 30
0.0
 40
6.992742172049921
100
AcDbArc
 50
356.6658585128933
 51
64.40850957744105
  0
ARC
  5
34D
330
1A
100
AcDbEntity
  8
SEIHIN
  6
CONTINUOUS
 62
     3
100
AcDbCircle
 10
386.7487701037808
 20
270.6385650414612
 30
0.0
 40
7.434568801132501
100
AcDbArc
 50
2.345693552906821
 51
62.22951774178235
  0
ARC
  5
34E
330
1A
100
AcDbEntity
  8
SEIHIN
  6
CONTINUOUS
 62
     3
100
AcDbCircle
 10
340.1645534328249
 20
271.3148993840742
 30
0.0
 40
2.398102630225523
100
AcDbArc
 50
22.31150062349113
 51
214.8870887793693
  0
ARC
  5
34F
330
1A
100
AcDbEntity
  8
SEIHIN
  6
CONTINUOUS
 62
     3
100
AcDbCircle
 10
212.4494029986836
 20
272.2301497076682
 30
0.0
 40
6.992742172049921
100
AcDbArc
 50
115.5914041554309
 51
183.3340552199786
  0
ARC
  5
350
330
1A
100
AcDbEntity
  8
SEIHIN
  6
CONTINUOUS
 62
     3
100
AcDbCircle
 10
222.0756627996316
 20
275.0310923094094
 30
0.0
 40
2.358988763812304
100
AcDbArc
 50
256.5074964232863
 51
32.37168421995231
  0
ARC
  5
351
330
1A
100
AcDbEntity
  8
SEIHIN
  6
CONTINUOUS
 62
     3
100
AcDbCircle
 10
218.3992807446447
 20
271.5066096013678
 30
0.0
 40
3.359490229808325
100
AcDbArc
 50
21.48796971083051
 51
80.94254716377063
  0
ARC
  5
352
330
1A
100
AcDbEntity
  8
SEIHIN
  6
CONTINUOUS
 62
     3
100
AcDbCircle
 10
230.6808725230383
 20
272.8534623268842
 30
0.0
 40
2.735290164744515
100
AcDbArc
 50
282.0781315601808
 51
37.08532577744728
  0
ARC
  5
353
330
1A
100
AcDbEntity
  8
SEIHIN
  6
CONTINUOUS
 62
     3
100
AcDbCircle
 10
260.1896944134615
 20
271.3149595909642
 30
0.0
 40
2.398102630225523
100
AcDbArc
 50
325.1128249535026
 51
157.6884131093806
  0
ARC
  5
354
330
1A
100
AcDbEntity
  8
SEIHIN
  6
CONTINUOUS
 62
     3
100
AcDbCircle
 10
219.0839243934317
 20
268.5091156799262
 30
0.0
 40
6.317015608998731
100
AcDbArc
 50
91.41304833561539
 51
148.5031902296036
  0
ARC
  5
355
330
1A
100
AcDbEntity
  8
SEIHIN
  6
CONTINUOUS
 62
     3
100
AcDbCircle
 10
236.8720796802573
 20
274.2825654330839
 30
0.0
 40
3.821491290185403
100
AcDbArc
 50
329.7053163631086
 51
49.82962811008003
  0
ARC
  5
356
330
1A
100
AcDbEntity
  8
SEIHIN
  6
CONTINUOUS
 62
     3
100
AcDbCircle
 10
236.8720796802573
 20
274.2825654330839
 30
0.0
 40
2.321491290185403
100
AcDbArc
 50
313.6048454882011
 51
59.43204124854633
  0
ARC
  5
357
330
1A
100
AcDbEntity
  8
SEIHIN
  6
CONTINUOUS
 62
     3
100
AcDbCircle
 10
219.0839243934317
 20
268.5091156799262
 30
0.0
 40
7.817015608998731
100
AcDbArc
 50
86.66307131036019
 51
150.125835293668
  0
ARC
  5
358
330
1A
100
AcDbEntity
  8
SEIHIN
  6
CONTINUOUS
 62
     3
100
AcDbCircle
 10
231.9994153690454
 20
273.2571125433334
 30
0.0
 40
3.015752441835978
100
AcDbArc
 50
280.1512662747975
 51
57.08643214086361
  0
ARC
  5
359
330
1A
100
AcDbEntity
  8
SEIHIN
  6
CONTINUOUS
 62
     3
100
AcDbCircle
 10
213.6054767242387
 20
270.6386953876644
 30
0.0
 40
7.434568801132501
100
AcDbArc
 50
117.7703959910896
 51
177.6542201799652
  0
ARC
  5
35A
330
1A
100
AcDbEntity
  8
SEIHIN
  6
CONTINUOUS
 62
     3
 48
16.0
100
AcDbCircle
 10
162.1770437988442
 20
269.2757676083322
 30
0.0
 40
24.00001766860633
100
AcDbArc
 50
359.9998542887784
 51
32.28919221426645
  0
ARC
  5
35B
330
1A
100
AcDbEntity
  8
SEIHIN
  6
CONTINUOUS
 62
     3
 48
16.0
100
AcDbCircle
 10
162.1770299722652
 20
269.275760005247
 30
0.0
 40
14.0000314952097
100
AcDbArc
 50
359.9997813256921
 51
61.03330353429907
  0
ARC
  5
35C
330
1A
100
AcDbEntity
  8
SEIHIN
  6
CONTINUOUS
 62
     3
 48
16.0
100
AcDbCircle
 10
127.9648401825501
 20
293.9682891566194
 30
0.0
 40
25.99997951577405
100
AcDbArc
 50
295.3378492711138
 51
323.245722550645
  0
ARC
  5
35D
330
1A
100
AcDbEntity
  8
SEIHIN
  6
CONTINUOUS
 62
     3
 48
16.0
100
AcDbCircle
 10
145.1770486869718
 20
271.2757462349226
 30
0.0
 40
8.000050253590785
100
AcDbArc
 50
332.4981626812064
 51
63.22270670488469
  0
ARC
  5
35E
330
1A
100
AcDbEntity
  8
SEIHIN
  6
CONTINUOUS
 62
     3
 48
16.0
100
AcDbCircle
 10
147.1771285037361
 20
253.275661025079
 30
0.0
 40
25.0000373694055
100
AcDbArc
 50
115.0161716753589
 51
173.1959795310813
  0
ARC
  5
35F
330
1A
100
AcDbEntity
  8
SEIHIN
  6
CONTINUOUS
 62
     3
 48
16.0
100
AcDbCircle
 10
145.1770699477046
 20
271.2756941094173
 30
0.0
 40
13.99999963356943
100
AcDbArc
 50
341.9352265825822
 51
86.52865183198098
  0
ARC
  5
360
330
1A
100
AcDbEntity
  8
SEIHIN
  6
CONTINUOUS
 62
     3
 48
16.0
100
AcDbCircle
 10
167.177103404223
 20
269.2757313434306
 30
0.0
 40
15.00002878758627
100
AcDbArc
 50
186.4852887782113
 51
54.65235498027322
  0
ARC
  5
361
330
1A
100
AcDbEntity
  8
SEIHIN
  6
CONTINUOUS
 62
     3
 48
16.0
100
AcDbCircle
 10
167.1770796904167
 20
269.2757052077717
 30
0.0
 40
18.99998177695624
100
AcDbArc
 50
171.4316179262631
 51
0.0000041166809748
  0
LINE
  5
362
330
1A
100
AcDbEntity
  8
CENTER_L
  6
CENTER
 62
     1
 48
5.0
100
AcDbLine
 10
300.177061467373
 20
188.3528065729136
 30
0.0
 11
300.1771614673731
 21
321.1862065729135
 31
0.0
  0
LINE
  5
363
330
1A
100
AcDbEntity
  8
SEIHIN
  6
CONTINUOUS
 62
     3
 48
16.0
100
AcDbLine
 10
136.7898614673729
 20
193.2757065729136
 30
0.0
 11
165.709161467373
 21
193.2757065729136
 31
0.0
  0
LINE
  5
364
330
1A
100
AcDbEntity
  8
SEIHIN
  6
CONTINUOUS
 62
     3
 48
16.0
100
AcDbLine
 10
136.5549614673731
 20
191.2757065729136
 30
0.0
 11
165.7990614673731
 21
191.2757065729136
 31
0.0
  0
LINE
  5
365
330
1A
100
AcDbEntity
  8
SEIHIN
  6
CONTINUOUS
 62
     3
 48
16.0
100
AcDbLine
 10
110.177161467373
 20
227.2757065729137
 30
0.0
 11
300.1771614673731
 21
227.2757065729137
 31
0.0
  0
LINE
  5
366
330
1A
100
AcDbEntity
  8
SEIHIN
  6
CONTINUOUS
 62
     3
 48
16.0
100
AcDbLine
 10
100.177161467373
 20
213.7757065729136
 30
0.0
 11
300.1771614673731
 21
213.7757065729136
 31
0.0
  0
LINE
  5
367
330
1A
100
AcDbEntity
  8
SEIHIN
  6
CONTINUOUS
 62
     3
 48
16.0
100
AcDbLine
 10
110.177161467373
 20
227.2757065729137
 30
0.0
 11
110.177161467373
 21
216.2757065729136
 31
0.0
  0
LINE
  5
368
330
1A
100
AcDbEntity
  8
SEIHIN
  6
CONTINUOUS
 62
     3
 48
16.0
100
AcDbLine
 10
106.177161467373
 20
227.2757065729137
 30
0.0
 11
106.177161467373
 21
216.2757065729136
 31
0.0
  0
LINE
  5
369
330
1A
100
AcDbEntity
  8
SEIHIN
  6
CONTINUOUS
 62
     3
 48
16.0
100
AcDbLine
 10
100.177161467373
 20
227.2757065729137
 30
0.0
 11
100.1770614673729
 21
200.2757065729135
 31
0.0
  0
LINE
  5
36A
330
1A
100
AcDbEntity
  8
SEIHIN
  6
CONTINUOUS
 62
     3
 48
16.0
100
AcDbLine
 10
121.177061467373
 20
213.7757065729136
 30
0.0
 11
117.177061467373
 21
200.2757065729135
 31
0.0
  0
LINE
  5
36B
330
1A
100
AcDbEntity
  8
SEIHIN
  6
CONTINUOUS
 62
     3
 48
16.0
100
AcDbLine
 10
100.177161467373
 20
200.2757065729135
 30
0.0
 11
117.177061467373
 21
200.2757065729135
 31
0.0
  0
LINE
  5
36C
330
1A
100
AcDbEntity
  8
SEIHIN
  6
CONTINUOUS
 62
     3
 48
16.0
100
AcDbLine
 10
100.177161467373
 20
216.2757065729136
 30
0.0
 11
110.177161467373
 21
216.2757065729136
 31
0.0
  0
LINE
  5
36D
330
1A
100
AcDbEntity
  8
SEIHIN
  6
CONTINUOUS
 62
     3
 48
16.0
100
AcDbLine
 10
129.791261467373
 20
196.4721065729135
 30
0.0
 11
126.166761467373
 21
210.0640065729136
 31
0.0
  0
ARC
  5
36E
330
1A
100
AcDbEntity
  8
SEIHIN
  6
CONTINUOUS
 62
     3
 48
16.0
100
AcDbCircle
 10
136.5549330809223
 20
198.2757283817742
 30
0.0
 40
7.00002180891815
100
AcDbArc
 50
194.9312277268049
 51
270.0002323455365
  0
ARC
  5
36F
330
1A
100
AcDbEntity
  8
SEIHIN
  6
CONTINUOUS
 62
     3
 48
16.0
100
AcDbCircle
 10
136.789848788888
 20
201.2757163135268
 30
0.0
 40
8.000009740623125
100
AcDbArc
 50
194.9314618467788
 51
270.0000908028488
  0
ARC
  5
370
330
1A
100
AcDbEntity
  8
SEIHIN
  6
CONTINUOUS
 62
     3
 48
16.0
100
AcDbCircle
 10
121.5448751556883
 20
208.1478960564357
 30
0.0
 40
5.000010516496645
100
AcDbArc
 50
14.93135259054187
 51
90.00015685620907
  0
ARC
  5
371
330
1A
100
AcDbEntity
  8
SEIHIN
  6
CONTINUOUS
 62
     3
 48
16.0
100
AcDbCircle
 10
121.3355751556882
 20
208.7756960564357
 30
0.0
 40
5.000010516496599
100
AcDbArc
 50
14.93135259054116
 51
90.00015685620841
  0
ARC
  5
372
330
1A
100
AcDbEntity
  8
SEIHIN
  6
CONTINUOUS
 62
     3
 48
16.0
100
AcDbCircle
 10
130.1771793256071
 20
227.2757216285242
 30
0.0
 40
20.00001785823971
100
AcDbArc
 50
80.26601871630164
 51
180.0000431311085
  0
ARC
  5
373
330
1A
100
AcDbEntity
  8
SEIHIN
  6
CONTINUOUS
 62
     3
 48
16.0
100
AcDbCircle
 10
130.1771684277047
 20
227.2757156630835
 30
0.0
 40
30.000006960333
100
AcDbArc
 50
105.1175467783208
 51
180.0000173609417
  0
ARC
  5
374
330
1A
100
AcDbEntity
  8
SEIHIN
  6
CONTINUOUS
 62
     3
 48
16.0
100
AcDbCircle
 10
130.1771905078587
 20
227.2757379933142
 30
0.0
 40
24.00002904050621
100
AcDbArc
 50
94.50840178018999
 51
180.0000750105902
  0
LINE
  5
375
330
1A
100
AcDbEntity
  8
SEIHIN
100
AcDbLine
 10
110.1859701676326
 20
227.8692456230047
 30
0.0
 11
100.1830333375457
 21
227.8692456230047
 31
0.0
  0
ARC
  5
376
330
1A
100
AcDbEntity
  8
SEIHIN
  6
CONTINUOUS
 62
     3
 48
16.0
100
AcDbCircle
 10
147.1771624254931
 20
253.2757091487881
 30
0.0
 40
15.00004290493891
100
AcDbArc
 50
114.4101372068622
 51
204.7836048933921
  0
ARC
  5
377
330
1A
100
AcDbEntity
  8
SEIHIN
  6
CONTINUOUS
 62
     3
 48
16.0
100
AcDbCircle
 10
147.1771397707479
 20
253.2756682268736
 30
0.0
 40
19.00003182288425
100
AcDbArc
 50
114.7291815960464
 51
186.2672540488474
  0
ARC
  5
378
330
1A
100
AcDbEntity
  8
SEIHIN
  6
CONTINUOUS
 62
     3
 48
16.0
100
AcDbCircle
 10
127.9540732201155
 20
293.9631467691501
 30
0.0
 40
30.00004296773322
100
AcDbArc
 50
295.3628287497073
 51
312.887312073473
  0
ARC
  5
379
330
1A
100
AcDbEntity
  8
SEIHIN
  6
CONTINUOUS
 62
     3
100
AcDbCircle
 10
282.6649880214784
 20
264.6194828784346
 30
0.0
 40
5.231241264852338
100
AcDbArc
 50
220.526618678483
 51
14.64945832235194
  0
ARC
  5
37A
330
1A
100
AcDbEntity
  8
SEIHIN
  6
CONTINUOUS
 62
     3
100
AcDbCircle
 10
281.6295992859492
 20
264.0197172619468
 30
0.0
 40
6.395021382643788
100
AcDbArc
 50
18.37909145504322
 51
87.24430871553277
  0
ARC
  5
37B
330
1A
100
AcDbEntity
  8
SEIHIN
  6
CONTINUOUS
 62
     3
100
AcDbCircle
 10
282.6649880214784
 20
264.6194828784346
 30
0.0
 40
3.731241264852338
100
AcDbArc
 50
220.526618678483
 51
14.64945832235194
  0
ARC
  5
37C
330
1A
100
AcDbEntity
  8
SEIHIN
  6
CONTINUOUS
 62
     3
100
AcDbCircle
 10
278.2390212287476
 20
262.8704067596796
 30
0.0
 40
4.365901229834459
100
AcDbArc
 50
25.5175528587328
 51
75.6886450428195
  0
ARC
  5
37D
330
1A
100
AcDbEntity
  8
SEIHIN
  6
CONTINUOUS
 62
     3
100
AcDbCircle
 10
281.6295992859492
 20
264.0197172619468
 30
0.0
 40
4.895021382643788
100
AcDbArc
 50
18.37909145504322
 51
94.80306731059146
  0
LINE
  5
37E
330
1A
100
AcDbEntity
  8
SEIHIN
  6
CONTINUOUS
 62
     3
 48
16.0
100
AcDbLine
 10
216.176961467373
 20
200.2757065729135
 30
0.0
 11
300.177061467373
 21
200.2758065729136
 31
0.0
  0
ARC
  5
37F
330
1A
100
AcDbEntity
  8
SEIHIN
  6
CONTINUOUS
 62
     3
100
AcDbCircle
 10
228.1471647727563
 20
284.7593098518351
 30
0.0
 40
50.62536019549475
100
AcDbArc
 50
250.456760500437
 51
286.5945127788561
  0
ARC
  5
380
330
1A
100
AcDbEntity
  8
SEIHIN
  6
CONTINUOUS
 62
     3
100
AcDbCircle
 10
228.1471647727563
 20
284.7593098518351
 30
0.0
 40
49.12536019549475
100
AcDbArc
 50
243.3682288506513
 51
286.5945127788561
  0
ARC
  5
381
330
1A
100
AcDbEntity
  8
SEIHIN
  6
CONTINUOUS
 62
     3
100
AcDbCircle
 10
244.8858425820962
 20
273.598668460536
 30
0.0
 40
33.63790161960102
100
AcDbArc
 50
210.7842978234553
 51
223.3686231343144
  0
ARC
  5
382
330
1A
100
AcDbEntity
  8
SEIHIN
  6
CONTINUOUS
 62
     3
100
AcDbCircle
 10
229.1300260890316
 20
278.6940725156785
 30
0.0
 40
37.76841348096635
100
AcDbArc
 50
236.8224875241959
 51
278.4833723427792
  0
ARC
  5
383
330
1A
100
AcDbEntity
  8
SEIHIN
  6
CONTINUOUS
 62
     3
100
AcDbCircle
 10
232.5924947128512
 20
269.2477825964364
 30
0.0
 40
27.98847738476244
100
AcDbArc
 50
186.1073124417995
 51
274.3219199772387
  0
ARC
  5
384
330
1A
100
AcDbEntity
  8
SEIHIN
  6
CONTINUOUS
 62
     3
100
AcDbCircle
 10
232.4992246108555
 20
266.6868422872815
 30
0.0
 40
20.98697497059862
100
AcDbArc
 50
164.1955593791525
 51
236.9449367107946
  0
ARC
  5
385
330
1A
100
AcDbEntity
  8
SEIHIN
  6
CONTINUOUS
 62
     3
100
AcDbCircle
 10
234.8164490688212
 20
270.0964067888362
 30
0.0
 40
28.77788562885198
100
AcDbArc
 50
187.6870047641027
 51
250.8772825642938
  0
ARC
  5
386
330
1A
100
AcDbEntity
  8
SEIHIN
  6
CONTINUOUS
 62
     3
100
AcDbCircle
 10
229.1292672892188
 20
285.1086721202983
 30
0.0
 40
44.77614725819122
100
AcDbArc
 50
238.5283312523417
 51
286.9420319268234
  0
LINE
  5
387
330
1A
100
AcDbEntity
  8
SEIHIN
  6
CONTINUOUS
 62
     3
 48
16.0
100
AcDbLine
 10
186.800261467373
 20
195.4881065729136
 30
0.0
 11
181.177061467373
 21
213.7757065729136
 31
0.0
  0
LINE
  5
388
330
1A
100
AcDbEntity
  8
SEIHIN
  6
CONTINUOUS
 62
     3
 48
16.0
100
AcDbLine
 10
176.053861467373
 20
209.5753065729136
 30
0.0
 11
173.0546614673729
 21
198.0151065729135
 31
0.0
  0
ARC
  5
389
330
1A
100
AcDbEntity
  8
SEIHIN
  6
CONTINUOUS
 62
     3
 48
16.0
100
AcDbCircle
 10
165.7091010552601
 20
201.2757350953119
 30
0.0
 40
8.000028522496174
100
AcDbArc
 50
269.9997164736549
 51
341.5439315050365
  0
ARC
  5
38A
330
1A
100
AcDbEntity
  8
SEIHIN
  6
CONTINUOUS
 62
     3
 48
16.0
100
AcDbCircle
 10
165.7990437396671
 20
198.2757929532442
 30
0.0
 40
6.999986380353059
100
AcDbArc
 50
270.0001451035295
 51
345.0681479488258
  0
ARC
  5
38B
330
1A
100
AcDbEntity
  8
SEIHIN
  6
CONTINUOUS
 62
     3
 48
16.0
100
AcDbCircle
 10
180.8739477790577
 20
208.2460960564357
 30
0.0
 40
5.000010516496587
100
AcDbArc
 50
89.99984314378997
 51
165.0686474094569
  0
ARC
  5
38C
330
1A
100
AcDbEntity
  8
SEIHIN
  6
CONTINUOUS
 62
     3
 48
16.0
100
AcDbCircle
 10
181.0183477790577
 20
208.7756960564356
 30
0.0
 40
5.000010516496708
100
AcDbArc
 50
89.9998431437906
 51
165.0686474094579
  0
LINE
  5
38D
330
1A
100
AcDbEntity
  8
SEIHIN
  6
CONTINUOUS
 62
     3
 48
16.0
100
AcDbLine
 10
193.5681614673729
 20
195.2758065729136
 30
0.0
 11
207.6084614673729
 21
195.2758065729136
 31
0.0
  0
LINE
  5
38E
330
1A
100
AcDbEntity
  8
SEIHIN
  6
CONTINUOUS
 62
     3
 48
16.0
100
AcDbLine
 10
193.5681614673729
 20
199.2758065729136
 30
0.0
 11
207.6084614673729
 21
199.2758065729136
 31
0.0
  0
LINE
  5
38F
330
1A
100
AcDbEntity
  8
SEIHIN
  6
CONTINUOUS
 62
     3
 48
16.0
100
AcDbLine
 10
207.6084614673729
 20
197.2758065729136
 30
0.0
 11
193.5681614673729
 21
197.2759065729136
 31
0.0
  0
LINE
  5
390
330
1A
100
AcDbEntity
  8
SEIHIN
  6
CONTINUOUS
 62
     3
 48
16.0
100
AcDbLine
 10
207.6084614673729
 20
190.2758065729136
 30
0.0
 11
193.5681614673729
 21
190.2758065729136
 31
0.0
  0
ARC
  5
391
330
1A
100
AcDbEntity
  8
SEIHIN
  6
CONTINUOUS
 62
     3
 48
16.0
100
AcDbCircle
 10
193.5681290411009
 20
197.2759315461449
 30
0.0
 40
7.000024973557474
100
AcDbArc
 50
194.7974457376511
 51
269.999446903485
  0
ARC
  5
392
330
1A
100
AcDbEntity
  8
SEIHIN
  6
CONTINUOUS
 62
     3
 48
16.0
100
AcDbCircle
 10
193.5681614673729
 20
197.2759065729136
 30
0.0
 40
2.0
100
AcDbArc
 50
90.0
 51
270.0
  0
ARC
  5
393
330
1A
100
AcDbEntity
  8
SEIHIN
  6
CONTINUOUS
 62
     3
 48
16.0
100
AcDbCircle
 10
207.6084214980714
 20
197.2757747763406
 30
0.0
 40
6.999968203541112
100
AcDbArc
 50
270.0003271546695
 51
347.0065692706038
  0
ARC
  5
394
330
1A
100
AcDbEntity
  8
SEIHIN
  6
CONTINUOUS
 62
     3
 48
16.0
100
AcDbCircle
 10
207.6084614673729
 20
197.2758065729136
 30
0.0
 40
2.0
100
AcDbArc
 50
270.0
 51
90.0
  0
LINE
  5
395
330
1A
100
AcDbEntity
  8
SEIHIN
  6
CONTINUOUS
 62
     3
 48
16.0
100
AcDbLine
 10
216.176961467373
 20
200.2757065729135
 30
0.0
 11
214.429161467373
 21
195.7019065729135
 31
0.0
  0
ARC
  5
396
330
1A
100
AcDbEntity
  8
SEIHIN
  6
CONTINUOUS
 62
     3
100
AcDbCircle
 10
185.8596347992203
 20
238.2498828502111
 30
0.0
 40
3.513130238133999
100
AcDbArc
 50
108.8544837578359
 51
171.0155063053926
  0
ARC
  5
397
330
1A
100
AcDbEntity
  8
SEIHIN
  6
CONTINUOUS
 62
     3
100
AcDbCircle
 10
186.2801117225325
 20
236.0985930650918
 30
0.0
 40
12.21483626179281
100
AcDbArc
 50
90.55983850689477
 51
135.9141855804004
  0
ARC
  5
398
330
1A
100
AcDbEntity
  8
SEIHIN
  6
CONTINUOUS
 62
     3
100
AcDbCircle
 10
185.8596347992203
 20
238.2498828502111
 30
0.0
 40
5.013130238133999
100
AcDbArc
 50
108.8544837578359
 51
178.9949921316683
  0
ARC
  5
399
330
1A
100
AcDbEntity
  8
SEIHIN
  6
CONTINUOUS
 62
     3
100
AcDbCircle
 10
186.2801117225325
 20
236.0985930650918
 30
0.0
 40
10.71483626179281
100
AcDbArc
 50
85.19716893124151
 51
145.2475377118578
  0
ARC
  5
39A
330
1A
100
AcDbEntity
  8
SEIHIN
  6
CONTINUOUS
 62
     3
100
AcDbCircle
 10
194.4574483478048
 20
237.9350952212422
 30
0.0
 40
12.09868836716191
100
AcDbArc
 50
175.9076065642993
 51
188.9783190970691
  0
ARC
  5
39B
330
1A
100
AcDbEntity
  8
SEIHIN
  6
CONTINUOUS
 62
     3
100
AcDbCircle
 10
180.2575524735835
 20
238.2579448996584
 30
0.0
 40
5.586949233914324
100
AcDbArc
 50
127.1350008228349
 51
301.576693402697
  0
ARC
  5
39C
330
1A
100
AcDbEntity
  8
SEIHIN
  6
CONTINUOUS
 62
     3
100
AcDbCircle
 10
180.2575524735835
 20
238.2579448996584
 30
0.0
 40
4.086949233914324
100
AcDbArc
 50
120.5985484411941
 51
283.0039046578807
  0
ARC
  5
39D
330
1A
100
AcDbEntity
  8
SEIHIN
  6
CONTINUOUS
 62
     3
100
AcDbCircle
 10
186.538053357792
 20
235.8159875458425
 30
0.0
 40
4.077727252986128
100
AcDbArc
 50
171.4208375510255
 51
214.638865670152
  0
ARC
  5
39E
330
1A
100
AcDbEntity
  8
SEIHIN
  6
CONTINUOUS
 62
     3
100
AcDbCircle
 10
189.7714474570504
 20
237.0182232750834
 30
0.0
 40
9.021205872599129
100
AcDbArc
 50
171.5888045485072
 51
197.697812409368
  0
ARC
  5
39F
330
1A
100
AcDbEntity
  8
SEIHIN
  6
CONTINUOUS
 62
     3
100
AcDbCircle
 10
181.8497492306654
 20
242.1198743246436
 30
0.0
 40
5.000187990344634
100
AcDbArc
 50
150.3049982952861
 51
173.1996556168884
  0
LINE
  5
3A0
330
1A
100
AcDbEntity
  8
SEIHIN
  6
CONTINUOUS
 62
     3
100
AcDbLine
 10
178.1772151719821
 20
241.7758065729136
 30
0.0
 11
177.476561792283
 21
242.2063933845715
 31
0.0
  0
ARC
  5
3A1
330
1A
100
AcDbEntity
  8
SEIHIN
  6
CONTINUOUS
 62
     3
 48
16.0
100
AcDbCircle
 10
167.177074697948
 20
269.2757083239941
 30
0.0
 40
8.999986769425122
100
AcDbArc
 50
195.0786673750868
 51
359.999988852258
  0
ARC
  5
3A2
330
1A
100
AcDbEntity
  8
SEIHIN
  6
CONTINUOUS
 62
     3
100
AcDbCircle
 10
191.145116009324
 20
245.7802466157937
 30
0.0
 40
5.59087151157957
100
AcDbArc
 50
88.82940249913993
 51
153.0644247957557
  0
ARC
  5
3A3
330
1A
100
AcDbEntity
  8
SEIHIN
  6
CONTINUOUS
 62
     3
100
AcDbCircle
 10
193.4064789891367
 20
223.3931534836148
 30
0.0
 40
28.06881384579015
100
AcDbArc
 50
57.56291680865652
 51
95.83214870608649
  0
ARC
  5
3A4
330
1A
100
AcDbEntity
  8
SEIHIN
  6
CONTINUOUS
 62
     3
100
AcDbCircle
 10
193.4064789891367
 20
223.3931534836148
 30
0.0
 40
26.56881384579015
100
AcDbArc
 50
57.56291680865652
 51
95.81463660919066
  0
ARC
  5
3A5
330
1A
100
AcDbEntity
  8
SEIHIN
  6
CONTINUOUS
 62
     3
100
AcDbCircle
 10
191.145116009324
 20
245.7802466157937
 30
0.0
 40
4.09087151157957
100
AcDbArc
 50
88.82940249913993
 51
165.9149855498629
  0
ARC
  5
3A6
330
1A
100
AcDbEntity
  8
SEIHIN
  6
CONTINUOUS
 62
     3
100
AcDbCircle
 10
194.7237235303811
 20
217.0471719162382
 30
0.0
 40
25.80448916846834
100
AcDbArc
 50
69.36246403428881
 51
88.32543299772252
  0
ARC
  5
3A7
330
1A
100
AcDbEntity
  8
SEIHIN
  6
CONTINUOUS
 62
     3
100
AcDbCircle
 10
192.9796448507797
 20
218.3912231728935
 30
0.0
 40
26.07671218758521
100
AcDbArc
 50
62.37522752570541
 51
105.9567207758981
  0
ARC
  5
3A8
330
1A
100
AcDbEntity
  8
SEIHIN
  6
CONTINUOUS
 62
     3
100
AcDbCircle
 10
192.9796448507797
 20
218.3912231728935
 30
0.0
 40
24.57671218758521
100
AcDbArc
 50
84.16597415080195
 51
105.9567207758981
  0
ARC
  5
3A9
330
1A
100
AcDbEntity
  8
SEIHIN
  6
CONTINUOUS
 62
     3
100
AcDbCircle
 10
196.0544095866886
 20
200.9876093250376
 30
0.0
 40
42.15237565935466
100
AcDbArc
 50
102.9488585428569
 51
105.416989980927
  0
ARC
  5
3AA
330
1A
100
AcDbEntity
  8
SEIHIN
  6
CONTINUOUS
 62
     3
100
AcDbCircle
 10
186.8493945579198
 20
237.1192155362299
 30
0.0
 40
6.428417722943194
100
AcDbArc
 50
99.29704123269587
 51
113.9527746155181
  0
ARC
  5
3AB
330
1A
100
AcDbEntity
  8
SEIHIN
  6
CONTINUOUS
 62
     3
100
AcDbCircle
 10
200.2859945563788
 20
223.152300429856
 30
0.0
 40
17.54845784801364
100
AcDbArc
 50
56.89811487452458
 51
81.66060753244783
  0
ARC
  5
3AC
330
1A
100
AcDbEntity
  8
SEIHIN
  6
CONTINUOUS
 62
     3
100
AcDbCircle
 10
220.7923159319449
 20
254.6066716746616
 30
0.0
 40
20.0
100
AcDbArc
 50
236.8981148745245
 51
241.3790637295891
  0
ARC
  5
3AD
330
1A
100
AcDbEntity
  8
SEIHIN
  6
CONTINUOUS
 62
     3
100
AcDbCircle
 10
201.6916843521363
 20
243.2252771207028
 30
0.0
 40
2.939879574914145
100
AcDbArc
 50
292.8048169486942
 51
316.3428708687737
  0
ARC
  5
3AE
330
1A
100
AcDbEntity
  8
SEIHIN
  6
CONTINUOUS
 62
     3
100
AcDbCircle
 10
181.280832455305
 20
194.6944496280663
 30
0.0
 40
57.60918425668521
100
AcDbArc
 50
63.75751667553261
 51
64.2370368817579
  0
ARC
  5
3AF
330
1A
100
AcDbEntity
  8
SEIHIN
  6
CONTINUOUS
 62
     3
100
AcDbCircle
 10
204.9513258440799
 20
234.5070179971637
 30
0.0
 40
6.446857932954013
100
AcDbArc
 50
79.49717958146867
 51
99.15709937918073
  0
LINE
  5
3B0
330
1A
100
AcDbEntity
  8
SEIHIN
  6
CONTINUOUS
 62
     3
100
AcDbLine
 10
205.0708726418215
 20
241.4952732295245
 30
0.0
 11
203.9253598649901
 21
240.8717152419233
 31
0.0
  0
ARC
  5
3B1
330
1A
100
AcDbEntity
  8
SEIHIN
  6
CONTINUOUS
 62
     3
100
AcDbCircle
 10
201.1685090494304
 20
269.2114163341938
 30
0.0
 40
2.0
100
AcDbArc
 50
98.57312118805921
 51
135.5109584061317
  0
ARC
  5
3B2
330
1A
100
AcDbEntity
  8
SEIHIN
  6
CONTINUOUS
 62
     3
100
AcDbCircle
 10
202.2873386672338
 20
263.1930914658562
 30
0.0
 40
9.197999697705341
100
AcDbArc
 50
69.76611126786131
 51
105.0161312249292
  0
ARC
  5
3B3
330
1A
100
AcDbEntity
  8
SEIHIN
  6
CONTINUOUS
 62
     3
100
AcDbCircle
 10
204.5453619209957
 20
256.1884549639317
 30
0.0
 40
11.51966390903085
100
AcDbArc
 50
102.5510024136183
 51
118.360856721996
  0
ARC
  5
3B4
330
1A
100
AcDbEntity
  8
SEIHIN
  6
CONTINUOUS
 62
     3
100
AcDbCircle
 10
202.6771244313479
 20
264.5931456260619
 30
0.0
 40
4.409837837826988
100
AcDbArc
 50
62.68227846215812
 51
142.5307534855643
  0
ARC
  5
3B5
330
1A
100
AcDbEntity
  8
SEIHIN
  6
CONTINUOUS
 62
     3
100
AcDbCircle
 10
190.6558947453139
 20
250.3218550738451
 30
0.0
 40
1.0
100
AcDbArc
 50
95.83214870608705
 51
108.117416764024
  0
ARC
  5
3B6
330
1A
100
AcDbEntity
  8
SEIHIN
  6
CONTINUOUS
 62
     3
100
AcDbCircle
 10
192.0074953222695
 20
246.1908806887582
 30
0.0
 40
5.346466782326814
100
AcDbArc
 50
79.98633389886961
 51
80.10748314968742
  0
ARC
  5
3B7
330
1A
100
AcDbEntity
  8
SEIHIN
  6
CONTINUOUS
 62
     3
100
AcDbCircle
 10
202.1771338593361
 20
269.2767481443458
 30
0.0
 40
4.283014693915233
100
AcDbArc
 50
173.2371664381364
 51
223.5565277121557
  0
ARC
  5
3B8
330
1A
100
AcDbEntity
  8
SEIHIN
  6
CONTINUOUS
 62
     3
100
AcDbCircle
 10
201.1224640968214
 20
269.0242304940549
 30
0.0
 40
3.286876826768336
100
AcDbArc
 50
111.7550218198554
 51
166.6867521764126
  0
ARC
  5
3B9
330
1A
100
AcDbEntity
  8
SEIHIN
  6
CONTINUOUS
 62
     3
100
AcDbCircle
 10
201.8525220156557
 20
268.5394957769563
 30
0.0
 40
2.958827916365943
100
AcDbArc
 50
135.5109584061318
 51
205.2830980634013
  0
ARC
  5
3BA
330
1A
100
AcDbEntity
  8
SEIHIN
  6
CONTINUOUS
 62
     3
100
AcDbCircle
 10
232.4992246108555
 20
266.6868422872815
 30
0.0
 40
19.48697497059862
100
AcDbArc
 50
164.7593788897506
 51
214.3485555938917
  0
ARC
  5
3BB
330
1A
100
AcDbEntity
  8
SEIHIN
  6
CONTINUOUS
 62
     3
100
AcDbCircle
 10
203.1614181738974
 20
263.2520847998741
 30
0.0
 40
8.261031453899787
100
AcDbArc
 50
68.58911439496856
 51
106.1010612141368
  0
ARC
  5
3BC
330
1A
100
AcDbEntity
  8
SEIHIN
  6
CONTINUOUS
 62
     3
100
AcDbCircle
 10
202.6771244313479
 20
264.5931456260619
 30
0.0
 40
2.909837837826988
100
AcDbArc
 50
62.68227846215812
 51
102.6065159737511
  0
ARC
  5
3BD
330
1A
100
AcDbEntity
  8
SEIHIN
  6
CONTINUOUS
 62
     3
100
AcDbCircle
 10
203.324133388561
 20
265.8457517645806
 30
0.0
 40
1.5
100
AcDbArc
 50
7.687004764102183
 51
62.6822784621582
  0
ARC
  5
3BE
330
1A
100
AcDbEntity
  8
SEIHIN
  6
CONTINUOUS
 62
     3
100
AcDbCircle
 10
203.324133388561
 20
265.8457517645806
 30
0.0
 40
3.0
100
AcDbArc
 50
7.687004764102183
 51
62.6822784621582
  0
ARC
  5
3BF
330
1A
100
AcDbEntity
  8
SEIHIN
  6
CONTINUOUS
 62
     3
100
AcDbCircle
 10
234.9999381482908
 20
273.2558719036432
 30
0.0
 40
26.27072117703775
100
AcDbArc
 50
270.4369216143679
 51
305.9512889446117
  0
ARC
  5
3C0
330
1A
100
AcDbEntity
  8
SEIHIN
  6
CONTINUOUS
 62
     3
100
AcDbCircle
 10
220.3038738094552
 20
282.1494290397886
 30
0.0
 40
51.05107246141756
100
AcDbArc
 50
296.3523728569327
 51
330.0013740204626
  0
ARC
  5
3C1
330
1A
100
AcDbEntity
  8
SEIHIN
  6
CONTINUOUS
 62
     3
100
AcDbCircle
 10
220.2734338212619
 20
282.2609592780894
 30
0.0
 40
49.67126668696083
100
AcDbArc
 50
296.1660799952409
 51
329.5287550879257
  0
ARC
  5
3C2
330
1A
100
AcDbEntity
  8
SEIHIN
  6
CONTINUOUS
 62
     3
100
AcDbCircle
 10
234.9999381482908
 20
273.2558719036432
 30
0.0
 40
27.77072117703775
100
AcDbArc
 50
270.4369216143679
 51
341.4656562748561
  0
ARC
  5
3C3
330
1A
100
AcDbEntity
  8
SEIHIN
  6
CONTINUOUS
 62
     3
100
AcDbCircle
 10
227.9246841886309
 20
252.9142585700676
 30
0.0
 40
3.984015900558418
100
AcDbArc
 50
172.3569605308889
 51
234.9214693974697
  0
ARC
  5
3C4
330
1A
100
AcDbEntity
  8
SEIHIN
  6
CONTINUOUS
 62
     3
100
AcDbCircle
 10
226.2161529345133
 20
251.1062595172078
 30
0.0
 40
3.003627996263733
100
AcDbArc
 50
158.952631587594
 51
237.0134913036325
  0
ARC
  5
3C5
330
1A
100
AcDbEntity
  8
SEIHIN
  6
CONTINUOUS
 62
     3
100
AcDbCircle
 10
222.6488973314461
 20
249.5169915841872
 30
0.0
 40
0.9243354649609308
100
AcDbArc
 50
96.95546700228437
 51
254.7030031138911
  0
ARC
  5
3C6
330
1A
100
AcDbEntity
  8
SEIHIN
  6
CONTINUOUS
 62
     3
100
AcDbCircle
 10
235.3047727499153
 20
269.0270770383033
 30
0.0
 40
22.04130281501082
100
AcDbArc
 50
249.1261356971655
 51
269.7734942996689
  0
ARC
  5
3C7
330
1A
100
AcDbEntity
  8
SEIHIN
  6
CONTINUOUS
 62
     3
100
AcDbCircle
 10
235.3047727499153
 20
269.0270770383033
 30
0.0
 40
23.54130281501082
100
AcDbArc
 50
249.1261356971655
 51
269.7734942996689
  0
ARC
  5
3C8
330
1A
100
AcDbEntity
  8
SEIHIN
  6
CONTINUOUS
 62
     3
100
AcDbCircle
 10
235.8149184265736
 20
296.6738259342637
 30
0.0
 40
54.7688173496865
100
AcDbArc
 50
259.0261015140856
 51
276.6709081526427
  0
ARC
  5
3C9
330
1A
100
AcDbEntity
  8
SEIHIN
  6
CONTINUOUS
 62
     3
100
AcDbCircle
 10
229.7567168471546
 20
253.8257057114299
 30
0.0
 40
7.364474816222676
100
AcDbArc
 50
225.3467052263795
 51
247.3169224810264
  0
ARC
  5
3CA
330
1A
100
AcDbEntity
  8
SEIHIN
  6
CONTINUOUS
 62
     3
100
AcDbCircle
 10
222.2225808360893
 20
250.2795344997397
 30
0.0
 40
1.664162653833782
100
AcDbArc
 50
225.2986008232176
 51
276.2944671096402
  0
ARC
  5
3CB
330
1A
100
AcDbEntity
  8
SEIHIN
  6
CONTINUOUS
 62
     3
100
AcDbCircle
 10
229.7567168471546
 20
253.8257057114299
 30
0.0
 40
5.864474816222676
100
AcDbArc
 50
225.3467052263795
 51
247.3169224810264
  0
ARC
  5
3CC
330
1A
100
AcDbEntity
  8
SEIHIN
  6
CONTINUOUS
 62
     3
100
AcDbCircle
 10
234.3044631944906
 20
270.713147304581
 30
0.0
 40
3.09769252914221
100
AcDbArc
 50
189.9345682780903
 51
312.5075771115891
  0
ARC
  5
3CD
330
1A
100
AcDbEntity
  8
SEIHIN
  6
CONTINUOUS
 62
     3
100
AcDbCircle
 10
234.2539344209478
 20
271.045234714949
 30
0.0
 40
1.881826797283311
100
AcDbArc
 50
203.7089630738541
 51
333.6527338101336
  0
ARC
  5
3CE
330
1A
100
AcDbEntity
  8
SEIHIN
  6
CONTINUOUS
 62
     3
100
AcDbCircle
 10
223.0078593914571
 20
251.1882998266619
 30
0.0
 40
2.454835270290198
100
AcDbArc
 50
66.77102935122061
 51
189.3415623592551
  0
ARC
  5
3CF
330
1A
100
AcDbEntity
  8
SEIHIN
  6
CONTINUOUS
 62
     3
100
AcDbCircle
 10
222.6488973314461
 20
249.5169915841872
 30
0.0
 40
2.42433546496093
100
AcDbArc
 50
148.3299757578322
 51
156.0823316515443
  0
ARC
  5
3D0
330
1A
100
AcDbEntity
  8
SEIHIN
  6
CONTINUOUS
 62
     3
100
AcDbCircle
 10
223.0142849066843
 20
251.2900636498645
 30
0.0
 40
0.9796857482799364
100
AcDbArc
 50
65.98998145849257
 51
240.8419681966681
  0
ARC
  5
3D1
330
1A
100
AcDbEntity
  8
SEIHIN
  6
CONTINUOUS
 62
     3
100
AcDbCircle
 10
236.9730529930985
 20
271.6532878171023
 30
0.0
 40
3.274691572597508
100
AcDbArc
 50
259.8778712424787
 51
12.37033336453235
  0
ARC
  5
3D2
330
1A
100
AcDbEntity
  8
SEIHIN
  6
CONTINUOUS
 62
     3
100
AcDbCircle
 10
236.9730529930985
 20
271.6532878171023
 30
0.0
 40
1.774691572597508
100
AcDbArc
 50
234.4124643613665
 51
32.29785091097895
  0
ARC
  5
3D3
330
1A
100
AcDbEntity
  8
SEIHIN
  6
CONTINUOUS
 62
     3
100
AcDbCircle
 10
276.5588333602238
 20
253.4138212546738
 30
0.0
 40
12.46238586050154
100
AcDbArc
 50
78.60154252480298
 51
164.8095228386283
  0
ARC
  5
3D4
330
1A
100
AcDbEntity
  8
SEIHIN
  6
CONTINUOUS
 62
     3
100
AcDbCircle
 10
276.5588333602238
 20
253.4138212546738
 30
0.0
 40
13.96238586050154
100
AcDbArc
 50
78.60154252480298
 51
164.8095228386283
  0
ARC
  5
3D5
330
1A
100
AcDbEntity
  8
SEIHIN
  6
CONTINUOUS
 62
     3
100
AcDbCircle
 10
271.3375419198198
 20
253.2668592493487
 30
0.0
 40
18.00561855413942
100
AcDbArc
 50
81.09897449830304
 51
122.1755129558655
  0
ARC
  5
3D6
330
1A
100
AcDbEntity
  8
SEIHIN
  6
CONTINUOUS
 62
     3
100
AcDbCircle
 10
271.3375419198198
 20
253.2668592493487
 30
0.0
 40
16.50561855413942
100
AcDbArc
 50
78.65696796865498
 51
122.1755129558655
  0
ARC
  5
3D7
330
1A
100
AcDbEntity
  8
SEIHIN
  6
CONTINUOUS
 62
     3
100
AcDbCircle
 10
237.0995883770747
 20
273.1078095213802
 30
0.0
 40
24.97030051810556
100
AcDbArc
 50
302.2481085084681
 51
337.3173774234653
  0
ARC
  5
3D8
330
1A
100
AcDbEntity
  8
SEIHIN
  6
CONTINUOUS
 62
     3
100
AcDbCircle
 10
259.3548692446915
 20
266.8069361350359
 30
0.0
 40
3.419349715078888
100
AcDbArc
 50
162.426350867665
 51
283.2496162169277
  0
ARC
  5
3D9
330
1A
100
AcDbEntity
  8
SEIHIN
  6
CONTINUOUS
 62
     3
100
AcDbCircle
 10
258.4956352805493
 20
269.4068046950352
 30
0.0
 40
2.866965165874425
100
AcDbArc
 50
100.5415017708791
 51
213.1430459953548
  0
ARC
  5
3DA
330
1A
100
AcDbEntity
  8
SEIHIN
  6
CONTINUOUS
 62
     3
100
AcDbCircle
 10
258.4956352805493
 20
269.4068046950352
 30
0.0
 40
1.366965165874425
100
AcDbArc
 50
71.53889890483369
 51
240.5008746092852
  0
ARC
  5
3DB
330
1A
100
AcDbEntity
  8
SEIHIN
  6
CONTINUOUS
 62
     3
100
AcDbCircle
 10
260.2203290334912
 20
266.9188467599643
 30
0.0
 40
2.72667921338318
100
AcDbArc
 50
151.5682935784899
 51
294.0210245145768
  0
ARC
  5
3DC
330
1A
100
AcDbEntity
  8
SEIHIN
  6
CONTINUOUS
 62
     3
100
AcDbCircle
 10
261.7513235743952
 20
269.0471197471193
 30
0.0
 40
0.9836775514268653
100
AcDbArc
 50
65.65596932976433
 51
202.3874054534156
  0
ARC
  5
3DD
330
1A
100
AcDbEntity
  8
SEIHIN
  6
CONTINUOUS
 62
     3
100
AcDbCircle
 10
261.3802290135779
 20
269.0557139773593
 30
0.0
 40
0.6609064568191117
100
AcDbArc
 50
215.4419163478175
 51
302.7132833215263
  0
ARC
  5
3DE
330
1A
100
AcDbEntity
  8
SEIHIN
  6
CONTINUOUS
 62
     3
100
AcDbCircle
 10
261.3802290135779
 20
269.0557139773593
 30
0.0
 40
2.160906456819111
100
AcDbArc
 50
215.4419163478175
 51
302.7132833215263
  0
ARC
  5
3DF
330
1A
100
AcDbEntity
  8
SEIHIN
  6
CONTINUOUS
 62
     3
100
AcDbCircle
 10
261.3793704597199
 20
268.4933132106702
 30
0.0
 40
1.890329206279825
100
AcDbArc
 50
71.79572295986284
 51
201.4300408417239
  0
ARC
  5
3E0
330
1A
100
AcDbEntity
  8
SEIHIN
  6
CONTINUOUS
 62
     3
100
AcDbCircle
 10
260.4453064380844
 20
270.4675774131889
 30
0.0
 40
1.535033234387413
100
AcDbArc
 50
353.3204852665877
 51
171.1619062732719
  0
ARC
  5
3E1
330
1A
100
AcDbEntity
  8
SEIHIN
  6
CONTINUOUS
 62
     3
100
AcDbCircle
 10
281.1259265591382
 20
263.3609067672822
 30
0.0
 40
3.244110848543575
100
AcDbArc
 50
154.899785802886
 51
221.9536533236104
  0
ARC
  5
3E2
330
1A
100
AcDbEntity
  8
SEIHIN
  6
CONTINUOUS
 62
     3
100
AcDbCircle
 10
279.0937333520037
 20
264.3128648910603
 30
0.0
 40
1.0
100
AcDbArc
 50
99.81964280218598
 51
154.8997858028944
  0
ARC
  5
3E3
330
1A
100
AcDbEntity
  8
SEIHIN
  6
CONTINUOUS
 62
     3
100
AcDbCircle
 10
279.7725640907042
 20
260.390871113223
 30
0.0
 40
4.980307320446398
100
AcDbArc
 50
78.96293316280321
 51
99.81964280218678
  0
ARC
  5
3E4
330
1A
100
AcDbEntity
  8
SEIHIN
  6
CONTINUOUS
 62
     3
100
AcDbCircle
 10
277.938687868813
 20
255.5877728381955
 30
0.0
 40
10.09696478207101
100
AcDbArc
 50
73.87082895497996
 51
83.81427544956954
  0
ARC
  5
3E5
330
1A
100
AcDbEntity
  8
SEIHIN
  6
CONTINUOUS
 62
     3
100
AcDbCircle
 10
278.2390212287476
 20
262.8704067596796
 30
0.0
 40
2.865901229834459
100
AcDbArc
 50
74.04820626089487
 51
75.64310601465343
  0
ARC
  5
3E6
330
1A
100
AcDbEntity
  8
SEIHIN
  6
CONTINUOUS
 62
     3
100
AcDbCircle
 10
277.681523054516
 20
266.5280442395606
 30
0.0
 40
5.758343051871242
100
AcDbArc
 50
42.35198085763815
 51
128.162011221567
  0
ARC
  5
3E7
330
1A
100
AcDbEntity
  8
SEIHIN
  6
CONTINUOUS
 62
     3
100
AcDbCircle
 10
281.1259265591382
 20
263.3609067672822
 30
0.0
 40
1.744110848543575
100
AcDbArc
 50
52.85652264055409
 51
221.9536533236104
  0
ARC
  5
3E8
330
1A
100
AcDbEntity
  8
SEIHIN
  6
CONTINUOUS
 62
     3
100
AcDbCircle
 10
277.681523054516
 20
266.5280442395606
 30
0.0
 40
4.258343051871242
100
AcDbArc
 50
33.80983487344924
 51
136.6707253610731
  0
ARC
  5
3E9
330
1A
100
AcDbEntity
  8
SEIHIN
  6
CONTINUOUS
 62
     3
100
AcDbCircle
 10
363.2546621685817
 20
273.1077145489757
 30
0.0
 40
24.97030051810556
100
AcDbArc
 50
202.6825363094062
 51
237.7518052244038
  0
ARC
  5
3EA
330
1A
100
AcDbEntity
  8
SEIHIN
  6
CONTINUOUS
 62
     3
100
AcDbCircle
 10
380.0503903496553
 20
282.1493087789832
 30
0.0
 40
51.05107246141756
100
AcDbArc
 50
209.9985397124094
 51
243.6475408759392
  0
ARC
  5
3EB
330
1A
100
AcDbEntity
  8
SEIHIN
  6
CONTINUOUS
 62
     3
100
AcDbCircle
 10
380.0808305057735
 20
282.260838971452
 30
0.0
 40
49.67126668696083
100
AcDbArc
 50
210.4711586449462
 51
243.8338337376311
  0
ARC
  5
3EC
330
1A
100
AcDbEntity
  8
SEIHIN
  6
CONTINUOUS
 62
     3
100
AcDbCircle
 10
365.3543126202928
 20
273.2557737699098
 30
0.0
 40
27.77072117703775
100
AcDbArc
 50
198.5342574580158
 51
269.562992118504
  0
LINE
  5
3ED
330
1A
100
AcDbEntity
  8
SEIHIN
  6
CONTINUOUS
 62
     3
 48
16.0
100
AcDbLine
 10
384.1771614673731
 20
200.2756065729137
 30
0.0
 11
300.177061467373
 21
200.2758065729136
 31
0.0
  0
ARC
  5
3EE
330
1A
100
AcDbEntity
  8
SEIHIN
  6
CONTINUOUS
 62
     3
100
AcDbCircle
 10
318.7246375763133
 20
264.0196893359596
 30
0.0
 40
6.395021382643788
100
AcDbArc
 50
92.75560501733931
 51
161.6208222778288
  0
ARC
  5
3EF
330
1A
100
AcDbEntity
  8
SEIHIN
  6
CONTINUOUS
 62
     3
100
AcDbCircle
 10
318.7246375763133
 20
264.0196893359596
 30
0.0
 40
4.895021382643788
100
AcDbArc
 50
85.19684642228062
 51
161.6208222778288
  0
ARC
  5
3F0
330
1A
100
AcDbEntity
  8
SEIHIN
  6
CONTINUOUS
 62
     3
100
AcDbCircle
 10
317.6892497438196
 20
264.6194565113751
 30
0.0
 40
5.231241264852338
100
AcDbArc
 50
165.3504554105201
 51
319.473295054389
  0
ARC
  5
3F1
330
1A
100
AcDbEntity
  8
SEIHIN
  6
CONTINUOUS
 62
     3
100
AcDbCircle
 10
317.6892497438196
 20
264.6194565113751
 30
0.0
 40
3.731241264852338
100
AcDbArc
 50
165.3504554105201
 51
319.473295054389
  0
ARC
  5
3F2
330
1A
100
AcDbEntity
  8
SEIHIN
  6
CONTINUOUS
 62
     3
100
AcDbCircle
 10
323.7953875333142
 20
253.4137856939231
 30
0.0
 40
12.46238586050154
100
AcDbArc
 50
15.19039089424365
 51
101.398371208069
  0
ARC
  5
3F3
330
1A
100
AcDbEntity
  8
SEIHIN
  6
CONTINUOUS
 62
     3
100
AcDbCircle
 10
323.7953875333142
 20
253.4137856939231
 30
0.0
 40
13.96238586050154
100
AcDbArc
 50
15.19039089424365
 51
101.398371208069
  0
ARC
  5
3F4
330
1A
100
AcDbEntity
  8
SEIHIN
  6
CONTINUOUS
 62
     3
100
AcDbCircle
 10
329.0166787524396
 20
253.2668158271847
 30
0.0
 40
18.00561855413942
100
AcDbArc
 50
57.82440077700653
 51
98.90093923456902
  0
ARC
  5
3F5
330
1A
100
AcDbEntity
  8
SEIHIN
  6
CONTINUOUS
 62
     3
100
AcDbCircle
 10
329.0166787524396
 20
253.2668158271847
 30
0.0
 40
16.50561855413942
100
AcDbArc
 50
57.82440077700653
 51
101.342945764217
  0
ARC
  5
3F6
330
1A
100
AcDbEntity
  8
SEIHIN
  6
CONTINUOUS
 62
     3
100
AcDbCircle
 10
319.2283093111886
 20
263.3608780829432
 30
0.0
 40
3.244110848543575
100
AcDbArc
 50
318.0462604092616
 51
25.10012792998251
  0
ARC
  5
3F7
330
1A
100
AcDbEntity
  8
SEIHIN
  6
CONTINUOUS
 62
     3
100
AcDbCircle
 10
322.672717584393
 20
266.5280103691678
 30
0.0
 40
4.258343051871242
100
AcDbArc
 50
43.32918837179892
 51
146.1900788594228
  0
ARC
  5
3F8
330
1A
100
AcDbEntity
  8
SEIHIN
  6
CONTINUOUS
 62
     3
100
AcDbCircle
 10
322.672717584393
 20
266.5280103691678
 30
0.0
 40
5.758343051871242
100
AcDbArc
 50
51.83790251130503
 51
137.6479328752338
  0
ARC
  5
3F9
330
1A
100
AcDbEntity
  8
SEIHIN
  6
CONTINUOUS
 62
     3
100
AcDbCircle
 10
321.2605039516323
 20
264.3128331469578
 30
0.0
 40
1.0
100
AcDbArc
 50
25.10012792997408
 51
80.18027093068608
  0
ARC
  5
3FA
330
1A
100
AcDbEntity
  8
SEIHIN
  6
CONTINUOUS
 62
     3
100
AcDbCircle
 10
322.115213903057
 20
262.8703737286853
 30
0.0
 40
2.865901229834459
100
AcDbArc
 50
104.3568077182186
 51
105.9517074719771
  0
ARC
  5
3FB
330
1A
100
AcDbEntity
  8
SEIHIN
  6
CONTINUOUS
 62
     3
100
AcDbCircle
 10
320.5816673078006
 20
260.3908403912033
 30
0.0
 40
4.980307320446398
100
AcDbArc
 50
80.18027093068527
 51
101.0369805700688
  0
ARC
  5
3FC
330
1A
100
AcDbEntity
  8
SEIHIN
  6
CONTINUOUS
 62
     3
100
AcDbCircle
 10
322.4155362979268
 20
255.587739355014
 30
0.0
 40
10.09696478207101
100
AcDbArc
 50
96.18563828330252
 51
106.129084777892
  0
ARC
  5
3FD
330
1A
100
AcDbEntity
  8
SEIHIN
  6
CONTINUOUS
 62
     3
100
AcDbCircle
 10
319.2283093111886
 20
263.3608780829432
 30
0.0
 40
1.744110848543575
100
AcDbArc
 50
318.0462604092616
 51
127.1433910923179
  0
ARC
  5
3FE
330
1A
100
AcDbEntity
  8
SEIHIN
  6
CONTINUOUS
 62
     3
100
AcDbCircle
 10
322.115213903057
 20
262.8703737286853
 30
0.0
 40
4.365901229834459
100
AcDbArc
 50
104.3112686900525
 51
154.4823608741442
  0
ARC
  5
3FF
330
1A
100
AcDbEntity
  8
SEIHIN
  6
CONTINUOUS
 62
     3
100
AcDbCircle
 10
338.6029208573303
 20
269.0470618914916
 30
0.0
 40
0.9836775514268653
100
AcDbArc
 50
337.6125082794566
 51
114.3439444031077
  0
ARC
  5
400
330
1A
100
AcDbEntity
  8
SEIHIN
  6
CONTINUOUS
 62
     3
100
AcDbCircle
 10
338.974015431087
 20
269.0556555629948
 30
0.0
 40
2.160906456819111
100
AcDbArc
 50
237.2866304113457
 51
324.5579973850544
  0
ARC
  5
401
330
1A
100
AcDbEntity
  8
SEIHIN
  6
CONTINUOUS
 62
     3
100
AcDbCircle
 10
338.9748731381688
 20
268.4932547950136
 30
0.0
 40
1.890329206279825
100
AcDbArc
 50
338.5698728911482
 51
108.2041907730092
  0
ARC
  5
402
330
1A
100
AcDbEntity
  8
SEIHIN
  6
CONTINUOUS
 62
     3
100
AcDbCircle
 10
339.9089401323452
 20
270.4675175911609
 30
0.0
 40
1.535033234387413
100
AcDbArc
 50
8.838007459600152
 51
186.6794284662843
  0
ARC
  5
403
330
1A
100
AcDbEntity
  8
SEIHIN
  6
CONTINUOUS
 62
     3
100
AcDbCircle
 10
340.1339121938081
 20
266.9187865992042
 30
0.0
 40
2.72667921338318
100
AcDbArc
 50
245.9788892182952
 51
28.4316201543821
  0
ARC
  5
404
330
1A
100
AcDbEntity
  8
SEIHIN
  6
CONTINUOUS
 62
     3
100
AcDbCircle
 10
338.974015431087
 20
269.0556555629948
 30
0.0
 40
0.6609064568191117
100
AcDbArc
 50
237.2866304113457
 51
324.5579973850544
  0
ARC
  5
405
330
1A
100
AcDbEntity
  8
SEIHIN
  6
CONTINUOUS
 62
     3
100
AcDbCircle
 10
341.8586096927304
 20
269.4067419374949
 30
0.0
 40
1.366965165874425
100
AcDbArc
 50
299.4990391235867
 51
108.4610148280383
  0
ARC
  5
406
330
1A
100
AcDbEntity
  8
SEIHIN
  6
CONTINUOUS
 62
     3
100
AcDbCircle
 10
340.999371814109
 20
266.8068746712003
 30
0.0
 40
3.419349715078888
100
AcDbArc
 50
256.7502975159444
 51
17.57356286520702
  0
ARC
  5
407
330
1A
100
AcDbEntity
  8
SEIHIN
  6
CONTINUOUS
 62
     3
100
AcDbCircle
 10
341.8586096927304
 20
269.4067419374949
 30
0.0
 40
2.866965165874425
100
AcDbArc
 50
326.8568677375172
 51
79.45841196199296
  0
LINE
  5
408
330
1A
100
AcDbEntity
  8
SEIHIN
  6
CONTINUOUS
 62
     3
 48
16.0
100
AcDbLine
 10
392.7456614673731
 20
197.2757065729136
 30
0.0
 11
406.785961467373
 21
197.2757065729136
 31
0.0
  0
LINE
  5
409
330
1A
100
AcDbEntity
  8
SEIHIN
  6
CONTINUOUS
 62
     3
 48
16.0
100
AcDbLine
 10
406.785961467373
 20
199.2757065729135
 30
0.0
 11
392.7456614673731
 21
199.2757065729135
 31
0.0
  0
LINE
  5
40A
330
1A
100
AcDbEntity
  8
SEIHIN
  6
CONTINUOUS
 62
     3
 48
16.0
100
AcDbLine
 10
406.785961467373
 20
195.2757065729136
 30
0.0
 11
392.7456614673731
 21
195.2757065729136
 31
0.0
  0
LINE
  5
40B
330
1A
100
AcDbEntity
  8
SEIHIN
  6
CONTINUOUS
 62
     3
 48
16.0
100
AcDbLine
 10
392.7456614673731
 20
190.2757065729136
 30
0.0
 11
406.785961467373
 21
190.2757065729136
 31
0.0
  0
ARC
  5
40C
330
1A
100
AcDbEntity
  8
SEIHIN
  6
CONTINUOUS
 62
     3
 48
16.0
100
AcDbCircle
 10
392.7456873047587
 20
197.2756860189246
 30
0.0
 40
6.999979446058718
100
AcDbArc
 50
192.9943439590537
 51
269.9997885175008
  0
LINE
  5
40D
330
1A
100
AcDbEntity
  8
SEIHIN
  6
CONTINUOUS
 62
     3
 48
16.0
100
AcDbLine
 10
384.1771614673731
 20
200.2756065729137
 30
0.0
 11
385.9249614673731
 21
195.7017065729136
 31
0.0
  0
ARC
  5
40E
330
1A
100
AcDbEntity
  8
SEIHIN
  6
CONTINUOUS
 62
     3
 48
16.0
100
AcDbCircle
 10
392.7456614673731
 20
197.2757065729136
 30
0.0
 40
1.999999999999957
100
AcDbArc
 50
90.0
 51
270.0
  0
ARC
  5
40F
330
1A
100
AcDbEntity
  8
SEIHIN
  6
CONTINUOUS
 62
     3
 48
16.0
100
AcDbCircle
 10
406.785961467373
 20
197.2757065729136
 30
0.0
 40
1.999999999999957
100
AcDbArc
 50
270.0
 51
90.0
  0
ARC
  5
410
330
1A
100
AcDbEntity
  8
SEIHIN
  6
CONTINUOUS
 62
     3
100
AcDbCircle
 10
371.2250013254724
 20
285.1085651474028
 30
0.0
 40
44.77614725819122
100
AcDbArc
 50
253.0578818060485
 51
301.4715824805302
  0
ARC
  5
411
330
1A
100
AcDbEntity
  8
SEIHIN
  6
CONTINUOUS
 62
     3
100
AcDbCircle
 10
371.2242328675471
 20
278.6939655439327
 30
0.0
 40
37.76841348096635
100
AcDbArc
 50
261.5165413900929
 51
303.1774262086761
  0
ARC
  5
412
330
1A
100
AcDbEntity
  8
SEIHIN
  6
CONTINUOUS
 62
     3
100
AcDbCircle
 10
372.2071033159181
 20
284.7592014002419
 30
0.0
 40
49.12536019549475
100
AcDbArc
 50
253.4054009540159
 51
296.6316848822206
  0
ARC
  5
413
330
1A
100
AcDbEntity
  8
SEIHIN
  6
CONTINUOUS
 62
     3
100
AcDbCircle
 10
372.2071033159181
 20
284.7592014002419
 30
0.0
 40
50.62536019549475
100
AcDbArc
 50
253.4054009540159
 51
289.543153232435
  0
ARC
  5
414
330
1A
100
AcDbEntity
  8
SEIHIN
  6
CONTINUOUS
 62
     3
100
AcDbCircle
 10
355.4684087026287
 20
273.5985852114691
 30
0.0
 40
33.63790161960102
100
AcDbArc
 50
316.6312905985576
 51
329.2156159094167
  0
ARC
  5
415
330
1A
100
AcDbEntity
  8
SEIHIN
  6
CONTINUOUS
 62
     3
100
AcDbCircle
 10
367.8550162670958
 20
266.6867403883677
 30
0.0
 40
20.98697497059862
100
AcDbArc
 50
303.0549770220774
 51
15.80435435371955
  0
ARC
  5
416
330
1A
100
AcDbEntity
  8
SEIHIN
  6
CONTINUOUS
 62
     3
100
AcDbCircle
 10
365.5377969427279
 20
270.0963083788369
 30
0.0
 40
28.77788562885198
100
AcDbArc
 50
289.1226311685782
 51
352.3129089687693
  0
ARC
  5
417
330
1A
100
AcDbEntity
  8
SEIHIN
  6
CONTINUOUS
 62
     3
100
AcDbCircle
 10
367.7617500209684
 20
269.2476808379514
 30
0.0
 40
27.98847738476244
100
AcDbArc
 50
265.6779937556333
 51
353.8926012910724
  0
ARC
  5
418
330
1A
100
AcDbEntity
  8
SEIHIN
  6
CONTINUOUS
 62
     3
100
AcDbCircle
 10
365.3543126202928
 20
273.2557737699098
 30
0.0
 40
26.27072117703775
100
AcDbArc
 50
234.0486247882602
 51
269.562992118504
  0
ARC
  5
419
330
1A
100
AcDbEntity
  8
SEIHIN
  6
CONTINUOUS
 62
     3
100
AcDbCircle
 10
374.1380644845978
 20
251.1061481582336
 30
0.0
 40
3.003627996263733
100
AcDbArc
 50
302.9864224292395
 51
21.04728214527792
  0
ARC
  5
41A
330
1A
100
AcDbEntity
  8
SEIHIN
  6
CONTINUOUS
 62
     3
100
AcDbCircle
 10
377.7053176947871
 20
249.5168748541928
 30
0.0
 40
0.9243354649609308
100
AcDbArc
 50
285.2969106189808
 51
83.04444673058769
  0
ARC
  5
41B
330
1A
100
AcDbEntity
  8
SEIHIN
  6
CONTINUOUS
 62
     3
100
AcDbCircle
 10
372.4295359526877
 20
252.9141497835336
 30
0.0
 40
3.984015900558418
100
AcDbArc
 50
305.0784443354022
 51
7.6429532019831
  0
ARC
  5
41C
330
1A
100
AcDbEntity
  8
SEIHIN
  6
CONTINUOUS
 62
     3
100
AcDbCircle
 10
364.5393676011461
 20
296.6737290275751
 30
0.0
 40
54.7688173496865
100
AcDbArc
 50
263.3290055802293
 51
280.9738122187863
  0
ARC
  5
41D
330
1A
100
AcDbEntity
  8
SEIHIN
  6
CONTINUOUS
 62
     3
100
AcDbCircle
 10
365.0494716516029
 20
269.0269793635477
 30
0.0
 40
23.54130281501082
100
AcDbArc
 50
270.226419433203
 51
290.8737780357065
  0
ARC
  5
41E
330
1A
100
AcDbEntity
  8
SEIHIN
  6
CONTINUOUS
 62
     3
100
AcDbCircle
 10
365.0494716516029
 20
269.0269793635477
 30
0.0
 40
22.04130281501082
100
AcDbArc
 50
270.226419433203
 51
290.8737780357065
  0
ARC
  5
41F
330
1A
100
AcDbEntity
  8
SEIHIN
  6
CONTINUOUS
 62
     3
100
AcDbCircle
 10
370.5975046664823
 20
253.8255996832865
 30
0.0
 40
7.364474816222676
100
AcDbArc
 50
292.6829912518456
 51
314.6532085064925
  0
ARC
  5
420
330
1A
100
AcDbEntity
  8
SEIHIN
  6
CONTINUOUS
 62
     3
100
AcDbCircle
 10
378.1316353382626
 20
250.2794171278629
 30
0.0
 40
1.664162653833782
100
AcDbArc
 50
263.7054466232318
 51
314.7013129096543
  0
ARC
  5
421
330
1A
100
AcDbEntity
  8
SEIHIN
  6
CONTINUOUS
 62
     3
100
AcDbCircle
 10
370.5975046664823
 20
253.8255996832865
 30
0.0
 40
5.864474816222676
100
AcDbArc
 50
292.6829912518456
 51
314.6532085064925
  0
ARC
  5
422
330
1A
100
AcDbEntity
  8
SEIHIN
  6
CONTINUOUS
 62
     3
100
AcDbCircle
 10
366.0497837456505
 20
270.7130481237118
 30
0.0
 40
3.09769252914221
100
AcDbArc
 50
227.4923366212829
 51
350.0653454547816
  0
ARC
  5
423
330
1A
100
AcDbEntity
  8
SEIHIN
  6
CONTINUOUS
 62
     3
100
AcDbCircle
 10
363.3811953625639
 20
271.6531926541821
 30
0.0
 40
1.774691572597508
100
AcDbArc
 50
147.702062821893
 51
305.5874493715054
  0
ARC
  5
424
330
1A
100
AcDbEntity
  8
SEIHIN
  6
CONTINUOUS
 62
     3
100
AcDbCircle
 10
363.3811953625639
 20
271.6531926541821
 30
0.0
 40
3.274691572597508
100
AcDbArc
 50
167.6295803683396
 51
280.1220424903933
  0
ARC
  5
425
330
1A
100
AcDbEntity
  8
SEIHIN
  6
CONTINUOUS
 62
     3
100
AcDbCircle
 10
377.7053176947871
 20
249.5168748541928
 30
0.0
 40
2.42433546496093
100
AcDbArc
 50
23.91758208132644
 51
31.66993797503986
  0
ARC
  5
426
330
1A
100
AcDbEntity
  8
SEIHIN
  6
CONTINUOUS
 62
     3
100
AcDbCircle
 10
377.3399327891671
 20
251.2899474700121
 30
0.0
 40
0.9796857482799364
100
AcDbArc
 50
299.1579455362039
 51
114.0099322743794
  0
ARC
  5
427
330
1A
100
AcDbEntity
  8
SEIHIN
  6
CONTINUOUS
 62
     3
100
AcDbCircle
 10
377.346358151174
 20
251.1881836371351
 30
0.0
 40
2.454835270290198
100
AcDbArc
 50
350.6583513736169
 51
113.2288843816514
  0
ARC
  5
428
330
1A
100
AcDbEntity
  8
SEIHIN
  6
CONTINUOUS
 62
     3
100
AcDbCircle
 10
366.1003130191991
 20
271.0451354580011
 30
0.0
 40
1.881826797283311
100
AcDbArc
 50
206.3471799227283
 51
336.2909506590189
  0
ARC
  5
429
330
1A
100
AcDbEntity
  8
SEIHIN
  6
CONTINUOUS
 62
     3
100
AcDbCircle
 10
406.9476967038261
 20
223.3929927249367
 30
0.0
 40
26.56881384579015
100
AcDbArc
 50
84.18527712368138
 51
122.4369969242155
  0
ARC
  5
42A
330
1A
100
AcDbEntity
  8
SEIHIN
  6
CONTINUOUS
 62
     3
100
AcDbCircle
 10
406.9476967038261
 20
223.3929927249367
 30
0.0
 40
28.06881384579015
100
AcDbArc
 50
84.16776502678557
 51
122.4369969242155
  0
ARC
  5
42B
330
1A
100
AcDbEntity
  8
SEIHIN
  6
CONTINUOUS
 62
     3
100
AcDbCircle
 10
398.662521200982
 20
243.2251288365837
 30
0.0
 40
2.939879574914145
100
AcDbArc
 50
223.6570428640983
 51
247.1950967841777
  0
ARC
  5
42C
330
1A
100
AcDbEntity
  8
SEIHIN
  6
CONTINUOUS
 62
     3
100
AcDbCircle
 10
400.0681807739526
 20
223.1521500292893
 30
0.0
 40
17.54845784801364
100
AcDbArc
 50
98.33930620042423
 51
123.1017988583474
  0
ARC
  5
42D
330
1A
100
AcDbEntity
  8
SEIHIN
  6
CONTINUOUS
 62
     3
100
AcDbCircle
 10
405.6304426077852
 20
217.0470131408706
 30
0.0
 40
25.80448916846834
100
AcDbArc
 50
91.67448073514952
 51
110.6374496985832
  0
ARC
  5
42E
330
1A
100
AcDbEntity
  8
SEIHIN
  6
CONTINUOUS
 62
     3
100
AcDbCircle
 10
379.5619067575397
 20
254.6065521493082
 30
0.0
 40
20.0
100
AcDbArc
 50
298.6208500032828
 51
303.1017988583474
  0
LINE
  5
42F
330
1A
100
AcDbEntity
  8
SEIHIN
  6
CONTINUOUS
 62
     3
100
AcDbLine
 10
395.2833303065282
 20
241.4951300332668
 30
0.0
 11
396.4288421445012
 21
240.8715703209302
 31
0.0
  0
ARC
  5
430
330
1A
100
AcDbEntity
  8
SEIHIN
  6
CONTINUOUS
 62
     3
100
AcDbCircle
 10
395.4028665824352
 20
234.5068746209189
 30
0.0
 40
6.446857932954013
100
AcDbArc
 50
80.84281435369133
 51
100.5027341514034
  0
ARC
  5
431
330
1A
100
AcDbEntity
  8
SEIHIN
  6
CONTINUOUS
 62
     3
100
AcDbCircle
 10
419.0733000275721
 20
194.6942706124967
 30
0.0
 40
57.60918425668521
100
AcDbArc
 50
115.7628768511141
 51
116.2423970573394
  0
ARC
  5
432
330
1A
100
AcDbEntity
  8
SEIHIN
  6
CONTINUOUS
 62
     3
100
AcDbCircle
 10
397.1928175324939
 20
263.2519387286303
 30
0.0
 40
8.261031453899787
100
AcDbArc
 50
73.89885251873522
 51
111.4107993379034
  0
ARC
  5
433
330
1A
100
AcDbEntity
  8
SEIHIN
  6
CONTINUOUS
 62
     3
100
AcDbCircle
 10
398.0668969503335
 20
263.1929440785587
 30
0.0
 40
9.197999697705341
100
AcDbArc
 50
74.98378250794286
 51
110.2338024650107
  0
ARC
  5
434
330
1A
100
AcDbEntity
  8
SEIHIN
  6
CONTINUOUS
 62
     3
100
AcDbCircle
 10
397.6771132942049
 20
264.592998825642
 30
0.0
 40
2.909837837826988
100
AcDbArc
 50
77.39339775912087
 51
117.3176352707139
  0
ARC
  5
435
330
1A
100
AcDbEntity
  8
SEIHIN
  6
CONTINUOUS
 62
     3
100
AcDbCircle
 10
397.6771132942049
 20
264.592998825642
 30
0.0
 40
4.409837837826988
100
AcDbArc
 50
37.46916024730772
 51
117.3176352707139
  0
ARC
  5
436
330
1A
100
AcDbEntity
  8
SEIHIN
  6
CONTINUOUS
 62
     3
100
AcDbCircle
 10
367.8550162670958
 20
266.6867403883677
 30
0.0
 40
19.48697497059862
100
AcDbArc
 50
325.6513581389802
 51
15.24053484312143
  0
ARC
  5
437
330
1A
100
AcDbEntity
  8
SEIHIN
  6
CONTINUOUS
 62
     3
100
AcDbCircle
 10
397.0301062229733
 20
265.8456059383254
 30
0.0
 40
1.5
100
AcDbArc
 50
117.3176352707138
 51
172.3129089687698
  0
ARC
  5
438
330
1A
100
AcDbEntity
  8
SEIHIN
  6
CONTINUOUS
 62
     3
100
AcDbCircle
 10
397.0301062229733
 20
265.8456059383254
 30
0.0
 40
3.0
100
AcDbArc
 50
117.3176352707138
 51
172.3129089687698
  0
ARC
  5
439
330
1A
100
AcDbEntity
  8
SEIHIN
  6
CONTINUOUS
 62
     3
100
AcDbCircle
 10
409.698321492722
 20
250.321690173732
 30
0.0
 40
1.0
100
AcDbArc
 50
71.88249696884804
 51
84.16776502678501
  0
ARC
  5
43A
330
1A
100
AcDbEntity
  8
SEIHIN
  6
CONTINUOUS
 62
     3
100
AcDbCircle
 10
408.3467146959853
 20
246.1907178236811
 30
0.0
 40
5.346466782326814
100
AcDbArc
 50
99.89243058318464
 51
100.0135798340024
  0
ARC
  5
43B
330
1A
100
AcDbEntity
  8
SEIHIN
  6
CONTINUOUS
 62
     3
100
AcDbCircle
 10
399.2317803003722
 20
269.0240813528628
 30
0.0
 40
3.286876826768336
100
AcDbArc
 50
13.31316155645936
 51
68.24489191301658
  0
ARC
  5
43C
330
1A
100
AcDbEntity
  8
SEIHIN
  6
CONTINUOUS
 62
     3
100
AcDbCircle
 10
398.1771109180608
 20
269.2766005911121
 30
0.0
 40
4.283014693915233
100
AcDbArc
 50
316.4433860207163
 51
6.762747294735585
  0
ARC
  5
43D
330
1A
100
AcDbEntity
  8
SEIHIN
  6
CONTINUOUS
 62
     3
100
AcDbCircle
 10
398.5017216517002
 20
268.539347734973
 30
0.0
 40
2.958827916365943
100
AcDbArc
 50
334.7168156694748
 51
44.48895532674019
  0
ARC
  5
43E
330
1A
100
AcDbEntity
  8
SEIHIN
  6
CONTINUOUS
 62
     3
100
AcDbCircle
 10
399.1857356295988
 20
269.2112672623288
 30
0.0
 40
2.0
100
AcDbArc
 50
44.48895532674031
 51
81.42679254481285
  0
ARC
  5
43F
330
1A
100
AcDbEntity
  8
SEIHIN
  6
CONTINUOUS
 62
     3
100
AcDbCircle
 10
395.8088631500751
 20
256.1883109764246
 30
0.0
 40
11.51966390903085
100
AcDbArc
 50
61.63905701087605
 51
77.44891131925367
  0
ARC
  5
440
330
1A
100
AcDbEntity
  8
SEIHIN
  6
CONTINUOUS
 62
     3
 48
16.0
100
AcDbCircle
 10
128.0423534593373
 20
294.0047986938683
 30
0.0
 40
20.00003565409188
100
AcDbArc
 50
295.0886258715216
 51
333.9810223179047
  0
ARC
  5
441
330
1A
100
AcDbEntity
  8
SEIHIN
  6
CONTINUOUS
 62
     3
 48
16.0
100
AcDbCircle
 10
219.553500583136
 20
623.952731742921
 30
0.0
 40
320.0000288871858
100
AcDbArc
 50
267.4250420118287
 51
284.5928506023458
  0
ARC
  5
442
330
1A
100
AcDbEntity
  8
SEIHIN
  6
CONTINUOUS
 62
     3
 48
16.0
100
AcDbCircle
 10
218.4950757080434
 20
624.006918598166
 30
0.0
 40
329.9999672792969
100
AcDbArc
 50
267.6870330046996
 51
284.3308596094751
  0
ARC
  5
443
330
1A
100
AcDbEntity
  8
SEIHIN
  6
CONTINUOUS
 62
     3
 48
16.0
100
AcDbCircle
 10
218.918507078825
 20
623.9860429530327
 30
0.0
 40
325.9999776231364
100
AcDbArc
 50
267.5841710810151
 51
284.4337089753162
  0
ARC
  5
444
330
1A
100
AcDbEntity
  8
SEIHIN
  6
CONTINUOUS
 62
     3
100
AcDbCircle
 10
217.8992524550049
 20
280.8017386976704
 30
0.0
 40
3.006717562136421
100
AcDbArc
 50
112.2616557135941
 51
201.9204619269257
  0
ARC
  5
445
330
1A
100
AcDbEntity
  8
SEIHIN
  6
CONTINUOUS
 62
     3
100
AcDbCircle
 10
213.9672414599945
 20
290.168366013602
 30
0.0
 40
7.151917275530299
100
AcDbArc
 50
289.5535966530816
 51
292.9867610418512
  0
ARC
  5
446
330
1A
100
AcDbEntity
  8
SEIHIN
  6
CONTINUOUS
 62
     3
100
AcDbCircle
 10
218.1784165780619
 20
280.2140611222417
 30
0.0
 40
2.193045758610189
100
AcDbArc
 50
119.481604762333
 51
215.4830234038175
  0
ARC
  5
447
330
1A
100
AcDbEntity
  8
SEIHIN
  6
CONTINUOUS
 62
     3
 48
16.0
100
AcDbCircle
 10
187.1770394987527
 20
273.2756925115991
 30
0.0
 40
19.99999863613134
100
AcDbArc
 50
89.6011551907544
 51
155.6423787305147
  0
ARC
  5
448
330
1A
100
AcDbEntity
  8
SEIHIN
  6
CONTINUOUS
 62
     3
 48
16.0
100
AcDbCircle
 10
187.177114673248
 20
273.2756976426734
 30
0.0
 40
9.999999546536995
100
AcDbArc
 50
42.8366827116726
 51
118.1080193037161
  0
ARC
  5
449
330
1A
100
AcDbEntity
  8
SEIHIN
  6
CONTINUOUS
 62
     3
 48
16.0
100
AcDbCircle
 10
187.1771102926475
 20
273.2757226797608
 30
0.0
 40
13.99999421199317
100
AcDbArc
 50
72.54431495158797
 51
143.9701797039493
  0
ARC
  5
44A
330
1A
100
AcDbEntity
  8
SEIHIN
  6
CONTINUOUS
 62
     3
 48
16.0
100
AcDbCircle
 10
205.1771760781263
 20
284.275727198456
 30
0.0
 40
9.999979374468098
100
AcDbArc
 50
90.00008371362188
 51
199.3739799536122
  0
ARC
  5
44B
330
1A
100
AcDbEntity
  8
SEIHIN
  6
CONTINUOUS
 62
     3
 48
16.0
100
AcDbCircle
 10
205.1771781727935
 20
284.2757168617937
 30
0.0
 40
19.99998971112679
100
AcDbArc
 50
90.00004785752892
 51
153.257938166169
  0
ARC
  5
44C
330
1A
100
AcDbEntity
  8
SEIHIN
  6
CONTINUOUS
 62
     3
 48
16.0
100
AcDbCircle
 10
205.1771352604486
 20
284.2756844597341
 30
0.0
 40
14.00002211320394
100
AcDbArc
 50
89.99989274687191
 51
170.3146680620768
  0
ARC
  5
44D
330
1A
100
AcDbEntity
  8
SEIHIN
  6
CONTINUOUS
 62
     3
 48
16.0
100
AcDbCircle
 10
194.8589428260305
 20
280.8904969598327
 30
0.0
 40
0.8871021979264019
100
AcDbArc
 50
202.6336660695462
 51
31.92517022355766
  0
ARC
  5
44E
330
1A
100
AcDbEntity
  8
SEIHIN
  6
CONTINUOUS
 62
     3
100
AcDbCircle
 10
214.3141483530172
 20
268.9396628589662
 30
0.0
 40
10.76905181916566
100
AcDbArc
 50
85.76235030869442
 51
116.9774085175801
  0
ARC
  5
44F
330
1A
100
AcDbEntity
  8
SEIHIN
  6
CONTINUOUS
 62
     3
100
AcDbCircle
 10
217.0175662418488
 20
264.4808000855517
 30
0.0
 40
14.47377899325778
100
AcDbArc
 50
92.47457033441273
 51
118.3639818240578
  0
ARC
  5
450
330
1A
100
AcDbEntity
  8
SEIHIN
  6
CONTINUOUS
 62
     3
100
AcDbCircle
 10
224.775369263489
 20
267.0114886703919
 30
0.0
 40
11.02401847314397
100
AcDbArc
 50
42.80843165317689
 51
94.76439132287593
  0
ARC
  5
451
330
1A
100
AcDbEntity
  8
SEIHIN
  6
CONTINUOUS
 62
     3
100
AcDbCircle
 10
230.5675924811001
 20
286.5576115244952
 30
0.0
 40
3.147681526883429
100
AcDbArc
 50
30.85933145620669
 51
80.53904354602336
  0
ARC
  5
452
330
1A
100
AcDbEntity
  8
SEIHIN
  6
CONTINUOUS
 62
     3
100
AcDbCircle
 10
227.1030005765168
 20
269.6730659768036
 30
0.0
 40
8.950406787924631
100
AcDbArc
 50
43.10145560547301
 51
97.66565244580171
  0
ARC
  5
453
330
1A
100
AcDbEntity
  8
SEIHIN
  6
CONTINUOUS
 62
     3
100
AcDbCircle
 10
229.6854604637667
 20
274.4355856532092
 30
0.0
 40
8.419603948609406
100
AcDbArc
 50
36.3456316560562
 51
81.27310459599693
  0
ARC
  5
454
330
1A
100
AcDbEntity
  8
SEIHIN
  6
CONTINUOUS
 62
     3
100
AcDbCircle
 10
237.1070221355934
 20
195.8630537166327
 30
0.0
 40
90.05008830148794
100
AcDbArc
 50
96.91412441733183
 51
103.0587529324697
  0
ARC
  5
455
330
1A
100
AcDbEntity
  8
SEIHIN
  6
CONTINUOUS
 62
     3
100
AcDbCircle
 10
226.1399230765761
 20
286.2354848811985
 30
0.0
 40
5.946109825307795
100
AcDbArc
 50
324.2053655507997
 51
6.237979966674939
  0
ARC
  5
456
330
1A
100
AcDbEntity
  8
SEIHIN
  6
CONTINUOUS
 62
     3
100
AcDbCircle
 10
225.0469040354232
 20
286.9967677483586
 30
0.0
 40
3.623712929675453
100
AcDbArc
 50
305.053888081377
 51
50.07665148860574
  0
ARC
  5
457
330
1A
100
AcDbEntity
  8
SEIHIN
  6
CONTINUOUS
 62
     3
100
AcDbCircle
 10
223.5739305285804
 20
253.1550165000614
 30
0.0
 40
25.49563379355763
100
AcDbArc
 50
84.74488883553993
 51
95.04957724341462
  0
ARC
  5
458
330
1A
100
AcDbEntity
  8
SEIHIN
  6
CONTINUOUS
 62
     3
100
AcDbCircle
 10
237.1070221355934
 20
195.8630537166327
 30
0.0
 40
88.55008830148793
100
AcDbArc
 50
96.91412441733183
 51
103.0587529324697
  0
ARC
  5
459
330
1A
100
AcDbEntity
  8
SEIHIN
  6
CONTINUOUS
 62
     3
100
AcDbCircle
 10
220.6741857226298
 20
276.74342926754
 30
0.0
 40
3.423474535115888
100
AcDbArc
 50
352.4584893247524
 51
21.48702518940034
  0
ARC
  5
45A
330
1A
100
AcDbEntity
  8
SEIHIN
  6
CONTINUOUS
 62
     3
100
AcDbCircle
 10
220.6741857226298
 20
276.74342926754
 30
0.0
 40
3.423474535115888
100
AcDbArc
 50
352.4584893247764
 51
355.6901908867083
  0
ARC
  5
45B
330
1A
100
AcDbEntity
  8
SEIHIN
  6
CONTINUOUS
 62
     3
100
AcDbCircle
 10
218.8294271585916
 20
273.6537133251616
 30
0.0
 40
2.752190645058697
100
AcDbArc
 50
4.134736414771833
 51
75.06062741048537
  0
ARC
  5
45C
330
1A
100
AcDbEntity
  8
SEIHIN
  6
CONTINUOUS
 62
     3
100
AcDbCircle
 10
221.6649275495736
 20
275.0533024854093
 30
0.0
 40
1.204552795945732
100
AcDbArc
 50
265.6925030916112
 51
50.05670648601704
  0
ARC
  5
45D
330
1A
100
AcDbEntity
  8
SEIHIN
  6
CONTINUOUS
 62
     3
100
AcDbCircle
 10
220.6741857226298
 20
276.74342926754
 30
0.0
 40
1.923474535115888
100
AcDbArc
 50
336.5118140205468
 51
70.06938618277438
  0
ARC
  5
45E
330
1A
100
AcDbEntity
  8
SEIHIN
  6
CONTINUOUS
 62
     3
100
AcDbCircle
 10
226.266651367968
 20
285.2582703936237
 30
0.0
 40
1.5
100
AcDbArc
 50
276.9141244173318
 51
305.0538880813769
  0
ARC
  5
45F
330
1A
100
AcDbEntity
  8
SEIHIN
  6
CONTINUOUS
 62
     3
100
AcDbCircle
 10
224.2292516877241
 20
287.6406620501356
 30
0.0
 40
3.071322985076334
100
AcDbArc
 50
341.8159433797287
 51
46.38163088723694
  0
ARC
  5
460
330
1A
100
AcDbEntity
  8
SEIHIN
  6
CONTINUOUS
 62
     3
100
AcDbCircle
 10
228.6289179397572
 20
287.7060873720959
 30
0.0
 40
3.140027659838379
100
AcDbArc
 50
38.53911634433085
 51
136.5852462241677
  0
ARC
  5
461
330
1A
100
AcDbEntity
  8
SEIHIN
  6
CONTINUOUS
 62
     3
100
AcDbCircle
 10
225.0469040354232
 20
286.9967677483586
 30
0.0
 40
2.123712929675453
100
AcDbArc
 50
305.053888081377
 51
351.4817110097721
  0
ARC
  5
462
330
1A
100
AcDbEntity
  8
SEIHIN
  6
CONTINUOUS
 62
     3
100
AcDbCircle
 10
230.5675924811001
 20
286.5576115244952
 30
0.0
 40
1.647681526883429
100
AcDbArc
 50
30.85933145620669
 51
108.3020802390172
  0
ARC
  5
463
330
1A
100
AcDbEntity
  8
SEIHIN
  6
CONTINUOUS
 62
     3
100
AcDbCircle
 10
228.0613713564938
 20
287.896564869731
 30
0.0
 40
2.001534392064788
100
AcDbArc
 50
6.465386487904928
 51
110.1322728446072
  0
ARC
  5
464
330
1A
100
AcDbEntity
  8
SEIHIN
  6
CONTINUOUS
 62
     3
100
AcDbCircle
 10
230.7215622829053
 20
286.9711975006556
 30
0.0
 40
1.332282207345527
100
AcDbArc
 50
356.1429883807091
 51
18.90060477170201
  0
ARC
  5
465
330
1A
100
AcDbEntity
  8
SEIHIN
  6
CONTINUOUS
 62
     3
100
AcDbCircle
 10
226.9500010556605
 20
287.051390051375
 30
0.0
 40
5.113970465592747
100
AcDbArc
 50
357.5044165725175
 51
359.2917435768
  0
ARC
  5
466
330
1A
100
AcDbEntity
  8
SEIHIN
  6
CONTINUOUS
 62
     3
100
AcDbCircle
 10
226.1399230765761
 20
286.2354848811985
 30
0.0
 40
7.446109825307795
100
AcDbArc
 50
340.335958301701
 51
6.237979966674939
  0
ARC
  5
467
330
1A
100
AcDbEntity
  8
SEIHIN
  6
CONTINUOUS
 62
     3
100
AcDbCircle
 10
229.1643135077724
 20
273.7707252973342
 30
0.0
 40
10.73617937043092
100
AcDbArc
 50
18.64252221074061
 51
37.75181127540111
  0
ARC
  5
468
330
1A
100
AcDbEntity
  8
SEIHIN
  6
CONTINUOUS
 62
     3
100
AcDbCircle
 10
229.6854604637667
 20
274.4355856532092
 30
0.0
 40
9.919603948609406
100
AcDbArc
 50
36.3456316560562
 51
69.54679022460284
  0
ARC
  5
469
330
1A
100
AcDbEntity
  8
SEIHIN
  6
CONTINUOUS
 62
     3
100
AcDbCircle
 10
229.1643135077724
 20
273.7707252973342
 30
0.0
 40
9.236179370430923
100
AcDbArc
 50
15.77341822168476
 51
37.75181127540111
  0
ARC
  5
46A
330
1A
100
AcDbEntity
  8
SEIHIN
  6
CONTINUOUS
 62
     3
100
AcDbCircle
 10
232.2934909782996
 20
287.3397615642417
 30
0.0
 40
1.282879196674874
100
AcDbArc
 50
346.6968425214935
 51
40.45498740807309
  0
ARC
  5
46B
330
1A
100
AcDbEntity
  8
SEIHIN
  6
CONTINUOUS
 62
     3
 48
16.0
100
AcDbCircle
 10
381.8598438635592
 20
624.0067978994182
 30
0.0
 40
330.0000022597821
100
AcDbArc
 50
255.6688916649071
 51
272.312776192743
  0
ARC
  5
46C
330
1A
100
AcDbEntity
  8
SEIHIN
  6
CONTINUOUS
 62
     3
 48
16.0
100
AcDbCircle
 10
381.4365222574017
 20
623.9859001737746
 30
0.0
 40
325.9999712991594
100
AcDbArc
 50
255.5660536499765
 51
272.415563974388
  0
ARC
  5
46D
330
1A
100
AcDbEntity
  8
SEIHIN
  6
CONTINUOUS
 62
     3
 48
16.0
100
AcDbCircle
 10
380.8014483006646
 20
623.9525974323262
 30
0.0
 40
320.0000394351809
100
AcDbArc
 50
255.4069045649683
 51
272.5747381760912
  0
CIRCLE
  5
46E
330
1A
100
AcDbEntity
  8
SEIHIN
  6
CONTINUOUS
 62
     3
100
AcDbCircle
 10
300.1771499683215
 20
301.1803135103088
 30
0.0
 40
3.0
  0
ARC
  5
46F
330
1A
100
AcDbEntity
  8
SEIHIN
  6
CONTINUOUS
 62
     3
100
AcDbCircle
 10
381.5248242089817
 20
273.653590844372
 30
0.0
 40
2.752190645058697
100
AcDbArc
 50
104.9392863223866
 51
175.8651773181002
  0
ARC
  5
470
330
1A
100
AcDbEntity
  8
SEIHIN
  6
CONTINUOUS
 62
     3
100
AcDbCircle
 10
363.2471121068504
 20
195.8629587555084
 30
0.0
 40
88.55008830148793
100
AcDbArc
 50
76.94116080040233
 51
83.08578931554023
  0
ARC
  5
471
330
1A
100
AcDbEntity
  8
SEIHIN
  6
CONTINUOUS
 62
     3
100
AcDbCircle
 10
363.2471121068504
 20
195.8629587555084
 30
0.0
 40
90.05008830148794
100
AcDbArc
 50
76.94116080040233
 51
83.08578931554023
  0
ARC
  5
472
330
1A
100
AcDbEntity
  8
SEIHIN
  6
CONTINUOUS
 62
     3
100
AcDbCircle
 10
370.6687920810415
 20
274.4354795177555
 30
0.0
 40
9.919603948609406
100
AcDbArc
 50
110.4531235082691
 51
143.6542820768158
  0
ARC
  5
473
330
1A
100
AcDbEntity
  8
SEIHIN
  6
CONTINUOUS
 62
     3
100
AcDbCircle
 10
370.6687920810415
 20
274.4354795177555
 30
0.0
 40
8.419603948609406
100
AcDbArc
 50
98.72680913687513
 51
143.6542820768158
  0
ARC
  5
474
330
1A
100
AcDbEntity
  8
SEIHIN
  6
CONTINUOUS
 62
     3
100
AcDbCircle
 10
371.1899380359912
 20
273.7706183772187
 30
0.0
 40
9.236179370430923
100
AcDbArc
 50
142.2481024574709
 51
164.2264955111873
  0
ARC
  5
475
330
1A
100
AcDbEntity
  8
SEIHIN
  6
CONTINUOUS
 62
     3
100
AcDbCircle
 10
371.1899380359912
 20
273.7706183772187
 30
0.0
 40
10.73617937043092
100
AcDbArc
 50
142.2481024574709
 51
161.3573915221314
  0
ARC
  5
476
330
1A
100
AcDbEntity
  8
SEIHIN
  6
CONTINUOUS
 62
     3
100
AcDbCircle
 10
374.2143472346922
 20
286.2353734074094
 30
0.0
 40
7.446109825307795
100
AcDbArc
 50
173.7619337661971
 51
199.6639554311709
  0
ARC
  5
477
330
1A
100
AcDbEntity
  8
SEIHIN
  6
CONTINUOUS
 62
     3
100
AcDbCircle
 10
375.307367422066
 20
286.9966546288695
 30
0.0
 40
3.623712929675453
100
AcDbArc
 50
129.9232622442663
 51
234.946025651495
  0
ARC
  5
478
330
1A
100
AcDbEntity
  8
SEIHIN
  6
CONTINUOUS
 62
     3
100
AcDbCircle
 10
374.2143472346922
 20
286.2353734074094
 30
0.0
 40
5.946109825307795
100
AcDbArc
 50
173.7619337661971
 51
215.7945481820722
  0
ARC
  5
479
330
1A
100
AcDbEntity
  8
SEIHIN
  6
CONTINUOUS
 62
     3
100
AcDbCircle
 10
373.2512447976225
 20
269.6729559530865
 30
0.0
 40
8.950406787924631
100
AcDbArc
 50
82.33426128707035
 51
136.898458127399
  0
ARC
  5
47A
330
1A
100
AcDbEntity
  8
SEIHIN
  6
CONTINUOUS
 62
     3
100
AcDbCircle
 10
375.578872103256
 20
267.0113751420903
 30
0.0
 40
11.02401847314397
100
AcDbArc
 50
85.23552240999611
 51
137.1914820796951
  0
ARC
  5
47B
330
1A
100
AcDbEntity
  8
SEIHIN
  6
CONTINUOUS
 62
     3
100
AcDbCircle
 10
379.6800702969623
 20
276.7433095642992
 30
0.0
 40
3.423474535115888
100
AcDbArc
 50
158.5128885434718
 51
187.5414244081196
  0
ARC
  5
47C
330
1A
100
AcDbEntity
  8
SEIHIN
  6
CONTINUOUS
 62
     3
100
AcDbCircle
 10
379.6800702969623
 20
276.7433095642992
 30
0.0
 40
3.423474535115888
100
AcDbArc
 50
184.3097228461637
 51
187.5414244080956
  0
ARC
  5
47D
330
1A
100
AcDbEntity
  8
SEIHIN
  6
CONTINUOUS
 62
     3
100
AcDbCircle
 10
374.0876174719619
 20
285.2581591106435
 30
0.0
 40
1.5
100
AcDbArc
 50
234.9460256514951
 51
263.0857893155402
  0
ARC
  5
47E
330
1A
100
AcDbEntity
  8
SEIHIN
  6
CONTINUOUS
 62
     3
100
AcDbCircle
 10
378.6893259252879
 20
275.0531842738762
 30
0.0
 40
1.204552795945732
100
AcDbArc
 50
129.9432072468549
 51
274.3074106412608
  0
ARC
  5
47F
330
1A
100
AcDbEntity
  8
SEIHIN
  6
CONTINUOUS
 62
     3
100
AcDbCircle
 10
379.6800702969623
 20
276.7433095642992
 30
0.0
 40
1.923474535115888
100
AcDbArc
 50
109.9305275500976
 51
203.4880997123242
  0
ARC
  5
480
330
1A
100
AcDbEntity
  8
SEIHIN
  6
CONTINUOUS
 62
     3
100
AcDbCircle
 10
376.7802899752293
 20
253.1549011628348
 30
0.0
 40
25.49563379355763
100
AcDbArc
 50
84.95033648945744
 51
95.25502489733215
  0
ARC
  5
481
330
1A
100
AcDbEntity
  8
SEIHIN
  6
CONTINUOUS
 62
     3
100
AcDbCircle
 10
371.7253545857199
 20
287.7059796458488
 30
0.0
 40
3.140027659838379
100
AcDbArc
 50
43.41466750870435
 51
141.4607973885412
  0
ARC
  5
482
330
1A
100
AcDbEntity
  8
SEIHIN
  6
CONTINUOUS
 62
     3
100
AcDbCircle
 10
372.2929014557742
 20
287.8964562889597
 30
0.0
 40
2.001534392064788
100
AcDbArc
 50
69.86764088826475
 51
173.5345272449671
  0
ARC
  5
483
330
1A
100
AcDbEntity
  8
SEIHIN
  6
CONTINUOUS
 62
     3
100
AcDbCircle
 10
373.4042704840726
 20
287.051279797275
 30
0.0
 40
5.113970465592747
100
AcDbArc
 50
180.708170156072
 51
182.4954971603545
  0
ARC
  5
484
330
1A
100
AcDbEntity
  8
SEIHIN
  6
CONTINUOUS
 62
     3
100
AcDbCircle
 10
369.6327091360906
 20
286.9710929251898
 30
0.0
 40
1.332282207345527
100
AcDbArc
 50
161.09930896117
 51
183.8569253521628
  0
ARC
  5
485
330
1A
100
AcDbEntity
  8
SEIHIN
  6
CONTINUOUS
 62
     3
100
AcDbCircle
 10
368.0607809956248
 20
287.3396593555426
 30
0.0
 40
1.282879196674874
100
AcDbArc
 50
139.5449263247989
 51
193.3030712113785
  0
ARC
  5
486
330
1A
100
AcDbEntity
  8
SEIHIN
  6
CONTINUOUS
 62
     3
100
AcDbCircle
 10
369.7866783151817
 20
286.5575067172057
 30
0.0
 40
1.647681526883429
100
AcDbArc
 50
71.69783349385479
 51
149.1405822766653
  0
ARC
  5
487
330
1A
100
AcDbEntity
  8
SEIHIN
  6
CONTINUOUS
 62
     3
100
AcDbCircle
 10
369.7866783151817
 20
286.5575067172057
 30
0.0
 40
3.147681526883429
100
AcDbArc
 50
99.4608701868487
 51
149.1405822766653
  0
ARC
  5
488
330
1A
100
AcDbEntity
  8
SEIHIN
  6
CONTINUOUS
 62
     3
100
AcDbCircle
 10
375.307367422066
 20
286.9966546288695
 30
0.0
 40
2.123712929675453
100
AcDbArc
 50
188.5182027230999
 51
234.946025651495
  0
ARC
  5
489
330
1A
100
AcDbEntity
  8
SEIHIN
  6
CONTINUOUS
 62
     3
100
AcDbCircle
 10
376.1250207392406
 20
287.6405476995513
 30
0.0
 40
3.071322985076334
100
AcDbArc
 50
133.6182828456351
 51
198.1839703531432
  0
ARC
  5
48A
330
1A
100
AcDbEntity
  8
SEIHIN
  6
CONTINUOUS
 62
     3
 48
16.0
100
AcDbCircle
 10
395.1770586062575
 20
284.2756106119437
 30
0.0
 40
9.999995961498862
100
AcDbArc
 50
340.6255468529263
 51
89.99941064898308
  0
ARC
  5
48B
330
1A
100
AcDbEntity
  8
SEIHIN
  6
CONTINUOUS
 62
     3
 48
16.0
100
AcDbCircle
 10
395.1770777053847
 20
284.2755928713197
 30
0.0
 40
14.00001370160326
100
AcDbArc
 50
9.684887718085263
 51
90.00006645490248
  0
ARC
  5
48C
330
1A
100
AcDbEntity
  8
SEIHIN
  6
CONTINUOUS
 62
     3
100
AcDbCircle
 10
386.0400959168625
 20
268.9395335797732
 30
0.0
 40
10.76905181916566
100
AcDbArc
 50
63.02250521529189
 51
94.23756342417764
  0
ARC
  5
48D
330
1A
100
AcDbEntity
  8
SEIHIN
  6
CONTINUOUS
 62
     3
100
AcDbCircle
 10
383.3366713145677
 20
264.4806748767524
 30
0.0
 40
14.47377899325778
100
AcDbArc
 50
61.63593190881424
 51
87.52534339845933
  0
ARC
  5
48E
330
1A
100
AcDbEntity
  8
SEIHIN
  6
CONTINUOUS
 62
     3
100
AcDbCircle
 10
382.1758446670683
 20
280.2139376612536
 30
0.0
 40
2.193045758610189
100
AcDbArc
 50
324.5168903290545
 51
60.51830897053897
  0
ARC
  5
48F
330
1A
100
AcDbEntity
  8
SEIHIN
  6
CONTINUOUS
 62
     3
100
AcDbCircle
 10
386.3870347727845
 20
290.1682362120661
 30
0.0
 40
7.151917275530299
100
AcDbArc
 50
247.0131526910207
 51
250.4463170797904
  0
ARC
  5
490
330
1A
100
AcDbEntity
  8
SEIHIN
  6
CONTINUOUS
 62
     3
100
AcDbCircle
 10
382.4550096749591
 20
280.8016148163595
 30
0.0
 40
3.006717562136421
100
AcDbArc
 50
338.0794518059464
 51
67.73825801927788
  0
ARC
  5
491
330
1A
100
AcDbEntity
  8
SEIHIN
  6
CONTINUOUS
 62
     3
 48
16.0
100
AcDbCircle
 10
405.4953179487411
 20
280.8902774441268
 30
0.0
 40
0.8870597618054146
100
AcDbArc
 50
148.0716367600092
 51
337.3665567953732
  0
ARC
  5
492
330
1A
100
AcDbEntity
  8
SEIHIN
  6
CONTINUOUS
 62
     3
 48
16.0
100
AcDbCircle
 10
472.3894514277469
 20
293.9680329626287
 30
0.0
 40
26.00000091378764
100
AcDbArc
 50
216.7540876735785
 51
244.6617617842809
  0
ARC
  5
493
330
1A
100
AcDbEntity
  8
SEIHIN
  6
CONTINUOUS
 62
     3
 48
16.0
100
AcDbCircle
 10
453.177034560755
 20
253.2755437513832
 30
0.0
 40
24.99998772151912
100
AcDbArc
 50
6.803843105478997
 51
64.9836238094516
  0
ARC
  5
494
330
1A
100
AcDbEntity
  8
SEIHIN
  6
CONTINUOUS
 62
     3
 48
16.0
100
AcDbCircle
 10
438.1770492173623
 20
269.2755857903446
 30
0.0
 40
13.99998775000479
100
AcDbArc
 50
118.9665909394245
 51
179.9999149461048
  0
ARC
  5
495
330
1A
100
AcDbEntity
  8
SEIHIN
  6
CONTINUOUS
 62
     3
 48
16.0
100
AcDbCircle
 10
455.1770836545203
 20
271.2755754266767
 30
0.0
 40
7.999983378103547
100
AcDbArc
 50
116.7768082362323
 51
207.5023223776788
  0
ARC
  5
496
330
1A
100
AcDbEntity
  8
SEIHIN
  6
CONTINUOUS
 62
     3
 48
16.0
100
AcDbCircle
 10
455.1770846327082
 20
271.2755406186975
 30
0.0
 40
13.99994907096351
100
AcDbArc
 50
93.47108046148598
 51
198.0650411239508
  0
ARC
  5
497
330
1A
100
AcDbEntity
  8
SEIHIN
  6
CONTINUOUS
 62
     3
 48
16.0
100
AcDbCircle
 10
433.1770852369486
 20
269.2756083534908
 30
0.0
 40
19.00002376957561
100
AcDbArc
 50
180.0000053694438
 51
8.56804844087391
  0
ARC
  5
498
330
1A
100
AcDbEntity
  8
SEIHIN
  6
CONTINUOUS
 62
     3
 48
16.0
100
AcDbCircle
 10
433.1771374548956
 20
269.2755616895653
 30
0.0
 40
15.00001440548667
100
AcDbArc
 50
125.3477679246727
 51
353.5145883168434
  0
LINE
  5
499
330
1A
100
AcDbEntity
  8
SEIHIN
  6
CONTINUOUS
 62
     3
 48
16.0
100
AcDbLine
 10
635.5632935197778
 20
306.1525613566976
 30
0.0
 11
622.37841884029
 21
231.377997170029
 31
0.0
  0
LINE
  5
49A
330
1A
100
AcDbEntity
  8
SEIHIN
  6
CONTINUOUS
 62
     3
 48
16.0
100
AcDbLine
 10
633.3605616492159
 20
316.6953300782625
 30
0.0
 11
618.2530543466
 21
231.0169744502431
 31
0.0
  0
LINE
  5
49B
330
1A
100
AcDbEntity
  8
SEIHIN
  6
CONTINUOUS
 62
     3
 48
16.0
100
AcDbLine
 10
631.3909461431915
 20
317.0426264335963
 30
0.0
 11
616.1903807821638
 21
230.8365123307377
 31
0.0
  0
ARC
  5
49C
330
1A
100
AcDbEntity
  8
NOKITOI
  6
PHANTOM
 62
     8
 48
5.0
100
AcDbCircle
 10
684.1079019001921
 20
213.7548450027934
 30
0.0
 40
50.300012
100
AcDbArc
 50
188.6764639999999
 51
351.2914929999999
  0
ARC
  5
49D
330
1A
100
AcDbEntity
  8
NOKITOI
  6
PHANTOM
 62
     8
 48
5.0
100
AcDbCircle
 10
684.1079019001921
 20
213.7548450027934
 30
0.0
 40
49.00000099999999
100
AcDbArc
 50
185.413376
 51
354.5863799999999
  0
ARC
  5
49E
330
1A
100
AcDbEntity
  8
SEIHIN
  6
CONTINUOUS
 62
     3
 48
16.0
100
AcDbCircle
 10
470.1770844353994
 20
227.2754872095413
 30
0.0
 40
19.999977031983
100
AcDbArc
 50
0.0000554720392243
 51
99.7344106784687
  0
ARC
  5
49F
330
1A
100
AcDbEntity
  8
SEIHIN
  6
CONTINUOUS
 62
     3
 48
16.0
100
AcDbCircle
 10
470.1770675469576
 20
227.2754986330229
 30
0.0
 40
29.99999392041658
100
AcDbArc
 50
0.0000151640773991
 51
74.88267012323278
  0
ARC
  5
4A0
330
1A
100
AcDbEntity
  8
SEIHIN
  6
CONTINUOUS
 62
     3
 48
16.0
100
AcDbCircle
 10
470.1770862022944
 20
227.275479811028
 30
0.0
 40
23.99997526509369
100
AcDbArc
 50
0.0000638893614946
 51
85.49195634865425
  0
LINE
  5
4A1
330
1A
100
AcDbEntity
  8
SEIHIN
  6
CONTINUOUS
 62
     3
 48
16.0
100
AcDbLine
 10
463.5642614673729
 20
193.2755065729136
 30
0.0
 11
434.6449614673729
 21
193.2756065729136
 31
0.0
  0
LINE
  5
4A2
330
1A
100
AcDbEntity
  8
SEIHIN
  6
CONTINUOUS
 62
     3
 48
16.0
100
AcDbLine
 10
463.799161467373
 20
191.2755065729136
 30
0.0
 11
434.555061467373
 21
191.2756065729136
 31
0.0
  0
LINE
  5
4A3
330
1A
100
AcDbEntity
  8
SEIHIN
  6
CONTINUOUS
 62
     3
 48
16.0
100
AcDbLine
 10
413.553861467373
 20
195.4879065729136
 30
0.0
 11
419.1771614673731
 21
213.7756065729137
 31
0.0
  0
LINE
  5
4A4
330
1A
100
AcDbEntity
  8
SEIHIN
  6
CONTINUOUS
 62
     3
 48
16.0
100
AcDbLine
 10
424.3002614673729
 20
209.5751065729136
 30
0.0
 11
427.2994614673731
 21
198.0149065729135
 31
0.0
  0
ARC
  5
4A5
330
1A
100
AcDbEntity
  8
SEIHIN
  6
CONTINUOUS
 62
     3
 48
16.0
100
AcDbCircle
 10
434.6449999090218
 20
201.2756509246871
 30
0.0
 40
8.000044351865877
100
AcDbArc
 50
198.4569052037828
 51
269.9997246834965
  0
ARC
  5
4A6
330
1A
100
AcDbEntity
  8
SEIHIN
  6
CONTINUOUS
 62
     3
 48
16.0
100
AcDbCircle
 10
434.5550791950791
 20
198.2755929532443
 30
0.0
 40
6.999986380353106
100
AcDbArc
 50
194.9318520511736
 51
269.9998548964699
  0
ARC
  5
4A7
330
1A
100
AcDbEntity
  8
SEIHIN
  6
CONTINUOUS
 62
     3
 48
16.0
100
AcDbCircle
 10
419.4801751556885
 20
208.2459960564357
 30
0.0
 40
5.000010516496569
100
AcDbArc
 50
14.93135259054302
 51
90.00015685620985
  0
ARC
  5
4A8
330
1A
100
AcDbEntity
  8
SEIHIN
  6
CONTINUOUS
 62
     3
 48
16.0
100
AcDbCircle
 10
419.3357751556882
 20
208.7755960564356
 30
0.0
 40
5.000010516496689
100
AcDbArc
 50
14.93135259054182
 51
90.00015685620891
  0
LINE
  5
4A9
330
1A
100
AcDbEntity
  8
SEIHIN
  6
CONTINUOUS
 62
     3
 48
16.0
100
AcDbLine
 10
470.5628614673729
 20
196.4719065729136
 30
0.0
 11
474.187361467373
 21
210.0638065729136
 31
0.0
  0
ARC
  5
4AA
330
1A
100
AcDbEntity
  8
SEIHIN
  6
CONTINUOUS
 62
     3
 48
16.0
100
AcDbCircle
 10
463.5642112623846
 20
201.2754680021052
 30
0.0
 40
7.999961429346572
100
AcDbArc
 50
269.9996433677803
 51
345.0688039825917
  0
ARC
  5
4AB
330
1A
100
AcDbEntity
  8
SEIHIN
  6
CONTINUOUS
 62
     3
 48
16.0
100
AcDbCircle
 10
463.7992066231474
 20
198.2755412648846
 30
0.0
 40
7.000034692116541
100
AcDbArc
 50
269.9996303967896
 51
345.0678441477501
  0
ARC
  5
4AC
330
1A
100
AcDbEntity
  8
SEIHIN
  6
CONTINUOUS
 62
     3
 48
16.0
100
AcDbCircle
 10
478.8092310093157
 20
208.1475831730231
 30
0.0
 40
5.000023399983234
100
AcDbArc
 50
89.9996509780067
 51
165.0673480292148
  0
ARC
  5
4AD
330
1A
100
AcDbEntity
  8
SEIHIN
  6
CONTINUOUS
 62
     3
 48
16.0
100
AcDbCircle
 10
479.0185477790577
 20
208.7754960564357
 30
0.0
 40
5.000010516496558
100
AcDbArc
 50
89.99984314378981
 51
165.0686474094571
  0
ARC
  5
4AE
330
1A
100
AcDbEntity
  8
SEIHIN
  6
CONTINUOUS
 62
     3
100
AcDbCircle
 10
405.8967492401672
 20
237.9349360449349
 30
0.0
 40
12.09868836716191
100
AcDbArc
 50
351.0215946358029
 51
4.092307168572755
  0
ARC
  5
4AF
330
1A
100
AcDbEntity
  8
SEIHIN
  6
CONTINUOUS
 62
     3
100
AcDbCircle
 10
420.0966456004695
 20
238.2577643433425
 30
0.0
 40
4.086949233914324
100
AcDbArc
 50
256.9960090749912
 51
59.40136529167794
  0
ARC
  5
4B0
330
1A
100
AcDbEntity
  8
SEIHIN
  6
CONTINUOUS
 62
     3
100
AcDbCircle
 10
420.0966456004695
 20
238.2577643433425
 30
0.0
 40
5.586949233914324
100
AcDbArc
 50
238.423220330175
 51
52.86491291003716
  0
ARC
  5
4B1
330
1A
100
AcDbEntity
  8
SEIHIN
  6
CONTINUOUS
 62
     3
100
AcDbCircle
 10
414.4945632627004
 20
238.2497107286448
 30
0.0
 40
5.013130238133999
100
AcDbArc
 50
1.004921601203704
 51
71.14542997503606
  0
ARC
  5
4B2
330
1A
100
AcDbEntity
  8
SEIHIN
  6
CONTINUOUS
 62
     3
100
AcDbCircle
 10
410.5827487504322
 20
237.0180570433212
 30
0.0
 40
9.021205872599129
100
AcDbArc
 50
342.302101323504
 51
8.411109184364773
  0
ARC
  5
4B3
330
1A
100
AcDbEntity
  8
SEIHIN
  6
CONTINUOUS
 62
     3
100
AcDbCircle
 10
413.8161410395463
 20
235.8158164457368
 30
0.0
 40
4.077727252986128
100
AcDbArc
 50
325.36104806272
 51
8.579076181846479
  0
ARC
  5
4B4
330
1A
100
AcDbEntity
  8
SEIHIN
  6
CONTINUOUS
 62
     3
100
AcDbCircle
 10
414.0740831003093
 20
236.0984215766171
 30
0.0
 40
12.21483626179281
100
AcDbArc
 50
44.08572815247155
 51
89.44007522597731
  0
ARC
  5
4B5
330
1A
100
AcDbEntity
  8
SEIHIN
  6
CONTINUOUS
 62
     3
100
AcDbCircle
 10
413.5048018016181
 20
237.1190449048921
 30
0.0
 40
6.428417722943194
100
AcDbArc
 50
66.04713911735395
 51
80.70287250017619
  0
ARC
  5
4B6
330
1A
100
AcDbEntity
  8
SEIHIN
  6
CONTINUOUS
 62
     3
100
AcDbCircle
 10
404.2997323714724
 20
200.9874525532295
 30
0.0
 40
42.15237565935466
100
AcDbArc
 50
74.58292375194499
 51
77.05105519001506
  0
ARC
  5
4B7
330
1A
100
AcDbEntity
  8
SEIHIN
  6
CONTINUOUS
 62
     3
100
AcDbCircle
 10
414.4945632627004
 20
238.2497107286448
 30
0.0
 40
3.513130238133999
100
AcDbArc
 50
8.984407427479405
 51
71.14542997503606
  0
ARC
  5
4B8
330
1A
100
AcDbEntity
  8
SEIHIN
  6
CONTINUOUS
 62
     3
100
AcDbCircle
 10
418.5044546580858
 20
242.1196961656071
 30
0.0
 40
5.000187990344634
100
AcDbArc
 50
6.800258115983606
 51
29.69491543758592
  0
LINE
  5
4B9
330
1A
100
AcDbEntity
  8
SEIHIN
  6
CONTINUOUS
 62
     3
100
AcDbLine
 10
422.1769881987208
 20
241.7756228843435
 30
0.0
 11
422.8776422267302
 21
242.2062086410653
 31
0.0
  0
ARC
  5
4BA
330
1A
100
AcDbEntity
  8
SEIHIN
  6
CONTINUOUS
 62
     3
 48
16.0
100
AcDbCircle
 10
433.177109522672
 20
269.2756002125522
 30
0.0
 40
9.000048055301308
100
AcDbArc
 50
179.9999595088978
 51
344.9208319038096
  0
ARC
  5
4BB
330
1A
100
AcDbEntity
  8
SEIHIN
  6
CONTINUOUS
 62
     3
 48
16.0
100
AcDbCircle
 10
453.1770607215647
 20
253.2755085780483
 30
0.0
 40
14.99999360299901
100
AcDbArc
 50
335.2158898347618
 51
65.58935874892577
  0
ARC
  5
4BC
330
1A
100
AcDbEntity
  8
SEIHIN
  6
CONTINUOUS
 62
     3
 48
16.0
100
AcDbCircle
 10
453.1770458903927
 20
253.2755341034425
 30
0.0
 40
18.99998758026732
100
AcDbArc
 50
353.7322280789528
 51
65.27063320708894
  0
ARC
  5
4BD
330
1A
100
AcDbEntity
  8
SEIHIN
  6
CONTINUOUS
 62
     3
 48
16.0
100
AcDbCircle
 10
472.3999183612427
 20
293.9631035543035
 30
0.0
 40
29.9999951804742
100
AcDbArc
 50
227.112945542557
 51
244.6376169692825
  0
LINE
  5
4BE
330
1A
100
AcDbEntity
  8
SEIHIN
  6
CONTINUOUS
 62
     3
 48
16.0
100
AcDbLine
 10
490.1770614673731
 20
227.2754065729136
 30
0.0
 11
490.1770614673731
 21
216.2754065729136
 31
0.0
  0
LINE
  5
4BF
330
1A
100
AcDbEntity
  8
SEIHIN
  6
CONTINUOUS
 62
     3
 48
16.0
100
AcDbLine
 10
494.1770614673731
 20
227.2754065729136
 30
0.0
 11
494.1770614673731
 21
216.2754065729136
 31
0.0
  0
LINE
  5
4C0
330
1A
100
AcDbEntity
  8
SEIHIN
  6
CONTINUOUS
 62
     3
 48
16.0
100
AcDbLine
 10
500.1770614673731
 20
227.2754065729136
 30
0.0
 11
500.1770614673731
 21
200.2754065729136
 31
0.0
  0
LINE
  5
4C1
330
1A
100
AcDbEntity
  8
SEIHIN
  6
CONTINUOUS
 62
     3
 48
16.0
100
AcDbLine
 10
479.1771614673731
 20
213.7755065729136
 30
0.0
 11
483.1770614673729
 21
200.2755065729136
 31
0.0
  0
LINE
  5
4C2
330
1A
100
AcDbEntity
  8
SEIHIN
  6
CONTINUOUS
 62
     3
 48
16.0
100
AcDbLine
 10
500.1770614673731
 20
200.2754065729136
 30
0.0
 11
483.1770614673729
 21
200.2755065729136
 31
0.0
  0
LINE
  5
4C3
330
1A
100
AcDbEntity
  8
SEIHIN
  6
CONTINUOUS
 62
     3
 48
16.0
100
AcDbLine
 10
500.1770614673731
 20
216.2754065729136
 30
0.0
 11
490.1770614673731
 21
216.2755065729136
 31
0.0
  0
LINE
  5
4C4
330
1A
100
AcDbEntity
  8
SEIHIN
100
AcDbLine
 10
500.1711852992256
 20
227.8692456230047
 30
0.0
 11
490.1682457880144
 21
227.8692456230047
 31
0.0
  0
LINE
  5
4C5
330
1A
100
AcDbEntity
  8
SEIHIN
  6
CONTINUOUS
 62
     3
 48
16.0
100
AcDbLine
 10
622.37841884029
 20
231.377997170029
 30
0.0
 11
628.487799205167
 21
214.5927081463854
 31
0.0
  0
LINE
  5
4C6
330
1A
100
AcDbEntity
  8
SEIHIN
  6
CONTINUOUS
 62
     3
 48
16.0
100
AcDbLine
 10
639.5641970669446
 20
213.3984686613547
 30
0.0
 11
625.8514808744038
 21
251.0741348654556
 31
0.0
  0
LINE
  5
4C7
330
1A
100
AcDbEntity
  8
SEIHIN
  6
CONTINUOUS
 62
     3
 48
16.0
100
AcDbLine
 10
618.2530543466
 20
231.0169744502431
 30
0.0
 11
622.79482986033
 21
218.5387308501652
 31
0.0
  0
LINE
  5
4C8
330
1A
100
AcDbEntity
  8
SEIHIN
  6
CONTINUOUS
 62
     3
 48
16.0
100
AcDbLine
 10
616.1903807821638
 20
230.8365123307377
 30
0.0
 11
621.3102775118175
 21
216.7696442597107
 31
0.0
  0
ARC
  5
4C9
330
1A
100
AcDbEntity
  8
SEIHIN
  6
CONTINUOUS
 62
     3
 48
16.0
100
AcDbCircle
 10
644.4782228313213
 20
194.6476631357907
 30
0.0
 40
2.000044569778445
100
AcDbArc
 50
205.031289176864
 51
234.431026997323
  0
LINE
  5
4CA
330
1A
100
AcDbEntity
  8
SEIHIN
  6
CONTINUOUS
 62
     3
 48
16.0
100
AcDbLine
 10
643.6987972530963
 20
190.2872921722472
 30
0.0
 11
641.7245903543929
 21
191.6992605752621
 31
0.0
  0
LINE
  5
4CB
330
1A
100
AcDbEntity
  8
SEIHIN
  6
CONTINUOUS
 62
     3
 48
16.0
100
AcDbLine
 10
637.483918903801
 20
204.9004004218107
 30
0.0
 11
642.6660287268155
 21
193.8014180124989
 31
0.0
  0
LINE
  5
4CC
330
1A
100
AcDbEntity
  8
SEIHIN
  6
CONTINUOUS
 62
     3
 48
16.0
100
AcDbLine
 10
641.0757873190521
 20
192.4798834556164
 30
0.0
 11
635.2857398720134
 21
204.8809141648374
 31
0.0
  0
ARC
  5
4CD
330
1A
100
AcDbEntity
  8
SEIHIN
  6
CONTINUOUS
 62
     3
 48
16.0
100
AcDbCircle
 10
641.346332307639
 20
211.7548840332996
 30
0.0
 40
16.9999279273305
100
AcDbArc
 50
197.6656254857333
 51
247.722887145437
  0
ARC
  5
4CE
330
1A
100
AcDbEntity
  8
SEIHIN
  6
CONTINUOUS
 62
     3
 48
16.0
100
AcDbCircle
 10
641.3463316617621
 20
211.7548817997501
 30
0.0
 40
14.99996941012472
100
AcDbArc
 50
196.8997453266019
 51
245.7843865775156
  0
ARC
  5
4CF
330
1A
100
AcDbEntity
  8
SEIHIN
  6
CONTINUOUS
 62
     3
 48
16.0
100
AcDbCircle
 10
631.3463218030793
 20
208.7549441491895
 30
0.0
 40
6.500004056143395
100
AcDbArc
 50
339.2715773000939
 51
199.1617584105427
  0
ARC
  5
4D0
330
1A
100
AcDbEntity
  8
SEIHIN
  6
CONTINUOUS
 62
     3
 48
16.0
100
AcDbCircle
 10
642.8879317097182
 20
193.3260872599936
 30
0.0
 40
1.999982042710624
100
AcDbArc
 50
205.0308192460096
 51
234.431496928164
  0
LINE
  5
4D1
330
1A
100
AcDbEntity
  8
SEIHIN
  6
CONTINUOUS
 62
     3
 48
16.0
100
AcDbLine
 10
634.1821732375674
 20
193.8643806009918
 30
0.0
 11
635.8463049616362
 21
192.7549524532742
 31
0.0
  0
LINE
  5
4D2
330
1A
100
AcDbEntity
  8
SEIHIN
  6
CONTINUOUS
 62
     3
 48
16.0
100
AcDbLine
 10
634.1821732375674
 20
193.8643806009918
 30
0.0
 11
635.1284162898154
 21
195.2837303309992
 31
0.0
  0
ARC
  5
4D3
330
1A
100
AcDbEntity
  8
SEIHIN
  6
CONTINUOUS
 62
     3
 48
16.0
100
AcDbCircle
 10
634.7123594136069
 20
195.5610895038393
 30
0.0
 40
0.5000314340108262
100
AcDbArc
 50
326.3110839866285
 51
67.72614396876027
  0
LINE
  5
4D4
330
1A
100
AcDbEntity
  8
SEIHIN
  6
CONTINUOUS
 62
     3
 48
16.0
100
AcDbLine
 10
636.4594421350009
 20
193.6747561859466
 30
0.0
 11
635.8463049616362
 21
192.7549524532742
 31
0.0
  0
ARC
  5
4D5
330
1A
100
AcDbEntity
  8
SEIHIN
  6
CONTINUOUS
 62
     3
 48
16.0
100
AcDbCircle
 10
633.9632613842816
 20
195.3388435301839
 30
0.0
 40
3.000017504867772
100
AcDbArc
 50
326.3104593564638
 51
65.78428956421324
  0
ARC
  5
4D6
330
1A
100
AcDbEntity
  8
NOKITOI
  6
PHANTOM
 62
     8
 48
5.0
100
AcDbCircle
 10
631.3463019001921
 20
208.7549450027935
 30
0.0
 40
4.000029
100
AcDbArc
 50
185.413851
 51
319.252818
  0
LINE
  5
4D7
330
1A
100
AcDbEntity
  8
SEIHIN
  6
CONTINUOUS
 62
     3
 48
16.0
100
AcDbLine
 10
626.7950186959037
 20
213.3956707086007
 30
0.0
 11
625.8590060422058
 21
215.9675806918849
 31
0.0
  0
LINE
  5
4D8
330
1A
100
AcDbEntity
  8
SEIHIN
  6
CONTINUOUS
 62
     3
 48
16.0
100
AcDbLine
 10
627.3434599099427
 20
217.7366846471573
 30
0.0
 11
622.79482986033
 21
218.5387308501652
 31
0.0
  0
LINE
  5
4D9
330
1A
100
AcDbEntity
  8
SEIHIN
  6
CONTINUOUS
 62
     3
 48
16.0
100
AcDbLine
 10
621.3102775118175
 20
216.7696442597107
 30
0.0
 11
625.8590060422058
 21
215.9675806918849
 31
0.0
  0
ARC
  5
4DA
330
1A
100
AcDbEntity
  8
NOKITOI
  6
PHANTOM
 62
     8
 48
5.0
100
AcDbCircle
 10
631.3463019001921
 20
208.7549450027935
 30
0.0
 40
3.999994
100
AcDbArc
 50
5.413986
 51
185.413851
  0
ARC
  5
4DB
330
1A
100
AcDbEntity
  8
SEIHIN
  6
CONTINUOUS
 62
     3
 48
16.0
100
AcDbCircle
 10
631.3463019001922
 20
208.7549450027935
 30
0.0
 40
4.49998270329571
100
AcDbArc
 50
332.2350889934765
 51
197.2797174206473
  0
CIRCLE
  5
4DC
330
1A
100
AcDbEntity
  8
NOKITOI
  6
PHANTOM
 62
     8
 48
5.0
100
AcDbCircle
 10
631.3463019001921
 20
208.7549450027935
 30
0.0
 40
2.7
  0
ARC
  5
4DD
330
1A
100
AcDbEntity
  8
SEIHIN
  6
CONTINUOUS
 62
     3
 48
16.0
100
AcDbCircle
 10
635.8054297447615
 20
212.0303921986919
 30
0.0
 40
3.999995623748122
100
AcDbArc
 50
300.6435025939687
 51
19.99996015610197
  0
ARC
  5
4DE
330
1A
100
AcDbEntity
  8
SEIHIN
  6
CONTINUOUS
 62
     3
 48
16.0
100
AcDbCircle
 10
639.2960720884038
 20
205.7464034101365
 30
0.0
 40
1.999986943419388
100
AcDbArc
 50
159.2696249938186
 51
205.0238555306051
  0
ARC
  5
4DF
330
1A
100
AcDbEntity
  8
SEIHIN
  6
CONTINUOUS
 62
     3
 48
16.0
100
AcDbCircle
 10
637.097990668797
 20
205.727054087332
 30
0.0
 40
2.000051429059028
100
AcDbArc
 50
152.235666193467
 51
205.0278713636501
  0
LINE
  5
4E0
330
1A
100
AcDbEntity
  8
SEIHIN
  6
CONTINUOUS
 62
     3
 48
16.0
100
AcDbLine
 10
644.8622604636006
 20
191.9140733676766
 30
0.0
 11
643.3148317621564
 21
193.0207951321444
 31
0.0
  0
LINE
  5
4E1
330
1A
100
AcDbEntity
  8
SEIHIN
  6
CONTINUOUS
 62
     3
 48
16.0
100
AcDbLine
 10
644.8622604636006
 20
191.9140733676766
 30
0.0
 11
643.6987972530963
 21
190.2872921722472
 31
0.0
  0
LINE
  5
4E2
330
1A
100
AcDbEntity
  8
SEIHIN
  6
CONTINUOUS
 62
     3
 48
16.0
100
AcDbLine
 10
621.3127184781226
 20
259.8861571027234
 30
0.0
 11
623.282333984147
 21
259.5388607473896
 31
0.0
  0
LINE
  5
4E3
330
1A
100
AcDbEntity
  8
CENTER_L
  6
CENTER
 62
     1
 48
5.0
100
AcDbLine
 10
684.0938366123366
 20
156.4548347290786
 30
0.0
 11
684.0938366123366
 21
171.7548463579401
 31
0.0
  0
ARC
  5
4E4
330
1A
100
AcDbEntity
  8
NOKITOI
  6
PHANTOM
 62
     8
 48
5.0
100
AcDbCircle
 10
736.869501900192
 20
208.7547450027934
 30
0.0
 40
3.999958
100
AcDbArc
 50
121.784767
 51
174.584588
  0
ARC
  5
4E5
330
1A
100
AcDbEntity
  8
NOKITOI
  6
PHANTOM
 62
     8
 48
5.0
100
AcDbCircle
 10
736.869501900192
 20
208.7547450027934
 30
0.0
 40
3.999994
100
AcDbArc
 50
220.269583
 51
121.7840119999999
  0
CIRCLE
  5
4E6
330
1A
100
AcDbEntity
  8
NOKITOI
  6
PHANTOM
 62
     8
 48
5.0
100
AcDbCircle
 10
736.869501900192
 20
208.7547450027934
 30
0.0
 40
2.7
  0
ARC
  5
4E7
330
1A
100
AcDbEntity
  8
SEIHIN
  6
CONTINUOUS
 62
     3
 48
16.0
100
AcDbCircle
 10
472.3118694754089
 20
294.0045986938682
 30
0.0
 40
20.00003565409187
100
AcDbArc
 50
206.0189776820951
 51
244.9113741284782
  0
LINE
  5
4E8
330
1A
100
AcDbEntity
  8
SEIHIN
  6
CONTINUOUS
 62
     3
 48
16.0
100
AcDbLine
 10
626.3506862326844
 20
288.4578920369901
 30
0.0
 11
628.3203017387089
 21
288.1105956816562
 31
0.0
  0
LINE
  5
4E9
330
1A
100
AcDbEntity
  8
SEIHIN
  6
CONTINUOUS
 62
     3
 48
16.0
100
AcDbLine
 10
627.7442649529149
 20
296.361269697239
 30
0.0
 11
629.7138804589394
 21
296.0139733419052
 31
0.0
  0
LINE
  5
4EA
330
1A
100
AcDbEntity
  8
SEIHIN
  6
CONTINUOUS
 62
     3
 48
16.0
100
AcDbLine
 10
632.3186725832142
 20
310.7864835601893
 30
0.0
 11
635.5633108845954
 21
306.1526598374727
 31
0.0
  0
LINE
  5
4EB
330
1A
100
AcDbEntity
  8
SEIHIN
  6
CONTINUOUS
 62
     3
 48
16.0
100
AcDbLine
 10
629.6544817313399
 20
307.1946473842497
 30
0.0
 11
631.6240972373645
 21
306.8473510289158
 31
0.0
  0
LINE
  5
4EC
330
1A
100
AcDbEntity
  8
SEIHIN
  6
CONTINUOUS
 62
     3
 48
16.0
100
AcDbLine
 10
633.3605616492159
 20
316.6953300782625
 30
0.0
 11
631.3909461431915
 21
317.0426264335963
 31
0.0
  0
LINE
  5
4ED
330
1A
100
AcDbEntity
  8
ZUWAKU
  6
CONTINUOUS
 62
     7
100
AcDbLine
 10
315.9381859213477
 20
23.32938879267135
 30
0.0
 11
315.9381859213477
 21
16.12523175554155
 31
0.0
  0
LINE
  5
4EE
330
1A
100
AcDbEntity
  8
ZUWAKU
  6
CONTINUOUS
 62
     7
100
AcDbLine
 10
312.9339646351119
 20
23.32938879267133
 30
0.0
 11
312.933964635112
 21
16.12523175554154
 31
0.0
  0
LINE
  5
4EF
330
1A
100
AcDbEntity
  8
ZUWAKU
  6
CONTINUOUS
 62
     7
100
AcDbLine
 10
311.3717704497245
 20
16.12523175554154
 30
0.0
 11
317.5003776526924
 21
16.12523175554156
 31
0.0
  0
LINE
  5
4F0
330
1A
100
AcDbEntity
  8
ZUWAKU
  6
CONTINUOUS
 62
     7
100
AcDbLine
 10
311.3717704497244
 20
23.32938879267133
 30
0.0
 11
317.5003776526925
 21
23.32938879267135
 31
0.0
  0
VIEWPORT
  5
22
330
17
100
AcDbEntity
 67
     1
  8
0
100
AcDbViewport
 10
313.6808219178082
 20
148.5
 30
0.0
 40
627.3616438356165
 41
297.0
 68
     2
 69
     1
1001
ACAD
1000
MVIEW
1002
{
1070
    16
1010
0.0
1020
0.0
1030
0.0
1010
0.0
1020
0.0
1030
1.0
1040
0.0
1040
297.0
1040
313.6808219178082
1040
148.5
1040
50.0
1040
0.0
1040
0.0
1070
     0
1070
   100
1070
     1
1070
     0
1070
     0
1070
     0
1070
     0
1070
     0
1040
0.0
1040
0.0
1040
0.0
1040
1.0
1040
1.0
1040
10.0
1040
10.0
1070
     0
1002
{
1002
}
1002
}
  0
VIEWPORT
  5
64
330
17
100
AcDbEntity
 67
     1
  8
VIEWPORT
100
AcDbViewport
 10
210.0
 20
148.5
 30
0.0
 40
420.0
 41
297.0
 68
     1
 69
     2
1001
ACAD
1000
MVIEW
1002
{
1070
    16
1010
0.0
1020
0.0
1030
0.0
1010
0.0
1020
0.0
1030
1.0
1040
0.0
1040
605.8799999999998
1040
420.0
1040
297.0
1040
50.0
1040
0.0
1040
0.0
1070
     0
1070
   100
1070
     1
1070
     0
1070
     0
1070
     0
1070
     0
1070
     0
1040
0.0
1040
0.0
1040
0.0
1040
10.0
1040
10.0
1040
0.0
1040
0.0
1070
     0
1002
{
1002
}
1002
}
  0
ENDSEC
  0
SECTION
  2
OBJECTS
  0
DICTIONARY
  5
C
330
0
100
AcDbDictionary
  3
ACAD_GROUP
350
D
  3
ACAD_LAYOUT
350
539
  3
ACAD_MLINESTYLE
350
E
  3
ACAD_PLOTSETTINGS
350
53A
1001
ACAD
1000
TREAT_AS_HARD
1070
     0
  0
DICTIONARY
  5
568
330
1A
100
AcDbDictionary
  3
ACAD_LAYOUTSELFREF
350
578
1001
ACAD
1000
TREAT_AS_HARD
1070
     1
  0
DICTIONARY
  5
566
330
17
100
AcDbDictionary
  3
ACAD_LAYOUTSELFREF
350
577
1001
ACAD
1000
TREAT_AS_HARD
1070
     1
  0
DICTIONARY
  5
D
102
{ACAD_REACTORS
330
C
102
}
330
C
100
AcDbDictionary
1001
ACAD
1000
TREAT_AS_HARD
1070
     0
  0
DICTIONARY
  5
539
102
{ACAD_REACTORS
330
C
102
}
330
C
100
AcDbDictionary
1001
ACAD
1000
TREAT_AS_HARD
1070
     0
  0
DICTIONARY
  5
E
102
{ACAD_REACTORS
330
C
102
}
330
C
100
AcDbDictionary
  3
STANDARD
350
13
1001
ACAD
1000
TREAT_AS_HARD
1070
     0
  0
DICTIONARY
  5
53A
102
{ACAD_REACTORS
330
C
102
}
330
C
100
AcDbDictionary
1001
ACAD
1000
TREAT_AS_HARD
1070
     0
  0
XRECORD
  5
578
102
{ACAD_REACTORS
330
568
102
}
330
568
100
AcDbXrecord
340
1A
  0
XRECORD
  5
577
102
{ACAD_REACTORS
330
566
102
}
330
566
100
AcDbXrecord
340
17
  0
MLINESTYLE
  5
13
102
{ACAD_REACTORS
330
E
102
}
330
E
100
AcDbMlineStyle
  2
STANDARD
 70
     0
  3

 62
     0
 51
90.0
 52
90.0
 71
     2
 49
0.5
 62
   256
  6
BYLAYER
 49
-0.5
 62
   256
  6
BYLAYER
  0
ENDSEC
  0
EOF
