  0
SECTION
  2
HEADER
  9
$ACADVER
  1
AC1012
  9
$DWGCODEPAGE
  3
dos932
  9
$INSBASE
 10
0.0
 20
0.0
 30
0.0
  9
$EXTMIN
 10
10.05047808566086
 20
4.949376903717846
 30
0.0
  9
$EXTMAX
 10
806.2246110975902
 20
563.7825862828226
 30
0.0
  9
$LIMMIN
 10
0.0
 20
0.0
  9
$LIMMAX
 10
840.0
 20
594.0
  9
$ORTHOMODE
 70
     0
  9
$REGENMODE
 70
     1
  9
$FILLMODE
 70
     1
  9
$QTEXTMODE
 70
     0
  9
$MIRRTEXT
 70
     1
  9
$DRAGMODE
 70
     2
  9
$LTSCALE
 40
2.0
  9
$OSMODE
 70
   319
  9
$ATTMODE
 70
     1
  9
$TEXTSIZE
 40
5.0
  9
$TRACEWID
 40
1.0
  9
$TEXTSTYLE
  7
STANDARD
  9
$CLAYER
  8
ZUWAKU
  9
$CELTYPE
  6
BYLAYER
  9
$CECOLOR
 62
   256
  9
$CELTSCALE
 40
1.0
  9
$DELOBJ
 70
     1
  9
$DISPSILH
 70
     0
  9
$DIMSCALE
 40
1.0
  9
$DIMASZ
 40
7.0
  9
$DIMEXO
 40
6.0
  9
$DIMDLI
 40
14.0
  9
$DIMRND
 40
0.0
  9
$DIMDLE
 40
0.0
  9
$DIMEXE
 40
3.0
  9
$DIMTP
 40
0.0
  9
$DIMTM
 40
0.0
  9
$DIMTXT
 40
6.0
  9
$DIMCEN
 40
150.0
  9
$DIMTSZ
 40
0.0
  9
$DIMTOL
 70
     0
  9
$DIMLIM
 70
     0
  9
$DIMTIH
 70
     0
  9
$DIMTOH
 70
     0
  9
$DIMSE1
 70
     0
  9
$DIMSE2
 70
     0
  9
$DIMTAD
 70
     3
  9
$DIMZIN
 70
     0
  9
$DIMBLK
  1

  9
$DIMASO
 70
     1
  9
$DIMSHO
 70
     1
  9
$DIMPOST
  1

  9
$DIMAPOST
  1

  9
$DIMALT
 70
     0
  9
$DIMALTD
 70
     2
  9
$DIMALTF
 40
25.4
  9
$DIMLFAC
 40
1.0
  9
$DIMTOFL
 70
     1
  9
$DIMTVP
 40
0.0
  9
$DIMTIX
 70
     0
  9
$DIMSOXD
 70
     0
  9
$DIMSAH
 70
     1
  9
$DIMBLK1
  1
OPEN
  9
$DIMBLK2
  1
OPEN
  9
$DIMSTYLE
  2
STANDARD
  9
$DIMCLRD
 70
     4
  9
$DIMCLRE
 70
     4
  9
$DIMCLRT
 70
     4
  9
$DIMTFAC
 40
1.0
  9
$DIMGAP
 40
2.0
  9
$DIMJUST
 70
     0
  9
$DIMSD1
 70
     0
  9
$DIMSD2
 70
     0
  9
$DIMTOLJ
 70
     1
  9
$DIMTZIN
 70
     0
  9
$DIMALTZ
 70
     0
  9
$DIMALTTZ
 70
     0
  9
$DIMFIT
 70
     3
  9
$DIMUPT
 70
     0
  9
$DIMUNIT
 70
     2
  9
$DIMDEC
 70
     0
  9
$DIMTDEC
 70
     2
  9
$DIMALTU
 70
     2
  9
$DIMALTTD
 70
     2
  9
$DIMTXSTY
  7
STANDARD
  9
$DIMAUNIT
 70
     0
  9
$LUNITS
 70
     2
  9
$LUPREC
 70
     4
  9
$SKETCHINC
 40
1.0
  9
$FILLETRAD
 40
20.0
  9
$AUNITS
 70
     0
  9
$AUPREC
 70
     0
  9
$MENU
  1
.
  9
$ELEVATION
 40
0.0
  9
$PELEVATION
 40
0.0
  9
$THICKNESS
 40
0.0
  9
$LIMCHECK
 70
     0
  9
$BLIPMODE
 70
     0
  9
$CHAMFERA
 40
20.0
  9
$CHAMFERB
 40
20.0
  9
$CHAMFERC
 40
40.0
  9
$CHAMFERD
 40
0.0
  9
$SKPOLY
 70
     0
  9
$TDCREATE
 40
2450994.354346065
  9
$TDUPDATE
 40
2452422.710011111
  9
$TDINDWG
 40
0.0052739583
  9
$TDUSRTIMER
 40
0.0052739583
  9
$USRTIMER
 70
     1
  9
$ANGBASE
 50
0.0
  9
$ANGDIR
 70
     0
  9
$PDMODE
 70
     1
  9
$PDSIZE
 40
0.0
  9
$PLINEWID
 40
0.0
  9
$COORDS
 70
     1
  9
$SPLFRAME
 70
     0
  9
$SPLINETYPE
 70
     6
  9
$SPLINESEGS
 70
     8
  9
$ATTDIA
 70
     0
  9
$ATTREQ
 70
     1
  9
$HANDLING
 70
 10241
  9
$HANDSEED
  5
6A9
  9
$SURFTAB1
 70
     6
  9
$SURFTAB2
 70
     6
  9
$SURFTYPE
 70
     6
  9
$SURFU
 70
     6
  9
$SURFV
 70
     6
  9
$UCSNAME
  2

  9
$UCSORG
 10
0.0
 20
0.0
 30
0.0
  9
$UCSXDIR
 10
1.0
 20
0.0
 30
0.0
  9
$UCSYDIR
 10
0.0
 20
1.0
 30
0.0
  9
$PUCSNAME
  2

  9
$PUCSORG
 10
0.0
 20
0.0
 30
0.0
  9
$PUCSXDIR
 10
1.0
 20
0.0
 30
0.0
  9
$PUCSYDIR
 10
0.0
 20
1.0
 30
0.0
  9
$USERI1
 70
     0
  9
$USERI2
 70
     0
  9
$USERI3
 70
     0
  9
$USERI4
 70
     0
  9
$USERI5
 70
     0
  9
$USERR1
 40
0.0
  9
$USERR2
 40
0.0
  9
$USERR3
 40
0.0
  9
$USERR4
 40
0.0
  9
$USERR5
 40
0.0
  9
$WORLDVIEW
 70
     1
  9
$SHADEDGE
 70
     3
  9
$SHADEDIF
 70
    70
  9
$TILEMODE
 70
     1
  9
$MAXACTVP
 70
    16
  9
$PINSBASE
 10
0.0
 20
0.0
 30
0.0
  9
$PLIMCHECK
 70
     0
  9
$PEXTMIN
 10
0.0
 20
0.0
 30
0.0
  9
$PEXTMAX
 10
420.0
 20
297.0
 30
0.0
  9
$PLIMMIN
 10
0.0
 20
0.0
  9
$PLIMMAX
 10
420.0
 20
297.0
  9
$UNITMODE
 70
     0
  9
$VISRETAIN
 70
     0
  9
$PLINEGEN
 70
     0
  9
$PSLTSCALE
 70
     1
  9
$TREEDEPTH
 70
  3020
  9
$PICKSTYLE
 70
     1
  9
$CMLSTYLE
  2
STANDARD
  9
$CMLJUST
 70
     0
  9
$CMLSCALE
 40
1.0
  9
$SAVEIMAGES
 70
     1
  0
ENDSEC
  0
SECTION
  2
CLASSES
  0
CLASS
  1
ACDBDICTIONARYWDFLT
  2
AcDbDictionaryWithDefault
  3
AutoCAD 2000
 90
    32768
280
     0
281
     0
  0
CLASS
  1
ACDBPLACEHOLDER
  2
AcDbPlaceHolder
  3
AutoCAD 2000
 90
    32768
280
     0
281
     0
  0
CLASS
  1
LAYOUT
  2
AcDbLayout
  3
AutoCAD 2000
 90
    32768
280
     0
281
     0
  0
CLASS
  1
LONG_TRANSACTION
  2
AcDbLongTransaction
  3
AutoCAD 2000
 90
    32768
280
     0
281
     0
  0
CLASS
  1
LWPOLYLINE
  2
AcDbPolyline
  3
AutoCAD 2000
 90
    32768
280
     0
281
     1
  0
CLASS
  1
HATCH
  2
AcDbHatch
  3
AutoCAD 2000
 90
    32768
280
     0
281
     1
  0
CLASS
  1
XRECORD
  2
AcDbXrecord
  3
AutoCAD 2000
 90
    32768
280
     0
281
     0
  0
CLASS
  1
LONG_TRANSACTION
  2
AcDbLongTransaction
  3
AutoCAD 2000
 90
    32768
280
     0
281
     0
  0
CLASS
  1
LWPOLYLINE
  2
AcDbPolyline
  3
AutoCAD 2000
 90
    32768
280
     0
281
     1
  0
CLASS
  1
HATCH
  2
AcDbHatch
  3
AutoCAD 2000
 90
    32768
280
     0
281
     1
  0
CLASS
  1
XRECORD
  2
AcDbXrecord
  3
AutoCAD 2000
 90
    32768
280
     0
281
     0
  0
ENDSEC
  0
SECTION
  2
TABLES
  0
TABLE
  2
VPORT
  5
8
330
0
100
AcDbSymbolTable
 70
     2
  0
VPORT
  5
6A6
330
8
100
AcDbSymbolTableRecord
100
AcDbViewportTableRecord
  2
*ACTIVE
 70
     0
 10
0.0
 20
0.0
 11
1.0
 21
1.0
 12
395.8396650410922
 22
295.1583582388656
 13
0.0
 23
0.0
 14
5.0
 24
5.0
 15
0.0
 25
0.0
 16
0.0
 26
0.0
 36
1.0
 17
0.0
 27
0.0
 37
0.0
 40
621.7393684379125
 41
1.709909909909909
 42
50.0
 43
0.0
 44
0.0
 50
0.0
 51
0.0
 71
     0
 72
   100
 73
     1
 74
     0
 75
     0
 76
     0
 77
     0
 78
     0
  0
ENDTAB
  0
TABLE
  2
LTYPE
  5
5
330
0
100
AcDbSymbolTable
 70
     3
  0
LTYPE
  5
14
330
5
100
AcDbSymbolTableRecord
100
AcDbLinetypeTableRecord
  2
BYBLOCK
 70
     0
  3

 72
    65
 73
     0
 40
0.0
  0
LTYPE
  5
15
330
5
100
AcDbSymbolTableRecord
100
AcDbLinetypeTableRecord
  2
BYLAYER
 70
     0
  3

 72
    65
 73
     0
 40
0.0
  0
LTYPE
  5
16
330
5
100
AcDbSymbolTableRecord
100
AcDbLinetypeTableRecord
  2
CONTINUOUS
 70
     0
  3
Solid line
 72
    65
 73
     0
 40
0.0
  0
LTYPE
  5
115
330
5
100
AcDbSymbolTableRecord
100
AcDbLinetypeTableRecord
  2
PHANTOM
 70
     0
  3
______  __  __  ______  __  __  ______  __  __ 
 72
    65
 73
     6
 40
2.5
 49
1.25
 74
     0
 49
-0.25
 74
     0
 49
0.25
 74
     0
 49
-0.25
 74
     0
 49
0.25
 74
     0
 49
-0.25
 74
     0
  0
LTYPE
  5
135
330
5
100
AcDbSymbolTableRecord
100
AcDbLinetypeTableRecord
  2
CENTER
 70
     0
  3
____ _ ____ _ ____ _ ____ _ ____ _ ____ _ ____ 
 72
    65
 73
     4
 40
2.0
 49
1.25
 74
     0
 49
-0.25
 74
     0
 49
0.25
 74
     0
 49
-0.25
 74
     0
  0
ENDTAB
  0
TABLE
  2
LAYER
  5
2
330
0
100
AcDbSymbolTable
 70
     8
  0
LAYER
  5
F
330
2
100
AcDbSymbolTableRecord
100
AcDbLayerTableRecord
  2
0
 70
     0
 62
     7
  6
CONTINUOUS
  0
LAYER
  5
62
330
2
100
AcDbSymbolTableRecord
100
AcDbLayerTableRecord
  2
VIEWPORT
 70
     0
 62
     7
  6
CONTINUOUS
  0
LAYER
  5
65
330
2
100
AcDbSymbolTableRecord
100
AcDbLayerTableRecord
  2
ZUWAKU
 70
     0
 62
     7
  6
CONTINUOUS
  0
LAYER
  5
170
330
2
100
AcDbSymbolTableRecord
100
AcDbLayerTableRecord
  2
SEIHIN
 70
     0
 62
     3
  6
CONTINUOUS
  0
LAYER
  5
171
330
2
100
AcDbSymbolTableRecord
100
AcDbLayerTableRecord
  2
DEFPOINTS
 70
     0
 62
     7
  6
CONTINUOUS
  0
LAYER
  5
172
330
2
100
AcDbSymbolTableRecord
100
AcDbLayerTableRecord
  2
SUNPOU
 70
     0
 62
     4
  6
CONTINUOUS
  0
LAYER
  5
173
330
2
100
AcDbSymbolTableRecord
100
AcDbLayerTableRecord
  2
CENTER_L
 70
     0
 62
     1
  6
CENTER
  0
LAYER
  5
174
330
2
100
AcDbSymbolTableRecord
100
AcDbLayerTableRecord
  2
NOKITOI
 70
     0
 62
     8
  6
PHANTOM
  0
ENDTAB
  0
TABLE
  2
STYLE
  5
3
330
0
100
AcDbSymbolTable
 70
     1
  0
STYLE
  5
10
330
3
100
AcDbSymbolTableRecord
100
AcDbTextStyleTableRecord
  2
STANDARD
 70
     0
 40
0.0
 41
1.0
 50
0.0
 71
     0
 42
5.0
  3
TXT
  4
bigfont.shx
  0
ENDTAB
  0
TABLE
  2
VIEW
  5
6
330
0
100
AcDbSymbolTable
 70
     0
  0
ENDTAB
  0
TABLE
  2
UCS
  5
7
330
0
100
AcDbSymbolTable
 70
     0
  0
ENDTAB
  0
TABLE
  2
APPID
  5
9
330
0
100
AcDbSymbolTable
 70
     1
  0
APPID
  5
11
330
9
100
AcDbSymbolTableRecord
100
AcDbRegAppTableRecord
  2
ACAD
 70
     0
  0
ENDTAB
  0
TABLE
  2
DIMSTYLE
  5
A
330
0
100
AcDbSymbolTable
 70
     1
  0
DIMSTYLE
105
1D
102
{ACAD_REACTORS
330
3D8
330
3D9
102
}
330
A
100
AcDbSymbolTableRecord
100
AcDbDimStyleTableRecord
  2
STANDARD
 70
     0
  3

  4

  5

  6

  7

 40
1.0
 41
0.18
 42
0.0625
 43
0.38
 44
0.18
 45
0.0
 46
0.0
 47
0.0
 48
0.0
140
0.18
141
0.09
142
0.0
143
25.4
144
1.0
145
0.0
146
1.0
147
0.09
 71
     0
 72
     0
 73
     1
 74
     1
 75
     0
 76
     0
 77
     0
 78
     0
170
     0
171
     2
172
     0
173
     0
174
     0
175
     0
176
     0
177
     0
178
     0
270
     2
271
     4
272
     4
273
     2
274
     2
340
10
275
     0
280
     0
281
     0
282
     0
283
     1
284
     0
285
     0
286
     0
287
     3
288
     0
  0
ENDTAB
  0
TABLE
  2
BLOCK_RECORD
  5
1
330
0
100
AcDbSymbolTable
 70
     3
  0
BLOCK_RECORD
  5
1A
102
{ACAD_XDICTIONARY
360
698
102
}
330
1
100
AcDbSymbolTableRecord
100
AcDbBlockTableRecord
  2
*MODEL_SPACE
  0
BLOCK_RECORD
  5
17
102
{ACAD_XDICTIONARY
360
696
102
}
330
1
100
AcDbSymbolTableRecord
100
AcDbBlockTableRecord
  2
*PAPER_SPACE
  0
BLOCK_RECORD
  5
6D
330
1
100
AcDbSymbolTableRecord
100
AcDbBlockTableRecord
  2
_OPEN
  0
BLOCK_RECORD
  5
637
330
1
100
AcDbSymbolTableRecord
100
AcDbBlockTableRecord
  2
*D1
  0
BLOCK_RECORD
  5
643
330
1
100
AcDbSymbolTableRecord
100
AcDbBlockTableRecord
  2
*D2
  0
ENDTAB
  0
ENDSEC
  0
SECTION
  2
BLOCKS
  0
BLOCK
  5
1B
330
1A
100
AcDbEntity
  8
0
100
AcDbBlockBegin
  2
*MODEL_SPACE
 70
     0
 10
0.0
 20
0.0
 30
0.0
  3
*MODEL_SPACE
  1

  0
ENDBLK
  5
1C
330
1A
100
AcDbEntity
  8
0
100
AcDbBlockEnd
  0
BLOCK
  5
18
330
17
100
AcDbEntity
 67
     1
  8
0
100
AcDbBlockBegin
  2
*PAPER_SPACE
 70
     0
 10
0.0
 20
0.0
 30
0.0
  3
*PAPER_SPACE
  1

  0
ENDBLK
  5
19
330
17
100
AcDbEntity
 67
     1
  8
0
100
AcDbBlockEnd
  0
BLOCK
  5
6E
330
6D
100
AcDbEntity
  8
0
100
AcDbBlockBegin
  2
_OPEN
 70
     0
 10
0.0
 20
0.0
 30
0.0
  3
_OPEN
  1

  0
LINE
  5
6F
330
6D
100
AcDbEntity
  8
0
  6
BYBLOCK
 62
     0
100
AcDbLine
 10
-1.0
 20
0.1666666666666666
 30
0.0
 11
0.0
 21
0.0
 31
0.0
  0
LINE
  5
70
330
6D
100
AcDbEntity
  8
0
  6
BYBLOCK
 62
     0
100
AcDbLine
 10
0.0
 20
0.0
 30
0.0
 11
-1.0
 21
-0.1666666666666666
 31
0.0
  0
LINE
  5
71
330
6D
100
AcDbEntity
  8
0
  6
BYBLOCK
 62
     0
100
AcDbLine
 10
0.0
 20
0.0
 30
0.0
 11
-1.0
 21
0.0
 31
0.0
  0
ENDBLK
  5
72
330
6D
100
AcDbEntity
  8
0
100
AcDbBlockEnd
  0
BLOCK
  5
64F
330
637
100
AcDbEntity
  8
0
100
AcDbBlockBegin
  2
*D1
 70
     1
 10
0.0
 20
0.0
 30
0.0
  3
*D1
  1

  0
LINE
  5
650
330
637
100
AcDbEntity
  8
0
  6
BYBLOCK
 62
     4
100
AcDbLine
 10
322.5722928017143
 20
352.2096828378897
 30
0.0
 11
668.2151200371873
 21
352.2096828378897
 31
0.0
  0
LINE
  5
651
330
637
100
AcDbEntity
  8
0
  6
BYBLOCK
 62
     4
100
AcDbLine
 10
636.5492811320453
 20
241.5697823802849
 30
0.0
 11
668.2151200371873
 21
241.5697823802849
 31
0.0
  0
LINE
  5
652
330
637
100
AcDbEntity
  8
0
  6
BYBLOCK
 62
     4
100
AcDbLine
 10
665.2151200371872
 20
345.2096828378897
 30
0.0
 11
665.2151200371872
 21
248.5697823802849
 31
0.0
  0
INSERT
  5
653
330
637
100
AcDbEntity
  8
0
  6
BYBLOCK
 62
     4
100
AcDbBlockReference
  2
_OPEN
 10
665.2151200371872
 20
352.2096828378897
 30
0.0
 41
7.0
 42
7.0
 43
7.0
 50
90.0
  0
INSERT
  5
654
330
637
100
AcDbEntity
  8
0
  6
BYBLOCK
 62
     4
100
AcDbBlockReference
  2
_OPEN
 10
665.2151200371872
 20
241.5697823802849
 30
0.0
 41
7.0
 42
7.0
 43
7.0
 50
270.0
  0
MTEXT
  5
655
330
637
100
AcDbEntity
  8
0
  6
BYBLOCK
 62
     4
100
AcDbMText
 10
660.2151200371872
 20
296.8897326090873
 30
0.0
 40
6.0
 41
0.0
 71
     5
 72
     1
  1
\A1;111
 11
0.0
 21
1.0
 31
0.0
1001
ACAD
1000
MTEXTBEGIN
1070
    73
1070
     1
1070
    44
1040
1.0
1070
    74
1070
     0
1000
MTEXTEND
1000
MTEXTBEGIN
1070
    73
1070
     1
1070
    44
1040
1.0
1070
    74
1070
     0
1000
MTEXTEND
  0
POINT
  5
656
330
637
100
AcDbEntity
  8
DEFPOINTS
  6
BYBLOCK
 62
     0
100
AcDbPoint
 10
316.5722928017143
 20
352.2096828378897
 30
0.0
  0
POINT
  5
657
330
637
100
AcDbEntity
  8
DEFPOINTS
  6
BYBLOCK
 62
     0
100
AcDbPoint
 10
630.5492811320452
 20
241.5697823802849
 30
0.0
  0
POINT
  5
658
330
637
100
AcDbEntity
  8
DEFPOINTS
  6
BYBLOCK
 62
     0
100
AcDbPoint
 10
665.2151200371872
 20
241.5697823802849
 30
0.0
  0
ENDBLK
  5
659
330
637
100
AcDbEntity
  8
0
100
AcDbBlockEnd
  0
BLOCK
  5
65A
330
643
100
AcDbEntity
  8
0
100
AcDbBlockBegin
  2
*D2
 70
     1
 10
0.0
 20
0.0
 30
0.0
  3
*D2
  1

  0
LINE
  5
65B
330
643
100
AcDbEntity
  8
0
  6
BYBLOCK
 62
     4
100
AcDbLine
 10
273.5492811320454
 20
248.5702823802849
 30
0.0
 11
273.5492811320454
 21
390.6721163495712
 31
0.0
  0
LINE
  5
65C
330
643
100
AcDbEntity
  8
0
  6
BYBLOCK
 62
     4
100
AcDbLine
 10
630.5492811320452
 20
248.5702823802848
 30
0.0
 11
630.5492811320452
 21
390.6721163495712
 31
0.0
  0
LINE
  5
65D
330
643
100
AcDbEntity
  8
0
  6
BYBLOCK
 62
     4
100
AcDbLine
 10
280.5492811320454
 20
387.6721163495712
 30
0.0
 11
623.5492811320453
 21
387.6721163495712
 31
0.0
  0
INSERT
  5
65E
330
643
100
AcDbEntity
  8
0
  6
BYBLOCK
 62
     4
100
AcDbBlockReference
  2
_OPEN
 10
273.5492811320454
 20
387.6721163495712
 30
0.0
 41
7.0
 42
7.0
 43
7.0
 50
180.0
  0
INSERT
  5
65F
330
643
100
AcDbEntity
  8
0
  6
BYBLOCK
 62
     4
100
AcDbBlockReference
  2
_OPEN
 10
630.5492811320452
 20
387.6721163495712
 30
0.0
 41
7.0
 42
7.0
 43
7.0
  0
MTEXT
  5
660
330
643
100
AcDbEntity
  8
0
  6
BYBLOCK
 62
     4
100
AcDbMText
 10
452.0492811320454
 20
392.6721163495712
 30
0.0
 40
6.0
 41
0.0
 71
     5
 72
     1
  1
\A1;357
1001
ACAD
1000
MTEXTBEGIN
1070
    73
1070
     1
1070
    44
1040
1.0
1070
    74
1070
     0
1000
MTEXTEND
1000
MTEXTBEGIN
1070
    73
1070
     1
1070
    44
1040
1.0
1070
    74
1070
     0
1000
MTEXTEND
  0
POINT
  5
661
330
643
100
AcDbEntity
  8
DEFPOINTS
  6
BYBLOCK
 62
     0
100
AcDbPoint
 10
273.5492811320454
 20
242.5702823802849
 30
0.0
  0
POINT
  5
662
330
643
100
AcDbEntity
  8
DEFPOINTS
  6
BYBLOCK
 62
     0
100
AcDbPoint
 10
630.5492811320452
 20
242.5702823802848
 30
0.0
  0
POINT
  5
663
330
643
100
AcDbEntity
  8
DEFPOINTS
  6
BYBLOCK
 62
     0
100
AcDbPoint
 10
630.5492811320452
 20
387.6721163495712
 30
0.0
  0
ENDBLK
  5
664
330
643
100
AcDbEntity
  8
0
100
AcDbBlockEnd
  0
ENDSEC
  0
SECTION
  2
ENTITIES
  0
TEXT
  5
11A
330
1A
100
AcDbEntity
  8
ZUWAKU
 62
     7
 48
10.0
100
AcDbText
 10
795.5579444309237
 20
4.974918402528146
 30
0.0
 40
8.0
  1
A1
100
AcDbText
  0
LINE
  5
11B
330
1A
100
AcDbEntity
  8
ZUWAKU
 62
     7
 48
10.0
100
AcDbLine
 10
10.05047808566086
 20
25.78258628282265
 30
0.0
 11
806.0504780856609
 21
25.78258628282253
 31
0.0
  0
LINE
  5
11C
330
1A
100
AcDbEntity
  8
ZUWAKU
  6
CONTINUOUS
 62
     7
100
AcDbLine
 10
806.0504780856609
 20
563.7825862828226
 30
0.0
 11
10.05047808566086
 21
563.7825862828226
 31
0.0
  0
LINE
  5
11D
330
1A
100
AcDbEntity
  8
ZUWAKU
  6
CONTINUOUS
 62
     7
100
AcDbLine
 10
806.0504780856609
 20
13.78258628282265
 30
0.0
 11
10.05047808566086
 21
13.78258628282265
 31
0.0
  0
LINE
  5
11E
330
1A
100
AcDbEntity
  8
ZUWAKU
  6
CONTINUOUS
 62
     7
100
AcDbLine
 10
10.05047808566086
 20
563.7825862828226
 30
0.0
 11
10.05047808566086
 21
13.78258628282265
 31
0.0
  0
LINE
  5
11F
330
1A
100
AcDbEntity
  8
ZUWAKU
 62
     7
 48
10.0
100
AcDbLine
 10
44.55797523147839
 20
13.78258628282265
 30
0.0
 11
44.5579752314784
 21
25.78258628282265
 31
0.0
  0
TEXT
  5
120
330
1A
100
AcDbEntity
  8
ZUWAKU
 62
     7
100
AcDbText
 10
16.05676551180931
 20
15.52294263804401
 30
0.0
 40
8.0
  1
品 種
100
AcDbText
  0
LINE
  5
121
330
1A
100
AcDbEntity
  8
ZUWAKU
 62
     7
 48
10.0
100
AcDbLine
 10
276.1028387068254
 20
13.78258628282265
 30
0.0
 11
276.1028387068254
 21
25.78258628282261
 31
0.0
  0
LINE
  5
122
330
1A
100
AcDbEntity
  8
ZUWAKU
 62
     7
 48
10.0
100
AcDbLine
 10
209.5138526425484
 20
13.78258628282265
 30
0.0
 11
209.5138526425485
 21
25.78258628282263
 31
0.0
  0
TEXT
  5
123
330
1A
100
AcDbEntity
  8
ZUWAKU
 62
     7
100
AcDbText
 10
282.3131429914078
 20
15.64241700452384
 30
0.0
 40
8.0
  1
隅飾り（入）　型
100
AcDbText
  0
TEXT
  5
124
330
1A
100
AcDbEntity
  8
ZUWAKU
 62
     7
100
AcDbText
 10
215.4560837190756
 20
16.18358115302453
 30
0.0
 40
8.0
  1
品名・ｻ ｲ ｽﾞ
100
AcDbText
  0
TEXT
  5
125
330
1A
100
AcDbEntity
  8
ZUWAKU
 62
     7
100
AcDbText
 10
50.3519382305086
 20
16.10306189639755
 30
0.0
 40
8.0
  1
丸トップ　のきとい
100
AcDbText
  0
LINE
  5
126
330
1A
100
AcDbEntity
  8
ZUWAKU
 62
     7
 48
10.0
100
AcDbLine
 10
768.7231079932794
 20
13.78258628282237
 30
0.0
 11
768.7231079932794
 21
25.78258628282254
 31
0.0
  0
LINE
  5
127
330
1A
100
AcDbEntity
  8
ZUWAKU
 62
     7
 48
10.0
100
AcDbLine
 10
733.8119002376948
 20
13.78258628282242
 30
0.0
 11
733.8119002376946
 21
25.78258628282254
 31
0.0
  0
TEXT
  5
128
330
1A
100
AcDbEntity
  8
ZUWAKU
 62
     7
100
AcDbText
 10
739.6955629973526
 20
15.24227755810852
 30
0.0
 40
8.0
  1
尺 度
100
AcDbText
  0
TEXT
  5
129
330
1A
100
AcDbEntity
  8
ZUWAKU
 62
     7
100
AcDbText
 10
779.7374630323229
 20
15.55488920081529
 30
0.0
 40
8.0
  1
1/2
100
AcDbText
  0
TEXT
  5
12A
330
1A
100
AcDbEntity
  8
ZUWAKU
 62
     7
100
AcDbText
 10
654.2531733678779
 20
15.90287984531518
 30
0.0
 40
8.0
  1
ＧＧ８３
100
AcDbText
  0
TEXT
  5
12B
330
1A
100
AcDbEntity
  8
ZUWAKU
 62
     7
100
AcDbText
 10
620.3363288383084
 20
15.6519090944263
 30
0.0
 40
8.0
  1
品 番
100
AcDbText
  0
LINE
  5
12C
330
1A
100
AcDbEntity
  8
ZUWAKU
 62
     7
 48
10.0
100
AcDbLine
 10
614.3351028194128
 20
13.78258628282232
 30
0.0
 11
614.3351028194128
 21
25.78258628282256
 31
0.0
  0
LINE
  5
12D
330
1A
100
AcDbEntity
  8
ZUWAKU
 62
     7
 48
10.0
100
AcDbLine
 10
648.7607587371021
 20
13.78258628282232
 30
0.0
 11
648.7607587371021
 21
25.78258628282255
 31
0.0
  0
TEXT
  5
12E
330
1A
100
AcDbEntity
  8
ZUWAKU
 62
     7
 48
10.0
100
AcDbText
 10
646.2758615931216
 20
4.949376903717848
 30
0.0
 40
8.0
  1
積水化学工業株式会社  建材
100
AcDbText
  0
LINE
  5
12F
330
1A
100
AcDbEntity
  8
ZUWAKU
  6
CONTINUOUS
 62
     7
100
AcDbLine
 10
806.0504780856609
 20
563.7825862828226
 30
0.0
 11
806.0504780856609
 21
13.78258628282265
 31
0.0
  0
DIMENSION
  5
3D8
330
1A
100
AcDbEntity
  8
SUNPOU
  6
CONTINUOUS
 62
     4
100
AcDbDimension
  2
*D1
 10
667.547576015037
 20
215.9340009627336
 30
0.0
 11
662.547576015037
 21
271.253951191536
 31
0.0
 12
2.332455977849804
 22
-25.63578141755124
 32
0.0
 70
    32
  3
STANDARD
100
AcDbAlignedDimension
 13
318.9047487795641
 23
326.5739014203384
 33
0.0
 14
632.881737109895
 24
215.9340009627336
 34
0.0
 50
90.0
100
AcDbRotatedDimension
1001
ACAD
1000
DSTYLE
1002
{
1070
   140
1040
6.0
1070
    74
1070
     0
1070
   172
1070
     1
1070
    73
1070
     0
1070
   272
1070
     2
1070
    77
1070
     3
1070
   173
1070
     1
1070
   147
1040
2.0
1070
    42
1040
6.0
1070
    44
1040
3.0
1070
    43
1040
14.0
1070
   271
1070
     0
1070
   178
1070
     4
1070
   177
1070
     4
1070
   176
1070
     4
1070
   141
1040
150.0
1070
     7
1000
_OPEN
1070
     6
1000
_OPEN
1070
    41
1040
7.0
1002
}
  0
DIMENSION
  5
3D9
330
1A
100
AcDbEntity
  8
SUNPOU
  6
CONTINUOUS
 62
     4
100
AcDbDimension
  2
*D2
 10
632.881737109895
 20
362.03633493202
 30
0.0
 11
454.3817371098952
 21
367.0363349320199
 31
0.0
 12
2.332455977849804
 22
-25.63578141755124
 32
0.0
 70
    32
  3
STANDARD
100
AcDbAlignedDimension
 13
275.8817371098952
 23
216.9345009627336
 33
0.0
 14
632.881737109895
 24
216.9345009627336
 34
0.0
100
AcDbRotatedDimension
1001
ACAD
1000
DSTYLE
1002
{
1070
   140
1040
6.0
1070
    74
1070
     0
1070
   172
1070
     1
1070
    73
1070
     0
1070
   272
1070
     2
1070
    77
1070
     3
1070
   173
1070
     1
1070
   147
1040
2.0
1070
    42
1040
6.0
1070
    44
1040
3.0
1070
    43
1040
14.0
1070
   271
1070
     0
1070
   178
1070
     4
1070
   177
1070
     4
1070
   176
1070
     4
1070
   141
1040
150.0
1070
     7
1000
_OPEN
1070
     6
1000
_OPEN
1070
    41
1040
7.0
1002
}
  0
LINE
  5
3DA
330
1A
100
AcDbEntity
  8
SEIHIN
  6
CONTINUOUS
100
AcDbLine
 10
294.0860562796832
 20
227.711717183578
 30
0.0
 11
633.0989371098953
 21
215.939956040933
 31
0.0
  0
ARC
  5
3DB
330
1A
100
AcDbEntity
  8
SEIHIN
  6
CONTINUOUS
 62
     3
100
AcDbCircle
 10
436.251434434252
 20
250.4599426421636
 30
0.0
 40
7.726497420465728
100
AcDbArc
 50
257.5857976806012
 51
305.6103537821531
  0
ARC
  5
3DC
330
1A
100
AcDbEntity
  8
SEIHIN
  6
CONTINUOUS
 62
     3
100
AcDbCircle
 10
436.2286708025032
 20
236.3438325267477
 30
0.0
 40
4.736947011762861
100
AcDbArc
 50
212.0669763063479
 51
286.2579599502564
  0
ARC
  5
3DD
330
1A
100
AcDbEntity
  8
SEIHIN
  6
CONTINUOUS
 62
     3
100
AcDbCircle
 10
435.311133488976
 20
249.1648980234833
 30
0.0
 40
2.803921761479388
100
AcDbArc
 50
155.6918118238692
 51
310.6140150401035
  0
ARC
  5
3DE
330
1A
100
AcDbEntity
  8
SEIHIN
  6
CONTINUOUS
 62
     3
100
AcDbCircle
 10
435.3286638379847
 20
255.4701207329917
 30
0.0
 40
4.288985234981188
100
AcDbArc
 50
345.0134919382903
 51
95.62668963868345
  0
ARC
  5
3DF
330
1A
100
AcDbEntity
  8
SEIHIN
  6
CONTINUOUS
 62
     3
100
AcDbCircle
 10
436.251434434252
 20
250.4599426421636
 30
0.0
 40
9.726497420465728
100
AcDbArc
 50
257.5857976806012
 51
305.6103537821531
  0
ARC
  5
3E0
330
1A
100
AcDbEntity
  8
SEIHIN
  6
CONTINUOUS
 62
     3
100
AcDbCircle
 10
436.2286708025032
 20
236.3438325267477
 30
0.0
 40
2.736947011762861
100
AcDbArc
 50
155.4735504276459
 51
286.2579599502564
  0
ARC
  5
3E1
330
1A
100
AcDbEntity
  8
SEIHIN
  6
CONTINUOUS
 62
     3
100
AcDbCircle
 10
430.5266081812855
 20
251.1734560817444
 30
0.0
 40
4.385445488324025
100
AcDbArc
 50
337.5086165128914
 51
72.33716115947173
  0
ARC
  5
3E2
330
1A
100
AcDbEntity
  8
SEIHIN
  6
CONTINUOUS
 62
     3
100
AcDbCircle
 10
435.311133488976
 20
249.1648980234833
 30
0.0
 40
0.8039217614793884
100
AcDbArc
 50
155.6918118238692
 51
310.6140150401035
  0
ARC
  5
3E3
330
1A
100
AcDbEntity
  8
SEIHIN
  6
CONTINUOUS
 62
     3
100
AcDbCircle
 10
435.3286638379847
 20
255.4701207329917
 30
0.0
 40
2.288985234981188
100
AcDbArc
 50
329.4423995211502
 51
114.7831578657305
  0
LINE
  5
3E4
330
1A
100
AcDbEntity
  8
SEIHIN
  6
CONTINUOUS
 62
     3
 48
16.0
100
AcDbLine
 10
449.4205371098953
 20
289.9079560409331
 30
0.0
 11
423.0244371098951
 21
283.3317560409329
 31
0.0
  0
LINE
  5
3E5
330
1A
100
AcDbEntity
  8
SEIHIN
  6
CONTINUOUS
 62
     3
 48
16.0
100
AcDbLine
 10
450.8710371098952
 20
284.0859560409331
 30
0.0
 11
424.4749371098953
 21
277.509756040933
 31
0.0
  0
LINE
  5
3E6
330
1A
100
AcDbEntity
  8
SEIHIN
  6
CONTINUOUS
 62
     3
 48
16.0
100
AcDbLine
 10
451.8380371098952
 20
280.2045560409331
 30
0.0
 11
425.4419371098953
 21
273.628356040933
 31
0.0
  0
LINE
  5
3E7
330
1A
100
AcDbEntity
  8
SEIHIN
  6
CONTINUOUS
 62
     3
 48
16.0
100
AcDbLine
 10
419.3817371098952
 20
194.9343009627336
 30
0.0
 11
436.3817371098952
 21
194.9343009627336
 31
0.0
  0
LINE
  5
3E8
330
1A
100
AcDbEntity
  8
SEIHIN
  6
CONTINUOUS
 62
     3
 48
16.0
100
AcDbLine
 10
419.3817371098952
 20
198.4343009627335
 30
0.0
 11
436.3817371098952
 21
198.4343009627335
 31
0.0
  0
LINE
  5
3E9
330
1A
100
AcDbEntity
  8
SEIHIN
  6
CONTINUOUS
 62
     3
 48
16.0
100
AcDbLine
 10
415.2881371098953
 20
190.9343009627336
 30
0.0
 11
540.5164371098954
 21
190.9341009627336
 31
0.0
  0
LINE
  5
3EA
330
1A
100
AcDbEntity
  8
SEIHIN
  6
CONTINUOUS
 62
     3
 48
16.0
100
AcDbLine
 10
352.8817371098952
 20
215.9342009627335
 30
0.0
 11
632.881737109895
 21
215.9340009627336
 31
0.0
  0
LINE
  5
3EB
330
1A
100
AcDbEntity
  8
SEIHIN
  6
CONTINUOUS
 62
     3
 48
16.0
100
AcDbLine
 10
405.6552371098952
 20
215.9343009627336
 30
0.0
 11
549.5627371098954
 21
215.9341009627335
 31
0.0
  0
LINE
  5
3EC
330
1A
100
AcDbEntity
  8
SEIHIN
  6
CONTINUOUS
 62
     3
 48
16.0
100
AcDbLine
 10
298.1330847205082
 20
227.5711896259636
 30
0.0
 11
321.8848785928879
 21
322.834431626577
 31
0.0
  0
LINE
  5
3ED
330
1A
100
AcDbEntity
  8
SEIHIN
  6
CONTINUOUS
 62
     3
 48
16.0
100
AcDbLine
 10
308.7094131599432
 20
300.1308200590028
 30
0.0
 11
303.8605426724406
 21
297.2173247362976
 31
0.0
  0
LINE
  5
3EE
330
1A
100
AcDbEntity
  8
SEIHIN
  6
CONTINUOUS
100
AcDbLine
 10
310.3457407401033
 20
317.7271425693723
 30
0.0
 11
277.960909605429
 21
216.3342397676545
 31
0.0
  0
LINE
  5
3EF
330
1A
100
AcDbEntity
  8
SEIHIN
  6
CONTINUOUS
100
AcDbLine
 10
316.1622988100047
 20
324.5218207971817
 30
0.0
 11
282.7492727688272
 21
218.8511735468809
 31
0.0
  0
LINE
  5
3F0
330
1A
100
AcDbEntity
  8
SEIHIN
  6
CONTINUOUS
100
AcDbLine
 10
318.9047487795641
 20
326.5739014203385
 30
0.0
 11
284.5084496498841
 21
217.7935955728844
 31
0.0
  0
LINE
  5
3F1
330
1A
100
AcDbEntity
  8
SEIHIN
  6
CONTINUOUS
 62
     3
 48
16.0
100
AcDbLine
 10
294.0860562796832
 20
227.7117171835778
 30
0.0
 11
318.1028902625567
 21
324.0379770059823
 31
0.0
  0
ARC
  5
3F2
330
1A
100
AcDbEntity
  8
SEIHIN
  6
CONTINUOUS
 62
     3
 48
16.0
100
AcDbCircle
 10
419.8817482091005
 20
295.9461367759276
 30
0.0
 40
12.99996518666803
100
AcDbArc
 50
135.9056636492993
 51
283.989610529436
  0
ARC
  5
3F3
330
1A
100
AcDbEntity
  8
SEIHIN
  6
CONTINUOUS
 62
     3
 48
16.0
100
AcDbCircle
 10
419.8817777126877
 20
295.9461120172022
 30
0.0
 40
19.00000058455427
100
AcDbArc
 50
161.3805362145985
 51
283.9895678117894
  0
ARC
  5
3F4
330
1A
100
AcDbEntity
  8
SEIHIN
  6
CONTINUOUS
 62
     3
 48
16.0
100
AcDbCircle
 10
419.8817358177056
 20
295.946157213099
 30
0.0
 40
23.00000190369553
100
AcDbArc
 50
171.5869334506754
 51
283.989723593845
  0
ARC
  5
3F5
330
1A
100
AcDbEntity
  8
NOKITOI
  6
PHANTOM
 62
     8
 48
5.0
100
AcDbCircle
 10
173.4801240892605
 20
213.5609499973442
 30
0.0
 40
1.00000937204284
100
AcDbArc
 50
234.9019026358805
 51
54.90659048869822
  0
LINE
  5
3F6
330
1A
100
AcDbEntity
  8
NOKITOI
  6
PHANTOM
 62
     8
 48
5.0
100
AcDbLine
 10
163.8178406173258
 20
215.560973518108
 30
0.0
 11
222.9678406173257
 21
215.560973518108
 31
0.0
  0
ARC
  5
3F7
330
1A
100
AcDbEntity
  8
NOKITOI
  6
PHANTOM
 62
     8
 48
5.0
100
AcDbCircle
 10
172.7539257033133
 20
203.2609856357547
 30
0.0
 40
0.9999878824644465
100
AcDbArc
 50
11.81137378046217
 51
89.99914547966552
  0
LINE
  5
3F8
330
1A
100
AcDbEntity
  8
NOKITOI
  6
PHANTOM
 62
     8
 48
5.0
100
AcDbLine
 10
171.8178406173258
 20
210.5609735181079
 30
0.0
 11
174.5604406173259
 21
210.5609735181079
 31
0.0
  0
ARC
  5
3F9
330
1A
100
AcDbEntity
  8
NOKITOI
  6
PHANTOM
 62
     8
 48
5.0
100
AcDbCircle
 10
171.8746735312076
 20
201.260973518108
 30
0.0
 40
1.0
100
AcDbArc
 50
13.74741579864491
 51
89.99999999999674
  0
CIRCLE
  5
3FA
330
1A
100
AcDbEntity
  8
NOKITOI
  6
PHANTOM
 62
     8
 48
5.0
100
AcDbCircle
 10
170.2062406173256
 20
208.7610855180046
 30
0.0
 40
2.7
  0
ARC
  5
3FB
330
1A
100
AcDbEntity
  8
NOKITOI
  6
PHANTOM
 62
     8
 48
5.0
100
AcDbCircle
 10
170.2062406173256
 20
208.7610855180046
 30
0.0
 40
4.000029
100
AcDbArc
 50
185.413851
 51
319.252818
  0
ARC
  5
3FC
330
1A
100
AcDbEntity
  8
NOKITOI
  6
PHANTOM
 62
     8
 48
5.0
100
AcDbCircle
 10
222.9681758965405
 20
213.7609682335801
 30
0.0
 40
49.09999471661701
100
AcDbArc
 50
191.1560950181554
 51
269.9996087558851
  0
ARC
  5
3FD
330
1A
100
AcDbEntity
  8
NOKITOI
  6
PHANTOM
 62
     8
 48
5.0
100
AcDbCircle
 10
222.9677964791643
 20
213.7609387621463
 30
0.0
 40
52.29996524406814
100
AcDbArc
 50
193.5580613820404
 51
346.4364699695414
  0
ARC
  5
3FE
330
1A
100
AcDbEntity
  8
NOKITOI
  6
PHANTOM
 62
     8
 48
5.0
100
AcDbCircle
 10
222.9677964791643
 20
213.7609387621463
 30
0.0
 40
51.59996524406814
100
AcDbArc
 50
193.7474157986453
 51
346.2525842013545
  0
ARC
  5
3FF
330
1A
100
AcDbEntity
  8
NOKITOI
  6
PHANTOM
 62
     8
 48
5.0
100
AcDbCircle
 10
170.3178406173258
 20
209.060973518108
 30
0.0
 40
6.5
100
AcDbArc
 50
0.0
 51
180.0
  0
ARC
  5
400
330
1A
100
AcDbEntity
  8
NOKITOI
  6
PHANTOM
 62
     8
 48
5.0
100
AcDbCircle
 10
170.2062406173256
 20
208.7610855180046
 30
0.0
 40
3.999994
100
AcDbArc
 50
5.413986
 51
185.413851
  0
ARC
  5
401
330
1A
100
AcDbEntity
  8
NOKITOI
  6
PHANTOM
 62
     8
 48
5.0
100
AcDbCircle
 10
170.3178406173258
 20
209.060973518108
 30
0.0
 40
4.5
100
AcDbArc
 50
0.0
 51
180.0
  0
LINE
  5
402
330
1A
100
AcDbEntity
  8
NOKITOI
  6
PHANTOM
 62
     8
 48
5.0
100
AcDbLine
 10
171.3177406173258
 20
204.260973518108
 30
0.0
 11
171.8178406173258
 21
210.5609735181079
 31
0.0
  0
ARC
  5
403
330
1A
100
AcDbEntity
  8
NOKITOI
  6
PHANTOM
 62
     8
 48
5.0
100
AcDbCircle
 10
170.3178406173258
 20
208.760973518108
 30
0.0
 40
4.5
100
AcDbArc
 50
180.0
 51
270.0
  0
ARC
  5
404
330
1A
100
AcDbEntity
  8
NOKITOI
  6
PHANTOM
 62
     8
 48
5.0
100
AcDbCircle
 10
170.3178406173258
 20
208.760973518108
 30
0.0
 40
6.5
100
AcDbArc
 50
180.0
 51
270.0
  0
ARC
  5
405
330
1A
100
AcDbEntity
  8
NOKITOI
  6
PHANTOM
 62
     8
 48
5.0
100
AcDbCircle
 10
171.1543306674641
 20
201.2609813531694
 30
0.0
 40
0.9999921649880304
100
AcDbArc
 50
13.5617978218313
 51
89.99942991044838
  0
LINE
  5
406
330
1A
100
AcDbEntity
  8
NOKITOI
  6
PHANTOM
 62
     8
 48
5.0
100
AcDbLine
 10
170.3178406173258
 20
202.260973518108
 30
0.0
 11
171.8746735312077
 21
202.260973518108
 31
0.0
  0
LINE
  5
407
330
1A
100
AcDbEntity
  8
NOKITOI
  6
PHANTOM
 62
     8
 48
5.0
100
AcDbLine
 10
170.3178406173258
 20
204.260973518108
 30
0.0
 11
172.7539406173258
 21
204.260973518108
 31
0.0
  0
LINE
  5
408
330
1A
100
AcDbEntity
  8
NOKITOI
  6
PHANTOM
 62
     8
 48
5.0
100
AcDbLine
 10
163.8178406173258
 20
208.760973518108
 30
0.0
 11
163.8178406173258
 21
209.060973518108
 31
0.0
  0
LINE
  5
409
330
1A
100
AcDbEntity
  8
NOKITOI
  6
PHANTOM
 62
     8
 48
5.0
100
AcDbLine
 10
163.8178406173258
 20
209.060973518108
 30
0.0
 11
163.8178406173258
 21
215.560973518108
 31
0.0
  0
LINE
  5
40A
330
1A
100
AcDbEntity
  8
NOKITOI
  6
PHANTOM
 62
     8
 48
5.0
100
AcDbLine
 10
165.8178406173258
 20
209.060973518108
 30
0.0
 11
165.8178406173258
 21
208.760973518108
 31
0.0
  0
LINE
  5
40B
330
1A
100
AcDbEntity
  8
NOKITOI
  6
PHANTOM
 62
     8
 48
5.0
100
AcDbLine
 10
316.9678406173257
 20
202.260973518108
 30
0.0
 11
274.0609194271208
 21
202.260973518108
 31
0.0
  0
LINE
  5
40C
330
1A
100
AcDbEntity
  8
NOKITOI
  6
PHANTOM
 62
     8
 48
5.0
100
AcDbLine
 10
311.9678406173257
 20
161.460973518108
 30
0.0
 11
286.1178406173259
 21
161.460973518108
 31
0.0
  0
LINE
  5
40D
330
1A
100
AcDbEntity
  8
NOKITOI
  6
PHANTOM
 62
     8
 48
5.0
100
AcDbLine
 10
316.9680406173259
 20
215.560973518108
 30
0.0
 11
222.9678406173257
 21
215.560973518108
 31
0.0
  0
LINE
  5
40E
330
1A
100
AcDbEntity
  8
SEIHIN
  6
CONTINUOUS
100
AcDbLine
 10
304.4448526002475
 20
280.8436348303723
 30
0.0
 11
302.5042611476956
 21
281.3274786215716
 31
0.0
  0
LINE
  5
40F
330
1A
100
AcDbEntity
  8
SEIHIN
  6
CONTINUOUS
 62
     3
 48
16.0
100
AcDbLine
 10
304.5572523488239
 20
286.999368874139
 30
0.0
 11
299.7083818613213
 21
284.0858735514338
 31
0.0
  0
LINE
  5
410
330
1A
100
AcDbEntity
  8
SEIHIN
  6
CONTINUOUS
 62
     3
 48
16.0
100
AcDbLine
 10
307.8817371098952
 20
217.9345009627335
 30
0.0
 11
285.8817371098952
 21
217.9345009627335
 31
0.0
  0
LINE
  5
411
330
1A
100
AcDbEntity
  8
SEIHIN
  6
CONTINUOUS
 62
     3
 48
16.0
100
AcDbLine
 10
275.8817371098952
 20
201.9345009627336
 30
0.0
 11
366.8816371098952
 21
201.9344009627336
 31
0.0
  0
LINE
  5
412
330
1A
100
AcDbEntity
  8
SEIHIN
  6
CONTINUOUS
 62
     3
 48
16.0
100
AcDbLine
 10
275.8814371098953
 20
216.9345009627336
 30
0.0
 11
307.8817371098952
 21
216.9345009627336
 31
0.0
  0
LINE
  5
413
330
1A
100
AcDbEntity
  8
CENTER_L
  6
CENTER
 48
5.0
100
AcDbLine
 10
222.9653005700019
 20
154.460973570604
 30
0.0
 11
222.965300570002
 21
222.560973518108
 31
0.0
  0
LINE
  5
414
330
1A
100
AcDbEntity
  8
NOKITOI
  6
PHANTOM
 62
     8
 48
5.0
100
AcDbLine
 10
271.1178406173257
 20
209.060973518108
 30
0.0
 11
271.1178406173257
 21
204.2487735181079
 31
0.0
  0
LINE
  5
415
330
1A
100
AcDbEntity
  8
NOKITOI
  6
PHANTOM
 62
     8
 48
5.0
100
AcDbLine
 10
274.6178406173259
 20
204.260973518108
 30
0.0
 11
274.1178406173259
 21
210.5609735181079
 31
0.0
  0
LINE
  5
416
330
1A
100
AcDbEntity
  8
NOKITOI
  6
PHANTOM
 62
     8
 48
5.0
100
AcDbLine
 10
268.2947406173257
 20
207.6359735181079
 30
0.0
 11
268.1178406173257
 21
200.560973518108
 31
0.0
  0
LINE
  5
417
330
1A
100
AcDbEntity
  8
NOKITOI
  6
PHANTOM
 62
     8
 48
5.0
100
AcDbLine
 10
269.1178406173257
 20
209.060973518108
 30
0.0
 11
269.1178406173257
 21
203.1344735181079
 31
0.0
  0
ARC
  5
418
330
1A
100
AcDbEntity
  8
NOKITOI
  6
PHANTOM
 62
     8
 48
5.0
100
AcDbCircle
 10
275.6178406173257
 20
208.760973518108
 30
0.0
 40
4.5
100
AcDbArc
 50
270.0
 51
0.0
  0
ARC
  5
419
330
1A
100
AcDbEntity
  8
NOKITOI
  6
PHANTOM
 62
     8
 48
5.0
100
AcDbCircle
 10
275.6178406173258
 20
208.760973518108
 30
0.0
 40
6.500000000000056
100
AcDbArc
 50
269.9999999999994
 51
359.9999999999994
  0
LINE
  5
41A
330
1A
100
AcDbEntity
  8
NOKITOI
  6
PHANTOM
 62
     8
 48
5.0
100
AcDbLine
 10
176.8178406173258
 20
209.060973518108
 30
0.0
 11
176.8178406173258
 21
203.1344735181079
 31
0.0
  0
LINE
  5
41B
330
1A
100
AcDbEntity
  8
NOKITOI
  6
PHANTOM
 62
     8
 48
5.0
100
AcDbLine
 10
177.6409406173257
 20
207.6359735181079
 30
0.0
 11
177.8178406173258
 21
200.560973518108
 31
0.0
  0
LINE
  5
41C
330
1A
100
AcDbEntity
  8
NOKITOI
  6
PHANTOM
 62
     8
 48
5.0
100
AcDbLine
 10
174.8178406173258
 20
209.060973518108
 30
0.0
 11
174.8178406173258
 21
204.2487735181079
 31
0.0
  0
ARC
  5
41D
330
1A
100
AcDbEntity
  8
NOKITOI
  6
PHANTOM
 62
     8
 48
5.0
100
AcDbCircle
 10
222.9678406173257
 20
213.7609855180045
 30
0.0
 40
50.300012
100
AcDbArc
 50
188.6764639999999
 51
351.2914929999999
  0
ARC
  5
41E
330
1A
100
AcDbEntity
  8
NOKITOI
  6
PHANTOM
 62
     8
 48
5.0
100
AcDbCircle
 10
222.9678406173257
 20
213.7609855180045
 30
0.0
 40
49.00000099999999
100
AcDbArc
 50
185.413376
 51
354.5863799999999
  0
LINE
  5
41F
330
1A
100
AcDbEntity
  8
NOKITOI
  6
PHANTOM
 62
     8
 48
5.0
100
AcDbLine
 10
213.8176406173259
 20
215.5608735181079
 30
0.0
 11
213.8176406173259
 21
184.7606735181079
 31
0.0
  0
LINE
  5
420
330
1A
100
AcDbEntity
  8
NOKITOI
  6
PHANTOM
 62
     8
 48
5.0
100
AcDbLine
 10
181.5678406173258
 20
215.560973518108
 30
0.0
 11
181.8178406173258
 21
190.0349735181079
 31
0.0
  0
LINE
  5
421
330
1A
100
AcDbEntity
  8
NOKITOI
  6
PHANTOM
 62
     8
 48
5.0
100
AcDbLine
 10
193.8176406173259
 20
215.560973518108
 30
0.0
 11
193.8176406173259
 21
184.7607735181078
 31
0.0
  0
LINE
  5
422
330
1A
100
AcDbEntity
  8
NOKITOI
  6
PHANTOM
 62
     8
 48
5.0
100
AcDbLine
 10
179.8178406173258
 20
200.560973518108
 30
0.0
 11
180.0514406173258
 21
214.5776735181079
 31
0.0
  0
LINE
  5
423
330
1A
100
AcDbEntity
  8
NOKITOI
  6
PHANTOM
 62
     8
 48
5.0
100
AcDbLine
 10
264.3678406173257
 20
215.560973518108
 30
0.0
 11
264.1178406173257
 21
190.0349735181079
 31
0.0
  0
ARC
  5
424
330
1A
100
AcDbEntity
  8
NOKITOI
  6
PHANTOM
 62
     8
 48
5.0
100
AcDbCircle
 10
275.7294406173256
 20
208.7608855180045
 30
0.0
 40
3.999994
100
AcDbArc
 50
220.269583
 51
121.7840119999999
  0
LINE
  5
425
330
1A
100
AcDbEntity
  8
NOKITOI
  6
PHANTOM
 62
     8
 48
5.0
100
AcDbLine
 10
266.1178406173259
 20
200.560973518108
 30
0.0
 11
265.8842406173259
 21
214.5776735181079
 31
0.0
  0
ARC
  5
426
330
1A
100
AcDbEntity
  8
SEIHIN
  6
CONTINUOUS
 62
     3
 48
16.0
100
AcDbCircle
 10
276.1495615294954
 20
208.5080976691093
 30
0.0
 40
6.49998440115606
100
AcDbArc
 50
203.9768822531181
 51
220.37851465736
  0
ARC
  5
427
330
1A
100
AcDbEntity
  8
SEIHIN
  6
CONTINUOUS
 62
     3
 48
16.0
100
AcDbCircle
 10
275.1520996828117
 20
208.5777277877361
 30
0.0
 40
6.500018011865139
100
AcDbArc
 50
81.58851448078154
 51
220.377404172247
  0
ARC
  5
428
330
1A
100
AcDbEntity
  8
SEIHIN
  6
CONTINUOUS
 62
     3
 48
16.0
100
AcDbCircle
 10
264.9064972429187
 20
209.7078969036438
 30
0.0
 40
15.00004405063481
100
AcDbArc
 50
293.957520319492
 51
351.8703086395809
  0
ARC
  5
429
330
1A
100
AcDbEntity
  8
SEIHIN
  6
CONTINUOUS
 62
     3
 48
16.0
100
AcDbCircle
 10
265.9040134784347
 20
209.6380578697076
 30
0.0
 40
17.0000435737679
100
AcDbArc
 50
291.1514576434095
 51
351.4956723868834
  0
ARC
  5
42A
330
1A
100
AcDbEntity
  8
SEIHIN
  6
CONTINUOUS
 62
     3
 48
16.0
100
AcDbCircle
 10
265.9040484846776
 20
209.6381039854484
 30
0.0
 40
15.00004916480372
100
AcDbArc
 50
293.9574850163936
 51
351.8706533032655
  0
ARC
  5
42B
330
1A
100
AcDbEntity
  8
SEIHIN
  6
CONTINUOUS
 62
     3
 48
16.0
100
AcDbCircle
 10
276.1496617824799
 20
208.5079498763718
 30
0.0
 40
4.499994007215229
100
AcDbArc
 50
1.362961499375959
 51
227.4928527292565
  0
LINE
  5
42C
330
1A
100
AcDbEntity
  8
SEIHIN
  6
CONTINUOUS
 62
     3
 48
16.0
100
AcDbLine
 10
261.5326510668309
 20
213.0490098458706
 30
0.0
 11
260.0189759370507
 21
191.4018889996359
 31
0.0
  0
LINE
  5
42D
330
1A
100
AcDbEntity
  8
SEIHIN
  6
CONTINUOUS
 62
     3
 48
16.0
100
AcDbLine
 10
259.5375613222056
 20
213.1886125352806
 30
0.0
 11
257.8983456921298
 21
189.7458236705121
 31
0.0
  0
LINE
  5
42E
330
1A
100
AcDbEntity
  8
SEIHIN
  6
CONTINUOUS
 62
     3
 48
16.0
100
AcDbLine
 10
275.8817371098952
 20
216.9345009627336
 30
0.0
 11
275.8817371098952
 21
201.9345009627336
 31
0.0
  0
LINE
  5
42F
330
1A
100
AcDbEntity
  8
NOKITOI
  6
PHANTOM
 62
     8
 48
5.0
100
AcDbLine
 10
282.1178406173259
 20
163.4609735181079
 30
0.0
 11
237.2926406173257
 21
163.4609735181079
 31
0.0
  0
LINE
  5
430
330
1A
100
AcDbEntity
  8
NOKITOI
  6
PHANTOM
 62
     8
 48
5.0
100
AcDbLine
 10
213.8176406173259
 20
204.260973518108
 30
0.0
 11
264.2572406173257
 21
204.260973518108
 31
0.0
  0
ARC
  5
431
330
1A
100
AcDbEntity
  8
NOKITOI
  6
PHANTOM
 62
     8
 48
5.0
100
AcDbCircle
 10
222.9679214654081
 20
213.7610050143568
 30
0.0
 40
49.10001206136158
100
AcDbArc
 50
271.8056629506491
 51
310.7632598341007
  0
ARC
  5
432
330
1A
100
AcDbEntity
  8
NOKITOI
  6
PHANTOM
 62
     8
 48
5.0
100
AcDbCircle
 10
222.9677788393152
 20
213.7609494452581
 30
0.0
 40
47.50000500372177
100
AcDbArc
 50
273.6210443326267
 51
308.9575467068896
  0
ARC
  5
433
330
1A
100
AcDbEntity
  8
NOKITOI
  6
PHANTOM
 62
     8
 48
5.0
100
AcDbCircle
 10
222.9678426552571
 20
213.7609751739686
 30
0.0
 40
50.30000165596412
100
AcDbArc
 50
191.8041905809823
 51
348.1892359232529
  0
LINE
  5
434
330
1A
100
AcDbEntity
  8
NOKITOI
  6
PHANTOM
 62
     8
 48
5.0
100
AcDbLine
 10
193.8176406173259
 20
184.7607735181078
 30
0.0
 11
213.8176406173259
 21
184.7607735181078
 31
0.0
  0
ARC
  5
435
330
1A
100
AcDbEntity
  8
NOKITOI
  6
PHANTOM
 62
     8
 48
5.0
100
AcDbCircle
 10
222.9678481234435
 20
213.7609705931839
 30
0.0
 40
47.50003531340853
100
AcDbArc
 50
231.0422568016258
 51
266.3787818483508
  0
ARC
  5
436
330
1A
100
AcDbEntity
  8
NOKITOI
  6
PHANTOM
 62
     8
 48
5.0
100
AcDbCircle
 10
186.9150401807517
 20
182.6811686640948
 30
0.0
 40
1.499979023186468
100
AcDbArc
 50
128.9573582808601
 51
220.7635754195977
  0
ARC
  5
437
330
1A
100
AcDbEntity
  8
NOKITOI
  6
PHANTOM
 62
     8
 48
5.0
100
AcDbCircle
 10
222.9680270057286
 20
213.7607596902114
 30
0.0
 40
49.09999055997529
100
AcDbArc
 50
217.1554408655358
 51
224.9995872528673
  0
ARC
  5
438
330
1A
100
AcDbEntity
  8
NOKITOI
  6
PHANTOM
 62
     8
 48
5.0
100
AcDbCircle
 10
222.9672938954363
 20
213.7614812406043
 30
0.0
 40
49.09998238925631
100
AcDbArc
 50
225.000787547806
 51
229.2372740037126
  0
LINE
  5
439
330
1A
100
AcDbEntity
  8
NOKITOI
  6
PHANTOM
 62
     8
 48
5.0
100
AcDbLine
 10
193.1024406173257
 20
176.8244735181079
 30
0.0
 11
193.0544406173259
 21
176.7650735181079
 31
0.0
  0
ARC
  5
43A
330
1A
100
AcDbEntity
  8
NOKITOI
  6
PHANTOM
 62
     8
 48
5.0
100
AcDbCircle
 10
191.8880357633129
 20
177.7081730815338
 30
0.0
 40
1.499979023186437
100
AcDbArc
 50
229.236424580397
 51
321.0426417191332
  0
ARC
  5
43B
330
1A
100
AcDbEntity
  8
NOKITOI
  6
PHANTOM
 62
     8
 48
5.0
100
AcDbCircle
 10
194.2208458821878
 20
175.8219303009649
 30
0.0
 40
1.500006789964668
100
AcDbArc
 50
141.0413549599772
 51
232.8478198522106
  0
LINE
  5
43C
330
1A
100
AcDbEntity
  8
NOKITOI
  6
PHANTOM
 62
     8
 48
5.0
100
AcDbLine
 10
181.6784406173258
 20
204.260973518108
 30
0.0
 11
193.8176406173259
 21
204.260973518108
 31
0.0
  0
ARC
  5
43D
330
1A
100
AcDbEntity
  8
NOKITOI
  6
PHANTOM
 62
     8
 48
5.0
100
AcDbCircle
 10
222.9678731261854
 20
213.7609014479554
 30
0.0
 40
49.09999659715498
100
AcDbArc
 50
191.4057773227854
 51
217.151689992331
  0
ARC
  5
43E
330
1A
100
AcDbEntity
  8
NOKITOI
  6
PHANTOM
 62
     8
 48
5.0
100
AcDbCircle
 10
222.9679570621968
 20
213.7607421798154
 30
0.0
 40
47.49999285179987
100
AcDbArc
 50
194.4792194783891
 51
218.9572589984514
  0
LINE
  5
43F
330
1A
100
AcDbEntity
  8
NOKITOI
  6
PHANTOM
 62
     8
 48
5.0
100
AcDbLine
 10
185.9719406173258
 20
183.8475735181079
 30
0.0
 11
186.0313406173259
 21
183.8955735181079
 31
0.0
  0
ARC
  5
440
330
1A
100
AcDbEntity
  8
NOKITOI
  6
PHANTOM
 62
     8
 48
5.0
100
AcDbCircle
 10
185.028797400183
 20
185.0139787829699
 30
0.0
 40
1.500006789964711
100
AcDbArc
 50
217.1521801477904
 51
308.958645040019
  0
ARC
  5
441
330
1A
100
AcDbEntity
  8
NOKITOI
  6
PHANTOM
 62
     8
 48
5.0
100
AcDbCircle
 10
181.8178514913022
 20
203.1343879212333
 30
0.0
 40
5.000010874709031
100
AcDbArc
 50
179.9990191342023
 51
194.4788339685629
  0
ARC
  5
442
330
1A
100
AcDbEntity
  8
NOKITOI
  6
PHANTOM
 62
     8
 48
5.0
100
AcDbCircle
 10
175.8178688490289
 20
204.2484908647436
 30
0.0
 40
1.000028271648303
100
AcDbArc
 50
179.9838056127879
 51
191.3914912682462
  0
LINE
  5
443
330
1A
100
AcDbEntity
  8
NOKITOI
  6
PHANTOM
 62
     8
 48
5.0
100
AcDbLine
 10
177.8178406173258
 20
200.560973518108
 30
0.0
 11
179.8178406173258
 21
200.560973518108
 31
0.0
  0
LINE
  5
444
330
1A
100
AcDbEntity
  8
NOKITOI
  6
PHANTOM
 62
     8
 48
5.0
100
AcDbLine
 10
177.7253406173258
 20
204.260973518108
 30
0.0
 11
179.8794406173258
 21
204.260973518108
 31
0.0
  0
ARC
  5
445
330
1A
100
AcDbEntity
  8
NOKITOI
  6
PHANTOM
 62
     8
 48
5.0
100
AcDbCircle
 10
221.4678136051726
 20
166.1846013959394
 30
0.0
 40
1.499972988105894
100
AcDbArc
 50
180.0010648739035
 51
268.1939732995473
  0
ARC
  5
446
330
1A
100
AcDbEntity
  8
NOKITOI
  6
PHANTOM
 62
     8
 48
5.0
100
AcDbCircle
 10
218.4678272007791
 20
166.374161316024
 30
0.0
 40
1.500013416596351
100
AcDbArc
 50
264.5722656591071
 51
0.0004660811056378
  0
ARC
  5
447
330
1A
100
AcDbEntity
  8
NOKITOI
  6
PHANTOM
 62
     8
 48
5.0
100
AcDbCircle
 10
222.9673053628891
 20
213.760965083301
 30
0.0
 40
49.09999156712229
100
AcDbArc
 50
270.0005079072612
 51
271.8063830044582
  0
ARC
  5
448
330
1A
100
AcDbEntity
  8
NOKITOI
  6
PHANTOM
 62
     8
 48
5.0
100
AcDbCircle
 10
224.4678692045374
 20
166.184603019508
 30
0.0
 40
1.499971413078628
100
AcDbArc
 50
271.8021467179173
 51
359.9988731080437
  0
ARC
  5
449
330
1A
100
AcDbEntity
  8
NOKITOI
  6
PHANTOM
 62
     8
 48
5.0
100
AcDbCircle
 10
227.4678493056088
 20
166.3741656157594
 30
0.0
 40
1.500008688303761
100
AcDbArc
 50
179.999698154269
 51
275.4240960311136
  0
ARC
  5
44A
330
1A
100
AcDbEntity
  8
NOKITOI
  6
PHANTOM
 62
     8
 48
5.0
100
AcDbCircle
 10
222.9678999077884
 20
213.7611049608696
 30
0.0
 40
49.09996663332586
100
AcDbArc
 50
322.8479855562002
 51
348.5938543120192
  0
LINE
  5
44B
330
1A
100
AcDbEntity
  8
SEIHIN
  6
CONTINUOUS
 62
     3
 48
16.0
100
AcDbLine
 10
267.5264696348285
 20
201.4154061473631
 30
0.0
 11
271.5085703837964
 21
201.4849134496365
 31
0.0
  0
LINE
  5
44C
330
1A
100
AcDbEntity
  8
SEIHIN
  6
CONTINUOUS
 62
     3
 48
16.0
100
AcDbLine
 10
270.9406876643759
 20
191.1480476215925
 30
0.0
 11
272.1514616825805
 21
192.7399202976696
 31
0.0
  0
ARC
  5
44D
330
1A
100
AcDbEntity
  8
SEIHIN
  6
CONTINUOUS
 62
     3
 48
16.0
100
AcDbCircle
 10
273.2130952773596
 20
193.1888189033658
 30
0.0
 40
2.999982633282492
100
AcDbArc
 50
113.9570266522404
 51
223.0070024810582
  0
ARC
  5
44E
330
1A
100
AcDbEntity
  8
SEIHIN
  6
CONTINUOUS
 62
     3
 48
16.0
100
AcDbCircle
 10
270.8170137382605
 20
203.9732907955163
 30
0.0
 40
0.4999958788924721
100
AcDbArc
 50
270.9998773545596
 51
40.37909186696101
  0
ARC
  5
44F
330
1A
100
AcDbEntity
  8
SEIHIN
  6
CONTINUOUS
 62
     3
 48
16.0
100
AcDbCircle
 10
270.9544714438496
 20
203.9227569672383
 30
0.0
 40
2.499959301610947
100
AcDbArc
 50
259.1921052440939
 51
30.47349281235322
  0
ARC
  5
450
330
1A
100
AcDbEntity
  8
NOKITOI
  6
PHANTOM
 62
     8
 48
5.0
100
AcDbCircle
 10
259.0206410538998
 20
182.6811686640948
 30
0.0
 40
1.499979023186486
100
AcDbArc
 50
319.2364245804014
 51
51.04264171913752
  0
ARC
  5
451
330
1A
100
AcDbEntity
  8
NOKITOI
  6
PHANTOM
 62
     8
 48
5.0
100
AcDbCircle
 10
222.9678084559026
 20
213.7609366223583
 30
0.0
 40
49.09993590308823
100
AcDbArc
 50
314.9998919540671
 51
322.8439589158172
  0
ARC
  5
452
330
1A
100
AcDbEntity
  8
NOKITOI
  6
PHANTOM
 62
     8
 48
5.0
100
AcDbCircle
 10
254.0476454713388
 20
177.7081730815337
 30
0.0
 40
1.499979023186371
100
AcDbArc
 50
218.9573582808658
 51
310.763575419602
  0
LINE
  5
453
330
1A
100
AcDbEntity
  8
NOKITOI
  6
PHANTOM
 62
     8
 48
5.0
100
AcDbLine
 10
252.8332406173258
 20
176.8244735181079
 30
0.0
 11
252.8812406173258
 21
176.7650735181079
 31
0.0
  0
ARC
  5
454
330
1A
100
AcDbEntity
  8
NOKITOI
  6
PHANTOM
 62
     8
 48
5.0
100
AcDbCircle
 10
251.7148353524639
 20
175.8219303009651
 30
0.0
 40
1.500006789964745
100
AcDbArc
 50
307.1521801477866
 51
38.95864504001526
  0
ARC
  5
455
330
1A
100
AcDbEntity
  8
NOKITOI
  6
PHANTOM
 62
     8
 48
5.0
100
AcDbCircle
 10
222.9682837835456
 20
213.7613850695085
 30
0.0
 40
49.09998761094126
100
AcDbArc
 50
310.7627262216624
 51
314.9992122268216
  0
ARC
  5
456
330
1A
100
AcDbEntity
  8
NOKITOI
  6
PHANTOM
 62
     8
 48
5.0
100
AcDbCircle
 10
222.9678754500985
 20
213.7610427188402
 30
0.0
 40
47.49997153104919
100
AcDbArc
 50
321.0420988931393
 51
345.5201503100291
  0
ARC
  5
457
330
1A
100
AcDbEntity
  8
SEIHIN
  6
CONTINUOUS
 62
     3
 48
16.0
100
AcDbCircle
 10
272.2155262128573
 20
193.2585232184982
 30
0.0
 40
2.999982633282487
100
AcDbArc
 50
113.957026652239
 51
223.0070024810568
  0
LINE
  5
458
330
1A
100
AcDbEntity
  8
NOKITOI
  6
PHANTOM
 62
     8
 48
5.0
100
AcDbLine
 10
259.9637406173257
 20
183.8475735181079
 30
0.0
 11
259.9043406173259
 21
183.8955735181079
 31
0.0
  0
ARC
  5
459
330
1A
100
AcDbEntity
  8
NOKITOI
  6
PHANTOM
 62
     8
 48
5.0
100
AcDbCircle
 10
260.9068287504651
 20
185.0139720726884
 30
0.0
 40
1.499966937967602
100
AcDbArc
 50
231.042829945087
 51
322.8469879763837
  0
ARC
  5
45A
330
1A
100
AcDbEntity
  8
SEIHIN
  6
CONTINUOUS
 62
     3
 48
16.0
100
AcDbCircle
 10
258.2233765832713
 20
191.5274566535377
 30
0.0
 40
1.799984520766695
100
AcDbArc
 50
265.9992214235089
 51
355.9997740543451
  0
LINE
  5
45B
330
1A
100
AcDbEntity
  8
SEIHIN
  6
CONTINUOUS
 62
     3
 48
16.0
100
AcDbLine
 10
270.9406876643759
 20
191.1480476215925
 30
0.0
 11
269.9431427920632
 21
191.2178489662975
 31
0.0
  0
ARC
  5
45C
330
1A
100
AcDbEntity
  8
NOKITOI
  6
PHANTOM
 62
     8
 48
5.0
100
AcDbCircle
 10
270.1178123856228
 20
204.2484908647436
 30
0.0
 40
1.0000282716483
100
AcDbArc
 50
348.6085087317536
 51
0.0161943872120482
  0
LINE
  5
45D
330
1A
100
AcDbEntity
  8
NOKITOI
  6
PHANTOM
 62
     8
 48
5.0
100
AcDbLine
 10
268.1178406173257
 20
200.560973518108
 30
0.0
 11
266.1178406173259
 21
200.560973518108
 31
0.0
  0
ARC
  5
45E
330
1A
100
AcDbEntity
  8
NOKITOI
  6
PHANTOM
 62
     8
 48
5.0
100
AcDbCircle
 10
264.1178297421374
 20
203.1343879185393
 30
0.0
 40
5.000010875209161
100
AcDbArc
 50
345.5211660648001
 51
359.9998349835706
  0
LINE
  5
45F
330
1A
100
AcDbEntity
  8
NOKITOI
  6
PHANTOM
 62
     8
 48
5.0
100
AcDbLine
 10
266.0561406173257
 20
204.260973518108
 30
0.0
 11
268.2103406173259
 21
204.260973518108
 31
0.0
  0
LINE
  5
460
330
1A
100
AcDbEntity
  8
SEIHIN
  6
CONTINUOUS
 62
     3
 48
16.0
100
AcDbLine
 10
267.4916134770171
 20
203.415139234118
 30
0.0
 11
270.8258358290168
 21
203.4733468575507
 31
0.0
  0
LINE
  5
461
330
1A
100
AcDbEntity
  8
SEIHIN
  6
CONTINUOUS
 62
     3
 48
16.0
100
AcDbLine
 10
266.4940444125149
 20
203.4848435492505
 30
0.0
 11
269.8282667645145
 21
203.5430511726832
 31
0.0
  0
LINE
  5
462
330
1A
100
AcDbEntity
  8
SEIHIN
  6
CONTINUOUS
 62
     3
 48
16.0
100
AcDbLine
 10
267.5264696348285
 20
201.4154061473631
 30
0.0
 11
266.5289247625157
 21
201.4852074920681
 31
0.0
  0
LINE
  5
463
330
1A
100
AcDbEntity
  8
SEIHIN
  6
CONTINUOUS
 62
     3
 48
16.0
100
AcDbLine
 10
267.5264696348285
 20
201.4154061473631
 30
0.0
 11
267.4916134770171
 21
203.415139234118
 31
0.0
  0
LINE
  5
464
330
1A
100
AcDbEntity
  8
SEIHIN
  6
CONTINUOUS
 62
     3
 48
16.0
100
AcDbLine
 10
266.5289247625157
 20
201.4852074920681
 30
0.0
 11
266.4940444125149
 21
203.4848435492505
 31
0.0
  0
LINE
  5
465
330
1A
100
AcDbEntity
  8
SEIHIN
  6
CONTINUOUS
 62
     3
 48
16.0
100
AcDbLine
 10
267.4916134770171
 20
203.415139234118
 30
0.0
 11
266.4940444125149
 21
203.4848435492505
 31
0.0
  0
ARC
  5
466
330
1A
100
AcDbEntity
  8
SEIHIN
  6
CONTINUOUS
 62
     3
 48
16.0
100
AcDbCircle
 10
269.8194666693414
 20
204.0430437977888
 30
0.0
 40
0.4999475821615678
100
AcDbArc
 50
271.0002257334014
 51
40.37647443903285
  0
LINE
  5
467
330
1A
100
AcDbEntity
  8
NOKITOI
  6
PHANTOM
 62
     8
 48
5.0
100
AcDbLine
 10
286.1178406173259
 20
202.260973518108
 30
0.0
 11
286.1178406173259
 21
161.460973518108
 31
0.0
  0
LINE
  5
468
330
1A
100
AcDbEntity
  8
NOKITOI
  6
PHANTOM
 62
     8
 48
5.0
100
AcDbLine
 10
282.1178406173259
 20
202.260973518108
 30
0.0
 11
282.1178406173259
 21
163.4609735181079
 31
0.0
  0
LINE
  5
469
330
1A
100
AcDbEntity
  8
NOKITOI
  6
PHANTOM
 62
     8
 48
5.0
100
AcDbLine
 10
282.1178406173259
 20
163.4609735181079
 30
0.0
 11
286.1178406173259
 21
161.460973518108
 31
0.0
  0
ARC
  5
46A
330
1A
100
AcDbEntity
  8
SEIHIN
  6
CONTINUOUS
 62
     3
 48
16.0
100
AcDbCircle
 10
272.2186630031196
 20
193.3169748952633
 30
0.0
 40
0.5000292287029835
100
AcDbArc
 50
111.1537394077266
 51
232.7350902760377
  0
LINE
  5
46B
330
1A
100
AcDbEntity
  8
SEIHIN
  6
CONTINUOUS
 62
     3
 48
16.0
100
AcDbLine
 10
272.1514616825805
 20
192.7399202976696
 30
0.0
 11
271.9158947520118
 21
192.9190294019121
 31
0.0
  0
ARC
  5
46C
330
1A
100
AcDbEntity
  8
NOKITOI
  6
PHANTOM
 62
     8
 48
5.0
100
AcDbCircle
 10
273.1817555313384
 20
203.2609856357548
 30
0.0
 40
0.9999878824643825
100
AcDbArc
 50
90.00085452033124
 51
168.1886262195387
  0
ARC
  5
46D
330
1A
100
AcDbEntity
  8
NOKITOI
  6
PHANTOM
 62
     8
 48
5.0
100
AcDbCircle
 10
274.7813505671876
 20
201.2609813531693
 30
0.0
 40
0.9999921649881468
100
AcDbArc
 50
90.00057008954835
 51
166.4382021781654
  0
LINE
  5
46E
330
1A
100
AcDbEntity
  8
NOKITOI
  6
PHANTOM
 62
     8
 48
5.0
100
AcDbLine
 10
275.6178406173257
 20
204.260973518108
 30
0.0
 11
273.1817406173258
 21
204.260973518108
 31
0.0
  0
ARC
  5
46F
330
1A
100
AcDbEntity
  8
NOKITOI
  6
PHANTOM
 62
     8
 48
5.0
100
AcDbCircle
 10
274.0609194271208
 20
201.2609735181079
 30
0.0
 40
1.0
100
AcDbArc
 50
90.0
 51
166.2525842013566
  0
ARC
  5
470
330
1A
100
AcDbEntity
  8
NOKITOI
  6
PHANTOM
 62
     8
 48
5.0
100
AcDbCircle
 10
181.0512713955478
 20
214.5610037865242
 30
0.0
 40
0.9999697320574956
100
AcDbArc
 50
90.00176351560455
 51
179.0448215810376
  0
ARC
  5
471
330
1A
100
AcDbEntity
  8
NOKITOI
  6
PHANTOM
 62
     8
 48
5.0
100
AcDbCircle
 10
174.6418532119549
 20
207.5609436192789
 30
0.0
 40
3.00002579168453
100
AcDbArc
 50
1.433102618457502
 51
44.25374679574689
  0
ARC
  5
472
330
1A
100
AcDbEntity
  8
NOKITOI
  6
PHANTOM
 62
     8
 48
5.0
100
AcDbCircle
 10
275.6178406173258
 20
209.060973518108
 30
0.0
 40
6.500000000000056
100
AcDbArc
 50
0.0
 51
180.0
  0
ARC
  5
473
330
1A
100
AcDbEntity
  8
NOKITOI
  6
PHANTOM
 62
     8
 48
5.0
100
AcDbCircle
 10
275.6178406173257
 20
209.060973518108
 30
0.0
 40
4.5
100
AcDbArc
 50
0.0
 51
180.0
  0
ARC
  5
474
330
1A
100
AcDbEntity
  8
SEIHIN
  6
CONTINUOUS
 62
     3
 48
16.0
100
AcDbCircle
 10
276.1496616936205
 20
208.5079536263273
 30
0.0
 40
6.500017389973234
100
AcDbArc
 50
73.27967363028744
 51
203.9753633306076
  0
LINE
  5
475
330
1A
100
AcDbEntity
  8
SEIHIN
  6
CONTINUOUS
 62
     3
 48
16.0
100
AcDbLine
 10
262.7394301063032
 20
215.9719885320554
 30
0.0
 11
273.8914468510937
 21
215.1922087080599
 31
0.0
  0
LINE
  5
476
330
1A
100
AcDbEntity
  8
SEIHIN
  6
CONTINUOUS
 62
     3
 48
16.0
100
AcDbLine
 10
262.5999244464656
 20
213.9768745952404
 30
0.0
 11
270.7977503042381
 21
213.4036126955482
 31
0.0
  0
ARC
  5
477
330
1A
100
AcDbEntity
  8
SEIHIN
  6
CONTINUOUS
 62
     3
 48
16.0
100
AcDbCircle
 10
262.5302201313333
 20
212.9793055307382
 30
0.0
 40
1.000001364999123
100
AcDbArc
 50
86.00300122514651
 51
176.0030012251404
  0
ARC
  5
478
330
1A
100
AcDbEntity
  8
SEIHIN
  6
CONTINUOUS
 62
     3
 48
16.0
100
AcDbCircle
 10
262.5302201313333
 20
212.9793055307381
 30
0.0
 40
2.999986726637428
100
AcDbArc
 50
86.00112038993335
 51
176.0011203899322
  0
ARC
  5
479
330
1A
100
AcDbEntity
  8
NOKITOI
  6
PHANTOM
 62
     8
 48
5.0
100
AcDbCircle
 10
264.8844098391038
 20
214.5610037865242
 30
0.0
 40
0.9999697320575446
100
AcDbArc
 50
0.9551784189623404
 51
89.99823648439546
  0
ARC
  5
47A
330
1A
100
AcDbEntity
  8
NOKITOI
  6
PHANTOM
 62
     8
 48
5.0
100
AcDbCircle
 10
271.2937430934307
 20
207.5609793960211
 30
0.0
 40
2.999939994405041
100
AcDbArc
 50
135.7456106862225
 51
178.5675398995574
  0
LINE
  5
47B
330
1A
100
AcDbEntity
  8
SEIHIN
  6
CONTINUOUS
 62
     3
 48
16.0
100
AcDbLine
 10
281.030268383263
 20
214.1917536806676
 30
0.0
 11
294.0860562796832
 21
227.7117171835778
 31
0.0
  0
LINE
  5
47C
330
1A
100
AcDbEntity
  8
SEIHIN
  6
CONTINUOUS
 62
     3
 48
16.0
100
AcDbLine
 10
279.0266816023848
 20
214.9962625441916
 30
0.0
 11
282.7492727688272
 21
218.8511735468809
 31
0.0
  0
ARC
  5
47D
330
1A
100
AcDbEntity
  8
SEIHIN
  6
CONTINUOUS
 62
     3
 48
16.0
100
AcDbCircle
 10
275.1521196508712
 20
208.5777388223893
 30
0.0
 40
4.499991562218101
100
AcDbArc
 50
1.36312015002983
 51
79.62109766754659
  0
ARC
  5
47E
330
1A
100
AcDbEntity
  8
NOKITOI
  6
PHANTOM
 62
     8
 48
5.0
100
AcDbCircle
 10
272.4555571453911
 20
213.5609499973442
 30
0.0
 40
1.000009372042841
100
AcDbArc
 50
125.0934095113017
 51
305.0980973641169
  0
LINE
  5
47F
330
1A
100
AcDbEntity
  8
NOKITOI
  6
PHANTOM
 62
     8
 48
5.0
100
AcDbLine
 10
274.1178406173259
 20
210.5609735181079
 30
0.0
 11
271.3752406173256
 21
210.5609735181079
 31
0.0
  0
CIRCLE
  5
480
330
1A
100
AcDbEntity
  8
NOKITOI
  6
PHANTOM
 62
     8
 48
5.0
100
AcDbCircle
 10
275.7294406173256
 20
208.7608855180045
 30
0.0
 40
2.7
  0
ARC
  5
481
330
1A
100
AcDbEntity
  8
NOKITOI
  6
PHANTOM
 62
     8
 48
5.0
100
AcDbCircle
 10
275.7294406173256
 20
208.7608855180045
 30
0.0
 40
3.999958
100
AcDbArc
 50
121.784767
 51
174.584588
  0
ARC
  5
482
330
1A
100
AcDbEntity
  8
SEIHIN
  6
CONTINUOUS
 62
     3
 48
16.0
100
AcDbCircle
 10
278.3073237023235
 20
215.690903600792
 30
0.0
 40
1.000000992947042
100
AcDbArc
 50
253.2853890248023
 51
316.0014339785135
  0
LINE
  5
483
330
1A
100
AcDbEntity
  8
NOKITOI
  6
PHANTOM
 62
     8
 48
5.0
100
AcDbLine
 10
280.1178406173257
 20
209.060973518108
 30
0.0
 11
280.1178406173257
 21
208.760973518108
 31
0.0
  0
LINE
  5
484
330
1A
100
AcDbEntity
  8
NOKITOI
  6
PHANTOM
 62
     8
 48
5.0
100
AcDbLine
 10
282.1178406173259
 20
208.760973518108
 30
0.0
 11
282.1178406173259
 21
209.060973518108
 31
0.0
  0
LINE
  5
485
330
1A
100
AcDbEntity
  8
NOKITOI
  6
PHANTOM
 62
     8
 48
5.0
100
AcDbLine
 10
282.1178406173259
 20
209.060973518108
 30
0.0
 11
282.1178406173259
 21
215.560973518108
 31
0.0
  0
ARC
  5
486
330
1A
100
AcDbEntity
  8
SEIHIN
  6
CONTINUOUS
 62
     3
 48
16.0
100
AcDbCircle
 10
276.217007845746
 20
208.0123719861518
 30
0.0
 40
6.500029724293583
100
AcDbArc
 50
353.2781127902314
 51
7.743607505114896
  0
ARC
  5
487
330
1A
100
AcDbEntity
  8
SEIHIN
  6
CONTINUOUS
 62
     3
 48
16.0
100
AcDbCircle
 10
281.7495834056339
 20
213.4970950388912
 30
0.0
 40
0.9999823648460351
100
AcDbArc
 50
135.9990026123052
 51
221.7010184238737
  0
ARC
  5
488
330
1A
100
AcDbEntity
  8
SEIHIN
  6
CONTINUOUS
 62
     3
 48
16.0
100
AcDbCircle
 10
275.2194624800527
 20
208.0822792055133
 30
0.0
 40
4.500020423677995
100
AcDbArc
 50
354.1308632561877
 51
7.742352588289301
  0
ARC
  5
489
330
1A
100
AcDbEntity
  8
SEIHIN
  6
CONTINUOUS
 62
     3
 48
16.0
100
AcDbCircle
 10
276.217007352365
 20
208.0124778608083
 30
0.0
 40
4.500020423678661
100
AcDbArc
 50
354.1308632561853
 51
7.742352588287112
  0
ARC
  5
48A
330
1A
100
AcDbEntity
  8
SEIHIN
  6
CONTINUOUS
 62
     3
 48
16.0
100
AcDbCircle
 10
276.1496502371713
 20
208.507961522526
 30
0.0
 40
6.500008263855146
100
AcDbArc
 50
3.330917208919628
 51
41.69909109117884
  0
LINE
  5
48B
330
1A
100
AcDbEntity
  8
SEIHIN
  6
CONTINUOUS
 62
     3
 48
16.0
100
AcDbLine
 10
285.8817371098952
 20
217.9344009627337
 30
0.0
 11
275.8817371098952
 21
216.9345009627336
 31
0.0
  0
LINE
  5
48C
330
1A
100
AcDbEntity
  8
SEIHIN
  6
CONTINUOUS
 62
     3
 48
16.0
100
AcDbLine
 10
288.827248711122
 20
217.9345009627335
 30
0.0
 11
298.1330847205082
 21
227.5711896259636
 31
0.0
  0
LINE
  5
48D
330
1A
100
AcDbEntity
  8
SEIHIN
  6
CONTINUOUS
 62
     3
 48
16.0
100
AcDbLine
 10
288.8334040115402
 20
237.2717797291548
 30
0.0
 11
283.9845335240376
 21
234.3582844064497
 31
0.0
  0
LINE
  5
48E
330
1A
100
AcDbEntity
  8
SEIHIN
  6
CONTINUOUS
100
AcDbLine
 10
291.7416830464908
 20
240.6691188430596
 30
0.0
 11
289.8010915939389
 21
241.152962634259
 31
0.0
  0
LINE
  5
48F
330
1A
100
AcDbEntity
  8
SEIHIN
  6
CONTINUOUS
 62
     3
 48
16.0
100
AcDbLine
 10
301.5365735652969
 20
277.4462957164676
 30
0.0
 11
296.6877030777942
 21
274.5328003937624
 31
0.0
  0
LINE
  5
490
330
1A
100
AcDbEntity
  8
SEIHIN
  6
CONTINUOUS
 62
     3
 48
16.0
100
AcDbLine
 10
299.4211064484693
 20
270.7560073482006
 30
0.0
 11
294.5722359609667
 21
267.8425120254954
 31
0.0
  0
LINE
  5
491
330
1A
100
AcDbEntity
  8
SEIHIN
  6
CONTINUOUS
100
AcDbLine
 10
302.3293854834201
 20
274.1533464621052
 30
0.0
 11
300.388794030868
 21
274.6371902533046
 31
0.0
  0
LINE
  5
492
330
1A
100
AcDbEntity
  8
NOKITOI
  6
PHANTOM
 62
     8
 48
5.0
100
AcDbLine
 10
316.9678406173257
 20
162.4609735181079
 30
0.0
 11
316.9678406173257
 21
215.560973518108
 31
0.0
  0
LINE
  5
493
330
1A
100
AcDbEntity
  8
SEIHIN
  6
CONTINUOUS
 62
     3
 48
16.0
100
AcDbLine
 10
370.3816371098952
 20
215.9342009627335
 30
0.0
 11
366.8816371098952
 21
201.9344009627336
 31
0.0
  0
LINE
  5
494
330
1A
100
AcDbEntity
  8
SEIHIN
  6
CONTINUOUS
 62
     3
 48
16.0
100
AcDbLine
 10
376.9319371098954
 20
212.2500009627335
 30
0.0
 11
380.7787371098951
 21
198.1450009627336
 31
0.0
  0
LINE
  5
495
330
1A
100
AcDbEntity
  8
SEIHIN
  6
CONTINUOUS
 62
     3
 48
16.0
100
AcDbLine
 10
400.8314371098953
 20
212.2499009627336
 30
0.0
 11
396.7836371098953
 21
197.4081009627336
 31
0.0
  0
LINE
  5
496
330
1A
100
AcDbEntity
  8
SEIHIN
  6
CONTINUOUS
 62
     3
 48
16.0
100
AcDbLine
 10
407.3261371098951
 20
215.9343009627336
 30
0.0
 11
412.3596371098953
 21
193.2835009627336
 31
0.0
  0
LINE
  5
497
330
1A
100
AcDbEntity
  8
NOKITOI
  6
PHANTOM
 62
     8
 48
5.0
100
AcDbLine
 10
311.9678406173257
 20
202.260973518108
 30
0.0
 11
311.9678406173257
 21
161.460973518108
 31
0.0
  0
LINE
  5
498
330
1A
100
AcDbEntity
  8
NOKITOI
  6
PHANTOM
 62
     8
 48
5.0
100
AcDbLine
 10
311.9678406173257
 20
161.460973518108
 30
0.0
 11
316.9678406173257
 21
162.4609735181079
 31
0.0
  0
LINE
  5
499
330
1A
100
AcDbEntity
  8
SEIHIN
  6
CONTINUOUS
 62
     3
 48
16.0
100
AcDbLine
 10
383.6730371098951
 20
195.9343009627335
 30
0.0
 11
394.8540371098954
 21
195.9343009627335
 31
0.0
  0
LINE
  5
49A
330
1A
100
AcDbEntity
  8
SEIHIN
  6
CONTINUOUS
 62
     3
 48
16.0
100
AcDbLine
 10
394.3630371098951
 20
196.9343009627336
 30
0.0
 11
383.4003371098953
 21
196.9343009627336
 31
0.0
  0
ARC
  5
49B
330
1A
100
AcDbEntity
  8
SEIHIN
  6
CONTINUOUS
 62
     3
 48
16.0
100
AcDbCircle
 10
383.6730407124536
 20
198.9342982110643
 30
0.0
 40
2.999997248332971
100
AcDbArc
 50
195.254044862893
 51
269.9999311961368
  0
ARC
  5
49C
330
1A
100
AcDbEntity
  8
SEIHIN
  6
CONTINUOUS
 62
     3
 48
16.0
100
AcDbCircle
 10
383.4003407124536
 20
199.9342982110644
 30
0.0
 40
2.999997248332964
100
AcDbArc
 50
195.2540448628946
 51
269.9999311961385
  0
ARC
  5
49D
330
1A
100
AcDbEntity
  8
SEIHIN
  6
CONTINUOUS
 62
     3
 48
16.0
100
AcDbCircle
 10
394.8540768112286
 20
197.9343312872737
 30
0.0
 40
2.00003032493429
100
AcDbArc
 50
269.9988626578285
 51
344.7452514607435
  0
ARC
  5
49E
330
1A
100
AcDbEntity
  8
SEIHIN
  6
CONTINUOUS
 62
     3
 48
16.0
100
AcDbCircle
 10
394.3630335073368
 20
199.9342982110645
 30
0.0
 40
2.999997248333062
100
AcDbArc
 50
270.0000688038597
 51
344.7459551371039
  0
ARC
  5
49F
330
1A
100
AcDbEntity
  8
SEIHIN
  6
CONTINUOUS
 62
     3
 48
16.0
100
AcDbCircle
 10
419.3817371098952
 20
196.9343009627335
 30
0.0
 40
1.500000000000014
100
AcDbArc
 50
89.99999999999619
 51
179.9999999999962
  0
ARC
  5
4A0
330
1A
100
AcDbEntity
  8
SEIHIN
  6
CONTINUOUS
 62
     3
 48
16.0
100
AcDbCircle
 10
419.3817371098952
 20
196.4343009627337
 30
0.0
 40
1.500000000000056
100
AcDbArc
 50
180.0000000000021
 51
270.0000000000021
  0
ARC
  5
4A1
330
1A
100
AcDbEntity
  8
SEIHIN
  6
CONTINUOUS
 62
     3
 48
16.0
100
AcDbCircle
 10
415.2881731699182
 20
193.9342720366214
 30
0.0
 40
2.999971074104501
100
AcDbArc
 50
192.5285333214496
 51
269.9993112976525
  0
LINE
  5
4A2
330
1A
100
AcDbEntity
  8
SEIHIN
  6
CONTINUOUS
 62
     3
 48
16.0
100
AcDbLine
 10
417.8817371098952
 20
196.9343009627336
 30
0.0
 11
417.8817371098952
 21
196.4343009627336
 31
0.0
  0
ARC
  5
4A3
330
1A
100
AcDbEntity
  8
SEIHIN
  6
CONTINUOUS
 62
     3
100
AcDbCircle
 10
442.7171495363096
 20
31.84948136988444
 30
0.0
 40
258.1634366601403
100
AcDbArc
 50
106.1015350011217
 51
106.9004113775936
  0
ARC
  5
4A4
330
1A
100
AcDbEntity
  8
SEIHIN
  6
CONTINUOUS
 62
     3
100
AcDbCircle
 10
369.3378697187624
 20
263.8911647550278
 30
0.0
 40
5.761593548207944
100
AcDbArc
 50
177.7171636077693
 51
282.1043977579508
  0
ARC
  5
4A5
330
1A
100
AcDbEntity
  8
SEIHIN
  6
CONTINUOUS
 62
     3
100
AcDbCircle
 10
380.6761290153699
 20
270.7203436990707
 30
0.0
 40
38.72116689411121
100
AcDbArc
 50
249.124363759484
 51
261.1468074005638
  0
ARC
  5
4A6
330
1A
100
AcDbEntity
  8
SEIHIN
  6
CONTINUOUS
 62
     3
100
AcDbCircle
 10
377.5247358039056
 20
268.9652500796937
 30
0.0
 40
23.00556849161062
100
AcDbArc
 50
209.6830297007982
 51
257.9178383027719
  0
ARC
  5
4A7
330
1A
100
AcDbEntity
  8
SEIHIN
  6
CONTINUOUS
 62
     3
100
AcDbCircle
 10
380.6761290153699
 20
270.7203436990707
 30
0.0
 40
36.72116689411121
100
AcDbArc
 50
233.3241877264627
 51
261.1468074005638
  0
ARC
  5
4A8
330
1A
100
AcDbEntity
  8
SEIHIN
  6
CONTINUOUS
 62
     3
100
AcDbCircle
 10
442.7171495363096
 20
31.84948136988444
 30
0.0
 40
256.1634366601403
100
AcDbArc
 50
105.5124016515049
 51
106.9608149067707
  0
ARC
  5
4A9
330
1A
100
AcDbEntity
  8
SEIHIN
  6
CONTINUOUS
 62
     3
100
AcDbCircle
 10
369.3378697187624
 20
263.8911647550278
 30
0.0
 40
3.761593548207944
100
AcDbArc
 50
157.0950699372475
 51
309.9474011202506
  0
ARC
  5
4AA
330
1A
100
AcDbEntity
  8
SEIHIN
  6
CONTINUOUS
 62
     3
100
AcDbCircle
 10
377.5247358039056
 20
268.9652500796937
 30
0.0
 40
25.00556849161062
100
AcDbArc
 50
209.6830297007982
 51
257.9178383027719
  0
LINE
  5
4AB
330
1A
100
AcDbEntity
  8
SEIHIN
  6
CONTINUOUS
 62
     3
 48
16.0
100
AcDbLine
 10
370.1317371098952
 20
213.9344009627337
 30
0.0
 11
352.8816371098952
 21
213.9344009627337
 31
0.0
  0
ARC
  5
4AC
330
1A
100
AcDbEntity
  8
SEIHIN
  6
CONTINUOUS
 62
     3
100
AcDbCircle
 10
380.6761290153699
 20
270.7203436990707
 30
0.0
 40
38.72116689411121
100
AcDbArc
 50
195.8588353852509
 51
227.0276219521865
  0
ARC
  5
4AD
330
1A
100
AcDbEntity
  8
SEIHIN
  6
CONTINUOUS
 62
     3
100
AcDbCircle
 10
380.6761290153699
 20
270.7203436990707
 30
0.0
 40
36.72116689411121
100
AcDbArc
 50
195.8588353852509
 51
228.0217425513043
  0
LINE
  5
4AE
330
1A
100
AcDbEntity
  8
SEIHIN
  6
CONTINUOUS
 62
     3
 48
16.0
100
AcDbLine
 10
309.3817371098952
 20
221.9344009627337
 30
0.0
 11
351.3817371098952
 21
221.9344009627337
 31
0.0
  0
ARC
  5
4AF
330
1A
100
AcDbEntity
  8
SEIHIN
  6
CONTINUOUS
 62
     3
 48
16.0
100
AcDbCircle
 10
309.3817371098952
 20
220.4344009627337
 30
0.0
 40
1.5
100
AcDbArc
 50
90.0
 51
180.0
  0
LINE
  5
4B0
330
1A
100
AcDbEntity
  8
SEIHIN
  6
CONTINUOUS
 62
     3
 48
16.0
100
AcDbLine
 10
307.8817371098952
 20
220.4344009627337
 30
0.0
 11
307.8817371098952
 21
216.9345009627336
 31
0.0
  0
LINE
  5
4B1
330
1A
100
AcDbEntity
  8
SEIHIN
  6
CONTINUOUS
 62
     3
 48
16.0
100
AcDbLine
 10
352.8817371098952
 20
220.4344009627337
 30
0.0
 11
352.8817371098952
 21
213.9344009627337
 31
0.0
  0
ARC
  5
4B2
330
1A
100
AcDbEntity
  8
SEIHIN
  6
CONTINUOUS
 62
     3
 48
16.0
100
AcDbCircle
 10
351.3817371098952
 20
220.4344009627336
 30
0.0
 40
1.500000000000042
100
AcDbArc
 50
0.0000000000016284
 51
90.00000000000161
  0
ARC
  5
4B3
330
1A
100
AcDbEntity
  8
SEIHIN
  6
CONTINUOUS
 62
     3
100
AcDbCircle
 10
347.6521132759537
 20
239.5047427943259
 30
0.0
 40
7.325678268504539
100
AcDbArc
 50
354.3706110379724
 51
19.8922024078583
  0
ARC
  5
4B4
330
1A
100
AcDbEntity
  8
SEIHIN
  6
CONTINUOUS
 62
     3
100
AcDbCircle
 10
353.5727883401225
 20
240.6014972877842
 30
0.0
 40
5.213182447170764
100
AcDbArc
 50
331.5141953041034
 51
7.355808600871174
  0
ARC
  5
4B5
330
1A
100
AcDbEntity
  8
SEIHIN
  6
CONTINUOUS
 62
     3
100
AcDbCircle
 10
347.6521132759537
 20
239.5047427943259
 30
0.0
 40
9.325678268504539
100
AcDbArc
 50
354.3706110379724
 51
24.83694720882818
  0
ARC
  5
4B6
330
1A
100
AcDbEntity
  8
SEIHIN
  6
CONTINUOUS
 62
     3
100
AcDbCircle
 10
423.2857691864968
 20
333.6713995617707
 30
0.0
 40
114.0554808981564
100
AcDbArc
 50
236.2178420749331
 51
240.3590920023979
  0
ARC
  5
4B7
330
1A
100
AcDbEntity
  8
SEIHIN
  6
CONTINUOUS
 62
     3
100
AcDbCircle
 10
355.9875472429946
 20
237.8302581378003
 30
0.0
 40
4.016959581809198
100
AcDbArc
 50
351.8827798210068
 51
15.05005062806671
  0
ARC
  5
4B8
330
1A
100
AcDbEntity
  8
SEIHIN
  6
CONTINUOUS
 62
     3
100
AcDbCircle
 10
357.5603499058369
 20
238.3950584102275
 30
0.0
 40
2.657102687963988
100
AcDbArc
 50
168.827914732927
 51
334.7844907924638
  0
ARC
  5
4B9
330
1A
100
AcDbEntity
  8
SEIHIN
  6
CONTINUOUS
 62
     3
100
AcDbCircle
 10
357.5603499058369
 20
238.3950584102275
 30
0.0
 40
0.6571026879639883
100
AcDbArc
 50
162.7464500782587
 51
334.7844907924638
  0
ARC
  5
4BA
330
1A
100
AcDbEntity
  8
SEIHIN
  6
CONTINUOUS
 62
     3
100
AcDbCircle
 10
353.6003664195752
 20
241.6570648185659
 30
0.0
 40
1.0
100
AcDbArc
 50
19.89220240785906
 51
47.02762195218779
  0
ARC
  5
4BB
330
1A
100
AcDbEntity
  8
SEIHIN
  6
CONTINUOUS
 62
     3
100
AcDbCircle
 10
331.0463438563055
 20
277.4267495248261
 30
0.0
 40
7.733514458636904
100
AcDbArc
 50
8.379727603573368
 51
103.7868920083598
  0
ARC
  5
4BC
330
1A
100
AcDbEntity
  8
SEIHIN
  6
CONTINUOUS
 62
     3
100
AcDbCircle
 10
331.5121551575193
 20
287.4431042294965
 30
0.0
 40
6.393599407923088
100
AcDbArc
 50
26.63821190934247
 51
153.9393256864303
  0
ARC
  5
4BD
330
1A
100
AcDbEntity
  8
SEIHIN
  6
CONTINUOUS
 62
     3
100
AcDbCircle
 10
331.9959100443574
 20
276.9785355720337
 30
0.0
 40
8.884027901012771
100
AcDbArc
 50
13.26896233812523
 51
124.0527997862919
  0
ARC
  5
4BE
330
1A
100
AcDbEntity
  8
SEIHIN
  6
CONTINUOUS
 62
     3
100
AcDbCircle
 10
332.9014627595399
 20
276.3861750072087
 30
0.0
 40
12.57998622260397
100
AcDbArc
 50
15.2714633451647
 51
76.96407631134353
  0
ARC
  5
4BF
330
1A
100
AcDbEntity
  8
SEIHIN
  6
CONTINUOUS
 62
     3
100
AcDbCircle
 10
327.2637540152624
 20
284.1403914095373
 30
0.0
 40
6.291798956155492
100
AcDbArc
 50
103.7470452713311
 51
231.7286003966478
  0
LINE
  5
4C0
330
1A
100
AcDbEntity
  8
SEIHIN
  6
CONTINUOUS
100
AcDbLine
 10
307.4655313837745
 20
290.3967079880437
 30
0.0
 11
305.5249399312226
 21
290.880551779243
 31
0.0
  0
ARC
  5
4C1
330
1A
100
AcDbEntity
  8
SEIHIN
  6
CONTINUOUS
 62
     3
100
AcDbCircle
 10
327.2637540152624
 20
284.1403914095373
 30
0.0
 40
4.291798956155492
100
AcDbArc
 50
90.43318321157576
 51
231.7286003966478
  0
ARC
  5
4C2
330
1A
100
AcDbEntity
  8
SEIHIN
  6
CONTINUOUS
 62
     3
100
AcDbCircle
 10
326.7522354019062
 20
284.0581430099342
 30
0.0
 40
5.926088259909347
100
AcDbArc
 50
236.8525629607151
 51
315.2823760458244
  0
ARC
  5
4C3
330
1A
100
AcDbEntity
  8
SEIHIN
  6
CONTINUOUS
 62
     3
100
AcDbCircle
 10
328.3279990875532
 20
282.8558163121381
 30
0.0
 40
1.976838726320965
100
AcDbArc
 50
307.8891808872056
 51
131.3788536460767
  0
ARC
  5
4C4
330
1A
100
AcDbEntity
  8
SEIHIN
  6
CONTINUOUS
 62
     3
100
AcDbCircle
 10
326.7522354019062
 20
284.0581430099342
 30
0.0
 40
3.926088259909347
100
AcDbArc
 50
236.8525629607151
 51
315.2823760458244
  0
LINE
  5
4C5
330
1A
100
AcDbEntity
  8
SEIHIN
  6
CONTINUOUS
 62
     4
100
AcDbLine
 10
323.3666941703872
 20
279.2007903456718
 30
0.0
 11
323.5118779075541
 21
279.0964290547539
 31
0.0
  0
ARC
  5
4C6
330
1A
100
AcDbEntity
  8
SEIHIN
  6
CONTINUOUS
 62
     3
100
AcDbCircle
 10
329.3125120157275
 20
282.1443022737345
 30
0.0
 40
2.7952820032806
100
AcDbArc
 50
306.1947176968002
 51
92.23788937683265
  0
ARC
  5
4C7
330
1A
100
AcDbEntity
  8
SEIHIN
  6
CONTINUOUS
 62
     3
100
AcDbCircle
 10
331.5121551575193
 20
287.4431042294965
 30
0.0
 40
4.393599407923088
100
AcDbArc
 50
15.83477577907831
 51
166.9917199115684
  0
ARC
  5
4C8
330
1A
100
AcDbEntity
  8
SEIHIN
  6
CONTINUOUS
 62
     3
100
AcDbCircle
 10
368.2235667653525
 20
273.8628097550082
 30
0.0
 40
5.017220701065602
100
AcDbArc
 50
98.0975316754386
 51
208.594395495671
  0
ARC
  5
4C9
330
1A
100
AcDbEntity
  8
SEIHIN
  6
CONTINUOUS
 62
     3
100
AcDbCircle
 10
354.8766939933556
 20
278.3408886074752
 30
0.0
 40
3.977804324973473
100
AcDbArc
 50
289.9558082721905
 51
39.97035849796379
  0
ARC
  5
4CA
330
1A
100
AcDbEntity
  8
SEIHIN
  6
CONTINUOUS
 62
     3
100
AcDbCircle
 10
863.6998326935692
 20
403.7258446412406
 30
0.0
 40
539.7181773150959
100
AcDbArc
 50
193.4102050205761
 51
194.6080328123239
  0
ARC
  5
4CB
330
1A
100
AcDbEntity
  8
SEIHIN
  6
CONTINUOUS
 62
     3
100
AcDbCircle
 10
863.6998326935692
 20
403.7258446412406
 30
0.0
 40
537.7181773150958
100
AcDbArc
 50
193.4102050205761
 51
194.6080328123239
  0
ARC
  5
4CC
330
1A
100
AcDbEntity
  8
SEIHIN
  6
CONTINUOUS
 62
     3
100
AcDbCircle
 10
368.2235667653525
 20
273.8628097550082
 30
0.0
 40
3.017220701065602
100
AcDbArc
 50
94.44427833805608
 51
251.858960964365
  0
ARC
  5
4CD
330
1A
100
AcDbEntity
  8
SEIHIN
  6
CONTINUOUS
 62
     3
100
AcDbCircle
 10
350.4880391100352
 20
277.9251644243599
 30
0.0
 40
4.638028209222063
100
AcDbArc
 50
220.810327759326
 51
340.3196103646979
  0
ARC
  5
4CE
330
1A
100
AcDbEntity
  8
SEIHIN
  6
CONTINUOUS
 62
     3
100
AcDbCircle
 10
418.3529827279741
 20
301.2057130930492
 30
0.0
 40
74.83839741293936
100
AcDbArc
 50
203.1197562855899
 51
215.5383704749096
  0
ARC
  5
4CF
330
1A
100
AcDbEntity
  8
SEIHIN
  6
CONTINUOUS
 62
     3
100
AcDbCircle
 10
350.3222060425375
 20
279.3791736343554
 30
0.0
 40
7.600982670761531
100
AcDbArc
 50
263.9807280025585
 51
321.0601770921838
  0
ARC
  5
4D0
330
1A
100
AcDbEntity
  8
SEIHIN
  6
CONTINUOUS
 62
     3
100
AcDbCircle
 10
412.9886496593885
 20
295.4180614094045
 30
0.0
 40
69.12810655937867
100
AcDbArc
 50
197.271485761475
 51
214.1798031028432
  0
ARC
  5
4D1
330
1A
100
AcDbEntity
  8
SEIHIN
  6
CONTINUOUS
 62
     3
100
AcDbCircle
 10
59.35589622590072
 20
188.0666717498517
 30
0.0
 40
293.0722841053102
100
AcDbArc
 50
14.24718147713821
 51
15.73979000383022
  0
ARC
  5
4D2
330
1A
100
AcDbEntity
  8
SEIHIN
  6
CONTINUOUS
 62
     3
100
AcDbCircle
 10
59.35589622590072
 20
188.0666717498517
 30
0.0
 40
295.0722841053103
100
AcDbArc
 50
14.24718147713821
 51
15.73979000383022
  0
ARC
  5
4D3
330
1A
100
AcDbEntity
  8
SEIHIN
  6
CONTINUOUS
 62
     3
100
AcDbCircle
 10
366.022872612747
 20
267.6054660665581
 30
0.0
 40
4.255270994191262
100
AcDbArc
 50
133.8103651541995
 51
234.9786170424089
  0
ARC
  5
4D4
330
1A
100
AcDbEntity
  8
SEIHIN
  6
CONTINUOUS
 62
     3
100
AcDbCircle
 10
368.1416804330851
 20
266.4811527730448
 30
0.0
 40
6.595140373821624
100
AcDbArc
 50
130.960661374705
 51
143.2124834245493
  0
ARC
  5
4D5
330
1A
100
AcDbEntity
  8
SEIHIN
  6
CONTINUOUS
 62
     3
100
AcDbCircle
 10
368.1416804330851
 20
266.4811527730448
 30
0.0
 40
4.595140373821624
100
AcDbArc
 50
100.7556204198121
 51
143.2124834245493
  0
ARC
  5
4D6
330
1A
100
AcDbEntity
  8
SEIHIN
  6
CONTINUOUS
 62
     3
100
AcDbCircle
 10
366.022872612747
 20
267.6054660665581
 30
0.0
 40
2.255270994191262
100
AcDbArc
 50
133.8103651541995
 51
266.1863423063339
  0
ARC
  5
4D7
330
1A
100
AcDbEntity
  8
SEIHIN
  6
CONTINUOUS
 62
     3
100
AcDbCircle
 10
354.6337417506146
 20
282.9769356665969
 30
0.0
 40
2.748988591980007
100
AcDbArc
 50
44.25017173462975
 51
193.345992755527
  0
ARC
  5
4D8
330
1A
100
AcDbEntity
  8
SEIHIN
  6
CONTINUOUS
 62
     3
100
AcDbCircle
 10
349.0673712068252
 20
282.4518736386649
 30
0.0
 40
4.948576273806163
100
AcDbArc
 50
219.0730627039152
 51
1.194738604459502
  0
ARC
  5
4D9
330
1A
100
AcDbEntity
  8
SEIHIN
  6
CONTINUOUS
 62
     3
100
AcDbCircle
 10
332.9014627595399
 20
276.3861750072087
 30
0.0
 40
14.57998622260397
100
AcDbArc
 50
17.15632993423276
 51
72.74146650835288
  0
ARC
  5
4DA
330
1A
100
AcDbEntity
  8
SEIHIN
  6
CONTINUOUS
 62
     3
100
AcDbCircle
 10
346.0019223277267
 20
279.9630430378205
 30
0.0
 40
1.0
100
AcDbArc
 50
195.2714633451645
 51
219.0730627039165
  0
ARC
  5
4DB
330
1A
100
AcDbEntity
  8
SEIHIN
  6
CONTINUOUS
 62
     3
100
AcDbCircle
 10
350.9859987472827
 20
282.1115534132324
 30
0.0
 40
1.0
100
AcDbArc
 50
349.9416678922971
 51
13.34599275552621
  0
ARC
  5
4DC
330
1A
100
AcDbEntity
  8
SEIHIN
  6
CONTINUOUS
 62
     3
100
AcDbCircle
 10
347.7881936467301
 20
280.9819572245141
 30
0.0
 40
1.0
100
AcDbArc
 50
197.1563299342318
 51
228.9689605142556
  0
ARC
  5
4DD
330
1A
100
AcDbEntity
  8
SEIHIN
  6
CONTINUOUS
 62
     3
100
AcDbCircle
 10
349.0673712068252
 20
282.4518736386649
 30
0.0
 40
2.948576273806163
100
AcDbArc
 50
228.9689605142558
 51
349.9416678922982
  0
ARC
  5
4DE
330
1A
100
AcDbEntity
  8
SEIHIN
  6
CONTINUOUS
 62
     3
100
AcDbCircle
 10
352.7193985582693
 20
281.3961035351052
 30
0.0
 40
5.229740538762174
100
AcDbArc
 50
354.5147489915417
 51
40.63830465036577
  0
ARC
  5
4DF
330
1A
100
AcDbEntity
  8
SEIHIN
  6
CONTINUOUS
 62
     3
100
AcDbCircle
 10
354.8766939933556
 20
278.3408886074752
 30
0.0
 40
1.977804324973473
100
AcDbArc
 50
269.3756082143978
 51
65.54666017685893
  0
ARC
  5
4E0
330
1A
100
AcDbEntity
  8
SEIHIN
  6
CONTINUOUS
 62
     3
100
AcDbCircle
 10
352.7193985582693
 20
281.3961035351052
 30
0.0
 40
3.229740538762174
100
AcDbArc
 50
337.1374926352205
 51
40.63830465036577
  0
ARC
  5
4E1
330
1A
100
AcDbEntity
  8
SEIHIN
  6
CONTINUOUS
 62
     3
100
AcDbCircle
 10
354.6337417506146
 20
282.9769356665969
 30
0.0
 40
0.7489885919800069
100
AcDbArc
 50
44.25017173462975
 51
214.2820934130954
  0
ARC
  5
4E2
330
1A
100
AcDbEntity
  8
SEIHIN
  6
CONTINUOUS
 62
     3
100
AcDbCircle
 10
367.3759895946272
 20
279.8200371222487
 30
0.0
 40
1.0
100
AcDbArc
 50
278.0975316754389
 51
286.9004113775942
  0
ARC
  5
4E3
330
1A
100
AcDbEntity
  8
SEIHIN
  6
CONTINUOUS
 62
     3
100
AcDbCircle
 10
430.5266081812855
 20
251.1734560817444
 30
0.0
 40
2.385445488324025
100
AcDbArc
 50
337.5086165128914
 51
72.33716115947173
  0
ARC
  5
4E4
330
1A
100
AcDbEntity
  8
SEIHIN
  6
CONTINUOUS
 62
     3
100
AcDbCircle
 10
428.8817056563111
 20
244.3156647343258
 30
0.0
 40
9.43057369019934
100
AcDbArc
 50
74.91143718412868
 51
159.9159755295518
  0
ARC
  5
4E5
330
1A
100
AcDbEntity
  8
SEIHIN
  6
CONTINUOUS
 62
     3
100
AcDbCircle
 10
401.8909197587458
 20
251.3889598610264
 30
0.0
 40
7.785827326023804
100
AcDbArc
 50
346.0002827212824
 51
31.77550602342954
  0
ARC
  5
4E6
330
1A
100
AcDbEntity
  8
SEIHIN
  6
CONTINUOUS
 62
     3
100
AcDbCircle
 10
386.9701211292094
 20
261.491552412684
 30
0.0
 40
20.75213278797411
100
AcDbArc
 50
320.2599995783265
 51
0.6707828760813703
  0
ARC
  5
4E7
330
1A
100
AcDbEntity
  8
SEIHIN
  6
CONTINUOUS
 62
     3
100
AcDbCircle
 10
382.222464050402
 20
259.6056630563296
 30
0.0
 40
14.46381291215744
100
AcDbArc
 50
317.2943834320715
 51
47.27666984691264
  0
ARC
  5
4E8
330
1A
100
AcDbEntity
  8
SEIHIN
  6
CONTINUOUS
 62
     3
100
AcDbCircle
 10
379.1857388697953
 20
246.4906262023846
 30
0.0
 40
5.394994361570023
100
AcDbArc
 50
42.34395236464184
 51
117.8774471028563
  0
ARC
  5
4E9
330
1A
100
AcDbEntity
  8
SEIHIN
  6
CONTINUOUS
 62
     3
100
AcDbCircle
 10
428.8817056563111
 20
244.3156647343258
 30
0.0
 40
11.43057369019934
100
AcDbArc
 50
74.91143718412868
 51
159.9159755295518
  0
ARC
  5
4EA
330
1A
100
AcDbEntity
  8
SEIHIN
  6
CONTINUOUS
 62
     3
100
AcDbCircle
 10
424.1688006784126
 20
249.767474028859
 30
0.0
 40
8.720601012818727
100
AcDbArc
 50
107.8195379189577
 51
168.6127282921785
  0
ARC
  5
4EB
330
1A
100
AcDbEntity
  8
SEIHIN
  6
CONTINUOUS
 62
     3
100
AcDbCircle
 10
413.9073010200537
 20
252.0596843258633
 30
0.0
 40
1.805062307192577
100
AcDbArc
 50
341.5781737739592
 51
80.39123339285803
  0
ARC
  5
4EC
330
1A
100
AcDbEntity
  8
SEIHIN
  6
CONTINUOUS
 62
     3
100
AcDbCircle
 10
401.8909197587458
 20
251.3889598610264
 30
0.0
 40
9.785827326023804
100
AcDbArc
 50
346.0002827212824
 51
31.77550602342954
  0
ARC
  5
4ED
330
1A
100
AcDbEntity
  8
SEIHIN
  6
CONTINUOUS
 62
     3
100
AcDbCircle
 10
386.9701211292094
 20
261.491552412684
 30
0.0
 40
18.7521327879741
100
AcDbArc
 50
320.2599995783265
 51
2.852375979803241
  0
ARC
  5
4EE
330
1A
100
AcDbEntity
  8
SEIHIN
  6
CONTINUOUS
 62
     3
100
AcDbCircle
 10
382.222464050402
 20
259.6056630563296
 30
0.0
 40
16.46381291215744
100
AcDbArc
 50
315.5756371501207
 51
47.27666984691264
  0
ARC
  5
4EF
330
1A
100
AcDbEntity
  8
SEIHIN
  6
CONTINUOUS
 62
     3
100
AcDbCircle
 10
391.2275316781246
 20
263.3778388773817
 30
0.0
 40
24.15937815867887
100
AcDbArc
 50
273.6255552125921
 51
310.1450441161717
  0
ARC
  5
4F0
330
1A
100
AcDbEntity
  8
SEIHIN
  6
CONTINUOUS
 62
     3
100
AcDbCircle
 10
374.5131785258083
 20
273.463202919992
 30
0.0
 40
38.00589761498327
100
AcDbArc
 50
289.9638908102554
 51
318.2834524887292
  0
ARC
  5
4F1
330
1A
100
AcDbEntity
  8
SEIHIN
  6
CONTINUOUS
 62
     3
100
AcDbCircle
 10
389.573464617319
 20
272.8222686230767
 30
0.0
 40
41.85848524671839
100
AcDbArc
 50
268.7955250028155
 51
288.208011018661
  0
ARC
  5
4F2
330
1A
100
AcDbEntity
  8
SEIHIN
  6
CONTINUOUS
 62
     3
100
AcDbCircle
 10
404.1735692723575
 20
230.6120580793875
 30
0.0
 40
4.848139299985444
100
AcDbArc
 50
63.73238498453765
 51
116.2676150155019
  0
ARC
  5
4F3
330
1A
100
AcDbEntity
  8
SEIHIN
  6
CONTINUOUS
 62
     3
100
AcDbCircle
 10
391.2275316781246
 20
263.3778388773817
 30
0.0
 40
26.15937815867887
100
AcDbArc
 50
273.6255552125921
 51
310.1450441161717
  0
ARC
  5
4F4
330
1A
100
AcDbEntity
  8
SEIHIN
  6
CONTINUOUS
 62
     3
 48
16.0
100
AcDbCircle
 10
405.3825469424161
 20
209.9343084727449
 30
0.0
 40
4.999992489998274
100
AcDbArc
 50
90.00011267256031
 51
164.744792962007
  0
ARC
  5
4F5
330
1A
100
AcDbEntity
  8
SEIHIN
  6
CONTINUOUS
 62
     3
 48
16.0
100
AcDbCircle
 10
405.6552469424163
 20
210.9343084727449
 30
0.0
 40
4.999992489998416
100
AcDbArc
 50
90.00011267255983
 51
164.7447929620068
  0
ARC
  5
4F6
330
1A
100
AcDbEntity
  8
SEIHIN
  6
CONTINUOUS
 62
     3
 48
16.0
100
AcDbCircle
 10
372.3808272773744
 20
209.9344084727449
 30
0.0
 40
4.999992489998351
100
AcDbArc
 50
15.25520703799331
 51
89.99988732744027
  0
ARC
  5
4F7
330
1A
100
AcDbEntity
  8
SEIHIN
  6
CONTINUOUS
 62
     3
 48
16.0
100
AcDbCircle
 10
372.1080904331683
 20
210.9343602345653
 30
0.0
 40
5.000040728452622
100
AcDbArc
 50
15.25562923597083
 51
90.0006110347218
  0
LINE
  5
4F8
330
1A
100
AcDbEntity
  8
SEIHIN
  6
CONTINUOUS
 62
     3
 48
16.0
100
AcDbLine
 10
370.3817371098952
 20
215.9344009627337
 30
0.0
 11
372.1081371098952
 21
215.9344009627337
 31
0.0
  0
LINE
  5
4F9
330
1A
100
AcDbEntity
  8
SEIHIN
  6
CONTINUOUS
 62
     3
 48
16.0
100
AcDbLine
 10
372.3808371098952
 20
214.9344009627336
 30
0.0
 11
370.1317371098952
 21
214.9344009627336
 31
0.0
  0
ARC
  5
4FA
330
1A
100
AcDbEntity
  8
SEIHIN
  6
CONTINUOUS
 62
     3
100
AcDbCircle
 10
382.7113898110766
 20
246.1260386440785
 30
0.0
 40
4.025132804203871
100
AcDbArc
 50
14.27355039031716
 51
83.41102116449331
  0
ARC
  5
4FB
330
1A
100
AcDbEntity
  8
SEIHIN
  6
CONTINUOUS
 62
     3
100
AcDbCircle
 10
391.2674726239142
 20
321.616144075467
 30
0.0
 40
90.67970402023311
100
AcDbArc
 50
259.4459439246045
 51
268.3639521710492
  0
ARC
  5
4FC
330
1A
100
AcDbEntity
  8
SEIHIN
  6
CONTINUOUS
 62
     3
100
AcDbCircle
 10
391.2674726239142
 20
321.616144075467
 30
0.0
 40
88.67970402023312
100
AcDbArc
 50
259.4459439246045
 51
268.3639521710492
  0
ARC
  5
4FD
330
1A
100
AcDbEntity
  8
SEIHIN
  6
CONTINUOUS
 62
     3
100
AcDbCircle
 10
386.7864310178465
 20
307.3733390604667
 30
0.0
 40
70.36701334436111
100
AcDbArc
 50
261.0747693974664
 51
274.9692819869559
  0
ARC
  5
4FE
330
1A
100
AcDbEntity
  8
SEIHIN
  6
CONTINUOUS
 62
     3
100
AcDbCircle
 10
375.2193402676243
 20
276.7064951032299
 30
0.0
 40
38.85357737590537
100
AcDbArc
 50
270.9585295314516
 51
287.3512502381594
  0
ARC
  5
4FF
330
1A
100
AcDbEntity
  8
SEIHIN
  6
CONTINUOUS
 62
     3
100
AcDbCircle
 10
378.7237228105779
 20
274.6290997201701
 30
0.0
 40
30.6193186921776
100
AcDbArc
 50
279.6024813795679
 51
299.8858230110743
  0
ARC
  5
500
330
1A
100
AcDbEntity
  8
SEIHIN
  6
CONTINUOUS
 62
     3
100
AcDbCircle
 10
379.1857388697953
 20
246.4906262023846
 30
0.0
 40
3.394994361570023
100
AcDbArc
 50
27.94377789908531
 51
117.8774471028563
  0
ARC
  5
501
330
1A
100
AcDbEntity
  8
SEIHIN
  6
CONTINUOUS
 62
     3
100
AcDbCircle
 10
378.1335856934628
 20
248.6904079510463
 30
0.0
 40
0.9635805832564084
100
AcDbArc
 50
123.7462868287107
 51
266.1401928994262
  0
ARC
  5
502
330
1A
100
AcDbEntity
  8
SEIHIN
  6
CONTINUOUS
 62
     3
100
AcDbCircle
 10
373.9082375208198
 20
268.7790992664038
 30
0.0
 40
24.31935721843807
100
AcDbArc
 50
266.1863477843621
 51
282.3920537138453
  0
ARC
  5
503
330
1A
100
AcDbEntity
  8
SEIHIN
  6
CONTINUOUS
 62
     3
100
AcDbCircle
 10
378.1335856934628
 20
248.6904079510463
 30
0.0
 40
2.963580583256408
100
AcDbArc
 50
123.7462868287107
 51
225.834095995117
  0
ARC
  5
504
330
1A
100
AcDbEntity
  8
SEIHIN
  6
CONTINUOUS
 62
     3
100
AcDbCircle
 10
373.9082375208198
 20
268.7790992664038
 30
0.0
 40
22.31935721843806
100
AcDbArc
 50
266.1863477843621
 51
275.5549146400432
  0
ARC
  5
505
330
1A
100
AcDbEntity
  8
SEIHIN
  6
CONTINUOUS
 62
     3
100
AcDbCircle
 10
382.7113898110766
 20
246.1260386440785
 30
0.0
 40
2.025132804203871
100
AcDbArc
 50
303.5760397475023
 51
105.0686490253656
  0
ARC
  5
506
330
1A
100
AcDbEntity
  8
SEIHIN
  6
CONTINUOUS
 62
     3
100
AcDbCircle
 10
378.3595173036782
 20
246.2842979516883
 30
0.0
 40
1.473690465180053
100
AcDbArc
 50
301.3929047606122
 51
101.3805539823432
  0
ARC
  5
507
330
1A
100
AcDbEntity
  8
SEIHIN
  6
CONTINUOUS
 62
     3
100
AcDbCircle
 10
374.5131785258083
 20
273.463202919992
 30
0.0
 40
36.00589761498326
100
AcDbArc
 50
289.9638908102554
 51
318.2834524887292
  0
ARC
  5
508
330
1A
100
AcDbEntity
  8
SEIHIN
  6
CONTINUOUS
 62
     3
100
AcDbCircle
 10
389.573464617319
 20
272.8222686230767
 30
0.0
 40
39.85848524671839
100
AcDbArc
 50
268.7955250028155
 51
288.208011018661
  0
ARC
  5
509
330
1A
100
AcDbEntity
  8
SEIHIN
  6
CONTINUOUS
 62
     3
100
AcDbCircle
 10
392.1163215660805
 20
250.4740782216456
 30
0.0
 40
1.0
100
AcDbArc
 50
299.0058998302036
 51
317.2943834320698
  0
ARC
  5
50A
330
1A
100
AcDbEntity
  8
SEIHIN
  6
CONTINUOUS
 62
     3
100
AcDbCircle
 10
378.7237228105779
 20
274.6290997201701
 30
0.0
 40
28.6193186921776
100
AcDbArc
 50
285.9999775500774
 51
299.0058998302059
  0
ARC
  5
50B
330
1A
100
AcDbEntity
  8
SEIHIN
  6
CONTINUOUS
 62
     3
100
AcDbCircle
 10
408.2712496966546
 20
232.2004101291405
 30
0.0
 40
5.130457515380106
100
AcDbArc
 50
283.8437285816326
 51
32.08256544774499
  0
ARC
  5
50C
330
1A
100
AcDbEntity
  8
SEIHIN
  6
CONTINUOUS
 62
     3
100
AcDbCircle
 10
408.0984722100312
 20
229.8117211559489
 30
0.0
 40
2.946746958060609
100
AcDbArc
 50
152.1790577542117
 51
298.3739489407071
  0
ARC
  5
50D
330
1A
100
AcDbEntity
  8
SEIHIN
  6
CONTINUOUS
 62
     3
100
AcDbCircle
 10
408.0984722100312
 20
229.8117211559489
 30
0.0
 40
0.9467469580606097
100
AcDbArc
 50
152.1790577542117
 51
311.5525916508573
  0
LINE
  5
50E
330
1A
100
AcDbEntity
  8
SEIHIN
  6
CONTINUOUS
 62
     3
 48
16.0
100
AcDbLine
 10
407.5483371098952
 20
214.9343009627336
 30
0.0
 11
405.382537109895
 21
214.9343009627336
 31
0.0
  0
ARC
  5
50F
330
1A
100
AcDbEntity
  8
SEIHIN
  6
CONTINUOUS
 62
     3
100
AcDbCircle
 10
392.3313300932028
 20
266.2871793088797
 30
0.0
 40
33.43419805045428
100
AcDbArc
 50
303.8096594143224
 51
325.9236703871686
  0
ARC
  5
510
330
1A
100
AcDbEntity
  8
SEIHIN
  6
CONTINUOUS
 62
     3
100
AcDbCircle
 10
387.6660489866282
 20
268.8396526307926
 30
0.0
 40
36.7879024094007
100
AcDbArc
 50
301.8003398045106
 51
325.9488486959048
  0
ARC
  5
511
330
1A
100
AcDbEntity
  8
SEIHIN
  6
CONTINUOUS
 62
     3
100
AcDbCircle
 10
408.2712496966546
 20
232.2004101291405
 30
0.0
 40
3.130457515380105
100
AcDbArc
 50
278.3611477370429
 51
54.54552522599751
  0
ARC
  5
512
330
1A
100
AcDbEntity
  8
SEIHIN
  6
CONTINUOUS
 62
     3
100
AcDbCircle
 10
409.2145310147524
 20
236.0874491166896
 30
0.0
 40
1.59657095932139
100
AcDbArc
 50
303.1286430329826
 51
41.99637145715725
  0
LINE
  5
513
330
1A
100
AcDbEntity
  8
SEIHIN
  6
CONTINUOUS
 62
     3
100
AcDbLine
 10
402.6528908716526
 20
233.0597058786159
 30
0.0
 11
402.91308420088
 21
233.1660891787878
 31
0.0
  0
ARC
  5
514
330
1A
100
AcDbEntity
  8
SEIHIN
  6
CONTINUOUS
 62
     3
100
AcDbCircle
 10
404.1807635430559
 20
231.9601781833227
 30
0.0
 40
1.5
100
AcDbArc
 50
351.8031008917141
 51
89.69424279513393
  0
ARC
  5
515
330
1A
100
AcDbEntity
  8
SEIHIN
  6
CONTINUOUS
 62
     3
100
AcDbCircle
 10
403.8202935904327
 20
232.0121027831444
 30
0.0
 40
1.864190541901842
100
AcDbArc
 50
332.9297586967238
 51
351.8031008917142
  0
ARC
  5
516
330
1A
100
AcDbEntity
  8
SEIHIN
  6
CONTINUOUS
 62
     3
100
AcDbCircle
 10
404.1735692723575
 20
230.6120580793875
 30
0.0
 40
2.848139299985444
100
AcDbArc
 50
89.69424279513358
 51
116.2676150155019
  0
ARC
  5
517
330
1A
100
AcDbEntity
  8
SEIHIN
  6
CONTINUOUS
 62
     3
100
AcDbCircle
 10
403.8202935904327
 20
232.0121027831444
 30
0.0
 40
3.864190541901842
100
AcDbArc
 50
332.9297586967238
 51
49.70834739320594
  0
ARC
  5
518
330
1A
100
AcDbEntity
  8
SEIHIN
  6
CONTINUOUS
 62
     3
100
AcDbCircle
 10
408.4206284855656
 20
234.9161850475097
 30
0.0
 40
2.989577253433764
100
AcDbArc
 50
48.51279829220128
 51
117.2488412954736
  0
ARC
  5
519
330
1A
100
AcDbEntity
  8
SEIHIN
  6
CONTINUOUS
 62
     3
100
AcDbCircle
 10
409.9234654514773
 20
235.845405095165
 30
0.0
 40
2.847455918845615
100
AcDbArc
 50
341.1497783697629
 51
69.18504642852608
  0
ARC
  5
51A
330
1A
100
AcDbEntity
  8
SEIHIN
  6
CONTINUOUS
 62
     3
100
AcDbCircle
 10
399.3405249540464
 20
252.272569173804
 30
0.0
 40
12.47654360694226
100
AcDbArc
 50
314.5494768916496
 51
344.896325590367
  0
ARC
  5
51B
330
1A
100
AcDbEntity
  8
SEIHIN
  6
CONTINUOUS
 62
     3
100
AcDbCircle
 10
399.3405249540464
 20
252.272569173804
 30
0.0
 40
10.47654360694226
100
AcDbArc
 50
314.5494768916496
 51
344.896325590367
  0
ARC
  5
51C
330
1A
100
AcDbEntity
  8
SEIHIN
  6
CONTINUOUS
 62
     3
100
AcDbCircle
 10
428.5560978980142
 20
242.341322916782
 30
0.0
 40
6.189803225825263
100
AcDbArc
 50
85.65641269256085
 51
217.0050947403133
  0
ARC
  5
51D
330
1A
100
AcDbEntity
  8
SEIHIN
  6
CONTINUOUS
 62
     3
100
AcDbCircle
 10
428.5560978980142
 20
242.341322916782
 30
0.0
 40
4.189803225825263
100
AcDbArc
 50
85.65641269256085
 51
239.6539647272025
  0
ARC
  5
51E
330
1A
100
AcDbEntity
  8
SEIHIN
  6
CONTINUOUS
 62
     3
100
AcDbCircle
 10
429.3430689038356
 20
240.7058815920123
 30
0.0
 40
7.452326114178111
100
AcDbArc
 50
229.1021953384889
 51
292.6623559863871
  0
ARC
  5
51F
330
1A
100
AcDbEntity
  8
SEIHIN
  6
CONTINUOUS
 62
     3
100
AcDbCircle
 10
429.3430689038356
 20
240.7058815920123
 30
0.0
 40
5.452326114178111
100
AcDbArc
 50
229.1021953384889
 51
323.7253288711322
  0
ARC
  5
520
330
1A
100
AcDbEntity
  8
SEIHIN
  6
CONTINUOUS
 62
     3
100
AcDbCircle
 10
426.6804059463413
 20
237.4765123419247
 30
0.0
 40
3.272106442745574
100
AcDbArc
 50
159.6244788630504
 51
224.5186913376582
  0
ARC
  5
521
330
1A
100
AcDbEntity
  8
SEIHIN
  6
CONTINUOUS
 62
     3
100
AcDbCircle
 10
426.6804059463413
 20
237.4765123419247
 30
0.0
 40
1.272106442745574
100
AcDbArc
 50
100.9245772461102
 51
224.5186913376582
  0
ARC
  5
522
330
1A
100
AcDbEntity
  8
SEIHIN
  6
CONTINUOUS
 62
     3
100
AcDbCircle
 10
428.0205778968745
 20
245.5897774510391
 30
0.0
 40
3.091265181043403
100
AcDbArc
 50
23.87284379615394
 51
71.04113082659558
  0
ARC
  5
523
330
1A
100
AcDbEntity
  8
SEIHIN
  6
CONTINUOUS
 62
     3
100
AcDbCircle
 10
435.5894449223661
 20
247.6137758658241
 30
0.0
 40
4.804652238512935
100
AcDbArc
 50
189.2575619301638
 51
257.8775547933982
  0
ARC
  5
524
330
1A
100
AcDbEntity
  8
SEIHIN
  6
CONTINUOUS
 62
     3
100
AcDbCircle
 10
435.5894449223661
 20
247.6137758658241
 30
0.0
 40
6.804652238512935
100
AcDbArc
 50
189.2575619301638
 51
257.8775547933982
  0
ARC
  5
525
330
1A
100
AcDbEntity
  8
SEIHIN
  6
CONTINUOUS
 62
     3
100
AcDbCircle
 10
392.5708823485157
 20
264.5539068709342
 30
0.0
 40
13.89557217116054
100
AcDbArc
 50
26.14470443424128
 51
71.35314420124901
  0
ARC
  5
526
330
1A
100
AcDbEntity
  8
SEIHIN
  6
CONTINUOUS
 62
     3
100
AcDbCircle
 10
392.5708823485157
 20
264.5539068709342
 30
0.0
 40
11.89557217116054
100
AcDbArc
 50
14.36464482534274
 51
81.47971147124046
  0
ARC
  5
527
330
1A
100
AcDbEntity
  8
SEIHIN
  6
CONTINUOUS
 62
     3
100
AcDbCircle
 10
380.955712024302
 20
265.0161962670761
 30
0.0
 40
10.20293321525997
100
AcDbArc
 50
81.54882634775876
 51
114.6981099026703
  0
ARC
  5
528
330
1A
100
AcDbEntity
  8
SEIHIN
  6
CONTINUOUS
 62
     3
100
AcDbCircle
 10
383.2967715289719
 20
273.338271198884
 30
0.0
 40
1.959945203940888
100
AcDbArc
 50
115.4284938595773
 51
236.6745786068797
  0
ARC
  5
529
330
1A
100
AcDbEntity
  8
SEIHIN
  6
CONTINUOUS
 62
     3
100
AcDbCircle
 10
386.6896759183232
 20
267.2057168159635
 30
0.0
 40
2.976683333017512
100
AcDbArc
 50
258.7099712656057
 51
85.52695350645793
  0
ARC
  5
52A
330
1A
100
AcDbEntity
  8
SEIHIN
  6
CONTINUOUS
 62
     3
100
AcDbCircle
 10
386.0465319272327
 20
271.0103574158154
 30
0.0
 40
4.723992499541072
100
AcDbArc
 50
213.3926981308999
 51
273.5151532866792
  0
ARC
  5
52B
330
1A
100
AcDbEntity
  8
SEIHIN
  6
CONTINUOUS
 62
     3
100
AcDbCircle
 10
386.6896759183232
 20
267.2057168159635
 30
0.0
 40
0.9766833330175122
100
AcDbArc
 50
248.7804034532588
 51
83.12474733758369
  0
ARC
  5
52C
330
1A
100
AcDbEntity
  8
SEIHIN
  6
CONTINUOUS
 62
     3
100
AcDbCircle
 10
386.7128060545255
 20
270.1028772568977
 30
0.0
 40
1.929780650680392
100
AcDbArc
 50
124.1127028568796
 51
272.7856533574832
  0
ARC
  5
52D
330
1A
100
AcDbEntity
  8
SEIHIN
  6
CONTINUOUS
 62
     3
100
AcDbCircle
 10
389.511512669615
 20
267.109043713722
 30
0.0
 40
6.012024443971518
100
AcDbArc
 50
49.79421325660688
 51
130.2057867433885
  0
ARC
  5
52E
330
1A
100
AcDbEntity
  8
SEIHIN
  6
CONTINUOUS
 62
     3
100
AcDbCircle
 10
378.4314758379293
 20
262.1557487263176
 30
0.0
 40
3.406547996982627
100
AcDbArc
 50
295.8453072926744
 51
58.69758214839377
  0
ARC
  5
52F
330
1A
100
AcDbEntity
  8
SEIHIN
  6
CONTINUOUS
 62
     3
100
AcDbCircle
 10
378.4314758379293
 20
262.1557487263176
 30
0.0
 40
1.406547996982627
100
AcDbArc
 50
295.8453072926744
 51
58.69758214839377
  0
ARC
  5
530
330
1A
100
AcDbEntity
  8
SEIHIN
  6
CONTINUOUS
 62
     3
100
AcDbCircle
 10
379.0285415915688
 20
270.2849726349327
 30
0.0
 40
6.928707744110696
100
AcDbArc
 50
241.7749499988875
 51
271.1057901089598
  0
ARC
  5
531
330
1A
100
AcDbEntity
  8
SEIHIN
  6
CONTINUOUS
 62
     3
100
AcDbCircle
 10
373.8049034958395
 20
265.921461140229
 30
0.0
 40
9.264409114835888
100
AcDbArc
 50
269.5860299548292
 51
316.1611030432302
  0
ARC
  5
532
330
1A
100
AcDbEntity
  8
SEIHIN
  6
CONTINUOUS
 62
     3
100
AcDbCircle
 10
373.8049034958395
 20
265.921461140229
 30
0.0
 40
7.264409114835888
100
AcDbArc
 50
269.5860299548292
 51
316.1611030432302
  0
ARC
  5
533
330
1A
100
AcDbEntity
  8
SEIHIN
  6
CONTINUOUS
 62
     3
100
AcDbCircle
 10
373.7640370571438
 20
260.692606424689
 30
0.0
 40
4.03539795575102
100
AcDbArc
 50
217.1134282613778
 51
269.6729137128676
  0
ARC
  5
534
330
1A
100
AcDbEntity
  8
SEIHIN
  6
CONTINUOUS
 62
     3
100
AcDbCircle
 10
373.7640370571438
 20
260.692606424689
 30
0.0
 40
2.03539795575102
100
AcDbArc
 50
171.1029970976037
 51
269.6729137128676
  0
ARC
  5
535
330
1A
100
AcDbEntity
  8
SEIHIN
  6
CONTINUOUS
 62
     3
100
AcDbCircle
 10
379.0285415915688
 20
270.2849726349327
 30
0.0
 40
4.928707744110696
100
AcDbArc
 50
241.7749499988875
 51
271.1057901089598
  0
ARC
  5
536
330
1A
100
AcDbEntity
  8
SEIHIN
  6
CONTINUOUS
 62
     3
100
AcDbCircle
 10
380.955712024302
 20
265.0161962670761
 30
0.0
 40
8.202933215259969
100
AcDbArc
 50
101.312440661319
 51
117.5189650927524
  0
LINE
  5
537
330
1A
100
AcDbEntity
  8
SEIHIN
  6
CONTINUOUS
 62
     3
100
AcDbLine
 10
376.2393197854216
 20
266.1197582576014
 30
0.0
 11
376.6975781182049
 21
265.9423041796278
 31
0.0
  0
ARC
  5
538
330
1A
100
AcDbEntity
  8
SEIHIN
  6
CONTINUOUS
 62
     3
100
AcDbCircle
 10
377.0036620529164
 20
269.1601867161127
 30
0.0
 40
3.135031788228686
100
AcDbArc
 50
87.0389101901822
 51
255.8886659571787
  0
ARC
  5
539
330
1A
100
AcDbEntity
  8
SEIHIN
  6
CONTINUOUS
 62
     3
100
AcDbCircle
 10
377.0036620529164
 20
269.1601867161127
 30
0.0
 40
5.135031788228686
100
AcDbArc
 50
93.47348341375896
 51
255.8886659571787
  0
ARC
  5
53A
330
1A
100
AcDbEntity
  8
SEIHIN
  6
CONTINUOUS
 62
     3
100
AcDbCircle
 10
379.2515072620807
 20
263.6883770958641
 30
0.0
 40
1.673695850685104
100
AcDbArc
 50
55.42243499221754
 51
94.38093726497042
  0
ARC
  5
53B
330
1A
100
AcDbEntity
  8
SEIHIN
  6
CONTINUOUS
 62
     3
100
AcDbCircle
 10
383.2967715289719
 20
273.338271198884
 30
0.0
 40
3.959945203940888
100
AcDbArc
 50
184.0330085857534
 51
207.3885457653689
  0
ARC
  5
53C
330
1A
100
AcDbEntity
  8
SEIHIN
  6
CONTINUOUS
 62
     3
100
AcDbCircle
 10
383.9149821440275
 20
269.9928155255775
 30
0.0
 40
4.406151932849731
100
AcDbArc
 50
159.767348250122
 51
221.1214169155436
  0
ARC
  5
53D
330
1A
100
AcDbEntity
  8
SEIHIN
  6
CONTINUOUS
 62
     3
100
AcDbCircle
 10
386.0465319272327
 20
271.0103574158154
 30
0.0
 40
6.723992499541072
100
AcDbArc
 50
213.3926981308999
 51
270.5145308520628
  0
ARC
  5
53E
330
1A
100
AcDbEntity
  8
SEIHIN
  6
CONTINUOUS
 62
     3
100
AcDbCircle
 10
383.9149821440275
 20
269.9928155255775
 30
0.0
 40
2.40615193284973
100
AcDbArc
 50
134.7843974186848
 51
221.1214169155436
  0
ARC
  5
53F
330
1A
100
AcDbEntity
  8
SEIHIN
  6
CONTINUOUS
 62
     3
100
AcDbCircle
 10
389.511512669615
 20
267.109043713722
 30
0.0
 40
4.012024443971518
100
AcDbArc
 50
49.79421325660688
 51
130.2057867433885
  0
ARC
  5
540
330
1A
100
AcDbEntity
  8
SEIHIN
  6
CONTINUOUS
 62
     3
100
AcDbCircle
 10
435.2015038359263
 20
796.3845761645432
 30
0.0
 40
516.7271153813021
100
AcDbArc
 50
263.7608269355258
 51
264.7380978346443
  0
ARC
  5
541
330
1A
100
AcDbEntity
  8
SEIHIN
  6
CONTINUOUS
 62
     3
100
AcDbCircle
 10
435.2015038359263
 20
796.3845761645432
 30
0.0
 40
518.7271153813021
100
AcDbArc
 50
263.7066318232468
 51
264.7380978346443
  0
ARC
  5
542
330
1A
100
AcDbEntity
  8
SEIHIN
  6
CONTINUOUS
 62
     3
100
AcDbCircle
 10
378.1344261919859
 20
286.7397199957302
 30
0.0
 40
2.965246374650284
100
AcDbArc
 50
325.200862604466
 51
139.7078103289596
  0
ARC
  5
543
330
1A
100
AcDbEntity
  8
SEIHIN
  6
CONTINUOUS
 62
     3
100
AcDbCircle
 10
407.8321042610033
 20
251.2595991050225
 30
0.0
 40
49.22019317033367
100
AcDbArc
 50
130.1290092655206
 51
135.5815031071921
  0
ARC
  5
544
330
1A
100
AcDbEntity
  8
SEIHIN
  6
CONTINUOUS
 62
     3
100
AcDbCircle
 10
368.4518651380769
 20
290.8568917825809
 30
0.0
 40
11.46935116740402
100
AcDbArc
 50
327.3033569290954
 51
337.9170051100146
  0
ARC
  5
545
330
1A
100
AcDbEntity
  8
SEIHIN
  6
CONTINUOUS
 62
     3
100
AcDbCircle
 10
378.1344261919859
 20
286.7397199957302
 30
0.0
 40
0.9652463746502842
100
AcDbArc
 50
325.200862604466
 51
139.7078103289596
  0
ARC
  5
546
330
1A
100
AcDbEntity
  8
SEIHIN
  6
CONTINUOUS
 62
     3
100
AcDbCircle
 10
407.8321042610033
 20
251.2595991050225
 30
0.0
 40
47.22019317033367
100
AcDbArc
 50
130.1290092655206
 51
135.5815031071921
  0
ARC
  5
547
330
1A
100
AcDbEntity
  8
SEIHIN
  6
CONTINUOUS
 62
     3
100
AcDbCircle
 10
378.2943091416679
 20
282.1647902357587
 30
0.0
 40
1.38202185279063
100
AcDbArc
 50
188.5815056387857
 51
271.8539502671683
  0
ARC
  5
548
330
1A
100
AcDbEntity
  8
SEIHIN
  6
CONTINUOUS
 62
     3
100
AcDbCircle
 10
380.0812095479686
 20
282.1935857680824
 30
0.0
 40
3.162195283705606
100
AcDbArc
 50
128.7060213956558
 51
184.2621738772595
  0
ARC
  5
549
330
1A
100
AcDbEntity
  8
SEIHIN
  6
CONTINUOUS
 62
     3
100
AcDbCircle
 10
376.604478086871
 20
281.5394235562448
 30
0.0
 40
5.730316794289898
100
AcDbArc
 50
132.0656573367616
 51
196.7746030954184
  0
ARC
  5
54A
330
1A
100
AcDbEntity
  8
SEIHIN
  6
CONTINUOUS
 62
     3
100
AcDbCircle
 10
376.604478086871
 20
281.5394235562448
 30
0.0
 40
3.730316794289898
100
AcDbArc
 50
132.0656573367616
 51
230.3232880760017
  0
LINE
  5
54B
330
1A
100
AcDbEntity
  8
SEIHIN
  6
CONTINUOUS
 62
     3
100
AcDbLine
 10
379.7868956889782
 20
283.5808692921689
 30
0.0
 11
379.3544601647849
 21
283.1005219353564
 31
0.0
  0
ARC
  5
54C
330
1A
100
AcDbEntity
  8
SEIHIN
  6
CONTINUOUS
 62
     3
100
AcDbCircle
 10
380.0812095479686
 20
282.1935857680824
 30
0.0
 40
1.162195283705606
100
AcDbArc
 50
128.7060213956558
 51
153.1725198534008
  0
ARC
  5
54D
330
1A
100
AcDbEntity
  8
SEIHIN
  6
CONTINUOUS
 62
     3
100
AcDbCircle
 10
368.4518651380769
 20
290.8568917825809
 30
0.0
 40
13.46935116740402
100
AcDbArc
 50
327.3033569290954
 51
337.9170051100146
  0
ARC
  5
54E
330
1A
100
AcDbEntity
  8
SEIHIN
  6
CONTINUOUS
 62
     3
100
AcDbCircle
 10
393.8623641130831
 20
277.3879710623096
 30
0.0
 40
3.168858298111801
100
AcDbArc
 50
6.015550422074107
 51
84.19877607575442
  0
ARC
  5
54F
330
1A
100
AcDbEntity
  8
SEIHIN
  6
CONTINUOUS
 62
     3
100
AcDbCircle
 10
388.3486534609009
 20
267.1278881584452
 30
0.0
 40
14.73584318671967
100
AcDbArc
 50
63.75533406022205
 51
93.2355493233198
  0
ARC
  5
550
330
1A
100
AcDbEntity
  8
SEIHIN
  6
CONTINUOUS
 62
     3
100
AcDbCircle
 10
393.8623641130831
 20
277.3879710623096
 30
0.0
 40
1.1688582981118
100
AcDbArc
 50
293.7611293130222
 51
84.19877607575442
  0
ARC
  5
551
330
1A
100
AcDbEntity
  8
SEIHIN
  6
CONTINUOUS
 62
     3
100
AcDbCircle
 10
388.3486534609009
 20
267.1278881584452
 30
0.0
 40
12.73584318671967
100
AcDbArc
 50
63.75533406022205
 51
93.2355493233198
  0
ARC
  5
552
330
1A
100
AcDbEntity
  8
SEIHIN
  6
CONTINUOUS
 62
     3
100
AcDbCircle
 10
426.982654687981
 20
247.800853746907
 30
0.0
 40
13.61335144857415
100
AcDbArc
 50
116.5956231359123
 51
142.7834389251174
  0
ARC
  5
553
330
1A
100
AcDbEntity
  8
SEIHIN
  6
CONTINUOUS
 62
     3
100
AcDbCircle
 10
415.4176634908457
 20
264.3828253378531
 30
0.0
 40
2.8984369241582
100
AcDbArc
 50
220.9056990651523
 51
12.30226162091143
  0
ARC
  5
554
330
1A
100
AcDbEntity
  8
SEIHIN
  6
CONTINUOUS
 62
     3
100
AcDbCircle
 10
410.6368537262285
 20
259.6046242340099
 30
0.0
 40
3.873635138183013
100
AcDbArc
 50
46.36015815171076
 51
131.8192429779187
  0
ARC
  5
555
330
1A
100
AcDbEntity
  8
SEIHIN
  6
CONTINUOUS
 62
     3
100
AcDbCircle
 10
410.6368537262285
 20
259.6046242340099
 30
0.0
 40
5.873635138183013
100
AcDbArc
 50
46.36015815171076
 51
143.9244203413871
  0
ARC
  5
556
330
1A
100
AcDbEntity
  8
SEIHIN
  6
CONTINUOUS
 62
     3
100
AcDbCircle
 10
415.4176634908457
 20
264.3828253378531
 30
0.0
 40
0.8984369241582003
100
AcDbArc
 50
215.9534676671905
 51
12.30226162091143
  0
ARC
  5
557
330
1A
100
AcDbEntity
  8
SEIHIN
  6
CONTINUOUS
 62
     3
100
AcDbCircle
 10
408.5259308712715
 20
248.3755924768813
 30
0.0
 40
11.80291663898804
100
AcDbArc
 50
59.55024682689209
 51
80.05582032469064
  0
ARC
  5
558
330
1A
100
AcDbEntity
  8
SEIHIN
  6
CONTINUOUS
 62
     3
100
AcDbCircle
 10
409.530513769903
 20
251.7314453930188
 30
0.0
 40
6.421778107679856
100
AcDbArc
 50
51.78664999187977
 51
80.74933307978206
  0
ARC
  5
559
330
1A
100
AcDbEntity
  8
SEIHIN
  6
CONTINUOUS
 62
     3
100
AcDbCircle
 10
410.3051276158732
 20
258.5237228571009
 30
0.0
 40
1.5
100
AcDbArc
 50
80.05582032469005
 51
106.4455249048851
  0
ARC
  5
55A
330
1A
100
AcDbEntity
  8
SEIHIN
  6
CONTINUOUS
 62
     3
100
AcDbCircle
 10
410.6849544826884
 20
257.2369575265727
 30
0.0
 40
2.841653257963485
100
AcDbArc
 50
106.4455249048849
 51
224.2599499817226
  0
ARC
  5
55B
330
1A
100
AcDbEntity
  8
SEIHIN
  6
CONTINUOUS
 62
     3
100
AcDbCircle
 10
406.6977823051024
 20
262.4744736724649
 30
0.0
 40
1.0
100
AcDbArc
 50
143.9244203413878
 51
182.8523759798025
  0
ARC
  5
55C
330
1A
100
AcDbEntity
  8
SEIHIN
  6
CONTINUOUS
 62
     3
100
AcDbCircle
 10
408.7207632332887
 20
261.746206856807
 30
0.0
 40
1.0
100
AcDbArc
 50
131.8192429779187
 51
180.6707828760807
  0
ARC
  5
55D
330
1A
100
AcDbEntity
  8
SEIHIN
  6
CONTINUOUS
 62
     3
100
AcDbCircle
 10
406.6977823051024
 20
262.4744736724649
 30
0.0
 40
1.0
100
AcDbArc
 50
143.9244203413878
 51
182.8523759798025
  0
ARC
  5
55E
330
1A
100
AcDbEntity
  8
SEIHIN
  6
CONTINUOUS
 62
     3
100
AcDbCircle
 10
410.6849544826884
 20
257.2369575265727
 30
0.0
 40
0.841653257963485
100
AcDbArc
 50
98.34237916576061
 51
235.6477122128815
  0
ARC
  5
55F
330
1A
100
AcDbEntity
  8
SEIHIN
  6
CONTINUOUS
 62
     3
100
AcDbCircle
 10
410.5691781808386
 20
254.1384269757677
 30
0.0
 40
5.886195955092209
100
AcDbArc
 50
18.7924104232728
 51
48.99545482876586
  0
ARC
  5
560
330
1A
100
AcDbEntity
  8
SEIHIN
  6
CONTINUOUS
 62
     3
100
AcDbCircle
 10
413.1219702988282
 20
255.1320090303256
 30
0.0
 40
1.688652370621379
100
AcDbArc
 50
310.0525594945042
 51
76.96041798428321
  0
ARC
  5
561
330
1A
100
AcDbEntity
  8
SEIHIN
  6
CONTINUOUS
 62
     3
100
AcDbCircle
 10
409.997141095697
 20
260.8946530528902
 30
0.0
 40
9.294409478233411
100
AcDbArc
 50
30.29427072044836
 51
99.09779708998613
  0
ARC
  5
562
330
1A
100
AcDbEntity
  8
SEIHIN
  6
CONTINUOUS
 62
     3
100
AcDbCircle
 10
409.997141095697
 20
260.8946530528902
 30
0.0
 40
7.294409478233411
100
AcDbArc
 50
30.29427072044836
 51
106.3973792445118
  0
ARC
  5
563
330
1A
100
AcDbEntity
  8
SEIHIN
  6
CONTINUOUS
 62
     3
100
AcDbCircle
 10
406.1283560177962
 20
266.5861854520328
 30
0.0
 40
4.231760224869955
100
AcDbArc
 50
55.46291655337582
 51
104.837184626176
  0
ARC
  5
564
330
1A
100
AcDbEntity
  8
SEIHIN
  6
CONTINUOUS
 62
     3
100
AcDbCircle
 10
406.1283560177962
 20
266.5861854520328
 30
0.0
 40
2.231760224869955
100
AcDbArc
 50
35.82233376302959
 51
155.6854005863075
  0
LINE
  5
565
330
1A
100
AcDbEntity
  8
SEIHIN
  6
CONTINUOUS
 62
     3
100
AcDbLine
 10
418.0223617488115
 20
265.583136924879
 30
0.0
 11
418.2495440855275
 21
265.0003922579431
 31
0.0
  0
ARC
  5
566
330
1A
100
AcDbEntity
  8
SEIHIN
  6
CONTINUOUS
 62
     3
100
AcDbCircle
 10
428.9964106523002
 20
240.9987904198944
 30
0.0
 40
20.64431439837004
100
AcDbArc
 50
88.92782842811651
 51
113.7075423641285
  0
ARC
  5
567
330
1A
100
AcDbEntity
  8
SEIHIN
  6
CONTINUOUS
 62
     3
100
AcDbCircle
 10
428.9964106523002
 20
240.9987904198944
 30
0.0
 40
18.64431439837004
100
AcDbArc
 50
88.92782842811651
 51
113.7075423641285
  0
ARC
  5
568
330
1A
100
AcDbEntity
  8
SEIHIN
  6
CONTINUOUS
 62
     3
100
AcDbCircle
 10
429.3620955915886
 20
252.6008123865651
 30
0.0
 40
9.039048239875482
100
AcDbArc
 50
52.15223800640586
 51
90.13687465926357
  0
ARC
  5
569
330
1A
100
AcDbEntity
  8
SEIHIN
  6
CONTINUOUS
 62
     3
100
AcDbCircle
 10
429.3620955915886
 20
252.6008123865651
 30
0.0
 40
7.039048239875482
100
AcDbArc
 50
44.65707840877074
 51
90.13687465926357
  0
ARC
  5
56A
330
1A
100
AcDbEntity
  8
SEIHIN
  6
CONTINUOUS
 62
     3
 48
16.0
100
AcDbCircle
 10
417.5465215568767
 20
599.282081916474
 30
0.0
 40
289.9999155968217
100
AcDbArc
 50
250.1143437156396
 51
264.8570650105202
  0
ARC
  5
56B
330
1A
100
AcDbEntity
  8
SEIHIN
  6
CONTINUOUS
 62
     3
 48
16.0
100
AcDbCircle
 10
417.5468949743116
 20
599.2820012460993
 30
0.0
 40
295.9999320790426
100
AcDbArc
 50
251.0973966628315
 51
264.909279093586
  0
ARC
  5
56C
330
1A
100
AcDbEntity
  8
SEIHIN
  6
CONTINUOUS
 62
     3
 48
16.0
100
AcDbCircle
 10
417.5469165965607
 20
599.2819970577961
 30
0.0
 40
299.9999695744984
100
AcDbArc
 50
251.2230622698991
 51
264.9430466432311
  0
LINE
  5
56D
330
1A
100
AcDbEntity
  8
SEIHIN
  6
CONTINUOUS
 62
     3
 48
16.0
100
AcDbLine
 10
310.3457407401033
 20
317.7271425693723
 30
0.0
 11
312.7649596961
 21
327.4300998321324
 31
0.0
  0
LINE
  5
56E
330
1A
100
AcDbEntity
  8
SEIHIN
  6
CONTINUOUS
 62
     3
 48
16.0
100
AcDbLine
 10
322.6867371098953
 20
325.3703560409331
 30
0.0
 11
321.0097371098953
 21
315.4133560409331
 31
0.0
  0
LINE
  5
56F
330
1A
100
AcDbEntity
  8
SEIHIN
  6
CONTINUOUS
100
AcDbLine
 10
311.6176921948937
 20
303.5281591729075
 30
0.0
 11
309.6771007423419
 21
304.0120029641069
 31
0.0
  0
LINE
  5
570
330
1A
100
AcDbEntity
  8
SEIHIN
  6
CONTINUOUS
 62
     3
 48
16.0
100
AcDbLine
 10
315.1946112276061
 20
320.6406378920777
 30
0.0
 11
310.3457407401035
 21
317.7271425693725
 31
0.0
  0
LINE
  5
571
330
1A
100
AcDbEntity
  8
SEIHIN
  6
CONTINUOUS
 62
     3
 48
16.0
100
AcDbLine
 10
314.7055511486521
 20
326.946256040933
 30
0.0
 11
312.7649596961
 21
327.4300998321324
 31
0.0
  0
LINE
  5
572
330
1A
100
AcDbEntity
  8
SEIHIN
  6
CONTINUOUS
 62
     3
 48
16.0
100
AcDbLine
 10
314.7055511486521
 20
326.946256040933
 30
0.0
 11
314.2217073574527
 21
325.005664588381
 31
0.0
  0
LINE
  5
573
330
1A
100
AcDbEntity
  8
SEIHIN
  6
CONTINUOUS
 62
     3
 48
16.0
100
AcDbLine
 10
314.2217073574527
 20
325.005664588381
 30
0.0
 11
318.1028902625567
 21
324.0379770059823
 31
0.0
  0
ARC
  5
574
330
1A
100
AcDbEntity
  8
SEIHIN
  6
CONTINUOUS
 62
     3
 48
16.0
100
AcDbCircle
 10
386.8817133373474
 20
260.6461632192786
 30
0.0
 40
50.00003031789685
100
AcDbArc
 50
61.75321819503086
 51
84.64235013041616
  0
ARC
  5
575
330
1A
100
AcDbEntity
  8
SEIHIN
  6
CONTINUOUS
 62
     3
 48
16.0
100
AcDbCircle
 10
386.8813181197107
 20
260.646233570874
 30
0.0
 40
40.00006869980835
100
AcDbArc
 50
75.08949132413985
 51
83.94242415470136
  0
ARC
  5
576
330
1A
100
AcDbEntity
  8
SEIHIN
  6
CONTINUOUS
 62
     3
 48
16.0
100
AcDbCircle
 10
386.8816970019356
 20
260.6461652236225
 30
0.0
 40
44.00003737699107
100
AcDbArc
 50
69.94783044164229
 51
84.26091279724655
  0
LINE
  5
577
330
1A
100
AcDbEntity
  8
SEIHIN
  6
CONTINUOUS
 62
     3
 48
16.0
100
AcDbLine
 10
401.8934371098953
 20
302.0061560409329
 30
0.0
 11
397.1282371098952
 21
299.304456040933
 31
0.0
  0
LINE
  5
578
330
1A
100
AcDbEntity
  8
SEIHIN
  6
CONTINUOUS
 62
     3
 48
16.0
100
AcDbLine
 10
563.8817371098951
 20
268.9303560409331
 30
0.0
 11
567.8817371098951
 21
263.6061560409331
 31
0.0
  0
ARC
  5
579
330
1A
100
AcDbEntity
  8
SEIHIN
  6
CONTINUOUS
 62
     3
 48
16.0
100
AcDbCircle
 10
572.8817083762598
 20
254.9459579070568
 30
0.0
 40
19.99998796710059
100
AcDbArc
 50
175.3257864237001
 51
357.2424285729642
  0
ARC
  5
57A
330
1A
100
AcDbEntity
  8
SEIHIN
  6
CONTINUOUS
 62
     3
 48
16.0
100
AcDbCircle
 10
572.8817168763485
 20
254.9459621180911
 30
0.0
 40
10.0000244247178
100
AcDbArc
 50
119.9997853403726
 51
26.56471195449499
  0
ARC
  5
57B
330
1A
100
AcDbEntity
  8
SEIHIN
  6
CONTINUOUS
 62
     3
 48
16.0
100
AcDbCircle
 10
572.8817898951904
 20
254.945955054213
 30
0.0
 40
16.00000347760544
100
AcDbArc
 50
151.2933723656679
 51
26.56497872474641
  0
LINE
  5
57C
330
1A
100
AcDbEntity
  8
SEIHIN
  6
CONTINUOUS
 62
     3
 48
16.0
100
AcDbLine
 10
599.3078371098952
 20
194.9341009627335
 30
0.0
 11
564.4555371098952
 21
194.9341009627335
 31
0.0
  0
LINE
  5
57D
330
1A
100
AcDbEntity
  8
SEIHIN
  6
CONTINUOUS
 62
     3
 48
16.0
100
AcDbLine
 10
599.5806371098951
 20
195.9341009627336
 30
0.0
 11
564.1828371098954
 21
195.9341009627336
 31
0.0
  0
LINE
  5
57E
330
1A
100
AcDbEntity
  8
SEIHIN
  6
CONTINUOUS
 62
     3
 48
16.0
100
AcDbLine
 10
599.0351371098952
 20
193.9341009627336
 30
0.0
 11
564.7282371098953
 21
193.9341009627336
 31
0.0
  0
LINE
  5
57F
330
1A
100
AcDbEntity
  8
SEIHIN
  6
CONTINUOUS
 62
     3
 48
16.0
100
AcDbLine
 10
554.3865371098952
 20
212.2497009627336
 30
0.0
 11
557.9749371098953
 21
199.0923009627335
 31
0.0
  0
LINE
  5
580
330
1A
100
AcDbEntity
  8
SEIHIN
  6
CONTINUOUS
 62
     3
 48
16.0
100
AcDbLine
 10
548.8817371098953
 20
215.9341009627335
 30
0.0
 11
543.4336371098955
 21
193.2340009627336
 31
0.0
  0
LINE
  5
581
330
1A
100
AcDbEntity
  8
SEIHIN
  6
CONTINUOUS
 62
     3
 48
16.0
100
AcDbLine
 10
437.8817371098953
 20
196.9343009627336
 30
0.0
 11
437.8817371098953
 21
196.4343009627336
 31
0.0
  0
ARC
  5
582
330
1A
100
AcDbEntity
  8
SEIHIN
  6
CONTINUOUS
 62
     3
 48
16.0
100
AcDbCircle
 10
436.3817371098955
 20
196.9343009627336
 30
0.0
 40
1.499999999999957
100
AcDbArc
 50
0.0000000000016284
 51
90.00000000000161
  0
ARC
  5
583
330
1A
100
AcDbEntity
  8
SEIHIN
  6
CONTINUOUS
 62
     3
 48
16.0
100
AcDbCircle
 10
436.3817371098952
 20
196.4343009627336
 30
0.0
 40
1.5
100
AcDbArc
 50
270.0
 51
0.0
  0
LINE
  5
584
330
1A
100
AcDbEntity
  8
SEIHIN
  6
CONTINUOUS
 62
     3
 48
16.0
100
AcDbLine
 10
519.3817371098953
 20
194.9342009627336
 30
0.0
 11
536.3817371098953
 21
194.9341009627335
 31
0.0
  0
LINE
  5
585
330
1A
100
AcDbEntity
  8
SEIHIN
  6
CONTINUOUS
 62
     3
 48
16.0
100
AcDbLine
 10
519.3817371098953
 20
198.4342009627336
 30
0.0
 11
536.3817371098953
 21
198.4341009627336
 31
0.0
  0
LINE
  5
586
330
1A
100
AcDbEntity
  8
SEIHIN
  6
CONTINUOUS
 62
     3
 48
16.0
100
AcDbLine
 10
517.8817371098951
 20
196.9342009627336
 30
0.0
 11
517.8817371098951
 21
196.4342009627336
 31
0.0
  0
ARC
  5
587
330
1A
100
AcDbEntity
  8
SEIHIN
  6
CONTINUOUS
 62
     3
 48
16.0
100
AcDbCircle
 10
519.3817371098953
 20
196.9342009627335
 30
0.0
 40
1.500000000000085
100
AcDbArc
 50
89.99999999999674
 51
179.9999999999967
  0
ARC
  5
588
330
1A
100
AcDbEntity
  8
SEIHIN
  6
CONTINUOUS
 62
     3
 48
16.0
100
AcDbCircle
 10
519.3817371098953
 20
196.4342009627337
 30
0.0
 40
1.500000000000085
100
AcDbArc
 50
180.0000000000032
 51
270.0000000000032
  0
ARC
  5
589
330
1A
100
AcDbEntity
  8
SEIHIN
  6
CONTINUOUS
 62
     3
 48
16.0
100
AcDbCircle
 10
540.5164578108824
 20
193.9341172834781
 30
0.0
 40
3.000016320815956
100
AcDbArc
 50
269.9996046424198
 51
346.5043913503919
  0
LINE
  5
58A
330
1A
100
AcDbEntity
  8
SEIHIN
  6
CONTINUOUS
 62
     3
 48
16.0
100
AcDbLine
 10
537.8817371098953
 20
196.9341009627335
 30
0.0
 11
537.8817371098953
 21
196.4341009627335
 31
0.0
  0
ARC
  5
58B
330
1A
100
AcDbEntity
  8
SEIHIN
  6
CONTINUOUS
 62
     3
 48
16.0
100
AcDbCircle
 10
536.3817371098953
 20
196.9341009627336
 30
0.0
 40
1.500000000000056
100
AcDbArc
 50
359.9999999999983
 51
89.99999999999783
  0
ARC
  5
58C
330
1A
100
AcDbEntity
  8
SEIHIN
  6
CONTINUOUS
 62
     3
 48
16.0
100
AcDbCircle
 10
536.3817371098953
 20
196.4341009627335
 30
0.0
 40
1.5
100
AcDbArc
 50
270.0
 51
0.0
  0
ARC
  5
58D
330
1A
100
AcDbEntity
  8
SEIHIN
  6
CONTINUOUS
 62
     3
 48
16.0
100
AcDbCircle
 10
564.7282703962612
 20
200.9340755387127
 30
0.0
 40
6.999974576058214
100
AcDbArc
 50
195.2547744607594
 51
269.9997275463986
  0
ARC
  5
58E
330
1A
100
AcDbEntity
  8
SEIHIN
  6
CONTINUOUS
 62
     3
 48
16.0
100
AcDbCircle
 10
564.1828072408866
 20
202.9341237770144
 30
0.0
 40
7.000022814632085
100
AcDbArc
 50
195.2550760352598
 51
269.9994259718964
  0
ARC
  5
58F
330
1A
100
AcDbEntity
  8
SEIHIN
  6
CONTINUOUS
 62
     3
 48
16.0
100
AcDbCircle
 10
564.4555072405353
 20
201.9341237769448
 30
0.0
 40
7.000022814275014
100
AcDbArc
 50
195.2550760354661
 51
270.0002444832388
  0
ARC
  5
590
330
1A
100
AcDbEntity
  8
SEIHIN
  6
CONTINUOUS
 62
     3
100
AcDbCircle
 10
475.2329250840431
 20
286.409095420754
 30
0.0
 40
58.45774721026806
100
AcDbArc
 50
291.6354504623682
 51
302.1187556219118
  0
ARC
  5
591
330
1A
100
AcDbEntity
  8
SEIHIN
  6
CONTINUOUS
 62
     3
100
AcDbCircle
 10
511.0731698671313
 20
227.6357093611019
 30
0.0
 40
18.61956752049863
100
AcDbArc
 50
100.3162336664829
 51
123.6102783824697
  0
ARC
  5
592
330
1A
100
AcDbEntity
  8
SEIHIN
  6
CONTINUOUS
 62
     3
100
AcDbCircle
 10
606.3578911705251
 20
59.3280946653966
 30
0.0
 40
209.9884398205437
100
AcDbArc
 50
119.8394832892693
 51
122.0556843048643
  0
ARC
  5
593
330
1A
100
AcDbEntity
  8
SEIHIN
  6
CONTINUOUS
 62
     3
100
AcDbCircle
 10
475.2329250840431
 20
286.409095420754
 30
0.0
 40
56.45774721026806
100
AcDbArc
 50
291.6354504623682
 51
302.1187556219118
  0
ARC
  5
594
330
1A
100
AcDbEntity
  8
SEIHIN
  6
CONTINUOUS
 62
     3
 48
16.0
100
AcDbCircle
 10
498.8817196606259
 20
245.9460568113627
 30
0.0
 40
25.00001202749672
100
AcDbArc
 50
41.08178553916784
 51
133.8619348737647
  0
ARC
  5
595
330
1A
100
AcDbEntity
  8
SEIHIN
  6
CONTINUOUS
 62
     3
 48
16.0
100
AcDbCircle
 10
498.8817343632542
 20
245.9460564254356
 30
0.0
 40
28.99998123094218
100
AcDbArc
 50
41.08172790446459
 51
122.9801559247037
  0
ARC
  5
596
330
1A
100
AcDbEntity
  8
SEIHIN
  6
CONTINUOUS
 62
     3
 48
16.0
100
AcDbCircle
 10
498.8817178447843
 20
245.9460604087822
 30
0.0
 40
35.00003165841586
100
AcDbArc
 50
41.08162693939482
 51
113.3696658800672
  0
ARC
  5
597
330
1A
100
AcDbEntity
  8
SEIHIN
  6
CONTINUOUS
 62
     3
100
AcDbCircle
 10
482.8096445609141
 20
239.9412870360809
 30
0.0
 40
15.2562946126309
100
AcDbArc
 50
43.10108298063135
 51
97.4794575892664
  0
ARC
  5
598
330
1A
100
AcDbEntity
  8
SEIHIN
  6
CONTINUOUS
 62
     3
100
AcDbCircle
 10
478.3373835254387
 20
249.2204782386497
 30
0.0
 40
6.353955948486772
100
AcDbArc
 50
66.96424126142194
 51
166.665697735496
  0
ARC
  5
599
330
1A
100
AcDbEntity
  8
SEIHIN
  6
CONTINUOUS
 62
     3
100
AcDbCircle
 10
433.5760333875191
 20
252.1925048315945
 30
0.0
 40
6.281890833104686
100
AcDbArc
 50
301.832340620028
 51
20.19411873360817
  0
ARC
  5
59A
330
1A
100
AcDbEntity
  8
SEIHIN
  6
CONTINUOUS
 62
     3
100
AcDbCircle
 10
482.8096445609141
 20
239.9412870360809
 30
0.0
 40
13.2562946126309
100
AcDbArc
 50
43.10108298063135
 51
100.0072656967774
  0
ARC
  5
59B
330
1A
100
AcDbEntity
  8
SEIHIN
  6
CONTINUOUS
 62
     3
100
AcDbCircle
 10
478.3373835254387
 20
249.2204782386497
 30
0.0
 40
4.353955948486772
100
AcDbArc
 50
60.12609862503268
 51
161.1228577692938
  0
ARC
  5
59C
330
1A
100
AcDbEntity
  8
SEIHIN
  6
CONTINUOUS
 62
     3
100
AcDbCircle
 10
433.5760333875191
 20
252.1925048315945
 30
0.0
 40
4.281890833104686
100
AcDbArc
 50
301.832340620028
 51
29.58277732539568
  0
ARC
  5
59D
330
1A
100
AcDbEntity
  8
SEIHIN
  6
CONTINUOUS
 62
     3
100
AcDbCircle
 10
503.4711588972227
 20
275.3377120934168
 30
0.0
 40
49.2239859143291
100
AcDbArc
 50
220.0352057664709
 51
230.0122151926331
  0
ARC
  5
59E
330
1A
100
AcDbEntity
  8
SEIHIN
  6
CONTINUOUS
 62
     3
100
AcDbCircle
 10
480.6021296771389
 20
247.9363513861445
 30
0.0
 40
21.98418594871652
100
AcDbArc
 50
224.5144553309176
 51
251.8818932136233
  0
ARC
  5
59F
330
1A
100
AcDbEntity
  8
SEIHIN
  6
CONTINUOUS
 62
     3
100
AcDbCircle
 10
503.4711588972227
 20
275.3377120934168
 30
0.0
 40
51.2239859143291
100
AcDbArc
 50
220.0352057664709
 51
230.0122151926331
  0
ARC
  5
5A0
330
1A
100
AcDbEntity
  8
SEIHIN
  6
CONTINUOUS
 62
     3
100
AcDbCircle
 10
482.7522165580664
 20
255.6148022115945
 30
0.0
 40
27.96247362634398
100
AcDbArc
 50
228.7388612860745
 51
252.146172585136
  0
ARC
  5
5A1
330
1A
100
AcDbEntity
  8
SEIHIN
  6
CONTINUOUS
 62
     3
100
AcDbCircle
 10
459.9566522041906
 20
230.7769720488268
 30
0.0
 40
3.137779277437645
100
AcDbArc
 50
128.7927081897671
 51
321.2546667720627
  0
ARC
  5
5A2
330
1A
100
AcDbEntity
  8
SEIHIN
  6
CONTINUOUS
 62
     3
100
AcDbCircle
 10
448.1539154502481
 20
231.1021883515293
 30
0.0
 40
16.41440762538205
100
AcDbArc
 50
72.0069113053289
 51
80.35933046481781
  0
ARC
  5
5A3
330
1A
100
AcDbEntity
  8
SEIHIN
  6
CONTINUOUS
 62
     3
100
AcDbCircle
 10
455.3542365149905
 20
223.975189302811
 30
0.0
 40
16.15011931106523
100
AcDbArc
 50
94.98713180997761
 51
135.9544163217901
  0
ARC
  5
5A4
330
1A
100
AcDbEntity
  8
SEIHIN
  6
CONTINUOUS
 62
     3
100
AcDbCircle
 10
448.1539154502481
 20
231.1021883515293
 30
0.0
 40
14.41440762538205
100
AcDbArc
 50
69.99094855613356
 51
80.35933046481781
  0
ARC
  5
5A5
330
1A
100
AcDbEntity
  8
SEIHIN
  6
CONTINUOUS
 62
     3
100
AcDbCircle
 10
455.3542365149905
 20
223.975189302811
 30
0.0
 40
18.15011931106523
100
AcDbArc
 50
94.98713180997761
 51
135.9544163217901
  0
ARC
  5
5A6
330
1A
100
AcDbEntity
  8
SEIHIN
  6
CONTINUOUS
 62
     3
100
AcDbCircle
 10
433.2638957438618
 20
246.9502246099734
 30
0.0
 40
15.74977698792595
100
AcDbArc
 50
285.7446817357093
 51
311.1304734463819
  0
ARC
  5
5A7
330
1A
100
AcDbEntity
  8
SEIHIN
  6
CONTINUOUS
 62
     3
100
AcDbCircle
 10
433.2638957438618
 20
246.9502246099734
 30
0.0
 40
13.74977698792595
100
AcDbArc
 50
285.7446817357093
 51
311.1304734463819
  0
LINE
  5
5A8
330
1A
100
AcDbEntity
  8
SEIHIN
  6
CONTINUOUS
 62
     3
100
AcDbLine
 10
443.6237201779197
 20
235.0872775534913
 30
0.0
 11
443.7457421144485
 21
235.2032439657625
 31
0.0
  0
ARC
  5
5A9
330
1A
100
AcDbEntity
  8
SEIHIN
  6
CONTINUOUS
 62
     3
100
AcDbCircle
 10
456.0049184857666
 20
212.466768491551
 30
0.0
 40
35.1898501088856
100
AcDbArc
 50
98.3365834467272
 51
115.6894823341826
  0
ARC
  5
5AA
330
1A
100
AcDbEntity
  8
SEIHIN
  6
CONTINUOUS
 62
     3
100
AcDbCircle
 10
466.7142122155475
 20
180.7861066493893
 30
0.0
 40
66.55880737237308
100
AcDbArc
 50
104.2226878544619
 51
111.8756099515899
  0
ARC
  5
5AB
330
1A
100
AcDbEntity
  8
SEIHIN
  6
CONTINUOUS
 62
     3
100
AcDbCircle
 10
450.484141560244
 20
244.8200885495035
 30
0.0
 40
0.5
100
AcDbArc
 50
80.35933046481723
 51
104.222687854461
  0
ARC
  5
5AC
330
1A
100
AcDbEntity
  8
SEIHIN
  6
CONTINUOUS
 62
     3
100
AcDbCircle
 10
455.0101180077503
 20
233.8090996815269
 30
0.0
 40
6.339259121178757
100
AcDbArc
 50
54.89671711416743
 51
98.50754954626539
  0
ARC
  5
5AD
330
1A
100
AcDbEntity
  8
SEIHIN
  6
CONTINUOUS
 62
     3
100
AcDbCircle
 10
455.2629882547875
 20
236.3826741231284
 30
0.0
 40
6.281983632938491
100
AcDbArc
 50
342.1956265600009
 51
40.4425247821385
  0
ARC
  5
5AE
330
1A
100
AcDbEntity
  8
SEIHIN
  6
CONTINUOUS
 62
     3
100
AcDbCircle
 10
459.9566522041906
 20
230.7769720488268
 30
0.0
 40
1.137779277437645
100
AcDbArc
 50
128.7927081897671
 51
321.2546667720627
  0
ARC
  5
5AF
330
1A
100
AcDbEntity
  8
SEIHIN
  6
CONTINUOUS
 62
     3
100
AcDbCircle
 10
454.3625005357773
 20
237.267336617399
 30
0.0
 40
7.431502968374668
100
AcDbArc
 50
311.0595133366842
 51
337.8202583163365
  0
LINE
  5
5B0
330
1A
100
AcDbEntity
  8
SEIHIN
  6
CONTINUOUS
 62
     3
100
AcDbLine
 10
453.9502742960734
 20
240.0641682589007
 30
0.0
 11
454.0722897441908
 21
240.0786039963445
 31
0.0
  0
ARC
  5
5B1
330
1A
100
AcDbEntity
  8
SEIHIN
  6
CONTINUOUS
 62
     3
100
AcDbCircle
 10
454.3625005357773
 20
237.267336617399
 30
0.0
 40
5.431502968374668
100
AcDbArc
 50
311.0595133366842
 51
336.9999767613224
  0
ARC
  5
5B2
330
1A
100
AcDbEntity
  8
SEIHIN
  6
CONTINUOUS
 62
     3
100
AcDbCircle
 10
455.2629882547875
 20
236.3826741231284
 30
0.0
 40
4.281983632938491
100
AcDbArc
 50
343.2004557422074
 51
37.60081316857287
  0
ARC
  5
5B3
330
1A
100
AcDbEntity
  8
SEIHIN
  6
CONTINUOUS
 62
     3
100
AcDbCircle
 10
458.9382533086062
 20
233.8809487125622
 30
0.0
 40
6.139486461525942
100
AcDbArc
 50
304.3667197184539
 51
347.226044358453
  0
ARC
  5
5B4
330
1A
100
AcDbEntity
  8
SEIHIN
  6
CONTINUOUS
 62
     3
100
AcDbCircle
 10
459.5926500569827
 20
234.6144970825227
 30
0.0
 40
4.71857972841337
100
AcDbArc
 50
285.3792050223075
 51
359.7642996757763
  0
ARC
  5
5B5
330
1A
100
AcDbEntity
  8
SEIHIN
  6
CONTINUOUS
 62
     3
100
AcDbCircle
 10
457.1529901407363
 20
235.8693639052858
 30
0.0
 40
11.53414676701485
100
AcDbArc
 50
73.02730479241605
 51
109.9139434237633
  0
ARC
  5
5B6
330
1A
100
AcDbEntity
  8
SEIHIN
  6
CONTINUOUS
 62
     3
100
AcDbCircle
 10
457.309437291775
 20
235.749219793617
 30
0.0
 40
9.605164541646434
100
AcDbArc
 50
43.71819287979509
 51
74.12915624568002
  0
ARC
  5
5B7
330
1A
100
AcDbEntity
  8
SEIHIN
  6
CONTINUOUS
 62
     3
100
AcDbCircle
 10
455.0101180077503
 20
233.8090996815269
 30
0.0
 40
8.339259121178757
100
AcDbArc
 50
52.86975304060682
 51
98.50754954626539
  0
ARC
  5
5B8
330
1A
100
AcDbEntity
  8
SEIHIN
  6
CONTINUOUS
 62
     3
100
AcDbCircle
 10
453.2571572683541
 20
245.1163411180002
 30
0.0
 40
0.5
100
AcDbArc
 50
249.990948556132
 51
292.8461201619713
  0
ARC
  5
5B9
330
1A
100
AcDbEntity
  8
SEIHIN
  6
CONTINUOUS
 62
     3
100
AcDbCircle
 10
457.1529901407363
 20
235.8693639052858
 30
0.0
 40
9.534146767014854
100
AcDbArc
 50
73.02730479241605
 51
112.8461201619703
  0
ARC
  5
5BA
330
1A
100
AcDbEntity
  8
SEIHIN
  6
CONTINUOUS
 62
     3
100
AcDbCircle
 10
457.309437291775
 20
235.749219793617
 30
0.0
 40
11.60516454164643
100
AcDbArc
 50
43.71819287979509
 51
74.12915624568002
  0
ARC
  5
5BB
330
1A
100
AcDbEntity
  8
SEIHIN
  6
CONTINUOUS
 62
     3
100
AcDbCircle
 10
463.771370174774
 20
292.0194090612064
 30
0.0
 40
68.45560560675983
100
AcDbArc
 50
287.7644150623968
 51
299.0583694708002
  0
ARC
  5
5BC
330
1A
100
AcDbEntity
  8
SEIHIN
  6
CONTINUOUS
 62
     3
100
AcDbCircle
 10
463.771370174774
 20
292.0194090612064
 30
0.0
 40
66.45560560675983
100
AcDbArc
 50
287.7644150623968
 51
299.0583694708002
  0
ARC
  5
5BD
330
1A
100
AcDbEntity
  8
SEIHIN
  6
CONTINUOUS
 62
     3
100
AcDbCircle
 10
479.8399433548899
 20
255.7766109986421
 30
0.0
 40
27.3694526450606
100
AcDbArc
 50
258.0635497581254
 51
278.8426934230021
  0
LINE
  5
5BE
330
1A
100
AcDbEntity
  8
SEIHIN
  6
CONTINUOUS
 62
     3
100
AcDbLine
 10
484.3546791425378
 20
226.7562404042097
 30
0.0
 11
484.65744262232
 21
226.8278304892458
 31
0.0
  0
ARC
  5
5BF
330
1A
100
AcDbEntity
  8
SEIHIN
  6
CONTINUOUS
 62
     3
100
AcDbCircle
 10
479.8399433548899
 20
255.7766109986421
 30
0.0
 40
29.36945264506059
100
AcDbArc
 50
258.0635497581254
 51
278.8426934230021
  0
ARC
  5
5C0
330
1A
100
AcDbEntity
  8
SEIHIN
  6
CONTINUOUS
 62
     3
100
AcDbCircle
 10
483.9777001522636
 20
239.5094177477671
 30
0.0
 40
6.711674002321045
100
AcDbArc
 50
30.73454740633273
 51
106.121217364419
  0
ARC
  5
5C1
330
1A
100
AcDbEntity
  8
SEIHIN
  6
CONTINUOUS
 62
     3
100
AcDbCircle
 10
483.0477523219484
 20
244.3093219015267
 30
0.0
 40
9.729440507472453
100
AcDbArc
 50
266.6165734945102
 51
307.1868282630706
  0
ARC
  5
5C2
330
1A
100
AcDbEntity
  8
SEIHIN
  6
CONTINUOUS
 62
     3
100
AcDbCircle
 10
483.0477523219484
 20
244.3093219015267
 30
0.0
 40
11.72944050747245
100
AcDbArc
 50
266.6165734945102
 51
309.0563910759753
  0
ARC
  5
5C3
330
1A
100
AcDbEntity
  8
SEIHIN
  6
CONTINUOUS
 62
     3
100
AcDbCircle
 10
483.9777001522636
 20
239.5094177477671
 30
0.0
 40
8.711674002321045
100
AcDbArc
 50
30.73454740633273
 51
106.121217364419
  0
ARC
  5
5C4
330
1A
100
AcDbEntity
  8
SEIHIN
  6
CONTINUOUS
 62
     3
100
AcDbCircle
 10
475.3369050204957
 20
244.5829637089681
 30
0.0
 40
4.065310146070943
100
AcDbArc
 50
162.4491436323669
 51
255.774206703432
  0
ARC
  5
5C5
330
1A
100
AcDbEntity
  8
SEIHIN
  6
CONTINUOUS
 62
     3
100
AcDbCircle
 10
481.105427835954
 20
250.0714745955054
 30
0.0
 40
15.51581336853388
100
AcDbArc
 50
232.9558901902168
 51
274.09260464946
  0
ARC
  5
5C6
330
1A
100
AcDbEntity
  8
SEIHIN
  6
CONTINUOUS
 62
     3
100
AcDbCircle
 10
481.105427835954
 20
250.0714745955054
 30
0.0
 40
17.51581336853388
100
AcDbArc
 50
232.9558901902168
 51
274.09260464946
  0
LINE
  5
5C7
330
1A
100
AcDbEntity
  8
SEIHIN
  6
CONTINUOUS
 62
     3
100
AcDbLine
 10
482.2127712786597
 20
234.595226504089
 30
0.0
 11
482.473543916759
 21
234.5968403805222
 31
0.0
  0
ARC
  5
5C8
330
1A
100
AcDbEntity
  8
SEIHIN
  6
CONTINUOUS
 62
     3
100
AcDbCircle
 10
474.8400424103935
 20
242.5595548830695
 30
0.0
 40
1.981910124595448
100
AcDbArc
 50
255.3228136030377
 51
337.6301782822777
  0
ARC
  5
5C9
330
1A
100
AcDbEntity
  8
SEIHIN
  6
CONTINUOUS
 62
     3
100
AcDbCircle
 10
482.9788429195615
 20
239.1517115614124
 30
0.0
 40
6.841598895597766
100
AcDbArc
 50
99.24274954320456
 51
157.1787851818106
  0
ARC
  5
5CA
330
1A
100
AcDbEntity
  8
SEIHIN
  6
CONTINUOUS
 62
     3
100
AcDbCircle
 10
482.9788429195615
 20
239.1517115614124
 30
0.0
 40
8.841598895597766
100
AcDbArc
 50
99.24274954320456
 51
157.1787851818106
  0
ARC
  5
5CB
330
1A
100
AcDbEntity
  8
SEIHIN
  6
CONTINUOUS
 62
     3
100
AcDbCircle
 10
474.4877454869778
 20
247.8660905609428
 30
0.0
 40
3.659828873906047
100
AcDbArc
 50
129.6032245776342
 51
214.2017909232529
  0
ARC
  5
5CC
330
1A
100
AcDbEntity
  8
SEIHIN
  6
CONTINUOUS
 62
     3
100
AcDbCircle
 10
475.3369050204957
 20
244.5829637089681
 30
0.0
 40
2.065310146070943
100
AcDbArc
 50
126.250677498896
 51
255.774206703432
  0
ARC
  5
5CD
330
1A
100
AcDbEntity
  8
SEIHIN
  6
CONTINUOUS
 62
     3
100
AcDbCircle
 10
474.4877454869778
 20
247.8660905609428
 30
0.0
 40
1.659828873906047
100
AcDbArc
 50
81.69804354381112
 51
257.0454232175862
  0
ARC
  5
5CE
330
1A
100
AcDbEntity
  8
SEIHIN
  6
CONTINUOUS
 62
     3
100
AcDbCircle
 10
475.2562981127113
 20
250.4254057342961
 30
0.0
 40
1.058486322492344
100
AcDbArc
 50
168.9016901185957
 51
240.0220745159563
  0
LINE
  5
5CF
330
1A
100
AcDbEntity
  8
SEIHIN
  6
CONTINUOUS
 62
     3
100
AcDbLine
 10
481.8799612765946
 20
245.9044839241531
 30
0.0
 11
482.1140667919021
 21
245.9571645333955
 31
0.0
  0
ARC
  5
5D0
330
1A
100
AcDbEntity
  8
SEIHIN
  6
CONTINUOUS
 62
     3
100
AcDbCircle
 10
481.8245928301346
 20
240.8133076523129
 30
0.0
 40
8.280696406551014
100
AcDbArc
 50
329.0786359747953
 51
7.651407726353882
  0
ARC
  5
5D1
330
1A
100
AcDbEntity
  8
SEIHIN
  6
CONTINUOUS
 62
     3
100
AcDbCircle
 10
481.8245928301346
 20
240.8133076523129
 30
0.0
 40
10.28069640655101
100
AcDbArc
 50
326.9140018227671
 51
7.651407726353882
  0
ARC
  5
5D2
330
1A
100
AcDbEntity
  8
SEIHIN
  6
CONTINUOUS
 62
     3
100
AcDbCircle
 10
486.2864235903678
 20
241.6169453979715
 30
0.0
 40
9.64185654019165
100
AcDbArc
 50
333.4029472594685
 51
49.96407368638573
  0
ARC
  5
5D3
330
1A
100
AcDbEntity
  8
SEIHIN
  6
CONTINUOUS
 62
     3
100
AcDbCircle
 10
479.9243610899369
 20
239.6544821096639
 30
0.0
 40
10.35708825623546
100
AcDbArc
 50
12.61154012742914
 51
18.49218365012658
  0
ARC
  5
5D4
330
1A
100
AcDbEntity
  8
SEIHIN
  6
CONTINUOUS
 62
     3
100
AcDbCircle
 10
489.2950028716669
 20
242.3190213627122
 30
0.0
 40
2.722195650020671
100
AcDbArc
 50
357.1177147739034
 51
37.11439802150381
  0
ARC
  5
5D5
330
1A
100
AcDbEntity
  8
SEIHIN
  6
CONTINUOUS
 62
     3
100
AcDbCircle
 10
606.3578911705251
 20
59.3280946653966
 30
0.0
 40
211.9884398205437
100
AcDbArc
 50
119.8394832892693
 51
120.7632441678545
  0
ARC
  5
5D6
330
1A
100
AcDbEntity
  8
SEIHIN
  6
CONTINUOUS
 62
     3
100
AcDbCircle
 10
486.2864235903678
 20
241.6169453979715
 30
0.0
 40
11.64185654019165
100
AcDbArc
 50
359.3617345546208
 51
49.96407368638573
  0
ARC
  5
5D7
330
1A
100
AcDbEntity
  8
SEIHIN
  6
CONTINUOUS
 62
     3
 48
16.0
100
AcDbCircle
 10
457.8817287723897
 20
255.9461588139831
 30
0.0
 40
35.00000764821395
100
AcDbArc
 50
39.21619750401429
 51
103.9895795769623
  0
ARC
  5
5D8
330
1A
100
AcDbEntity
  8
SEIHIN
  6
CONTINUOUS
 62
     3
 48
16.0
100
AcDbCircle
 10
457.8817514635126
 20
255.9461498882618
 30
0.0
 40
28.9999552400528
100
AcDbArc
 50
29.60571292306436
 51
103.9895956622946
  0
ARC
  5
5D9
330
1A
100
AcDbEntity
  8
SEIHIN
  6
CONTINUOUS
 62
     3
 48
16.0
100
AcDbCircle
 10
457.8817150392132
 20
255.9461680958503
 30
0.0
 40
25.00000560590043
100
AcDbArc
 50
18.7238618757693
 51
103.9896763977123
  0
LINE
  5
5DA
330
1A
100
AcDbEntity
  8
SEIHIN
  6
CONTINUOUS
 62
     3
 48
16.0
100
AcDbLine
 10
483.0832371098954
 20
270.2947560409331
 30
0.0
 11
481.597837109895
 21
264.008956040933
 31
0.0
  0
ARC
  5
5DB
330
1A
100
AcDbEntity
  8
SEIHIN
  6
CONTINUOUS
 62
     3
 48
16.0
100
AcDbCircle
 10
537.881679319955
 20
279.946070790742
 30
0.0
 40
27.00002607473301
100
AcDbArc
 50
221.081884026069
 51
290.2823214246888
  0
ARC
  5
5DC
330
1A
100
AcDbEntity
  8
SEIHIN
  6
CONTINUOUS
 62
     3
100
AcDbCircle
 10
534.0871240089727
 20
236.8603540437936
 30
0.0
 40
2.564884095430419
100
AcDbArc
 50
325.076614088384
 51
104.6699756587259
  0
ARC
  5
5DD
330
1A
100
AcDbEntity
  8
SEIHIN
  6
CONTINUOUS
 62
     3
100
AcDbCircle
 10
530.8387120441993
 20
239.3684349227396
 30
0.0
 40
2.59899069211831
100
AcDbArc
 50
359.4089418935601
 51
72.92585892275036
  0
ARC
  5
5DE
330
1A
100
AcDbEntity
  8
SEIHIN
  6
CONTINUOUS
 62
     3
100
AcDbCircle
 10
542.9349715777229
 20
247.8341552403228
 30
0.0
 40
22.82873676971927
100
AcDbArc
 50
218.9924972894477
 51
275.1976778369888
  0
ARC
  5
5DF
330
1A
100
AcDbEntity
  8
SEIHIN
  6
CONTINUOUS
 62
     3
100
AcDbCircle
 10
544.3665685853209
 20
254.4204618953583
 30
0.0
 40
22.92489910401191
100
AcDbArc
 50
237.5697863331562
 51
269.3329765161734
  0
ARC
  5
5E0
330
1A
100
AcDbEntity
  8
SEIHIN
  6
CONTINUOUS
 62
     3
100
AcDbCircle
 10
530.7181424741197
 20
241.843215780312
 30
0.0
 40
5.470820165906125
100
AcDbArc
 50
229.3340661539221
 51
305.580544147093
  0
ARC
  5
5E1
330
1A
100
AcDbEntity
  8
SEIHIN
  6
CONTINUOUS
 62
     3
100
AcDbCircle
 10
532.2635733947945
 20
237.5746944063803
 30
0.0
 40
2.511157943309065
100
AcDbArc
 50
265.6381752123471
 51
335.5911037625823
  0
ARC
  5
5E2
330
1A
100
AcDbEntity
  8
SEIHIN
  6
CONTINUOUS
 62
     3
100
AcDbCircle
 10
542.9349715777229
 20
247.8341552403228
 30
0.0
 40
20.82873676971927
100
AcDbArc
 50
218.9924972894477
 51
275.1976778369888
  0
ARC
  5
5E3
330
1A
100
AcDbEntity
  8
SEIHIN
  6
CONTINUOUS
 62
     3
100
AcDbCircle
 10
509.1158433308311
 20
232.3107458667298
 30
0.0
 40
5.049584397255676
100
AcDbArc
 50
252.7282308768083
 51
25.65912434607708
  0
ARC
  5
5E4
330
1A
100
AcDbEntity
  8
SEIHIN
  6
CONTINUOUS
 62
     3
100
AcDbCircle
 10
509.4150281869612
 20
230.1921175395948
 30
0.0
 40
3.442448953716187
100
AcDbArc
 50
154.9930322609788
 51
213.3715250275877
  0
ARC
  5
5E5
330
1A
100
AcDbEntity
  8
SEIHIN
  6
CONTINUOUS
 62
     3
100
AcDbCircle
 10
509.1158433308311
 20
232.3107458667298
 30
0.0
 40
3.049584397255676
100
AcDbArc
 50
252.7282308768083
 51
44.85980025561531
  0
ARC
  5
5E6
330
1A
100
AcDbEntity
  8
SEIHIN
  6
CONTINUOUS
 62
     3
100
AcDbCircle
 10
508.2028254421283
 20
229.3885947289204
 30
0.0
 40
1.988126720260952
100
AcDbArc
 50
213.2491073289632
 51
252.8506485751924
  0
ARC
  5
5E7
330
1A
100
AcDbEntity
  8
SEIHIN
  6
CONTINUOUS
 62
     3
100
AcDbCircle
 10
514.899522352405
 20
231.8102160712994
 30
0.0
 40
14.79653343008666
100
AcDbArc
 50
45.35717445309257
 51
93.26671491173206
  0
ARC
  5
5E8
330
1A
100
AcDbEntity
  8
SEIHIN
  6
CONTINUOUS
 62
     3
100
AcDbCircle
 10
511.7590315427419
 20
220.3984580651267
 30
0.0
 40
18.73554763354122
100
AcDbArc
 50
43.71545429886538
 51
75.32634870274965
  0
ARC
  5
5E9
330
1A
100
AcDbEntity
  8
SEIHIN
  6
CONTINUOUS
 62
     3
100
AcDbCircle
 10
514.899522352405
 20
231.8102160712994
 30
0.0
 40
12.79653343008666
100
AcDbArc
 50
45.35717445309257
 51
93.26671491173206
  0
ARC
  5
5EA
330
1A
100
AcDbEntity
  8
SEIHIN
  6
CONTINUOUS
 62
     3
100
AcDbCircle
 10
511.7590315427419
 20
220.3984580651267
 30
0.0
 40
20.73554763354122
100
AcDbArc
 50
43.71545429886538
 51
75.32634870274965
  0
ARC
  5
5EB
330
1A
100
AcDbEntity
  8
SEIHIN
  6
CONTINUOUS
 62
     3
100
AcDbCircle
 10
508.4214293067732
 20
236.9637408001131
 30
0.0
 40
3.796919382102617
100
AcDbArc
 50
318.7818401950071
 51
72.80448915091191
  0
ARC
  5
5EC
330
1A
100
AcDbEntity
  8
SEIHIN
  6
CONTINUOUS
 62
     3
100
AcDbCircle
 10
509.6517298562948
 20
232.9177797396182
 30
0.0
 40
1.588834081869898
100
AcDbArc
 50
103.6336727404443
 51
240.8233263096858
  0
ARC
  5
5ED
330
1A
100
AcDbEntity
  8
SEIHIN
  6
CONTINUOUS
 62
     3
100
AcDbCircle
 10
506.8283802466964
 20
236.1000863722765
 30
0.0
 40
2.949927062401824
100
AcDbArc
 50
28.91462972488421
 51
122.3444450519802
  0
ARC
  5
5EE
330
1A
100
AcDbEntity
  8
SEIHIN
  6
CONTINUOUS
 62
     3
100
AcDbCircle
 10
507.3830980636527
 20
236.319525458874
 30
0.0
 40
0.5
100
AcDbArc
 50
303.699410281582
 51
26.66285310776684
  0
ARC
  5
5EF
330
1A
100
AcDbEntity
  8
SEIHIN
  6
CONTINUOUS
 62
     3
100
AcDbCircle
 10
506.9239060600759
 20
236.0889488379386
 30
0.0
 40
1.013831562159097
100
AcDbArc
 50
26.66285310776788
 51
127.0190540348295
  0
ARC
  5
5F0
330
1A
100
AcDbEntity
  8
SEIHIN
  6
CONTINUOUS
 62
     3
100
AcDbCircle
 10
509.6517298562948
 20
232.9177797396182
 30
0.0
 40
3.588834081869898
100
AcDbArc
 50
123.699410281582
 51
200.7320622716457
  0
ARC
  5
5F1
330
1A
100
AcDbEntity
  8
SEIHIN
  6
CONTINUOUS
 62
     3
100
AcDbCircle
 10
509.4150281869612
 20
230.1921175395948
 30
0.0
 40
1.442448953716187
100
AcDbArc
 50
111.8934002981653
 51
213.3715250275877
  0
ARC
  5
5F2
330
1A
100
AcDbEntity
  8
SEIHIN
  6
CONTINUOUS
 62
     3
100
AcDbCircle
 10
512.9123008787574
 20
220.0410613938536
 30
0.0
 40
18.82411150753918
100
AcDbArc
 50
78.64693128973233
 51
86.97192320793597
  0
ARC
  5
5F3
330
1A
100
AcDbEntity
  8
SEIHIN
  6
CONTINUOUS
 62
     3
100
AcDbCircle
 10
508.4214293067732
 20
236.9637408001131
 30
0.0
 40
5.796919382102617
100
AcDbArc
 50
334.8192761950555
 51
18.87311267049473
  0
ARC
  5
5F4
330
1A
100
AcDbEntity
  8
SEIHIN
  6
CONTINUOUS
 62
     3
100
AcDbCircle
 10
507.7375996774263
 20
236.0640161970186
 30
0.0
 40
2.222022952688382
100
AcDbArc
 50
313.8594359198595
 51
41.15732121210971
  0
ARC
  5
5F5
330
1A
100
AcDbEntity
  8
SEIHIN
  6
CONTINUOUS
 62
     3
100
AcDbCircle
 10
520.535317419304
 20
149.0152636985319
 30
0.0
 40
97.78241184777625
100
AcDbArc
 50
93.81026316272711
 51
97.46155775578753
  0
ARC
  5
5F6
330
1A
100
AcDbEntity
  8
SEIHIN
  6
CONTINUOUS
 62
     3
100
AcDbCircle
 10
520.535317419304
 20
149.0152636985319
 30
0.0
 40
95.78241184777624
100
AcDbArc
 50
93.81026316272711
 51
97.46155775578753
  0
ARC
  5
5F7
330
1A
100
AcDbEntity
  8
SEIHIN
  6
CONTINUOUS
 62
     3
100
AcDbCircle
 10
511.0731698671313
 20
227.6357093611019
 30
0.0
 40
16.61956752049863
100
AcDbArc
 50
100.3162336664829
 51
123.6102783824697
  0
ARC
  5
5F8
330
1A
100
AcDbEntity
  8
SEIHIN
  6
CONTINUOUS
 62
     3
100
AcDbCircle
 10
512.9123008787574
 20
220.0410613938536
 30
0.0
 40
20.82411150753917
100
AcDbArc
 50
78.64693128973233
 51
99.30869926495889
  0
ARC
  5
5F9
330
1A
100
AcDbEntity
  8
SEIHIN
  6
CONTINUOUS
 62
     3
100
AcDbCircle
 10
528.4211849308316
 20
247.4565765495324
 30
0.0
 40
7.956831211895311
100
AcDbArc
 50
235.2993986541975
 51
283.3971487129439
  0
ARC
  5
5FA
330
1A
100
AcDbEntity
  8
SEIHIN
  6
CONTINUOUS
 62
     3
100
AcDbCircle
 10
530.8271310352522
 20
239.2032925469704
 30
0.0
 40
0.7611750012669112
100
AcDbArc
 50
75.74345388234099
 51
137.6288752875431
  0
ARC
  5
5FB
330
1A
100
AcDbEntity
  8
SEIHIN
  6
CONTINUOUS
 62
     3
100
AcDbCircle
 10
530.8387120441993
 20
239.3684349227396
 30
0.0
 40
0.5989906921183104
100
AcDbArc
 50
322.5910232277263
 51
72.92585892275036
  0
ARC
  5
5FC
330
1A
100
AcDbEntity
  8
SEIHIN
  6
CONTINUOUS
 62
     3
100
AcDbCircle
 10
527.8385719517254
 20
242.7775412715943
 30
0.0
 40
5.130065174749557
100
AcDbArc
 50
262.3212095438205
 51
312.6533127468442
  0
ARC
  5
5FD
330
1A
100
AcDbEntity
  8
SEIHIN
  6
CONTINUOUS
 62
     3
100
AcDbCircle
 10
528.4211849308316
 20
247.4565765495324
 30
0.0
 40
5.956831211895311
100
AcDbArc
 50
235.2993986541975
 51
283.3971487129439
  0
ARC
  5
5FE
330
1A
100
AcDbEntity
  8
SEIHIN
  6
CONTINUOUS
 62
     3
100
AcDbCircle
 10
530.9252799715245
 20
239.6491284407259
 30
0.0
 40
2.305251474465296
100
AcDbArc
 50
72.93426913330823
 51
119.1789627187652
  0
ARC
  5
5FF
330
1A
100
AcDbEntity
  8
SEIHIN
  6
CONTINUOUS
 62
     3
100
AcDbCircle
 10
543.7265664133083
 20
235.8766241967537
 30
0.0
 40
10.85357527163135
100
AcDbArc
 50
277.1065974421797
 51
356.9613854881611
  0
ARC
  5
600
330
1A
100
AcDbEntity
  8
SEIHIN
  6
CONTINUOUS
 62
     3
100
AcDbCircle
 10
543.7265664133083
 20
235.8766241967537
 30
0.0
 40
8.853575271631351
100
AcDbArc
 50
277.1065974421797
 51
356.9613854881611
  0
ARC
  5
601
330
1A
100
AcDbEntity
  8
SEIHIN
  6
CONTINUOUS
 62
     3
 48
16.0
100
AcDbCircle
 10
549.5627272773742
 20
210.934108472745
 30
0.0
 40
4.999992489998248
100
AcDbArc
 50
15.25520703799363
 51
89.99988732744018
  0
ARC
  5
602
330
1A
100
AcDbEntity
  8
SEIHIN
  6
CONTINUOUS
 62
     3
 48
16.0
100
AcDbCircle
 10
549.8354272773743
 20
209.9341084727449
 30
0.0
 40
4.999992489998377
100
AcDbArc
 50
15.25520703799408
 51
89.99988732744084
  0
LINE
  5
603
330
1A
100
AcDbEntity
  8
SEIHIN
  6
CONTINUOUS
 62
     3
 48
16.0
100
AcDbLine
 10
549.8354371098951
 20
214.9341009627336
 30
0.0
 11
548.6417371098952
 21
214.9341009627336
 31
0.0
  0
ARC
  5
604
330
1A
100
AcDbEntity
  8
SEIHIN
  6
CONTINUOUS
 62
     3
100
AcDbCircle
 10
546.6913973460663
 20
231.955459814684
 30
0.0
 40
10.4270654738617
100
AcDbArc
 50
66.07175445856977
 51
105.9529941486666
  0
ARC
  5
605
330
1A
100
AcDbEntity
  8
SEIHIN
  6
CONTINUOUS
 62
     3
100
AcDbCircle
 10
548.2975309062178
 20
235.7741596843219
 30
0.0
 40
4.285892434268331
100
AcDbArc
 50
355.0897132869336
 51
64.99229370310661
  0
ARC
  5
606
330
1A
100
AcDbEntity
  8
SEIHIN
  6
CONTINUOUS
 62
     3
100
AcDbCircle
 10
544.7301943947118
 20
237.2521064725489
 30
0.0
 40
4.814603043997097
100
AcDbArc
 50
100.8302301477542
 51
189.1870751215591
  0
ARC
  5
607
330
1A
100
AcDbEntity
  8
SEIHIN
  6
CONTINUOUS
 62
     3
100
AcDbCircle
 10
546.6913973460663
 20
231.955459814684
 30
0.0
 40
8.427065473861709
100
AcDbArc
 50
66.07175445856977
 51
105.9529941486666
  0
ARC
  5
608
330
1A
100
AcDbEntity
  8
SEIHIN
  6
CONTINUOUS
 62
     3
100
AcDbCircle
 10
544.6941096903978
 20
236.7457238138005
 30
0.0
 40
3.327568490692804
100
AcDbArc
 50
95.49907457394393
 51
255.159480651471
  0
ARC
  5
609
330
1A
100
AcDbEntity
  8
SEIHIN
  6
CONTINUOUS
 62
     3
100
AcDbCircle
 10
544.4114278358345
 20
237.192929503057
 30
0.0
 40
4.490483722038383
100
AcDbArc
 50
189.0910725768689
 51
262.2155355791123
  0
ARC
  5
60A
330
1A
100
AcDbEntity
  8
SEIHIN
  6
CONTINUOUS
 62
     3
100
AcDbCircle
 10
546.0869704703773
 20
253.2327265821582
 30
0.0
 40
20.61578455503445
100
AcDbArc
 50
241.018832687477
 51
263.6398636174187
  0
ARC
  5
60B
330
1A
100
AcDbEntity
  8
SEIHIN
  6
CONTINUOUS
 62
     3
100
AcDbCircle
 10
532.2635733947945
 20
237.5746944063803
 30
0.0
 40
4.511157943309065
100
AcDbArc
 50
328.2143053593995
 51
335.5911037625823
  0
ARC
  5
60C
330
1A
100
AcDbEntity
  8
SEIHIN
  6
CONTINUOUS
 62
     3
100
AcDbCircle
 10
534.0871240089727
 20
236.8603540437936
 30
0.0
 40
0.5648840954304191
100
AcDbArc
 50
325.076614088384
 51
109.2032875373814
  0
ARC
  5
60D
330
1A
100
AcDbEntity
  8
SEIHIN
  6
CONTINUOUS
 62
     3
100
AcDbCircle
 10
545.3615440625915
 20
234.8168382762762
 30
0.0
 40
1.91180347833926
100
AcDbArc
 50
349.9674736307429
 51
87.58680010585555
  0
ARC
  5
60E
330
1A
100
AcDbEntity
  8
SEIHIN
  6
CONTINUOUS
 62
     3
100
AcDbCircle
 10
543.9241585101806
 20
234.8305095239357
 30
0.0
 40
3.338011574778734
100
AcDbArc
 50
273.0143005839622
 51
354.0379000162662
  0
ARC
  5
60F
330
1A
100
AcDbEntity
  8
SEIHIN
  6
CONTINUOUS
 62
     3
100
AcDbCircle
 10
544.5085797067299
 20
235.1947817914331
 30
0.0
 40
1.794123781485134
100
AcDbArc
 50
248.1835457399481
 51
58.64837725973507
  0
ARC
  5
610
330
1A
100
AcDbEntity
  8
SEIHIN
  6
CONTINUOUS
 62
     3
100
AcDbCircle
 10
548.2975309062178
 20
235.7741596843219
 30
0.0
 40
6.285892434268331
100
AcDbArc
 50
355.0897132869336
 51
64.99229370310661
  0
ARC
  5
611
330
1A
100
AcDbEntity
  8
SEIHIN
  6
CONTINUOUS
 62
     3
 48
16.0
100
AcDbCircle
 10
537.8817809328138
 20
279.9460448558587
 30
0.0
 40
23.00003987922035
100
AcDbArc
 50
221.0815958039954
 51
290.2819990180412
  0
ARC
  5
612
330
1A
100
AcDbEntity
  8
SEIHIN
  6
CONTINUOUS
 62
     3
 48
16.0
100
AcDbCircle
 10
537.8818189763326
 20
279.946035146139
 30
0.0
 40
17.00002158094338
100
AcDbArc
 50
221.0816014206127
 51
290.2820497913443
  0
LINE
  5
613
330
1A
100
AcDbEntity
  8
SEIHIN
  6
CONTINUOUS
 62
     3
 48
16.0
100
AcDbLine
 10
551.7889371098951
 20
266.9618560409332
 30
0.0
 11
543.7747371098953
 21
264.000056040933
 31
0.0
  0
LINE
  5
614
330
1A
100
AcDbEntity
  8
SEIHIN
  6
CONTINUOUS
 62
     3
 48
16.0
100
AcDbLine
 10
553.8689371098953
 20
261.3338560409331
 30
0.0
 11
545.8546371098953
 21
258.372056040933
 31
0.0
  0
LINE
  5
615
330
1A
100
AcDbEntity
  8
SEIHIN
  6
CONTINUOUS
 62
     3
 48
16.0
100
AcDbLine
 10
547.2411371098953
 20
254.6201560409331
 30
0.0
 11
552.8962371098953
 21
256.7099560409329
 31
0.0
  0
LINE
  5
616
330
1A
100
AcDbEntity
  8
SEIHIN
  6
CONTINUOUS
 62
     3
 48
16.0
100
AcDbLine
 10
558.8379371098953
 20
262.612256040933
 30
0.0
 11
552.6892371098954
 21
256.633556040933
 31
0.0
  0
ARC
  5
617
330
1A
100
AcDbEntity
  8
SEIHIN
  6
CONTINUOUS
 62
     3
 48
16.0
100
AcDbCircle
 10
562.8819930042832
 20
236.9460227123413
 30
0.0
 40
26.00003059649223
100
AcDbArc
 50
98.92494074827908
 51
110.2828918176005
  0
ARC
  5
618
330
1A
100
AcDbEntity
  8
SEIHIN
  6
CONTINUOUS
 62
     3
 48
16.0
100
AcDbCircle
 10
562.8817208875719
 20
236.9459534001878
 30
0.0
 40
32.00003194889382
100
AcDbArc
 50
88.2091880690538
 51
110.2823074924921
  0
LINE
  5
619
330
1A
100
AcDbEntity
  8
SEIHIN
  6
CONTINUOUS
 62
     3
 48
16.0
100
AcDbLine
 10
605.7885371098953
 20
199.0922009627336
 30
0.0
 11
609.3769371098954
 21
212.2496009627337
 31
0.0
  0
ARC
  5
61A
330
1A
100
AcDbEntity
  8
SEIHIN
  6
CONTINUOUS
 62
     3
 48
16.0
100
AcDbCircle
 10
599.0351842042853
 20
200.934136932906
 30
0.0
 40
7.000035970330795
100
AcDbArc
 50
269.9996145291528
 51
344.7439933140306
  0
ARC
  5
61B
330
1A
100
AcDbEntity
  8
SEIHIN
  6
CONTINUOUS
 62
     3
 48
16.0
100
AcDbCircle
 10
599.3079210475569
 20
201.9340886947272
 30
0.0
 40
6.999987732496937
100
AcDbArc
 50
269.999312959689
 51
344.7442948834952
  0
ARC
  5
61C
330
1A
100
AcDbEntity
  8
SEIHIN
  6
CONTINUOUS
 62
     3
 48
16.0
100
AcDbCircle
 10
599.5806210475568
 20
202.9340886947273
 30
0.0
 40
6.999987732496937
100
AcDbArc
 50
269.999312959689
 51
344.7442948834952
  0
LINE
  5
61D
330
1A
100
AcDbEntity
  8
SEIHIN
  6
CONTINUOUS
 62
     3
 48
16.0
100
AcDbLine
 10
633.0989371098953
 20
215.939956040933
 30
0.0
 11
626.8612371098952
 21
216.3168560409331
 31
0.0
  0
ARC
  5
61E
330
1A
100
AcDbEntity
  8
SEIHIN
  6
CONTINUOUS
 62
     3
 48
16.0
100
AcDbCircle
 10
607.8817621254202
 20
215.9459179667128
 30
0.0
 40
24.99997498450392
100
AcDbArc
 50
0.0000872597723906
 51
66.61151753445672
  0
LINE
  5
61F
330
1A
100
AcDbEntity
  8
SEIHIN
  6
CONTINUOUS
 62
     3
 48
16.0
100
AcDbLine
 10
632.881737109895
 20
207.4340009627337
 30
0.0
 11
617.8817371098951
 21
207.4340009627337
 31
0.0
  0
ARC
  5
620
330
1A
100
AcDbEntity
  8
SEIHIN
  6
CONTINUOUS
 62
     3
 48
16.0
100
AcDbCircle
 10
608.8819459363349
 20
276.9458433425721
 30
0.0
 40
28.00004448674787
100
AcDbArc
 50
235.0917688069171
 51
248.1980321166829
  0
ARC
  5
621
330
1A
100
AcDbEntity
  8
SEIHIN
  6
CONTINUOUS
 62
     3
 48
16.0
100
AcDbCircle
 10
592.8817373640375
 20
236.9459555231799
 30
0.0
 40
14.99996842696677
100
AcDbArc
 50
344.0903888993484
 51
68.19837935782958
  0
ARC
  5
622
330
1A
100
AcDbEntity
  8
SEIHIN
  6
CONTINUOUS
 62
     3
 48
16.0
100
AcDbCircle
 10
592.8817149401557
 20
236.9459927162312
 30
0.0
 40
18.99994979349951
100
AcDbArc
 50
354.1064160012464
 51
68.19820737690609
  0
ARC
  5
623
330
1A
100
AcDbEntity
  8
SEIHIN
  6
CONTINUOUS
 62
     3
 48
16.0
100
AcDbCircle
 10
592.8817044076179
 20
236.9460005088549
 30
0.0
 40
24.9999671110053
100
AcDbArc
 50
4.463863509980032
 51
68.19839795983185
  0
ARC
  5
624
330
1A
100
AcDbEntity
  8
SEIHIN
  6
CONTINUOUS
 62
     3
 48
16.0
100
AcDbCircle
 10
607.8817320555544
 20
215.9459623986793
 30
0.0
 40
19.00000505434179
100
AcDbArc
 50
359.9999808277928
 51
76.96863477454154
  0
ARC
  5
625
330
1A
100
AcDbEntity
  8
SEIHIN
  6
CONTINUOUS
 62
     3
 48
16.0
100
AcDbCircle
 10
607.8817440059717
 20
215.9459468879665
 30
0.0
 40
14.99997915915136
100
AcDbArc
 50
347.0061557325856
 51
86.9844902228732
  0
LINE
  5
626
330
1A
100
AcDbEntity
  8
SEIHIN
  6
CONTINUOUS
 62
     3
 48
16.0
100
AcDbLine
 10
614.8817371098953
 20
215.9340009627336
 30
0.0
 11
617.8817371098951
 21
207.4340009627337
 31
0.0
  0
LINE
  5
627
330
1A
100
AcDbEntity
  8
SEIHIN
  6
CONTINUOUS
 62
     3
 48
16.0
100
AcDbLine
 10
615.2346371098952
 20
214.9340009627335
 30
0.0
 11
613.9279371098953
 21
214.9340009627335
 31
0.0
  0
ARC
  5
628
330
1A
100
AcDbEntity
  8
SEIHIN
  6
CONTINUOUS
 62
     3
 48
16.0
100
AcDbCircle
 10
613.9279469424161
 20
209.9340084727448
 30
0.0
 40
4.999992489998366
100
AcDbArc
 50
90.00011267255919
 51
164.7447929620056
  0
ARC
  5
629
330
1A
100
AcDbEntity
  8
SEIHIN
  6
CONTINUOUS
 62
     3
 48
16.0
100
AcDbCircle
 10
614.2007469424161
 20
210.934008472745
 30
0.0
 40
4.999992489998281
100
AcDbArc
 50
90.00011267256049
 51
164.744792962007
  0
LINE
  5
62A
330
1A
100
AcDbEntity
  8
SEIHIN
  6
CONTINUOUS
 62
     3
 48
16.0
100
AcDbLine
 10
626.8612371098952
 20
216.3168560409331
 30
0.0
 11
622.4712371098951
 21
212.574956040933
 31
0.0
  0
ARC
  5
62B
330
1A
100
AcDbEntity
  8
SEIHIN
  6
CONTINUOUS
 62
     3
 48
16.0
100
AcDbCircle
 10
608.749741808383
 20
232.42304946289
 30
0.0
 40
1.499970218032773
100
AcDbArc
 50
164.08904128826
 51
266.984610897677
  0
ARC
  5
62C
330
1A
100
AcDbEntity
  8
SEIHIN
  6
CONTINUOUS
 62
     3
 48
16.0
100
AcDbCircle
 10
612.2787159396655
 20
234.9437856804755
 30
0.0
 40
0.5000143499591974
100
AcDbArc
 50
174.1146741367769
 51
256.964707996203
  0
ARC
  5
62D
330
1A
100
AcDbEntity
  8
SEIHIN
  6
CONTINUOUS
 62
     3
 48
16.0
100
AcDbCircle
 10
608.8817399301929
 20
276.9459525458937
 30
0.0
 40
18.00000401791644
100
AcDbArc
 50
189.604385341609
 51
248.1986962640056
  0
ARC
  5
62E
330
1A
100
AcDbEntity
  8
SEIHIN
  6
CONTINUOUS
 62
     3
 48
16.0
100
AcDbCircle
 10
608.8817890190882
 20
276.9459086054755
 30
0.0
 40
24.00003923192027
100
AcDbArc
 50
206.9581101258143
 51
248.1984333955978
  0
ARC
  5
62F
330
1A
100
AcDbEntity
  8
SEIHIN
  6
CONTINUOUS
 62
     3
 48
16.0
100
AcDbCircle
 10
590.8817290472586
 20
263.9459433560602
 30
0.0
 40
9.999996160744508
100
AcDbArc
 50
88.55422730963907
 51
206.5647505956472
  0
LINE
  5
630
330
1A
100
AcDbEntity
  8
SEIHIN
  6
CONTINUOUS
 62
     3
 48
16.0
100
AcDbLine
 10
587.3577371098954
 20
265.8384560409331
 30
0.0
 11
592.8524371098951
 21
253.863656040933
 31
0.0
  0
ARC
  5
631
330
1A
100
AcDbEntity
  8
SEIHIN
  6
CONTINUOUS
 62
     3
 48
16.0
100
AcDbCircle
 10
590.8817358612895
 20
263.9459297423532
 30
0.0
 40
3.999999684420196
100
AcDbArc
 50
147.9974763764267
 51
206.5653628315937
  0
LINE
  5
632
330
1A
100
AcDbEntity
  8
SEIHIN
  6
CONTINUOUS
 62
     3
 48
16.0
100
AcDbLine
 10
632.881737109895
 20
215.9530560409331
 30
0.0
 11
632.881737109895
 21
207.4340009627337
 31
0.0
  0
LINE
  5
633
330
1A
100
AcDbEntity
  8
ZUWAKU
  6
CONTINUOUS
 62
     7
100
AcDbLine
 10
343.6142548725142
 20
23.43513592935164
 30
0.0
 11
343.6142548725142
 21
16.23097889222185
 31
0.0
  0
LINE
  5
634
330
1A
100
AcDbEntity
  8
ZUWAKU
  6
CONTINUOUS
 62
     7
100
AcDbLine
 10
340.6100335862784
 20
23.43513592935163
 30
0.0
 11
340.6100335862785
 21
16.23097889222184
 31
0.0
  0
LINE
  5
635
330
1A
100
AcDbEntity
  8
ZUWAKU
  6
CONTINUOUS
 62
     7
100
AcDbLine
 10
339.047839400891
 20
16.23097889222184
 30
0.0
 11
345.176446603859
 21
16.23097889222185
 31
0.0
  0
LINE
  5
636
330
1A
100
AcDbEntity
  8
ZUWAKU
  6
CONTINUOUS
 62
     7
100
AcDbLine
 10
339.047839400891
 20
23.43513592935163
 30
0.0
 11
345.176446603859
 21
23.43513592935164
 31
0.0
  0
VIEWPORT
  5
22
330
17
100
AcDbEntity
 67
     1
  8
0
100
AcDbViewport
 10
313.6808219178082
 20
148.5
 30
0.0
 40
627.3616438356165
 41
297.0
 68
     2
 69
     1
1001
ACAD
1000
MVIEW
1002
{
1070
    16
1010
0.0
1020
0.0
1030
0.0
1010
0.0
1020
0.0
1030
1.0
1040
0.0
1040
297.0
1040
313.6808219178082
1040
148.5
1040
50.0
1040
0.0
1040
0.0
1070
     0
1070
   100
1070
     1
1070
     0
1070
     0
1070
     0
1070
     0
1070
     0
1040
0.0
1040
0.0
1040
0.0
1040
1.0
1040
1.0
1040
10.0
1040
10.0
1070
     0
1002
{
1002
}
1002
}
  0
VIEWPORT
  5
64
330
17
100
AcDbEntity
 67
     1
  8
VIEWPORT
100
AcDbViewport
 10
210.0
 20
148.5
 30
0.0
 40
420.0
 41
297.0
 68
     1
 69
     2
1001
ACAD
1000
MVIEW
1002
{
1070
    16
1010
0.0
1020
0.0
1030
0.0
1010
0.0
1020
0.0
1030
1.0
1040
0.0
1040
605.8799999999998
1040
420.0
1040
297.0
1040
50.0
1040
0.0
1040
0.0
1070
     0
1070
   100
1070
     1
1070
     0
1070
     0
1070
     0
1070
     0
1070
     0
1040
0.0
1040
0.0
1040
0.0
1040
10.0
1040
10.0
1040
0.0
1040
0.0
1070
     0
1002
{
1002
}
1002
}
  0
ENDSEC
  0
SECTION
  2
OBJECTS
  0
DICTIONARY
  5
C
330
0
100
AcDbDictionary
  3
ACAD_GROUP
350
D
  3
ACAD_LAYOUT
350
669
  3
ACAD_MLINESTYLE
350
E
  3
ACAD_PLOTSETTINGS
350
66A
1001
ACAD
1000
TREAT_AS_HARD
1070
     0
  0
DICTIONARY
  5
698
330
1A
100
AcDbDictionary
  3
ACAD_LAYOUTSELFREF
350
6A8
1001
ACAD
1000
TREAT_AS_HARD
1070
     1
  0
DICTIONARY
  5
696
330
17
100
AcDbDictionary
  3
ACAD_LAYOUTSELFREF
350
6A7
1001
ACAD
1000
TREAT_AS_HARD
1070
     1
  0
DICTIONARY
  5
D
102
{ACAD_REACTORS
330
C
102
}
330
C
100
AcDbDictionary
1001
ACAD
1000
TREAT_AS_HARD
1070
     0
  0
DICTIONARY
  5
669
102
{ACAD_REACTORS
330
C
102
}
330
C
100
AcDbDictionary
1001
ACAD
1000
TREAT_AS_HARD
1070
     0
  0
DICTIONARY
  5
E
102
{ACAD_REACTORS
330
C
102
}
330
C
100
AcDbDictionary
  3
STANDARD
350
13
1001
ACAD
1000
TREAT_AS_HARD
1070
     0
  0
DICTIONARY
  5
66A
102
{ACAD_REACTORS
330
C
102
}
330
C
100
AcDbDictionary
1001
ACAD
1000
TREAT_AS_HARD
1070
     0
  0
XRECORD
  5
6A8
102
{ACAD_REACTORS
330
698
102
}
330
698
100
AcDbXrecord
340
1A
  0
XRECORD
  5
6A7
102
{ACAD_REACTORS
330
696
102
}
330
696
100
AcDbXrecord
340
17
  0
MLINESTYLE
  5
13
102
{ACAD_REACTORS
330
E
102
}
330
E
100
AcDbMlineStyle
  2
STANDARD
 70
     0
  3

 62
     0
 51
90.0
 52
90.0
 71
     2
 49
0.5
 62
   256
  6
BYLAYER
 49
-0.5
 62
   256
  6
BYLAYER
  0
ENDSEC
  0
EOF
