  0
SECTION
  2
HEADER
  9
$ACADVER
  1
AC1012
  9
$DWGCODEPAGE
  3
dos932
  9
$INSBASE
 10
0.0
 20
0.0
 30
0.0
  9
$EXTMIN
 10
10.05047808566086
 20
4.949376903717846
 30
-0.00000001
  9
$EXTMAX
 10
806.2246110975902
 20
563.7825862828226
 30
0.00000001
  9
$LIMMIN
 10
0.0
 20
0.0
  9
$LIMMAX
 10
840.0
 20
594.0
  9
$ORTHOMODE
 70
     0
  9
$REGENMODE
 70
     1
  9
$FILLMODE
 70
     1
  9
$QTEXTMODE
 70
     0
  9
$MIRRTEXT
 70
     1
  9
$DRAGMODE
 70
     2
  9
$LTSCALE
 40
2.0
  9
$OSMODE
 70
   319
  9
$ATTMODE
 70
     1
  9
$TEXTSIZE
 40
5.0
  9
$TRACEWID
 40
1.0
  9
$TEXTSTYLE
  7
STANDARD
  9
$CLAYER
  8
CENTER_L
  9
$CELTYPE
  6
BYLAYER
  9
$CECOLOR
 62
   256
  9
$CELTSCALE
 40
1.0
  9
$DELOBJ
 70
     1
  9
$DISPSILH
 70
     0
  9
$DIMSCALE
 40
1.0
  9
$DIMASZ
 40
7.0
  9
$DIMEXO
 40
6.0
  9
$DIMDLI
 40
14.0
  9
$DIMRND
 40
0.0
  9
$DIMDLE
 40
0.0
  9
$DIMEXE
 40
3.0
  9
$DIMTP
 40
0.0
  9
$DIMTM
 40
0.0
  9
$DIMTXT
 40
6.0
  9
$DIMCEN
 40
150.0
  9
$DIMTSZ
 40
0.0
  9
$DIMTOL
 70
     0
  9
$DIMLIM
 70
     0
  9
$DIMTIH
 70
     0
  9
$DIMTOH
 70
     0
  9
$DIMSE1
 70
     0
  9
$DIMSE2
 70
     0
  9
$DIMTAD
 70
     3
  9
$DIMZIN
 70
     0
  9
$DIMBLK
  1

  9
$DIMASO
 70
     1
  9
$DIMSHO
 70
     1
  9
$DIMPOST
  1

  9
$DIMAPOST
  1

  9
$DIMALT
 70
     0
  9
$DIMALTD
 70
     2
  9
$DIMALTF
 40
25.4
  9
$DIMLFAC
 40
1.0
  9
$DIMTOFL
 70
     1
  9
$DIMTVP
 40
0.0
  9
$DIMTIX
 70
     0
  9
$DIMSOXD
 70
     0
  9
$DIMSAH
 70
     1
  9
$DIMBLK1
  1
OPEN
  9
$DIMBLK2
  1
OPEN
  9
$DIMSTYLE
  2
STANDARD
  9
$DIMCLRD
 70
   256
  9
$DIMCLRE
 70
   256
  9
$DIMCLRT
 70
   256
  9
$DIMTFAC
 40
1.0
  9
$DIMGAP
 40
2.0
  9
$DIMJUST
 70
     0
  9
$DIMSD1
 70
     0
  9
$DIMSD2
 70
     0
  9
$DIMTOLJ
 70
     1
  9
$DIMTZIN
 70
     0
  9
$DIMALTZ
 70
     0
  9
$DIMALTTZ
 70
     0
  9
$DIMFIT
 70
     3
  9
$DIMUPT
 70
     0
  9
$DIMUNIT
 70
     2
  9
$DIMDEC
 70
     0
  9
$DIMTDEC
 70
     0
  9
$DIMALTU
 70
     2
  9
$DIMALTTD
 70
     2
  9
$DIMTXSTY
  7
STANDARD
  9
$DIMAUNIT
 70
     0
  9
$LUNITS
 70
     2
  9
$LUPREC
 70
     4
  9
$SKETCHINC
 40
1.0
  9
$FILLETRAD
 40
20.0
  9
$AUNITS
 70
     0
  9
$AUPREC
 70
     0
  9
$MENU
  1
.
  9
$ELEVATION
 40
0.0
  9
$PELEVATION
 40
0.0
  9
$THICKNESS
 40
0.0
  9
$LIMCHECK
 70
     0
  9
$BLIPMODE
 70
     0
  9
$CHAMFERA
 40
20.0
  9
$CHAMFERB
 40
20.0
  9
$CHAMFERC
 40
40.0
  9
$CHAMFERD
 40
0.0
  9
$SKPOLY
 70
     0
  9
$TDCREATE
 40
2450994.354346065
  9
$TDUPDATE
 40
2452422.709412268
  9
$TDINDWG
 40
0.0045432870
  9
$TDUSRTIMER
 40
0.0045432870
  9
$USRTIMER
 70
     1
  9
$ANGBASE
 50
0.0
  9
$ANGDIR
 70
     0
  9
$PDMODE
 70
     1
  9
$PDSIZE
 40
0.0
  9
$PLINEWID
 40
0.0
  9
$COORDS
 70
     1
  9
$SPLFRAME
 70
     0
  9
$SPLINETYPE
 70
     6
  9
$SPLINESEGS
 70
     8
  9
$ATTDIA
 70
     0
  9
$ATTREQ
 70
     1
  9
$HANDLING
 70
 10241
  9
$HANDSEED
  5
5B8
  9
$SURFTAB1
 70
     6
  9
$SURFTAB2
 70
     6
  9
$SURFTYPE
 70
     6
  9
$SURFU
 70
     6
  9
$SURFV
 70
     6
  9
$UCSNAME
  2

  9
$UCSORG
 10
0.0
 20
0.0
 30
0.0
  9
$UCSXDIR
 10
1.0
 20
0.0
 30
0.0
  9
$UCSYDIR
 10
0.0
 20
1.0
 30
0.0
  9
$PUCSNAME
  2

  9
$PUCSORG
 10
0.0
 20
0.0
 30
0.0
  9
$PUCSXDIR
 10
1.0
 20
0.0
 30
0.0
  9
$PUCSYDIR
 10
0.0
 20
1.0
 30
0.0
  9
$USERI1
 70
     0
  9
$USERI2
 70
     0
  9
$USERI3
 70
     0
  9
$USERI4
 70
     0
  9
$USERI5
 70
     0
  9
$USERR1
 40
0.0
  9
$USERR2
 40
0.0
  9
$USERR3
 40
0.0
  9
$USERR4
 40
0.0
  9
$USERR5
 40
0.0
  9
$WORLDVIEW
 70
     1
  9
$SHADEDGE
 70
     3
  9
$SHADEDIF
 70
    70
  9
$TILEMODE
 70
     1
  9
$MAXACTVP
 70
    16
  9
$PINSBASE
 10
0.0
 20
0.0
 30
0.0
  9
$PLIMCHECK
 70
     0
  9
$PEXTMIN
 10
0.0
 20
0.0
 30
0.0
  9
$PEXTMAX
 10
420.0
 20
297.0
 30
0.0
  9
$PLIMMIN
 10
0.0
 20
0.0
  9
$PLIMMAX
 10
420.0
 20
297.0
  9
$UNITMODE
 70
     0
  9
$VISRETAIN
 70
     0
  9
$PLINEGEN
 70
     0
  9
$PSLTSCALE
 70
     1
  9
$TREEDEPTH
 70
  3020
  9
$PICKSTYLE
 70
     1
  9
$CMLSTYLE
  2
STANDARD
  9
$CMLJUST
 70
     0
  9
$CMLSCALE
 40
1.0
  9
$SAVEIMAGES
 70
     1
  0
ENDSEC
  0
SECTION
  2
CLASSES
  0
CLASS
  1
ACDBDICTIONARYWDFLT
  2
AcDbDictionaryWithDefault
  3
AutoCAD 2000
 90
    32768
280
     0
281
     0
  0
CLASS
  1
ACDBPLACEHOLDER
  2
AcDbPlaceHolder
  3
AutoCAD 2000
 90
    32768
280
     0
281
     0
  0
CLASS
  1
LAYOUT
  2
AcDbLayout
  3
AutoCAD 2000
 90
    32768
280
     0
281
     0
  0
CLASS
  1
LONG_TRANSACTION
  2
AcDbLongTransaction
  3
AutoCAD 2000
 90
    32768
280
     0
281
     0
  0
CLASS
  1
LWPOLYLINE
  2
AcDbPolyline
  3
AutoCAD 2000
 90
    32768
280
     0
281
     1
  0
CLASS
  1
HATCH
  2
AcDbHatch
  3
AutoCAD 2000
 90
    32768
280
     0
281
     1
  0
CLASS
  1
XRECORD
  2
AcDbXrecord
  3
AutoCAD 2000
 90
    32768
280
     0
281
     0
  0
CLASS
  1
LONG_TRANSACTION
  2
AcDbLongTransaction
  3
AutoCAD 2000
 90
    32768
280
     0
281
     0
  0
CLASS
  1
LWPOLYLINE
  2
AcDbPolyline
  3
AutoCAD 2000
 90
    32768
280
     0
281
     1
  0
CLASS
  1
HATCH
  2
AcDbHatch
  3
AutoCAD 2000
 90
    32768
280
     0
281
     1
  0
CLASS
  1
XRECORD
  2
AcDbXrecord
  3
AutoCAD 2000
 90
    32768
280
     0
281
     0
  0
ENDSEC
  0
SECTION
  2
TABLES
  0
TABLE
  2
VPORT
  5
8
330
0
100
AcDbSymbolTable
 70
     2
  0
VPORT
  5
5B5
330
8
100
AcDbSymbolTableRecord
100
AcDbViewportTableRecord
  2
*ACTIVE
 70
     0
 10
0.0
 20
0.0
 11
1.0
 21
1.0
 12
372.1945096705845
 22
290.4662544657788
 13
0.0
 23
0.0
 14
5.0
 24
5.0
 15
0.0
 25
0.0
 16
0.0
 26
0.0
 36
1.0
 17
0.0
 27
0.0
 37
0.0
 40
606.6764334814862
 41
1.70990990990991
 42
50.0
 43
0.0
 44
0.0
 50
0.0
 51
0.0
 71
     0
 72
   100
 73
     1
 74
     0
 75
     0
 76
     0
 77
     0
 78
     0
  0
ENDTAB
  0
TABLE
  2
LTYPE
  5
5
330
0
100
AcDbSymbolTable
 70
     3
  0
LTYPE
  5
14
330
5
100
AcDbSymbolTableRecord
100
AcDbLinetypeTableRecord
  2
BYBLOCK
 70
     0
  3

 72
    65
 73
     0
 40
0.0
  0
LTYPE
  5
15
330
5
100
AcDbSymbolTableRecord
100
AcDbLinetypeTableRecord
  2
BYLAYER
 70
     0
  3

 72
    65
 73
     0
 40
0.0
  0
LTYPE
  5
16
330
5
100
AcDbSymbolTableRecord
100
AcDbLinetypeTableRecord
  2
CONTINUOUS
 70
     0
  3
Solid line
 72
    65
 73
     0
 40
0.0
  0
LTYPE
  5
115
330
5
100
AcDbSymbolTableRecord
100
AcDbLinetypeTableRecord
  2
PHANTOM
 70
     0
  3
______  __  __  ______  __  __  ______  __  __ 
 72
    65
 73
     6
 40
2.5
 49
1.25
 74
     0
 49
-0.25
 74
     0
 49
0.25
 74
     0
 49
-0.25
 74
     0
 49
0.25
 74
     0
 49
-0.25
 74
     0
  0
LTYPE
  5
135
330
5
100
AcDbSymbolTableRecord
100
AcDbLinetypeTableRecord
  2
CENTER
 70
     0
  3
____ _ ____ _ ____ _ ____ _ ____ _ ____ _ ____ 
 72
    65
 73
     4
 40
2.0
 49
1.25
 74
     0
 49
-0.25
 74
     0
 49
0.25
 74
     0
 49
-0.25
 74
     0
  0
ENDTAB
  0
TABLE
  2
LAYER
  5
2
330
0
100
AcDbSymbolTable
 70
     8
  0
LAYER
  5
F
330
2
100
AcDbSymbolTableRecord
100
AcDbLayerTableRecord
  2
0
 70
     0
 62
     7
  6
CONTINUOUS
  0
LAYER
  5
62
330
2
100
AcDbSymbolTableRecord
100
AcDbLayerTableRecord
  2
VIEWPORT
 70
     0
 62
     7
  6
CONTINUOUS
  0
LAYER
  5
65
330
2
100
AcDbSymbolTableRecord
100
AcDbLayerTableRecord
  2
ZUWAKU
 70
     0
 62
     7
  6
CONTINUOUS
  0
LAYER
  5
17C
330
2
100
AcDbSymbolTableRecord
100
AcDbLayerTableRecord
  2
SEIHIN
 70
     0
 62
     3
  6
CONTINUOUS
  0
LAYER
  5
17D
330
2
100
AcDbSymbolTableRecord
100
AcDbLayerTableRecord
  2
SUNPOU
 70
     0
 62
     4
  6
CONTINUOUS
  0
LAYER
  5
17E
330
2
100
AcDbSymbolTableRecord
100
AcDbLayerTableRecord
  2
DEFPOINTS
 70
     0
 62
     7
  6
CONTINUOUS
  0
LAYER
  5
17F
330
2
100
AcDbSymbolTableRecord
100
AcDbLayerTableRecord
  2
CENTER_L
 70
     0
 62
     1
  6
CENTER
  0
LAYER
  5
180
330
2
100
AcDbSymbolTableRecord
100
AcDbLayerTableRecord
  2
NOKITOI
 70
     0
 62
     8
  6
PHANTOM
  0
ENDTAB
  0
TABLE
  2
STYLE
  5
3
330
0
100
AcDbSymbolTable
 70
     1
  0
STYLE
  5
10
330
3
100
AcDbSymbolTableRecord
100
AcDbTextStyleTableRecord
  2
STANDARD
 70
     0
 40
0.0
 41
1.0
 50
0.0
 71
     0
 42
5.0
  3
TXT
  4
bigfont.shx
  0
ENDTAB
  0
TABLE
  2
VIEW
  5
6
330
0
100
AcDbSymbolTable
 70
     0
  0
ENDTAB
  0
TABLE
  2
UCS
  5
7
330
0
100
AcDbSymbolTable
 70
     0
  0
ENDTAB
  0
TABLE
  2
APPID
  5
9
330
0
100
AcDbSymbolTable
 70
     1
  0
APPID
  5
11
330
9
100
AcDbSymbolTableRecord
100
AcDbRegAppTableRecord
  2
ACAD
 70
     0
  0
ENDTAB
  0
TABLE
  2
DIMSTYLE
  5
A
330
0
100
AcDbSymbolTable
 70
     1
  0
DIMSTYLE
105
1D
102
{ACAD_REACTORS
330
35A
330
375
330
412
102
}
330
A
100
AcDbSymbolTableRecord
100
AcDbDimStyleTableRecord
  2
STANDARD
 70
     0
  3

  4

  5

  6

  7

 40
1.0
 41
0.18
 42
0.0625
 43
0.38
 44
0.18
 45
0.0
 46
0.0
 47
0.0
 48
0.0
140
0.18
141
0.09
142
0.0
143
25.4
144
1.0
145
0.0
146
1.0
147
0.09
 71
     0
 72
     0
 73
     1
 74
     1
 75
     0
 76
     0
 77
     0
 78
     0
170
     0
171
     2
172
     0
173
     0
174
     0
175
     0
176
     0
177
     0
178
     0
270
     2
271
     4
272
     4
273
     2
274
     2
340
10
275
     0
280
     0
281
     0
282
     0
283
     1
284
     0
285
     0
286
     0
287
     3
288
     0
  0
ENDTAB
  0
TABLE
  2
BLOCK_RECORD
  5
1
330
0
100
AcDbSymbolTable
 70
     4
  0
BLOCK_RECORD
  5
1A
102
{ACAD_XDICTIONARY
360
5A7
102
}
330
1
100
AcDbSymbolTableRecord
100
AcDbBlockTableRecord
  2
*MODEL_SPACE
  0
BLOCK_RECORD
  5
17
102
{ACAD_XDICTIONARY
360
5A5
102
}
330
1
100
AcDbSymbolTableRecord
100
AcDbBlockTableRecord
  2
*PAPER_SPACE
  0
BLOCK_RECORD
  5
6D
330
1
100
AcDbSymbolTableRecord
100
AcDbBlockTableRecord
  2
_OPEN
  0
BLOCK_RECORD
  5
52F
330
1
100
AcDbSymbolTableRecord
100
AcDbBlockTableRecord
  2
*D1
  0
BLOCK_RECORD
  5
53B
330
1
100
AcDbSymbolTableRecord
100
AcDbBlockTableRecord
  2
*D2
  0
BLOCK_RECORD
  5
547
330
1
100
AcDbSymbolTableRecord
100
AcDbBlockTableRecord
  2
*D3
  0
ENDTAB
  0
ENDSEC
  0
SECTION
  2
BLOCKS
  0
BLOCK
  5
1B
330
1A
100
AcDbEntity
  8
0
100
AcDbBlockBegin
  2
*MODEL_SPACE
 70
     0
 10
0.0
 20
0.0
 30
0.0
  3
*MODEL_SPACE
  1

  0
ENDBLK
  5
1C
330
1A
100
AcDbEntity
  8
0
100
AcDbBlockEnd
  0
BLOCK
  5
18
330
17
100
AcDbEntity
 67
     1
  8
0
100
AcDbBlockBegin
  2
*PAPER_SPACE
 70
     0
 10
0.0
 20
0.0
 30
0.0
  3
*PAPER_SPACE
  1

  0
ENDBLK
  5
19
330
17
100
AcDbEntity
 67
     1
  8
0
100
AcDbBlockEnd
  0
BLOCK
  5
6E
330
6D
100
AcDbEntity
  8
0
100
AcDbBlockBegin
  2
_OPEN
 70
     0
 10
0.0
 20
0.0
 30
0.0
  3
_OPEN
  1

  0
LINE
  5
6F
330
6D
100
AcDbEntity
  8
0
  6
BYBLOCK
 62
     0
100
AcDbLine
 10
-1.0
 20
0.1666666666666666
 30
0.0
 11
0.0
 21
0.0
 31
0.0
  0
LINE
  5
70
330
6D
100
AcDbEntity
  8
0
  6
BYBLOCK
 62
     0
100
AcDbLine
 10
0.0
 20
0.0
 30
0.0
 11
-1.0
 21
-0.1666666666666666
 31
0.0
  0
LINE
  5
71
330
6D
100
AcDbEntity
  8
0
  6
BYBLOCK
 62
     0
100
AcDbLine
 10
0.0
 20
0.0
 30
0.0
 11
-1.0
 21
0.0
 31
0.0
  0
ENDBLK
  5
72
330
6D
100
AcDbEntity
  8
0
100
AcDbBlockEnd
  0
BLOCK
  5
553
330
52F
100
AcDbEntity
  8
0
100
AcDbBlockBegin
  2
*D1
 70
     1
 10
0.0
 20
0.0
 30
0.0
  3
*D1
  1

  0
LINE
  5
554
330
52F
100
AcDbEntity
  8
0
  6
BYBLOCK
 62
     4
100
AcDbLine
 10
221.7653591687888
 20
481.0086307475071
 30
0.0
 11
221.7653591687888
 21
506.9767557842877
 31
0.0
  0
LINE
  5
555
330
52F
100
AcDbEntity
  8
0
  6
BYBLOCK
 62
     4
100
AcDbLine
 10
620.0056546042233
 20
379.0798891355839
 30
0.0
 11
620.0056546042233
 21
506.9767557842877
 31
0.0
  0
LINE
  5
556
330
52F
100
AcDbEntity
  8
0
  6
BYBLOCK
 62
     4
100
AcDbLine
 10
228.7653591687888
 20
503.9767557842877
 30
0.0
 11
613.0056546042233
 21
503.9767557842877
 31
0.0
  0
INSERT
  5
557
330
52F
100
AcDbEntity
  8
0
  6
BYBLOCK
 62
     4
100
AcDbBlockReference
  2
_OPEN
 10
221.7653591687888
 20
503.9767557842877
 30
0.0
 41
7.0
 42
7.0
 43
7.0
 50
180.0
  0
INSERT
  5
558
330
52F
100
AcDbEntity
  8
0
  6
BYBLOCK
 62
     4
100
AcDbBlockReference
  2
_OPEN
 10
620.0056546042233
 20
503.9767557842877
 30
0.0
 41
7.0
 42
7.0
 43
7.0
  0
MTEXT
  5
559
330
52F
100
AcDbEntity
  8
0
  6
BYBLOCK
 62
     4
100
AcDbMText
 10
420.885506886506
 20
508.9767557842876
 30
0.0
 40
6.0
 41
0.0
 71
     5
 72
     1
  1
\A1;398
1001
ACAD
1000
MTEXTBEGIN
1070
    73
1070
     1
1070
    44
1040
1.0
1070
    74
1070
     0
1000
MTEXTEND
1000
MTEXTBEGIN
1070
    73
1070
     1
1070
    44
1040
1.0
1070
    74
1070
     0
1000
MTEXTEND
  0
POINT
  5
55A
330
52F
100
AcDbEntity
  8
DEFPOINTS
  6
BYBLOCK
 62
     0
100
AcDbPoint
 10
221.7653591687888
 20
475.008630747507
 30
0.0
  0
POINT
  5
55B
330
52F
100
AcDbEntity
  8
DEFPOINTS
  6
BYBLOCK
 62
     0
100
AcDbPoint
 10
620.0056546042233
 20
373.0798891355839
 30
0.0
  0
POINT
  5
55C
330
52F
100
AcDbEntity
  8
DEFPOINTS
  6
BYBLOCK
 62
     0
100
AcDbPoint
 10
620.0056546042233
 20
503.9767557842877
 30
0.0
  0
ENDBLK
  5
55D
330
52F
100
AcDbEntity
  8
0
100
AcDbBlockEnd
  0
BLOCK
  5
55E
330
53B
100
AcDbEntity
  8
0
100
AcDbBlockBegin
  2
*D2
 70
     1
 10
0.0
 20
0.0
 30
0.0
  3
*D2
  1

  0
LINE
  5
55F
330
53B
100
AcDbEntity
  8
0
  6
BYBLOCK
 62
     4
100
AcDbLine
 10
221.7653591687888
 20
469.0086307475071
 30
0.0
 11
221.7653591687888
 21
305.2538641534391
 31
0.0
  0
LINE
  5
560
330
53B
100
AcDbEntity
  8
0
  6
BYBLOCK
 62
     4
100
AcDbLine
 10
306.0056546042231
 20
352.0798891355839
 30
0.0
 11
306.0056546042231
 21
305.2538641534391
 31
0.0
  0
LINE
  5
561
330
53B
100
AcDbEntity
  8
0
  6
BYBLOCK
 62
     4
100
AcDbLine
 10
228.7653591687888
 20
308.2538641534391
 30
0.0
 11
299.0056546042231
 21
308.2538641534391
 31
0.0
  0
INSERT
  5
562
330
53B
100
AcDbEntity
  8
0
  6
BYBLOCK
 62
     4
100
AcDbBlockReference
  2
_OPEN
 10
221.7653591687888
 20
308.2538641534391
 30
0.0
 41
7.0
 42
7.0
 43
7.0
 50
180.0
  0
INSERT
  5
563
330
53B
100
AcDbEntity
  8
0
  6
BYBLOCK
 62
     4
100
AcDbBlockReference
  2
_OPEN
 10
306.0056546042231
 20
308.2538641534391
 30
0.0
 41
7.0
 42
7.0
 43
7.0
  0
MTEXT
  5
564
330
53B
100
AcDbEntity
  8
0
  6
BYBLOCK
 62
     4
100
AcDbMText
 10
263.8855068865059
 20
313.2538641534391
 30
0.0
 40
6.0
 41
0.0
 71
     5
 72
     1
  1
\A1;84
1001
ACAD
1000
MTEXTBEGIN
1070
    73
1070
     1
1070
    44
1040
1.0
1070
    74
1070
     0
1000
MTEXTEND
1000
MTEXTBEGIN
1070
    73
1070
     1
1070
    44
1040
1.0
1070
    74
1070
     0
1000
MTEXTEND
  0
POINT
  5
565
330
53B
100
AcDbEntity
  8
DEFPOINTS
  6
BYBLOCK
 62
     0
100
AcDbPoint
 10
221.7653591687888
 20
475.008630747507
 30
0.0
  0
POINT
  5
566
330
53B
100
AcDbEntity
  8
DEFPOINTS
  6
BYBLOCK
 62
     0
100
AcDbPoint
 10
306.0056546042231
 20
358.0798891355839
 30
0.0
  0
POINT
  5
567
330
53B
100
AcDbEntity
  8
DEFPOINTS
  6
BYBLOCK
 62
     0
100
AcDbPoint
 10
306.0056546042231
 20
308.2538641534391
 30
0.0
  0
ENDBLK
  5
568
330
53B
100
AcDbEntity
  8
0
100
AcDbBlockEnd
  0
BLOCK
  5
569
330
547
100
AcDbEntity
  8
0
100
AcDbBlockBegin
  2
*D3
 70
     1
 10
0.0
 20
0.0
 30
0.0
  3
*D3
  1

  0
LINE
  5
56A
330
547
100
AcDbEntity
  8
0
  6
BYBLOCK
 62
     4
100
AcDbLine
 10
215.7653591687888
 20
475.008630747507
 30
0.0
 11
190.3900956972459
 21
475.008630747507
 31
0.0
  0
LINE
  5
56B
330
547
100
AcDbEntity
  8
0
  6
BYBLOCK
 62
     4
100
AcDbLine
 10
283.505654604223
 20
373.0798891355841
 30
0.0
 11
190.3900956972459
 21
373.0798891355841
 31
0.0
  0
LINE
  5
56C
330
547
100
AcDbEntity
  8
0
  6
BYBLOCK
 62
     4
100
AcDbLine
 10
193.3900956972459
 20
468.0086307475071
 30
0.0
 11
193.3900956972459
 21
380.0798891355841
 31
0.0
  0
INSERT
  5
56D
330
547
100
AcDbEntity
  8
0
  6
BYBLOCK
 62
     4
100
AcDbBlockReference
  2
_OPEN
 10
193.3900956972459
 20
475.008630747507
 30
0.0
 41
7.0
 42
7.0
 43
7.0
 50
90.0
  0
INSERT
  5
56E
330
547
100
AcDbEntity
  8
0
  6
BYBLOCK
 62
     4
100
AcDbBlockReference
  2
_OPEN
 10
193.3900956972459
 20
373.0798891355841
 30
0.0
 41
7.0
 42
7.0
 43
7.0
 50
270.0
  0
MTEXT
  5
56F
330
547
100
AcDbEntity
  8
0
  6
BYBLOCK
 62
     4
100
AcDbMText
 10
188.3900956972459
 20
424.0442599415455
 30
0.0
 40
6.0
 41
0.0
 71
     5
 72
     1
  1
\A1;102
 11
0.0
 21
1.0
 31
0.0
1001
ACAD
1000
MTEXTBEGIN
1070
    73
1070
     1
1070
    44
1040
1.0
1070
    74
1070
     0
1000
MTEXTEND
1000
MTEXTBEGIN
1070
    73
1070
     1
1070
    44
1040
1.0
1070
    74
1070
     0
1000
MTEXTEND
  0
POINT
  5
570
330
547
100
AcDbEntity
  8
DEFPOINTS
  6
BYBLOCK
 62
     0
100
AcDbPoint
 10
221.7653591687888
 20
475.008630747507
 30
0.0
  0
POINT
  5
571
330
547
100
AcDbEntity
  8
DEFPOINTS
  6
BYBLOCK
 62
     0
100
AcDbPoint
 10
289.505654604223
 20
373.0798891355841
 30
0.0
  0
POINT
  5
572
330
547
100
AcDbEntity
  8
DEFPOINTS
  6
BYBLOCK
 62
     0
100
AcDbPoint
 10
193.3900956972459
 20
373.0798891355841
 30
0.0
  0
ENDBLK
  5
573
330
547
100
AcDbEntity
  8
0
100
AcDbBlockEnd
  0
ENDSEC
  0
SECTION
  2
ENTITIES
  0
TEXT
  5
11A
330
1A
100
AcDbEntity
  8
ZUWAKU
 62
     7
 48
10.0
100
AcDbText
 10
795.5579444309237
 20
4.974918402528146
 30
0.0
 40
8.0
  1
A1
100
AcDbText
  0
LINE
  5
11B
330
1A
100
AcDbEntity
  8
ZUWAKU
 62
     7
 48
10.0
100
AcDbLine
 10
10.05047808566086
 20
25.78258628282265
 30
0.0
 11
806.0504780856609
 21
25.78258628282253
 31
0.0
  0
LINE
  5
11C
330
1A
100
AcDbEntity
  8
ZUWAKU
  6
CONTINUOUS
 62
     7
100
AcDbLine
 10
806.0504780856609
 20
563.7825862828226
 30
0.0
 11
10.05047808566086
 21
563.7825862828226
 31
0.0
  0
LINE
  5
11D
330
1A
100
AcDbEntity
  8
ZUWAKU
  6
CONTINUOUS
 62
     7
100
AcDbLine
 10
806.0504780856609
 20
13.78258628282265
 30
0.0
 11
10.05047808566086
 21
13.78258628282265
 31
0.0
  0
LINE
  5
11E
330
1A
100
AcDbEntity
  8
ZUWAKU
  6
CONTINUOUS
 62
     7
100
AcDbLine
 10
10.05047808566086
 20
563.7825862828226
 30
0.0
 11
10.05047808566086
 21
13.78258628282265
 31
0.0
  0
LINE
  5
11F
330
1A
100
AcDbEntity
  8
ZUWAKU
 62
     7
 48
10.0
100
AcDbLine
 10
44.55797523147839
 20
13.78258628282265
 30
0.0
 11
44.5579752314784
 21
25.78258628282265
 31
0.0
  0
TEXT
  5
120
330
1A
100
AcDbEntity
  8
ZUWAKU
 62
     7
100
AcDbText
 10
16.05676551180931
 20
15.52294263804401
 30
0.0
 40
8.0
  1
品 種
100
AcDbText
  0
LINE
  5
121
330
1A
100
AcDbEntity
  8
ZUWAKU
 62
     7
 48
10.0
100
AcDbLine
 10
276.1028387068254
 20
13.78258628282265
 30
0.0
 11
276.1028387068254
 21
25.78258628282261
 31
0.0
  0
LINE
  5
122
330
1A
100
AcDbEntity
  8
ZUWAKU
 62
     7
 48
10.0
100
AcDbLine
 10
209.5138526425484
 20
13.78258628282265
 30
0.0
 11
209.5138526425485
 21
25.78258628282263
 31
0.0
  0
TEXT
  5
123
330
1A
100
AcDbEntity
  8
ZUWAKU
 62
     7
100
AcDbText
 10
282.3131429914078
 20
15.64241700452384
 30
0.0
 40
8.0
  1
隅飾り（出）　型
100
AcDbText
  0
TEXT
  5
124
330
1A
100
AcDbEntity
  8
ZUWAKU
 62
     7
100
AcDbText
 10
215.4560837190756
 20
16.18358115302453
 30
0.0
 40
8.0
  1
品名・ｻ ｲ ｽﾞ
100
AcDbText
  0
TEXT
  5
125
330
1A
100
AcDbEntity
  8
ZUWAKU
 62
     7
100
AcDbText
 10
50.3519382305086
 20
16.10306189639755
 30
0.0
 40
8.0
  1
丸トップ　のきとい
100
AcDbText
  0
LINE
  5
126
330
1A
100
AcDbEntity
  8
ZUWAKU
 62
     7
 48
10.0
100
AcDbLine
 10
768.7231079932794
 20
13.78258628282237
 30
0.0
 11
768.7231079932794
 21
25.78258628282254
 31
0.0
  0
LINE
  5
127
330
1A
100
AcDbEntity
  8
ZUWAKU
 62
     7
 48
10.0
100
AcDbLine
 10
733.8119002376948
 20
13.78258628282242
 30
0.0
 11
733.8119002376946
 21
25.78258628282254
 31
0.0
  0
TEXT
  5
128
330
1A
100
AcDbEntity
  8
ZUWAKU
 62
     7
100
AcDbText
 10
739.6955629973526
 20
15.24227755810852
 30
0.0
 40
8.0
  1
尺 度
100
AcDbText
  0
TEXT
  5
129
330
1A
100
AcDbEntity
  8
ZUWAKU
 62
     7
100
AcDbText
 10
779.7374630323229
 20
15.55488920081529
 30
0.0
 40
8.0
  1
1/2
100
AcDbText
  0
TEXT
  5
12A
330
1A
100
AcDbEntity
  8
ZUWAKU
 62
     7
100
AcDbText
 10
654.2531733678779
 20
15.90287984531518
 30
0.0
 40
8.0
  1
ＧＧ８４
100
AcDbText
  0
TEXT
  5
12B
330
1A
100
AcDbEntity
  8
ZUWAKU
 62
     7
100
AcDbText
 10
620.3363288383084
 20
15.6519090944263
 30
0.0
 40
8.0
  1
品 番
100
AcDbText
  0
LINE
  5
12C
330
1A
100
AcDbEntity
  8
ZUWAKU
 62
     7
 48
10.0
100
AcDbLine
 10
614.3351028194128
 20
13.78258628282232
 30
0.0
 11
614.3351028194128
 21
25.78258628282256
 31
0.0
  0
LINE
  5
12D
330
1A
100
AcDbEntity
  8
ZUWAKU
 62
     7
 48
10.0
100
AcDbLine
 10
648.7607587371021
 20
13.78258628282232
 30
0.0
 11
648.7607587371021
 21
25.78258628282255
 31
0.0
  0
TEXT
  5
12E
330
1A
100
AcDbEntity
  8
ZUWAKU
 62
     7
 48
10.0
100
AcDbText
 10
646.2758615931216
 20
4.949376903717848
 30
0.0
 40
8.0
  1
積水化学工業株式会社  建材
100
AcDbText
  0
LINE
  5
12F
330
1A
100
AcDbEntity
  8
ZUWAKU
  6
CONTINUOUS
 62
     7
100
AcDbLine
 10
806.0504780856609
 20
563.7825862828226
 30
0.0
 11
806.0504780856609
 21
13.78258628282265
 31
0.0
  0
DIMENSION
  5
35A
330
1A
100
AcDbEntity
  8
SUNPOU
  6
CONTINUOUS
 62
     4
100
AcDbDimension
  2
*D1
 10
629.1068674385483
 20
481.2425569690459
 30
0.0
 11
429.986719720831
 21
486.2425569690459
 31
0.0
 12
9.101212834324996
 22
-22.73419881524182
 32
0.0
 70
    32
  3
STANDARD
100
AcDbAlignedDimension
 13
230.8665720031138
 23
452.2744319322653
 33
0.0
 14
629.1068674385483
 24
350.3456903203421
 34
0.0
100
AcDbRotatedDimension
1001
ACAD
1000
DSTYLE
1002
{
1070
   140
1040
6.0
1070
    74
1070
     0
1070
   172
1070
     1
1070
    73
1070
     0
1070
   272
1070
     2
1070
    77
1070
     3
1070
   173
1070
     1
1070
   147
1040
2.0
1070
    42
1040
6.0
1070
    44
1040
3.0
1070
    43
1040
14.0
1070
   271
1070
     0
1070
   178
1070
     4
1070
   177
1070
     4
1070
   176
1070
     4
1070
   141
1040
150.0
1070
     7
1000
_OPEN
1070
     6
1000
_OPEN
1070
    41
1040
7.0
1002
}
  0
ELLIPSE
  5
35B
330
1A
100
AcDbEntity
  8
SEIHIN
  6
CONTINUOUS
 62
     3
100
AcDbEllipse
 10
390.2063882816726
 20
408.1455168754184
 30
0.0
 11
38.35298675918181
 21
0.0
 31
0.0
210
0.0
220
0.0
230
1.0
 40
0.8828517114613978
 41
-1.329590090399125
 42
-0.8975991090697284
  0
ELLIPSE
  5
35C
330
1A
100
AcDbEntity
  8
SEIHIN
  6
CONTINUOUS
 62
     3
100
AcDbEllipse
 10
399.0144520474556
 20
383.2436559534948
 30
0.0
 11
18.35202136720795
 21
0.0
 31
0.0
210
0.0
220
0.0
230
1.0
 40
0.8827365485170336
 41
-1.684490776809369
 42
-0.9053515792666678
  0
ARC
  5
35D
330
1A
100
AcDbEntity
  8
NOKITOI
  6
PHANTOM
 62
     8
 48
5.0
100
AcDbCircle
 10
369.646834348133
 20
129.735741279868
 30
0.0
 40
47.49997153104919
100
AcDbArc
 50
321.0420988931393
 51
345.5201503100291
  0
ARC
  5
35E
330
1A
100
AcDbEntity
  8
NOKITOI
  6
PHANTOM
 62
     8
 48
5.0
100
AcDbCircle
 10
407.5857876484996
 20
100.9886706337162
 30
0.0
 40
1.499966937967602
100
AcDbArc
 50
231.042829945087
 51
322.8469879763837
  0
ARC
  5
35F
330
1A
100
AcDbEntity
  8
NOKITOI
  6
PHANTOM
 62
     8
 48
5.0
100
AcDbCircle
 10
369.6467673539371
 20
129.7356351833861
 30
0.0
 40
49.09993590308823
100
AcDbArc
 50
314.9998919540671
 51
322.8439589158172
  0
LINE
  5
360
330
1A
100
AcDbEntity
  8
NOKITOI
  6
PHANTOM
 62
     8
 48
5.0
100
AcDbLine
 10
428.7967995153604
 20
79.4356720791358
 30
0.0
 11
383.9715995153602
 21
79.4356720791358
 31
0.0
  0
ARC
  5
361
330
1A
100
AcDbEntity
  8
NOKITOI
  6
PHANTOM
 62
     8
 48
5.0
100
AcDbCircle
 10
369.6467995153602
 20
129.7356840790323
 30
0.0
 40
50.300012
100
AcDbArc
 50
188.6764639999999
 51
351.2914929999999
  0
ARC
  5
362
330
1A
100
AcDbEntity
  8
NOKITOI
  6
PHANTOM
 62
     8
 48
5.0
100
AcDbCircle
 10
369.6467995153602
 20
129.7356840790323
 30
0.0
 40
49.00000099999999
100
AcDbArc
 50
185.413376
 51
354.5863799999999
  0
LINE
  5
363
330
1A
100
AcDbEntity
  8
NOKITOI
  6
PHANTOM
 62
     8
 48
5.0
100
AcDbLine
 10
360.4965995153603
 20
120.2356720791357
 30
0.0
 11
410.9361995153602
 21
120.2356720791357
 31
0.0
  0
ARC
  5
364
330
1A
100
AcDbEntity
  8
NOKITOI
  6
PHANTOM
 62
     8
 48
5.0
100
AcDbCircle
 10
369.6467553771987
 20
129.7356373231741
 30
0.0
 40
52.29996524406814
100
AcDbArc
 50
193.5580613820404
 51
346.4364699695414
  0
ARC
  5
365
330
1A
100
AcDbEntity
  8
NOKITOI
  6
PHANTOM
 62
     8
 48
5.0
100
AcDbCircle
 10
369.6468015532916
 20
129.7356737349964
 30
0.0
 40
50.30000165596412
100
AcDbArc
 50
191.8041905809823
 51
348.1892359232529
  0
ARC
  5
366
330
1A
100
AcDbEntity
  8
NOKITOI
  6
PHANTOM
 62
     8
 48
5.0
100
AcDbCircle
 10
369.6467553771987
 20
129.7356373231741
 30
0.0
 40
51.59996524406814
100
AcDbArc
 50
193.7474157986453
 51
346.2525842013545
  0
LINE
  5
367
330
1A
100
AcDbEntity
  8
NOKITOI
  6
PHANTOM
 62
     8
 48
5.0
100
AcDbLine
 10
463.6469995153603
 20
131.5356720791357
 30
0.0
 11
369.6467995153602
 21
131.5356720791357
 31
0.0
  0
LINE
  5
368
330
1A
100
AcDbEntity
  8
NOKITOI
  6
PHANTOM
 62
     8
 48
5.0
100
AcDbLine
 10
428.7967995153604
 20
292.9863540494108
 30
0.0
 11
369.6468117102246
 21
292.9863540494108
 31
0.0
  0
LINE
  5
369
330
1A
100
AcDbEntity
  8
NOKITOI
  6
PHANTOM
 62
     8
 48
5.0
100
AcDbLine
 10
463.6469995153603
 20
345.0863540494108
 30
0.0
 11
369.6467995153602
 21
345.0863540494108
 31
0.0
  0
LINE
  5
36A
330
1A
100
AcDbEntity
  8
NOKITOI
  6
PHANTOM
 62
     8
 48
5.0
100
AcDbLine
 10
463.6467995153601
 20
331.7863540494108
 30
0.0
 11
316.9967995153603
 21
331.7863540494108
 31
0.0
  0
LINE
  5
36B
330
1A
100
AcDbEntity
  8
SEIHIN
100
AcDbLine
 10
418.8958995536595
 20
198.4750135850551
 30
0.0
 11
396.7525465651918
 21
191.8998694083605
 31
0.0
  0
LINE
  5
36C
330
1A
100
AcDbEntity
  8
SEIHIN
100
AcDbLine
 10
630.2062673405396
 20
130.6944599833191
 30
0.0
 11
303.651224526926
 21
147.2823381174564
 31
0.0
  0
LINE
  5
36D
330
1A
100
AcDbEntity
  8
SEIHIN
100
AcDbLine
 10
540.1447791628608
 20
130.6944599833191
 30
0.0
 11
328.909339516143
 21
130.6944599833193
 31
0.0
  0
LINE
  5
36E
330
1A
100
AcDbEntity
  8
SEIHIN
100
AcDbLine
 10
503.6348242227758
 20
115.6944599833191
 30
0.0
 11
316.2062673405396
 21
115.6944599833191
 31
0.0
  0
LINE
  5
36F
330
1A
100
AcDbEntity
  8
SEIHIN
100
AcDbLine
 10
419.3051523460303
 20
413.0454991884987
 30
0.0
 11
397.1617993575625
 21
406.4703550118042
 31
0.0
  0
LINE
  5
370
330
1A
100
AcDbEntity
  8
SEIHIN
100
AcDbLine
 10
417.796499651668
 20
418.126243922078
 30
0.0
 11
395.6531466632004
 21
411.5510997453833
 31
0.0
  0
LINE
  5
371
330
1A
100
AcDbEntity
  8
SEIHIN
100
AcDbLine
 10
629.1068674385483
 20
350.3456903203421
 30
0.0
 11
277.6069674385481
 21
368.2006817947482
 31
0.0
  0
LINE
  5
372
330
1A
100
AcDbEntity
  8
SEIHIN
100
AcDbLine
 10
502.5354243207841
 20
335.3456903203421
 30
0.0
 11
315.1068674385481
 21
335.3456903203421
 31
0.0
  0
LINE
  5
373
330
1A
100
AcDbEntity
  8
SEIHIN
100
AcDbLine
 10
539.0453792608694
 20
350.3456903203421
 30
0.0
 11
298.606867438548
 21
350.3456903203422
 31
0.0
  0
LINE
  5
374
330
1A
100
AcDbEntity
  8
SEIHIN
100
AcDbLine
 10
420.3014324272128
 20
409.6902904021728
 30
0.0
 11
398.1580794387452
 21
403.1151462254782
 31
0.0
  0
DIMENSION
  5
375
330
1A
100
AcDbEntity
  8
SUNPOU
  6
CONTINUOUS
 62
     4
100
AcDbDimension
  2
*D2
 10
315.1068674385481
 20
285.5196653381972
 30
0.0
 11
272.986719720831
 21
290.5196653381972
 31
0.0
 12
9.101212834324996
 22
-22.73419881524182
 32
0.0
 70
    32
  3
STANDARD
100
AcDbAlignedDimension
 13
230.8665720031138
 23
452.2744319322653
 33
0.0
 14
315.1068674385481
 24
335.3456903203421
 34
0.0
100
AcDbRotatedDimension
1001
ACAD
1000
DSTYLE
1002
{
1070
   140
1040
6.0
1070
    74
1070
     0
1070
   172
1070
     1
1070
    73
1070
     0
1070
   272
1070
     2
1070
    77
1070
     3
1070
   173
1070
     1
1070
   147
1040
2.0
1070
    42
1040
6.0
1070
    44
1040
3.0
1070
    43
1040
14.0
1070
   271
1070
     0
1070
   178
1070
     4
1070
   177
1070
     4
1070
   176
1070
     4
1070
   141
1040
150.0
1070
     7
1000
_OPEN
1070
     6
1000
_OPEN
1070
    41
1040
7.0
1002
}
  0
ARC
  5
376
330
1A
100
AcDbEntity
  8
NOKITOI
  6
PHANTOM
 62
     8
 48
5.0
100
AcDbCircle
 10
369.6468117102246
 20
343.2863444466612
 30
0.0
 40
52.2999903973707
100
AcDbArc
 50
193.5633263386848
 51
269.9998770880806
  0
ARC
  5
377
330
1A
100
AcDbEntity
  8
NOKITOI
  6
PHANTOM
 62
     8
 48
5.0
100
AcDbCircle
 10
369.6468117102246
 20
343.2863444466612
 30
0.0
 40
50.2999903973707
100
AcDbArc
 50
193.5633263386848
 51
269.9998770880806
  0
ARC
  5
378
330
1A
100
AcDbEntity
  8
NOKITOI
  6
PHANTOM
 62
     8
 48
5.0
100
AcDbCircle
 10
369.6468320242199
 20
129.7356000089832
 30
0.0
 40
49.09999659715498
100
AcDbArc
 50
191.4057773227854
 51
217.151689992331
  0
ARC
  5
379
330
1A
100
AcDbEntity
  8
NOKITOI
  6
PHANTOM
 62
     8
 48
5.0
100
AcDbCircle
 10
369.6469159602313
 20
129.7354407408432
 30
0.0
 40
47.49999285179987
100
AcDbArc
 50
194.4792194783891
 51
218.9572589984514
  0
ARC
  5
37A
330
1A
100
AcDbEntity
  8
NOKITOI
  6
PHANTOM
 62
     8
 48
5.0
100
AcDbCircle
 10
369.647134794575
 20
129.7356667946079
 30
0.0
 40
49.09999471661701
100
AcDbArc
 50
191.1560950181554
 51
269.9996087558851
  0
LINE
  5
37B
330
1A
100
AcDbEntity
  8
NOKITOI
  6
PHANTOM
 62
     8
 48
5.0
100
AcDbLine
 10
360.4965995153603
 20
131.5355720791357
 30
0.0
 11
360.4965995153603
 21
100.7353720791356
 31
0.0
  0
LINE
  5
37C
330
1A
100
AcDbEntity
  8
CENTER_L
  6
CENTER
 62
     1
 48
5.0
100
AcDbLine
 10
369.6467995153602
 20
68.27907207913577
 30
0.0
 11
369.6467995153602
 21
141.0176720791358
 31
0.0
  0
LINE
  5
37D
330
1A
100
AcDbEntity
  8
NOKITOI
  6
PHANTOM
 62
     8
 48
5.0
100
AcDbLine
 10
340.4965995153604
 20
131.5356720791357
 30
0.0
 11
340.4965995153604
 21
100.7354720791356
 31
0.0
  0
ARC
  5
37E
330
1A
100
AcDbEntity
  8
SEIHIN
100
AcDbCircle
 10
310.9232298695531
 20
110.8415801064489
 30
0.0
 40
8.000052999999999
100
AcDbArc
 50
295.7935759999999
 51
350.7301779999999
  0
ARC
  5
37F
330
1A
100
AcDbEntity
  8
SEIHIN
100
AcDbCircle
 10
310.9232298695531
 20
110.8415801064489
 30
0.0
 40
10.00002899999999
100
AcDbArc
 50
295.79357
 51
350.729603
  0
ARC
  5
380
330
1A
100
AcDbEntity
  8
SEIHIN
100
AcDbCircle
 10
312.2299923069843
 20
111.536398019372
 30
0.0
 40
10.00001899999999
100
AcDbArc
 50
295.79357
 51
349.339207
  0
LINE
  5
381
330
1A
100
AcDbEntity
  8
NOKITOI
  6
PHANTOM
 62
     8
 48
5.0
100
AcDbLine
 10
340.4965995153604
 20
100.7354720791356
 30
0.0
 11
360.4965995153603
 21
100.7354720791356
 31
0.0
  0
ARC
  5
382
330
1A
100
AcDbEntity
  8
NOKITOI
  6
PHANTOM
 62
     8
 48
5.0
100
AcDbCircle
 10
369.6468070214779
 20
129.7356691542117
 30
0.0
 40
47.50003531340853
100
AcDbArc
 50
231.0422568016258
 51
266.3787818483508
  0
ARC
  5
383
330
1A
100
AcDbEntity
  8
SEIHIN
100
AcDbCircle
 10
314.8394340813863
 20
102.7382073283261
 30
0.0
 40
0.9999969999999999
100
AcDbArc
 50
115.9312799999999
 51
295.7934379999999
  0
LINE
  5
384
330
1A
100
AcDbEntity
  8
SEIHIN
100
AcDbLine
 10
316.6156680816032
 20
102.5500776483902
 30
0.0
 11
315.308905644172
 21
101.8552597354671
 31
0.0
  0
ARC
  5
385
330
1A
100
AcDbEntity
  8
NOKITOI
  6
PHANTOM
 62
     8
 48
5.0
100
AcDbCircle
 10
338.5669946613474
 20
93.68287164256162
 30
0.0
 40
1.499979023186437
100
AcDbArc
 50
229.236424580397
 51
321.0426417191332
  0
ARC
  5
386
330
1A
100
AcDbEntity
  8
NOKITOI
  6
PHANTOM
 62
     8
 48
5.0
100
AcDbCircle
 10
340.8998047802222
 20
91.79662886199279
 30
0.0
 40
1.500006789964668
100
AcDbArc
 50
141.0413549599772
 51
232.8478198522106
  0
ARC
  5
387
330
1A
100
AcDbEntity
  8
NOKITOI
  6
PHANTOM
 62
     8
 48
5.0
100
AcDbCircle
 10
369.646985903763
 20
129.7354582512392
 30
0.0
 40
49.09999055997529
100
AcDbArc
 50
217.1554408655358
 51
224.9995872528673
  0
LINE
  5
388
330
1A
100
AcDbEntity
  8
NOKITOI
  6
PHANTOM
 62
     8
 48
5.0
100
AcDbLine
 10
332.6508995153603
 20
99.82227207913579
 30
0.0
 11
332.7102995153604
 21
99.87027207913579
 31
0.0
  0
ARC
  5
389
330
1A
100
AcDbEntity
  8
NOKITOI
  6
PHANTOM
 62
     8
 48
5.0
100
AcDbCircle
 10
331.7077562982174
 20
100.9886773439977
 30
0.0
 40
1.500006789964711
100
AcDbArc
 50
217.1521801477904
 51
308.958645040019
  0
ARC
  5
38A
330
1A
100
AcDbEntity
  8
NOKITOI
  6
PHANTOM
 62
     8
 48
5.0
100
AcDbCircle
 10
333.5939990787862
 20
98.65586722512265
 30
0.0
 40
1.499979023186468
100
AcDbArc
 50
128.9573582808601
 51
220.7635754195977
  0
LINE
  5
38B
330
1A
100
AcDbEntity
  8
NOKITOI
  6
PHANTOM
 62
     8
 48
5.0
100
AcDbLine
 10
339.7813995153601
 20
92.79917207913578
 30
0.0
 11
339.7333995153604
 21
92.73977207913569
 31
0.0
  0
ARC
  5
38C
330
1A
100
AcDbEntity
  8
NOKITOI
  6
PHANTOM
 62
     8
 48
5.0
100
AcDbCircle
 10
369.6462527934707
 20
129.7361798016321
 30
0.0
 40
49.09998238925631
100
AcDbArc
 50
225.000787547806
 51
229.2372740037126
  0
ARC
  5
38D
330
1A
100
AcDbEntity
  8
NOKITOI
  6
PHANTOM
 62
     8
 48
5.0
100
AcDbCircle
 10
369.6468803634425
 20
129.7357035753846
 30
0.0
 40
49.10001206136158
100
AcDbArc
 50
271.8056629506491
 51
310.7632598341007
  0
ARC
  5
38E
330
1A
100
AcDbEntity
  8
NOKITOI
  6
PHANTOM
 62
     8
 48
5.0
100
AcDbCircle
 10
369.6467377373497
 20
129.7356480062859
 30
0.0
 40
47.50000500372177
100
AcDbArc
 50
273.6210443326267
 51
308.9575467068896
  0
ARC
  5
38F
330
1A
100
AcDbEntity
  8
NOKITOI
  6
PHANTOM
 62
     8
 48
5.0
100
AcDbCircle
 10
368.1467725032071
 20
82.15929995696725
 30
0.0
 40
1.499972988105894
100
AcDbArc
 50
180.0010648739035
 51
268.1939732995473
  0
ARC
  5
390
330
1A
100
AcDbEntity
  8
NOKITOI
  6
PHANTOM
 62
     8
 48
5.0
100
AcDbCircle
 10
365.1467860988136
 20
82.34885987705183
 30
0.0
 40
1.500013416596351
100
AcDbArc
 50
264.5722656591071
 51
0.0004660811056378
  0
ARC
  5
391
330
1A
100
AcDbEntity
  8
NOKITOI
  6
PHANTOM
 62
     8
 48
5.0
100
AcDbCircle
 10
371.1468281025718
 20
82.15930158053586
 30
0.0
 40
1.499971413078628
100
AcDbArc
 50
271.8021467179173
 51
359.9988731080437
  0
ARC
  5
392
330
1A
100
AcDbEntity
  8
NOKITOI
  6
PHANTOM
 62
     8
 48
5.0
100
AcDbCircle
 10
374.1468082036432
 20
82.34886417678726
 30
0.0
 40
1.500008688303761
100
AcDbArc
 50
179.999698154269
 51
275.4240960311136
  0
ARC
  5
393
330
1A
100
AcDbEntity
  8
NOKITOI
  6
PHANTOM
 62
     8
 48
5.0
100
AcDbCircle
 10
369.6462642609235
 20
129.7356636443288
 30
0.0
 40
49.09999156712229
100
AcDbArc
 50
270.0005079072612
 51
271.8063830044582
  0
ARC
  5
394
330
1A
100
AcDbEntity
  8
NOKITOI
  6
PHANTOM
 62
     8
 48
5.0
100
AcDbCircle
 10
400.7266043693733
 20
93.68287164256159
 30
0.0
 40
1.499979023186371
100
AcDbArc
 50
218.9573582808658
 51
310.763575419602
  0
ARC
  5
395
330
1A
100
AcDbEntity
  8
NOKITOI
  6
PHANTOM
 62
     8
 48
5.0
100
AcDbCircle
 10
398.3937942504983
 20
91.7966288619929
 30
0.0
 40
1.500006789964745
100
AcDbArc
 50
307.1521801477866
 51
38.95864504001526
  0
LINE
  5
396
330
1A
100
AcDbEntity
  8
NOKITOI
  6
PHANTOM
 62
     8
 48
5.0
100
AcDbLine
 10
399.5121995153603
 20
92.79917207913578
 30
0.0
 11
399.5601995153603
 21
92.73977207913569
 31
0.0
  0
LINE
  5
397
330
1A
100
AcDbEntity
  8
NOKITOI
  6
PHANTOM
 62
     8
 48
5.0
100
AcDbLine
 10
406.6426995153602
 20
99.82227207913579
 30
0.0
 11
406.5832995153603
 21
99.87027207913579
 31
0.0
  0
ARC
  5
398
330
1A
100
AcDbEntity
  8
NOKITOI
  6
PHANTOM
 62
     8
 48
5.0
100
AcDbCircle
 10
405.6995999519343
 20
98.65586722512269
 30
0.0
 40
1.499979023186486
100
AcDbArc
 50
319.2364245804014
 51
51.04264171913752
  0
ARC
  5
399
330
1A
100
AcDbEntity
  8
NOKITOI
  6
PHANTOM
 62
     8
 48
5.0
100
AcDbCircle
 10
369.64724268158
 20
129.7360836305362
 30
0.0
 40
49.09998761094126
100
AcDbArc
 50
310.7627262216624
 51
314.9992122268216
  0
SPLINE
  5
39A
330
1A
100
AcDbEntity
  8
SEIHIN
100
AcDbSpline
210
0.0
220
0.0
230
1.0
 70
     8
 71
     3
 72
    18
 73
    14
 74
     0
 42
0.0000000001
 43
0.0000000001
 40
4.396185078408455
 40
4.396185078408455
 40
4.396185078408455
 40
4.396185078408455
 40
4.45058959258555
 40
4.45058959258555
 40
4.516039439535337
 40
4.516039439535337
 40
4.581489286485124
 40
4.581489286485124
 40
4.646939133434912
 40
4.646939133434912
 40
4.7123889803847
 40
4.7123889803847
 40
4.747922686328426
 40
4.747922686328426
 40
4.747922686328426
 40
4.747922686328426
 10
231.9659719051053
 20
232.6232015952423
 30
0.0
 10
239.0552863897105
 20
230.8332149731929
 30
0.0
 10
246.08623732608
 20
229.2281895007046
 30
0.0
 10
261.3545902626854
 20
226.0927391713865
 30
0.0
 10
269.7920452720797
 20
224.5923784310125
 30
0.0
 10
286.5088086401845
 20
222.0681005784986
 30
0.0
 10
294.7879211944685
 20
221.0428869425153
 30
0.0
 10
310.9593300183367
 20
219.4429948377642
 30
0.0
 10
319.2108712504594
 20
218.8394300231994
 30
0.0
 10
335.0349198691918
 20
218.0684719762353
 30
0.0
 10
342.6062182295798
 20
217.8764602745214
 30
0.0
 10
355.3178378912278
 20
217.8764602745214
 30
0.0
 10
359.5940317560528
 20
217.9330570168323
 30
0.0
 10
363.8348325105583
 20
218.0464834412212
 30
0.0
  0
LINE
  5
39B
330
1A
100
AcDbEntity
  8
SEIHIN
100
AcDbLine
 10
305.1001191200901
 20
131.7770397952493
 30
0.0
 11
276.5594718374016
 21
185.4543030801425
 31
0.0
  0
LINE
  5
39C
330
1A
100
AcDbEntity
  8
SEIHIN
100
AcDbLine
 10
302.6172623374425
 20
130.3975747578312
 30
0.0
 11
275.842153713448
 21
180.7543357960971
 31
0.0
  0
LINE
  5
39D
330
1A
100
AcDbEntity
  8
SEIHIN
100
AcDbLine
 10
276.6241032124006
 20
145.1944635970818
 30
0.0
 11
302.7252582307385
 21
130.1944635970818
 31
0.0
  0
LINE
  5
39E
330
1A
100
AcDbEntity
  8
SEIHIN
100
AcDbLine
 10
276.5594718374011
 20
185.4543030801424
 30
0.0
 11
277.7076463232158
 21
186.5919660274741
 31
0.0
  0
LINE
  5
39F
330
1A
100
AcDbEntity
  8
SEIHIN
100
AcDbLine
 10
232.2681005553336
 20
232.8760495872602
 30
0.0
 11
278.8245505284578
 21
185.4543030801424
 31
0.0
  0
LINE
  5
3A0
330
1A
100
AcDbEntity
  8
SEIHIN
100
AcDbLine
 10
276.6241032124006
 20
145.1944635970819
 30
0.0
 11
230.5024345058438
 21
231.9368885245669
 31
0.0
  0
LINE
  5
3A1
330
1A
100
AcDbEntity
  8
SEIHIN
100
AcDbLine
 10
230.5024345058438
 20
231.9368885245669
 30
0.0
 11
276.5594718374014
 21
185.4543030801424
 31
0.0
  0
LINE
  5
3A2
330
1A
100
AcDbEntity
  8
SEIHIN
100
AcDbLine
 10
236.7261525305966
 20
220.2317527679502
 30
0.0
 11
275.842153713448
 21
180.7543357960971
 31
0.0
  0
LINE
  5
3A3
330
1A
100
AcDbEntity
  8
SEIHIN
100
AcDbLine
 10
267.8078758865812
 20
194.2867601839418
 30
0.0
 11
268.9967562745024
 21
195.4647563708086
 31
0.0
  0
LINE
  5
3A4
330
1A
100
AcDbEntity
  8
SEIHIN
100
AcDbLine
 10
247.0922768749618
 20
217.7763516504109
 30
0.0
 11
242.7782763273895
 21
225.8898236718971
 31
0.0
  0
LINE
  5
3A5
330
1A
100
AcDbEntity
  8
SEIHIN
100
AcDbLine
 10
242.7780471911614
 20
225.8900416090187
 30
0.0
 11
237.033684291472
 21
228.1733990682599
 31
0.0
  0
LINE
  5
3A6
330
1A
100
AcDbEntity
  8
SEIHIN
100
AcDbLine
 10
230.5022053696157
 20
231.9371064616884
 30
0.0
 11
232.2681005553336
 21
232.8760495872602
 31
0.0
  0
LINE
  5
3A7
330
1A
100
AcDbEntity
  8
SEIHIN
100
AcDbLine
 10
250.2852916211841
 20
211.971245932776
 30
0.0
 11
251.5556740121419
 21
213.2299979717661
 31
0.0
  0
LINE
  5
3A8
330
1A
100
AcDbEntity
  8
SEIHIN
100
AcDbLine
 10
244.7611090911331
 20
217.5464696410485
 30
0.0
 11
246.0571858622417
 21
218.8306808281152
 31
0.0
  0
LINE
  5
3A9
330
1A
100
AcDbEntity
  8
SEIHIN
100
AcDbLine
 10
262.5586269781094
 20
199.5845099968659
 30
0.0
 11
263.771922959872
 21
200.7866982527898
 31
0.0
  0
ELLIPSE
  5
3AA
330
1A
100
AcDbEntity
  8
SEIHIN
100
AcDbEllipse
 10
392.2899506749957
 20
203.6163528852306
 30
0.0
 11
-14.0
 21
0.0
 31
0.0
210
0.0
220
0.0
230
1.0
 40
0.8829493885837232
 41
-0.798544915000382
 42
1.89521395775776
  0
LINE
  5
3AB
330
1A
100
AcDbEntity
  8
NOKITOI
  6
PHANTOM
 62
     8
 48
5.0
100
AcDbLine
 10
310.4967995153603
 20
131.5356720791357
 30
0.0
 11
369.6467995153602
 21
131.5356720791357
 31
0.0
  0
LINE
  5
3AC
330
1A
100
AcDbEntity
  8
SEIHIN
100
AcDbLine
 10
307.804955594047
 20
130.9500882968322
 30
0.0
 11
278.8245505284581
 21
185.4543030801421
 31
0.0
  0
LINE
  5
3AD
330
1A
100
AcDbEntity
  8
SEIHIN
100
AcDbLine
 10
311.6736387589376
 20
132.1943713553403
 30
0.0
 11
286.4623157144413
 21
179.6099738315213
 31
0.0
  0
ARC
  5
3AE
330
1A
100
AcDbEntity
  8
NOKITOI
  6
PHANTOM
 62
     8
 48
5.0
100
AcDbCircle
 10
316.9967995153603
 20
124.7356720791357
 30
0.0
 40
6.5
100
AcDbArc
 50
180.0
 51
270.0
  0
LINE
  5
3AF
330
1A
100
AcDbEntity
  8
SEIHIN
100
AcDbLine
 10
309.017534608998
 20
130.5793656882687
 30
0.0
 11
311.955167581031
 21
128.7437359511964
 31
0.0
  0
LINE
  5
3B0
330
1A
100
AcDbEntity
  8
SEIHIN
100
AcDbLine
 10
308.1808880657284
 20
128.7437168079991
 30
0.0
 11
311.3816545659374
 21
126.7437893340293
 31
0.0
  0
LINE
  5
3B1
330
1A
100
AcDbEntity
  8
SEIHIN
100
AcDbLine
 10
308.1808880657284
 20
128.7437168079991
 30
0.0
 11
302.771211443149
 21
130.3976209282913
 31
0.0
  0
LINE
  5
3B2
330
1A
100
AcDbEntity
  8
SEIHIN
100
AcDbLine
 10
309.017534608998
 20
130.5793656882687
 30
0.0
 11
305.1001191200901
 21
131.7770397952493
 31
0.0
  0
ARC
  5
3B3
330
1A
100
AcDbEntity
  8
SEIHIN
  6
CONTINUOUS
 62
     3
 48
16.0
100
AcDbCircle
 10
316.9968311912585
 20
125.0356378422333
 30
0.0
 40
6.500013281761266
100
AcDbArc
 50
342.7609990418911
 51
98.17172878030987
  0
ARC
  5
3B4
330
1A
100
AcDbEntity
  8
SEIHIN
  6
CONTINUOUS
 62
     3
 48
16.0
100
AcDbCircle
 10
317.2512942281195
 20
124.6700839600313
 30
0.0
 40
6.499989161914308
100
AcDbArc
 50
130.4246244507598
 51
204.3590805691789
  0
ARC
  5
3B5
330
1A
100
AcDbEntity
  8
SEIHIN
  6
CONTINUOUS
 62
     3
 48
16.0
100
AcDbCircle
 10
317.2512665546683
 20
124.6700705308463
 30
0.0
 40
4.50002340759848
100
AcDbArc
 50
37.67635885258483
 51
203.9207041560011
  0
ARC
  5
3B6
330
1A
100
AcDbEntity
  8
SEIHIN
  6
CONTINUOUS
 62
     3
 48
16.0
100
AcDbCircle
 10
316.9967995153603
 20
125.0356720791357
 30
0.0
 40
4.499980969921022
100
AcDbArc
 50
322.0712037027328
 51
108.3306869665798
  0
CIRCLE
  5
3B7
330
1A
100
AcDbEntity
  8
NOKITOI
  6
PHANTOM
 62
     8
 48
5.0
100
AcDbCircle
 10
316.8851995153601
 20
124.7357840790324
 30
0.0
 40
2.7
  0
LINE
  5
3B8
330
1A
100
AcDbEntity
  8
NOKITOI
  6
PHANTOM
 62
     8
 48
5.0
100
AcDbLine
 10
328.2467995153603
 20
131.5356720791357
 30
0.0
 11
328.4967995153603
 21
106.0096720791357
 31
0.0
  0
LINE
  5
3B9
330
1A
100
AcDbEntity
  8
NOKITOI
  6
PHANTOM
 62
     8
 48
5.0
100
AcDbLine
 10
310.4967995153603
 20
125.0356720791357
 30
0.0
 11
310.4967995153603
 21
131.5356720791357
 31
0.0
  0
ARC
  5
3BA
330
1A
100
AcDbEntity
  8
NOKITOI
  6
PHANTOM
 62
     8
 48
5.0
100
AcDbCircle
 10
316.9967995153603
 20
125.0356720791357
 30
0.0
 40
6.5
100
AcDbArc
 50
0.0
 51
180.0
  0
ARC
  5
3BB
330
1A
100
AcDbEntity
  8
NOKITOI
  6
PHANTOM
 62
     8
 48
5.0
100
AcDbCircle
 10
316.8851995153601
 20
124.7357840790324
 30
0.0
 40
3.999994
100
AcDbArc
 50
5.413986
 51
185.413851
  0
ARC
  5
3BC
330
1A
100
AcDbEntity
  8
NOKITOI
  6
PHANTOM
 62
     8
 48
5.0
100
AcDbCircle
 10
316.9967995153603
 20
125.0356720791357
 30
0.0
 40
4.5
100
AcDbArc
 50
0.0
 51
180.0
  0
LINE
  5
3BD
330
1A
100
AcDbEntity
  8
NOKITOI
  6
PHANTOM
 62
     8
 48
5.0
100
AcDbLine
 10
326.4967995153603
 20
116.5356720791357
 30
0.0
 11
326.7303995153602
 21
130.5523720791357
 31
0.0
  0
LINE
  5
3BE
330
1A
100
AcDbEntity
  8
SEIHIN
100
AcDbLine
 10
331.9091551407655
 20
107.1944084620493
 30
0.0
 11
331.9093434384959
 21
131.1943818344598
 31
0.0
  0
LINE
  5
3BF
330
1A
100
AcDbEntity
  8
SEIHIN
100
AcDbLine
 10
326.9092112472408
 20
108.1943829694335
 30
0.0
 11
326.9092529002912
 21
129.6944354170034
 31
0.0
  0
LINE
  5
3C0
330
1A
100
AcDbEntity
  8
SEIHIN
100
AcDbLine
 10
328.9091472947991
 20
106.1943923555362
 30
0.0
 11
328.9093723899093
 21
134.8844707397011
 31
0.0
  0
LINE
  5
3C1
330
1A
100
AcDbEntity
  8
SEIHIN
100
AcDbLine
 10
316.2062673405396
 20
130.6944599833191
 30
0.0
 11
316.2062673405396
 21
115.6944599833191
 31
0.0
  0
LINE
  5
3C2
330
1A
100
AcDbEntity
  8
SEIHIN
  6
CONTINUOUS
 62
     3
 48
16.0
100
AcDbLine
 10
321.6091159736405
 20
120.4582852840976
 30
0.0
 11
327.9342652707328
 21
120.4603879484577
 31
0.0
  0
LINE
  5
3C3
330
1A
100
AcDbEntity
  8
SEIHIN
  6
CONTINUOUS
 62
     3
 48
16.0
100
AcDbLine
 10
323.6824604031863
 20
122.4611899863917
 30
0.0
 11
327.9339159452938
 21
122.4618752613667
 31
0.0
  0
ARC
  5
3C4
330
1A
100
AcDbEntity
  8
SEIHIN
  6
CONTINUOUS
 62
     3
100
AcDbCircle
 10
328.0793899990781
 20
114.2770485534081
 30
0.0
 40
7.081114185099713
100
AcDbArc
 50
218.827927419824
 51
273.4039179692038
  0
LINE
  5
3C5
330
1A
100
AcDbEntity
  8
NOKITOI
  6
PHANTOM
 62
     8
 48
5.0
100
AcDbLine
 10
324.4967995153603
 20
116.5356720791357
 30
0.0
 11
326.4967995153603
 21
116.5356720791357
 31
0.0
  0
LINE
  5
3C6
330
1A
100
AcDbEntity
  8
NOKITOI
  6
PHANTOM
 62
     8
 48
5.0
100
AcDbLine
 10
324.4042995153602
 20
120.2356720791357
 30
0.0
 11
326.5583995153603
 21
120.2356720791357
 31
0.0
  0
LINE
  5
3C7
330
1A
100
AcDbEntity
  8
SEIHIN
  6
CONTINUOUS
 62
     3
 48
16.0
100
AcDbLine
 10
320.9975154251433
 20
120.6228808804649
 30
0.0
 11
320.9983995157177
 21
115.4955821520652
 31
0.0
  0
ARC
  5
3C8
330
1A
100
AcDbEntity
  8
SEIHIN
  6
CONTINUOUS
 62
     3
 48
16.0
100
AcDbCircle
 10
326.9959424468089
 20
129.7882011843778
 30
0.0
 40
17.49998937501615
100
AcDbArc
 50
205.5310034036282
 51
254.1314098305181
  0
ARC
  5
3C9
330
1A
100
AcDbEntity
  8
SEIHIN
  6
CONTINUOUS
 62
     3
 48
16.0
100
AcDbCircle
 10
326.9959192406428
 20
129.7882207672453
 30
0.0
 40
15.49999230435306
100
AcDbArc
 50
205.2109973750416
 51
254.1316573280785
  0
LINE
  5
3CA
330
1A
100
AcDbEntity
  8
SEIHIN
100
AcDbLine
 10
313.8394623734992
 20
126.743756345031
 30
0.0
 11
313.8394258037192
 21
113.1334160873937
 31
0.0
  0
LINE
  5
3CB
330
1A
100
AcDbEntity
  8
SEIHIN
100
AcDbLine
 10
311.8393948520336
 20
113.1334640443647
 30
0.0
 11
311.8394839823666
 21
126.4738275488594
 31
0.0
  0
LINE
  5
3CC
330
1A
100
AcDbEntity
  8
SEIHIN
100
AcDbLine
 10
315.1462505463971
 20
126.7196324735671
 30
0.0
 11
315.1461882411502
 21
113.8282340003168
 31
0.0
  0
LINE
  5
3CD
330
1A
100
AcDbEntity
  8
SEIHIN
100
AcDbLine
 10
318.3253995305938
 20
112.133398746649
 30
0.0
 11
314.8394379748779
 21
112.1334442540233
 31
0.0
  0
LINE
  5
3CE
330
1A
100
AcDbEntity
  8
SEIHIN
100
AcDbLine
 10
314.8393900179069
 20
110.1334133023378
 30
0.0
 11
318.3253046264667
 21
110.1334560897228
 31
0.0
  0
LINE
  5
3CF
330
1A
100
AcDbEntity
  8
SEIHIN
100
AcDbLine
 10
319.632161968025
 20
112.8282166595721
 30
0.0
 11
316.1462004123091
 21
112.8282621669464
 31
0.0
  0
ARC
  5
3D0
330
1A
100
AcDbEntity
  8
SEIHIN
100
AcDbCircle
 10
314.8394854269416
 20
113.1334155824863
 30
0.0
 40
3.000045999999999
100
AcDbArc
 50
179.999074
 51
269.9981779999999
  0
ARC
  5
3D1
330
1A
100
AcDbEntity
  8
SEIHIN
100
AcDbCircle
 10
314.8394854269416
 20
113.1334155824863
 30
0.0
 40
1.000014999999999
100
AcDbArc
 50
179.999971
 51
269.9972809999999
  0
ARC
  5
3D2
330
1A
100
AcDbEntity
  8
SEIHIN
100
AcDbCircle
 10
316.1462478643727
 20
113.8282334954094
 30
0.0
 40
1.000014999999999
100
AcDbArc
 50
179.999971
 51
269.9972809999999
  0
ARC
  5
3D3
330
1A
100
AcDbEntity
  8
SEIHIN
  6
CONTINUOUS
 62
     3
 48
16.0
100
AcDbCircle
 10
321.4280261523806
 20
112.6709692328698
 30
0.0
 40
0.5000139297826384
100
AcDbArc
 50
326.8515733954222
 51
71.97345113005207
  0
ARC
  5
3D4
330
1A
100
AcDbEntity
  8
SEIHIN
  6
CONTINUOUS
 62
     3
100
AcDbCircle
 10
328.0793899990781
 20
114.2770485534081
 30
0.0
 40
7.081114185099713
100
AcDbArc
 50
187.7287685158371
 51
200.5649235238596
  0
LINE
  5
3D5
330
1A
100
AcDbEntity
  8
SEIHIN
  6
CONTINUOUS
 62
     3
 48
16.0
100
AcDbLine
 10
321.558502976357
 20
108.2998450167565
 30
0.0
 11
319.8841949107777
 21
109.3936716719153
 31
0.0
  0
LINE
  5
3D6
330
1A
100
AcDbEntity
  8
SEIHIN
  6
CONTINUOUS
 62
     3
 48
16.0
100
AcDbLine
 10
319.8842362347758
 20
109.3938069210451
 30
0.0
 11
321.8466662402164
 21
112.3975567115151
 31
0.0
  0
LINE
  5
3D7
330
1A
100
AcDbEntity
  8
SEIHIN
  6
CONTINUOUS
 62
     3
 48
16.0
100
AcDbLine
 10
321.558502976357
 20
108.2998450167565
 30
0.0
 11
323.8852413217276
 21
111.8611978232307
 31
0.0
  0
ARC
  5
3D8
330
1A
100
AcDbEntity
  8
SEIHIN
  6
CONTINUOUS
 62
     3
 48
16.0
100
AcDbCircle
 10
322.2109027076043
 20
112.9551062371264
 30
0.0
 40
2.000011353151861
100
AcDbArc
 50
326.8419037740988
 51
74.13078804059956
  0
LINE
  5
3D9
330
1A
100
AcDbEntity
  8
SEIHIN
100
AcDbLine
 10
321.1750039680644
 20
112.3117878717283
 30
0.0
 11
318.66091961588
 21
112.3117979405076
 31
0.0
  0
ARC
  5
3DA
330
1A
100
AcDbEntity
  8
SEIHIN
100
AcDbCircle
 10
318.3253485213925
 20
109.6334497516897
 30
0.0
 40
2.500004999999999
100
AcDbArc
 50
350.729038
 51
89.99883100000001
  0
ARC
  5
3DB
330
1A
100
AcDbEntity
  8
SEIHIN
100
AcDbCircle
 10
318.6608686066791
 20
109.8118489455484
 30
0.0
 40
2.500004999999999
100
AcDbArc
 50
350.729038
 51
89.99883100000001
  0
ARC
  5
3DC
330
1A
100
AcDbEntity
  8
SEIHIN
100
AcDbCircle
 10
311.2587499548397
 20
111.0199793003074
 30
0.0
 40
10.000036
100
AcDbArc
 50
336.809152
 51
350.729603
  0
ARC
  5
3DD
330
1A
100
AcDbEntity
  8
SEIHIN
100
AcDbCircle
 10
318.3253485213925
 20
109.6334497516897
 30
0.0
 40
0.5000090000000001
100
AcDbArc
 50
350.729038
 51
90.00503
  0
LINE
  5
3DE
330
1A
100
AcDbEntity
  8
SEIHIN
100
AcDbLine
 10
321.8106379401636
 20
112.649760449778
 30
0.0
 11
319.2966418827384
 21
112.6498174657134
 31
0.0
  0
ARC
  5
3DF
330
1A
100
AcDbEntity
  8
SEIHIN
100
AcDbCircle
 10
319.6321109588237
 20
110.3282676646129
 30
0.0
 40
2.499954999999999
100
AcDbArc
 50
68.22343800000002
 51
89.99883100000001
  0
LINE
  5
3E0
330
1A
100
AcDbEntity
  8
SEIHIN
100
AcDbLine
 10
321.0864798762757
 20
107.4200371283674
 30
0.0
 11
322.7298812281831
 21
111.2559728377541
 31
0.0
  0
LINE
  5
3E1
330
1A
100
AcDbEntity
  8
SEIHIN
100
AcDbLine
 10
320.4507576094172
 20
107.0820176031616
 30
0.0
 11
322.0941589613246
 21
110.9179533125482
 31
0.0
  0
ARC
  5
3E2
330
1A
100
AcDbEntity
  8
SEIHIN
100
AcDbCircle
 10
321.8106787828594
 20
111.6498360684711
 30
0.0
 40
0.9999780000000001
100
AcDbArc
 50
336.805658
 51
90.00234
  0
ARC
  5
3E3
330
1A
100
AcDbEntity
  8
SEIHIN
100
AcDbCircle
 10
321.174956516001
 20
111.3118165432653
 30
0.0
 40
1.000000999999999
100
AcDbArc
 50
336.805658
 51
89.99728100000002
  0
ARC
  5
3E4
330
1A
100
AcDbEntity
  8
NOKITOI
  6
PHANTOM
 62
     8
 48
5.0
100
AcDbCircle
 10
317.8332895654986
 20
117.2356799141972
 30
0.0
 40
0.9999921649880304
100
AcDbArc
 50
13.5617978218313
 51
89.99942991044838
  0
LINE
  5
3E5
330
1A
100
AcDbEntity
  8
NOKITOI
  6
PHANTOM
 62
     8
 48
5.0
100
AcDbLine
 10
317.9966995153602
 20
120.2356720791357
 30
0.0
 11
318.4967995153603
 21
126.5356720791357
 31
0.0
  0
LINE
  5
3E6
330
1A
100
AcDbEntity
  8
NOKITOI
  6
PHANTOM
 62
     8
 48
5.0
100
AcDbLine
 10
316.9967995153603
 20
118.2356720791357
 30
0.0
 11
318.5536324292422
 21
118.2356720791357
 31
0.0
  0
ARC
  5
3E7
330
1A
100
AcDbEntity
  8
NOKITOI
  6
PHANTOM
 62
     8
 48
5.0
100
AcDbCircle
 10
316.8851995153601
 20
124.7357840790324
 30
0.0
 40
4.000029
100
AcDbArc
 50
185.413851
 51
319.252818
  0
LINE
  5
3E8
330
1A
100
AcDbEntity
  8
NOKITOI
  6
PHANTOM
 62
     8
 48
5.0
100
AcDbLine
 10
316.9967995153603
 20
120.2356720791357
 30
0.0
 11
319.4328995153603
 21
120.2356720791357
 31
0.0
  0
ARC
  5
3E9
330
1A
100
AcDbEntity
  8
NOKITOI
  6
PHANTOM
 62
     8
 48
5.0
100
AcDbCircle
 10
316.9967995153603
 20
124.7356720791357
 30
0.0
 40
4.5
100
AcDbArc
 50
180.0
 51
270.0
  0
LINE
  5
3EA
330
1A
100
AcDbEntity
  8
NOKITOI
  6
PHANTOM
 62
     8
 48
5.0
100
AcDbLine
 10
310.4967995153603
 20
124.7356720791357
 30
0.0
 11
310.4967995153603
 21
125.0356720791357
 31
0.0
  0
LINE
  5
3EB
330
1A
100
AcDbEntity
  8
NOKITOI
  6
PHANTOM
 62
     8
 48
5.0
100
AcDbLine
 10
312.4967995153603
 20
125.0356720791357
 30
0.0
 11
312.4967995153603
 21
124.7356720791357
 31
0.0
  0
LINE
  5
3EC
330
1A
100
AcDbEntity
  8
SEIHIN
100
AcDbLine
 10
311.3815662711782
 20
126.743742386873
 30
0.0
 11
314.68098064945
 21
126.7437211222424
 31
0.0
  0
ARC
  5
3ED
330
1A
100
AcDbEntity
  8
SEIHIN
100
AcDbCircle
 10
310.3395063158705
 20
126.4738311059971
 30
0.0
 40
1.499979999999999
100
AcDbArc
 50
359.9998639999999
 51
10.36592499999999
  0
ARC
  5
3EE
330
1A
100
AcDbEntity
  8
SEIHIN
  6
CONTINUOUS
 62
     3
 48
16.0
100
AcDbCircle
 10
321.6089243911346
 20
121.6755734335256
 30
0.0
 40
1.217367050221013
100
AcDbArc
 50
150.7900063482376
 51
273.7649033198451
  0
ARC
  5
3EF
330
1A
100
AcDbEntity
  8
SEIHIN
  6
CONTINUOUS
 62
     3
 48
16.0
100
AcDbCircle
 10
323.6823488660943
 20
122.9611696722505
 30
0.0
 40
0.5000266489652871
100
AcDbArc
 50
162.7565624243635
 51
270.0026641722418
  0
ARC
  5
3F0
330
1A
100
AcDbEntity
  8
NOKITOI
  6
PHANTOM
 62
     8
 48
5.0
100
AcDbCircle
 10
319.4328846013477
 20
119.2356841967825
 30
0.0
 40
0.9999878824644465
100
AcDbArc
 50
11.81137378046217
 51
89.99914547966552
  0
LINE
  5
3F1
330
1A
100
AcDbEntity
  8
NOKITOI
  6
PHANTOM
 62
     8
 48
5.0
100
AcDbLine
 10
323.4967995153603
 20
125.0356720791357
 30
0.0
 11
323.4967995153603
 21
119.1091720791357
 31
0.0
  0
LINE
  5
3F2
330
1A
100
AcDbEntity
  8
NOKITOI
  6
PHANTOM
 62
     8
 48
5.0
100
AcDbLine
 10
324.3198995153601
 20
123.6106720791356
 30
0.0
 11
324.4967995153603
 21
116.5356720791357
 31
0.0
  0
ARC
  5
3F3
330
1A
100
AcDbEntity
  8
NOKITOI
  6
PHANTOM
 62
     8
 48
5.0
100
AcDbCircle
 10
328.4968103893367
 20
119.1090864822611
 30
0.0
 40
5.000010874709031
100
AcDbArc
 50
179.9990191342023
 51
194.4788339685629
  0
LINE
  5
3F4
330
1A
100
AcDbEntity
  8
NOKITOI
  6
PHANTOM
 62
     8
 48
5.0
100
AcDbLine
 10
318.4967995153603
 20
126.5356720791357
 30
0.0
 11
321.2393995153604
 21
126.5356720791357
 31
0.0
  0
ARC
  5
3F5
330
1A
100
AcDbEntity
  8
NOKITOI
  6
PHANTOM
 62
     8
 48
5.0
100
AcDbCircle
 10
321.3208121099893
 20
123.5356421803067
 30
0.0
 40
3.00002579168453
100
AcDbArc
 50
1.433102618457502
 51
44.25374679574689
  0
ARC
  5
3F6
330
1A
100
AcDbEntity
  8
NOKITOI
  6
PHANTOM
 62
     8
 48
5.0
100
AcDbCircle
 10
322.4968277470633
 20
120.2231894257714
 30
0.0
 40
1.000028271648303
100
AcDbArc
 50
179.9838056127879
 51
191.3914912682462
  0
LINE
  5
3F7
330
1A
100
AcDbEntity
  8
NOKITOI
  6
PHANTOM
 62
     8
 48
5.0
100
AcDbLine
 10
321.4967995153603
 20
125.0356720791357
 30
0.0
 11
321.4967995153603
 21
120.2234720791357
 31
0.0
  0
ARC
  5
3F8
330
1A
100
AcDbEntity
  8
NOKITOI
  6
PHANTOM
 62
     8
 48
5.0
100
AcDbCircle
 10
318.5536324292421
 20
117.2356720791358
 30
0.0
 40
1.0
100
AcDbArc
 50
13.74741579864491
 51
89.99999999999674
  0
LINE
  5
3F9
330
1A
100
AcDbEntity
  8
SEIHIN
100
AcDbLine
 10
328.9091472899543
 20
106.1944163077968
 30
0.0
 11
330.9091551407962
 21
106.1944163077968
 31
0.0
  0
ARC
  5
3FA
330
1A
100
AcDbEntity
  8
SEIHIN
100
AcDbCircle
 10
330.9091551407962
 20
107.1944163077968
 30
0.0
 40
1.0
100
AcDbArc
 50
270.0
 51
359.9995504717828
  0
ARC
  5
3FB
330
1A
100
AcDbEntity
  8
SEIHIN
100
AcDbCircle
 10
328.9091952517699
 20
108.1944233072217
 30
0.0
 40
2.000007
100
AcDbArc
 50
180.001156
 51
269.9986259999999
  0
LINE
  5
3FC
330
1A
100
AcDbEntity
  8
NOKITOI
  6
PHANTOM
 62
     8
 48
5.0
100
AcDbLine
 10
328.3573995153603
 20
120.2356720791357
 30
0.0
 11
340.4965995153604
 21
120.2356720791357
 31
0.0
  0
LINE
  5
3FD
330
1A
100
AcDbEntity
  8
SEIHIN
  6
CONTINUOUS
 62
     3
100
AcDbLine
 10
327.9342652707329
 20
120.4603879484575
 30
0.0
 11
327.9339159452938
 21
122.4618752613668
 31
0.0
  0
ARC
  5
3FE
330
1A
100
AcDbEntity
  8
SEIHIN
100
AcDbCircle
 10
325.9093723900016
 20
134.8844942769435
 30
0.0
 40
3.0
100
AcDbArc
 50
359.9995504717828
 51
90.00000538143003
  0
ARC
  5
3FF
330
1A
100
AcDbEntity
  8
SEIHIN
100
AcDbCircle
 10
325.9093254667541
 20
129.1944765310339
 30
0.0
 40
2.999954999999999
100
AcDbArc
 50
359.9998639999999
 51
89.999864
  0
LINE
  5
400
330
1A
100
AcDbEntity
  8
SEIHIN
100
AcDbLine
 10
312.4642857082506
 20
130.1944635970818
 30
0.0
 11
326.4092909620915
 21
130.1944448072668
 31
0.0
  0
LINE
  5
401
330
1A
100
AcDbEntity
  8
SEIHIN
100
AcDbLine
 10
321.1120803816184
 20
137.8844938263642
 30
0.0
 11
311.3952421222057
 21
132.7179592779055
 31
0.0
  0
LINE
  5
402
330
1A
100
AcDbEntity
  8
SEIHIN
100
AcDbLine
 10
311.6736387589379
 20
132.1943713553403
 30
0.0
 11
325.9260461898218
 21
132.1943849328764
 31
0.0
  0
ARC
  5
403
330
1A
100
AcDbEntity
  8
SEIHIN
  6
CONTINUOUS
 62
     3
 48
16.0
100
AcDbCircle
 10
314.6379211901441
 20
132.1550463008601
 30
0.0
 40
3.000005449296858
100
AcDbArc
 50
238.0103888991554
 51
288.3332170813766
  0
LINE
  5
404
330
1A
100
AcDbEntity
  8
SEIHIN
  6
CONTINUOUS
 62
     3
 48
16.0
100
AcDbLine
 10
316.894824037261
 20
131.9244099924978
 30
0.0
 11
314.5735569942175
 21
133.3744306698952
 31
0.0
  0
ARC
  5
405
330
1A
100
AcDbEntity
  8
SEIHIN
  6
CONTINUOUS
 62
     3
 48
16.0
100
AcDbCircle
 10
315.3622414258839
 20
136.4189468601268
 30
0.0
 40
5.000056626707651
100
AcDbArc
 50
238.0097880139767
 51
278.171308251497
  0
LINE
  5
406
330
1A
100
AcDbEntity
  8
SEIHIN
100
AcDbLine
 10
311.955167581031
 20
128.7437359511964
 30
0.0
 11
314.680940311662
 21
128.7437051267716
 31
0.0
  0
LINE
  5
407
330
1A
100
AcDbEntity
  8
SEIHIN
  6
CONTINUOUS
 62
     3
 48
16.0
100
AcDbLine
 10
319.0383132615223
 20
131.2067895179604
 30
0.0
 11
320.9956904072423
 21
131.2071040781693
 31
0.0
  0
LINE
  5
408
330
1A
100
AcDbEntity
  8
SEIHIN
  6
CONTINUOUS
 62
     3
 48
16.0
100
AcDbLine
 10
320.9956904072421
 20
131.2071040781692
 30
0.0
 11
320.9958709782119
 21
130.159879585695
 31
0.0
  0
ARC
  5
409
330
1A
100
AcDbEntity
  8
NOKITOI
  6
PHANTOM
 62
     8
 48
5.0
100
AcDbCircle
 10
320.1590829872949
 20
129.535648558372
 30
0.0
 40
1.00000937204284
100
AcDbArc
 50
234.9019026358805
 51
54.90659048869822
  0
LINE
  5
40A
330
1A
100
AcDbEntity
  8
SEIHIN
100
AcDbLine
 10
325.9093721082306
 20
137.8844942769435
 30
0.0
 11
321.1120803816182
 21
137.8844938263643
 31
0.0
  0
ARC
  5
40B
330
1A
100
AcDbEntity
  8
NOKITOI
  6
PHANTOM
 62
     8
 48
5.0
100
AcDbCircle
 10
327.7302302935823
 20
130.5357023475519
 30
0.0
 40
0.9999697320574956
100
AcDbArc
 50
90.00176351560455
 51
179.0448215810376
  0
ARC
  5
40C
330
1A
100
AcDbEntity
  8
SEIHIN
100
AcDbCircle
 10
330.9093434385266
 20
131.1943896802072
 30
0.0
 40
1.0
100
AcDbArc
 50
359.999550471783
 51
90.00005458274479
  0
LINE
  5
40D
330
1A
100
AcDbEntity
  8
SEIHIN
100
AcDbLine
 10
328.9093512841976
 20
132.1943877749179
 30
0.0
 11
330.9093424858782
 21
132.1943896802068
 31
0.0
  0
ARC
  5
40E
330
1A
100
AcDbEntity
  8
SEIHIN
100
AcDbCircle
 10
326.4093348570175
 20
129.6944384692338
 30
0.0
 40
0.499962
100
AcDbArc
 50
359.9996499999999
 51
90.00503
  0
LINE
  5
40F
330
1A
100
AcDbEntity
  8
SEIHIN
100
AcDbLine
 10
294.7296756752428
 20
151.2810481541557
 30
0.0
 11
295.8778501610575
 21
152.4187111014875
 31
0.0
  0
LINE
  5
410
330
1A
100
AcDbEntity
  8
SEIHIN
100
AcDbLine
 10
286.4623157144411
 20
179.6099738315211
 30
0.0
 11
280.7179528147515
 21
181.8933312907625
 31
0.0
  0
ELLIPSE
  5
411
330
1A
100
AcDbEntity
  8
SEIHIN
100
AcDbEllipse
 10
355.2062673405397
 20
168.2984328414704
 30
0.0
 11
57.0
 21
0.0
 31
0.0
210
0.0
220
0.0
230
1.0
 40
0.8829480010940054
 41
1.07103759100179
 42
1.418833796828517
  0
DIMENSION
  5
412
330
1A
100
AcDbEntity
  8
SUNPOU
  6
CONTINUOUS
 62
     4
100
AcDbDimension
  2
*D3
 10
202.4913085315709
 20
350.3456903203422
 30
0.0
 11
197.4913085315709
 21
401.3100611263038
 31
0.0
 12
9.101212834324996
 22
-22.73419881524182
 32
0.0
 70
    32
  3
STANDARD
100
AcDbAlignedDimension
 13
230.8665720031138
 23
452.2744319322653
 33
0.0
 14
298.606867438548
 24
350.3456903203422
 34
0.0
 50
90.0
100
AcDbRotatedDimension
1001
ACAD
1000
DSTYLE
1002
{
1070
   140
1040
6.0
1070
    74
1070
     0
1070
   172
1070
     1
1070
    73
1070
     0
1070
   272
1070
     2
1070
    77
1070
     3
1070
   173
1070
     1
1070
   147
1040
2.0
1070
    42
1040
6.0
1070
    44
1040
3.0
1070
    43
1040
14.0
1070
   271
1070
     0
1070
   178
1070
     4
1070
   177
1070
     4
1070
   176
1070
     4
1070
   141
1040
150.0
1070
     7
1000
_OPEN
1070
     6
1000
_OPEN
1070
    41
1040
7.0
1002
}
  0
ELLIPSE
  5
413
330
1A
100
AcDbEntity
  8
SEIHIN
  6
CONTINUOUS
 62
     3
100
AcDbEllipse
 10
280.9578049262223
 20
417.3023941529869
 30
0.0
 11
-5.985556369331675
 21
0.0
 31
0.0
210
0.0
220
0.0
230
1.0
 40
0.8830089759208371
 41
-1.649974372390299
 42
0.0789239604262253
  0
ELLIPSE
  5
414
330
1A
100
AcDbEntity
  8
SEIHIN
  6
CONTINUOUS
 62
     3
100
AcDbEllipse
 10
281.5287308609773
 20
415.703456834196
 30
0.0
 11
6.673538052238427
 21
0.0
 31
0.0
210
0.0
220
0.0
230
1.0
 40
0.8829948902476827
 41
2.93959498522912
 42
4.712388980384891
  0
SPLINE
  5
415
330
1A
100
AcDbEntity
  8
SEIHIN
100
AcDbSpline
210
0.0
220
0.0
230
1.0
 70
     8
 71
     3
 72
    20
 73
    16
 74
     0
 42
0.0000000001
 43
0.0000000001
 40
4.431699509766256
 40
4.431699509766256
 40
4.431699509766256
 40
4.431699509766256
 40
4.454808013061784
 40
4.454808013061784
 40
4.513430947715112
 40
4.513430947715112
 40
4.57205388236844
 40
4.57205388236844
 40
4.630676817021769
 40
4.630676817021769
 40
4.659988284348433
 40
4.659988284348433
 40
4.689299751675097
 40
4.689299751675097
 40
4.745898415257371
 40
4.745898415257371
 40
4.745898415257371
 40
4.745898415257371
 10
242.7502232655124
 20
440.4149765020074
 30
0.0
 10
245.7752086899793
 20
439.7447528655221
 30
0.0
 10
248.7880841040015
 20
439.1073667141271
 30
0.0
 10
259.4064782344067
 20
436.9648435798414
 30
0.0
 10
267.0899113320698
 20
435.6034137176597
 30
0.0
 10
282.3481485104833
 20
433.2664730449418
 30
0.0
 10
289.9131637358996
 20
432.2924535940278
 30
0.0
 10
304.7576313675179
 20
430.7145731880084
 30
0.0
 10
312.1929163116882
 20
430.0981267685746
 30
0.0
 10
323.2034007068612
 20
429.4244459551006
 30
0.0
 10
326.8074751238104
 20
429.2453266049239
 30
0.0
 10
333.9451813350423
 20
428.9637067653715
 30
0.0
 10
337.4788692882733
 20
428.8626314406271
 30
0.0
 10
348.0333826513688
 20
428.6812387734117
 30
0.0
 10
355.3181569689056
 20
428.7080260762272
 30
0.0
 10
362.2305104553684
 20
428.8816653563521
 30
0.0
  0
SPLINE
  5
416
330
1A
100
AcDbEntity
  8
SEIHIN
100
AcDbSpline
210
0.0
220
0.0
230
1.0
 70
     8
 71
     3
 72
    20
 73
    16
 74
     0
 42
0.0000000001
 43
0.0000000001
 40
4.424149710842382
 40
4.424149710842382
 40
4.424149710842382
 40
4.424149710842382
 40
4.454808013061784
 40
4.454808013061784
 40
4.513430947715112
 40
4.513430947715112
 40
4.57205388236844
 40
4.57205388236844
 40
4.630676817021769
 40
4.630676817021769
 40
4.659988284348433
 40
4.659988284348433
 40
4.689299751675097
 40
4.689299751675097
 40
4.746713561427846
 40
4.746713561427846
 40
4.746713561427846
 40
4.746713561427846
 10
240.5597342918074
 20
444.4948010617268
 30
0.0
 10
244.5549944636508
 20
443.5835196955046
 30
0.0
 10
248.5281025469917
 20
442.7303614209501
 30
0.0
 10
260.0440241162713
 20
440.4067399701178
 30
0.0
 10
267.6743356963297
 20
439.054716832668
 30
0.0
 10
282.8234814122534
 20
436.7344845301737
 30
0.0
 10
290.3356359829606
 20
435.767264009782
 30
0.0
 10
305.0750502575177
 20
434.2005501634406
 30
0.0
 10
312.4590344769961
 20
433.5883894955236
 30
0.0
 10
323.3909653455812
 20
432.9195150104357
 30
0.0
 10
326.970705782022
 20
432.7416094939221
 30
0.0
 10
334.0579225648803
 20
432.4619817263739
 30
0.0
 10
337.5654541089275
 20
432.3616602262656
 30
0.0
 10
348.141877911725
 20
432.1798910004199
 30
0.0
 10
355.4916763334387
 20
432.2090625641409
 30
0.0
 10
362.438767415041
 20
432.3880977469167
 30
0.0
  0
SPLINE
  5
417
330
1A
100
AcDbEntity
  8
SEIHIN
100
AcDbSpline
210
0.0
220
0.0
230
1.0
 70
     8
 71
     3
 72
    18
 73
    14
 74
     0
 42
0.0000000001
 43
0.0000000001
 40
4.396185078408455
 40
4.396185078408455
 40
4.396185078408455
 40
4.396185078408455
 40
4.45058959258555
 40
4.45058959258555
 40
4.516039439535337
 40
4.516039439535337
 40
4.581489286485124
 40
4.581489286485124
 40
4.646939133434912
 40
4.646939133434912
 40
4.7123889803847
 40
4.7123889803847
 40
4.747922686328426
 40
4.747922686328426
 40
4.747922686328426
 40
4.747922686328426
 10
230.8665720031138
 20
452.2744319322653
 30
0.0
 10
237.955886487719
 20
450.4844453102158
 30
0.0
 10
244.9868374240884
 20
448.8794198377276
 30
0.0
 10
260.2551903606939
 20
445.7439695084094
 30
0.0
 10
268.6926453700881
 20
444.2436087680356
 30
0.0
 10
285.4094087381927
 20
441.7193309155215
 30
0.0
 10
293.6885212924769
 20
440.6941172795383
 30
0.0
 10
309.8599301163452
 20
439.0942251747872
 30
0.0
 10
318.1114713484678
 20
438.4906603602223
 30
0.0
 10
333.9355199672002
 20
437.7197023132583
 30
0.0
 10
341.5068183275883
 20
437.5276906115443
 30
0.0
 10
354.2184379892361
 20
437.5276906115443
 30
0.0
 10
358.4946318540612
 20
437.5842873538553
 30
0.0
 10
362.7354326085667
 20
437.6977137782441
 30
0.0
  0
LINE
  5
418
330
1A
100
AcDbEntity
  8
SEIHIN
100
AcDbLine
 10
230.8665720031138
 20
452.2744319322653
 30
0.0
 11
277.6069674385481
 21
368.2006817947482
 31
0.0
  0
LINE
  5
419
330
1A
100
AcDbEntity
  8
SEIHIN
100
AcDbLine
 10
242.7673933553739
 20
440.3829969051456
 30
0.0
 11
237.1751180434273
 21
450.7987088472154
 31
0.0
  0
LINE
  5
41A
330
1A
100
AcDbEntity
  8
SEIHIN
100
AcDbLine
 10
237.140667438558
 20
450.7345990237519
 30
0.0
 11
237.1406674385482
 21
450.7345990237519
 31
0.0
  0
LINE
  5
41B
330
1A
100
AcDbEntity
  8
SEIHIN
  6
CONTINUOUS
 62
     3
100
AcDbLine
 10
393.3133291353572
 20
380.7896831171472
 30
0.0
 11
393.8579120198708
 21
382.7367788897041
 31
0.0
  0
ELLIPSE
  5
41C
330
1A
100
AcDbEntity
  8
SEIHIN
  6
CONTINUOUS
 62
     3
100
AcDbEllipse
 10
303.966100274357
 20
443.6072943123355
 30
0.0
 11
105.1369769424325
 21
0.0
 31
0.0
210
0.0
220
0.0
230
1.0
 40
0.883000469481181
 41
-0.8197702318999425
 42
-0.6512560854188728
  0
ELLIPSE
  5
41D
330
1A
100
AcDbEntity
  8
SEIHIN
  6
CONTINUOUS
 62
     3
100
AcDbEllipse
 10
393.7177458282464
 20
380.059468775627
 30
0.0
 11
8.052726859239896
 21
0.0
 31
0.0
210
0.0
220
0.0
230
1.0
 40
0.8829307294636238
 41
2.429977784466349
 42
3.531577005092296
  0
ELLIPSE
  5
41E
330
1A
100
AcDbEntity
  8
SEIHIN
  6
CONTINUOUS
 62
     3
100
AcDbEllipse
 10
340.4685747049404
 20
396.8495820837113
 30
0.0
 11
27.71625443554688
 21
0.0
 31
0.0
210
0.0
220
0.0
230
1.0
 40
0.8829836678296864
 41
-0.7209225147144576
 42
0.1905168774229217
  0
ELLIPSE
  5
41F
330
1A
100
AcDbEntity
  8
SEIHIN
  6
CONTINUOUS
 62
     3
100
AcDbEllipse
 10
339.3259534799441
 20
381.7651914569704
 30
0.0
 11
-0.9999999999999998
 21
0.0
 31
0.0
210
0.0
220
0.0
230
1.0
 40
0.8830000000000028
 41
2.327089438269114
 42
4.350185316456199
  0
ELLIPSE
  5
420
330
1A
100
AcDbEntity
  8
SEIHIN
  6
CONTINUOUS
 62
     3
100
AcDbEllipse
 10
341.8812216714044
 20
381.813717301291
 30
0.0
 11
6.611241942995319
 21
0.0
 31
0.0
210
0.0
220
0.0
230
1.0
 40
0.8833438634306137
 41
-0.0222441491263791
 42
1.06691491584444
  0
ELLIPSE
  5
421
330
1A
100
AcDbEntity
  8
SEIHIN
  6
CONTINUOUS
 62
     3
100
AcDbEllipse
 10
335.8308386494909
 20
403.8911815406654
 30
0.0
 11
26.96855007416542
 21
0.0
 31
0.0
210
0.0
220
0.0
230
1.0
 40
0.8952397530274287
 41
-2.307025257763084
 42
-1.5106644211013
  0
ELLIPSE
  5
422
330
1A
100
AcDbEntity
  8
SEIHIN
  6
CONTINUOUS
 62
     3
100
AcDbEllipse
 10
340.9135559220201
 20
394.6312679655982
 30
0.0
 11
-16.5052366487875
 21
0.0
 31
0.0
210
0.0
220
0.0
230
1.0
 40
0.8829924896030274
 41
2.047758952115435
 42
3.682943489008457
  0
ELLIPSE
  5
423
330
1A
100
AcDbEntity
  8
SEIHIN
  6
CONTINUOUS
 62
     3
100
AcDbEllipse
 10
356.0233587247847
 20
414.1852635813943
 30
0.0
 11
61.41125658249075
 21
0.0
 31
0.0
210
0.0
220
0.0
230
1.0
 40
0.8829977274143685
 41
-3.075581581164091
 42
-2.364186671160751
  0
ELLIPSE
  5
424
330
1A
100
AcDbEntity
  8
SEIHIN
  6
CONTINUOUS
 62
     3
100
AcDbEllipse
 10
342.7186515073086
 20
408.2389938595389
 30
0.0
 11
39.31585346064304
 21
0.0
 31
0.0
210
0.0
220
0.0
230
1.0
 40
0.885057312835112
 41
-1.356944509435821
 42
-0.6771934367993132
  0
ELLIPSE
  5
425
330
1A
100
AcDbEntity
  8
SEIHIN
  6
CONTINUOUS
 62
     3
100
AcDbEllipse
 10
344.1973775421931
 20
401.890111756297
 30
0.0
 11
-42.39707381538255
 21
0.0
 31
0.0
210
0.0
220
0.0
230
1.0
 40
0.8830798126076327
 41
0.9115305573444057
 42
1.637840529383181
  0
LINE
  5
426
330
1A
100
AcDbEntity
  8
NOKITOI
  6
PHANTOM
 62
     8
 48
5.0
100
AcDbLine
 10
310.4967995153603
 20
345.0863540494108
 30
0.0
 11
369.6467995153602
 21
345.0863540494108
 31
0.0
  0
ARC
  5
427
330
1A
100
AcDbEntity
  8
NOKITOI
  6
PHANTOM
 62
     8
 48
5.0
100
AcDbCircle
 10
316.9967995153603
 20
338.2863540494108
 30
0.0
 40
6.5
100
AcDbArc
 50
180.0
 51
270.0
  0
LINE
  5
428
330
1A
100
AcDbEntity
  8
SEIHIN
100
AcDbLine
 10
315.1068674385481
 20
350.3456903203421
 30
0.0
 11
315.1068674385481
 21
335.3456903203421
 31
0.0
  0
ARC
  5
429
330
1A
100
AcDbEntity
  8
NOKITOI
  6
PHANTOM
 62
     8
 48
5.0
100
AcDbCircle
 10
317.8332895654986
 20
330.7863618844722
 30
0.0
 40
0.9999921649880304
100
AcDbArc
 50
13.5617978218313
 51
89.99942991044838
  0
LINE
  5
42A
330
1A
100
AcDbEntity
  8
NOKITOI
  6
PHANTOM
 62
     8
 48
5.0
100
AcDbLine
 10
316.9967995153603
 20
331.7863540494108
 30
0.0
 11
317.8332995153603
 21
331.7863540494108
 31
0.0
  0
LINE
  5
42B
330
1A
100
AcDbEntity
  8
SEIHIN
100
AcDbLine
 10
298.6068674385481
 20
350.3456903203421
 30
0.0
 11
277.6069674385481
 21
368.2006817947482
 31
0.0
  0
LINE
  5
42C
330
1A
100
AcDbEntity
  8
NOKITOI
  6
PHANTOM
 62
     8
 48
5.0
100
AcDbLine
 10
310.4967995153603
 20
338.2863540494108
 30
0.0
 11
310.4967995153603
 21
338.5863540494108
 31
0.0
  0
LINE
  5
42D
330
1A
100
AcDbEntity
  8
NOKITOI
  6
PHANTOM
 62
     8
 48
5.0
100
AcDbLine
 10
310.4967995153603
 20
338.5863540494108
 30
0.0
 11
310.4967995153603
 21
345.0863540494108
 31
0.0
  0
ELLIPSE
  5
42E
330
1A
100
AcDbEntity
  8
SEIHIN
  6
CONTINUOUS
 62
     3
100
AcDbEllipse
 10
316.5643729543008
 20
373.3437447750034
 30
0.0
 11
2.043205032090583
 21
0.0
 31
0.0
210
0.0
220
0.0
230
1.0
 40
0.882926564718848
 41
-2.167823292222419
 42
-0.6197283360483367
  0
ELLIPSE
  5
42F
330
1A
100
AcDbEntity
  8
SEIHIN
  6
CONTINUOUS
 62
     3
100
AcDbEllipse
 10
317.2895705848377
 20
373.3896526816087
 30
0.0
 11
2.558242352716746
 21
0.0
 31
0.0
210
0.0
220
0.0
230
1.0
 40
0.8829890559825733
 41
3.071701474789182
 42
3.890432442878241
  0
ELLIPSE
  5
430
330
1A
100
AcDbEntity
  8
SEIHIN
  6
CONTINUOUS
 62
     3
100
AcDbEllipse
 10
311.9504273776817
 20
373.4807109701675
 30
0.0
 11
-2.788169635961679
 21
0.0
 31
0.0
210
0.0
220
0.0
230
1.0
 40
0.8830165741155934
 41
3.075876489377885
 42
3.718014835409572
  0
ELLIPSE
  5
431
330
1A
100
AcDbEntity
  8
SEIHIN
  6
CONTINUOUS
 62
     3
100
AcDbEllipse
 10
321.2664740156651
 20
385.0462359495569
 30
0.0
 11
-13.51880811645963
 21
0.0
 31
0.0
210
0.0
220
0.0
230
0.9999999999999998
 40
0.8829920431717848
 41
0.6779295371756988
 42
1.028389355566626
  0
ELLIPSE
  5
432
330
1A
100
AcDbEntity
  8
SEIHIN
  6
CONTINUOUS
 62
     3
100
AcDbEllipse
 10
337.0322994839157
 20
383.0465197912819
 30
0.0
 11
-3.710291322664716
 21
0.0
 31
0.0
210
0.0
220
0.0
230
1.0
 40
0.882949535522508
 41
1.562565259741975
 42
2.54261243123797
  0
ARC
  5
433
330
1A
100
AcDbEntity
  8
NOKITOI
  6
PHANTOM
 62
     8
 48
5.0
100
AcDbCircle
 10
369.6467553771987
 20
343.2863192934491
 30
0.0
 40
52.29996524406814
100
AcDbArc
 50
269.9999388021089
 51
285.8962879202429
  0
ELLIPSE
  5
434
330
1A
100
AcDbEntity
  8
SEIHIN
  6
CONTINUOUS
 62
     3
100
AcDbEllipse
 10
375.0045853769887
 20
370.4741320156568
 30
0.0
 11
-5.577883849511181
 21
0.0
 31
0.0
210
0.0
220
0.0
230
1.0
 40
0.8830051203794122
 41
0.8336294321875769
 42
1.78109652812084
  0
ELLIPSE
  5
435
330
1A
100
AcDbEntity
  8
SEIHIN
  6
CONTINUOUS
 62
     3
100
AcDbEllipse
 10
327.842786046655
 20
470.3554659515984
 30
0.0
 11
-121.3701547163527
 21
0.0
 31
0.0
210
0.0
220
0.0
230
1.0
 40
0.8830012637823598
 41
1.729615209366005
 42
1.925976960429358
  0
ELLIPSE
  5
436
330
1A
100
AcDbEntity
  8
SEIHIN
  6
CONTINUOUS
 62
     3
100
AcDbEllipse
 10
329.4194764714414
 20
409.1958062894567
 30
0.0
 11
45.40813045501238
 21
0.0
 31
0.0
210
0.0
220
0.0
230
1.0
 40
0.8811197377887971
 41
-1.048887344102565
 42
-0.792812051213427
  0
ELLIPSE
  5
437
330
1A
100
AcDbEntity
  8
SEIHIN
  6
CONTINUOUS
 62
     3
100
AcDbEllipse
 10
349.9110471779853
 20
398.1871410823837
 30
0.0
 11
-26.9827423074334
 21
0.0
 31
0.0
210
0.0
220
0.0
230
1.0
 40
0.8801922254380048
 41
1.650413163916082
 42
1.669620457778922
  0
ELLIPSE
  5
438
330
1A
100
AcDbEntity
  8
SEIHIN
  6
CONTINUOUS
 62
     3
100
AcDbEllipse
 10
369.7140936973953
 20
368.0617831424512
 30
0.0
 11
2.080654359578602
 21
0.0
 31
0.0
210
0.0
220
0.0
230
1.0
 40
0.8828953216295152
 41
-0.7367302541712462
 42
1.408430594019575
  0
ELLIPSE
  5
439
330
1A
100
AcDbEntity
  8
SEIHIN
  6
CONTINUOUS
 62
     3
100
AcDbEllipse
 10
394.5420449746127
 20
380.5332497520137
 30
0.0
 11
12.57160027760949
 21
0.0
 31
0.0
210
0.0
220
0.0
230
1.0
 40
0.8829424858320967
 41
-2.307363947984617
 42
-1.607307645759508
  0
ELLIPSE
  5
43A
330
1A
100
AcDbEntity
  8
SEIHIN
  6
CONTINUOUS
 62
     3
100
AcDbEllipse
 10
373.8171805769853
 20
369.1542196678131
 30
0.0
 11
4.605944447385411
 21
0.0
 31
0.0
210
0.0
220
0.0
230
1.0
 40
0.882989373071717
 41
-1.034910747663791
 42
0.4676276002571387
  0
ELLIPSE
  5
43B
330
1A
100
AcDbEntity
  8
SEIHIN
  6
CONTINUOUS
 62
     3
100
AcDbEllipse
 10
372.9133481729131
 20
371.9463955365748
 30
0.0
 11
5.131507630002602
 21
0.0
 31
0.0
210
0.0
220
0.0
230
1.0
 40
0.8829958613932149
 41
-0.2132375052401339
 42
0.9943104569883709
  0
ELLIPSE
  5
43C
330
1A
100
AcDbEntity
  8
SEIHIN
  6
CONTINUOUS
 62
     3
100
AcDbEllipse
 10
390.0328358446838
 20
374.730866491213
 30
0.0
 11
-4.796136840531119
 21
0.0
 31
0.0
210
0.0
220
0.0
230
1.0
 40
0.8830023289183341
 41
-0.6687022436648153
 42
0.6083202108009635
  0
ELLIPSE
  5
43D
330
1A
100
AcDbEntity
  8
SEIHIN
  6
CONTINUOUS
 62
     3
100
AcDbEllipse
 10
397.6930760368047
 20
370.411860718308
 30
0.0
 11
3.77380568996591
 21
0.0
 31
0.0
210
0.0
220
0.0
230
1.0
 40
0.8829283417689952
 41
-2.845818414587095
 42
-1.549089287274725
  0
ELLIPSE
  5
43E
330
1A
100
AcDbEntity
  8
SEIHIN
  6
CONTINUOUS
 62
     3
100
AcDbEllipse
 10
398.3496667636204
 20
379.7443960007548
 30
0.0
 11
-5.173609910386346
 21
0.0
 31
0.0
210
0.0
220
0.0
230
1.0
 40
0.8829424867981352
 41
-0.2533383552561954
 42
1.868474687815957
  0
ELLIPSE
  5
43F
330
1A
100
AcDbEntity
  8
SEIHIN
  6
CONTINUOUS
 62
     3
100
AcDbEllipse
 10
349.7655283514241
 20
357.5777884387652
 30
0.0
 11
67.13415464540514
 21
0.0
 31
0.0
210
0.0
220
0.0
230
1.0
 40
0.8830080651660859
 41
1.550425958727702
 42
1.701572230616473
  0
ELLIPSE
  5
440
330
1A
100
AcDbEntity
  8
SEIHIN
  6
CONTINUOUS
 62
     3
100
AcDbEllipse
 10
341.8343897528707
 20
385.7024280531262
 30
0.0
 11
-3.523837082993566
 21
0.0
 31
0.0
210
0.0
220
0.0
230
1.0
 40
0.882844446757778
 41
-2.736706971990158
 42
-1.298949445482632
  0
ELLIPSE
  5
441
330
1A
100
AcDbEntity
  8
SEIHIN
  6
CONTINUOUS
 62
     3
100
AcDbEllipse
 10
344.9468686307204
 20
403.287822587436
 30
0.0
 11
6.265317330409458
 21
0.0
 31
0.0
210
0.0
220
0.0
230
1.0
 40
0.8829560752094359
 41
-2.955429634106091
 42
-1.782019101130883
  0
ELLIPSE
  5
442
330
1A
100
AcDbEntity
  8
SEIHIN
  6
CONTINUOUS
 62
     3
100
AcDbEllipse
 10
308.1863241315345
 20
419.4638215693456
 30
0.0
 11
-2.740321888867242
 21
0.0
 31
0.0
210
0.0
220
0.0
230
1.0
 40
0.8831079333531684
 41
-2.958530718725913
 42
-0.4748050061503932
  0
ELLIPSE
  5
443
330
1A
100
AcDbEntity
  8
SEIHIN
  6
CONTINUOUS
 62
     3
100
AcDbEllipse
 10
305.6296582363031
 20
409.7294401320842
 30
0.0
 11
4.875060738339982
 21
0.0
 31
0.0
210
0.0
220
0.0
230
1.0
 40
0.8830043831342702
 41
-1.590091724134483
 42
-0.1434943044701809
  0
ELLIPSE
  5
444
330
1A
100
AcDbEntity
  8
SEIHIN
  6
CONTINUOUS
 62
     3
100
AcDbEllipse
 10
343.0431376837556
 20
410.6064414801459
 30
0.0
 11
-37.96368803521949
 21
0.0
 31
0.0
210
0.0
220
0.0
230
1.0
 40
0.8830016717264436
 41
0.1551742269084398
 42
0.8326331991672958
  0
ELLIPSE
  5
445
330
1A
100
AcDbEntity
  8
SEIHIN
  6
CONTINUOUS
 62
     3
100
AcDbEllipse
 10
289.356857961408
 20
412.5317066984049
 30
0.0
 11
12.21243305675881
 21
0.0
 31
0.0
210
0.0
220
0.0
230
1.0
 40
0.8829935812038712
 41
0.5217286756129829
 42
1.500960466603058
  0
ELLIPSE
  5
446
330
1A
100
AcDbEntity
  8
SEIHIN
  6
CONTINUOUS
 62
     3
100
AcDbEllipse
 10
284.5794060042021
 20
407.5140031390679
 30
0.0
 11
10.75347164389634
 21
0.0
 31
0.0
210
0.0
220
0.0
230
1.0
 40
0.8829985621796396
 41
0.3319440283888482
 42
1.446332384937739
  0
ELLIPSE
  5
447
330
1A
100
AcDbEntity
  8
SEIHIN
  6
CONTINUOUS
 62
     3
100
AcDbEllipse
 10
281.2249565549067
 20
414.6012607505824
 30
0.0
 11
5.383414216161553
 21
0.0
 31
0.0
210
0.0
220
0.0
230
1.0
 40
0.8829898293409252
 41
-1.514338522663243
 42
0.5133874007499509
  0
ELLIPSE
  5
448
330
1A
100
AcDbEntity
  8
SEIHIN
  6
CONTINUOUS
 62
     3
100
AcDbEllipse
 10
286.1355016704091
 20
419.9231834005407
 30
0.0
 11
5.578837165015443
 21
0.0
 31
0.0
210
0.0
220
0.0
230
1.0
 40
0.8829797060381427
 41
0.7522178779735471
 42
2.574068329600452
  0
ELLIPSE
  5
449
330
1A
100
AcDbEntity
  8
SEIHIN
  6
CONTINUOUS
 62
     3
100
AcDbEllipse
 10
292.6539234056482
 20
412.6806255041183
 30
0.0
 11
9.391065310254163
 21
0.0
 31
0.0
210
0.0
220
0.0
230
1.0
 40
0.8827539502837968
 41
0.2684897812030925
 42
0.681966037078277
  0
ELLIPSE
  5
44A
330
1A
100
AcDbEntity
  8
SEIHIN
  6
CONTINUOUS
 62
     3
100
AcDbEllipse
 10
284.5068395773857
 20
422.8287844344673
 30
0.0
 11
21.39578277965037
 21
0.0
 31
0.0
210
0.0
220
0.0
230
1.0
 40
0.8828842671727983
 41
-0.4396837437631201
 42
-0.1198538945873171
  0
ELLIPSE
  5
44B
330
1A
100
AcDbEntity
  8
SEIHIN
  6
CONTINUOUS
 62
     3
100
AcDbEllipse
 10
302.8349487068075
 20
415.6959201827779
 30
0.0
 11
1.457121506563112
 21
0.0
 31
0.0
210
0.0
220
0.0
230
1.0
 40
0.8829737219613718
 41
-2.454420215044412
 42
-0.7831618358017557
  0
LINE
  5
44C
330
1A
100
AcDbEntity
  8
SEIHIN
  6
CONTINUOUS
 62
     3
100
AcDbLine
 10
339.6384800826378
 20
407.3613508863564
 30
0.0
 11
339.8184774067089
 21
405.2631179331376
 31
0.0
  0
ELLIPSE
  5
44D
330
1A
100
AcDbEntity
  8
SEIHIN
  6
CONTINUOUS
 62
     3
100
AcDbEllipse
 10
328.7975975045846
 20
406.5238274912121
 30
0.0
 11
-5.427640646190781
 21
0.0
 31
0.0
210
0.0
220
0.0
230
1.0
 40
0.882929860760637
 41
-0.5970624924034088
 42
0.3087768500910042
  0
ELLIPSE
  5
44E
330
1A
100
AcDbEntity
  8
SEIHIN
  6
CONTINUOUS
 62
     3
100
AcDbEllipse
 10
337.0406279186955
 20
402.4634006529288
 30
0.0
 11
-4.619120334244541
 21
0.0
 31
0.0
210
0.0
220
0.0
230
1.0
 40
0.8829949654617658
 41
-1.293406749944043
 42
1.131680886340568
  0
ELLIPSE
  5
44F
330
1A
100
AcDbEntity
  8
SEIHIN
  6
CONTINUOUS
 62
     3
100
AcDbEllipse
 10
327.4150735356327
 20
396.4013207733904
 30
0.0
 11
6.37467544829758
 21
0.0
 31
0.0
210
0.0
220
0.0
230
1.0
 40
0.882993972893667
 41
2.918914495963791
 42
4.977784310177348
  0
ELLIPSE
  5
450
330
1A
100
AcDbEntity
  8
SEIHIN
  6
CONTINUOUS
 62
     3
100
AcDbEllipse
 10
325.8485159059449
 20
400.479339773417
 30
0.0
 11
5.651334140765953
 21
0.0
 31
0.0
210
0.0
220
0.0
230
1.0
 40
0.8829773422888921
 41
1.974859400487049
 42
3.745817644092872
  0
ELLIPSE
  5
451
330
1A
100
AcDbEntity
  8
SEIHIN
  6
CONTINUOUS
 62
     3
100
AcDbEllipse
 10
337.8566740001927
 20
394.4831142249359
 30
0.0
 11
3.0
 21
0.0
 31
0.0
210
0.0
220
0.0
230
1.0
 40
0.9178574791890952
 41
-0.5787577987438003
 42
0.8628787141542124
  0
ELLIPSE
  5
452
330
1A
100
AcDbEntity
  8
SEIHIN
  6
CONTINUOUS
 62
     3
100
AcDbEllipse
 10
334.249745678775
 20
394.0668093611489
 30
0.0
 11
6.241626041229209
 21
0.0
 31
0.0
210
0.0
220
0.0
230
1.0
 40
0.8829429965199709
 41
-2.544782953070896
 42
-0.1990724665031904
  0
ELLIPSE
  5
453
330
1A
100
AcDbEntity
  8
SEIHIN
  6
CONTINUOUS
 62
     3
100
AcDbEllipse
 10
339.0006219797184
 20
385.2807879212857
 30
0.0
 11
3.121748908012875
 21
0.0
 31
0.0
210
0.0
220
0.0
230
1.0
 40
0.8828384604943483
 41
1.863523340973498
 42
4.931866836072623
  0
ELLIPSE
  5
454
330
1A
100
AcDbEntity
  8
SEIHIN
  6
CONTINUOUS
 62
     3
100
AcDbEllipse
 10
340.4619710033766
 20
385.6110230933134
 30
0.0
 11
-3.523837082993566
 21
0.0
 31
0.0
210
0.0
220
0.0
230
1.0
 40
0.882844446757778
 41
-1.692049413698483
 42
-0.8361273920951017
  0
ELLIPSE
  5
455
330
1A
100
AcDbEntity
  8
SEIHIN
  6
CONTINUOUS
 62
     3
100
AcDbEllipse
 10
343.0418161504085
 20
402.7639798422381
 30
0.0
 11
4.28955993015387
 21
0.0
 31
0.0
210
0.0
220
0.0
230
1.0
 40
0.8830043318369332
 41
2.421035289923055
 42
3.274004701512888
  0
ELLIPSE
  5
456
330
1A
100
AcDbEntity
  8
SEIHIN
  6
CONTINUOUS
 62
     3
100
AcDbEllipse
 10
334.249745678775
 20
394.0668093611489
 30
0.0
 11
6.241626041229209
 21
0.0
 31
0.0
210
0.0
220
0.0
230
1.0
 40
0.8829429965199709
 41
0.4725224615525915
 42
0.4778020651790336
  0
ELLIPSE
  5
457
330
1A
100
AcDbEntity
  8
SEIHIN
  6
CONTINUOUS
 62
     3
100
AcDbEllipse
 10
338.1910358490595
 20
403.0539108673408
 30
0.0
 11
5.763406704718988
 21
0.0
 31
0.0
210
0.0
220
0.0
230
1.0
 40
0.8830020612345689
 41
-2.141632689267636
 42
-1.700575961963638
  0
ELLIPSE
  5
458
330
1A
100
AcDbEntity
  8
SEIHIN
  6
CONTINUOUS
 62
     3
100
AcDbEllipse
 10
336.7451598956743
 20
394.7106914395236
 30
0.0
 11
3.686771617021804
 21
0.0
 31
0.0
210
0.0
220
0.0
230
1.0
 40
0.9108239806599707
 41
0.5858852156820973
 42
1.379768332933371
  0
ELLIPSE
  5
459
330
1A
100
AcDbEntity
  8
SEIHIN
  6
CONTINUOUS
 62
     3
100
AcDbEllipse
 10
337.8321965739611
 20
401.1254465010203
 30
0.0
 11
16.33626643005089
 21
0.0
 31
0.0
210
0.0
220
0.0
230
1.0
 40
0.8829985763127064
 41
2.032140092140565
 42
2.547451003179722
  0
ELLIPSE
  5
45A
330
1A
100
AcDbEntity
  8
SEIHIN
  6
CONTINUOUS
 62
     3
100
AcDbEllipse
 10
306.4920225309037
 20
416.0961819017697
 30
0.0
 11
6.153176966386354
 21
0.0
 31
0.0
210
0.0
220
0.0
230
1.0
 40
0.8830072708262896
 41
-0.1220617335461657
 42
0.776653209892333
  0
ELLIPSE
  5
45B
330
1A
100
AcDbEntity
  8
SEIHIN
  6
CONTINUOUS
 62
     3
100
AcDbEllipse
 10
309.0081313465417
 20
412.9406414588833
 30
0.0
 11
-4.568927575980353
 21
0.0
 31
0.0
210
0.0
220
0.0
230
1.0
 40
0.8829862003523579
 41
1.89293026990742
 42
3.808038157601279
  0
ELLIPSE
  5
45C
330
1A
100
AcDbEntity
  8
SEIHIN
  6
CONTINUOUS
 62
     3
100
AcDbEllipse
 10
344.5362112196497
 20
419.014210258387
 30
0.0
 11
4.639105993431257
 21
0.0
 31
0.0
210
0.0
220
0.0
230
1.0
 40
0.8829287379507462
 41
2.600584646363277
 42
3.849245538089735
  0
ELLIPSE
  5
45D
330
1A
100
AcDbEntity
  8
SEIHIN
  6
CONTINUOUS
 62
     3
100
AcDbEllipse
 10
334.2497887952805
 20
415.7771458497808
 30
0.0
 11
4.180240531597917
 21
0.0
 31
0.0
210
0.0
220
0.0
230
1.0
 40
0.8829635453032411
 41
1.919069849930899
 42
3.630907586045557
  0
LINE
  5
45E
330
1A
100
AcDbEntity
  8
SEIHIN
  6
CONTINUOUS
 62
     3
100
AcDbLine
 10
335.7757005297047
 20
406.3861480346518
 30
0.0
 11
339.6384800826378
 21
407.3613508863564
 31
0.0
  0
ELLIPSE
  5
45F
330
1A
100
AcDbEntity
  8
SEIHIN
  6
CONTINUOUS
 62
     3
100
AcDbEllipse
 10
339.3595266108623
 20
419.2011301372554
 30
0.0
 11
6.536560355016262
 21
0.0
 31
0.0
210
0.0
220
0.0
230
1.0
 40
0.8691594961252691
 41
2.073646951953436
 42
3.133597882327717
  0
ELLIPSE
  5
460
330
1A
100
AcDbEntity
  8
SEIHIN
  6
CONTINUOUS
 62
     3
100
AcDbEllipse
 10
338.1005174606619
 20
422.3511942072391
 30
0.0
 11
2.841928779596344
 21
0.0
 31
0.0
210
0.0
220
0.0
230
1.0
 40
0.861694773154711
 41
-0.5316606210756156
 42
2.298875307492425
  0
SPLINE
  5
461
330
1A
100
AcDbEntity
  8
SEIHIN
100
AcDbSpline
210
0.0
220
0.0
230
1.0
 70
     8
 71
     3
 72
    12
 73
     8
 74
     0
 42
0.0000000001
 43
0.0000000001
 40
1.266181166968063
 40
1.266181166968063
 40
1.266181166968063
 40
1.266181166968063
 40
1.30290172821961
 40
1.30290172821961
 40
1.360867762524065
 40
1.360867762524065
 40
1.404882194096873
 40
1.404882194096873
 40
1.404882194096873
 40
1.404882194096873
 10
368.8463302285562
 20
427.4820505717828
 30
0.0
 10
368.2728482285593
 20
427.641217028746
 30
0.0
 10
367.6958126116013
 20
427.7911341302995
 30
0.0
 10
366.2005289737334
 20
428.153350540394
 30
0.0
 10
365.277714535513
 20
428.3516338281448
 30
0.0
 10
363.6461199659425
 20
428.6583373787372
 30
0.0
 10
362.9391034371209
 20
428.7769340297873
 30
0.0
 10
362.2305104553688
 20
428.881665356352
 30
0.0
  0
ELLIPSE
  5
462
330
1A
100
AcDbEntity
  8
SEIHIN
100
AcDbEllipse
 10
391.1905507730043
 20
423.2675832222536
 30
0.0
 11
-14.0
 21
0.0
 31
0.0
210
0.0
220
0.0
230
1.0
 40
0.8829493885837232
 41
-0.7985449150003743
 42
1.895213957757753
  0
SPLINE
  5
463
330
1A
100
AcDbEntity
  8
SEIHIN
100
AcDbSpline
210
0.0
220
0.0
230
1.0
 70
     8
 71
     3
 72
    22
 73
    18
 74
     0
 42
0.0000000001
 43
0.0000000001
 40
-0.3750926460223114
 40
-0.3750926460223114
 40
-0.3750926460223114
 40
-0.3750926460223114
 40
-0.3495851028740211
 40
-0.3495851028740211
 40
-0.1251051968108429
 40
-0.1251051968108429
 40
0.0993747092523353
 40
0.0993747092523353
 40
0.3238546153155135
 40
0.3238546153155135
 40
0.5483345213786917
 40
0.5483345213786917
 40
0.9972943335050478
 40
0.9972943335050478
 40
1.446254145631404
 40
1.446254145631404
 40
1.89521395775776
 40
1.89521395775776
 40
1.89521395775776
 40
1.89521395775776
 10
373.2441751715239
 20
429.7741256472481
 30
0.0
 10
373.1778487326243
 20
429.6206822430566
 30
0.0
 10
373.1137152913714
 20
429.4659943609921
 30
0.0
 10
372.5074964078607
 20
427.9383760439814
 30
0.0
 10
372.1410625254856
 20
426.4752845920657
 30
0.0
 10
371.8240586341335
 20
423.5104222911563
 30
0.0
 10
371.8735932853779
 20
422.0086402527972
 30
0.0
 10
372.360722755789
 20
419.1210201753442
 30
0.0
 10
372.7973925209201
 20
417.7349075701896
 30
0.0
 10
373.9552347410616
 20
415.1909090719842
 30
0.0
 10
374.6783465703233
 20
414.0339062866289
 30
0.0
 10
376.964932969264
 20
411.0795873363517
 30
0.0
 10
379.0309968026832
 20
409.305942754246
 30
0.0
 10
383.8705514747026
 20
406.7222859564167
 30
0.0
 10
386.628963409499
 20
405.9227569713088
 30
0.0
 10
392.0955780338201
 20
405.4481841938026
 30
0.0
 10
394.7873195147057
 20
405.7652880185817
 30
0.0
 10
397.1617993575628
 20
406.4703550118042
 30
0.0
  0
ELLIPSE
  5
464
330
1A
100
AcDbEntity
  8
SEIHIN
  6
CONTINUOUS
 62
     3
100
AcDbEllipse
 10
375.4814112979557
 20
394.5150257620442
 30
0.0
 11
3.119072040794549
 21
0.0
 31
0.0
210
0.0
220
0.0
230
1.0
 40
0.8924405350948465
 41
1.256815132785465
 42
3.763884819604386
  0
SPLINE
  5
465
330
1A
100
AcDbEntity
  8
SEIHIN
100
AcDbSpline
210
0.0
220
0.0
230
1.0
 70
     8
 71
     3
 72
    26
 73
    22
 74
     0
 42
0.0000000001
 43
0.0000000001
 40
-0.213884571108894
 40
-0.213884571108894
 40
-0.213884571108894
 40
-0.213884571108894
 40
-0.1251051968108429
 40
-0.1251051968108429
 40
0.0993747092523353
 40
0.0993747092523353
 40
0.3238546153155135
 40
0.3238546153155135
 40
0.5483345213786917
 40
0.5483345213786917
 40
0.7728144274418698
 40
0.7728144274418698
 40
0.9972943335050478
 40
0.9972943335050478
 40
1.221774239568226
 40
1.221774239568226
 40
1.446254145631404
 40
1.446254145631404
 40
1.670734051694582
 40
1.670734051694582
 40
1.89521395775776
 40
1.89521395775776
 40
1.89521395775776
 40
1.89521395775776
 10
368.8463302285562
 20
427.4820505717829
 30
0.0
 10
368.6938165949578
 20
426.7838402928172
 30
0.0
 10
368.5784691302273
 20
426.076442150294
 30
0.0
 10
368.3100460300667
 20
423.5659444811178
 30
0.0
 10
368.3693367479198
 20
421.7407255548919
 30
0.0
 10
368.9625065594652
 20
418.2245164950877
 30
0.0
 10
369.4932321784678
 20
416.54559583867
 30
0.0
 10
370.8882260730212
 20
413.480530226953
 30
0.0
 10
371.7533337730768
 20
412.0947673857319
 30
0.0
 10
373.5921145504151
 20
409.7190229579628
 30
0.0
 10
374.6593794019531
 20
408.6085974952021
 30
0.0
 10
377.0485115284559
 20
406.5944567420673
 30
0.0
 10
378.3705775701052
 20
405.6909772364299
 30
0.0
 10
381.2343092690676
 20
404.1621382475947
 30
0.0
 10
382.7477816226722
 20
403.5520341059782
 30
0.0
 10
385.8607671607501
 20
402.6393780565201
 30
0.0
 10
387.4604511941597
 20
402.3374089996811
 30
0.0
 10
390.6586768714852
 20
402.0597616901327
 30
0.0
 10
392.2363602035287
 20
402.0834058415839
 30
0.0
 10
395.288077731695
 20
402.4039539576089
 30
0.0
 10
396.762134719867
 20
402.7006408976671
 30
0.0
 10
398.1580794387454
 20
403.1151462254782
 30
0.0
  0
ELLIPSE
  5
466
330
1A
100
AcDbEntity
  8
SEIHIN
  6
CONTINUOUS
 62
     3
100
AcDbEllipse
 10
368.6884854393074
 20
404.7329161615341
 30
0.0
 11
-3.814516115617152
 21
0.0
 31
0.0
210
0.0
220
0.0
230
1.0
 40
0.8829429206527509
 41
1.304143418802605
 42
4.771938793316697
  0
ELLIPSE
  5
467
330
1A
100
AcDbEntity
  8
SEIHIN
  6
CONTINUOUS
 62
     3
100
AcDbEllipse
 10
349.3954243592706
 20
398.9951485522628
 30
0.0
 11
6.689964339712048
 21
0.0
 31
0.0
210
0.0
220
0.0
230
1.0
 40
0.8834127806807378
 41
0.561339785770522
 42
1.530979150821269
  0
ELLIPSE
  5
468
330
1A
100
AcDbEntity
  8
SEIHIN
  6
CONTINUOUS
 62
     3
100
AcDbEllipse
 10
349.6256936271013
 20
403.7519045377192
 30
0.0
 11
1.301888227770064
 21
0.0
 31
0.0
210
0.0
220
0.0
230
1.0
 40
0.8825642443730078
 41
1.512879786822956
 42
2.560140759800113
  0
LINE
  5
469
330
1A
100
AcDbEntity
  8
SEIHIN
  6
CONTINUOUS
 62
     3
100
AcDbLine
 10
344.732261422344
 20
397.6707112703712
 30
0.0
 11
343.633309423182
 21
397.8787697152099
 31
0.0
  0
ELLIPSE
  5
46A
330
1A
100
AcDbEntity
  8
SEIHIN
  6
CONTINUOUS
 62
     3
100
AcDbEllipse
 10
345.3793644480104
 20
400.2837239319845
 30
0.0
 11
3.02342694443007
 21
0.0
 31
0.0
210
0.0
220
0.0
230
1.0
 40
0.8847576108720078
 41
-1.786494684225421
 42
0.4481842647700453
  0
ELLIPSE
  5
46B
330
1A
100
AcDbEntity
  8
SEIHIN
  6
CONTINUOUS
 62
     3
100
AcDbEllipse
 10
351.7418202421556
 20
402.5196918846555
 30
0.0
 11
-3.836610604504585
 21
0.0
 31
0.0
210
0.0
220
0.0
230
1.0
 40
0.8829929198502652
 41
-0.5823981535500086
 42
0.3234704216373224
  0
ELLIPSE
  5
46C
330
1A
100
AcDbEntity
  8
SEIHIN
  6
CONTINUOUS
 62
     3
100
AcDbEllipse
 10
349.9110471779853
 20
398.1871410823837
 30
0.0
 11
-26.9827423074334
 21
0.0
 31
0.0
210
0.0
220
0.0
230
1.0
 40
0.8801922254380048
 41
2.623958977106602
 42
2.68049501054624
  0
ELLIPSE
  5
46D
330
1A
100
AcDbEntity
  8
SEIHIN
  6
CONTINUOUS
 62
     3
100
AcDbEllipse
 10
370.5177745148065
 20
388.9707477470352
 30
0.0
 11
3.878266149346643
 21
0.0
 31
0.0
210
0.0
220
0.0
230
1.0
 40
0.8829976768296095
 41
-0.5341089999631695
 42
0.3469356034912115
  0
ELLIPSE
  5
46E
330
1A
100
AcDbEntity
  8
SEIHIN
  6
CONTINUOUS
 62
     3
100
AcDbEllipse
 10
353.2804659973685
 20
384.5063466306847
 30
0.0
 11
21.83955874394502
 21
0.0
 31
0.0
210
0.0
220
0.0
230
1.0
 40
0.8830306612924003
 41
0.2787816170010254
 42
0.4498743859340057
  0
ELLIPSE
  5
46F
330
1A
100
AcDbEntity
  8
SEIHIN
  6
CONTINUOUS
 62
     3
100
AcDbEllipse
 10
340.4032395260815
 20
394.8016143472405
 30
0.0
 11
26.89910324748473
 21
0.0
 31
0.0
210
0.0
220
0.0
230
1.0
 40
0.8829290620393006
 41
0.6016347033173787
 42
0.8856016738317864
  0
ELLIPSE
  5
470
330
1A
100
AcDbEntity
  8
SEIHIN
  6
CONTINUOUS
 62
     3
100
AcDbEllipse
 10
350.8327635795213
 20
406.8489991957856
 30
0.0
 11
-11.33277646502989
 21
0.0
 31
0.0
210
0.0
220
0.0
230
1.0
 40
0.882396298105543
 41
-1.99722905590683
 42
-1.582587409661083
  0
ELLIPSE
  5
471
330
1A
100
AcDbEntity
  8
SEIHIN
  6
CONTINUOUS
 62
     3
100
AcDbEllipse
 10
353.7225601855674
 20
413.0942748787608
 30
0.0
 11
3.704696341256919
 21
0.0
 31
0.0
210
0.0
220
0.0
230
1.0
 40
0.8826634354843125
 41
0.0296271586260072
 42
1.302587195502817
  0
ELLIPSE
  5
472
330
1A
100
AcDbEntity
  8
SEIHIN
  6
CONTINUOUS
 62
     3
100
AcDbEllipse
 10
365.44119925705
 20
405.7335428232303
 30
0.0
 11
-4.034177374190221
 21
0.0
 31
0.0
210
0.0
220
0.0
230
1.0
 40
0.8829557229657002
 41
-2.414608693982916
 42
-0.7820848811012416
  0
ELLIPSE
  5
473
330
1A
100
AcDbEntity
  8
SEIHIN
  6
CONTINUOUS
 62
     3
100
AcDbEllipse
 10
391.0837731019063
 20
383.3416652218116
 30
0.0
 11
-2.857477401152948
 21
0.0
 31
0.0
210
0.0
220
0.0
230
1.0
 40
0.8829466154245036
 41
2.899485512380371
 42
4.839795681219626
  0
ELLIPSE
  5
474
330
1A
100
AcDbEntity
  8
SEIHIN
  6
CONTINUOUS
 62
     3
100
AcDbEllipse
 10
403.5617466149515
 20
372.0109015285681
 30
0.0
 11
31.97178048103233
 21
0.0
 31
0.0
210
0.0
220
0.0
230
1.0
 40
0.882966152502761
 41
1.856421028881137
 42
2.352405307336258
  0
ELLIPSE
  5
475
330
1A
100
AcDbEntity
  8
SEIHIN
  6
CONTINUOUS
 62
     3
100
AcDbEllipse
 10
394.2089617360368
 20
377.0151802690372
 30
0.0
 11
13.4625127149784
 21
0.0
 31
0.0
210
0.0
220
0.0
230
1.0
 40
0.8830000945346604
 41
1.50352135835215
 42
2.068863244325235
  0
ELLIPSE
  5
476
330
1A
100
AcDbEntity
  8
SEIHIN
  6
CONTINUOUS
 62
     3
100
AcDbEllipse
 10
374.6248727856117
 20
391.7208240388701
 30
0.0
 11
-6.425930121469889
 21
0.0
 31
0.0
210
0.0
220
0.0
230
1.0
 40
0.8829850142693597
 41
-3.083894680997056
 42
-1.802299425029238
  0
ELLIPSE
  5
477
330
1A
100
AcDbEntity
  8
SEIHIN
  6
CONTINUOUS
 62
     3
100
AcDbEllipse
 10
390.9703727423016
 20
381.4597549680277
 30
0.0
 11
-4.971702341383092
 21
0.0
 31
0.0
210
0.0
220
0.0
230
1.0
 40
0.882997351522604
 41
-1.520555519614283
 42
-0.8311599644943225
  0
ELLIPSE
  5
478
330
1A
100
AcDbEntity
  8
SEIHIN
  6
CONTINUOUS
 62
     3
100
AcDbEllipse
 10
399.3161497991668
 20
392.3863027160507
 30
0.0
 11
-4.860337416741629
 21
0.0
 31
0.0
210
0.0
220
0.0
230
1.0
 40
0.8830662630985317
 41
2.970946890928669
 42
4.559865422259229
  0
ELLIPSE
  5
479
330
1A
100
AcDbEntity
  8
SEIHIN
  6
CONTINUOUS
 62
     3
100
AcDbEllipse
 10
400.3656530740162
 20
385.5682016925914
 30
0.0
 11
3.250158788543501
 21
0.0
 31
0.0
210
0.0
220
0.0
230
1.0
 40
0.8830337798006892
 41
3.141592653589793
 42
5.612106887826609
  0
ELLIPSE
  5
47A
330
1A
100
AcDbEntity
  8
SEIHIN
  6
CONTINUOUS
 62
     3
100
AcDbEllipse
 10
388.4797484938218
 20
383.6227797705406
 30
0.0
 11
-8.909230891802451
 21
0.0
 31
0.0
210
0.0
220
0.0
230
1.0
 40
0.8833534673841857
 41
-3.023509525949784
 42
-2.410800168787492
  0
ELLIPSE
  5
47B
330
1A
100
AcDbEntity
  8
SEIHIN
  6
CONTINUOUS
 62
     3
100
AcDbEllipse
 10
399.2115682762345
 20
388.57835196546
 30
0.0
 11
6.007429584363876
 21
0.0
 31
0.0
210
0.0
220
0.0
230
1.0
 40
0.8839054915967484
 41
-0.4616267118884806
 42
0.6185642381007768
  0
ELLIPSE
  5
47C
330
1A
100
AcDbEntity
  8
SEIHIN
  6
CONTINUOUS
 62
     3
100
AcDbEllipse
 10
391.9440926154684
 20
391.358993573628
 30
0.0
 11
13.92306337601598
 21
0.0
 31
0.0
210
0.0
220
0.0
230
0.9999999999999998
 40
0.8834262739325097
 41
-0.6635151098213125
 42
-0.3863961878307868
  0
ELLIPSE
  5
47D
330
1A
100
AcDbEntity
  8
SEIHIN
  6
CONTINUOUS
 62
     3
100
AcDbEllipse
 10
395.3601608307238
 20
394.4858705213888
 30
0.0
 11
5.284529355258428
 21
0.0
 31
0.0
210
0.0
220
0.0
230
1.0
 40
0.8829546940366681
 41
0.4770892067383154
 42
2.040975428146459
  0
ELLIPSE
  5
47E
330
1A
100
AcDbEntity
  8
SEIHIN
100
AcDbEllipse
 10
354.1068674385481
 20
387.9496631784933
 30
0.0
 11
57.0
 21
0.0
 31
0.0
210
0.0
220
0.0
230
1.0
 40
0.8829480010940054
 41
1.071037591001792
 42
1.41883379682852
  0
SPLINE
  5
47F
330
1A
100
AcDbEntity
  8
SEIHIN
100
AcDbSpline
210
0.0
220
0.0
230
1.0
 70
     8
 71
     3
 72
    14
 73
    10
 74
     0
 42
0.0000000001
 43
0.0000000001
 40
1.195916358959435
 40
1.195916358959435
 40
1.195916358959435
 40
1.195916358959435
 40
1.244935693915155
 40
1.244935693915155
 40
1.30290172821961
 40
1.30290172821961
 40
1.360867762524065
 40
1.360867762524065
 40
1.410789482552343
 40
1.410789482552343
 40
1.410789482552343
 40
1.410789482552343
 10
373.244175171524
 20
429.7741256472483
 30
0.0
 10
372.4504306322451
 20
430.0499843434658
 30
0.0
 10
371.6481078984886
 20
430.3089437873979
 30
0.0
 10
369.8815160351868
 20
430.8360131142134
 30
0.0
 10
368.9144187905635
 20
431.097165809519
 30
0.0
 10
366.9654412813941
 20
431.5692846897422
 30
0.0
 10
365.9835641086282
 20
431.780250348932
 30
0.0
 10
364.147176919425
 20
432.1254503647295
 30
0.0
 10
363.2939035165412
 20
432.2662702255846
 30
0.0
 10
362.4387674150407
 20
432.388097746917
 30
0.0
  0
LINE
  5
480
330
1A
100
AcDbEntity
  8
NOKITOI
  6
PHANTOM
 62
     8
 48
5.0
100
AcDbLine
 10
458.6467995153602
 20
118.2356720791357
 30
0.0
 11
458.6467995153602
 21
77.4356720791358
 31
0.0
  0
LINE
  5
481
330
1A
100
AcDbEntity
  8
NOKITOI
  6
PHANTOM
 62
     8
 48
5.0
100
AcDbLine
 10
463.6467995153601
 20
78.43567207913579
 30
0.0
 11
463.6467995153601
 21
131.5356720791357
 31
0.0
  0
ARC
  5
482
330
1A
100
AcDbEntity
  8
NOKITOI
  6
PHANTOM
 62
     8
 48
5.0
100
AcDbCircle
 10
369.6468588058229
 20
129.7358035218974
 30
0.0
 40
49.09996663332586
100
AcDbArc
 50
322.8479855562002
 51
348.5938543120192
  0
LINE
  5
483
330
1A
100
AcDbEntity
  8
NOKITOI
  6
PHANTOM
 62
     8
 48
5.0
100
AcDbLine
 10
432.7967995153604
 20
118.2356720791357
 30
0.0
 11
432.7967995153604
 21
77.4356720791358
 31
0.0
  0
LINE
  5
484
330
1A
100
AcDbEntity
  8
NOKITOI
  6
PHANTOM
 62
     8
 48
5.0
100
AcDbLine
 10
428.7967995153604
 20
118.2356720791357
 30
0.0
 11
428.7967995153604
 21
79.4356720791358
 31
0.0
  0
LINE
  5
485
330
1A
100
AcDbEntity
  8
NOKITOI
  6
PHANTOM
 62
     8
 48
5.0
100
AcDbLine
 10
458.6467995153602
 20
77.4356720791358
 30
0.0
 11
432.7967995153604
 21
77.4356720791358
 31
0.0
  0
LINE
  5
486
330
1A
100
AcDbEntity
  8
NOKITOI
  6
PHANTOM
 62
     8
 48
5.0
100
AcDbLine
 10
428.7967995153604
 20
79.4356720791358
 30
0.0
 11
432.7967995153604
 21
77.4356720791358
 31
0.0
  0
LINE
  5
487
330
1A
100
AcDbEntity
  8
NOKITOI
  6
PHANTOM
 62
     8
 48
5.0
100
AcDbLine
 10
458.6467995153602
 20
77.4356720791358
 30
0.0
 11
463.6467995153601
 21
78.43567207913579
 31
0.0
  0
ELLIPSE
  5
488
330
1A
100
AcDbEntity
  8
SEIHIN
100
AcDbEllipse
 10
526.2062673405396
 20
197.4355402879671
 30
0.0
 11
25.0
 21
0.0
 31
0.0
210
0.0
220
0.0
230
1.0
 40
0.8829480010939869
 41
-2.112415596557923
 42
-0.9630112670422141
  0
LINE
  5
489
330
1A
100
AcDbEntity
  8
SEIHIN
100
AcDbLine
 10
540.1447791628608
 20
130.6944599833191
 30
0.0
 11
534.328758090128
 21
106.4610865960528
 31
0.0
  0
ELLIPSE
  5
48A
330
1A
100
AcDbEntity
  8
SEIHIN
100
AcDbEllipse
 10
557.2062673405396
 20
150.1977339346384
 30
0.0
 11
37.0
 21
0.0
 31
0.0
210
0.0
220
0.0
230
1.0
 40
0.8829480010939889
 41
1.471900061797146
 42
2.156367383194774
  0
ELLIPSE
  5
48B
330
1A
100
AcDbEntity
  8
SEIHIN
100
AcDbEllipse
 10
430.2062673405396
 20
168.2983445466702
 30
0.0
 11
36.00000000000005
 21
0.0
 31
0.0
210
0.0
220
0.0
230
1.0
 40
0.882949423621336
 41
0.7987606823964912
 42
1.900042054224824
  0
ELLIPSE
  5
48C
330
1A
100
AcDbEntity
  8
SEIHIN
100
AcDbEllipse
 10
472.2062673405396
 20
163.0006565401061
 30
0.0
 11
35.99999999999994
 21
0.0
 31
0.0
210
0.0
220
0.0
230
1.0
 40
0.8829477067780107
 41
1.038908763098645
 42
2.059035428110394
  0
LINE
  5
48D
330
1A
100
AcDbEntity
  8
NOKITOI
  6
PHANTOM
 62
     8
 48
5.0
100
AcDbLine
 10
463.6467995153601
 20
118.2356720791357
 30
0.0
 11
420.7398783251552
 21
118.2356720791358
 31
0.0
  0
CIRCLE
  5
48E
330
1A
100
AcDbEntity
  8
NOKITOI
  6
PHANTOM
 62
     8
 48
5.0
100
AcDbCircle
 10
422.4083995153601
 20
124.7355840790323
 30
0.0
 40
2.7
  0
LINE
  5
48F
330
1A
100
AcDbEntity
  8
NOKITOI
  6
PHANTOM
 62
     8
 48
5.0
100
AcDbLine
 10
411.0467995153602
 20
131.5356720791357
 30
0.0
 11
410.7967995153601
 21
106.0096720791357
 31
0.0
  0
LINE
  5
490
330
1A
100
AcDbEntity
  8
NOKITOI
  6
PHANTOM
 62
     8
 48
5.0
100
AcDbLine
 10
428.7967995153604
 20
125.0356720791357
 30
0.0
 11
428.7967995153604
 21
131.5356720791357
 31
0.0
  0
ARC
  5
491
330
1A
100
AcDbEntity
  8
NOKITOI
  6
PHANTOM
 62
     8
 48
5.0
100
AcDbCircle
 10
422.2967995153602
 20
125.0356720791357
 30
0.0
 40
6.500000000000056
100
AcDbArc
 50
0.0
 51
180.0
  0
ARC
  5
492
330
1A
100
AcDbEntity
  8
NOKITOI
  6
PHANTOM
 62
     8
 48
5.0
100
AcDbCircle
 10
422.4083995153601
 20
124.7355840790323
 30
0.0
 40
3.999994
100
AcDbArc
 50
220.269583
 51
121.7840119999999
  0
ARC
  5
493
330
1A
100
AcDbEntity
  8
NOKITOI
  6
PHANTOM
 62
     8
 48
5.0
100
AcDbCircle
 10
422.2967995153601
 20
125.0356720791357
 30
0.0
 40
4.5
100
AcDbArc
 50
0.0
 51
180.0
  0
LINE
  5
494
330
1A
100
AcDbEntity
  8
NOKITOI
  6
PHANTOM
 62
     8
 48
5.0
100
AcDbLine
 10
412.7967995153603
 20
116.5356720791357
 30
0.0
 11
412.5631995153604
 21
130.5523720791357
 31
0.0
  0
ARC
  5
495
330
1A
100
AcDbEntity
  8
NOKITOI
  6
PHANTOM
 62
     8
 48
5.0
100
AcDbCircle
 10
422.4083995153601
 20
124.7355840790323
 30
0.0
 40
3.999958
100
AcDbArc
 50
121.784767
 51
174.584588
  0
ARC
  5
496
330
1A
100
AcDbEntity
  8
NOKITOI
  6
PHANTOM
 62
     8
 48
5.0
100
AcDbCircle
 10
422.2967995153601
 20
124.7356720791357
 30
0.0
 40
4.5
100
AcDbArc
 50
270.0
 51
0.0
  0
ARC
  5
497
330
1A
100
AcDbEntity
  8
NOKITOI
  6
PHANTOM
 62
     8
 48
5.0
100
AcDbCircle
 10
422.2967995153602
 20
124.7356720791358
 30
0.0
 40
6.500000000000056
100
AcDbArc
 50
269.9999999999994
 51
359.9999999999994
  0
LINE
  5
498
330
1A
100
AcDbEntity
  8
NOKITOI
  6
PHANTOM
 62
     8
 48
5.0
100
AcDbLine
 10
414.9736995153602
 20
123.6106720791356
 30
0.0
 11
414.7967995153601
 21
116.5356720791357
 31
0.0
  0
LINE
  5
499
330
1A
100
AcDbEntity
  8
NOKITOI
  6
PHANTOM
 62
     8
 48
5.0
100
AcDbLine
 10
415.7967995153602
 20
125.0356720791357
 30
0.0
 11
415.7967995153602
 21
119.1091720791357
 31
0.0
  0
LINE
  5
49A
330
1A
100
AcDbEntity
  8
NOKITOI
  6
PHANTOM
 62
     8
 48
5.0
100
AcDbLine
 10
414.7967995153601
 20
116.5356720791357
 30
0.0
 11
412.7967995153603
 21
116.5356720791357
 31
0.0
  0
ARC
  5
49B
330
1A
100
AcDbEntity
  8
NOKITOI
  6
PHANTOM
 62
     8
 48
5.0
100
AcDbCircle
 10
410.7967886401718
 20
119.1090864795671
 30
0.0
 40
5.000010875209161
100
AcDbArc
 50
345.5211660648001
 51
359.9998349835706
  0
LINE
  5
49C
330
1A
100
AcDbEntity
  8
NOKITOI
  6
PHANTOM
 62
     8
 48
5.0
100
AcDbLine
 10
412.7350995153602
 20
120.2356720791357
 30
0.0
 11
414.8892995153603
 21
120.2356720791357
 31
0.0
  0
ARC
  5
49D
330
1A
100
AcDbEntity
  8
NOKITOI
  6
PHANTOM
 62
     8
 48
5.0
100
AcDbCircle
 10
417.9727019914651
 20
123.5356779570489
 30
0.0
 40
2.999939994405041
100
AcDbArc
 50
135.7456106862225
 51
178.5675398995574
  0
ARC
  5
49E
330
1A
100
AcDbEntity
  8
NOKITOI
  6
PHANTOM
 62
     8
 48
5.0
100
AcDbCircle
 10
419.8607144293728
 20
119.2356841967826
 30
0.0
 40
0.9999878824643825
100
AcDbArc
 50
90.00085452033124
 51
168.1886262195387
  0
ARC
  5
49F
330
1A
100
AcDbEntity
  8
NOKITOI
  6
PHANTOM
 62
     8
 48
5.0
100
AcDbCircle
 10
421.4603094652221
 20
117.2356799141971
 30
0.0
 40
0.9999921649881468
100
AcDbArc
 50
90.00057008954835
 51
166.4382021781654
  0
LINE
  5
4A0
330
1A
100
AcDbEntity
  8
NOKITOI
  6
PHANTOM
 62
     8
 48
5.0
100
AcDbLine
 10
420.7967995153603
 20
126.5356720791357
 30
0.0
 11
418.0541995153602
 21
126.5356720791357
 31
0.0
  0
LINE
  5
4A1
330
1A
100
AcDbEntity
  8
NOKITOI
  6
PHANTOM
 62
     8
 48
5.0
100
AcDbLine
 10
422.2967995153601
 20
120.2356720791357
 30
0.0
 11
419.8606995153602
 21
120.2356720791357
 31
0.0
  0
ARC
  5
4A2
330
1A
100
AcDbEntity
  8
NOKITOI
  6
PHANTOM
 62
     8
 48
5.0
100
AcDbCircle
 10
416.7967712836572
 20
120.2231894257714
 30
0.0
 40
1.0000282716483
100
AcDbArc
 50
348.6085087317536
 51
0.0161943872120482
  0
LINE
  5
4A3
330
1A
100
AcDbEntity
  8
NOKITOI
  6
PHANTOM
 62
     8
 48
5.0
100
AcDbLine
 10
417.7967995153601
 20
125.0356720791357
 30
0.0
 11
417.7967995153601
 21
120.2234720791357
 31
0.0
  0
LINE
  5
4A4
330
1A
100
AcDbEntity
  8
NOKITOI
  6
PHANTOM
 62
     8
 48
5.0
100
AcDbLine
 10
421.2967995153603
 20
120.2356720791357
 30
0.0
 11
420.7967995153603
 21
126.5356720791357
 31
0.0
  0
ARC
  5
4A5
330
1A
100
AcDbEntity
  8
NOKITOI
  6
PHANTOM
 62
     8
 48
5.0
100
AcDbCircle
 10
420.7398783251552
 20
117.2356720791357
 30
0.0
 40
1.0
100
AcDbArc
 50
90.0
 51
166.2525842013566
  0
LINE
  5
4A6
330
1A
100
AcDbEntity
  8
NOKITOI
  6
PHANTOM
 62
     8
 48
5.0
100
AcDbLine
 10
426.7967995153601
 20
125.0356720791357
 30
0.0
 11
426.7967995153601
 21
124.7356720791357
 31
0.0
  0
LINE
  5
4A7
330
1A
100
AcDbEntity
  8
NOKITOI
  6
PHANTOM
 62
     8
 48
5.0
100
AcDbLine
 10
428.7967995153604
 20
124.7356720791357
 30
0.0
 11
428.7967995153604
 21
125.0356720791357
 31
0.0
  0
ARC
  5
4A8
330
1A
100
AcDbEntity
  8
NOKITOI
  6
PHANTOM
 62
     8
 48
5.0
100
AcDbCircle
 10
411.5633687371383
 20
130.5357023475519
 30
0.0
 40
0.9999697320575446
100
AcDbArc
 50
0.9551784189623404
 51
89.99823648439546
  0
ARC
  5
4A9
330
1A
100
AcDbEntity
  8
NOKITOI
  6
PHANTOM
 62
     8
 48
5.0
100
AcDbCircle
 10
419.1345160434257
 20
129.535648558372
 30
0.0
 40
1.000009372042841
100
AcDbArc
 50
125.0934095113017
 51
305.0980973641169
  0
ARC
  5
4AA
330
1A
100
AcDbEntity
  8
SEIHIN
100
AcDbCircle
 10
506.9816034764829
 20
106.6944599833191
 30
0.0
 40
1.0
100
AcDbArc
 50
194.4205493174088
 51
269.9999999999999
  0
LINE
  5
4AB
330
1A
100
AcDbEntity
  8
SEIHIN
100
AcDbLine
 10
503.6348242227758
 20
115.6944599833191
 30
0.0
 11
506.0131095710835
 21
106.44542272666
 31
0.0
  0
LINE
  5
4AC
330
1A
100
AcDbEntity
  8
SEIHIN
100
AcDbLine
 10
529.5062673405396
 20
110.6944126940341
 30
0.0
 11
512.9062673405396
 21
110.6944126940341
 31
0.0
  0
LINE
  5
4AD
330
1A
100
AcDbEntity
  8
SEIHIN
100
AcDbLine
 10
529.5062673405396
 20
114.1944126940341
 30
0.0
 11
512.9062673405396
 21
114.1944126940341
 31
0.0
  0
LINE
  5
4AE
330
1A
100
AcDbEntity
  8
SEIHIN
100
AcDbLine
 10
533.3563708924973
 20
105.6944599833191
 30
0.0
 11
506.9816034764829
 21
105.6944599833191
 31
0.0
  0
LINE
  5
4AF
330
1A
100
AcDbEntity
  8
SEIHIN
100
AcDbLine
 10
511.2062673405397
 20
112.494412694034
 30
0.0
 11
511.2062673405397
 21
112.3944126940341
 31
0.0
  0
ARC
  5
4B0
330
1A
100
AcDbEntity
  8
SEIHIN
100
AcDbCircle
 10
512.9062673405396
 20
112.494412694034
 30
0.0
 40
1.7
100
AcDbArc
 50
90.0
 51
180.0
  0
ARC
  5
4B1
330
1A
100
AcDbEntity
  8
SEIHIN
100
AcDbCircle
 10
512.9062673405396
 20
112.3944126940341
 30
0.0
 40
1.7
100
AcDbArc
 50
180.0
 51
270.0
  0
ARC
  5
4B2
330
1A
100
AcDbEntity
  8
SEIHIN
100
AcDbCircle
 10
529.5062673405396
 20
112.494412694034
 30
0.0
 40
1.7
100
AcDbArc
 50
0.0
 51
90.0
  0
ARC
  5
4B3
330
1A
100
AcDbEntity
  8
SEIHIN
100
AcDbCircle
 10
529.5062673405396
 20
112.3944126940341
 30
0.0
 40
1.7
100
AcDbArc
 50
270.0
 51
0.0
  0
LINE
  5
4B4
330
1A
100
AcDbEntity
  8
SEIHIN
100
AcDbLine
 10
531.2062673405396
 20
112.494412694034
 30
0.0
 11
531.2062673405396
 21
112.3944126940341
 31
0.0
  0
ARC
  5
4B5
330
1A
100
AcDbEntity
  8
SEIHIN
100
AcDbCircle
 10
533.3563708924973
 20
106.6944599833191
 30
0.0
 40
1.0
100
AcDbArc
 50
269.9999999999999
 51
346.5042411001027
  0
LINE
  5
4B6
330
1A
100
AcDbEntity
  8
SEIHIN
100
AcDbLine
 10
513.7375267468948
 20
178.3032467372809
 30
0.0
 11
490.4640648870871
 21
190.3955634244528
 31
0.0
  0
LINE
  5
4B7
330
1A
100
AcDbEntity
  8
SEIHIN
100
AcDbLine
 10
490.4640648870871
 20
190.3955634244528
 30
0.0
 11
490.4640648870875
 21
190.3955634244528
 31
0.0
  0
ELLIPSE
  5
4B8
330
1A
100
AcDbEntity
  8
SEIHIN
100
AcDbEllipse
 10
591.2648995028956
 20
154.2971872440317
 30
0.0
 11
24.00001599999995
 21
0.0
 31
0.0
210
0.0
220
0.0
230
0.9999999999999998
 40
0.8829474124623793
 41
-0.1190177377222512
 42
1.181479839064048
  0
LINE
  5
4B9
330
1A
100
AcDbEntity
  8
SEIHIN
100
AcDbLine
 10
540.1447791628608
 20
130.6944599833191
 30
0.0
 11
618.6016418105257
 21
130.6944599833191
 31
0.0
  0
ELLIPSE
  5
4BA
330
1A
100
AcDbEntity
  8
SEIHIN
100
AcDbEllipse
 10
569.2062673405396
 20
169.1811159581593
 30
0.0
 11
12.00003600000002
 21
0.0
 31
0.0
210
0.0
220
0.0
230
0.9999999999999998
 40
0.8829480010940217
 41
2.114054142021824
 42
6.634090350531018
  0
LINE
  5
4BB
330
1A
100
AcDbEntity
  8
SEIHIN
100
AcDbLine
 10
560.8594673405396
 20
182.7071806637515
 30
0.0
 11
563.003118554029
 21
178.2510941307939
 31
0.0
  0
ELLIPSE
  5
4BC
330
1A
100
AcDbEntity
  8
SEIHIN
100
AcDbEllipse
 10
589.2062673405396
 20
177.1276479680057
 30
0.0
 11
10.0
 21
0.0
 31
0.0
210
0.0
220
0.0
230
1.0
 40
0.8829480010939846
 41
1.545561693450538
 42
3.65081837655456
  0
ELLIPSE
  5
4BD
330
1A
100
AcDbEntity
  8
SEIHIN
100
AcDbEllipse
 10
607.2062673405398
 20
188.6059719822281
 30
0.0
 11
18.0
 21
0.0
 31
0.0
210
0.0
220
0.0
230
1.0
 40
0.8829480010939821
 41
-2.973965216045404
 42
-1.960113048628036
  0
ELLIPSE
  5
4BE
330
1A
100
AcDbEntity
  8
SEIHIN
100
AcDbEllipse
 10
606.2062673405396
 20
132.0972999122121
 30
0.0
 11
24.0
 21
0.0
 31
0.0
210
0.0
220
0.0
230
1.0
 40
0.8829480010939873
 41
-0.0661230235224056
 42
1.19138964084264
  0
LINE
  5
4BF
330
1A
100
AcDbEntity
  8
SEIHIN
100
AcDbLine
 10
630.2062673405396
 20
132.0972999122121
 30
0.0
 11
630.2062673405396
 21
118.4973993695871
 31
0.0
  0
LINE
  5
4C0
330
1A
100
AcDbEntity
  8
SEIHIN
100
AcDbLine
 10
611.0633785913603
 20
130.6944599833191
 30
0.0
 11
614.2062673405396
 21
118.4973993695871
 31
0.0
  0
LINE
  5
4C1
330
1A
100
AcDbEntity
  8
SEIHIN
100
AcDbLine
 10
630.2062673405396
 20
118.4973993695871
 30
0.0
 11
614.2062673405396
 21
118.4973993695871
 31
0.0
  0
SPLINE
  5
4C2
330
1A
100
AcDbEntity
  8
SEIHIN
100
AcDbSpline
210
0.0
220
0.0
230
1.0
 70
     8
 71
     3
 72
    18
 73
    14
 74
     0
 42
0.0000000001
 43
0.0000000001
 40
-2.112415596557926
 40
-2.112415596557926
 40
-2.112415596557926
 40
-2.112415596557926
 40
-1.920848208305307
 40
-1.920848208305307
 40
-1.729280820052687
 40
-1.729280820052687
 40
-1.537713431800068
 40
-1.537713431800068
 40
-1.346146043547449
 40
-1.346146043547449
 40
-1.15457865529483
 40
-1.15457865529483
 40
-0.9704733167885692
 40
-0.9704733167885692
 40
-0.9704733167885692
 40
-0.9704733167885692
 10
509.7323843405013
 20
393.4917783526405
 30
0.0
 10
511.2913693581019
 20
392.6636290896621
 30
0.0
 10
512.9709094292779
 20
391.9424935355218
 30
0.0
 10
516.5113396924009
 20
390.7801972016272
 30
0.0
 10
518.3719757842366
 20
390.3394576162401
 30
0.0
 10
522.1867529234502
 20
389.7844678253211
 30
0.0
 10
524.1403887847943
 20
389.6704816064866
 30
0.0
 10
528.0368010209497
 20
389.7843392038613
 30
0.0
 10
529.9789736505008
 20
390.0121703367579
 30
0.0
 10
533.7489123805848
 20
390.7896913051373
 30
0.0
 10
535.576189007716
 20
391.3390968653803
 30
0.0
 10
538.9635336923084
 20
392.6824132881735
 30
0.0
 10
540.531023820587
 20
393.4655687407916
 30
0.0
 10
541.9812194673402
 20
394.3428388620104
 30
0.0
  0
ELLIPSE
  5
4C3
330
1A
100
AcDbEntity
  8
SEIHIN
100
AcDbEllipse
 10
556.106867438548
 20
369.8489642716614
 30
0.0
 11
37.0
 21
0.0
 31
0.0
210
0.0
220
0.0
230
1.0
 40
0.8829480010939889
 41
1.471900061797146
 42
2.156367383194775
  0
LINE
  5
4C4
330
1A
100
AcDbEntity
  8
SEIHIN
100
AcDbLine
 10
539.0453792608694
 20
350.3456903203421
 30
0.0
 11
617.5022419085341
 21
350.3456903203421
 31
0.0
  0
SPLINE
  5
4C5
330
1A
100
AcDbEntity
  8
SEIHIN
100
AcDbSpline
210
0.0
220
0.0
230
1.0
 70
     8
 71
     3
 72
    18
 73
    14
 74
     0
 42
0.0000000001
 43
0.0000000001
 40
-2.112415596557926
 40
-2.112415596557926
 40
-2.112415596557926
 40
-2.112415596557926
 40
-1.920848208305307
 40
-1.920848208305307
 40
-1.729280820052687
 40
-1.729280820052687
 40
-1.537713431800068
 40
-1.537713431800068
 40
-1.346146043547449
 40
-1.346146043547449
 40
-1.15457865529483
 40
-1.15457865529483
 40
-1.119024726742005
 40
-1.119024726742005
 40
-1.119024726742005
 40
-1.119024726742005
 10
508.0904361888869
 20
390.4008227936895
 30
0.0
 10
509.8257575288269
 20
389.4790018188391
 30
0.0
 10
511.6873010235313
 20
388.6801097470396
 30
0.0
 10
515.611550100067
 20
387.3918086152661
 30
0.0
 10
517.6662737064246
 20
386.9052801724303
 30
0.0
 10
521.88467493506
 20
386.291569454751
 30
0.0
 10
524.037989239579
 20
386.1659954131252
 30
0.0
 10
528.343661254768
 20
386.2918120467412
 30
0.0
 10
530.4852944431102
 20
386.5429324624498
 30
0.0
 10
534.6565295291227
 20
387.4032177285029
 30
0.0
 10
536.6762858951303
 20
388.0101891297719
 30
0.0
 10
538.9496121444783
 20
388.9117202018847
 30
0.0
 10
539.3016405168082
 20
389.057995937096
 30
0.0
 10
539.6496816718011
 20
389.2092117338118
 30
0.0
  0
ELLIPSE
  5
4C6
330
1A
100
AcDbEntity
  8
SEIHIN
  6
CONTINUOUS
 62
     3
100
AcDbEllipse
 10
480.6217377244123
 20
367.0408693063213
 30
0.0
 11
-23.67264173365134
 21
0.0
 31
0.0
210
0.0
220
0.0
230
1.0
 40
0.8830024225934099
 41
-2.385333291913284
 42
-1.868239242447168
  0
ELLIPSE
  5
4C7
330
1A
100
AcDbEntity
  8
SEIHIN
  6
CONTINUOUS
 62
     3
100
AcDbEllipse
 10
452.2871285501861
 20
380.183302661788
 30
0.0
 11
14.97139616823113
 21
0.0
 31
0.0
210
0.0
220
0.0
230
1.0
 40
0.8830171783211808
 41
-0.0375936135229835
 42
1.060491789628279
  0
ELLIPSE
  5
4C8
330
1A
100
AcDbEntity
  8
SEIHIN
  6
CONTINUOUS
 62
     3
100
AcDbEllipse
 10
445.9346885762091
 20
384.0255182250345
 30
0.0
 11
4.437108358344801
 21
0.0
 31
0.0
210
0.0
220
0.0
230
1.0
 40
0.8834582533076339
 41
2.357232157181435
 42
3.785414833256472
  0
ELLIPSE
  5
4C9
330
1A
100
AcDbEntity
  8
SEIHIN
  6
CONTINUOUS
 62
     3
100
AcDbEllipse
 10
453.1030213229165
 20
379.1253316875557
 30
0.0
 11
4.903014708899547
 21
0.0
 31
0.0
210
0.0
220
0.0
230
1.0
 40
0.8829261703299312
 41
0.371994972758623
 42
2.341237453521899
  0
ELLIPSE
  5
4CA
330
1A
100
AcDbEntity
  8
SEIHIN
  6
CONTINUOUS
 62
     3
100
AcDbEllipse
 10
488.8797436126772
 20
358.8359132022385
 30
0.0
 11
32.02373450551624
 21
0.0
 31
0.0
210
0.0
220
0.0
230
1.0
 40
0.8830013250056499
 41
1.984005799372297
 42
2.312428934865052
  0
ELLIPSE
  5
4CB
330
1A
100
AcDbEntity
  8
SEIHIN
  6
CONTINUOUS
 62
     3
100
AcDbEllipse
 10
428.5264384157348
 20
376.9971781259241
 30
0.0
 11
7.288353888362109
 21
0.0
 31
0.0
210
0.0
220
0.0
230
1.0
 40
0.8829977383886685
 41
0.3760276002819959
 42
1.448955034613774
  0
SPLINE
  5
4CC
330
1A
100
AcDbEntity
  8
SEIHIN
  6
CONTINUOUS
 62
     3
100
AcDbSpline
210
0.0
220
0.0
230
1.0
 70
     8
 71
     3
 72
    16
 73
    12
 74
     0
 42
0.0000000001
 43
0.0000000001
 40
1.212089321161966
 40
1.212089321161966
 40
1.212089321161966
 40
1.212089321161966
 40
1.308996938995755
 40
1.308996938995755
 40
1.570796326794903
 40
1.570796326794903
 40
1.832595714594051
 40
1.832595714594051
 40
2.0943951023932
 40
2.0943951023932
 40
2.293642899079128
 40
2.293642899079128
 40
2.293642899079128
 40
2.293642899079128
 10
422.8151276069309
 20
382.6450710364523
 30
0.0
 10
422.5199577891562
 20
382.7374761497296
 30
0.0
 10
422.2227859171415
 20
382.8164389598025
 30
0.0
 10
421.1228966018035
 20
383.0611191803699
 30
0.0
 10
420.3203670725159
 20
383.1458947303754
 30
0.0
 10
418.7910633703587
 20
383.1458947303754
 30
0.0
 10
417.9887718406913
 20
383.0611721255151
 30
0.0
 10
416.382805316424
 20
382.7039105011846
 30
0.0
 10
415.5791950325616
 20
382.4310806553865
 30
0.0
 10
414.236855784711
 20
381.7665878853582
 30
0.0
 10
413.6840406511875
 20
381.422123677304
 30
0.0
 10
413.1772544113486
 20
381.0304558468583
 30
0.0
  0
ELLIPSE
  5
4CD
330
1A
100
AcDbEntity
  8
SEIHIN
  6
CONTINUOUS
 62
     3
100
AcDbEllipse
 10
521.6452940549174
 20
405.2875475779097
 30
0.0
 11
36.04725919088361
 21
0.0
 31
0.0
210
0.0
220
0.0
230
1.0
 40
0.8830074938970627
 41
-2.365995226115468
 42
-1.898567208002602
  0
ELLIPSE
  5
4CE
330
1A
100
AcDbEntity
  8
SEIHIN
  6
CONTINUOUS
 62
     3
100
AcDbEllipse
 10
481.7635056941957
 20
362.8249336307947
 30
0.0
 11
-15.87934559896018
 21
0.0
 31
0.0
210
0.0
220
0.0
230
1.0
 40
0.8829079203942796
 41
-1.189824535849625
 42
-0.626994877799369
  0
LINE
  5
4CF
330
1A
100
AcDbEntity
  8
NOKITOI
  6
PHANTOM
 62
     8
 48
5.0
100
AcDbLine
 10
463.6467995153601
 20
291.9863540494108
 30
0.0
 11
463.6467995153601
 21
345.0863540494108
 31
0.0
  0
LINE
  5
4D0
330
1A
100
AcDbEntity
  8
NOKITOI
  6
PHANTOM
 62
     8
 48
5.0
100
AcDbLine
 10
458.6467995153602
 20
290.9863540494108
 30
0.0
 11
432.7967995153604
 21
290.9863540494108
 31
0.0
  0
LINE
  5
4D1
330
1A
100
AcDbEntity
  8
NOKITOI
  6
PHANTOM
 62
     8
 48
5.0
100
AcDbLine
 10
432.7967995153604
 20
331.7863540494108
 30
0.0
 11
432.7967995153604
 21
290.9863540494108
 31
0.0
  0
LINE
  5
4D2
330
1A
100
AcDbEntity
  8
NOKITOI
  6
PHANTOM
 62
     8
 48
5.0
100
AcDbLine
 10
428.7967995153604
 20
331.7863540494108
 30
0.0
 11
428.7967995153604
 21
292.9863540494108
 31
0.0
  0
LINE
  5
4D3
330
1A
100
AcDbEntity
  8
NOKITOI
  6
PHANTOM
 62
     8
 48
5.0
100
AcDbLine
 10
428.7967995153604
 20
292.9863540494108
 30
0.0
 11
432.7967995153604
 21
290.9863540494108
 31
0.0
  0
LINE
  5
4D4
330
1A
100
AcDbEntity
  8
NOKITOI
  6
PHANTOM
 62
     8
 48
5.0
100
AcDbLine
 10
458.6467995153602
 20
331.7863540494108
 30
0.0
 11
458.6467995153602
 21
290.9863540494108
 31
0.0
  0
LINE
  5
4D5
330
1A
100
AcDbEntity
  8
NOKITOI
  6
PHANTOM
 62
     8
 48
5.0
100
AcDbLine
 10
458.6467995153602
 20
290.9863540494108
 30
0.0
 11
463.6467995153601
 21
291.9863540494108
 31
0.0
  0
ELLIPSE
  5
4D6
330
1A
100
AcDbEntity
  8
SEIHIN
  6
CONTINUOUS
 62
     3
100
AcDbEllipse
 10
449.6103483284553
 20
382.8573646826516
 30
0.0
 11
-11.73084828618186
 21
0.0
 31
0.0
210
0.0
220
0.0
230
1.0
 40
0.8829710987057099
 41
0.7154305858868271
 42
1.37505514773712
  0
ELLIPSE
  5
4D7
330
1A
100
AcDbEntity
  8
SEIHIN
  6
CONTINUOUS
 62
     3
100
AcDbEllipse
 10
453.6327132347635
 20
395.461355431202
 30
0.0
 11
-34.25407462845976
 21
0.0
 31
0.0
210
0.0
220
0.0
230
1.0
 40
0.8829898436336772
 41
1.010327368803897
 42
1.47589573821521
  0
ELLIPSE
  5
4D8
330
1A
100
AcDbEntity
  8
SEIHIN
  6
CONTINUOUS
 62
     3
100
AcDbEllipse
 10
421.8510319547905
 20
366.5522137988693
 30
0.0
 11
10.54389554497402
 21
0.0
 31
0.0
210
0.0
220
0.0
230
1.0
 40
0.8829753633549431
 41
0.7476940595308656
 42
2.224114376192875
  0
LINE
  5
4D9
330
1A
100
AcDbEntity
  8
SEIHIN
  6
CONTINUOUS
 62
     3
100
AcDbLine
 10
409.9955645979017
 20
370.2637704906356
 30
0.0
 11
415.4421937602686
 21
373.945018361801
 31
0.0
  0
ELLIPSE
  5
4DA
330
1A
100
AcDbEntity
  8
SEIHIN
  6
CONTINUOUS
 62
     3
100
AcDbEllipse
 10
430.4822482122849
 20
370.6678622700911
 30
0.0
 11
-2.690537913222271
 21
0.0
 31
0.0
210
0.0
220
0.0
230
1.0
 40
0.8734312898737666
 41
-1.229789639451439
 42
0.7601389635746097
  0
ELLIPSE
  5
4DB
330
1A
100
AcDbEntity
  8
SEIHIN
  6
CONTINUOUS
 62
     3
100
AcDbEllipse
 10
431.5343575465063
 20
372.5095861337055
 30
0.0
 11
4.905624657224677
 21
0.0
 31
0.0
210
0.0
220
0.0
230
1.0
 40
0.8920372645215152
 41
-2.229333917700761
 42
-0.6553143333832558
  0
LINE
  5
4DC
330
1A
100
AcDbEntity
  8
SEIHIN
  6
CONTINUOUS
 62
     3
100
AcDbLine
 10
438.3386476371174
 20
378.5190576217165
 30
0.0
 11
440.7557765087816
 21
376.0631123877747
 31
0.0
  0
ELLIPSE
  5
4DD
330
1A
100
AcDbEntity
  8
SEIHIN
  6
CONTINUOUS
 62
     3
100
AcDbEllipse
 10
436.0434427029871
 20
376.7519333447042
 30
0.0
 11
3.045329402070307
 21
0.0
 31
0.0
210
0.0
220
0.0
230
1.0
 40
0.8828929961311036
 41
0.7136211928155954
 42
1.815531752476191
  0
ELLIPSE
  5
4DE
330
1A
100
AcDbEntity
  8
SEIHIN
  6
CONTINUOUS
 62
     3
100
AcDbEllipse
 10
452.5467719541751
 20
386.1987349985476
 30
0.0
 11
23.7039430485106
 21
0.0
 31
0.0
210
0.0
220
0.0
230
1.0
 40
0.8830007715241761
 41
-1.662043318884763
 42
-0.8091901536486499
  0
ELLIPSE
  5
4DF
330
1A
100
AcDbEntity
  8
SEIHIN
  6
CONTINUOUS
 62
     3
100
AcDbEllipse
 10
451.1799166052409
 20
378.3904185502638
 30
0.0
 11
6.99745763060946
 21
0.0
 31
0.0
210
0.0
220
0.0
230
1.0
 40
0.8830064183556684
 41
-0.8732235459256406
 42
0.433691221515009
  0
ELLIPSE
  5
4E0
330
1A
100
AcDbEntity
  8
SEIHIN
  6
CONTINUOUS
 62
     3
100
AcDbEllipse
 10
448.4640676175701
 20
393.8143823981934
 30
0.0
 11
-23.94221906215875
 21
0.0
 31
0.0
210
0.0
220
0.0
230
1.0
 40
0.8830008590729942
 41
1.523360446326462
 42
1.87671804211552
  0
ELLIPSE
  5
4E1
330
1A
100
AcDbEntity
  8
SEIHIN
  6
CONTINUOUS
 62
     3
100
AcDbEllipse
 10
446.1350085332017
 20
380.9554964181857
 30
0.0
 11
-3.836094782973987
 21
0.0
 31
0.0
210
0.0
220
0.0
230
-1.0
 40
0.8829291744908816
 41
2.755215396482712
 42
6.496495482886365
  0
LINE
  5
4E2
330
1A
100
AcDbEntity
  8
SEIHIN
100
AcDbLine
 10
539.0453792608694
 20
350.3456903203421
 30
0.0
 11
533.2293581881363
 21
326.1123169330758
 31
0.0
  0
LINE
  5
4E3
330
1A
100
AcDbEntity
  8
SEIHIN
100
AcDbLine
 10
532.2569709905057
 20
325.3456903203421
 30
0.0
 11
505.8822035744913
 21
325.3456903203421
 31
0.0
  0
ARC
  5
4E4
330
1A
100
AcDbEntity
  8
SEIHIN
100
AcDbCircle
 10
505.8822035744913
 20
326.3456903203421
 30
0.0
 40
1.0
100
AcDbArc
 50
194.4205493174088
 51
269.9999999999999
  0
LINE
  5
4E5
330
1A
100
AcDbEntity
  8
SEIHIN
100
AcDbLine
 10
502.5354243207839
 20
335.3456903203421
 30
0.0
 11
504.913709669092
 21
326.096653063683
 31
0.0
  0
LINE
  5
4E6
330
1A
100
AcDbEntity
  8
SEIHIN
100
AcDbLine
 10
528.406867438548
 20
333.8456430310571
 30
0.0
 11
511.8068674385481
 21
333.8456430310571
 31
0.0
  0
LINE
  5
4E7
330
1A
100
AcDbEntity
  8
SEIHIN
100
AcDbLine
 10
528.406867438548
 20
330.3456430310571
 30
0.0
 11
511.8068674385481
 21
330.3456430310571
 31
0.0
  0
ARC
  5
4E8
330
1A
100
AcDbEntity
  8
SEIHIN
100
AcDbCircle
 10
511.8068674385481
 20
332.045643031057
 30
0.0
 40
1.7
100
AcDbArc
 50
180.0
 51
270.0
  0
ARC
  5
4E9
330
1A
100
AcDbEntity
  8
SEIHIN
100
AcDbCircle
 10
511.8068674385481
 20
332.1456430310571
 30
0.0
 40
1.7
100
AcDbArc
 50
90.0
 51
180.0
  0
LINE
  5
4EA
330
1A
100
AcDbEntity
  8
SEIHIN
100
AcDbLine
 10
510.1068674385481
 20
332.1456430310571
 30
0.0
 11
510.1068674385481
 21
332.045643031057
 31
0.0
  0
LINE
  5
4EB
330
1A
100
AcDbEntity
  8
SEIHIN
100
AcDbLine
 10
530.106867438548
 20
332.1456430310571
 30
0.0
 11
530.106867438548
 21
332.045643031057
 31
0.0
  0
ARC
  5
4EC
330
1A
100
AcDbEntity
  8
SEIHIN
100
AcDbCircle
 10
528.406867438548
 20
332.045643031057
 30
0.0
 40
1.7
100
AcDbArc
 50
270.0
 51
0.0
  0
ARC
  5
4ED
330
1A
100
AcDbEntity
  8
SEIHIN
100
AcDbCircle
 10
528.406867438548
 20
332.1456430310571
 30
0.0
 40
1.7
100
AcDbArc
 50
0.0
 51
90.0
  0
ARC
  5
4EE
330
1A
100
AcDbEntity
  8
SEIHIN
100
AcDbCircle
 10
532.2569709905057
 20
326.3456903203421
 30
0.0
 40
1.0
100
AcDbArc
 50
269.9999999999999
 51
346.5042411001027
  0
ELLIPSE
  5
4EF
330
1A
100
AcDbEntity
  8
SEIHIN
  6
CONTINUOUS
 62
     3
100
AcDbEllipse
 10
578.6813835327227
 20
494.4498068962502
 30
0.0
 11
-160.8052795954015
 21
0.0
 31
0.0
210
0.0
220
0.0
230
1.0
 40
0.8829933964684355
 41
0.9612824112261703
 42
1.173143614540933
  0
ELLIPSE
  5
4F0
330
1A
100
AcDbEntity
  8
SEIHIN
  6
CONTINUOUS
 62
     3
100
AcDbEllipse
 10
479.3990662698169
 20
372.5195878648342
 30
0.0
 11
5.444850770395532
 21
0.0
 31
0.0
210
0.0
220
0.0
230
1.0
 40
0.8830361386838761
 41
-1.672577204661446
 42
-0.004068671024071
  0
ELLIPSE
  5
4F1
330
1A
100
AcDbEntity
  8
SEIHIN
  6
CONTINUOUS
 62
     3
100
AcDbEllipse
 10
477.0886683553506
 20
370.0438731154392
 30
0.0
 11
-1.543756132088276
 21
0.0
 31
0.0
210
0.0
220
0.0
230
1.0
 40
0.8835592433598183
 41
-1.094054273673233
 42
0.0051544232485087
  0
ELLIPSE
  5
4F2
330
1A
100
AcDbEntity
  8
SEIHIN
  6
CONTINUOUS
 62
     3
100
AcDbEllipse
 10
478.218288239711
 20
370.0276104734074
 30
0.0
 11
-2.673376016448685
 21
0.0
 31
0.0
210
0.0
220
0.0
230
1.0
 40
0.8816567461883046
 41
-0.0289320452553514
 42
1.807749099564691
  0
ELLIPSE
  5
4F3
330
1A
100
AcDbEntity
  8
SEIHIN
  6
CONTINUOUS
 62
     3
100
AcDbEllipse
 10
475.4232787937733
 20
372.6906691464858
 30
0.0
 11
1.885928056114607
 21
0.0
 31
0.0
210
0.0
220
0.0
230
1.0
 40
0.8829605109277849
 41
-1.088265057817513
 42
0.6860389518149757
  0
ELLIPSE
  5
4F4
330
1A
100
AcDbEntity
  8
SEIHIN
  6
CONTINUOUS
 62
     3
100
AcDbEllipse
 10
473.9662429175073
 20
374.9451462772467
 30
0.0
 11
3.217410231610244
 21
0.0
 31
0.0
210
0.0
220
0.0
230
1.0
 40
0.8826975099717527
 41
-0.436089484173711
 42
0.0430907336964429
  0
ELLIPSE
  5
4F5
330
1A
100
AcDbEntity
  8
SEIHIN
  6
CONTINUOUS
 62
     3
100
AcDbEllipse
 10
476.1711747365697
 20
374.9997140117653
 30
0.0
 11
1.012478412547807
 21
0.0
 31
0.0
210
0.0
220
0.0
230
1.0
 40
0.8721173597943838
 41
-0.0220384802187924
 42
2.037916140687594
  0
ELLIPSE
  5
4F6
330
1A
100
AcDbEntity
  8
SEIHIN
  6
CONTINUOUS
 62
     3
100
AcDbEllipse
 10
477.6593106299031
 20
375.5753929863943
 30
0.0
 11
7.984274844959088
 21
0.0
 31
0.0
210
0.0
220
0.0
230
1.0
 40
0.8829856357526381
 41
-0.4513961880560777
 42
0.4112505166267738
  0
ELLIPSE
  5
4F7
330
1A
100
AcDbEntity
  8
SEIHIN
  6
CONTINUOUS
 62
     3
100
AcDbEllipse
 10
485.1010055127939
 20
375.7469043608843
 30
0.0
 11
3.0
 21
0.0
 31
0.0
210
0.0
220
0.0
230
1.0
 40
0.8830000000000003
 41
0.8875702352233625
 42
1.61185312518643
  0
ELLIPSE
  5
4F8
330
1A
100
AcDbEntity
  8
SEIHIN
  6
CONTINUOUS
 62
     3
100
AcDbEllipse
 10
548.2916972206242
 20
417.1522605668065
 30
0.0
 11
60.25533921534707
 21
0.0
 31
0.0
210
0.0
220
0.0
230
1.0
 40
0.8830752708873205
 41
-2.060076510496629
 42
-1.972316650444166
  0
ELLIPSE
  5
4F9
330
1A
100
AcDbEntity
  8
SEIHIN
  6
CONTINUOUS
 62
     3
100
AcDbEllipse
 10
527.4132687357036
 20
397.0276870090555
 30
0.0
 11
39.4905961564159
 21
0.0
 31
0.0
210
0.0
220
0.0
230
1.0
 40
0.8829950265092358
 41
-1.853198278593236
 42
-1.446664355764126
  0
ELLIPSE
  5
4FA
330
1A
100
AcDbEntity
  8
SEIHIN
  6
CONTINUOUS
 62
     3
100
AcDbEllipse
 10
517.6343867624475
 20
370.858384514753
 30
0.0
 11
2.459026324246394
 21
0.0
 31
0.0
210
0.0
220
0.0
230
1.0
 40
0.8828697678400555
 41
-0.3152215359403629
 42
1.940566851317413
  0
ELLIPSE
  5
4FB
330
1A
100
AcDbEntity
  8
SEIHIN
  6
CONTINUOUS
 62
     3
100
AcDbEllipse
 10
513.4325592593679
 20
383.8385567115955
 30
0.0
 11
12.838738215901
 21
0.0
 31
0.0
210
0.0
220
0.0
230
1.0
 40
0.8832643682971285
 41
-1.635734417633995
 42
-1.274898520948998
  0
ELLIPSE
  5
4FC
330
1A
100
AcDbEntity
  8
SEIHIN
  6
CONTINUOUS
 62
     3
100
AcDbEllipse
 10
510.5263615587117
 20
372.7057683821566
 30
0.0
 11
2.847213362645163
 21
0.0
 31
0.0
210
0.0
220
0.0
230
1.0
 40
0.8815637187330834
 41
0.6058089180970833
 42
0.9882767096767976
  0
ELLIPSE
  5
4FD
330
1A
100
AcDbEntity
  8
SEIHIN
  6
CONTINUOUS
 62
     3
100
AcDbEllipse
 10
509.2359839395642
 20
373.7810141474108
 30
0.0
 11
-3.652973534539682
 21
0.0
 31
0.0
210
0.0
220
0.0
230
1.0
 40
0.8830066710041093
 41
2.740768573662354
 42
3.251566356037656
  0
ELLIPSE
  5
4FE
330
1A
100
AcDbEntity
  8
SEIHIN
  6
CONTINUOUS
 62
     3
100
AcDbEllipse
 10
510.8066582875617
 20
373.7810141474108
 30
0.0
 11
-1.726491930147517
 21
0.0
 31
0.0
210
0.0
220
0.0
230
1.0
 40
0.8861900674330245
 41
-2.411160641141259
 42
-1.110985355026298
  0
ELLIPSE
  5
4FF
330
1A
100
AcDbEntity
  8
SEIHIN
  6
CONTINUOUS
 62
     3
100
AcDbEllipse
 10
528.9973039845881
 20
371.4791426450675
 30
0.0
 11
5.658955640219289
 21
0.0
 31
0.0
210
0.0
220
0.0
230
1.0
 40
0.8857288020384221
 41
1.77423030047142
 42
3.861577951894835
  0
ELLIPSE
  5
500
330
1A
100
AcDbEntity
  8
SEIHIN
  6
CONTINUOUS
 62
     3
100
AcDbEllipse
 10
531.8288990090648
 20
370.2849772044495
 30
0.0
 11
6.968421876570914
 21
0.0
 31
0.0
210
0.0
220
0.0
230
1.0
 40
0.8914500456532149
 41
-0.1400156531484732
 42
1.395704955376493
  0
ELLIPSE
  5
501
330
1A
100
AcDbEntity
  8
SEIHIN
  6
CONTINUOUS
 62
     3
100
AcDbEllipse
 10
530.7887135157111
 20
369.3093801646465
 30
0.0
 11
7.94136662069917
 21
0.0
 31
0.0
210
0.0
220
0.0
230
1.0
 40
0.882971449992401
 41
-1.548378687064695
 42
0.0154967591184615
  0
ELLIPSE
  5
502
330
1A
100
AcDbEntity
  8
SEIHIN
  6
CONTINUOUS
 62
     3
100
AcDbEllipse
 10
530.4822446381781
 20
366.5482478140339
 30
0.0
 11
-11.44540805903244
 21
0.0
 31
0.0
210
0.0
220
0.0
230
1.0
 40
0.8833236829875565
 41
-1.94542250485245
 42
-1.285143695169403
  0
ELLIPSE
  5
503
330
1A
100
AcDbEntity
  8
SEIHIN
100
AcDbEllipse
 10
471.1068674385481
 20
382.651886877129
 30
0.0
 11
35.99999999999994
 21
0.0
 31
0.0
210
0.0
220
0.0
230
1.0
 40
0.8829477067780107
 41
1.038908763098651
 42
2.059035428110393
  0
SPLINE
  5
504
330
1A
100
AcDbEntity
  8
SEIHIN
100
AcDbSpline
210
0.0
220
0.0
230
1.0
 70
     8
 71
     3
 72
    24
 73
    20
 74
     0
 42
0.0000000001
 43
0.0000000001
 40
1.038908763098649
 40
1.038908763098649
 40
1.038908763098649
 40
1.038908763098649
 40
1.185449890815017
 40
1.185449890815017
 40
1.331991018531383
 40
1.331991018531383
 40
1.478532146247751
 40
1.478532146247751
 40
1.625073273964118
 40
1.625073273964118
 40
1.771614401680485
 40
1.771614401680485
 40
1.918155529396852
 40
1.918155529396852
 40
2.064696657113219
 40
2.064696657113219
 40
2.211237784829585
 40
2.211237784829585
 40
2.311926839436259
 40
2.311926839436259
 40
2.311926839436259
 40
2.311926839436259
 10
485.3073714649643
 20
402.2379289725645
 30
0.0
 10
484.2175226836479
 20
402.8041875156293
 30
0.0
 10
483.0529806877906
 20
403.317563077499
 30
0.0
 10
480.6162058296567
 20
404.2062735854583
 30
0.0
 10
479.3439882795308
 20
404.581650515708
 30
0.0
 10
476.7330994786258
 20
405.1667247033795
 30
0.0
 10
475.3874687387845
 20
405.3775267859445
 30
0.0
 10
472.6710258009721
 20
405.6272597801561
 30
0.0
 10
471.3002123938815
 20
405.6661775395645
 30
0.0
 10
468.5897191227452
 20
405.5675878691356
 30
0.0
 10
467.2426986405075
 20
405.4301494925848
 30
0.0
 10
464.6143794043119
 20
404.9966058769022
 30
0.0
 10
463.3330855369758
 20
404.7004710135839
 30
0.0
 10
460.886429468002
 20
403.9715416279276
 30
0.0
 10
459.5983918759266
 20
403.4996869645613
 30
0.0
 10
457.1335702976053
 20
402.3899497829821
 30
0.0
 10
455.9546471321653
 20
401.7568246951165
 30
0.0
 10
454.0605096457247
 20
400.5571375055406
 30
0.0
 10
453.3198311797288
 20
400.0326127821447
 30
0.0
 10
452.6152300956061
 20
399.4784195386167
 30
0.0
  0
SPLINE
  5
505
330
1A
100
AcDbEntity
  8
SEIHIN
100
AcDbSpline
210
0.0
220
0.0
230
1.0
 70
     8
 71
     3
 72
    16
 73
    12
 74
     0
 42
0.0000000001
 43
0.0000000001
 40
1.038908763098649
 40
1.038908763098649
 40
1.038908763098649
 40
1.038908763098649
 40
1.331991018531384
 40
1.331991018531384
 40
1.625073273964118
 40
1.625073273964118
 40
1.918155529396852
 40
1.918155529396852
 40
2.064696657113219
 40
2.064696657113219
 40
2.197658363236052
 40
2.197658363236052
 40
2.197658363236052
 40
2.197658363236052
 10
486.9210677513801
 20
405.3437274681543
 30
0.0
 10
484.467707411968
 20
406.6184329825561
 30
0.0
 10
481.7141230845706
 20
407.6373291353998
 30
0.0
 10
475.8936334234604
 20
408.9416429227756
 30
0.0
 10
472.8315979667779
 20
409.2241936531458
 30
0.0
 10
466.8038884911832
 20
409.0049457778724
 30
0.0
 10
463.8438142512746
 20
408.5046626918489
 30
0.0
 10
459.7437159789484
 20
407.283125201281
 30
0.0
 10
458.3084025799525
 20
406.7572751660204
 30
0.0
 10
455.677600273554
 20
405.5728084433692
 30
0.0
 10
454.470448139406
 20
404.9349342667843
 30
0.0
 10
453.3124367972598
 20
404.2229994145085
 30
0.0
  0
ELLIPSE
  5
506
330
1A
100
AcDbEntity
  8
SEIHIN
100
AcDbEllipse
 10
429.1068674385481
 20
387.9495748836932
 30
0.0
 11
36.00000000000005
 21
0.0
 31
0.0
210
0.0
220
0.0
230
1.0
 40
0.882949423621336
 41
0.7987606823964948
 42
1.90004205422483
  0
SPLINE
  5
507
330
1A
100
AcDbEntity
  8
SEIHIN
100
AcDbSpline
210
0.0
220
0.0
230
1.0
 70
     8
 71
     3
 72
    18
 73
    14
 74
     0
 42
0.0000000001
 43
0.0000000001
 40
0.6378521302650999
 40
0.6378521302650999
 40
0.6378521302650999
 40
0.6378521302650999
 40
0.7145643833324274
 40
0.7145643833324274
 40
0.9516599175109075
 40
0.9516599175109075
 40
1.188755451689387
 40
1.188755451689387
 40
1.425850985867868
 40
1.425850985867868
 40
1.662946520046348
 40
1.662946520046348
 40
1.900042054224828
 40
1.900042054224828
 40
1.900042054224828
 40
1.900042054224828
 10
453.3124367972725
 20
404.222999414516
 30
0.0
 10
452.8596665866211
 20
404.7240683709027
 30
0.0
 10
452.3810719910382
 20
405.2167240371746
 30
0.0
 10
450.3175755780698
 20
407.1867399135583
 30
0.0
 10
448.5106049819397
 20
408.5682728829842
 30
0.0
 10
444.4934400812628
 20
410.9559056080774
 30
0.0
 10
442.283548818054
 20
411.9605530388564
 30
0.0
 10
437.6439403135989
 20
413.477935123385
 30
0.0
 10
435.2142071132584
 20
413.9906209795324
 30
0.0
 10
430.3574723643714
 20
414.4979586905851
 30
0.0
 10
427.9316818620213
 20
414.493412302483
 30
0.0
 10
423.2817909509527
 20
414.0316104693411
 30
0.0
 10
421.0575577991169
 20
413.5756925952045
 30
0.0
 10
418.9978112145317
 20
412.9542913424713
 30
0.0
  0
SPLINE
  5
508
330
1A
100
AcDbEntity
  8
SEIHIN
100
AcDbSpline
210
0.0
220
0.0
230
1.0
 70
     8
 71
     3
 72
    18
 73
    14
 74
     0
 42
0.0000000001
 43
0.0000000001
 40
0.5004574417753435
 40
0.5004574417753435
 40
0.5004574417753435
 40
0.5004574417753435
 40
0.7145643833324274
 40
0.7145643833324274
 40
0.9516599175109075
 40
0.9516599175109075
 40
1.188755451689387
 40
1.188755451689387
 40
1.425850985867868
 40
1.425850985867868
 40
1.662946520046348
 40
1.662946520046348
 40
1.900042054224828
 40
1.900042054224828
 40
1.900042054224828
 40
1.900042054224828
 10
452.6152300956061
 20
399.4784195386168
 30
0.0
 10
451.7456952831415
 20
400.739836044303
 30
0.0
 10
450.6954055357637
 20
401.9870966681814
 30
0.0
 10
448.0914654875394
 20
404.4730729964725
 30
0.0
 10
446.4944816775545
 20
405.6950300306164
 30
0.0
 10
442.9330890242954
 20
407.8117710298209
 30
0.0
 10
440.9573790962966
 20
408.7118480873312
 30
0.0
 10
436.7941775786201
 20
410.0734214595541
 30
0.0
 10
434.6067242627396
 20
410.5350347989852
 30
0.0
 10
430.2376878194256
 20
410.9914272237856
 30
0.0
 10
428.0483629720631
 20
410.9877818733347
 30
0.0
 10
423.8569083413443
 20
410.5715094340416
 30
0.0
 10
421.8546328085492
 20
410.1603512074216
 30
0.0
 10
420.0087174202334
 20
409.6034603047623
 30
0.0
  0
ELLIPSE
  5
509
330
1A
100
AcDbEntity
  8
SEIHIN
  6
CONTINUOUS
 62
     3
100
AcDbEllipse
 10
427.5435859687278
 20
373.0712853436446
 30
0.0
 11
11.82623892460588
 21
0.0
 31
0.0
210
0.0
220
0.0
230
1.0
 40
0.8832055623591319
 41
1.293935372183506
 42
1.982125227643469
  0
ELLIPSE
  5
50A
330
1A
100
AcDbEntity
  8
SEIHIN
  6
CONTINUOUS
 62
     3
100
AcDbEllipse
 10
456.1509789118928
 20
385.4229269389482
 30
0.0
 11
7.920152765157979
 21
0.0
 31
0.0
210
0.0
220
0.0
230
1.0
 40
0.8830637750786481
 41
0.8671049160648919
 42
2.088569106220413
  0
ELLIPSE
  5
50B
330
1A
100
AcDbEntity
  8
SEIHIN
  6
CONTINUOUS
 62
     3
100
AcDbEllipse
 10
450.299817724091
 20
384.7888146127724
 30
0.0
 11
7.842051772433875
 21
0.0
 31
0.0
210
0.0
220
0.0
230
1.0
 40
0.8830087075350771
 41
1.321986162234064
 42
2.847735427495908
  0
LINE
  5
50C
330
1A
100
AcDbEntity
  8
SEIHIN
100
AcDbLine
 10
508.5808333247721
 20
390.1456122853924
 30
0.0
 11
485.3073714649643
 21
402.2379289725645
 31
0.0
  0
LINE
  5
50D
330
1A
100
AcDbEntity
  8
SEIHIN
100
AcDbLine
 10
510.1945296111881
 20
393.2514107809822
 30
0.0
 11
486.9210677513802
 21
405.3437274681542
 31
0.0
  0
LINE
  5
50E
330
1A
100
AcDbEntity
  8
SEIHIN
100
AcDbLine
 10
512.6381268449035
 20
397.9544770743038
 30
0.0
 11
489.3646649850956
 21
410.0467937614758
 31
0.0
  0
ELLIPSE
  5
50F
330
1A
100
AcDbEntity
  8
SEIHIN
  6
CONTINUOUS
 62
     3
100
AcDbEllipse
 10
485.0711612552114
 20
373.005740492831
 30
0.0
 11
16.07180447788903
 21
0.0
 31
0.0
210
0.0
220
0.0
230
1.0
 40
0.8829997913130402
 41
1.415336490360812
 42
2.168969194662824
  0
LINE
  5
510
330
1A
100
AcDbEntity
  8
SEIHIN
100
AcDbLine
 10
489.3646649850956
 20
410.0467937614758
 30
0.0
 11
489.3646649850959
 21
410.0467937614757
 31
0.0
  0
ELLIPSE
  5
511
330
1A
100
AcDbEntity
  8
SEIHIN
100
AcDbEllipse
 10
525.1068674385483
 20
417.08677062499
 30
0.0
 11
25.0
 21
0.0
 31
0.0
210
0.0
220
0.0
230
1.0
 40
0.8829480010939869
 41
-2.112415596557927
 42
-0.9630112670422134
  0
SPLINE
  5
512
330
1A
100
AcDbEntity
  8
SEIHIN
100
AcDbSpline
210
0.0
220
0.0
230
1.0
 70
     8
 71
     3
 72
    18
 73
    14
 74
     0
 42
0.0000000001
 43
0.0000000001
 40
-0.781682244270268
 40
-0.781682244270268
 40
-0.781682244270268
 40
-0.781682244270268
 40
-0.7739563238049126
 40
-0.7739563238049126
 40
-0.3828690912311202
 40
-0.3828690912311202
 40
0.0082181413426721
 40
0.0082181413426721
 40
0.3993053739164643
 40
0.3993053739164643
 40
0.7903926064902565
 40
0.7903926064902565
 40
1.181479839064048
 40
1.181479839064048
 40
1.181479839064048
 40
1.181479839064048
 10
601.2985864358797
 20
365.5494703810381
 30
0.0
 10
601.3260029587883
 20
365.5736012732829
 30
0.0
 10
601.3532948467459
 20
365.5978201111174
 30
0.0
 10
602.7555791192944
 20
366.8524979045659
 30
0.0
 10
603.7971795436945
 20
368.2917175082204
 30
0.0
 10
605.102802885055
 20
371.2024871229715
 30
0.0
 10
605.3792299691313
 20
372.6707391007843
 30
0.0
 10
605.3507456611323
 20
375.4306530342164
 30
0.0
 10
605.0445097552051
 20
376.8948123738163
 30
0.0
 10
603.6772073772927
 20
379.7920096091949
 30
0.0
 10
602.6039160023001
 20
381.2194594012743
 30
0.0
 10
599.8000456127331
 20
383.6439310199161
 30
0.0
 10
598.0795598725692
 20
384.6268632561106
 30
0.0
 10
596.2777599546373
 20
385.2795375185588
 30
0.0
  0
SPLINE
  5
513
330
1A
100
AcDbEntity
  8
SEIHIN
100
AcDbSpline
210
0.0
220
0.0
230
1.0
 70
     8
 71
     3
 72
    18
 73
    14
 74
     0
 42
0.0000000001
 43
0.0000000001
 40
-0.4343516389653792
 40
-0.4343516389653792
 40
-0.4343516389653792
 40
-0.4343516389653792
 40
-0.367648071557586
 40
-0.367648071557586
 40
-0.0578224894332591
 40
-0.0578224894332591
 40
0.2520030926910679
 40
0.2520030926910679
 40
0.5618286748153949
 40
0.5618286748153949
 40
0.8716542569397219
 40
0.8716542569397219
 40
1.181479839064048
 40
1.181479839064048
 40
1.181479839064048
 40
1.181479839064048
 10
607.2633664561103
 20
367.5320325048139
 30
0.0
 10
607.4329549699178
 20
367.8563786605777
 30
0.0
 10
607.5899349211219
 20
368.1858667557332
 30
0.0
 10
608.4000888782477
 20
370.0695865414315
 30
0.0
 10
608.7762161787955
 20
371.7073520704587
 30
0.0
 10
608.926170814728
 20
374.9501511122031
 30
0.0
 10
608.6872580515241
 20
376.5945707628374
 30
0.0
 10
607.7727115746674
 20
379.4913178852669
 30
0.0
 10
607.048387992527
 20
380.94839321557
 30
0.0
 10
605.0542039092049
 20
383.6763393237912
 30
0.0
 10
603.7836802876772
 20
384.9431547131986
 30
0.0
 10
600.8494620791114
 20
387.0800550441144
 30
0.0
 10
599.1898005850218
 20
387.9472445591299
 30
0.0
 10
597.4697856079942
 20
388.5702934866821
 30
0.0
  0
ELLIPSE
  5
514
330
1A
100
AcDbEntity
  8
SEIHIN
100
AcDbEllipse
 10
590.165499600904
 20
373.9484175810547
 30
0.0
 11
24.00001599999995
 21
0.0
 31
0.0
210
0.0
220
0.0
230
0.9999999999999998
 40
0.8829474124623793
 41
-0.1190177377222571
 42
1.181479839064048
  0
SPLINE
  5
515
330
1A
100
AcDbEntity
  8
SEIHIN
100
AcDbSpline
210
0.0
220
0.0
230
1.0
 70
     8
 71
     3
 72
    32
 73
    28
 74
     0
 42
0.0000000001
 43
0.0000000001
 40
2.604678122861826
 40
2.604678122861826
 40
2.604678122861826
 40
2.604678122861826
 40
2.74857181894169
 40
2.74857181894169
 40
2.960077711248317
 40
2.960077711248317
 40
3.383089495861572
 40
3.383089495861572
 40
3.806101280474826
 40
3.806101280474826
 40
4.22911306508808
 40
4.22911306508808
 40
4.652124849701335
 40
4.652124849701335
 40
5.075136634314589
 40
5.075136634314589
 40
5.498148418927844
 40
5.498148418927844
 40
5.709654311234471
 40
5.709654311234471
 40
5.921160203541098
 40
5.921160203541098
 40
6.344171988154352
 40
6.344171988154352
 40
6.555677880460979
 40
6.555677880460979
 40
6.683168074421664
 40
6.683168074421664
 40
6.683168074421664
 40
6.683168074421664
 10
553.333130094511
 20
397.1126839847058
 30
0.0
 10
552.8700976285597
 20
396.4137181500241
 30
0.0
 10
552.4597968948085
 20
395.6732508071837
 30
0.0
 10
551.607540862602
 20
393.7736948691078
 30
0.0
 10
551.2411481879801
 20
392.581457010334
 30
0.0
 10
550.6056105309355
 20
388.9698090893984
 30
0.0
 10
550.805837796742
 20
386.593986663375
 30
0.0
 10
552.1522398187794
 20
382.281030078571
 30
0.0
 10
553.2727673686365
 20
380.3359312797173
 30
0.0
 10
556.4349908126326
 20
376.8746076189458
 30
0.0
 10
558.4322599055667
 20
375.4674292045041
 30
0.0
 10
562.722260823436
 20
373.5664860407688
 30
0.0
 10
565.0141134829136
 20
373.0707378319318
 30
0.0
 10
569.2648531855822
 20
372.8527171422587
 30
0.0
 10
571.5552071268332
 20
373.1077295279764
 30
0.0
 10
575.9748166626727
 20
374.5092167338704
 30
0.0
 10
578.1017139022944
 20
375.6631178296522
 30
0.0
 10
580.752439752865
 20
377.9187304057089
 30
0.0
 10
581.5559147431086
 20
378.7657800043336
 30
0.0
 10
582.9100126898842
 20
380.5254730502239
 30
0.0
 10
583.4701021079317
 20
381.4308116668304
 30
0.0
 10
584.921496184829
 20
384.4785443311911
 30
0.0
 10
585.4745208213767
 20
386.8129929842678
 30
0.0
 10
585.3630891951061
 20
390.5052076133151
 30
0.0
 10
585.1679393278004
 20
391.7476790943997
 30
0.0
 10
584.608681962412
 20
393.6707405236656
 30
0.0
 10
584.3423400365477
 20
394.378435507991
 30
0.0
 10
584.0277088161074
 20
395.0595196987441
 30
0.0
  0
SPLINE
  5
516
330
1A
100
AcDbEntity
  8
SEIHIN
100
AcDbSpline
210
0.0
220
0.0
230
1.0
 70
     8
 71
     3
 72
    32
 73
    28
 74
     0
 42
0.0000000001
 43
0.0000000001
 40
2.928204805051712
 40
2.928204805051712
 40
2.928204805051712
 40
2.928204805051712
 40
3.055728352127845
 40
3.055728352127845
 40
3.244063194149052
 40
3.244063194149052
 40
3.43239803617026
 40
3.43239803617026
 40
3.620732878191467
 40
3.620732878191467
 40
3.997402562233882
 40
3.997402562233882
 40
4.374072246276297
 40
4.374072246276297
 40
4.750741930318711
 40
4.750741930318711
 40
5.127411614361125
 40
5.127411614361125
 40
5.504081298403541
 40
5.504081298403541
 40
5.880750982445955
 40
5.880750982445955
 40
6.069085824467162
 40
6.069085824467162
 40
6.25742066648837
 40
6.25742066648837
 40
6.299509514831226
 40
6.299509514831226
 40
6.299509514831226
 40
6.299509514831226
 10
547.7085556855809
 20
392.6282143843783
 30
0.0
 10
547.5138485203554
 20
391.7095071692857
 30
0.0
 10
547.3920720435132
 20
390.7825194711893
 30
0.0
 10
547.262488575222
 20
388.4829553351159
 30
0.0
 10
547.3401319560028
 20
387.1084985413294
 30
0.0
 10
547.7841605933337
 20
384.4856720018658
 30
0.0
 10
548.1460309710471
 20
383.2282979602287
 30
0.0
 10
549.0772446679584
 20
380.8908678147333
 30
0.0
 10
549.6477896929782
 20
379.8112906399632
 30
0.0
 10
551.4739470197582
 20
376.9633925501129
 30
0.0
 10
553.0888921825385
 20
375.1999738822663
 30
0.0
 10
556.9621953248895
 20
372.2829815057568
 30
0.0
 10
559.2228146622489
 20
371.1324117331489
 30
0.0
 10
564.0142251934633
 20
369.6702674263874
 30
0.0
 10
566.5096921215431
 20
369.3659089635763
 30
0.0
 10
571.2968426161485
 20
369.5363049305685
 30
0.0
 10
573.5886566482797
 20
370.0073740731411
 30
0.0
 10
577.7060224976703
 20
371.4962521761696
 30
0.0
 10
579.9525647351802
 20
372.6860093044529
 30
0.0
 10
583.9414134294029
 20
375.9970697576433
 30
0.0
 10
585.6915868673245
 20
378.1088842253955
 30
0.0
 10
587.548352632742
 20
381.7937349749575
 30
0.0
 10
588.0299803189432
 20
383.0862608671239
 30
0.0
 10
588.6934948152975
 20
385.7394633990202
 30
0.0
 10
588.8727708400105
 20
387.1007922632097
 30
0.0
 10
588.9089979625935
 20
388.7235361845091
 30
0.0
 10
588.9081376563019
 20
389.0186933848013
 30
0.0
 10
588.9001086534883
 20
389.3122650391061
 30
0.0
  0
ELLIPSE
  5
517
330
1A
100
AcDbEntity
  8
SEIHIN
100
AcDbEllipse
 10
568.106867438548
 20
388.8323462951822
 30
0.0
 11
12.00003600000002
 21
0.0
 31
0.0
210
0.0
220
0.0
230
0.9999999999999998
 40
0.8829480010940217
 41
2.114054142021804
 42
6.63409035053099
  0
SPLINE
  5
518
330
1A
100
AcDbEntity
  8
SEIHIN
100
AcDbSpline
210
0.0
220
0.0
230
1.0
 70
     8
 71
     3
 72
    20
 73
    16
 74
     0
 42
0.0000000001
 43
0.0000000001
 40
-0.0661230235224046
 40
-0.0661230235224046
 40
-0.0661230235224046
 40
-0.0661230235224046
 40
0.2450077240971331
 40
0.2450077240971331
 40
0.5561384717166707
 40
0.5561384717166707
 40
0.7117038455264395
 40
0.7117038455264395
 40
0.8672692193362083
 40
0.8672692193362083
 40
1.178399966955745
 40
1.178399966955745
 40
1.489530714575283
 40
1.489530714575283
 40
1.755629303575257
 40
1.755629303575257
 40
1.755629303575257
 40
1.755629303575257
 10
620.2790644338547
 20
351.0064908320683
 30
0.0
 10
620.3670161452273
 20
352.1792075683662
 30
0.0
 10
620.2481733411036
 20
353.4009377432783
 30
0.0
 10
619.5218199511862
 20
355.8432082044498
 30
0.0
 10
618.9099335558355
 20
357.063982182632
 30
0.0
 10
617.6324648797528
 20
358.7583250529098
 30
0.0
 10
617.1489876667394
 20
359.2986678300838
 30
0.0
 10
616.0796886144278
 20
360.3122242259846
 30
0.0
 10
615.4917683122087
 20
360.7832216748361
 30
0.0
 10
613.7663032812461
 20
361.9798605809298
 30
0.0
 10
612.4077640603786
 20
362.6774315293267
 30
0.0
 10
609.4210329566396
 20
363.6961571999429
 30
0.0
 10
607.7964096860475
 20
364.0142001553792
 30
0.0
 10
604.7792364594069
 20
364.1891402591493
 30
0.0
 10
603.3905993617724
 20
364.1067234448865
 30
0.0
 10
602.0783964037654
 20
363.8870932930639
 30
0.0
  0
LINE
  5
519
330
1A
100
AcDbEntity
  8
SEIHIN
100
AcDbLine
 10
604.3000775854766
 20
350.3456903203421
 30
0.0
 11
599.2844422623552
 21
321.8894370515864
 31
0.0
  0
LINE
  5
51A
330
1A
100
AcDbEntity
  8
SEIHIN
100
AcDbLine
 10
562.1271883516961
 20
321.8894370515864
 30
0.0
 11
557.1114735512731
 21
350.3456903203421
 31
0.0
  0
LINE
  5
51B
330
1A
100
AcDbEntity
  8
SEIHIN
100
AcDbLine
 10
599.7250866504052
 20
324.3894370515864
 30
0.0
 11
561.6865369812353
 21
324.3894370515864
 31
0.0
  0
LINE
  5
51C
330
1A
100
AcDbEntity
  8
SEIHIN
100
AcDbLine
 10
599.2844422623552
 20
321.8894370515864
 30
0.0
 11
562.1271883516961
 21
321.8894370515864
 31
0.0
  0
ARC
  5
51D
330
1A
100
AcDbEntity
  8
SEIHIN
100
AcDbCircle
 10
602.047330004733
 20
364.886610616004
 30
0.0
 40
1.0
100
AcDbArc
 50
125.2089026426794
 51
286.4127040509881
  0
SPLINE
  5
51E
330
1A
100
AcDbEntity
  8
SEIHIN
100
AcDbSpline
210
0.0
220
0.0
230
1.0
 70
     8
 71
     3
 72
    18
 73
    14
 74
     0
 42
0.0000000001
 43
0.0000000001
 40
-0.0661230235224046
 40
-0.0661230235224046
 40
-0.0661230235224046
 40
-0.0661230235224046
 40
0.2490210582368142
 40
0.2490210582368142
 40
0.5641651399960331
 40
0.5641651399960331
 40
0.7217371808756425
 40
0.7217371808756425
 40
0.8793092217552517
 40
0.8793092217552517
 40
1.19445330351447
 40
1.19445330351447
 40
1.440982804538685
 40
1.440982804538685
 40
1.440982804538685
 40
1.440982804538685
 10
623.7692624721198
 20
350.7447320620316
 30
0.0
 10
623.8895882487786
 20
352.3491130330635
 30
0.0
 10
623.7208848138728
 20
354.0292649177698
 30
0.0
 10
622.7220985814153
 20
357.3322688368422
 30
0.0
 10
621.8891146921855
 20
358.9524303414272
 30
0.0
 10
620.2065778064752
 20
361.1433413473017
 30
0.0
 10
619.5764589245934
 20
361.8325820229382
 30
0.0
 10
618.200551254117
 20
363.109316663955
 30
0.0
 10
617.4522551129134
 20
363.694105849313
 30
0.0
 10
615.2753578390859
 20
365.1653229096351
 30
0.0
 10
613.5860570182199
 20
366.0012774749699
 30
0.0
 10
610.3180814547227
 20
367.0621802955833
 30
0.0
 10
608.7978665063794
 20
367.3786959213604
 30
0.0
 10
607.2633664561103
 20
367.5320325048139
 30
0.0
  0
ELLIPSE
  5
51F
330
1A
100
AcDbEntity
  8
SEIHIN
100
AcDbEllipse
 10
605.1068674385483
 20
351.748530249235
 30
0.0
 11
24.0
 21
0.0
 31
0.0
210
0.0
220
0.0
230
1.0
 40
0.8829480010939873
 41
-0.0661230235224059
 42
1.19138964084264
  0
LINE
  5
520
330
1A
100
AcDbEntity
  8
SEIHIN
100
AcDbLine
 10
629.1068674385483
 20
338.14862970661
 30
0.0
 11
613.1068674385483
 21
338.14862970661
 31
0.0
  0
LINE
  5
521
330
1A
100
AcDbEntity
  8
SEIHIN
100
AcDbLine
 10
609.9639786893687
 20
350.3456903203421
 30
0.0
 11
613.1068674385483
 21
338.14862970661
 31
0.0
  0
LINE
  5
522
330
1A
100
AcDbEntity
  8
SEIHIN
100
AcDbLine
 10
629.1068674385483
 20
351.748530249235
 30
0.0
 11
629.1068674385483
 21
338.14862970661
 31
0.0
  0
SPLINE
  5
523
330
1A
100
AcDbEntity
  8
SEIHIN
100
AcDbSpline
210
0.0
220
0.0
230
1.0
 70
     8
 71
     3
 72
    12
 73
     8
 74
     0
 42
0.0000000001
 43
0.0000000001
 40
1.864101875933553
 40
1.864101875933553
 40
1.864101875933553
 40
1.864101875933553
 40
1.929520396577524
 40
1.929520396577524
 40
2.082060508170982
 40
2.082060508170982
 40
2.172660134391893
 40
2.172660134391893
 40
2.172660134391893
 40
2.172660134391893
 10
547.7085556855806
 20
392.6282143843785
 30
0.0
 10
547.0923964570693
 20
392.4646130225048
 30
0.0
 10
546.4828234713705
 20
392.2831171804088
 30
0.0
 10
544.4830572437435
 20
391.6210774341692
 30
0.0
 10
543.1286734427408
 20
391.0623212527825
 30
0.0
 10
541.0900104470804
 20
390.0467602131967
 30
0.0
 10
540.3551305615478
 20
389.6398279043393
 30
0.0
 10
539.649681671802
 20
389.2092117338104
 30
0.0
  0
SPLINE
  5
524
330
1A
100
AcDbEntity
  8
SEIHIN
100
AcDbSpline
210
0.0
220
0.0
230
1.0
 70
     8
 71
     3
 72
    12
 73
     8
 74
     0
 42
0.0000000001
 43
0.0000000001
 40
1.659732966455346
 40
1.659732966455346
 40
1.659732966455346
 40
1.659732966455346
 40
1.776980284984064
 40
1.776980284984064
 40
1.929520396577524
 40
1.929520396577524
 40
2.023065833381
 40
2.023065833381
 40
2.023065833381
 40
2.023065833381
 10
553.336396323727
 20
397.1129325466098
 30
0.0
 10
552.07957439056
 20
397.0173443739003
 30
0.0
 10
550.819598474547
 20
396.8560719591983
 30
0.0
 10
547.9455205679994
 20
396.3316796090002
 30
0.0
 10
546.3392567471844
 20
395.9224021575011
 30
0.0
 10
543.8280061075897
 20
395.0910311136196
 30
0.0
 10
542.8921522723662
 20
394.7351502849159
 30
0.0
 10
541.98121946734
 20
394.3428388620109
 30
0.0
  0
LINE
  5
525
330
1A
100
AcDbEntity
  8
SEIHIN
100
AcDbLine
 10
559.760067438548
 20
402.3584110007745
 30
0.0
 11
561.9037186520377
 21
397.9023244678168
 31
0.0
  0
ELLIPSE
  5
526
330
1A
100
AcDbEntity
  8
SEIHIN
100
AcDbEllipse
 10
588.1068674385483
 20
396.7788783050286
 30
0.0
 11
10.0
 21
0.0
 31
0.0
210
0.0
220
0.0
230
1.0
 40
0.8829480010939846
 41
1.545561693450538
 42
3.650818376554496
  0
ELLIPSE
  5
527
330
1A
100
AcDbEntity
  8
SEIHIN
100
AcDbEllipse
 10
606.1068674385483
 20
408.257202319251
 30
0.0
 11
18.0
 21
0.0
 31
0.0
210
0.0
220
0.0
230
1.0
 40
0.8829480010939821
 41
-2.973965216045402
 42
-1.960113048628024
  0
SPLINE
  5
528
330
1A
100
AcDbEntity
  8
SEIHIN
100
AcDbSpline
210
0.0
220
0.0
230
1.0
 70
     8
 71
     3
 72
    16
 73
    12
 74
     0
 42
0.0000000001
 43
0.0000000001
 40
-2.716524130263859
 40
-2.716524130263859
 40
-2.716524130263859
 40
-2.716524130263859
 40
-2.636014493572945
 40
-2.636014493572945
 40
-2.467039132336716
 40
-2.467039132336716
 40
-2.298063771100487
 40
-2.298063771100487
 40
-2.129088409864258
 40
-2.129088409864258
 40
-1.96011304862803
 40
-1.96011304862803
 40
-1.96011304862803
 40
-1.96011304862803
 10
584.9514109147262
 20
399.3659315013545
 30
0.0
 10
585.2198656348353
 20
398.8364860995039
 30
0.0
 10
585.513025234771
 20
398.3155628336955
 30
0.0
 10
586.4951159548247
 20
396.7368913608428
 30
0.0
 10
587.264798046609
 20
395.7184807468863
 30
0.0
 10
588.9768633364981
 20
393.8281737934596
 30
0.0
 10
589.9189941943964
 20
392.956397680213
 30
0.0
 10
591.9266526804654
 20
391.3891278510829
 30
0.0
 10
592.9919214082494
 20
390.6936328767335
 30
0.0
 10
595.1918665505267
 20
389.4913606517499
 30
0.0
 10
596.326331895904
 20
388.9844925305516
 30
0.0
 10
597.4697834804067
 20
388.5702942573684
 30
0.0
  0
SPLINE
  5
529
330
1A
100
AcDbEntity
  8
SEIHIN
100
AcDbSpline
210
0.0
220
0.0
230
1.0
 70
     8
 71
     3
 72
    14
 73
    10
 74
     0
 42
0.0000000001
 43
0.0000000001
 40
2.252820353352858
 40
2.252820353352858
 40
2.252820353352858
 40
2.252820353352858
 40
2.431335895996336
 40
2.431335895996336
 40
2.874222997269234
 40
2.874222997269234
 40
3.317110098542133
 40
3.317110098542133
 40
3.739762804715681
 40
3.739762804715681
 40
3.739762804715681
 40
3.739762804715681
 10
584.9514109147267
 20
399.3659315013544
 30
0.0
 10
584.7299966044913
 20
399.2128247595337
 30
0.0
 10
584.5316637985238
 20
399.0480861082847
 30
0.0
 10
583.9402142923811
 20
398.4580531336516
 30
0.0
 10
583.6884646660035
 20
398.0196107809492
 30
0.0
 10
583.4163679833304
 20
397.2347361856443
 30
0.0
 10
583.3678757031414
 20
396.8080617143425
 30
0.0
 10
583.5105427310882
 20
395.9466496598162
 30
0.0
 10
583.6951357295502
 20
395.4951192062698
 30
0.0
 10
584.027708816118
 20
395.0595196987202
 30
0.0
  0
SPLINE
  5
52A
330
1A
100
AcDbEntity
  8
SEIHIN
100
AcDbSpline
210
0.0
220
0.0
230
1.0
 70
     8
 71
     3
 72
    10
 73
     6
 74
     0
 42
0.0000000001
 43
0.0000000001
 40
-2.291709226288132
 40
-2.291709226288132
 40
-2.291709226288132
 40
-2.291709226288132
 40
-2.129088409864258
 40
-2.129088409864258
 40
-1.96011304862803
 40
-1.96011304862803
 40
-1.96011304862803
 40
-1.96011304862803
 10
588.9001086534904
 20
389.3122650390914
 30
0.0
 10
590.0199330591727
 20
388.4493967116536
 30
0.0
 10
591.1985040224029
 20
387.6851753815903
 30
0.0
 10
593.6758405519076
 20
386.3313084854924
 30
0.0
 10
594.9716101336169
 20
385.7526708000346
 30
0.0
 10
596.2777564220389
 20
385.279538798189
 30
0.0
  0
LINE
  5
52B
330
1A
100
AcDbEntity
  8
ZUWAKU
  6
CONTINUOUS
 62
     7
100
AcDbLine
 10
342.9053637656242
 20
23.24979457661275
 30
0.0
 11
342.9053637656242
 21
16.04563753948295
 31
0.0
  0
LINE
  5
52C
330
1A
100
AcDbEntity
  8
ZUWAKU
  6
CONTINUOUS
 62
     7
100
AcDbLine
 10
339.9011424793883
 20
23.24979457661273
 30
0.0
 11
339.9011424793884
 21
16.04563753948294
 31
0.0
  0
LINE
  5
52D
330
1A
100
AcDbEntity
  8
ZUWAKU
  6
CONTINUOUS
 62
     7
100
AcDbLine
 10
338.3389482940009
 20
16.04563753948294
 30
0.0
 11
344.4675554969689
 21
16.04563753948296
 31
0.0
  0
LINE
  5
52E
330
1A
100
AcDbEntity
  8
ZUWAKU
  6
CONTINUOUS
 62
     7
100
AcDbLine
 10
338.3389482940009
 20
23.24979457661273
 30
0.0
 11
344.4675554969689
 21
23.24979457661275
 31
0.0
  0
VIEWPORT
  5
22
330
17
100
AcDbEntity
 67
     1
  8
0
100
AcDbViewport
 10
313.6808219178082
 20
148.5
 30
0.0
 40
627.3616438356165
 41
297.0
 68
     2
 69
     1
1001
ACAD
1000
MVIEW
1002
{
1070
    16
1010
0.0
1020
0.0
1030
0.0
1010
0.0
1020
0.0
1030
1.0
1040
0.0
1040
297.0
1040
313.6808219178082
1040
148.5
1040
50.0
1040
0.0
1040
0.0
1070
     0
1070
   100
1070
     1
1070
     0
1070
     0
1070
     0
1070
     0
1070
     0
1040
0.0
1040
0.0
1040
0.0
1040
1.0
1040
1.0
1040
10.0
1040
10.0
1070
     0
1002
{
1002
}
1002
}
  0
VIEWPORT
  5
64
330
17
100
AcDbEntity
 67
     1
  8
VIEWPORT
100
AcDbViewport
 10
210.0
 20
148.5
 30
0.0
 40
420.0
 41
297.0
 68
     1
 69
     2
1001
ACAD
1000
MVIEW
1002
{
1070
    16
1010
0.0
1020
0.0
1030
0.0
1010
0.0
1020
0.0
1030
1.0
1040
0.0
1040
605.8799999999998
1040
420.0
1040
297.0
1040
50.0
1040
0.0
1040
0.0
1070
     0
1070
   100
1070
     1
1070
     0
1070
     0
1070
     0
1070
     0
1070
     0
1040
0.0
1040
0.0
1040
0.0
1040
10.0
1040
10.0
1040
0.0
1040
0.0
1070
     0
1002
{
1002
}
1002
}
  0
ENDSEC
  0
SECTION
  2
OBJECTS
  0
DICTIONARY
  5
C
330
0
100
AcDbDictionary
  3
ACAD_GROUP
350
D
  3
ACAD_LAYOUT
350
578
  3
ACAD_MLINESTYLE
350
E
  3
ACAD_PLOTSETTINGS
350
579
1001
ACAD
1000
TREAT_AS_HARD
1070
     0
  0
DICTIONARY
  5
5A7
330
1A
100
AcDbDictionary
  3
ACAD_LAYOUTSELFREF
350
5B7
1001
ACAD
1000
TREAT_AS_HARD
1070
     1
  0
DICTIONARY
  5
5A5
330
17
100
AcDbDictionary
  3
ACAD_LAYOUTSELFREF
350
5B6
1001
ACAD
1000
TREAT_AS_HARD
1070
     1
  0
DICTIONARY
  5
D
102
{ACAD_REACTORS
330
C
102
}
330
C
100
AcDbDictionary
1001
ACAD
1000
TREAT_AS_HARD
1070
     0
  0
DICTIONARY
  5
578
102
{ACAD_REACTORS
330
C
102
}
330
C
100
AcDbDictionary
1001
ACAD
1000
TREAT_AS_HARD
1070
     0
  0
DICTIONARY
  5
E
102
{ACAD_REACTORS
330
C
102
}
330
C
100
AcDbDictionary
  3
STANDARD
350
13
1001
ACAD
1000
TREAT_AS_HARD
1070
     0
  0
DICTIONARY
  5
579
102
{ACAD_REACTORS
330
C
102
}
330
C
100
AcDbDictionary
1001
ACAD
1000
TREAT_AS_HARD
1070
     0
  0
XRECORD
  5
5B7
102
{ACAD_REACTORS
330
5A7
102
}
330
5A7
100
AcDbXrecord
340
1A
  0
XRECORD
  5
5B6
102
{ACAD_REACTORS
330
5A5
102
}
330
5A5
100
AcDbXrecord
340
17
  0
MLINESTYLE
  5
13
102
{ACAD_REACTORS
330
E
102
}
330
E
100
AcDbMlineStyle
  2
STANDARD
 70
     0
  3

 62
     0
 51
90.0
 52
90.0
 71
     2
 49
0.5
 62
   256
  6
BYLAYER
 49
-0.5
 62
   256
  6
BYLAYER
  0
ENDSEC
  0
EOF
