  0
SECTION
  2
HEADER
  9
$ACADVER
  1
AC1012
  9
$DWGCODEPAGE
  3
dos932
  9
$INSBASE
 10
0.0
 20
0.0
 30
0.0
  9
$EXTMIN
 10
10.05047808566086
 20
4.949376903717846
 30
-0.00000001
  9
$EXTMAX
 10
806.2246110975902
 20
563.7825862828226
 30
0.00000001
  9
$LIMMIN
 10
0.0
 20
0.0
  9
$LIMMAX
 10
840.0
 20
594.0
  9
$ORTHOMODE
 70
     0
  9
$REGENMODE
 70
     1
  9
$FILLMODE
 70
     1
  9
$QTEXTMODE
 70
     0
  9
$MIRRTEXT
 70
     1
  9
$DRAGMODE
 70
     2
  9
$LTSCALE
 40
2.0
  9
$OSMODE
 70
   319
  9
$ATTMODE
 70
     1
  9
$TEXTSIZE
 40
5.0
  9
$TRACEWID
 40
1.0
  9
$TEXTSTYLE
  7
STANDARD
  9
$CLAYER
  8
SEIHIN
  9
$CELTYPE
  6
BYLAYER
  9
$CECOLOR
 62
   256
  9
$CELTSCALE
 40
1.0
  9
$DELOBJ
 70
     1
  9
$DISPSILH
 70
     0
  9
$DIMSCALE
 40
1.0
  9
$DIMASZ
 40
7.0
  9
$DIMEXO
 40
6.0
  9
$DIMDLI
 40
14.0
  9
$DIMRND
 40
0.0
  9
$DIMDLE
 40
0.0
  9
$DIMEXE
 40
3.0
  9
$DIMTP
 40
0.0
  9
$DIMTM
 40
0.0
  9
$DIMTXT
 40
6.0
  9
$DIMCEN
 40
150.0
  9
$DIMTSZ
 40
0.0
  9
$DIMTOL
 70
     0
  9
$DIMLIM
 70
     0
  9
$DIMTIH
 70
     0
  9
$DIMTOH
 70
     0
  9
$DIMSE1
 70
     0
  9
$DIMSE2
 70
     0
  9
$DIMTAD
 70
     3
  9
$DIMZIN
 70
     0
  9
$DIMBLK
  1

  9
$DIMASO
 70
     1
  9
$DIMSHO
 70
     1
  9
$DIMPOST
  1

  9
$DIMAPOST
  1

  9
$DIMALT
 70
     0
  9
$DIMALTD
 70
     2
  9
$DIMALTF
 40
25.4
  9
$DIMLFAC
 40
1.0
  9
$DIMTOFL
 70
     1
  9
$DIMTVP
 40
0.0
  9
$DIMTIX
 70
     0
  9
$DIMSOXD
 70
     0
  9
$DIMSAH
 70
     1
  9
$DIMBLK1
  1
OPEN
  9
$DIMBLK2
  1
OPEN
  9
$DIMSTYLE
  2
STANDARD
  9
$DIMCLRD
 70
   256
  9
$DIMCLRE
 70
   256
  9
$DIMCLRT
 70
   256
  9
$DIMTFAC
 40
1.0
  9
$DIMGAP
 40
2.0
  9
$DIMJUST
 70
     0
  9
$DIMSD1
 70
     0
  9
$DIMSD2
 70
     0
  9
$DIMTOLJ
 70
     1
  9
$DIMTZIN
 70
     0
  9
$DIMALTZ
 70
     0
  9
$DIMALTTZ
 70
     0
  9
$DIMFIT
 70
     3
  9
$DIMUPT
 70
     0
  9
$DIMUNIT
 70
     2
  9
$DIMDEC
 70
     0
  9
$DIMTDEC
 70
     0
  9
$DIMALTU
 70
     2
  9
$DIMALTTD
 70
     2
  9
$DIMTXSTY
  7
STANDARD
  9
$DIMAUNIT
 70
     0
  9
$LUNITS
 70
     2
  9
$LUPREC
 70
     4
  9
$SKETCHINC
 40
1.0
  9
$FILLETRAD
 40
20.0
  9
$AUNITS
 70
     0
  9
$AUPREC
 70
     0
  9
$MENU
  1
.
  9
$ELEVATION
 40
0.0
  9
$PELEVATION
 40
0.0
  9
$THICKNESS
 40
0.0
  9
$LIMCHECK
 70
     0
  9
$BLIPMODE
 70
     0
  9
$CHAMFERA
 40
20.0
  9
$CHAMFERB
 40
20.0
  9
$CHAMFERC
 40
40.0
  9
$CHAMFERD
 40
0.0
  9
$SKPOLY
 70
     0
  9
$TDCREATE
 40
2451186.490471643
  9
$TDUPDATE
 40
2452422.708490509
  9
$TDINDWG
 40
0.0044622685
  9
$TDUSRTIMER
 40
0.0044622685
  9
$USRTIMER
 70
     1
  9
$ANGBASE
 50
0.0
  9
$ANGDIR
 70
     0
  9
$PDMODE
 70
     0
  9
$PDSIZE
 40
0.0
  9
$PLINEWID
 40
0.0
  9
$COORDS
 70
     1
  9
$SPLFRAME
 70
     0
  9
$SPLINETYPE
 70
     6
  9
$SPLINESEGS
 70
     8
  9
$ATTDIA
 70
     0
  9
$ATTREQ
 70
     1
  9
$HANDLING
 70
 10241
  9
$HANDSEED
  5
480
  9
$SURFTAB1
 70
     6
  9
$SURFTAB2
 70
     6
  9
$SURFTYPE
 70
     6
  9
$SURFU
 70
     6
  9
$SURFV
 70
     6
  9
$UCSNAME
  2

  9
$UCSORG
 10
0.0
 20
0.0
 30
0.0
  9
$UCSXDIR
 10
1.0
 20
0.0
 30
0.0
  9
$UCSYDIR
 10
0.0
 20
1.0
 30
0.0
  9
$PUCSNAME
  2

  9
$PUCSORG
 10
0.0
 20
0.0
 30
0.0
  9
$PUCSXDIR
 10
1.0
 20
0.0
 30
0.0
  9
$PUCSYDIR
 10
0.0
 20
1.0
 30
0.0
  9
$USERI1
 70
     0
  9
$USERI2
 70
     0
  9
$USERI3
 70
     0
  9
$USERI4
 70
     0
  9
$USERI5
 70
     0
  9
$USERR1
 40
0.0
  9
$USERR2
 40
0.0
  9
$USERR3
 40
0.0
  9
$USERR4
 40
0.0
  9
$USERR5
 40
0.0
  9
$WORLDVIEW
 70
     1
  9
$SHADEDGE
 70
     3
  9
$SHADEDIF
 70
    70
  9
$TILEMODE
 70
     1
  9
$MAXACTVP
 70
    16
  9
$PINSBASE
 10
0.0
 20
0.0
 30
0.0
  9
$PLIMCHECK
 70
     0
  9
$PEXTMIN
 10
0.0
 20
0.0
 30
0.0
  9
$PEXTMAX
 10
420.0
 20
297.0
 30
0.0
  9
$PLIMMIN
 10
0.0
 20
0.0
  9
$PLIMMAX
 10
420.0
 20
297.0
  9
$UNITMODE
 70
     0
  9
$VISRETAIN
 70
     0
  9
$PLINEGEN
 70
     0
  9
$PSLTSCALE
 70
     1
  9
$TREEDEPTH
 70
  3020
  9
$PICKSTYLE
 70
     1
  9
$CMLSTYLE
  2
STANDARD
  9
$CMLJUST
 70
     0
  9
$CMLSCALE
 40
1.0
  9
$SAVEIMAGES
 70
     1
  0
ENDSEC
  0
SECTION
  2
CLASSES
  0
CLASS
  1
ACDBDICTIONARYWDFLT
  2
AcDbDictionaryWithDefault
  3
AutoCAD 2000
 90
    32768
280
     0
281
     0
  0
CLASS
  1
ACDBPLACEHOLDER
  2
AcDbPlaceHolder
  3
AutoCAD 2000
 90
    32768
280
     0
281
     0
  0
CLASS
  1
LAYOUT
  2
AcDbLayout
  3
AutoCAD 2000
 90
    32768
280
     0
281
     0
  0
CLASS
  1
LONG_TRANSACTION
  2
AcDbLongTransaction
  3
AutoCAD 2000
 90
    32768
280
     0
281
     0
  0
CLASS
  1
LWPOLYLINE
  2
AcDbPolyline
  3
AutoCAD 2000
 90
    32768
280
     0
281
     1
  0
CLASS
  1
HATCH
  2
AcDbHatch
  3
AutoCAD 2000
 90
    32768
280
     0
281
     1
  0
CLASS
  1
XRECORD
  2
AcDbXrecord
  3
AutoCAD 2000
 90
    32768
280
     0
281
     0
  0
CLASS
  1
LONG_TRANSACTION
  2
AcDbLongTransaction
  3
AutoCAD 2000
 90
    32768
280
     0
281
     0
  0
CLASS
  1
LWPOLYLINE
  2
AcDbPolyline
  3
AutoCAD 2000
 90
    32768
280
     0
281
     1
  0
CLASS
  1
HATCH
  2
AcDbHatch
  3
AutoCAD 2000
 90
    32768
280
     0
281
     1
  0
CLASS
  1
XRECORD
  2
AcDbXrecord
  3
AutoCAD 2000
 90
    32768
280
     0
281
     0
  0
ENDSEC
  0
SECTION
  2
TABLES
  0
TABLE
  2
VPORT
  5
8
330
0
100
AcDbSymbolTable
 70
     2
  0
VPORT
  5
474
330
8
100
AcDbSymbolTableRecord
100
AcDbViewportTableRecord
  2
*ACTIVE
 70
     0
 10
0.0
 20
0.0
 11
1.0
 21
1.0
 12
422.3226697170473
 22
303.7474894206226
 13
0.0
 23
0.0
 14
5.0
 24
5.0
 15
0.0
 25
0.0
 16
0.0
 26
0.0
 36
1.0
 17
0.0
 27
0.0
 37
0.0
 40
624.8900646495362
 41
1.70990990990991
 42
50.0
 43
0.0
 44
0.0
 50
0.0
 51
0.0
 71
     0
 72
   100
 73
     1
 74
     0
 75
     0
 76
     0
 77
     0
 78
     0
  0
ENDTAB
  0
TABLE
  2
LTYPE
  5
5
330
0
100
AcDbSymbolTable
 70
     2
  0
LTYPE
  5
14
330
5
100
AcDbSymbolTableRecord
100
AcDbLinetypeTableRecord
  2
BYBLOCK
 70
     0
  3

 72
    65
 73
     0
 40
0.0
  0
LTYPE
  5
15
330
5
100
AcDbSymbolTableRecord
100
AcDbLinetypeTableRecord
  2
BYLAYER
 70
     0
  3

 72
    65
 73
     0
 40
0.0
  0
LTYPE
  5
16
330
5
100
AcDbSymbolTableRecord
100
AcDbLinetypeTableRecord
  2
CONTINUOUS
 70
     0
  3
Solid line
 72
    65
 73
     0
 40
0.0
  0
LTYPE
  5
135
330
5
100
AcDbSymbolTableRecord
100
AcDbLinetypeTableRecord
  2
CENTER
 70
     0
  3
____ _ ____ _ ____ _ ____ _ ____ _ ____ _ ____ 
 72
    65
 73
     4
 40
2.0
 49
1.25
 74
     0
 49
-0.25
 74
     0
 49
0.25
 74
     0
 49
-0.25
 74
     0
  0
ENDTAB
  0
TABLE
  2
LAYER
  5
2
330
0
100
AcDbSymbolTable
 70
     7
  0
LAYER
  5
F
330
2
100
AcDbSymbolTableRecord
100
AcDbLayerTableRecord
  2
0
 70
     0
 62
     7
  6
CONTINUOUS
  0
LAYER
  5
62
330
2
100
AcDbSymbolTableRecord
100
AcDbLayerTableRecord
  2
VIEWPORT
 70
     0
 62
     7
  6
CONTINUOUS
  0
LAYER
  5
65
330
2
100
AcDbSymbolTableRecord
100
AcDbLayerTableRecord
  2
ZUWAKU
 70
     0
 62
     7
  6
CONTINUOUS
  0
LAYER
  5
181
330
2
100
AcDbSymbolTableRecord
100
AcDbLayerTableRecord
  2
SEIHIN
 70
     0
 62
     3
  6
CONTINUOUS
  0
LAYER
  5
182
330
2
100
AcDbSymbolTableRecord
100
AcDbLayerTableRecord
  2
SUNPOU
 70
     0
 62
     4
  6
CONTINUOUS
  0
LAYER
  5
183
330
2
100
AcDbSymbolTableRecord
100
AcDbLayerTableRecord
  2
CENTER_L
 70
     0
 62
     1
  6
CENTER
  0
LAYER
  5
184
330
2
100
AcDbSymbolTableRecord
100
AcDbLayerTableRecord
  2
DEFPOINTS
 70
     0
 62
     7
  6
CONTINUOUS
  0
ENDTAB
  0
TABLE
  2
STYLE
  5
3
330
0
100
AcDbSymbolTable
 70
     1
  0
STYLE
  5
10
330
3
100
AcDbSymbolTableRecord
100
AcDbTextStyleTableRecord
  2
STANDARD
 70
     0
 40
0.0
 41
1.0
 50
0.0
 71
     0
 42
5.0
  3
TXT
  4
bigfont.shx
  0
ENDTAB
  0
TABLE
  2
VIEW
  5
6
330
0
100
AcDbSymbolTable
 70
     0
  0
ENDTAB
  0
TABLE
  2
UCS
  5
7
330
0
100
AcDbSymbolTable
 70
     0
  0
ENDTAB
  0
TABLE
  2
APPID
  5
9
330
0
100
AcDbSymbolTable
 70
     1
  0
APPID
  5
11
330
9
100
AcDbSymbolTableRecord
100
AcDbRegAppTableRecord
  2
ACAD
 70
     0
  0
ENDTAB
  0
TABLE
  2
DIMSTYLE
  5
A
330
0
100
AcDbSymbolTable
 70
     1
  0
DIMSTYLE
105
1D
102
{ACAD_REACTORS
330
28F
330
290
330
294
330
29F
330
2A0
102
}
330
A
100
AcDbSymbolTableRecord
100
AcDbDimStyleTableRecord
  2
STANDARD
 70
     0
  3

  4

  5

  6

  7

 40
1.0
 41
0.18
 42
0.0625
 43
0.38
 44
0.18
 45
0.0
 46
0.0
 47
0.0
 48
0.0
140
0.18
141
0.09
142
0.0
143
25.4
144
1.0
145
0.0
146
1.0
147
0.09
 71
     0
 72
     0
 73
     1
 74
     1
 75
     0
 76
     0
 77
     0
 78
     0
170
     0
171
     2
172
     0
173
     0
174
     0
175
     0
176
     0
177
     0
178
     0
270
     2
271
     4
272
     4
273
     2
274
     2
340
10
275
     0
280
     0
281
     0
282
     0
283
     1
284
     0
285
     0
286
     0
287
     3
288
     0
  0
ENDTAB
  0
TABLE
  2
BLOCK_RECORD
  5
1
330
0
100
AcDbSymbolTable
 70
     6
  0
BLOCK_RECORD
  5
1A
102
{ACAD_XDICTIONARY
360
45D
102
}
330
1
100
AcDbSymbolTableRecord
100
AcDbBlockTableRecord
  2
*MODEL_SPACE
  0
BLOCK_RECORD
  5
17
102
{ACAD_XDICTIONARY
360
45B
102
}
330
1
100
AcDbSymbolTableRecord
100
AcDbBlockTableRecord
  2
*PAPER_SPACE
  0
BLOCK_RECORD
  5
6D
330
1
100
AcDbSymbolTableRecord
100
AcDbBlockTableRecord
  2
_OPEN
  0
BLOCK_RECORD
  5
395
330
1
100
AcDbSymbolTableRecord
100
AcDbBlockTableRecord
  2
*D1
  0
BLOCK_RECORD
  5
3A1
330
1
100
AcDbSymbolTableRecord
100
AcDbBlockTableRecord
  2
*D2
  0
BLOCK_RECORD
  5
3AD
330
1
100
AcDbSymbolTableRecord
100
AcDbBlockTableRecord
  2
*D3
  0
BLOCK_RECORD
  5
3B9
330
1
100
AcDbSymbolTableRecord
100
AcDbBlockTableRecord
  2
*D4
  0
BLOCK_RECORD
  5
3C7
330
1
100
AcDbSymbolTableRecord
100
AcDbBlockTableRecord
  2
*D5
  0
ENDTAB
  0
ENDSEC
  0
SECTION
  2
BLOCKS
  0
BLOCK
  5
1B
330
1A
100
AcDbEntity
  8
0
100
AcDbBlockBegin
  2
*MODEL_SPACE
 70
     0
 10
0.0
 20
0.0
 30
0.0
  3
*MODEL_SPACE
  1

  0
ENDBLK
  5
1C
330
1A
100
AcDbEntity
  8
0
100
AcDbBlockEnd
  0
BLOCK
  5
18
330
17
100
AcDbEntity
 67
     1
  8
0
100
AcDbBlockBegin
  2
*PAPER_SPACE
 70
     0
 10
0.0
 20
0.0
 30
0.0
  3
*PAPER_SPACE
  1

  0
ENDBLK
  5
19
330
17
100
AcDbEntity
 67
     1
  8
0
100
AcDbBlockEnd
  0
BLOCK
  5
6E
330
6D
100
AcDbEntity
  8
0
100
AcDbBlockBegin
  2
_OPEN
 70
     0
 10
0.0
 20
0.0
 30
0.0
  3
_OPEN
  1

  0
LINE
  5
6F
330
6D
100
AcDbEntity
  8
0
  6
BYBLOCK
 62
     0
100
AcDbLine
 10
-1.0
 20
0.1666666666666666
 30
0.0
 11
0.0
 21
0.0
 31
0.0
  0
LINE
  5
70
330
6D
100
AcDbEntity
  8
0
  6
BYBLOCK
 62
     0
100
AcDbLine
 10
0.0
 20
0.0
 30
0.0
 11
-1.0
 21
-0.1666666666666666
 31
0.0
  0
LINE
  5
71
330
6D
100
AcDbEntity
  8
0
  6
BYBLOCK
 62
     0
100
AcDbLine
 10
0.0
 20
0.0
 30
0.0
 11
-1.0
 21
0.0
 31
0.0
  0
ENDBLK
  5
72
330
6D
100
AcDbEntity
  8
0
100
AcDbBlockEnd
  0
BLOCK
  5
3D3
330
395
100
AcDbEntity
  8
0
100
AcDbBlockBegin
  2
*D1
 70
     1
 10
0.0
 20
0.0
 30
0.0
  3
*D1
  1

  0
LINE
  5
3D4
330
395
100
AcDbEntity
  8
0
  6
BYBLOCK
 62
     4
100
AcDbLine
 10
364.2275730156706
 20
195.7977585258458
 30
0.0
 11
364.2275730156706
 21
232.0067065739128
 31
0.0
  0
LINE
  5
3D5
330
395
100
AcDbEntity
  8
0
  6
BYBLOCK
 62
     4
100
AcDbLine
 10
482.5275730156707
 20
195.7977585258458
 30
0.0
 11
482.5275730156707
 21
232.0067065739128
 31
0.0
  0
LINE
  5
3D6
330
395
100
AcDbEntity
  8
0
  6
BYBLOCK
 62
     4
100
AcDbLine
 10
371.2275730156706
 20
229.0067065739128
 30
0.0
 11
475.5275730156706
 21
229.0067065739128
 31
0.0
  0
INSERT
  5
3D7
330
395
100
AcDbEntity
  8
0
  6
BYBLOCK
 62
     4
100
AcDbBlockReference
  2
_OPEN
 10
364.2275730156706
 20
229.0067065739128
 30
0.0
 41
7.0
 42
7.0
 43
7.0
 50
180.0
  0
INSERT
  5
3D8
330
395
100
AcDbEntity
  8
0
  6
BYBLOCK
 62
     4
100
AcDbBlockReference
  2
_OPEN
 10
482.5275730156707
 20
229.0067065739128
 30
0.0
 41
7.0
 42
7.0
 43
7.0
  0
MTEXT
  5
3D9
330
395
100
AcDbEntity
  8
0
  6
BYBLOCK
 62
     4
100
AcDbMText
 10
423.3775730156707
 20
234.0067065739128
 30
0.0
 40
6.0
 41
0.0
 71
     5
 72
     1
  1
\A1;118
1001
ACAD
1000
MTEXTBEGIN
1070
    73
1070
     1
1070
    44
1040
1.0
1070
    74
1070
     0
1000
MTEXTEND
1000
MTEXTBEGIN
1070
    73
1070
     1
1070
    44
1040
1.0
1070
    74
1070
     0
1000
MTEXTEND
  0
POINT
  5
3DA
330
395
100
AcDbEntity
  8
DEFPOINTS
  6
BYBLOCK
 62
     0
100
AcDbPoint
 10
364.2275730156706
 20
189.7977585258459
 30
0.0
  0
POINT
  5
3DB
330
395
100
AcDbEntity
  8
DEFPOINTS
  6
BYBLOCK
 62
     0
100
AcDbPoint
 10
482.5275730156707
 20
189.7977585258459
 30
0.0
  0
POINT
  5
3DC
330
395
100
AcDbEntity
  8
DEFPOINTS
  6
BYBLOCK
 62
     0
100
AcDbPoint
 10
482.5275730156707
 20
229.0067065739128
 30
0.0
  0
ENDBLK
  5
3DD
330
395
100
AcDbEntity
  8
0
100
AcDbBlockEnd
  0
BLOCK
  5
3DE
330
3A1
100
AcDbEntity
  8
0
100
AcDbBlockBegin
  2
*D2
 70
     1
 10
0.0
 20
0.0
 30
0.0
  3
*D2
  1

  0
LINE
  5
3DF
330
3A1
100
AcDbEntity
  8
0
  6
BYBLOCK
 62
     4
100
AcDbLine
 10
358.2275730156706
 20
189.7977585258459
 30
0.0
 11
324.8615524811855
 21
189.7977585258459
 31
0.0
  0
LINE
  5
3E0
330
3A1
100
AcDbEntity
  8
0
  6
BYBLOCK
 62
     4
100
AcDbLine
 10
417.3775730156707
 20
135.6977585256619
 30
0.0
 11
324.8615524811855
 21
135.6977585256619
 31
0.0
  0
LINE
  5
3E1
330
3A1
100
AcDbEntity
  8
0
  6
BYBLOCK
 62
     4
100
AcDbLine
 10
327.8615524811856
 20
182.7977585258459
 30
0.0
 11
327.8615524811856
 21
142.6977585256619
 31
0.0
  0
INSERT
  5
3E2
330
3A1
100
AcDbEntity
  8
0
  6
BYBLOCK
 62
     4
100
AcDbBlockReference
  2
_OPEN
 10
327.8615524811856
 20
189.7977585258459
 30
0.0
 41
7.0
 42
7.0
 43
7.0
 50
90.0
  0
INSERT
  5
3E3
330
3A1
100
AcDbEntity
  8
0
  6
BYBLOCK
 62
     4
100
AcDbBlockReference
  2
_OPEN
 10
327.8615524811856
 20
135.6977585256619
 30
0.0
 41
7.0
 42
7.0
 43
7.0
 50
270.0
  0
MTEXT
  5
3E4
330
3A1
100
AcDbEntity
  8
0
  6
BYBLOCK
 62
     4
100
AcDbMText
 10
322.8615524811855
 20
162.7477585257539
 30
0.0
 40
6.0
 41
0.0
 71
     5
 72
     1
  1
\A1;54
 11
0.0
 21
1.0
 31
0.0
1001
ACAD
1000
MTEXTBEGIN
1070
    73
1070
     1
1070
    44
1040
1.0
1070
    74
1070
     0
1000
MTEXTEND
1000
MTEXTBEGIN
1070
    73
1070
     1
1070
    44
1040
1.0
1070
    74
1070
     0
1000
MTEXTEND
  0
POINT
  5
3E5
330
3A1
100
AcDbEntity
  8
DEFPOINTS
  6
BYBLOCK
 62
     0
100
AcDbPoint
 10
364.2275730156706
 20
189.7977585258459
 30
0.0
  0
POINT
  5
3E6
330
3A1
100
AcDbEntity
  8
DEFPOINTS
  6
BYBLOCK
 62
     0
100
AcDbPoint
 10
423.3775730156707
 20
135.6977585256619
 30
0.0
  0
POINT
  5
3E7
330
3A1
100
AcDbEntity
  8
DEFPOINTS
  6
BYBLOCK
 62
     0
100
AcDbPoint
 10
327.8615524811856
 20
135.6977585256619
 30
0.0
  0
ENDBLK
  5
3E8
330
3A1
100
AcDbEntity
  8
0
100
AcDbBlockEnd
  0
BLOCK
  5
41B
330
3AD
100
AcDbEntity
  8
0
100
AcDbBlockBegin
  2
*D3
 70
     1
 10
0.0
 20
0.0
 30
0.0
  3
*D3
  1

  0
ARC
  5
477
330
3AD
100
AcDbEntity
  8
SUNPOU
 62
     4
100
AcDbCircle
 10
418.9026752461909
 20
374.7516530130825
 30
0.0
 40
40.9803095194304
100
AcDbArc
 50
279.7987989698583
 51
336.2009399759351
  0
INSERT
  5
478
330
3AD
100
AcDbEntity
  8
SUNPOU
 62
     4
100
AcDbBlockReference
  2
_OPEN
 10
418.9026431383149
 20
333.7713434936647
 30
0.0
 41
7.0
 42
7.0
 43
7.0
 50
184.899377039445
  0
INSERT
  5
479
330
3AD
100
AcDbEntity
  8
SUNPOU
 62
     4
100
AcDbBlockReference
  2
_OPEN
 10
458.665657030805
 20
364.8374688356141
 30
0.0
 41
7.0
 42
7.0
 43
7.0
 50
71.10036190634857
  0
MTEXT
  5
47A
330
3AD
100
AcDbEntity
  8
SUNPOU
 62
     4
100
AcDbMText
 10
434.7158840576276
 20
342.4325394701662
 30
0.0
 40
6.0
 41
0.0
 71
     5
 72
     1
  1
\A1;76°
 11
0.8982444557755417
 21
0.4394961861819744
 31
0.0
  0
POINT
  5
47B
330
3AD
100
AcDbEntity
  8
DEFPOINTS
 62
     0
100
AcDbPoint
 10
450.5997084065399
 20
348.7769757842881
 30
0.0
  0
POINT
  5
47C
330
3AD
100
AcDbEntity
  8
DEFPOINTS
 62
     0
100
AcDbPoint
 10
537.2685796678391
 20
345.2392441317417
 30
0.0
  0
POINT
  5
47D
330
3AD
100
AcDbEntity
  8
DEFPOINTS
 62
     0
100
AcDbPoint
 10
418.9025796678391
 20
252.7619441317416
 30
0.0
  0
POINT
  5
47E
330
3AD
100
AcDbEntity
  8
DEFPOINTS
 62
     0
100
AcDbPoint
 10
418.902679667839
 20
380.3951441317416
 30
0.0
  0
POINT
  5
47F
330
3AD
100
AcDbEntity
  8
DEFPOINTS
 62
     0
100
AcDbPoint
 10
413.4268796678393
 20
376.1169441317418
 30
0.0
  0
ENDBLK
  5
425
330
3AD
100
AcDbEntity
  8
0
100
AcDbBlockEnd
  0
BLOCK
  5
3F4
330
3B9
100
AcDbEntity
  8
0
100
AcDbBlockBegin
  2
*D4
 70
     1
 10
0.0
 20
0.0
 30
0.0
  3
*D4
  1

  0
LINE
  5
3F5
330
3B9
100
AcDbEntity
  8
0
  6
BYBLOCK
 62
     4
100
AcDbLine
 10
381.3775730156706
 20
333.7169585258459
 30
0.0
 11
324.6145929838228
 21
333.7169585258459
 31
0.0
  0
LINE
  5
3F6
330
3B9
100
AcDbEntity
  8
0
  6
BYBLOCK
 62
     4
100
AcDbLine
 10
358.2276730156706
 20
298.7169585258459
 30
0.0
 11
324.6145929838228
 21
298.7169585258459
 31
0.0
  0
LINE
  5
3F7
330
3B9
100
AcDbEntity
  8
0
  6
BYBLOCK
 62
     4
100
AcDbLine
 10
327.6145929838229
 20
340.7169585258459
 30
0.0
 11
327.6145929838229
 21
347.7169585258459
 31
0.0
  0
LINE
  5
3F8
330
3B9
100
AcDbEntity
  8
0
  6
BYBLOCK
 62
     4
100
AcDbLine
 10
327.6145929838229
 20
291.7169585258459
 30
0.0
 11
327.6145929838229
 21
284.7169585258459
 31
0.0
  0
LINE
  5
3F9
330
3B9
100
AcDbEntity
  8
0
  6
BYBLOCK
 62
     4
100
AcDbLine
 10
327.6145929838229
 20
333.7169585258459
 30
0.0
 11
327.6145929838229
 21
298.7169585258459
 31
0.0
  0
INSERT
  5
3FA
330
3B9
100
AcDbEntity
  8
0
  6
BYBLOCK
 62
     4
100
AcDbBlockReference
  2
_OPEN
 10
327.6145929838229
 20
333.7169585258459
 30
0.0
 41
7.0
 42
7.0
 43
7.0
 50
270.0
  0
INSERT
  5
3FB
330
3B9
100
AcDbEntity
  8
0
  6
BYBLOCK
 62
     4
100
AcDbBlockReference
  2
_OPEN
 10
327.6145929838229
 20
298.7169585258459
 30
0.0
 41
7.0
 42
7.0
 43
7.0
 50
90.0
  0
MTEXT
  5
3FC
330
3B9
100
AcDbEntity
  8
0
  6
BYBLOCK
 62
     4
100
AcDbMText
 10
322.6145929838228
 20
316.2169585258459
 30
0.0
 40
6.0
 41
0.0
 71
     5
 72
     1
  1
\A1;※35
 11
0.0
 21
1.0
 31
0.0
1001
ACAD
1000
MTEXTBEGIN
1070
    73
1070
     1
1070
    44
1040
1.0
1070
    74
1070
     0
1000
MTEXTEND
1000
MTEXTBEGIN
1070
    73
1070
     1
1070
    44
1040
1.0
1070
    74
1070
     0
1000
MTEXTEND
  0
POINT
  5
3FD
330
3B9
100
AcDbEntity
  8
DEFPOINTS
  6
BYBLOCK
 62
     0
100
AcDbPoint
 10
387.3775730156706
 20
333.7169585258459
 30
0.0
  0
POINT
  5
3FE
330
3B9
100
AcDbEntity
  8
DEFPOINTS
  6
BYBLOCK
 62
     0
100
AcDbPoint
 10
364.2276730156706
 20
298.7169585258459
 30
0.0
  0
POINT
  5
3FF
330
3B9
100
AcDbEntity
  8
DEFPOINTS
  6
BYBLOCK
 62
     0
100
AcDbPoint
 10
327.6145929838229
 20
298.7169585258459
 30
0.0
  0
ENDBLK
  5
400
330
3B9
100
AcDbEntity
  8
0
100
AcDbBlockEnd
  0
BLOCK
  5
401
330
3C7
100
AcDbEntity
  8
0
100
AcDbBlockBegin
  2
*D5
 70
     1
 10
0.0
 20
0.0
 30
0.0
  3
*D5
  1

  0
LINE
  5
402
330
3C7
100
AcDbEntity
  8
0
  6
BYBLOCK
 62
     4
100
AcDbLine
 10
348.4693730156712
 20
498.7177585258455
 30
0.0
 11
305.143078109604
 21
498.7177585258455
 31
0.0
  0
LINE
  5
403
330
3C7
100
AcDbEntity
  8
0
  6
BYBLOCK
 62
     4
100
AcDbLine
 10
358.2276730156706
 20
298.7169585258459
 30
0.0
 11
305.143078109604
 21
298.7169585258459
 31
0.0
  0
LINE
  5
404
330
3C7
100
AcDbEntity
  8
0
  6
BYBLOCK
 62
     4
100
AcDbLine
 10
308.1430781096039
 20
491.7177585258455
 30
0.0
 11
308.1430781096039
 21
305.7169585258459
 31
0.0
  0
INSERT
  5
405
330
3C7
100
AcDbEntity
  8
0
  6
BYBLOCK
 62
     4
100
AcDbBlockReference
  2
_OPEN
 10
308.1430781096039
 20
498.7177585258455
 30
0.0
 41
7.0
 42
7.0
 43
7.0
 50
90.0
  0
INSERT
  5
406
330
3C7
100
AcDbEntity
  8
0
  6
BYBLOCK
 62
     4
100
AcDbBlockReference
  2
_OPEN
 10
308.1430781096039
 20
298.7169585258459
 30
0.0
 41
7.0
 42
7.0
 43
7.0
 50
270.0
  0
MTEXT
  5
407
330
3C7
100
AcDbEntity
  8
0
  6
BYBLOCK
 62
     4
100
AcDbMText
 10
303.143078109604
 20
398.7173585258457
 30
0.0
 40
6.0
 41
0.0
 71
     5
 72
     1
  1
\A1;200
 11
0.0
 21
1.0
 31
0.0
1001
ACAD
1000
MTEXTBEGIN
1070
    73
1070
     1
1070
    44
1040
1.0
1070
    74
1070
     0
1000
MTEXTEND
1000
MTEXTBEGIN
1070
    73
1070
     1
1070
    44
1040
1.0
1070
    74
1070
     0
1000
MTEXTEND
  0
POINT
  5
408
330
3C7
100
AcDbEntity
  8
DEFPOINTS
  6
BYBLOCK
 62
     0
100
AcDbPoint
 10
354.4693730156712
 20
498.7177585258455
 30
0.0
  0
POINT
  5
409
330
3C7
100
AcDbEntity
  8
DEFPOINTS
  6
BYBLOCK
 62
     0
100
AcDbPoint
 10
364.2276730156706
 20
298.7169585258459
 30
0.0
  0
POINT
  5
40A
330
3C7
100
AcDbEntity
  8
DEFPOINTS
  6
BYBLOCK
 62
     0
100
AcDbPoint
 10
308.1430781096039
 20
298.7169585258459
 30
0.0
  0
ENDBLK
  5
40B
330
3C7
100
AcDbEntity
  8
0
100
AcDbBlockEnd
  0
ENDSEC
  0
SECTION
  2
ENTITIES
  0
TEXT
  5
11A
330
1A
100
AcDbEntity
  8
ZUWAKU
 62
     7
 48
10.0
100
AcDbText
 10
795.5579444309237
 20
4.974918402528146
 30
0.0
 40
8.0
  1
A1
100
AcDbText
  0
LINE
  5
11B
330
1A
100
AcDbEntity
  8
ZUWAKU
 62
     7
 48
10.0
100
AcDbLine
 10
10.05047808566086
 20
25.78258628282265
 30
0.0
 11
806.0504780856609
 21
25.78258628282253
 31
0.0
  0
LINE
  5
11C
330
1A
100
AcDbEntity
  8
ZUWAKU
  6
CONTINUOUS
 62
     7
100
AcDbLine
 10
806.0504780856609
 20
563.7825862828226
 30
0.0
 11
10.05047808566086
 21
563.7825862828226
 31
0.0
  0
LINE
  5
11D
330
1A
100
AcDbEntity
  8
ZUWAKU
  6
CONTINUOUS
 62
     7
100
AcDbLine
 10
806.0504780856609
 20
13.78258628282265
 30
0.0
 11
10.05047808566086
 21
13.78258628282265
 31
0.0
  0
LINE
  5
11E
330
1A
100
AcDbEntity
  8
ZUWAKU
  6
CONTINUOUS
 62
     7
100
AcDbLine
 10
10.05047808566086
 20
563.7825862828226
 30
0.0
 11
10.05047808566086
 21
13.78258628282265
 31
0.0
  0
LINE
  5
11F
330
1A
100
AcDbEntity
  8
ZUWAKU
 62
     7
 48
10.0
100
AcDbLine
 10
44.55797523147839
 20
13.78258628282265
 30
0.0
 11
44.5579752314784
 21
25.78258628282265
 31
0.0
  0
TEXT
  5
120
330
1A
100
AcDbEntity
  8
ZUWAKU
 62
     7
100
AcDbText
 10
16.05676551180931
 20
15.52294263804401
 30
0.0
 40
8.0
  1
品 種
100
AcDbText
  0
LINE
  5
121
330
1A
100
AcDbEntity
  8
ZUWAKU
 62
     7
 48
10.0
100
AcDbLine
 10
276.1028387068254
 20
13.78258628282265
 30
0.0
 11
276.1028387068254
 21
25.78258628282261
 31
0.0
  0
LINE
  5
122
330
1A
100
AcDbEntity
  8
ZUWAKU
 62
     7
 48
10.0
100
AcDbLine
 10
209.5138526425484
 20
13.78258628282265
 30
0.0
 11
209.5138526425485
 21
25.78258628282263
 31
0.0
  0
TEXT
  5
124
330
1A
100
AcDbEntity
  8
ZUWAKU
 62
     7
100
AcDbText
 10
215.4560837190756
 20
16.18358115302453
 30
0.0
 40
8.0
  1
品名・ｻ ｲ ｽﾞ
100
AcDbText
  0
LINE
  5
126
330
1A
100
AcDbEntity
  8
ZUWAKU
 62
     7
 48
10.0
100
AcDbLine
 10
768.7231079932794
 20
13.78258628282237
 30
0.0
 11
768.7231079932794
 21
25.78258628282254
 31
0.0
  0
LINE
  5
127
330
1A
100
AcDbEntity
  8
ZUWAKU
 62
     7
 48
10.0
100
AcDbLine
 10
733.8119002376948
 20
13.78258628282242
 30
0.0
 11
733.8119002376946
 21
25.78258628282254
 31
0.0
  0
TEXT
  5
128
330
1A
100
AcDbEntity
  8
ZUWAKU
 62
     7
100
AcDbText
 10
739.6955629973526
 20
15.24227755810852
 30
0.0
 40
8.0
  1
尺 度
100
AcDbText
  0
TEXT
  5
129
330
1A
100
AcDbEntity
  8
ZUWAKU
 62
     7
100
AcDbText
 10
779.7374630323229
 20
15.55488920081529
 30
0.0
 40
8.0
  1
1/2
100
AcDbText
  0
TEXT
  5
12B
330
1A
100
AcDbEntity
  8
ZUWAKU
 62
     7
100
AcDbText
 10
620.3363288383084
 20
15.6519090944263
 30
0.0
 40
8.0
  1
品 番
100
AcDbText
  0
LINE
  5
12C
330
1A
100
AcDbEntity
  8
ZUWAKU
 62
     7
 48
10.0
100
AcDbLine
 10
614.3351028194128
 20
13.78258628282232
 30
0.0
 11
614.3351028194128
 21
25.78258628282256
 31
0.0
  0
LINE
  5
12D
330
1A
100
AcDbEntity
  8
ZUWAKU
 62
     7
 48
10.0
100
AcDbLine
 10
648.7607587371021
 20
13.78258628282232
 30
0.0
 11
648.7607587371021
 21
25.78258628282255
 31
0.0
  0
TEXT
  5
12E
330
1A
100
AcDbEntity
  8
ZUWAKU
 62
     7
 48
10.0
100
AcDbText
 10
646.2758615931216
 20
4.949376903717848
 30
0.0
 40
8.0
  1
積水化学工業株式会社  建材
100
AcDbText
  0
LINE
  5
12F
330
1A
100
AcDbEntity
  8
ZUWAKU
  6
CONTINUOUS
 62
     7
100
AcDbLine
 10
806.0504780856609
 20
563.7825862828226
 30
0.0
 11
806.0504780856609
 21
13.78258628282265
 31
0.0
  0
DIMENSION
  5
28F
330
1A
100
AcDbEntity
  8
SUNPOU
100
AcDbDimension
  2
*D1
 10
478.0525796678391
 20
193.2389921798084
 30
0.0
 11
418.9025796678391
 21
198.2389921798084
 31
0.0
 12
-4.474993347831514
 22
-35.76771439410435
 32
0.0
 70
    32
  3
STANDARD
100
AcDbAlignedDimension
 13
359.7525796678391
 23
154.0300441317415
 33
0.0
 14
478.0525796678391
 24
154.0300441317415
 34
0.0
100
AcDbRotatedDimension
1001
ACAD
1000
DSTYLE
1002
{
1070
   140
1040
6.0
1070
    74
1070
     0
1070
   172
1070
     1
1070
    73
1070
     0
1070
   272
1070
     2
1070
    77
1070
     3
1070
   173
1070
     1
1070
   147
1040
2.0
1070
    42
1040
6.0
1070
    44
1040
3.0
1070
    43
1040
14.0
1070
   271
1070
     0
1070
   178
1070
     4
1070
   177
1070
     4
1070
   176
1070
     4
1070
   141
1040
150.0
1070
     7
1000
_OPEN
1070
     6
1000
_OPEN
1070
    41
1040
7.0
1002
}
  0
DIMENSION
  5
290
330
1A
100
AcDbEntity
  8
SUNPOU
100
AcDbDimension
  2
*D2
 10
323.386559133354
 20
99.93004413155757
 30
0.0
 11
318.386559133354
 21
126.9800441316495
 31
0.0
 12
-4.474993347831514
 22
-35.76771439410435
 32
0.0
 70
    32
  3
STANDARD
100
AcDbAlignedDimension
 13
359.7525796678391
 23
154.0300441317415
 33
0.0
 14
418.9025796678392
 24
99.93004413155757
 34
0.0
 50
90.0
100
AcDbRotatedDimension
1001
ACAD
1000
DSTYLE
1002
{
1070
   140
1040
6.0
1070
    74
1070
     0
1070
   172
1070
     1
1070
    73
1070
     0
1070
   272
1070
     2
1070
    77
1070
     3
1070
   173
1070
     1
1070
   147
1040
2.0
1070
    42
1040
6.0
1070
    44
1040
3.0
1070
    43
1040
14.0
1070
   271
1070
     0
1070
   178
1070
     4
1070
   177
1070
     4
1070
   176
1070
     4
1070
   141
1040
150.0
1070
     7
1000
_OPEN
1070
     6
1000
_OPEN
1070
    41
1040
7.0
1002
}
  0
ARC
  5
291
330
1A
100
AcDbEntity
  8
SEIHIN
  6
CONTINUOUS
 62
     3
 48
16.0
100
AcDbCircle
 10
418.902625883771
 20
152.2300216252895
 30
0.0
 40
51.59997749375237
100
AcDbArc
 50
193.7474262707936
 51
346.2525699328228
  0
ARC
  5
292
330
1A
100
AcDbEntity
  8
SEIHIN
  6
CONTINUOUS
 62
     3
 48
16.0
100
AcDbCircle
 10
418.9025731430444
 20
152.2300563261872
 30
0.0
 40
50.30001219444618
100
AcDbArc
 50
191.8014823565485
 51
348.1892261694702
  0
ARC
  5
293
330
1A
100
AcDbEntity
  8
SEIHIN
  6
CONTINUOUS
 62
     3
 48
16.0
100
AcDbCircle
 10
418.902625883771
 20
152.2300216252895
 30
0.0
 40
52.29997749375237
100
AcDbArc
 50
193.5634039514932
 51
346.4364594024796
  0
DIMENSION
  5
294
330
1A
100
AcDbEntity
  8
SUNPOU
100
AcDbDimension
  2
*D3
 10
413.4268796678393
 20
376.1169441317418
 30
0.0
 11
434.7158840576276
 21
342.4325394701662
 31
0.0
 70
    34
  3
STANDARD
100
AcDb2LineAngularDimension
 13
418.9025796678391
 23
252.7619441317415
 33
0.0
 14
418.9026796678391
 24
380.3951441317416
 34
0.0
 15
537.2685796678391
 25
345.2392441317416
 35
0.0
 16
450.5997084065399
 26
348.7769757842881
 36
0.0
1001
ACAD
1000
DSTYLE
1002
{
1070
   271
1070
     0
1070
   271
1070
     0
1070
   140
1040
6.0
1070
    74
1070
     0
1070
   172
1070
     1
1070
    73
1070
     0
1070
   272
1070
     2
1070
    77
1070
     3
1070
   173
1070
     1
1070
   280
1070
     2
1070
   147
1040
2.0
1070
    42
1040
6.0
1070
    44
1040
3.0
1070
    43
1040
14.0
1070
   271
1070
     0
1070
   178
1070
     4
1070
   177
1070
     4
1070
   176
1070
     4
1070
   141
1040
150.0
1070
     7
1000
_OPEN
1070
     6
1000
_OPEN
1070
    41
1040
7.0
1002
}
  0
LINE
  5
295
330
1A
100
AcDbEntity
  8
SEIHIN
  6
CONTINUOUS
 62
     3
 48
16.0
100
AcDbLine
 10
413.9025796678391
 20
297.9492441317415
 30
0.0
 11
418.9025796678391
 21
297.9492441317415
 31
0.0
  0
LINE
  5
296
330
1A
100
AcDbEntity
  8
SEIHIN
  6
CONTINUOUS
 62
     3
 48
16.0
100
AcDbLine
 10
359.7526796678391
 20
262.9492441317415
 30
0.0
 11
418.9025796678391
 21
262.9492441317415
 31
0.0
  0
ARC
  5
297
330
1A
100
AcDbEntity
  8
SEIHIN
  6
CONTINUOUS
 62
     3
 48
16.0
100
AcDbCircle
 10
415.9025808382688
 20
106.0273417713706
 30
0.0
 40
2.000001170431076
100
AcDbArc
 50
179.999932380393
 51
266.2845987993855
  0
LINE
  5
298
330
1A
100
AcDbEntity
  8
SEIHIN
  6
CONTINUOUS
 62
     3
 48
16.0
100
AcDbLine
 10
361.6518796678391
 20
448.0295441317415
 30
0.0
 11
468.2092796678391
 21
311.6417441317415
 31
0.0
  0
ARC
  5
299
330
1A
100
AcDbEntity
  8
SEIHIN
  6
CONTINUOUS
 62
     3
 48
16.0
100
AcDbCircle
 10
846.4318798897695
 20
1771.986269171834
 30
0.0
 40
1402.009398365552
100
AcDbArc
 50
249.3657809301942
 51
255.9996955322187
  0
ARC
  5
29A
330
1A
100
AcDbEntity
  8
SEIHIN
  6
CONTINUOUS
 62
     3
 48
16.0
100
AcDbCircle
 10
509.0690266308413
 20
913.1025580264537
 30
0.0
 40
760.006439905093
100
AcDbArc
 50
257.9181961627822
 51
267.1591194899159
  0
ARC
  5
29B
330
1A
100
AcDbEntity
  8
SEIHIN
  6
CONTINUOUS
 62
     3
 48
16.0
100
AcDbCircle
 10
846.4231624181602
 20
1771.962000444838
 30
0.0
 40
1409.893834638679
100
AcDbArc
 50
249.8891898620777
 51
254.170749066989
  0
ARC
  5
29C
330
1A
100
AcDbEntity
  8
SEIHIN
  6
CONTINUOUS
 62
     3
 48
16.0
100
AcDbCircle
 10
846.4372345510323
 20
1771.999030834861
 30
0.0
 40
1400.023127577912
100
AcDbArc
 50
249.231302694042
 51
255.9996328013085
  0
ARC
  5
29D
330
1A
100
AcDbEntity
  8
SEIHIN
  6
CONTINUOUS
 62
     3
 48
16.0
100
AcDbCircle
 10
509.0693495500899
 20
913.0976953136055
 30
0.0
 40
771.3015497986551
100
AcDbArc
 50
260.1790786637493
 51
265.1962414083734
  0
LINE
  5
29E
330
1A
100
AcDbEntity
  8
CENTER_L
  6
CENTER
 62
     1
 48
5.0
100
AcDbLine
 10
537.268579667839
 20
345.2392441317415
 30
0.0
 11
413.4268796678391
 21
376.1169441317415
 31
0.0
  0
DIMENSION
  5
29F
330
1A
100
AcDbEntity
  8
SUNPOU
100
AcDbDimension
  2
*D4
 10
323.1395996359913
 20
262.9492441317415
 30
0.0
 11
318.1395996359913
 21
280.4492441317415
 31
0.0
 12
-4.474993347831514
 22
-35.76771439410435
 32
0.0
 70
    32
  1
※<>
  3
STANDARD
100
AcDbAlignedDimension
 13
382.9025796678391
 23
297.9492441317415
 33
0.0
 14
359.7526796678391
 24
262.9492441317415
 34
0.0
 50
90.0
100
AcDbRotatedDimension
1001
ACAD
1000
DSTYLE
1002
{
1070
   140
1040
6.0
1070
    74
1070
     0
1070
   172
1070
     1
1070
    73
1070
     0
1070
   272
1070
     2
1070
    77
1070
     3
1070
   173
1070
     1
1070
   147
1040
2.0
1070
    42
1040
6.0
1070
    44
1040
3.0
1070
    43
1040
14.0
1070
   271
1070
     0
1070
   178
1070
     4
1070
   177
1070
     4
1070
   176
1070
     4
1070
   141
1040
150.0
1070
     7
1000
_OPEN
1070
     6
1000
_OPEN
1070
    41
1040
7.0
1002
}
  0
DIMENSION
  5
2A0
330
1A
100
AcDbEntity
  8
SUNPOU
100
AcDbDimension
  2
*D5
 10
303.6680847617724
 20
262.9492441317415
 30
0.0
 11
298.6680847617725
 21
362.9496441317413
 31
0.0
 12
-4.474993347831514
 22
-35.76771439410435
 32
0.0
 70
    32
  3
STANDARD
100
AcDbAlignedDimension
 13
349.9943796678397
 23
462.9500441317411
 33
0.0
 14
359.7526796678391
 24
262.9492441317415
 34
0.0
 50
90.0
100
AcDbRotatedDimension
1001
ACAD
1000
DSTYLE
1002
{
1070
   140
1040
6.0
1070
    74
1070
     0
1070
   172
1070
     1
1070
    73
1070
     0
1070
   272
1070
     2
1070
    77
1070
     3
1070
   173
1070
     1
1070
   147
1040
2.0
1070
    42
1040
6.0
1070
    44
1040
3.0
1070
    43
1040
14.0
1070
   271
1070
     0
1070
   178
1070
     4
1070
   177
1070
     4
1070
   176
1070
     4
1070
   141
1040
150.0
1070
     7
1000
_OPEN
1070
     6
1000
_OPEN
1070
    41
1040
7.0
1002
}
  0
LINE
  5
2A1
330
1A
100
AcDbEntity
  8
SEIHIN
  6
CONTINUOUS
 62
     3
 48
16.0
100
AcDbLine
 10
382.9026796678391
 20
297.9492441317415
 30
0.0
 11
382.4975796678391
 21
289.8493441317415
 31
0.0
  0
LINE
  5
2A2
330
1A
100
AcDbEntity
  8
SEIHIN
  6
CONTINUOUS
 62
     3
 48
16.0
100
AcDbLine
 10
388.9026796678391
 20
297.9491441317415
 30
0.0
 11
389.3075796678391
 21
289.8493441317415
 31
0.0
  0
LINE
  5
2A3
330
1A
100
AcDbEntity
  8
SEIHIN
  6
CONTINUOUS
 62
     3
 48
16.0
100
AcDbLine
 10
413.9026796678392
 20
297.9492441317415
 30
0.0
 11
413.4975796678391
 21
289.8493441317415
 31
0.0
  0
LINE
  5
2A4
330
1A
100
AcDbEntity
  8
SEIHIN
  6
CONTINUOUS
 62
     3
 48
16.0
100
AcDbLine
 10
359.7526796678391
 20
262.9492441317415
 30
0.0
 11
359.7526796678391
 21
297.9483441317416
 31
0.0
  0
TEXT
  5
2A5
330
1A
100
AcDbEntity
  8
ZUWAKU
 62
     7
100
AcDbText
 10
50.3519382305086
 20
16.10306189639755
 30
0.0
 40
8.0
  1
丸トップ　のきとい
100
AcDbText
  0
LINE
  5
2A7
330
1A
100
AcDbEntity
  8
SEIHIN
  6
CONTINUOUS
 62
     3
 48
16.0
100
AcDbLine
 10
413.9025796678391
 20
106.3014441317415
 30
0.0
 11
413.9025796678391
 21
106.0273441317415
 31
0.0
  0
ARC
  5
2A8
330
1A
100
AcDbEntity
  8
SEIHIN
  6
CONTINUOUS
 62
     3
 48
16.0
100
AcDbCircle
 10
411.9081819625137
 20
106.4614469173129
 30
0.0
 40
2.000050304657878
100
AcDbArc
 50
261.3123732161486
 51
353.7856310996711
  0
ARC
  5
2A9
330
1A
100
AcDbEntity
  8
SEIHIN
  6
CONTINUOUS
 62
     3
 48
16.0
100
AcDbCircle
 10
411.9081819625137
 20
106.4614469173129
 30
0.0
 40
2.000050304657878
100
AcDbArc
 50
261.3123732161486
 51
353.7856310996711
  0
ARC
  5
2AA
330
1A
100
AcDbEntity
  8
SEIHIN
  6
CONTINUOUS
 62
     3
 48
16.0
100
AcDbCircle
 10
418.9026890839279
 20
152.2300772810927
 30
0.0
 40
48.3000724872323
100
AcDbArc
 50
231.9829639828127
 51
261.3110393355431
  0
ARC
  5
2AB
330
1A
100
AcDbEntity
  8
SEIHIN
  6
CONTINUOUS
 62
     3
 48
16.0
100
AcDbCircle
 10
418.9024738679347
 20
152.22997600152
 30
0.0
 40
46.19988075445009
100
AcDbArc
 50
229.5073847687962
 51
263.7871049582252
  0
TEXT
  5
2AC
330
1A
100
AcDbEntity
  8
ZUWAKU
 62
     7
100
AcDbText
 10
282.3131429914078
 20
15.64241700452384
 30
0.0
 40
8.0
  1
テリ曲り　１０５－７６°
100
AcDbText
  0
LINE
  5
2B0
330
1A
100
AcDbEntity
  8
SEIHIN
  6
CONTINUOUS
 62
     3
 48
16.0
100
AcDbLine
 10
360.5138796678391
 20
144.2254441317415
 30
0.0
 11
349.9948796678391
 21
161.3659441317415
 31
0.0
  0
LINE
  5
2B1
330
1A
100
AcDbEntity
  8
SEIHIN
  6
CONTINUOUS
 62
     3
 48
16.0
100
AcDbLine
 10
359.7525796678391
 20
154.0300441317415
 30
0.0
 11
349.9948796678391
 21
169.9301441317415
 31
0.0
  0
LINE
  5
2B2
330
1A
100
AcDbEntity
  8
SEIHIN
  6
CONTINUOUS
 62
     3
 48
16.0
100
AcDbLine
 10
349.9948796678391
 20
169.9301441317415
 30
0.0
 11
349.9948796678391
 21
161.3659441317415
 31
0.0
  0
ARC
  5
2B3
330
1A
100
AcDbEntity
  8
SEIHIN
  6
CONTINUOUS
 62
     3
 48
16.0
100
AcDbCircle
 10
369.6120074176673
 20
152.0300836794
 30
0.0
 40
1.000024810484581
100
AcDbArc
 50
235.3881721439884
 51
55.16897830174295
  0
ARC
  5
2B4
330
1A
100
AcDbEntity
  8
SEIHIN
  6
CONTINUOUS
 62
     3
 48
16.0
100
AcDbCircle
 10
370.6674895083872
 20
149.3530328314706
 30
0.0
 40
3.499990159470196
100
AcDbArc
 50
0.0001849884719591
 51
97.35256782769276
  0
LINE
  5
2B5
330
1A
100
AcDbEntity
  8
SEIHIN
  6
CONTINUOUS
 62
     3
 48
16.0
100
AcDbLine
 10
375.8669796678391
 20
139.0300441317415
 30
0.0
 11
375.9935796678391
 21
153.0390441317415
 31
0.0
  0
LINE
  5
2B6
330
1A
100
AcDbEntity
  8
SEIHIN
  6
CONTINUOUS
 62
     3
 48
16.0
100
AcDbLine
 10
377.5026796678391
 20
154.0300441317415
 30
0.0
 11
377.6870796678391
 21
131.3560441317415
 31
0.0
  0
LINE
  5
2B7
330
1A
100
AcDbEntity
  8
SEIHIN
  6
CONTINUOUS
 62
     3
 48
16.0
100
AcDbLine
 10
359.7525796678391
 20
147.3800441317415
 30
0.0
 11
359.7525796678391
 21
154.0300441317415
 31
0.0
  0
LINE
  5
2B8
330
1A
100
AcDbEntity
  8
SEIHIN
  6
CONTINUOUS
 62
     3
 48
16.0
100
AcDbLine
 10
361.7525796678391
 20
152.1340441317415
 30
0.0
 11
361.7525796678391
 21
154.0300441317415
 31
0.0
  0
ARC
  5
2B9
330
1A
100
AcDbEntity
  8
SEIHIN
  6
CONTINUOUS
 62
     3
 48
16.0
100
AcDbCircle
 10
366.4025729789739
 20
147.3800431167227
 30
0.0
 40
4.64999331113486
100
AcDbArc
 50
55.38746874963291
 51
179.999987493253
  0
ARC
  5
2BA
330
1A
100
AcDbEntity
  8
SEIHIN
  6
CONTINUOUS
 62
     3
 48
16.0
100
AcDbCircle
 10
366.4025776153744
 20
147.3800461931101
 30
0.0
 40
6.64999794753561
100
AcDbArc
 50
55.38699547526611
 51
180.0000177605655
  0
ARC
  5
2BB
330
1A
100
AcDbEntity
  8
SEIHIN
  6
CONTINUOUS
 62
     3
 48
16.0
100
AcDbCircle
 10
418.9027067622257
 20
152.2300229130979
 30
0.0
 40
46.20006791820595
100
AcDbArc
 50
194.4665764021859
 51
218.8105672876191
  0
ARC
  5
2BC
330
1A
100
AcDbEntity
  8
SEIHIN
  6
CONTINUOUS
 62
     3
 48
16.0
100
AcDbCircle
 10
381.6048250202953
 20
124.7970502007865
 30
0.0
 40
2.000007182590808
100
AcDbArc
 50
216.3346817022957
 51
308.8125920039031
  0
ARC
  5
2BD
330
1A
100
AcDbEntity
  8
SEIHIN
  6
CONTINUOUS
 62
     3
 48
16.0
100
AcDbCircle
 10
384.9025997696485
 20
120.8024940102707
 30
0.0
 40
2.000020102437388
100
AcDbArc
 50
179.9985641400631
 51
222.7474541849787
  0
ARC
  5
2BE
330
1A
100
AcDbEntity
  8
SEIHIN
  6
CONTINUOUS
 62
     3
 48
16.0
100
AcDbCircle
 10
418.902646869169
 20
152.2300023132443
 30
0.0
 40
48.2999951922437
100
AcDbArc
 50
196.8137843647776
 51
216.3347807136431
  0
LINE
  5
2BF
330
1A
100
AcDbEntity
  8
SEIHIN
  6
CONTINUOUS
 62
     3
 48
16.0
100
AcDbLine
 10
366.4025796678391
 20
140.7300441317415
 30
0.0
 11
367.8094933217129
 21
140.7300441317415
 31
0.0
  0
LINE
  5
2C0
330
1A
100
AcDbEntity
  8
SEIHIN
  6
CONTINUOUS
 62
     3
 48
16.0
100
AcDbLine
 10
366.4025796678391
 20
142.7300441317415
 30
0.0
 11
372.6674796678391
 21
142.7300441317415
 31
0.0
  0
LINE
  5
2C1
330
1A
100
AcDbEntity
  8
SEIHIN
  6
CONTINUOUS
 62
     3
 48
16.0
100
AcDbLine
 10
367.5108796678391
 20
145.9841441317415
 30
0.0
 11
364.1557796678391
 21
151.4512441317415
 31
0.0
  0
ARC
  5
2C2
330
1A
100
AcDbEntity
  8
SEIHIN
  6
CONTINUOUS
 62
     3
 48
16.0
100
AcDbCircle
 10
366.4025746997891
 20
147.3800391636915
 30
0.0
 40
6.649995031951904
100
AcDbArc
 50
179.9999571957132
 51
270.0000428042871
  0
ARC
  5
2C3
330
1A
100
AcDbEntity
  8
SEIHIN
  6
CONTINUOUS
 62
     3
 48
16.0
100
AcDbCircle
 10
366.4025761939395
 20
147.3800406578419
 30
0.0
 40
4.649996526101713
100
AcDbArc
 50
179.9999571957131
 51
270.0000428042871
  0
LINE
  5
2C4
330
1A
100
AcDbEntity
  8
SEIHIN
  6
CONTINUOUS
 62
     3
 48
16.0
100
AcDbLine
 10
372.6674796678391
 20
138.2585441317415
 30
0.0
 11
372.6674796678391
 21
149.3530441317415
 31
0.0
  0
LINE
  5
2C5
330
1A
100
AcDbEntity
  8
SEIHIN
  6
CONTINUOUS
 62
     3
 48
16.0
100
AcDbLine
 10
374.1674796678391
 20
140.6884441317415
 30
0.0
 11
374.1674796678391
 21
149.3530441317415
 31
0.0
  0
ARC
  5
2C6
330
1A
100
AcDbEntity
  8
SEIHIN
  6
CONTINUOUS
 62
     3
 48
16.0
100
AcDbCircle
 10
367.8094933217129
 20
139.7300441317415
 30
0.0
 40
1.0
100
AcDbArc
 50
13.74742627079484
 51
90.0
  0
ARC
  5
2C7
330
1A
100
AcDbEntity
  8
SEIHIN
  6
CONTINUOUS
 62
     3
 48
16.0
100
AcDbCircle
 10
367.0891318547509
 20
139.7300441317415
 30
0.0
 40
1.0
100
AcDbArc
 50
13.56340395149333
 51
90.0
  0
LINE
  5
2C8
330
1A
100
AcDbEntity
  8
SEIHIN
  6
CONTINUOUS
 62
     3
 48
16.0
100
AcDbLine
 10
374.6284796678391
 20
139.0300441317415
 30
0.0
 11
375.8669796678391
 21
139.0300441317415
 31
0.0
  0
ARC
  5
2C9
330
1A
100
AcDbEntity
  8
SEIHIN
  6
CONTINUOUS
 62
     3
 48
16.0
100
AcDbCircle
 10
369.6014107030642
 20
145.0300350108579
 30
0.0
 40
4.000009121004024
100
AcDbArc
 50
39.95799391943401
 51
90.00044454583882
  0
LINE
  5
2CA
330
1A
100
AcDbEntity
  8
SEIHIN
  6
CONTINUOUS
 62
     3
 48
16.0
100
AcDbLine
 10
367.7525796678391
 20
149.0300441317415
 30
0.0
 11
369.6013796678391
 21
149.0300441317415
 31
0.0
  0
LINE
  5
2CB
330
1A
100
AcDbEntity
  8
SEIHIN
  6
CONTINUOUS
 62
     3
 48
16.0
100
AcDbLine
 10
367.2525796678391
 20
142.7300441317415
 30
0.0
 11
367.7525796678391
 21
149.0300441317415
 31
0.0
  0
ARC
  5
2CC
330
1A
100
AcDbEntity
  8
SEIHIN
  6
CONTINUOUS
 62
     3
 48
16.0
100
AcDbCircle
 10
368.6886649488489
 20
141.7300564894082
 30
0.0
 40
0.9999876424416562
100
AcDbArc
 50
11.81136260658115
 51
89.9991566535578
  0
ARC
  5
2CD
330
1A
100
AcDbEntity
  8
SEIHIN
  6
CONTINUOUS
 62
     3
 48
16.0
100
AcDbCircle
 10
370.667485776873
 20
149.3530370709181
 30
0.0
 40
1.999993890978587
100
AcDbArc
 50
0.0002022783075972
 51
100.0497712729512
  0
ARC
  5
2CE
330
1A
100
AcDbEntity
  8
SEIHIN
  6
CONTINUOUS
 62
     3
 48
16.0
100
AcDbCircle
 10
418.9033691503754
 20
152.2296132033775
 30
0.0
 40
48.30023450631091
100
AcDbArc
 50
222.7473085669945
 51
227.0304714936761
  0
ARC
  5
2CF
330
1A
100
AcDbEntity
  8
SEIHIN
  6
CONTINUOUS
 62
     3
 48
16.0
100
AcDbCircle
 10
387.3447633273701
 20
118.3509409595908
 30
0.0
 40
1.999949990717637
100
AcDbArc
 50
227.0305056482715
 51
319.5062836016006
  0
LINE
  5
2D0
330
1A
100
AcDbEntity
  8
SEIHIN
  6
CONTINUOUS
 62
     3
 48
16.0
100
AcDbLine
 10
388.8656796678391
 20
117.0522441317415
 30
0.0
 11
388.9025796678391
 21
117.0954441317415
 31
0.0
  0
ARC
  5
2D1
330
1A
100
AcDbEntity
  8
SEIHIN
  6
CONTINUOUS
 62
     3
 48
16.0
100
AcDbCircle
 10
390.3866757306976
 20
115.7535813256247
 30
0.0
 40
1.999988526772563
100
AcDbArc
 50
139.5085078838758
 51
231.9825411760126
  0
LINE
  5
2D2
330
1A
100
AcDbEntity
  8
SEIHIN
  6
CONTINUOUS
 62
     3
 48
16.0
100
AcDbLine
 10
382.9025796678391
 20
123.2742441317415
 30
0.0
 11
382.8583796678391
 21
123.2386441317415
 31
0.0
  0
LINE
  5
2D3
330
1A
100
AcDbEntity
  8
SEIHIN
  6
CONTINUOUS
 62
     3
 48
16.0
100
AcDbLine
 10
382.9025796678391
 20
120.8025441317415
 30
0.0
 11
382.9025796678391
 21
123.2742441317415
 31
0.0
  0
LINE
  5
2D4
330
1A
100
AcDbEntity
  8
SEIHIN
  6
CONTINUOUS
 62
     3
 48
16.0
100
AcDbLine
 10
413.9025796678391
 20
106.3014441317415
 30
0.0
 11
413.8964796678391
 21
106.2449441317415
 31
0.0
  0
ARC
  5
2D5
330
1A
100
AcDbEntity
  8
SEIHIN
  6
CONTINUOUS
 62
     3
 48
16.0
100
AcDbCircle
 10
509.0520795521897
 20
913.0409782039473
 30
0.0
 40
771.2427385405072
100
AcDbArc
 50
258.8856130549027
 51
260.0693333335938
  0
LINE
  5
2D6
330
1A
100
AcDbEntity
  8
SEIHIN
  6
CONTINUOUS
 62
     3
 48
16.0
100
AcDbLine
 10
361.7525796678391
 20
154.0300441317415
 30
0.0
 11
352.2946796678391
 21
169.4416441317415
 31
0.0
  0
LINE
  5
2D7
330
1A
100
AcDbEntity
  8
SEIHIN
  6
CONTINUOUS
 62
     3
 48
16.0
100
AcDbLine
 10
363.1088796678391
 20
153.1570441317415
 30
0.0
 11
361.3147796678391
 21
156.0805441317415
 31
0.0
  0
LINE
  5
2D8
330
1A
100
AcDbEntity
  8
SEIHIN
  6
CONTINUOUS
 62
     3
 48
16.0
100
AcDbLine
 10
361.7525796678391
 20
154.0300441317415
 30
0.0
 11
359.7525796678391
 21
154.0300441317415
 31
0.0
  0
LINE
  5
2D9
330
1A
100
AcDbEntity
  8
SEIHIN
  6
CONTINUOUS
 62
     3
 48
16.0
100
AcDbLine
 10
376.9935796678391
 20
154.0300441317415
 30
0.0
 11
377.5026796678391
 21
154.0300441317415
 31
0.0
  0
ARC
  5
2DA
330
1A
100
AcDbEntity
  8
SEIHIN
  6
CONTINUOUS
 62
     3
 48
16.0
100
AcDbCircle
 10
376.9935584553114
 20
153.0300237538302
 30
0.0
 40
1.000020378136229
100
AcDbArc
 50
89.99878463645435
 51
179.4774442423337
  0
ARC
  5
2DB
330
1A
100
AcDbEntity
  8
SEIHIN
  6
CONTINUOUS
 62
     3
 48
16.0
100
AcDbCircle
 10
380.5000777801154
 20
289.9492425006317
 30
0.0
 40
1.999998368891037
100
AcDbArc
 50
270.0000540793453
 51
357.1369288398174
  0
LINE
  5
2DC
330
1A
100
AcDbEntity
  8
SEIHIN
  6
CONTINUOUS
 62
     3
 48
16.0
100
AcDbLine
 10
370.6119796678391
 20
262.9492441317415
 30
0.0
 11
370.6120796678391
 21
287.9500441317415
 31
0.0
  0
LINE
  5
2DD
330
1A
100
AcDbEntity
  8
SEIHIN
  6
CONTINUOUS
 62
     3
 48
16.0
100
AcDbLine
 10
380.5000796678391
 20
287.9492441317415
 30
0.0
 11
370.6119796678391
 21
287.9492441317415
 31
0.0
  0
LINE
  5
2DE
330
1A
100
AcDbEntity
  8
SEIHIN
  6
CONTINUOUS
 62
     3
 48
16.0
100
AcDbLine
 10
411.5000796678391
 20
287.9492441317415
 30
0.0
 11
391.3050796678391
 21
287.9492441317415
 31
0.0
  0
ARC
  5
2DF
330
1A
100
AcDbEntity
  8
SEIHIN
  6
CONTINUOUS
 62
     3
 48
16.0
100
AcDbCircle
 10
391.3050815555628
 20
289.9492425006317
 30
0.0
 40
1.99999836889103
100
AcDbArc
 50
182.8630711601824
 51
269.9999459206547
  0
ARC
  5
2E0
330
1A
100
AcDbEntity
  8
SEIHIN
  6
CONTINUOUS
 62
     3
 48
16.0
100
AcDbCircle
 10
411.5000777801154
 20
289.9492425006317
 30
0.0
 40
1.999998368891037
100
AcDbArc
 50
270.0000540793453
 51
357.1369288398174
  0
ARC
  5
2E1
330
1A
100
AcDbEntity
  8
SEIHIN
  6
CONTINUOUS
 62
     3
 48
16.0
100
AcDbCircle
 10
-1040.270983475775
 20
297.9478808922498
 30
0.0
 40
1400.023563144277
100
AcDbArc
 50
0.0000557903962458
 51
6.768385897662777
  0
ARC
  5
2E2
330
1A
100
AcDbEntity
  8
SEIHIN
  6
CONTINUOUS
 62
     3
 48
16.0
100
AcDbCircle
 10
-1040.247149254771
 20
297.9493145187942
 30
0.0
 40
1401.999728922612
100
AcDbArc
 50
359.9999971234794
 51
6.63391172550395
  0
ARC
  5
2E3
330
1A
100
AcDbEntity
  8
SEIHIN
  6
CONTINUOUS
 62
     3
 48
16.0
100
AcDbCircle
 10
-1040.226834084187
 20
297.9477412930922
 30
0.0
 40
1409.889582883995
100
AcDbArc
 50
1.829099590897615
 51
6.110658795808848
  0
LINE
  5
2E4
330
1A
100
AcDbEntity
  8
SEIHIN
  6
CONTINUOUS
 62
     3
 48
16.0
100
AcDbLine
 10
373.7526796678391
 20
322.9492441317415
 30
0.0
 11
373.7526796678391
 21
342.9492441317415
 31
0.0
  0
LINE
  5
2E5
330
1A
100
AcDbEntity
  8
SEIHIN
  6
CONTINUOUS
 62
     3
 48
16.0
100
AcDbLine
 10
375.7526796678391
 20
322.9492441317415
 30
0.0
 11
375.7526796678391
 21
342.9492441317415
 31
0.0
  0
ARC
  5
2E6
330
1A
100
AcDbEntity
  8
SEIHIN
  6
CONTINUOUS
 62
     3
 48
16.0
100
AcDbCircle
 10
-1040.217729291062
 20
297.9424288706915
 30
0.0
 40
1409.880495773705
100
AcDbArc
 50
1.097590315201666
 51
1.748010258024286
  0
LINE
  5
2E7
330
1A
100
AcDbEntity
  8
SEIHIN
  6
CONTINUOUS
 62
     3
 48
16.0
100
AcDbLine
 10
382.9025796678391
 20
301.9492441317416
 30
0.0
 11
369.6568796678391
 21
301.9492441317416
 31
0.0
  0
LINE
  5
2E8
330
1A
100
AcDbEntity
  8
SEIHIN
  6
CONTINUOUS
 62
     3
 48
16.0
100
AcDbLine
 10
382.9025796678391
 20
299.9492441317416
 30
0.0
 11
374.1675796678391
 21
299.9492441317416
 31
0.0
  0
ARC
  5
2E9
330
1A
100
AcDbEntity
  8
SEIHIN
  6
CONTINUOUS
 62
     3
 48
16.0
100
AcDbCircle
 10
-1040.205955422382
 20
297.9421950523142
 30
0.0
 40
1409.868629406137
100
AcDbArc
 50
0.1628430513721119
 51
1.016317037637759
  0
LINE
  5
2EA
330
1A
100
AcDbEntity
  8
SEIHIN
  6
CONTINUOUS
 62
     3
 48
16.0
100
AcDbLine
 10
359.7526796678391
 20
297.9492441317415
 30
0.0
 11
374.1674796678391
 21
297.9492441317415
 31
0.0
  0
LINE
  5
2EB
330
1A
100
AcDbEntity
  8
SEIHIN
  6
CONTINUOUS
 62
     3
 48
16.0
100
AcDbLine
 10
369.6568796678391
 20
301.9492441317416
 30
0.0
 11
374.1675796678391
 21
299.9492441317416
 31
0.0
  0
LINE
  5
2EC
330
1A
100
AcDbEntity
  8
SEIHIN
  6
CONTINUOUS
 62
     3
 48
16.0
100
AcDbLine
 10
374.1674796678391
 20
297.9483441317416
 30
0.0
 11
374.1674796678391
 21
299.9492441317416
 31
0.0
  0
LINE
  5
2ED
330
1A
100
AcDbEntity
  8
SEIHIN
  6
CONTINUOUS
 62
     3
 48
16.0
100
AcDbLine
 10
375.7526796678391
 20
322.9492441317415
 30
0.0
 11
365.2526796678391
 21
322.9492441317415
 31
0.0
  0
LINE
  5
2EE
330
1A
100
AcDbEntity
  8
SEIHIN
  6
CONTINUOUS
 62
     3
 48
16.0
100
AcDbLine
 10
373.7526796678391
 20
324.9492441317415
 30
0.0
 11
365.2526796678391
 21
324.9492441317415
 31
0.0
  0
LINE
  5
2EF
330
1A
100
AcDbEntity
  8
SEIHIN
  6
CONTINUOUS
 62
     3
 48
16.0
100
AcDbLine
 10
365.2526796678391
 20
322.9492441317415
 30
0.0
 11
365.2526796678391
 21
324.9492441317415
 31
0.0
  0
LINE
  5
2F0
330
1A
100
AcDbEntity
  8
SEIHIN
  6
CONTINUOUS
 62
     3
 48
16.0
100
AcDbLine
 10
371.7526796678392
 20
322.9492441317415
 30
0.0
 11
371.7526796678392
 21
324.9492441317415
 31
0.0
  0
LINE
  5
2F1
330
1A
100
AcDbEntity
  8
SEIHIN
  6
CONTINUOUS
 62
     3
 48
16.0
100
AcDbLine
 10
413.9026796678392
 20
299.9492441317416
 30
0.0
 11
388.9025796678391
 21
299.9492441317416
 31
0.0
  0
LINE
  5
2F2
330
1A
100
AcDbEntity
  8
SEIHIN
  6
CONTINUOUS
 62
     3
 48
16.0
100
AcDbLine
 10
413.9026796678392
 20
301.9492441317416
 30
0.0
 11
388.9025796678391
 21
301.9492441317416
 31
0.0
  0
LINE
  5
2F3
330
1A
100
AcDbEntity
  8
SEIHIN
  6
CONTINUOUS
 62
     3
 48
16.0
100
AcDbLine
 10
382.9025796678391
 20
297.9492441317415
 30
0.0
 11
388.9025796678391
 21
297.9492441317415
 31
0.0
  0
LINE
  5
2F4
330
1A
100
AcDbEntity
  8
SEIHIN
  6
CONTINUOUS
 62
     3
 48
16.0
100
AcDbLine
 10
382.9026796678391
 20
297.9492441317415
 30
0.0
 11
382.9026796678391
 21
301.9492441317416
 31
0.0
  0
LINE
  5
2F5
330
1A
100
AcDbEntity
  8
SEIHIN
  6
CONTINUOUS
 62
     3
 48
16.0
100
AcDbLine
 10
388.9026796678391
 20
297.9492441317415
 30
0.0
 11
388.9026796678391
 21
301.9497441317415
 31
0.0
  0
LINE
  5
2F6
330
1A
100
AcDbEntity
  8
SEIHIN
  6
CONTINUOUS
 62
     3
 48
16.0
100
AcDbLine
 10
413.9026796678392
 20
297.9492441317415
 30
0.0
 11
413.9026796678392
 21
301.9492441317416
 31
0.0
  0
LINE
  5
2F7
330
1A
100
AcDbEntity
  8
SEIHIN
  6
CONTINUOUS
 62
     3
 48
16.0
100
AcDbLine
 10
375.7526796678391
 20
342.9492441317415
 30
0.0
 11
365.2526796678391
 21
342.9492441317415
 31
0.0
  0
LINE
  5
2F8
330
1A
100
AcDbEntity
  8
SEIHIN
  6
CONTINUOUS
 62
     3
 48
16.0
100
AcDbLine
 10
373.7526796678391
 20
340.9492441317415
 30
0.0
 11
365.2526796678391
 21
340.9492441317415
 31
0.0
  0
LINE
  5
2F9
330
1A
100
AcDbEntity
  8
SEIHIN
  6
CONTINUOUS
 62
     3
 48
16.0
100
AcDbLine
 10
365.2526796678391
 20
340.9492441317415
 30
0.0
 11
365.2526796678391
 21
342.9490441317416
 31
0.0
  0
LINE
  5
2FA
330
1A
100
AcDbEntity
  8
SEIHIN
  6
CONTINUOUS
 62
     3
 48
16.0
100
AcDbLine
 10
371.7526796678392
 20
340.9492441317415
 30
0.0
 11
371.7526796678392
 21
342.9492441317415
 31
0.0
  0
LINE
  5
2FB
330
1A
100
AcDbEntity
  8
SEIHIN
  6
CONTINUOUS
 62
     3
 48
16.0
100
AcDbLine
 10
478.0525796678391
 20
262.9491441317415
 30
0.0
 11
478.0525796678391
 21
293.9230441317415
 31
0.0
  0
LINE
  5
2FC
330
1A
100
AcDbEntity
  8
SEIHIN
  6
CONTINUOUS
 62
     3
 48
16.0
100
AcDbLine
 10
454.9025796678392
 20
297.9491441317415
 30
0.0
 11
455.3075796678391
 21
289.8493441317415
 31
0.0
  0
LINE
  5
2FD
330
1A
100
AcDbEntity
  8
SEIHIN
  6
CONTINUOUS
 62
     3
 48
16.0
100
AcDbLine
 10
448.9025796678391
 20
297.9491441317415
 30
0.0
 11
448.4976796678392
 21
289.8493441317415
 31
0.0
  0
LINE
  5
2FE
330
1A
100
AcDbEntity
  8
SEIHIN
  6
CONTINUOUS
 62
     3
 48
16.0
100
AcDbLine
 10
513.0741796678392
 20
290.3109441317415
 30
0.0
 11
483.0202796678391
 21
297.8042441317415
 31
0.0
  0
LINE
  5
2FF
330
1A
100
AcDbEntity
  8
SEIHIN
  6
CONTINUOUS
 62
     3
 48
16.0
100
AcDbLine
 10
513.0741796678392
 20
290.3109441317415
 30
0.0
 11
527.3839796678392
 21
347.7038441317415
 31
0.0
  0
LINE
  5
300
330
1A
100
AcDbEntity
  8
SEIHIN
  6
CONTINUOUS
 62
     3
 48
16.0
100
AcDbLine
 10
423.9025796678391
 20
297.9492441317415
 30
0.0
 11
424.3076796678391
 21
289.8493441317415
 31
0.0
  0
LINE
  5
301
330
1A
100
AcDbEntity
  8
CENTER_L
  6
CENTER
 62
     1
 48
5.0
100
AcDbLine
 10
418.9025796678391
 20
252.7619441317415
 30
0.0
 11
418.9026796678391
 21
380.3951441317416
 31
0.0
  0
TEXT
  5
302
330
1A
100
AcDbEntity
  8
SUNPOU
 62
     4
100
AcDbText
 10
614.0321847179268
 20
50.02761279883145
 30
0.0
 40
8.0
  1
※　テリといの差込み寸法を示す。
100
AcDbText
  0
TEXT
  5
304
330
1A
100
AcDbEntity
  8
ZUWAKU
 62
     7
100
AcDbText
 10
654.2531733678779
 20
15.90287984531518
 30
0.0
 40
8.0
  1
ＧＨ０８
100
AcDbText
  0
ELLIPSE
  5
305
330
1A
100
AcDbEntity
  8
SEIHIN
  6
CONTINUOUS
 48
16.0
100
AcDbEllipse
 10
527.3839672707517
 20
152.2300563261872
 30
0.0
 11
0.0
 21
50.3
 31
0.0
210
0.0
220
0.0
230
1.0
 40
0.2419483101391642
 41
1.760804622756143
 42
4.522380684423596
  0
ELLIPSE
  5
306
330
1A
100
AcDbEntity
  8
SEIHIN
  6
CONTINUOUS
 48
16.0
100
AcDbEllipse
 10
527.3839672707517
 20
152.2300563261872
 30
0.0
 11
0.0
 21
51.29999999999999
 31
0.0
210
0.0
220
0.0
230
1.0
 40
0.2418969278184663
 41
1.796887315954161
 42
4.486299155434128
  0
ELLIPSE
  5
307
330
1A
100
AcDbEntity
  8
SEIHIN
  6
CONTINUOUS
 48
16.0
100
AcDbEllipse
 10
522.5324886393716
 20
152.2300563261872
 30
0.0
 11
0.0
 21
-52.30011219444576
 31
0.0
210
0.0
220
0.0
230
1.0
 40
0.2420644902812366
 41
-1.349101532412659
 42
0.000000000000018
  0
ELLIPSE
  5
308
330
1A
100
AcDbEntity
  8
SEIHIN
  6
CONTINUOUS
 48
16.0
100
AcDbEllipse
 10
483.9593796678392
 20
152.2300563261872
 30
0.0
 11
0.0
 21
-50.80001219444575
 31
0.0
210
0.0
220
0.0
230
1.0
 40
0.2395668716262752
 41
-1.342438687691248
 42
0.000000000000028
  0
ELLIPSE
  5
309
330
1A
100
AcDbEntity
  8
SEIHIN
  6
CONTINUOUS
 48
16.0
100
AcDbEllipse
 10
492.3620796678391
 20
152.2300563261872
 30
0.0
 11
0.0
 21
-52.30011219444576
 31
0.0
210
0.0
220
0.0
230
1.0
 40
0.2420644902812366
 41
-1.349100109395631
 42
0.0000000000000269
  0
LINE
  5
30A
330
1A
100
AcDbEntity
  8
SEIHIN
  6
CONTINUOUS
 62
     3
 48
16.0
100
AcDbLine
 10
423.9025796678391
 20
106.3014441317415
 30
0.0
 11
423.9025796678391
 21
106.0273441317415
 31
0.0
  0
ARC
  5
30B
330
1A
100
AcDbEntity
  8
SEIHIN
  6
CONTINUOUS
 62
     3
 48
16.0
100
AcDbCircle
 10
425.8970402569697
 20
106.4613986321077
 30
0.0
 40
2.000008180237927
100
AcDbArc
 50
186.2131088654266
 51
278.6888868187551
  0
ARC
  5
30C
330
1A
100
AcDbEntity
  8
SEIHIN
  6
CONTINUOUS
 62
     3
 48
16.0
100
AcDbCircle
 10
425.8970402569697
 20
106.4613986321077
 30
0.0
 40
2.000008180237927
100
AcDbArc
 50
186.2131088654266
 51
278.6888868187551
  0
LINE
  5
30D
330
1A
100
AcDbEntity
  8
CENTER_L
  6
CENTER
 62
     1
 48
5.0
100
AcDbLine
 10
418.9025796678391
 20
94.32384413174153
 30
0.0
 11
418.9025796678391
 21
164.7764441317415
 31
0.0
  0
ARC
  5
30E
330
1A
100
AcDbEntity
  8
SEIHIN
  6
CONTINUOUS
 62
     3
 48
16.0
100
AcDbCircle
 10
418.9025613289499
 20
152.2300272810927
 30
0.0
 40
48.29999419532042
100
AcDbArc
 50
278.6887455612574
 51
308.016820913988
  0
ARC
  5
30F
330
1A
100
AcDbEntity
  8
SEIHIN
  6
CONTINUOUS
 62
     3
 48
16.0
100
AcDbCircle
 10
418.9026354677436
 20
152.2300381276474
 30
0.0
 40
46.20003651724525
100
AcDbArc
 50
276.2128116378834
 51
310.4925318273123
  0
LINE
  5
310
330
1A
100
AcDbEntity
  8
SEIHIN
  6
CONTINUOUS
 62
     3
 48
16.0
100
AcDbLine
 10
431.3385796678391
 20
101.4300441317415
 30
0.0
 11
483.9593796678392
 21
101.4300441317415
 31
0.0
  0
ARC
  5
311
330
1A
100
AcDbEntity
  8
SEIHIN
  6
CONTINUOUS
 62
     3
 48
16.0
100
AcDbCircle
 10
421.9025784974094
 20
106.0273417713706
 30
0.0
 40
2.000001170431104
100
AcDbArc
 50
273.7154012006136
 51
0.000067619606152
  0
ARC
  5
312
330
1A
100
AcDbEntity
  8
SEIHIN
  6
CONTINUOUS
 62
     3
 48
16.0
100
AcDbCircle
 10
418.9024669066466
 20
152.2286576053551
 30
0.0
 40
48.29861347361531
100
AcDbArc
 50
266.2848238922975
 51
270.000015138374
  0
ARC
  5
313
330
1A
100
AcDbEntity
  8
SEIHIN
  6
CONTINUOUS
 62
     3
 48
16.0
100
AcDbCircle
 10
418.9025924290318
 20
152.2286576053542
 30
0.0
 40
48.29861347361443
100
AcDbArc
 50
269.9999848616259
 51
273.7151761077025
  0
LINE
  5
314
330
1A
100
AcDbEntity
  8
SEIHIN
  6
CONTINUOUS
 62
     3
 48
16.0
100
AcDbLine
 10
492.3620796678391
 20
99.92994413174153
 30
0.0
 11
522.5288796678391
 21
99.92994413174153
 31
0.0
  0
LINE
  5
315
330
1A
100
AcDbEntity
  8
SEIHIN
  6
CONTINUOUS
 62
     3
 48
16.0
100
AcDbLine
 10
483.9593796678392
 20
101.4300441317415
 30
0.0
 11
492.3620796678391
 21
99.92994413174153
 31
0.0
  0
LINE
  5
316
330
1A
100
AcDbEntity
  8
SEIHIN
  6
CONTINUOUS
 62
     3
 48
16.0
100
AcDbLine
 10
527.3832796678391
 20
101.4298441317415
 30
0.0
 11
522.5288796678391
 21
99.92984413174156
 31
0.0
  0
LINE
  5
31A
330
1A
100
AcDbEntity
  8
SEIHIN
  6
CONTINUOUS
 62
     3
 48
16.0
100
AcDbLine
 10
469.9957552111735
 20
140.7300407463386
 30
0.0
 11
515.2904703804997
 21
140.7301497441997
 31
0.0
  0
LINE
  5
31B
330
1A
100
AcDbEntity
  8
SEIHIN
  6
CONTINUOUS
 62
     3
 48
16.0
100
AcDbLine
 10
471.4025796678392
 20
154.0300441317415
 30
0.0
 11
540.0959305242522
 21
154.0298489987474
 31
0.0
  0
LINE
  5
31C
330
1A
100
AcDbEntity
  8
SEIHIN
  6
CONTINUOUS
 62
     3
 48
16.0
100
AcDbLine
 10
478.0525796678391
 20
147.3800441317415
 30
0.0
 11
478.0525796678391
 21
154.0300441317415
 31
0.0
  0
ARC
  5
31D
330
1A
100
AcDbEntity
  8
SEIHIN
  6
CONTINUOUS
 62
     3
 48
16.0
100
AcDbCircle
 10
467.1377607032627
 20
149.3530303060774
 30
0.0
 40
3.499981035450849
100
AcDbArc
 50
82.64891289849053
 51
179.9997736695735
  0
LINE
  5
31E
330
1A
100
AcDbEntity
  8
SEIHIN
  6
CONTINUOUS
 62
     3
 48
16.0
100
AcDbLine
 10
464.4034796678392
 20
154.2501441317415
 30
0.0
 11
464.4034796678392
 21
151.5380441317415
 31
0.0
  0
ARC
  5
31F
330
1A
100
AcDbEntity
  8
SEIHIN
  6
CONTINUOUS
 62
     3
 48
16.0
100
AcDbCircle
 10
468.1931843917187
 20
152.0300368846118
 30
0.0
 40
1.000024656709777
100
AcDbArc
 50
124.8263146503855
 51
304.616534903883
  0
LINE
  5
320
330
1A
100
AcDbEntity
  8
SEIHIN
  6
CONTINUOUS
 62
     3
 48
16.0
100
AcDbLine
 10
476.0525796678392
 20
152.1340441317415
 30
0.0
 11
476.0525796678392
 21
154.0300441317415
 31
0.0
  0
ARC
  5
321
330
1A
100
AcDbEntity
  8
SEIHIN
  6
CONTINUOUS
 62
     3
 48
16.0
100
AcDbCircle
 10
471.4025863567044
 20
147.3800431167227
 30
0.0
 40
4.649993311134832
100
AcDbArc
 50
0.0000125067469986
 51
124.6125312503667
  0
ARC
  5
322
330
1A
100
AcDbEntity
  8
SEIHIN
  6
CONTINUOUS
 62
     3
 48
16.0
100
AcDbCircle
 10
471.4025817203038
 20
147.3800461931101
 30
0.0
 40
6.649997947535587
100
AcDbArc
 50
359.9999822394343
 51
124.6130045247337
  0
LINE
  5
323
330
1A
100
AcDbEntity
  8
SEIHIN
  6
CONTINUOUS
 62
     3
 48
16.0
100
AcDbLine
 10
444.4794796678391
 20
155.1457441317415
 30
0.0
 11
444.4793796678391
 21
123.3030441317415
 31
0.0
  0
LINE
  5
324
330
1A
100
AcDbEntity
  8
SEIHIN
  6
CONTINUOUS
 62
     3
 48
16.0
100
AcDbLine
 10
444.4796796678391
 20
123.3031441317415
 30
0.0
 11
454.9257796678391
 21
123.3031441317415
 31
0.0
  0
LINE
  5
325
330
1A
100
AcDbEntity
  8
SEIHIN
  6
CONTINUOUS
 62
     3
 48
16.0
100
AcDbLine
 10
423.9025796678391
 20
106.3014441317415
 30
0.0
 11
423.9087796678391
 21
106.2449441317415
 31
0.0
  0
ARC
  5
326
330
1A
100
AcDbEntity
  8
SEIHIN
  6
CONTINUOUS
 62
     3
 48
16.0
100
AcDbCircle
 10
418.9025025734525
 20
152.2301547207336
 30
0.0
 40
46.20017424243767
100
AcDbArc
 50
321.189169838506
 51
345.5331607239393
  0
ARC
  5
327
330
1A
100
AcDbEntity
  8
SEIHIN
  6
CONTINUOUS
 62
     3
 48
16.0
100
AcDbCircle
 10
418.9024624665093
 20
152.2300929770016
 30
0.0
 40
48.30012713347038
100
AcDbArc
 50
323.664906384896
 51
343.1859027337616
  0
ARC
  5
328
330
1A
100
AcDbEntity
  8
SEIHIN
  6
CONTINUOUS
 62
     3
 48
16.0
100
AcDbCircle
 10
418.9030272601604
 20
152.2294632033775
 30
0.0
 40
48.29928656705607
100
AcDbArc
 50
312.9684083406721
 51
317.2515712673537
  0
ARC
  5
329
330
1A
100
AcDbEntity
  8
SEIHIN
  6
CONTINUOUS
 62
     3
 48
16.0
100
AcDbCircle
 10
450.4604436046285
 20
118.3509467515847
 30
0.0
 40
1.999989947925146
100
AcDbArc
 50
220.4929571484775
 51
312.970479751658
  0
LINE
  5
32A
330
1A
100
AcDbEntity
  8
SEIHIN
  6
CONTINUOUS
 62
     3
 48
16.0
100
AcDbLine
 10
448.9394796678391
 20
117.0522441317415
 30
0.0
 11
448.9025796678391
 21
117.0954441317415
 31
0.0
  0
ARC
  5
32B
330
1A
100
AcDbEntity
  8
SEIHIN
  6
CONTINUOUS
 62
     3
 48
16.0
100
AcDbCircle
 10
447.4184776699993
 20
115.7535271048055
 30
0.0
 40
2.000028248172062
100
AcDbArc
 50
308.0167850421978
 51
40.4925629955273
  0
ARC
  5
32C
330
1A
100
AcDbEntity
  8
SEIHIN
  6
CONTINUOUS
 62
     3
 48
16.0
100
AcDbCircle
 10
456.2003788659181
 20
124.7970441241969
 30
0.0
 40
1.999967693756491
100
AcDbArc
 50
231.1885366718904
 51
323.6647023261661
  0
LINE
  5
32D
330
1A
100
AcDbEntity
  8
SEIHIN
  6
CONTINUOUS
 62
     3
 48
16.0
100
AcDbLine
 10
454.9025796678392
 20
120.8025441317415
 30
0.0
 11
454.9025796678392
 21
123.2742441317415
 31
0.0
  0
LINE
  5
32E
330
1A
100
AcDbEntity
  8
SEIHIN
  6
CONTINUOUS
 62
     3
 48
16.0
100
AcDbLine
 10
454.9025796678392
 20
123.2742441317415
 30
0.0
 11
454.9468796678391
 21
123.2386441317415
 31
0.0
  0
ARC
  5
32F
330
1A
100
AcDbEntity
  8
SEIHIN
  6
CONTINUOUS
 62
     3
 48
16.0
100
AcDbCircle
 10
452.9025595660298
 20
120.8024940102707
 30
0.0
 40
2.000020102437392
100
AcDbArc
 50
317.2525458150212
 51
0.0014358599368908
  0
ARC
  5
330
330
1A
100
AcDbEntity
  8
SEIHIN
  6
CONTINUOUS
 62
     3
 48
16.0
100
AcDbCircle
 10
467.1377648688187
 20
149.353029716172
 30
0.0
 40
1.99998520103151
100
AcDbArc
 50
79.95284121709814
 51
179.9995870212996
  0
LINE
  5
331
330
1A
100
AcDbEntity
  8
SEIHIN
  6
CONTINUOUS
 62
     3
 48
16.0
100
AcDbLine
 10
463.6377796678391
 20
140.6884441317415
 30
0.0
 11
463.6377796678391
 21
149.3530441317415
 31
0.0
  0
ARC
  5
332
330
1A
100
AcDbEntity
  8
SEIHIN
  6
CONTINUOUS
 62
     3
 48
16.0
100
AcDbCircle
 10
471.4025846358891
 20
147.3800391636915
 30
0.0
 40
6.649995031951883
100
AcDbArc
 50
269.9999571957132
 51
0.0000428042870425
  0
LINE
  5
333
330
1A
100
AcDbEntity
  8
SEIHIN
  6
CONTINUOUS
 62
     3
 48
16.0
100
AcDbLine
 10
465.1377796678391
 20
138.2585441317415
 30
0.0
 11
465.1377796678391
 21
149.3530441317415
 31
0.0
  0
ARC
  5
334
330
1A
100
AcDbEntity
  8
SEIHIN
  6
CONTINUOUS
 62
     3
 48
16.0
100
AcDbCircle
 10
469.995757617588
 20
139.7300407463416
 30
0.0
 40
1.0
100
AcDbArc
 50
90.00013787739595
 51
166.2525699328231
  0
LINE
  5
335
330
1A
100
AcDbEntity
  8
SEIHIN
  6
CONTINUOUS
 62
     3
 48
16.0
100
AcDbLine
 10
471.4025796678392
 20
140.7300441317415
 30
0.0
 11
470.7160796678391
 21
140.7300441317415
 31
0.0
  0
ARC
  5
336
330
1A
100
AcDbEntity
  8
SEIHIN
  6
CONTINUOUS
 62
     3
 48
16.0
100
AcDbCircle
 10
470.7160895251766
 20
139.7300520842982
 30
0.0
 40
0.9999920474918267
100
AcDbArc
 50
90.0005647883268
 51
166.4382074793804
  0
ARC
  5
337
330
1A
100
AcDbEntity
  8
SEIHIN
  6
CONTINUOUS
 62
     3
 48
16.0
100
AcDbCircle
 10
471.4025831417387
 20
147.3800406578419
 30
0.0
 40
4.649996526101678
100
AcDbArc
 50
269.9999571957131
 51
0.0000428042872374
  0
LINE
  5
338
330
1A
100
AcDbEntity
  8
SEIHIN
  6
CONTINUOUS
 48
16.0
100
AcDbLine
 10
469.1165943868294
 20
142.7300441317415
 30
0.0
 11
471.4025831417387
 21
142.7300441317415
 31
0.0
  0
LINE
  5
339
330
1A
100
AcDbEntity
  8
SEIHIN
  6
CONTINUOUS
 62
     3
 48
16.0
100
AcDbLine
 10
471.4025796678392
 20
142.7300441317415
 30
0.0
 11
465.1377796678391
 21
142.7300441317415
 31
0.0
  0
ARC
  5
33A
330
1A
100
AcDbEntity
  8
SEIHIN
  6
CONTINUOUS
 62
     3
 48
16.0
100
AcDbCircle
 10
509.0524037260443
 20
912.9934947716822
 30
0.0
 40
771.1965716748498
100
AcDbArc
 50
266.7355084001658
 51
267.1599550495287
  0
ARC
  5
33B
330
1A
100
AcDbEntity
  8
SEIHIN
  6
CONTINUOUS
 62
     3
 48
16.0
100
AcDbCircle
 10
469.1165943868294
 20
141.7300564894082
 30
0.0
 40
0.9999876424416489
100
AcDbArc
 50
90.00084334644219
 51
168.1886373934188
  0
LINE
  5
33C
330
1A
100
AcDbEntity
  8
SEIHIN
  6
CONTINUOUS
 62
     3
 48
16.0
100
AcDbLine
 10
476.0525796678392
 20
154.0300441317415
 30
0.0
 11
478.0525796678391
 21
154.0300441317415
 31
0.0
  0
ELLIPSE
  5
33D
330
1A
100
AcDbEntity
  8
SEIHIN
  6
CONTINUOUS
 48
16.0
100
AcDbEllipse
 10
540.0837548736642
 20
147.3800391636915
 30
0.0
 11
0.0
 21
-6.65
 31
0.0
210
0.0
220
0.0
230
-1.0
 40
0.2421052631578968
 41
2.151829631808824
 42
6.290340229443511
  0
ELLIPSE
  5
33E
330
1A
100
AcDbEntity
  8
SEIHIN
  6
CONTINUOUS
 48
16.0
100
AcDbEllipse
 10
514.6841796678391
 20
147.3800391636915
 30
0.0
 11
0.0
 21
-6.65
 31
0.0
210
0.0
220
0.0
230
1.0
 40
0.2421052631578968
 41
2.15182963180874
 42
6.288914641201895
  0
ELLIPSE
  5
33F
330
1A
100
AcDbEntity
  8
SEIHIN
  6
CONTINUOUS
 48
16.0
100
AcDbEllipse
 10
514.6841796678391
 20
147.3800391636915
 30
0.0
 11
0.0
 21
-4.65
 31
0.0
210
0.0
220
0.0
230
1.0
 40
0.2421505376344036
 41
2.473442108578218
 42
6.28464708557203
  0
LINE
  5
340
330
1A
100
AcDbEntity
  8
SEIHIN
  6
CONTINUOUS
 62
     3
 48
16.0
100
AcDbLine
 10
513.986582939252
 20
151.0301441317415
 30
0.0
 11
539.3862317507796
 21
151.0301441317415
 31
0.0
  0
LINE
  5
341
330
1A
100
AcDbEntity
  8
SEIHIN
  6
CONTINUOUS
 48
16.0
100
AcDbLine
 10
514.6825337059558
 20
142.7300441317415
 30
0.0
 11
540.109894933797
 21
142.7300441317415
 31
0.0
  0
LINE
  5
342
330
1A
100
AcDbEntity
  8
SEIHIN
  6
CONTINUOUS
 62
     3
 48
16.0
100
AcDbLine
 10
539.4774673995819
 20
140.730207948141
 30
0.0
 11
540.0722355471048
 21
140.7302093793997
 31
0.0
  0
ELLIPSE
  5
343
330
1A
100
AcDbEntity
  8
SEIHIN
  6
CONTINUOUS
 48
16.0
100
AcDbEllipse
 10
540.0830403372676
 20
147.3786747299248
 30
0.0
 11
-0.0004995985512338
 21
-4.649999973161428
 31
0.0
210
0.0
220
0.0
230
-0.9999999999999998
 40
0.2421505376344036
 41
2.473889864632941
 42
6.30742877896557
  0
ARC
  5
344
330
1A
100
AcDbEntity
  8
SEIHIN
  6
CONTINUOUS
 62
     3
 48
16.0
100
AcDbCircle
 10
446.5001769545999
 20
289.9491381137936
 30
0.0
 40
1.999993982053915
100
AcDbArc
 50
270.0000777288117
 51
357.1399167598826
  0
LINE
  5
345
330
1A
100
AcDbEntity
  8
SEIHIN
  6
CONTINUOUS
 62
     3
 48
16.0
100
AcDbLine
 10
478.0525796678391
 20
262.9491441317415
 30
0.0
 11
418.9025796678391
 21
262.9492441317415
 31
0.0
  0
LINE
  5
346
330
1A
100
AcDbEntity
  8
SEIHIN
  6
CONTINUOUS
 62
     3
 48
16.0
100
AcDbLine
 10
426.3051796678391
 20
287.9492441317415
 30
0.0
 11
446.5001796678391
 21
287.9491441317415
 31
0.0
  0
ARC
  5
347
330
1A
100
AcDbEntity
  8
SEIHIN
  6
CONTINUOUS
 62
     3
 48
16.0
100
AcDbCircle
 10
426.3051815555629
 20
289.9492425006317
 30
0.0
 40
1.99999836889103
100
AcDbArc
 50
182.8630711601824
 51
269.9999459206547
  0
LINE
  5
348
330
1A
100
AcDbEntity
  8
SEIHIN
  6
CONTINUOUS
 62
     3
 48
16.0
100
AcDbLine
 10
467.1931796678391
 20
262.9491441317415
 30
0.0
 11
467.1931796678391
 21
287.9500441317415
 31
0.0
  0
LINE
  5
349
330
1A
100
AcDbEntity
  8
SEIHIN
  6
CONTINUOUS
 62
     3
 48
16.0
100
AcDbLine
 10
457.3051796678392
 20
287.9491441317415
 30
0.0
 11
467.1932796678391
 21
287.9491441317415
 31
0.0
  0
ARC
  5
34A
330
1A
100
AcDbEntity
  8
SEIHIN
  6
CONTINUOUS
 62
     3
 48
16.0
100
AcDbCircle
 10
457.3051815555629
 20
289.9491425006317
 30
0.0
 40
1.999998368891057
100
AcDbArc
 50
182.8630711601816
 51
269.9999459206538
  0
LINE
  5
34E
330
1A
100
AcDbEntity
  8
SEIHIN
  6
CONTINUOUS
 62
     3
 48
16.0
100
AcDbLine
 10
541.6937796678391
 20
405.0968441317415
 30
0.0
 11
527.3839796678392
 21
347.7038441317415
 31
0.0
  0
LINE
  5
34F
330
1A
100
AcDbEntity
  8
SEIHIN
  6
CONTINUOUS
 62
     3
 48
16.0
100
AcDbLine
 10
492.6926796678391
 20
361.5064441317415
 30
0.0
 11
498.7408796678391
 21
385.7639441317416
 31
0.0
  0
LINE
  5
350
330
1A
100
AcDbEntity
  8
SEIHIN
  6
CONTINUOUS
 62
     3
 48
16.0
100
AcDbLine
 10
500.6813796678391
 20
385.2799441317415
 30
0.0
 11
508.4426796678392
 21
382.9276441317415
 31
0.0
  0
LINE
  5
351
330
1A
100
AcDbEntity
  8
SEIHIN
  6
CONTINUOUS
 62
     3
 48
16.0
100
AcDbLine
 10
490.7520796678391
 20
361.9902441317416
 30
0.0
 11
496.8002796678391
 21
386.2478441317415
 31
0.0
  0
LINE
  5
352
330
1A
100
AcDbEntity
  8
SEIHIN
  6
CONTINUOUS
 62
     3
 48
16.0
100
AcDbLine
 10
484.7143796678391
 20
321.2406441317415
 30
0.0
 11
480.8331796678391
 21
322.2083441317415
 31
0.0
  0
LINE
  5
353
330
1A
100
AcDbEntity
  8
SEIHIN
  6
CONTINUOUS
 62
     3
 48
16.0
100
AcDbLine
 10
482.6019796678391
 20
312.7647441317415
 30
0.0
 11
480.6605796678391
 21
313.2488441317415
 31
0.0
  0
LINE
  5
354
330
1A
100
AcDbEntity
  8
SEIHIN
  6
CONTINUOUS
 62
     3
 48
16.0
100
AcDbLine
 10
478.9818796678392
 20
298.2489441317415
 30
0.0
 11
482.6011796678391
 21
312.7649441317415
 31
0.0
  0
LINE
  5
355
330
1A
100
AcDbEntity
  8
SEIHIN
  6
CONTINUOUS
 62
     3
 48
16.0
100
AcDbLine
 10
482.7737796678391
 20
321.7243441317415
 30
0.0
 11
480.6606796678391
 21
313.2489441317415
 31
0.0
  0
ARC
  5
356
330
1A
100
AcDbEntity
  8
SEIHIN
  6
CONTINUOUS
 62
     3
 48
16.0
100
AcDbCircle
 10
482.0525904772284
 20
293.9230504873008
 30
0.0
 40
4.000010809394356
100
AcDbArc
 50
76.00001486305058
 51
180.0000910364345
  0
LINE
  5
357
330
1A
100
AcDbEntity
  8
SEIHIN
  6
CONTINUOUS
 62
     3
 48
16.0
100
AcDbLine
 10
423.9025796678391
 20
301.9492441317416
 30
0.0
 11
448.9026796678391
 21
301.9491441317415
 31
0.0
  0
LINE
  5
358
330
1A
100
AcDbEntity
  8
SEIHIN
  6
CONTINUOUS
 62
     3
 48
16.0
100
AcDbLine
 10
423.9025796678391
 20
299.9492441317416
 30
0.0
 11
448.9026796678391
 21
299.9491441317415
 31
0.0
  0
LINE
  5
359
330
1A
100
AcDbEntity
  8
SEIHIN
  6
CONTINUOUS
 62
     3
 48
16.0
100
AcDbLine
 10
423.9026796678391
 20
297.9492441317415
 30
0.0
 11
418.9026796678391
 21
297.9492441317415
 31
0.0
  0
LINE
  5
35A
330
1A
100
AcDbEntity
  8
SEIHIN
  6
CONTINUOUS
 62
     3
 48
16.0
100
AcDbLine
 10
423.9025796678391
 20
297.9492441317415
 30
0.0
 11
423.9025796678391
 21
301.9492441317416
 31
0.0
  0
LINE
  5
35B
330
1A
100
AcDbEntity
  8
SEIHIN
  6
CONTINUOUS
 62
     3
 48
16.0
100
AcDbLine
 10
480.8331796678391
 20
322.2082441317415
 30
0.0
 11
477.6287796678391
 21
309.3560441317415
 31
0.0
  0
LINE
  5
35C
330
1A
100
AcDbEntity
  8
SEIHIN
  6
CONTINUOUS
 62
     3
 48
16.0
100
AcDbLine
 10
468.1482796678391
 20
301.9491441317415
 30
0.0
 11
463.6376796678391
 21
299.9491441317415
 31
0.0
  0
LINE
  5
35D
330
1A
100
AcDbEntity
  8
SEIHIN
  6
CONTINUOUS
 62
     3
 48
16.0
100
AcDbLine
 10
478.5981796678391
 20
297.9491441317415
 30
0.0
 11
463.6377796678391
 21
297.9491441317415
 31
0.0
  0
LINE
  5
35E
330
1A
100
AcDbEntity
  8
SEIHIN
  6
CONTINUOUS
 62
     3
 48
16.0
100
AcDbLine
 10
454.9026796678391
 20
301.9491441317415
 30
0.0
 11
468.1482796678391
 21
301.9491441317415
 31
0.0
  0
LINE
  5
35F
330
1A
100
AcDbEntity
  8
SEIHIN
  6
CONTINUOUS
 62
     3
 48
16.0
100
AcDbLine
 10
454.9026796678391
 20
299.9491441317415
 30
0.0
 11
463.6376796678391
 21
299.9491441317415
 31
0.0
  0
LINE
  5
360
330
1A
100
AcDbEntity
  8
SEIHIN
  6
CONTINUOUS
 62
     3
 48
16.0
100
AcDbLine
 10
454.9025796678392
 20
297.9491441317415
 30
0.0
 11
454.9025796678392
 21
301.9491441317415
 31
0.0
  0
LINE
  5
361
330
1A
100
AcDbEntity
  8
SEIHIN
  6
CONTINUOUS
 62
     3
 48
16.0
100
AcDbLine
 10
448.9025796678391
 20
297.9491441317415
 30
0.0
 11
448.9025796678391
 21
301.9497441317415
 31
0.0
  0
LINE
  5
362
330
1A
100
AcDbEntity
  8
SEIHIN
  6
CONTINUOUS
 62
     3
 48
16.0
100
AcDbLine
 10
454.9026796678391
 20
297.9491441317415
 30
0.0
 11
448.9026796678391
 21
297.9491441317415
 31
0.0
  0
LINE
  5
363
330
1A
100
AcDbEntity
  8
SEIHIN
  6
CONTINUOUS
 62
     3
 48
16.0
100
AcDbLine
 10
463.6377796678391
 20
297.9482441317415
 30
0.0
 11
463.6377796678391
 21
299.9491441317415
 31
0.0
  0
ARC
  5
364
330
1A
100
AcDbEntity
  8
SEIHIN
  6
CONTINUOUS
 62
     3
 48
16.0
100
AcDbCircle
 10
1878.035197529538
 20
297.9538200569306
 30
0.0
 40
1409.892278523756
100
AcDbArc
 50
179.443674839548
 51
179.8376402314295
  0
ARC
  5
365
330
1A
100
AcDbEntity
  8
SEIHIN
  6
CONTINUOUS
 62
     3
 48
16.0
100
AcDbCircle
 10
140.4170492035214
 20
-1059.640181874205
 30
0.0
 40
1409.915400839824
100
AcDbArc
 50
76.16225488894073
 51
76.5562202808222
  0
LINE
  5
366
330
1A
100
AcDbEntity
  8
SEIHIN
  6
CONTINUOUS
 62
     3
 48
16.0
100
AcDbLine
 10
477.6287796678391
 20
309.3560441317415
 30
0.0
 11
480.6605796678391
 21
313.2488441317415
 31
0.0
  0
LINE
  5
367
330
1A
100
AcDbEntity
  8
SEIHIN
  6
CONTINUOUS
 62
     3
 48
16.0
100
AcDbLine
 10
490.2733796678391
 20
351.8036441317416
 30
0.0
 11
484.2253796678391
 21
327.5461441317415
 31
0.0
  0
LINE
  5
368
330
1A
100
AcDbEntity
  8
SEIHIN
  6
CONTINUOUS
 62
     3
 48
16.0
100
AcDbLine
 10
488.3328796678391
 20
352.2874441317416
 30
0.0
 11
482.2847796678392
 21
328.0300441317415
 31
0.0
  0
LINE
  5
369
330
1A
100
AcDbEntity
  8
SEIHIN
  6
CONTINUOUS
 62
     3
 48
16.0
100
AcDbLine
 10
501.3357796678391
 20
346.5692441317415
 30
0.0
 11
496.4501796678391
 21
326.9741441317415
 31
0.0
  0
LINE
  5
36A
330
1A
100
AcDbEntity
  8
SEIHIN
  6
CONTINUOUS
 62
     3
 48
16.0
100
AcDbLine
 10
515.7012796678391
 20
300.8477441317415
 30
0.0
 11
491.4431796678392
 21
306.8960441317415
 31
0.0
  0
LINE
  5
36B
330
1A
100
AcDbEntity
  8
SEIHIN
  6
CONTINUOUS
 62
     3
 48
16.0
100
AcDbLine
 10
493.8360796678392
 20
316.4901441317415
 30
0.0
 11
491.4438796678391
 21
306.8957441317415
 31
0.0
  0
ARC
  5
36C
330
1A
100
AcDbEntity
  8
SEIHIN
  6
CONTINUOUS
 62
     3
 48
16.0
100
AcDbCircle
 10
494.5095446390642
 20
327.4580210928231
 30
0.0
 40
2.000050306460761
100
AcDbArc
 50
258.8617147665075
 51
345.9993800021357
  0
LINE
  5
36D
330
1A
100
AcDbEntity
  8
SEIHIN
  6
CONTINUOUS
 62
     3
 48
16.0
100
AcDbLine
 10
484.7143796678391
 20
321.2405441317415
 30
0.0
 11
486.1659796678392
 21
327.0623441317416
 31
0.0
  0
LINE
  5
36E
330
1A
100
AcDbEntity
  8
SEIHIN
  6
CONTINUOUS
 62
     3
 48
16.0
100
AcDbLine
 10
486.1659796678392
 20
327.0623441317416
 30
0.0
 11
494.1231796678391
 21
325.4957441317416
 31
0.0
  0
LINE
  5
36F
330
1A
100
AcDbEntity
  8
SEIHIN
  6
CONTINUOUS
 62
     3
 48
16.0
100
AcDbLine
 10
484.7143796678391
 20
321.2406441317415
 30
0.0
 11
492.4755796678391
 21
318.8880441317415
 31
0.0
  0
ARC
  5
370
330
1A
100
AcDbEntity
  8
SEIHIN
  6
CONTINUOUS
 62
     3
 48
16.0
100
AcDbCircle
 10
491.8955164358707
 20
316.9740525783948
 30
0.0
 40
1.999988260468139
100
AcDbArc
 50
345.9980071812802
 51
73.1370557431884
  0
LINE
  5
371
330
1A
100
AcDbEntity
  8
SEIHIN
  6
CONTINUOUS
 62
     3
 48
16.0
100
AcDbLine
 10
486.1659796678392
 20
327.0623441317416
 30
0.0
 11
482.2842796678391
 21
328.0301441317416
 31
0.0
  0
LINE
  5
372
330
1A
100
AcDbEntity
  8
SEIHIN
  6
CONTINUOUS
 62
     3
 48
16.0
100
AcDbLine
 10
504.9174796678392
 20
360.9345441317416
 30
0.0
 11
509.8031796678392
 21
380.5296441317416
 31
0.0
  0
LINE
  5
373
330
1A
100
AcDbEntity
  8
SEIHIN
  6
CONTINUOUS
 62
     3
 48
16.0
100
AcDbLine
 10
494.6331796678391
 20
361.0226441317415
 30
0.0
 11
490.7520796678391
 21
361.9902441317416
 31
0.0
  0
LINE
  5
374
330
1A
100
AcDbEntity
  8
SEIHIN
  6
CONTINUOUS
 62
     3
 48
16.0
100
AcDbLine
 10
494.6331796678391
 20
361.0226441317415
 30
0.0
 11
502.5905796678391
 21
359.4561441317415
 31
0.0
  0
LINE
  5
375
330
1A
100
AcDbEntity
  8
SEIHIN
  6
CONTINUOUS
 62
     3
 48
16.0
100
AcDbLine
 10
492.2139796678392
 20
351.3198441317415
 30
0.0
 11
499.9752796678391
 21
348.9671441317416
 31
0.0
  0
LINE
  5
376
330
1A
100
AcDbEntity
  8
SEIHIN
  6
CONTINUOUS
 62
     3
 48
16.0
100
AcDbLine
 10
492.2139796678392
 20
351.3198441317415
 30
0.0
 11
488.3328796678391
 21
352.2874441317416
 31
0.0
  0
LINE
  5
377
330
1A
100
AcDbEntity
  8
SEIHIN
  6
CONTINUOUS
 62
     3
 48
16.0
100
AcDbLine
 10
492.2139796678392
 20
351.3197441317415
 30
0.0
 11
493.4236796678391
 21
356.1711441317415
 31
0.0
  0
LINE
  5
378
330
1A
100
AcDbEntity
  8
SEIHIN
  6
CONTINUOUS
 62
     3
 48
16.0
100
AcDbLine
 10
494.6332796678391
 20
361.0227441317415
 30
0.0
 11
493.4236796678391
 21
356.1712441317415
 31
0.0
  0
ARC
  5
379
330
1A
100
AcDbEntity
  8
SEIHIN
  6
CONTINUOUS
 62
     3
 48
16.0
100
AcDbCircle
 10
499.3950859678058
 20
347.0532352929553
 30
0.0
 40
2.000013641080966
100
AcDbArc
 50
345.9986988444197
 51
73.13636408004832
  0
ARC
  5
37A
330
1A
100
AcDbEntity
  8
SEIHIN
  6
CONTINUOUS
 62
     3
 48
16.0
100
AcDbCircle
 10
502.9769026902917
 20
361.4183558592053
 30
0.0
 40
1.999978198235847
100
AcDbArc
 50
258.8625328715418
 51
346.0007909621079
  0
ARC
  5
37B
330
1A
100
AcDbEntity
  8
SEIHIN
  6
CONTINUOUS
 62
     3
 48
16.0
100
AcDbCircle
 10
507.8624859678058
 20
381.0135352929554
 30
0.0
 40
2.000013641080904
100
AcDbArc
 50
345.9986988444201
 51
73.13636408004964
  0
LINE
  5
37C
330
1A
100
AcDbEntity
  8
SEIHIN
  6
CONTINUOUS
 62
     3
 48
16.0
100
AcDbLine
 10
482.1455796678391
 20
414.2756441317415
 30
0.0
 11
480.2049796678391
 21
414.7594441317416
 31
0.0
  0
LINE
  5
37D
330
1A
100
AcDbEntity
  8
SEIHIN
  6
CONTINUOUS
 62
     3
 48
16.0
100
AcDbLine
 10
479.6053796678391
 20
404.0875441317415
 30
0.0
 11
482.1455796678391
 21
414.2756441317415
 31
0.0
  0
ARC
  5
37E
330
1A
100
AcDbEntity
  8
SEIHIN
  6
CONTINUOUS
 62
     3
 48
16.0
100
AcDbCircle
 10
846.4235614590636
 20
1771.914745685061
 30
0.0
 40
1409.848132001741
100
AcDbArc
 50
254.9832990042768
 51
255.8367729905425
  0
LINE
  5
37F
330
1A
100
AcDbEntity
  8
SEIHIN
  6
CONTINUOUS
 62
     3
 48
16.0
100
AcDbLine
 10
478.1485796678391
 20
406.5119441317415
 30
0.0
 11
480.2049796678391
 21
414.7594441317416
 31
0.0
  0
LINE
  5
380
330
1A
100
AcDbEntity
  8
SEIHIN
  6
CONTINUOUS
 62
     3
 48
16.0
100
AcDbLine
 10
480.0891796678391
 20
406.0281441317415
 30
0.0
 11
460.6832796678391
 21
410.8666441317415
 31
0.0
  0
LINE
  5
381
330
1A
100
AcDbEntity
  8
SEIHIN
  6
CONTINUOUS
 62
     3
 48
16.0
100
AcDbLine
 10
479.6053796678391
 20
404.0875441317415
 30
0.0
 11
460.1994796678392
 21
408.9260441317415
 31
0.0
  0
ARC
  5
382
330
1A
100
AcDbEntity
  8
SEIHIN
  6
CONTINUOUS
 62
     3
 48
16.0
100
AcDbCircle
 10
846.4025787809521
 20
1771.940256772851
 30
0.0
 40
1409.867250289641
100
AcDbArc
 50
254.2526644102015
 51
254.9030843530242
  0
LINE
  5
383
330
1A
100
AcDbEntity
  8
SEIHIN
  6
CONTINUOUS
 62
     3
 48
16.0
100
AcDbLine
 10
464.6802796678391
 20
418.6302441317415
 30
0.0
 11
462.7397796678391
 21
419.1141441317415
 31
0.0
  0
LINE
  5
384
330
1A
100
AcDbEntity
  8
SEIHIN
  6
CONTINUOUS
 62
     3
 48
16.0
100
AcDbLine
 10
463.1077796678392
 20
412.3233441317415
 30
0.0
 11
461.1671796678391
 21
412.8072441317416
 31
0.0
  0
LINE
  5
385
330
1A
100
AcDbEntity
  8
SEIHIN
  6
CONTINUOUS
 62
     3
 48
16.0
100
AcDbLine
 10
462.6238796678391
 20
410.3827441317415
 30
0.0
 11
464.6802796678391
 21
418.6302441317415
 31
0.0
  0
LINE
  5
386
330
1A
100
AcDbEntity
  8
SEIHIN
  6
CONTINUOUS
 62
     3
 48
16.0
100
AcDbLine
 10
460.1994796678392
 20
408.9260441317415
 30
0.0
 11
462.7396796678391
 21
419.1141441317415
 31
0.0
  0
LINE
  5
387
330
1A
100
AcDbEntity
  8
SEIHIN
  6
CONTINUOUS
 62
     3
 48
16.0
100
AcDbLine
 10
480.5730796678392
 20
407.9687441317416
 30
0.0
 11
478.6324796678392
 21
408.4525441317415
 31
0.0
  0
LINE
  5
388
330
1A
100
AcDbEntity
  8
SEIHIN
  6
CONTINUOUS
 62
     3
 48
16.0
100
AcDbLine
 10
512.417179667839
 20
391.0137441317415
 30
0.0
 11
514.809279667839
 21
400.6080441317416
 31
0.0
  0
LINE
  5
389
330
1A
100
AcDbEntity
  8
SEIHIN
  6
CONTINUOUS
 62
     3
 48
16.0
100
AcDbLine
 10
541.6937796678391
 20
405.0968441317415
 30
0.0
 11
507.7343796678392
 21
413.5638441317415
 31
0.0
  0
LINE
  5
38A
330
1A
100
AcDbEntity
  8
SEIHIN
  6
CONTINUOUS
 62
     3
 48
16.0
100
AcDbLine
 10
507.7334796678392
 20
413.5641441317416
 30
0.0
 11
504.2461796678392
 21
399.5774441317415
 31
0.0
  0
LINE
  5
38B
330
1A
100
AcDbEntity
  8
SEIHIN
  6
CONTINUOUS
 62
     3
 48
16.0
100
AcDbLine
 10
500.6813796678391
 20
385.2800441317415
 30
0.0
 11
496.7996796678391
 21
386.2478441317415
 31
0.0
  0
LINE
  5
38C
330
1A
100
AcDbEntity
  8
SEIHIN
  6
CONTINUOUS
 62
     3
 48
16.0
100
AcDbLine
 10
498.2518796678391
 20
392.0695441317416
 30
0.0
 11
501.4562796678391
 21
404.9217441317415
 31
0.0
  0
LINE
  5
38D
330
1A
100
AcDbEntity
  8
SEIHIN
  6
CONTINUOUS
 62
     3
 48
16.0
100
AcDbLine
 10
500.1923796678391
 20
391.5856441317415
 30
0.0
 11
502.3055796678391
 21
400.0612441317415
 31
0.0
  0
LINE
  5
38E
330
1A
100
AcDbEntity
  8
SEIHIN
  6
CONTINUOUS
 62
     3
 48
16.0
100
AcDbLine
 10
502.1329796678391
 20
391.1018441317415
 30
0.0
 11
510.090179667839
 21
389.5351441317416
 31
0.0
  0
LINE
  5
38F
330
1A
100
AcDbEntity
  8
SEIHIN
  6
CONTINUOUS
 62
     3
 48
16.0
100
AcDbLine
 10
502.1329796678391
 20
391.1018441317415
 30
0.0
 11
500.6814796678391
 21
385.2800441317415
 31
0.0
  0
LINE
  5
390
330
1A
100
AcDbEntity
  8
SEIHIN
  6
CONTINUOUS
 62
     3
 48
16.0
100
AcDbLine
 10
502.1329796678391
 20
391.1018441317415
 30
0.0
 11
498.2517796678392
 21
392.0695441317416
 31
0.0
  0
ARC
  5
391
330
1A
100
AcDbEntity
  8
SEIHIN
  6
CONTINUOUS
 62
     3
 48
16.0
100
AcDbCircle
 10
510.4764839039321
 20
391.4975854256441
 30
0.0
 40
2.000003579141524
100
AcDbArc
 50
258.8632245365863
 51
346.0000992970585
  0
LINE
  5
392
330
1A
100
AcDbEntity
  8
SEIHIN
  6
CONTINUOUS
 62
     3
 48
16.0
100
AcDbLine
 10
501.4562796678391
 20
404.9217441317415
 30
0.0
 11
502.3055796678391
 21
400.0612441317415
 31
0.0
  0
LINE
  5
393
330
1A
100
AcDbEntity
  8
SEIHIN
  6
CONTINUOUS
 62
     3
 48
16.0
100
AcDbLine
 10
504.2470796678391
 20
399.5772441317416
 30
0.0
 11
502.3055796678391
 21
400.0613441317416
 31
0.0
  0
LINE
  5
394
330
1A
100
AcDbEntity
  8
SEIHIN
  6
CONTINUOUS
 62
     3
 48
16.0
100
AcDbLine
 10
539.066679667839
 20
394.5599441317415
 30
0.0
 11
514.808479667839
 21
400.6082441317415
 31
0.0
  0
VIEWPORT
  5
22
330
17
100
AcDbEntity
 67
     1
  8
0
100
AcDbViewport
 10
313.6808219178082
 20
148.5
 30
0.0
 40
627.3616438356165
 41
297.0
 68
     2
 69
     1
1001
ACAD
1000
MVIEW
1002
{
1070
    16
1010
0.0
1020
0.0
1030
0.0
1010
0.0
1020
0.0
1030
1.0
1040
0.0
1040
297.0
1040
313.6808219178082
1040
148.5
1040
50.0
1040
0.0
1040
0.0
1070
     0
1070
   100
1070
     1
1070
     0
1070
     0
1070
     0
1070
     0
1070
     0
1040
0.0
1040
0.0
1040
0.0
1040
1.0
1040
1.0
1040
10.0
1040
10.0
1070
     0
1002
{
1002
}
1002
}
  0
VIEWPORT
  5
64
330
17
100
AcDbEntity
 67
     1
  8
VIEWPORT
100
AcDbViewport
 10
210.0
 20
148.5
 30
0.0
 40
420.0
 41
297.0
 68
     1
 69
     2
1001
ACAD
1000
MVIEW
1002
{
1070
    16
1010
0.0
1020
0.0
1030
0.0
1010
0.0
1020
0.0
1030
1.0
1040
0.0
1040
605.8799999999998
1040
420.0
1040
297.0
1040
50.0
1040
0.0
1040
0.0
1070
     0
1070
   100
1070
     1
1070
     0
1070
     0
1070
     0
1070
     0
1070
     0
1040
0.0
1040
0.0
1040
0.0
1040
10.0
1040
10.0
1040
0.0
1040
0.0
1070
     0
1002
{
1002
}
1002
}
  0
ENDSEC
  0
SECTION
  2
OBJECTS
  0
DICTIONARY
  5
C
330
0
100
AcDbDictionary
  3
ACAD_GROUP
350
D
  3
ACAD_LAYOUT
350
42E
  3
ACAD_MLINESTYLE
350
E
  3
ACAD_PLOTSETTINGS
350
42F
1001
ACAD
1000
TREAT_AS_HARD
1070
     0
  0
DICTIONARY
  5
45D
330
1A
100
AcDbDictionary
  3
ACAD_LAYOUTSELFREF
350
476
1001
ACAD
1000
TREAT_AS_HARD
1070
     1
  0
DICTIONARY
  5
45B
330
17
100
AcDbDictionary
  3
ACAD_LAYOUTSELFREF
350
475
1001
ACAD
1000
TREAT_AS_HARD
1070
     1
  0
DICTIONARY
  5
D
102
{ACAD_REACTORS
330
C
102
}
330
C
100
AcDbDictionary
1001
ACAD
1000
TREAT_AS_HARD
1070
     0
  0
DICTIONARY
  5
42E
102
{ACAD_REACTORS
330
C
102
}
330
C
100
AcDbDictionary
1001
ACAD
1000
TREAT_AS_HARD
1070
     0
  0
DICTIONARY
  5
E
102
{ACAD_REACTORS
330
C
102
}
330
C
100
AcDbDictionary
  3
STANDARD
350
13
1001
ACAD
1000
TREAT_AS_HARD
1070
     0
  0
DICTIONARY
  5
42F
102
{ACAD_REACTORS
330
C
102
}
330
C
100
AcDbDictionary
1001
ACAD
1000
TREAT_AS_HARD
1070
     0
  0
XRECORD
  5
476
102
{ACAD_REACTORS
330
45D
102
}
330
45D
100
AcDbXrecord
340
1A
  0
XRECORD
  5
475
102
{ACAD_REACTORS
330
45B
102
}
330
45B
100
AcDbXrecord
340
17
  0
MLINESTYLE
  5
13
102
{ACAD_REACTORS
330
E
102
}
330
E
100
AcDbMlineStyle
  2
STANDARD
 70
     0
  3

 62
     0
 51
90.0
 52
90.0
 71
     2
 49
0.5
 62
   256
  6
BYLAYER
 49
-0.5
 62
   256
  6
BYLAYER
  0
ENDSEC
  0
EOF
