  0
SECTION
  2
HEADER
  9
$ACADVER
  1
AC1012
  9
$DWGCODEPAGE
  3
dos932
  9
$INSBASE
 10
0.0
 20
0.0
 30
0.0
  9
$EXTMIN
 10
10.05047808566086
 20
4.949376903717846
 30
0.0
  9
$EXTMAX
 10
806.2246110975902
 20
563.7825862828226
 30
0.0
  9
$LIMMIN
 10
0.0
 20
0.0
  9
$LIMMAX
 10
840.0
 20
594.0
  9
$ORTHOMODE
 70
     0
  9
$REGENMODE
 70
     1
  9
$FILLMODE
 70
     1
  9
$QTEXTMODE
 70
     0
  9
$MIRRTEXT
 70
     1
  9
$DRAGMODE
 70
     2
  9
$LTSCALE
 40
2.0
  9
$OSMODE
 70
   319
  9
$ATTMODE
 70
     1
  9
$TEXTSIZE
 40
5.0
  9
$TRACEWID
 40
1.0
  9
$TEXTSTYLE
  7
STANDARD
  9
$CLAYER
  8
SUNPOU
  9
$CELTYPE
  6
BYLAYER
  9
$CECOLOR
 62
   256
  9
$CELTSCALE
 40
1.0
  9
$DELOBJ
 70
     1
  9
$DISPSILH
 70
     0
  9
$DIMSCALE
 40
1.0
  9
$DIMASZ
 40
7.0
  9
$DIMEXO
 40
6.0
  9
$DIMDLI
 40
14.0
  9
$DIMRND
 40
0.0
  9
$DIMDLE
 40
0.0
  9
$DIMEXE
 40
3.0
  9
$DIMTP
 40
0.0
  9
$DIMTM
 40
0.0
  9
$DIMTXT
 40
6.0
  9
$DIMCEN
 40
150.0
  9
$DIMTSZ
 40
0.0
  9
$DIMTOL
 70
     0
  9
$DIMLIM
 70
     0
  9
$DIMTIH
 70
     0
  9
$DIMTOH
 70
     0
  9
$DIMSE1
 70
     0
  9
$DIMSE2
 70
     0
  9
$DIMTAD
 70
     3
  9
$DIMZIN
 70
     0
  9
$DIMBLK
  1

  9
$DIMASO
 70
     1
  9
$DIMSHO
 70
     1
  9
$DIMPOST
  1

  9
$DIMAPOST
  1

  9
$DIMALT
 70
     0
  9
$DIMALTD
 70
     2
  9
$DIMALTF
 40
25.4
  9
$DIMLFAC
 40
1.0
  9
$DIMTOFL
 70
     1
  9
$DIMTVP
 40
0.0
  9
$DIMTIX
 70
     0
  9
$DIMSOXD
 70
     0
  9
$DIMSAH
 70
     1
  9
$DIMBLK1
  1
OPEN
  9
$DIMBLK2
  1
OPEN
  9
$DIMSTYLE
  2
STANDARD
  9
$DIMCLRD
 70
   256
  9
$DIMCLRE
 70
   256
  9
$DIMCLRT
 70
   256
  9
$DIMTFAC
 40
1.0
  9
$DIMGAP
 40
2.0
  9
$DIMJUST
 70
     0
  9
$DIMSD1
 70
     0
  9
$DIMSD2
 70
     0
  9
$DIMTOLJ
 70
     1
  9
$DIMTZIN
 70
     0
  9
$DIMALTZ
 70
     0
  9
$DIMALTTZ
 70
     0
  9
$DIMFIT
 70
     3
  9
$DIMUPT
 70
     1
  9
$DIMUNIT
 70
     2
  9
$DIMDEC
 70
     0
  9
$DIMTDEC
 70
     0
  9
$DIMALTU
 70
     2
  9
$DIMALTTD
 70
     2
  9
$DIMTXSTY
  7
STANDARD
  9
$DIMAUNIT
 70
     0
  9
$LUNITS
 70
     2
  9
$LUPREC
 70
     4
  9
$SKETCHINC
 40
1.0
  9
$FILLETRAD
 40
1.0
  9
$AUNITS
 70
     0
  9
$AUPREC
 70
     0
  9
$MENU
  1
.
  9
$ELEVATION
 40
0.0
  9
$PELEVATION
 40
0.0
  9
$THICKNESS
 40
0.0
  9
$LIMCHECK
 70
     0
  9
$BLIPMODE
 70
     0
  9
$CHAMFERA
 40
20.0
  9
$CHAMFERB
 40
20.0
  9
$CHAMFERC
 40
40.0
  9
$CHAMFERD
 40
0.0
  9
$SKPOLY
 70
     0
  9
$TDCREATE
 40
2451186.460295486
  9
$TDUPDATE
 40
2452422.708030208
  9
$TDINDWG
 40
0.0079309028
  9
$TDUSRTIMER
 40
0.0079309028
  9
$USRTIMER
 70
     1
  9
$ANGBASE
 50
0.0
  9
$ANGDIR
 70
     0
  9
$PDMODE
 70
     0
  9
$PDSIZE
 40
0.0
  9
$PLINEWID
 40
0.0
  9
$COORDS
 70
     1
  9
$SPLFRAME
 70
     0
  9
$SPLINETYPE
 70
     6
  9
$SPLINESEGS
 70
     8
  9
$ATTDIA
 70
     0
  9
$ATTREQ
 70
     1
  9
$HANDLING
 70
 10241
  9
$HANDSEED
  5
52A
  9
$SURFTAB1
 70
     6
  9
$SURFTAB2
 70
     6
  9
$SURFTYPE
 70
     6
  9
$SURFU
 70
     6
  9
$SURFV
 70
     6
  9
$UCSNAME
  2

  9
$UCSORG
 10
0.0
 20
0.0
 30
0.0
  9
$UCSXDIR
 10
1.0
 20
0.0
 30
0.0
  9
$UCSYDIR
 10
0.0
 20
1.0
 30
0.0
  9
$PUCSNAME
  2

  9
$PUCSORG
 10
0.0
 20
0.0
 30
0.0
  9
$PUCSXDIR
 10
1.0
 20
0.0
 30
0.0
  9
$PUCSYDIR
 10
0.0
 20
1.0
 30
0.0
  9
$USERI1
 70
     0
  9
$USERI2
 70
     0
  9
$USERI3
 70
     0
  9
$USERI4
 70
     0
  9
$USERI5
 70
     0
  9
$USERR1
 40
0.0
  9
$USERR2
 40
0.0
  9
$USERR3
 40
0.0
  9
$USERR4
 40
0.0
  9
$USERR5
 40
0.0
  9
$WORLDVIEW
 70
     1
  9
$SHADEDGE
 70
     3
  9
$SHADEDIF
 70
    70
  9
$TILEMODE
 70
     1
  9
$MAXACTVP
 70
    16
  9
$PINSBASE
 10
0.0
 20
0.0
 30
0.0
  9
$PLIMCHECK
 70
     0
  9
$PEXTMIN
 10
0.0
 20
0.0
 30
0.0
  9
$PEXTMAX
 10
420.0
 20
297.0
 30
0.0
  9
$PLIMMIN
 10
0.0
 20
0.0
  9
$PLIMMAX
 10
420.0
 20
297.0
  9
$UNITMODE
 70
     0
  9
$VISRETAIN
 70
     0
  9
$PLINEGEN
 70
     0
  9
$PSLTSCALE
 70
     1
  9
$TREEDEPTH
 70
  3020
  9
$PICKSTYLE
 70
     1
  9
$CMLSTYLE
  2
STANDARD
  9
$CMLJUST
 70
     0
  9
$CMLSCALE
 40
1.0
  9
$SAVEIMAGES
 70
     1
  0
ENDSEC
  0
SECTION
  2
CLASSES
  0
CLASS
  1
ACDBDICTIONARYWDFLT
  2
AcDbDictionaryWithDefault
  3
AutoCAD 2000
 90
    32768
280
     0
281
     0
  0
CLASS
  1
ACDBPLACEHOLDER
  2
AcDbPlaceHolder
  3
AutoCAD 2000
 90
    32768
280
     0
281
     0
  0
CLASS
  1
LAYOUT
  2
AcDbLayout
  3
AutoCAD 2000
 90
    32768
280
     0
281
     0
  0
CLASS
  1
LONG_TRANSACTION
  2
AcDbLongTransaction
  3
AutoCAD 2000
 90
    32768
280
     0
281
     0
  0
CLASS
  1
LWPOLYLINE
  2
AcDbPolyline
  3
AutoCAD 2000
 90
    32768
280
     0
281
     1
  0
CLASS
  1
HATCH
  2
AcDbHatch
  3
AutoCAD 2000
 90
    32768
280
     0
281
     1
  0
CLASS
  1
XRECORD
  2
AcDbXrecord
  3
AutoCAD 2000
 90
    32768
280
     0
281
     0
  0
CLASS
  1
LONG_TRANSACTION
  2
AcDbLongTransaction
  3
AutoCAD 2000
 90
    32768
280
     0
281
     0
  0
CLASS
  1
LWPOLYLINE
  2
AcDbPolyline
  3
AutoCAD 2000
 90
    32768
280
     0
281
     1
  0
CLASS
  1
HATCH
  2
AcDbHatch
  3
AutoCAD 2000
 90
    32768
280
     0
281
     1
  0
CLASS
  1
XRECORD
  2
AcDbXrecord
  3
AutoCAD 2000
 90
    32768
280
     0
281
     0
  0
ENDSEC
  0
SECTION
  2
TABLES
  0
TABLE
  2
VPORT
  5
8
330
0
100
AcDbSymbolTable
 70
     2
  0
VPORT
  5
527
330
8
100
AcDbSymbolTableRecord
100
AcDbViewportTableRecord
  2
*ACTIVE
 70
     0
 10
0.0
 20
0.0
 11
1.0
 21
1.0
 12
419.8674830332605
 22
294.5153984335683
 13
0.0
 23
0.0
 14
5.0
 24
5.0
 15
0.0
 25
0.0
 16
0.0
 26
0.0
 36
1.0
 17
0.0
 27
0.0
 37
0.0
 40
595.9826575707864
 41
1.709909909909909
 42
50.0
 43
0.0
 44
0.0
 50
0.0
 51
0.0
 71
     0
 72
   100
 73
     1
 74
     0
 75
     0
 76
     0
 77
     0
 78
     0
  0
ENDTAB
  0
TABLE
  2
LTYPE
  5
5
330
0
100
AcDbSymbolTable
 70
     3
  0
LTYPE
  5
14
330
5
100
AcDbSymbolTableRecord
100
AcDbLinetypeTableRecord
  2
BYBLOCK
 70
     0
  3

 72
    65
 73
     0
 40
0.0
  0
LTYPE
  5
15
330
5
100
AcDbSymbolTableRecord
100
AcDbLinetypeTableRecord
  2
BYLAYER
 70
     0
  3

 72
    65
 73
     0
 40
0.0
  0
LTYPE
  5
16
330
5
100
AcDbSymbolTableRecord
100
AcDbLinetypeTableRecord
  2
CONTINUOUS
 70
     0
  3
Solid line
 72
    65
 73
     0
 40
0.0
  0
LTYPE
  5
115
330
5
100
AcDbSymbolTableRecord
100
AcDbLinetypeTableRecord
  2
PHANTOM
 70
     0
  3
______  __  __  ______  __  __  ______  __  __ 
 72
    65
 73
     6
 40
2.5
 49
1.25
 74
     0
 49
-0.25
 74
     0
 49
0.25
 74
     0
 49
-0.25
 74
     0
 49
0.25
 74
     0
 49
-0.25
 74
     0
  0
LTYPE
  5
135
330
5
100
AcDbSymbolTableRecord
100
AcDbLinetypeTableRecord
  2
CENTER
 70
     0
  3
____ _ ____ _ ____ _ ____ _ ____ _ ____ _ ____ 
 72
    65
 73
     4
 40
2.0
 49
1.25
 74
     0
 49
-0.25
 74
     0
 49
0.25
 74
     0
 49
-0.25
 74
     0
  0
ENDTAB
  0
TABLE
  2
LAYER
  5
2
330
0
100
AcDbSymbolTable
 70
     8
  0
LAYER
  5
F
330
2
100
AcDbSymbolTableRecord
100
AcDbLayerTableRecord
  2
0
 70
     0
 62
     7
  6
CONTINUOUS
  0
LAYER
  5
62
330
2
100
AcDbSymbolTableRecord
100
AcDbLayerTableRecord
  2
VIEWPORT
 70
     0
 62
     7
  6
CONTINUOUS
  0
LAYER
  5
65
330
2
100
AcDbSymbolTableRecord
100
AcDbLayerTableRecord
  2
ZUWAKU
 70
     0
 62
     7
  6
CONTINUOUS
  0
LAYER
  5
18D
330
2
100
AcDbSymbolTableRecord
100
AcDbLayerTableRecord
  2
SEIHIN
 70
     0
 62
     3
  6
CONTINUOUS
  0
LAYER
  5
18E
330
2
100
AcDbSymbolTableRecord
100
AcDbLayerTableRecord
  2
SUNPOU
 70
     0
 62
     4
  6
CONTINUOUS
  0
LAYER
  5
18F
330
2
100
AcDbSymbolTableRecord
100
AcDbLayerTableRecord
  2
CENTER_L
 70
     0
 62
     1
  6
CENTER
  0
LAYER
  5
190
330
2
100
AcDbSymbolTableRecord
100
AcDbLayerTableRecord
  2
NOKITOI
 70
     0
 62
     8
  6
PHANTOM
  0
LAYER
  5
191
330
2
100
AcDbSymbolTableRecord
100
AcDbLayerTableRecord
  2
DEFPOINTS
 70
     0
 62
     7
  6
CONTINUOUS
  0
ENDTAB
  0
TABLE
  2
STYLE
  5
3
330
0
100
AcDbSymbolTable
 70
     1
  0
STYLE
  5
10
330
3
100
AcDbSymbolTableRecord
100
AcDbTextStyleTableRecord
  2
STANDARD
 70
     0
 40
0.0
 41
1.0
 50
0.0
 71
     0
 42
5.0
  3
TXT
  4
bigfont.shx
  0
ENDTAB
  0
TABLE
  2
VIEW
  5
6
330
0
100
AcDbSymbolTable
 70
     0
  0
ENDTAB
  0
TABLE
  2
UCS
  5
7
330
0
100
AcDbSymbolTable
 70
     0
  0
ENDTAB
  0
TABLE
  2
APPID
  5
9
330
0
100
AcDbSymbolTable
 70
     1
  0
APPID
  5
11
330
9
100
AcDbSymbolTableRecord
100
AcDbRegAppTableRecord
  2
ACAD
 70
     0
  0
ENDTAB
  0
TABLE
  2
DIMSTYLE
  5
A
330
0
100
AcDbSymbolTable
 70
     1
  0
DIMSTYLE
105
1D
102
{ACAD_REACTORS
330
2D1
330
2DC
330
2E0
330
348
330
3D5
330
4BD
102
}
330
A
100
AcDbSymbolTableRecord
100
AcDbDimStyleTableRecord
  2
STANDARD
 70
     0
  3

  4

  5

  6

  7

 40
1.0
 41
0.18
 42
0.0625
 43
0.38
 44
0.18
 45
0.0
 46
0.0
 47
0.0
 48
0.0
140
0.18
141
0.09
142
0.0
143
25.4
144
1.0
145
0.0
146
1.0
147
0.09
 71
     0
 72
     0
 73
     1
 74
     1
 75
     0
 76
     0
 77
     0
 78
     0
170
     0
171
     2
172
     0
173
     0
174
     0
175
     0
176
     0
177
     0
178
     0
270
     2
271
     4
272
     4
273
     2
274
     2
340
10
275
     0
280
     0
281
     0
282
     0
283
     1
284
     0
285
     0
286
     0
287
     3
288
     0
  0
ENDTAB
  0
TABLE
  2
BLOCK_RECORD
  5
1
330
0
100
AcDbSymbolTable
 70
     7
  0
BLOCK_RECORD
  5
1A
102
{ACAD_XDICTIONARY
360
519
102
}
330
1
100
AcDbSymbolTableRecord
100
AcDbBlockTableRecord
  2
*MODEL_SPACE
  0
BLOCK_RECORD
  5
17
102
{ACAD_XDICTIONARY
360
517
102
}
330
1
100
AcDbSymbolTableRecord
100
AcDbBlockTableRecord
  2
*PAPER_SPACE
  0
BLOCK_RECORD
  5
6D
330
1
100
AcDbSymbolTableRecord
100
AcDbBlockTableRecord
  2
_OPEN
  0
BLOCK_RECORD
  5
3D8
330
1
100
AcDbSymbolTableRecord
100
AcDbBlockTableRecord
  2
*D1
  0
BLOCK_RECORD
  5
3E4
330
1
100
AcDbSymbolTableRecord
100
AcDbBlockTableRecord
  2
*D2
  0
BLOCK_RECORD
  5
3F0
330
1
100
AcDbSymbolTableRecord
100
AcDbBlockTableRecord
  2
*D3
  0
BLOCK_RECORD
  5
3FC
330
1
100
AcDbSymbolTableRecord
100
AcDbBlockTableRecord
  2
*D4
  0
BLOCK_RECORD
  5
416
330
1
100
AcDbSymbolTableRecord
100
AcDbBlockTableRecord
  2
*D5
  0
BLOCK_RECORD
  5
4B0
330
1
100
AcDbSymbolTableRecord
100
AcDbBlockTableRecord
  2
*D6
  0
ENDTAB
  0
ENDSEC
  0
SECTION
  2
BLOCKS
  0
BLOCK
  5
1B
330
1A
100
AcDbEntity
  8
0
100
AcDbBlockBegin
  2
*MODEL_SPACE
 70
     0
 10
0.0
 20
0.0
 30
0.0
  3
*MODEL_SPACE
  1

  0
ENDBLK
  5
1C
330
1A
100
AcDbEntity
  8
0
100
AcDbBlockEnd
  0
BLOCK
  5
18
330
17
100
AcDbEntity
 67
     1
  8
0
100
AcDbBlockBegin
  2
*PAPER_SPACE
 70
     0
 10
0.0
 20
0.0
 30
0.0
  3
*PAPER_SPACE
  1

  0
ENDBLK
  5
19
330
17
100
AcDbEntity
 67
     1
  8
0
100
AcDbBlockEnd
  0
BLOCK
  5
6E
330
6D
100
AcDbEntity
  8
0
100
AcDbBlockBegin
  2
_OPEN
 70
     0
 10
0.0
 20
0.0
 30
0.0
  3
_OPEN
  1

  0
LINE
  5
6F
330
6D
100
AcDbEntity
  8
0
  6
BYBLOCK
 62
     0
100
AcDbLine
 10
-1.0
 20
0.1666666666666666
 30
0.0
 11
0.0
 21
0.0
 31
0.0
  0
LINE
  5
70
330
6D
100
AcDbEntity
  8
0
  6
BYBLOCK
 62
     0
100
AcDbLine
 10
0.0
 20
0.0
 30
0.0
 11
-1.0
 21
-0.1666666666666666
 31
0.0
  0
LINE
  5
71
330
6D
100
AcDbEntity
  8
0
  6
BYBLOCK
 62
     0
100
AcDbLine
 10
0.0
 20
0.0
 30
0.0
 11
-1.0
 21
0.0
 31
0.0
  0
ENDBLK
  5
72
330
6D
100
AcDbEntity
  8
0
100
AcDbBlockEnd
  0
BLOCK
  5
422
330
3D8
100
AcDbEntity
  8
0
100
AcDbBlockBegin
  2
*D1
 70
     1
 10
0.0
 20
0.0
 30
0.0
  3
*D1
  1

  0
LINE
  5
423
330
3D8
100
AcDbEntity
  8
0
  6
BYBLOCK
 62
     4
100
AcDbLine
 10
580.4257063567951
 20
460.8042319662326
 30
0.0
 11
638.7674770795765
 21
460.8042319662326
 31
0.0
  0
LINE
  5
424
330
3D8
100
AcDbEntity
  8
0
  6
BYBLOCK
 62
     4
100
AcDbLine
 10
545.575606356795
 20
307.6541319662325
 30
0.0
 11
638.7674770795765
 21
307.6541319662325
 31
0.0
  0
LINE
  5
425
330
3D8
100
AcDbEntity
  8
0
  6
BYBLOCK
 62
     4
100
AcDbLine
 10
635.7674770795766
 20
453.8042319662325
 30
0.0
 11
635.7674770795766
 21
314.6541319662325
 31
0.0
  0
INSERT
  5
426
330
3D8
100
AcDbEntity
  8
0
  6
BYBLOCK
 62
     4
100
AcDbBlockReference
  2
_OPEN
 10
635.7674770795766
 20
460.8042319662326
 30
0.0
 41
7.0
 42
7.0
 43
7.0
 50
90.0
  0
INSERT
  5
427
330
3D8
100
AcDbEntity
  8
0
  6
BYBLOCK
 62
     4
100
AcDbBlockReference
  2
_OPEN
 10
635.7674770795766
 20
307.6541319662325
 30
0.0
 41
7.0
 42
7.0
 43
7.0
 50
270.0
  0
MTEXT
  5
428
330
3D8
100
AcDbEntity
  8
0
  6
BYBLOCK
 62
     4
100
AcDbMText
 10
630.7674770795765
 20
384.2291819662325
 30
0.0
 40
6.0
 41
0.0
 71
     5
 72
     1
  1
\A1;153
 11
0.0
 21
1.0
 31
0.0
1001
ACAD
1000
MTEXTBEGIN
1070
    73
1070
     1
1070
    44
1040
1.0
1070
    74
1070
     0
1000
MTEXTEND
1000
MTEXTBEGIN
1070
    73
1070
     1
1070
    44
1040
1.0
1070
    74
1070
     0
1000
MTEXTEND
  0
POINT
  5
429
330
3D8
100
AcDbEntity
  8
DEFPOINTS
  6
BYBLOCK
 62
     0
100
AcDbPoint
 10
574.4257063567951
 20
460.8042319662326
 30
0.0
  0
POINT
  5
42A
330
3D8
100
AcDbEntity
  8
DEFPOINTS
  6
BYBLOCK
 62
     0
100
AcDbPoint
 10
539.5756063567951
 20
307.6541319662325
 30
0.0
  0
POINT
  5
42B
330
3D8
100
AcDbEntity
  8
DEFPOINTS
  6
BYBLOCK
 62
     0
100
AcDbPoint
 10
635.7674770795766
 20
307.6541319662325
 30
0.0
  0
ENDBLK
  5
42C
330
3D8
100
AcDbEntity
  8
0
100
AcDbBlockEnd
  0
BLOCK
  5
42D
330
3E4
100
AcDbEntity
  8
0
100
AcDbBlockBegin
  2
*D2
 70
     1
 10
0.0
 20
0.0
 30
0.0
  3
*D2
  1

  0
LINE
  5
42E
330
3E4
100
AcDbEntity
  8
0
  6
BYBLOCK
 62
     4
100
AcDbLine
 10
574.4255063567949
 20
213.6787319662325
 30
0.0
 11
574.4255063567949
 21
259.1002746017167
 31
0.0
  0
LINE
  5
42F
330
3E4
100
AcDbEntity
  8
0
  6
BYBLOCK
 62
     4
100
AcDbLine
 10
421.275506356795
 20
213.6787319662325
 30
0.0
 11
421.275506356795
 21
259.1002746017167
 31
0.0
  0
LINE
  5
430
330
3E4
100
AcDbEntity
  8
0
  6
BYBLOCK
 62
     4
100
AcDbLine
 10
567.4255063567949
 20
256.1002746017167
 30
0.0
 11
428.275506356795
 21
256.1002746017167
 31
0.0
  0
INSERT
  5
431
330
3E4
100
AcDbEntity
  8
0
  6
BYBLOCK
 62
     4
100
AcDbBlockReference
  2
_OPEN
 10
574.4255063567949
 20
256.1002746017167
 30
0.0
 41
7.0
 42
7.0
 43
7.0
  0
INSERT
  5
432
330
3E4
100
AcDbEntity
  8
0
  6
BYBLOCK
 62
     4
100
AcDbBlockReference
  2
_OPEN
 10
421.275506356795
 20
256.1002746017167
 30
0.0
 41
7.0
 42
7.0
 43
7.0
 50
180.0
  0
MTEXT
  5
433
330
3E4
100
AcDbEntity
  8
0
  6
BYBLOCK
 62
     4
100
AcDbMText
 10
497.850506356795
 20
261.1002746017167
 30
0.0
 40
6.0
 41
0.0
 71
     5
 72
     1
  1
\A1;153
1001
ACAD
1000
MTEXTBEGIN
1070
    73
1070
     1
1070
    44
1040
1.0
1070
    74
1070
     0
1000
MTEXTEND
1000
MTEXTBEGIN
1070
    73
1070
     1
1070
    44
1040
1.0
1070
    74
1070
     0
1000
MTEXTEND
  0
POINT
  5
434
330
3E4
100
AcDbEntity
  8
DEFPOINTS
  6
BYBLOCK
 62
     0
100
AcDbPoint
 10
574.4255063567949
 20
207.6787319662325
 30
0.0
  0
POINT
  5
435
330
3E4
100
AcDbEntity
  8
DEFPOINTS
  6
BYBLOCK
 62
     0
100
AcDbPoint
 10
421.275506356795
 20
207.6787319662325
 30
0.0
  0
POINT
  5
436
330
3E4
100
AcDbEntity
  8
DEFPOINTS
  6
BYBLOCK
 62
     0
100
AcDbPoint
 10
421.275506356795
 20
256.1002746017167
 30
0.0
  0
ENDBLK
  5
437
330
3E4
100
AcDbEntity
  8
0
100
AcDbBlockEnd
  0
BLOCK
  5
438
330
3F0
100
AcDbEntity
  8
0
100
AcDbBlockBegin
  2
*D3
 70
     1
 10
0.0
 20
0.0
 30
0.0
  3
*D3
  1

  0
LINE
  5
439
330
3F0
100
AcDbEntity
  8
0
  6
BYBLOCK
 62
     4
100
AcDbLine
 10
539.5755063567951
 20
213.6787319662325
 30
0.0
 11
539.5755063567951
 21
241.5458405829751
 31
0.0
  0
LINE
  5
43A
330
3F0
100
AcDbEntity
  8
0
  6
BYBLOCK
 62
     4
100
AcDbLine
 10
421.275506356795
 20
213.6787319662325
 30
0.0
 11
421.275506356795
 21
241.5458405829751
 31
0.0
  0
LINE
  5
43B
330
3F0
100
AcDbEntity
  8
0
  6
BYBLOCK
 62
     4
100
AcDbLine
 10
532.5755063567951
 20
238.5458405829751
 30
0.0
 11
428.275506356795
 21
238.5458405829751
 31
0.0
  0
INSERT
  5
43C
330
3F0
100
AcDbEntity
  8
0
  6
BYBLOCK
 62
     4
100
AcDbBlockReference
  2
_OPEN
 10
539.5755063567951
 20
238.5458405829751
 30
0.0
 41
7.0
 42
7.0
 43
7.0
  0
INSERT
  5
43D
330
3F0
100
AcDbEntity
  8
0
  6
BYBLOCK
 62
     4
100
AcDbBlockReference
  2
_OPEN
 10
421.275506356795
 20
238.5458405829751
 30
0.0
 41
7.0
 42
7.0
 43
7.0
 50
180.0
  0
MTEXT
  5
43E
330
3F0
100
AcDbEntity
  8
0
  6
BYBLOCK
 62
     4
100
AcDbMText
 10
480.4255063567951
 20
243.5458405829751
 30
0.0
 40
6.0
 41
0.0
 71
     5
 72
     1
  1
\A1;118
1001
ACAD
1000
MTEXTBEGIN
1070
    73
1070
     1
1070
    44
1040
1.0
1070
    74
1070
     0
1000
MTEXTEND
1000
MTEXTBEGIN
1070
    73
1070
     1
1070
    44
1040
1.0
1070
    74
1070
     0
1000
MTEXTEND
  0
POINT
  5
43F
330
3F0
100
AcDbEntity
  8
DEFPOINTS
  6
BYBLOCK
 62
     0
100
AcDbPoint
 10
539.5755063567951
 20
207.6787319662325
 30
0.0
  0
POINT
  5
440
330
3F0
100
AcDbEntity
  8
DEFPOINTS
  6
BYBLOCK
 62
     0
100
AcDbPoint
 10
421.275506356795
 20
207.6787319662325
 30
0.0
  0
POINT
  5
441
330
3F0
100
AcDbEntity
  8
DEFPOINTS
  6
BYBLOCK
 62
     0
100
AcDbPoint
 10
421.275506356795
 20
238.5458405829751
 30
0.0
  0
ENDBLK
  5
442
330
3F0
100
AcDbEntity
  8
0
100
AcDbBlockEnd
  0
BLOCK
  5
443
330
3FC
100
AcDbEntity
  8
0
100
AcDbBlockBegin
  2
*D4
 70
     1
 10
0.0
 20
0.0
 30
0.0
  3
*D4
  1

  0
LINE
  5
444
330
3FC
100
AcDbEntity
  8
0
  6
BYBLOCK
 62
     4
100
AcDbLine
 10
580.4257063567951
 20
207.6787319662325
 30
0.0
 11
617.8048364919309
 21
207.6787319662325
 31
0.0
  0
LINE
  5
445
330
3FC
100
AcDbEntity
  8
0
  6
BYBLOCK
 62
     4
100
AcDbLine
 10
575.4255063567949
 20
153.5787319662325
 30
0.0
 11
617.8048364919309
 21
153.5787319662325
 31
0.0
  0
LINE
  5
446
330
3FC
100
AcDbEntity
  8
0
  6
BYBLOCK
 62
     4
100
AcDbLine
 10
614.8048364919309
 20
200.6787319662325
 30
0.0
 11
614.8048364919309
 21
160.5787319662325
 31
0.0
  0
INSERT
  5
447
330
3FC
100
AcDbEntity
  8
0
  6
BYBLOCK
 62
     4
100
AcDbBlockReference
  2
_OPEN
 10
614.8048364919309
 20
207.6787319662325
 30
0.0
 41
7.0
 42
7.0
 43
7.0
 50
90.0
  0
INSERT
  5
448
330
3FC
100
AcDbEntity
  8
0
  6
BYBLOCK
 62
     4
100
AcDbBlockReference
  2
_OPEN
 10
614.8048364919309
 20
153.5787319662325
 30
0.0
 41
7.0
 42
7.0
 43
7.0
 50
270.0
  0
MTEXT
  5
449
330
3FC
100
AcDbEntity
  8
0
  6
BYBLOCK
 62
     4
100
AcDbMText
 10
609.8048364919309
 20
180.6287319662325
 30
0.0
 40
6.0
 41
0.0
 71
     5
 72
     1
  1
\A1;54
 11
0.0
 21
1.0
 31
0.0
1001
ACAD
1000
MTEXTBEGIN
1070
    73
1070
     1
1070
    44
1040
1.0
1070
    74
1070
     0
1000
MTEXTEND
1000
MTEXTBEGIN
1070
    73
1070
     1
1070
    44
1040
1.0
1070
    74
1070
     0
1000
MTEXTEND
  0
POINT
  5
44A
330
3FC
100
AcDbEntity
  8
DEFPOINTS
  6
BYBLOCK
 62
     0
100
AcDbPoint
 10
574.4257063567951
 20
207.6787319662325
 30
0.0
  0
POINT
  5
44B
330
3FC
100
AcDbEntity
  8
DEFPOINTS
  6
BYBLOCK
 62
     0
100
AcDbPoint
 10
569.4255063567949
 20
153.5787319662325
 30
0.0
  0
POINT
  5
44C
330
3FC
100
AcDbEntity
  8
DEFPOINTS
  6
BYBLOCK
 62
     0
100
AcDbPoint
 10
614.8048364919309
 20
153.5787319662325
 30
0.0
  0
ENDBLK
  5
44D
330
3FC
100
AcDbEntity
  8
0
100
AcDbBlockEnd
  0
BLOCK
  5
45B
330
416
100
AcDbEntity
  8
0
100
AcDbBlockBegin
  2
*D5
 70
     1
 10
0.0
 20
0.0
 30
0.0
  3
*D5
  1

  0
LINE
  5
45C
330
416
100
AcDbEntity
  8
0
  6
BYBLOCK
 62
     4
100
AcDbLine
 10
580.4257063567951
 20
460.8042319662326
 30
0.0
 11
617.8048364919309
 21
460.8042319662326
 31
0.0
  0
LINE
  5
45D
330
416
100
AcDbEntity
  8
0
  6
BYBLOCK
 62
     4
100
AcDbLine
 10
580.4257063567951
 20
342.5042319662325
 30
0.0
 11
617.8048364919309
 21
342.5042319662325
 31
0.0
  0
LINE
  5
45E
330
416
100
AcDbEntity
  8
0
  6
BYBLOCK
 62
     4
100
AcDbLine
 10
614.8048364919309
 20
453.8042319662325
 30
0.0
 11
614.8048364919309
 21
349.5042319662325
 31
0.0
  0
INSERT
  5
45F
330
416
100
AcDbEntity
  8
0
  6
BYBLOCK
 62
     4
100
AcDbBlockReference
  2
_OPEN
 10
614.8048364919309
 20
460.8042319662326
 30
0.0
 41
7.0
 42
7.0
 43
7.0
 50
90.0
  0
INSERT
  5
460
330
416
100
AcDbEntity
  8
0
  6
BYBLOCK
 62
     4
100
AcDbBlockReference
  2
_OPEN
 10
614.8048364919309
 20
342.5042319662325
 30
0.0
 41
7.0
 42
7.0
 43
7.0
 50
270.0
  0
MTEXT
  5
461
330
416
100
AcDbEntity
  8
0
  6
BYBLOCK
 62
     4
100
AcDbMText
 10
609.8048364919309
 20
401.6542319662326
 30
0.0
 40
6.0
 41
0.0
 71
     5
 72
     1
  1
\A1;118
 11
0.0
 21
1.0
 31
0.0
1001
ACAD
1000
MTEXTBEGIN
1070
    73
1070
     1
1070
    44
1040
1.0
1070
    74
1070
     0
1000
MTEXTEND
1000
MTEXTBEGIN
1070
    73
1070
     1
1070
    44
1040
1.0
1070
    74
1070
     0
1000
MTEXTEND
  0
POINT
  5
462
330
416
100
AcDbEntity
  8
DEFPOINTS
  6
BYBLOCK
 62
     0
100
AcDbPoint
 10
574.4257063567951
 20
460.8042319662326
 30
0.0
  0
POINT
  5
463
330
416
100
AcDbEntity
  8
DEFPOINTS
  6
BYBLOCK
 62
     0
100
AcDbPoint
 10
574.4257063567951
 20
342.5042319662325
 30
0.0
  0
POINT
  5
464
330
416
100
AcDbEntity
  8
DEFPOINTS
  6
BYBLOCK
 62
     0
100
AcDbPoint
 10
614.8048364919309
 20
342.5042319662325
 30
0.0
  0
ENDBLK
  5
465
330
416
100
AcDbEntity
  8
0
100
AcDbBlockEnd
  0
BLOCK
  5
4D6
330
4B0
100
AcDbEntity
  8
0
100
AcDbBlockBegin
  2
*D6
 70
     1
 10
0.0
 20
0.0
 30
0.0
  3
*D6
  1

  0
LINE
  5
4D7
330
4B0
100
AcDbEntity
  8
0
  6
BYBLOCK
 62
     4
100
AcDbLine
 10
537.1504511448243
 20
360.7391910190061
 30
0.0
 11
537.1504511448243
 21
367.2509549676537
 31
0.0
  0
LINE
  5
4D8
330
4B0
100
AcDbEntity
  8
0
  6
BYBLOCK
 62
     4
100
AcDbLine
 10
572.1505011448243
 20
361.029691019006
 30
0.0
 11
572.1505011448243
 21
367.2509549676537
 31
0.0
  0
LINE
  5
4D9
330
4B0
100
AcDbEntity
  8
0
  6
BYBLOCK
 62
     4
100
AcDbLine
 10
544.1504511448243
 20
364.2509549676538
 30
0.0
 11
565.1505011448243
 21
364.2509549676538
 31
0.0
  0
LINE
  5
4DA
330
4B0
100
AcDbEntity
  8
0
  6
BYBLOCK
 62
     4
100
AcDbLine
 10
572.1505011448243
 20
364.2509549676538
 30
0.0
 11
599.2713977548461
 21
364.2509549676538
 31
0.0
  0
INSERT
  5
4DB
330
4B0
100
AcDbEntity
  8
0
  6
BYBLOCK
 62
     4
100
AcDbBlockReference
  2
_OPEN
 10
537.1504511448243
 20
364.2509549676538
 30
0.0
 41
7.0
 42
7.0
 43
7.0
 50
180.0
  0
INSERT
  5
4DC
330
4B0
100
AcDbEntity
  8
0
  6
BYBLOCK
 62
     4
100
AcDbBlockReference
  2
_OPEN
 10
572.1505011448243
 20
364.2509549676538
 30
0.0
 41
7.0
 42
7.0
 43
7.0
  0
MTEXT
  5
4DD
330
4B0
100
AcDbEntity
  8
0
  6
BYBLOCK
 62
     4
100
AcDbMText
 10
588.6713977548461
 20
369.2509549676537
 30
0.0
 40
6.0
 41
0.0
 71
     5
 72
     1
  1
\A1;※35
1001
ACAD
1000
MTEXTBEGIN
1070
    73
1070
     1
1070
    44
1040
1.0
1070
    74
1070
     0
1000
MTEXTEND
1000
MTEXTBEGIN
1070
    73
1070
     1
1070
    44
1040
1.0
1070
    74
1070
     0
1000
MTEXTEND
  0
POINT
  5
4DE
330
4B0
100
AcDbEntity
  8
DEFPOINTS
  6
BYBLOCK
 62
     0
100
AcDbPoint
 10
537.1504511448243
 20
354.7391910190061
 30
0.0
  0
POINT
  5
4DF
330
4B0
100
AcDbEntity
  8
DEFPOINTS
  6
BYBLOCK
 62
     0
100
AcDbPoint
 10
572.1505011448243
 20
355.029691019006
 30
0.0
  0
POINT
  5
4E0
330
4B0
100
AcDbEntity
  8
DEFPOINTS
  6
BYBLOCK
 62
     0
100
AcDbPoint
 10
572.1505011448243
 20
364.2509549676538
 30
0.0
  0
ENDBLK
  5
4E1
330
4B0
100
AcDbEntity
  8
0
100
AcDbBlockEnd
  0
ENDSEC
  0
SECTION
  2
ENTITIES
  0
TEXT
  5
11A
330
1A
100
AcDbEntity
  8
ZUWAKU
 62
     7
 48
10.0
100
AcDbText
 10
795.5579444309237
 20
4.974918402528146
 30
0.0
 40
8.0
  1
A1
100
AcDbText
  0
LINE
  5
11B
330
1A
100
AcDbEntity
  8
ZUWAKU
 62
     7
 48
10.0
100
AcDbLine
 10
10.05047808566086
 20
25.78258628282265
 30
0.0
 11
806.0504780856609
 21
25.78258628282253
 31
0.0
  0
LINE
  5
11C
330
1A
100
AcDbEntity
  8
ZUWAKU
  6
CONTINUOUS
 62
     7
100
AcDbLine
 10
806.0504780856609
 20
563.7825862828226
 30
0.0
 11
10.05047808566086
 21
563.7825862828226
 31
0.0
  0
LINE
  5
11D
330
1A
100
AcDbEntity
  8
ZUWAKU
  6
CONTINUOUS
 62
     7
100
AcDbLine
 10
806.0504780856609
 20
13.78258628282265
 30
0.0
 11
10.05047808566086
 21
13.78258628282265
 31
0.0
  0
LINE
  5
11E
330
1A
100
AcDbEntity
  8
ZUWAKU
  6
CONTINUOUS
 62
     7
100
AcDbLine
 10
10.05047808566086
 20
563.7825862828226
 30
0.0
 11
10.05047808566086
 21
13.78258628282265
 31
0.0
  0
LINE
  5
11F
330
1A
100
AcDbEntity
  8
ZUWAKU
 62
     7
 48
10.0
100
AcDbLine
 10
44.55797523147839
 20
13.78258628282265
 30
0.0
 11
44.5579752314784
 21
25.78258628282265
 31
0.0
  0
TEXT
  5
120
330
1A
100
AcDbEntity
  8
ZUWAKU
 62
     7
100
AcDbText
 10
16.05676551180931
 20
15.52294263804401
 30
0.0
 40
8.0
  1
品 種
100
AcDbText
  0
LINE
  5
121
330
1A
100
AcDbEntity
  8
ZUWAKU
 62
     7
 48
10.0
100
AcDbLine
 10
276.1028387068254
 20
13.78258628282265
 30
0.0
 11
276.1028387068254
 21
25.78258628282261
 31
0.0
  0
LINE
  5
122
330
1A
100
AcDbEntity
  8
ZUWAKU
 62
     7
 48
10.0
100
AcDbLine
 10
209.5138526425484
 20
13.78258628282265
 30
0.0
 11
209.5138526425485
 21
25.78258628282263
 31
0.0
  0
TEXT
  5
124
330
1A
100
AcDbEntity
  8
ZUWAKU
 62
     7
100
AcDbText
 10
215.4560837190756
 20
16.18358115302453
 30
0.0
 40
8.0
  1
品名・ｻ ｲ ｽﾞ
100
AcDbText
  0
LINE
  5
126
330
1A
100
AcDbEntity
  8
ZUWAKU
 62
     7
 48
10.0
100
AcDbLine
 10
768.7231079932794
 20
13.78258628282237
 30
0.0
 11
768.7231079932794
 21
25.78258628282254
 31
0.0
  0
LINE
  5
127
330
1A
100
AcDbEntity
  8
ZUWAKU
 62
     7
 48
10.0
100
AcDbLine
 10
733.8119002376948
 20
13.78258628282242
 30
0.0
 11
733.8119002376946
 21
25.78258628282254
 31
0.0
  0
TEXT
  5
128
330
1A
100
AcDbEntity
  8
ZUWAKU
 62
     7
100
AcDbText
 10
739.6955629973526
 20
15.24227755810852
 30
0.0
 40
8.0
  1
尺 度
100
AcDbText
  0
TEXT
  5
129
330
1A
100
AcDbEntity
  8
ZUWAKU
 62
     7
100
AcDbText
 10
779.7374630323229
 20
15.55488920081529
 30
0.0
 40
8.0
  1
1/2
100
AcDbText
  0
TEXT
  5
12B
330
1A
100
AcDbEntity
  8
ZUWAKU
 62
     7
100
AcDbText
 10
620.3363288383084
 20
15.6519090944263
 30
0.0
 40
8.0
  1
品 番
100
AcDbText
  0
LINE
  5
12C
330
1A
100
AcDbEntity
  8
ZUWAKU
 62
     7
 48
10.0
100
AcDbLine
 10
614.3351028194128
 20
13.78258628282232
 30
0.0
 11
614.3351028194128
 21
25.78258628282256
 31
0.0
  0
LINE
  5
12D
330
1A
100
AcDbEntity
  8
ZUWAKU
 62
     7
 48
10.0
100
AcDbLine
 10
648.7607587371021
 20
13.78258628282232
 30
0.0
 11
648.7607587371021
 21
25.78258628282255
 31
0.0
  0
TEXT
  5
12E
330
1A
100
AcDbEntity
  8
ZUWAKU
 62
     7
 48
10.0
100
AcDbText
 10
646.2758615931216
 20
4.949376903717848
 30
0.0
 40
8.0
  1
積水化学工業株式会社  建材
100
AcDbText
  0
LINE
  5
12F
330
1A
100
AcDbEntity
  8
ZUWAKU
  6
CONTINUOUS
 62
     7
100
AcDbLine
 10
806.0504780856609
 20
563.7825862828226
 30
0.0
 11
806.0504780856609
 21
13.78258628282265
 31
0.0
  0
LINE
  5
2B7
330
1A
100
AcDbEntity
  8
CENTER_L
  6
CENTER
 62
     1
 48
5.0
100
AcDbLine
 10
544.3003543697957
 20
318.4546910190061
 30
0.0
 11
412.0004479199942
 21
450.7546910190061
 31
0.0
  0
ARC
  5
2B8
330
1A
100
AcDbEntity
  8
SEIHIN
  6
CONTINUOUS
 62
     3
 48
8.0
100
AcDbCircle
 10
425.5003511448243
 20
183.8291910190061
 30
0.0
 40
6.5
100
AcDbArc
 50
180.0
 51
270.0
  0
TEXT
  5
2B9
330
1A
100
AcDbEntity
  8
ZUWAKU
 62
     7
100
AcDbText
 10
50.3519382305086
 20
16.10306189639755
 30
0.0
 40
8.0
  1
丸トップ　のきとい
100
AcDbText
  0
TEXT
  5
2BB
330
1A
100
AcDbEntity
  8
ZUWAKU
 62
     7
100
AcDbText
 10
282.3131429914078
 20
15.64241700452384
 30
0.0
 40
8.0
  1
曲り　１０５（ＧＳ式）
100
AcDbText
  0
LINE
  5
2BF
330
1A
100
AcDbEntity
  8
SEIHIN
  6
CONTINUOUS
 62
     3
 48
8.0
100
AcDbLine
 10
322.3003511448244
 20
138.5291910190061
 30
0.0
 11
263.1503633396886
 21
138.5291910190061
 31
0.0
  0
LINE
  5
2C0
330
1A
100
AcDbEntity
  8
SEIHIN
  6
CONTINUOUS
 62
     3
 48
8.0
100
AcDbLine
 10
357.1505511448243
 20
190.6291910190061
 30
0.0
 11
263.1503511448241
 21
190.6291910190061
 31
0.0
  0
LINE
  5
2C1
330
1A
100
AcDbEntity
  8
SEIHIN
  6
CONTINUOUS
 62
     3
 48
8.0
100
AcDbLine
 10
357.1503511448241
 20
177.3291910190061
 30
0.0
 11
210.5003511448243
 21
177.3291910190061
 31
0.0
  0
ARC
  5
2C2
330
1A
100
AcDbEntity
  8
SEIHIN
  6
CONTINUOUS
 62
     3
 48
8.0
100
AcDbCircle
 10
263.1503633396886
 20
188.8291814162564
 30
0.0
 40
52.2999903973707
100
AcDbArc
 50
193.5633263386848
 51
269.9998770880806
  0
LINE
  5
2C3
330
1A
100
AcDbEntity
  8
SEIHIN
  6
CONTINUOUS
 62
     3
 48
8.0
100
AcDbLine
 10
204.0003511448243
 20
190.6291910190061
 30
0.0
 11
263.1503511448241
 21
190.6291910190061
 31
0.0
  0
LINE
  5
2C4
330
1A
100
AcDbEntity
  8
SEIHIN
  6
CONTINUOUS
 62
     3
 48
8.0
100
AcDbLine
 10
204.0003511448243
 20
184.1291910190061
 30
0.0
 11
204.0003511448243
 21
190.6291910190061
 31
0.0
  0
ARC
  5
2C5
330
1A
100
AcDbEntity
  8
SEIHIN
  6
CONTINUOUS
 62
     3
 48
8.0
100
AcDbCircle
 10
210.5003511448243
 20
183.8291910190061
 30
0.0
 40
6.5
100
AcDbArc
 50
180.0
 51
270.0
  0
LINE
  5
2C6
330
1A
100
AcDbEntity
  8
SEIHIN
  6
CONTINUOUS
 62
     3
 48
8.0
100
AcDbLine
 10
204.0003511448243
 20
183.8291910190061
 30
0.0
 11
204.0003511448243
 21
184.1291910190061
 31
0.0
  0
LINE
  5
2C7
330
1A
100
AcDbEntity
  8
SEIHIN
  6
CONTINUOUS
 62
     3
 48
8.0
100
AcDbLine
 10
210.5003511448243
 20
177.3291910190061
 30
0.0
 11
211.3368511448243
 21
177.3291910190061
 31
0.0
  0
ARC
  5
2C8
330
1A
100
AcDbEntity
  8
SEIHIN
  6
CONTINUOUS
 62
     3
 48
8.0
100
AcDbCircle
 10
211.3368411949625
 20
176.3291988540675
 30
0.0
 40
0.9999921649880304
100
AcDbArc
 50
13.5617978218313
 51
89.99942991044838
  0
ARC
  5
2C9
330
1A
100
AcDbEntity
  8
SEIHIN
  6
CONTINUOUS
 62
     3
 48
8.0
100
AcDbCircle
 10
263.1503070066627
 20
188.8291562630444
 30
0.0
 40
52.29996524406814
100
AcDbArc
 50
269.9999388021089
 51
285.8962879202429
  0
LINE
  5
2CA
330
1A
100
AcDbEntity
  8
SEIHIN
  6
CONTINUOUS
 62
     3
 48
8.0
100
AcDbLine
 10
352.1503511448242
 20
136.5291910190061
 30
0.0
 11
357.1503511448241
 21
137.5291910190061
 31
0.0
  0
LINE
  5
2CB
330
1A
100
AcDbEntity
  8
SEIHIN
  6
CONTINUOUS
 62
     3
 48
8.0
100
AcDbLine
 10
352.1503511448242
 20
177.3291910190061
 30
0.0
 11
352.1503511448242
 21
136.5291910190061
 31
0.0
  0
LINE
  5
2CC
330
1A
100
AcDbEntity
  8
SEIHIN
  6
CONTINUOUS
 62
     3
 48
8.0
100
AcDbLine
 10
326.3003511448244
 20
177.3291910190061
 30
0.0
 11
326.3003511448244
 21
136.5291910190061
 31
0.0
  0
LINE
  5
2CD
330
1A
100
AcDbEntity
  8
SEIHIN
  6
CONTINUOUS
 62
     3
 48
8.0
100
AcDbLine
 10
322.3003511448244
 20
177.3291910190061
 30
0.0
 11
322.3003511448244
 21
138.5291910190061
 31
0.0
  0
LINE
  5
2CE
330
1A
100
AcDbEntity
  8
SEIHIN
  6
CONTINUOUS
 62
     3
 48
8.0
100
AcDbLine
 10
352.1503511448242
 20
136.5291910190061
 30
0.0
 11
326.3003511448244
 21
136.5291910190061
 31
0.0
  0
LINE
  5
2CF
330
1A
100
AcDbEntity
  8
SEIHIN
  6
CONTINUOUS
 62
     3
 48
8.0
100
AcDbLine
 10
322.3003511448244
 20
138.5291910190061
 30
0.0
 11
326.3003511448244
 21
136.5291910190061
 31
0.0
  0
LINE
  5
2D0
330
1A
100
AcDbEntity
  8
SEIHIN
  6
CONTINUOUS
 62
     3
 48
8.0
100
AcDbLine
 10
357.1503511448241
 20
137.5291910190061
 30
0.0
 11
357.1503511448241
 21
190.6291910190061
 31
0.0
  0
DIMENSION
  5
2D1
330
1A
100
AcDbEntity
  8
SUNPOU
  6
CONTINUOUS
100
AcDbDimension
  2
*D1
 10
633.4923218676058
 20
290.604591019006
 30
0.0
 11
628.4923218676058
 21
367.1796410190061
 31
0.0
 12
-2.275155211970741
 22
-17.04954094722643
 32
0.0
 70
    32
  3
STANDARD
100
AcDbAlignedDimension
 13
572.1505511448243
 23
443.7546910190061
 33
0.0
 14
537.3004511448243
 24
290.604591019006
 34
0.0
 50
90.0
100
AcDbRotatedDimension
1001
ACAD
1000
DSTYLE
1002
{
1070
   140
1040
6.0
1070
    74
1070
     0
1070
   172
1070
     1
1070
    73
1070
     0
1070
   272
1070
     2
1070
    77
1070
     3
1070
   173
1070
     1
1070
   147
1040
2.0
1070
    42
1040
6.0
1070
    44
1040
3.0
1070
    43
1040
14.0
1070
   271
1070
     0
1070
   178
1070
     4
1070
   177
1070
     4
1070
   176
1070
     4
1070
   141
1040
150.0
1070
     7
1000
_OPEN
1070
     6
1000
_OPEN
1070
    41
1040
7.0
1002
}
  0
LINE
  5
2D2
330
1A
100
AcDbEntity
  8
SEIHIN
  6
CONTINUOUS
 62
     3
 48
8.0
100
AcDbLine
 10
537.3003511448244
 20
290.604591019006
 30
0.0
 11
537.3004511448243
 21
321.4546910190061
 31
0.0
  0
LINE
  5
2D3
330
1A
100
AcDbEntity
  8
SEIHIN
  6
CONTINUOUS
 62
     3
 48
8.0
100
AcDbLine
 10
526.6381511448241
 20
290.604591019006
 30
0.0
 11
526.6382511448243
 21
315.604591019006
 31
0.0
  0
LINE
  5
2D4
330
1A
100
AcDbEntity
  8
SEIHIN
  6
CONTINUOUS
 62
     3
 48
8.0
100
AcDbLine
 10
419.0003511448243
 20
290.604591019006
 30
0.0
 11
419.0004511448242
 21
443.7546910190061
 31
0.0
  0
LINE
  5
2D5
330
1A
100
AcDbEntity
  8
SEIHIN
  6
CONTINUOUS
 62
     3
 48
8.0
100
AcDbLine
 10
429.6626511448241
 20
290.604591019006
 30
0.0
 11
429.6626511448241
 21
315.604591019006
 31
0.0
  0
LINE
  5
2D6
330
1A
100
AcDbEntity
  8
CENTER_L
  6
CENTER
 62
     1
 48
5.0
100
AcDbLine
 10
478.1504511448243
 20
280.547891019006
 30
0.0
 11
478.1504511448243
 21
392.9872910190061
 31
0.0
  0
TEXT
  5
2D7
330
1A
100
AcDbEntity
  8
SUNPOU
 62
     4
100
AcDbText
 10
611.0379794324885
 20
43.68132267490617
 30
0.0
 40
8.0
  1
※　のきといの差込み寸法を示す。
100
AcDbText
  0
TEXT
  5
2D8
330
1A
100
AcDbEntity
  8
ZUWAKU
 62
     7
100
AcDbText
 10
654.2531733678779
 20
15.90287984531518
 30
0.0
 40
8.0
  1
ＧＨ１０
100
AcDbText
  0
DIMENSION
  5
2DC
330
1A
100
AcDbEntity
  8
SUNPOU
  6
CONTINUOUS
100
AcDbDimension
  2
*D2
 10
419.0003511448243
 20
239.0507336544903
 30
0.0
 11
495.5753511448242
 21
244.0507336544903
 31
0.0
 12
-2.275155211970741
 22
-17.04954094722643
 32
0.0
 70
    32
  3
STANDARD
100
AcDbAlignedDimension
 13
572.1503511448242
 23
190.6291910190061
 33
0.0
 14
419.0003511448243
 24
190.6291910190061
 34
0.0
100
AcDbRotatedDimension
1001
ACAD
1000
DSTYLE
1002
{
1070
   140
1040
6.0
1070
    74
1070
     0
1070
   172
1070
     1
1070
    73
1070
     0
1070
   272
1070
     2
1070
    77
1070
     3
1070
   173
1070
     1
1070
   147
1040
2.0
1070
    42
1040
6.0
1070
    44
1040
3.0
1070
    43
1040
14.0
1070
   271
1070
     0
1070
   178
1070
     4
1070
   177
1070
     4
1070
   176
1070
     4
1070
   141
1040
150.0
1070
     7
1000
_OPEN
1070
     6
1000
_OPEN
1070
    41
1040
7.0
1002
}
  0
LINE
  5
2DD
330
1A
100
AcDbEntity
  8
SEIHIN
  6
CONTINUOUS
 62
     3
 48
8.0
100
AcDbLine
 10
572.1503511448242
 20
177.3291910190061
 30
0.0
 11
529.2434299546193
 21
177.3291910190061
 31
0.0
  0
LINE
  5
2DE
330
1A
100
AcDbEntity
  8
SEIHIN
  6
CONTINUOUS
 62
     3
 48
8.0
100
AcDbLine
 10
567.1503511448242
 20
136.5291910190061
 30
0.0
 11
541.3003511448244
 21
136.5291910190061
 31
0.0
  0
LINE
  5
2DF
330
1A
100
AcDbEntity
  8
SEIHIN
  6
CONTINUOUS
 62
     3
 48
8.0
100
AcDbLine
 10
572.1505511448243
 20
190.6291910190061
 30
0.0
 11
478.1503511448241
 21
190.6291910190061
 31
0.0
  0
DIMENSION
  5
2E0
330
1A
100
AcDbEntity
  8
SUNPOU
  6
CONTINUOUS
100
AcDbDimension
  2
*D3
 10
419.0003511448243
 20
221.4962996357487
 30
0.0
 11
478.1503511448243
 21
226.4962996357486
 31
0.0
 12
-2.275155211970741
 22
-17.04954094722643
 32
0.0
 70
    32
  3
STANDARD
100
AcDbAlignedDimension
 13
537.3003511448244
 23
190.6291910190061
 33
0.0
 14
419.0003511448243
 24
190.6291910190061
 34
0.0
100
AcDbRotatedDimension
1001
ACAD
1000
DSTYLE
1002
{
1070
   140
1040
6.0
1070
    74
1070
     0
1070
   172
1070
     1
1070
    73
1070
     0
1070
   272
1070
     2
1070
    77
1070
     3
1070
   173
1070
     1
1070
   147
1040
2.0
1070
    42
1040
6.0
1070
    44
1040
3.0
1070
    43
1040
14.0
1070
   271
1070
     0
1070
   178
1070
     4
1070
   177
1070
     4
1070
   176
1070
     4
1070
   141
1040
150.0
1070
     7
1000
_OPEN
1070
     6
1000
_OPEN
1070
    41
1040
7.0
1002
}
  0
ARC
  5
2E1
330
1A
100
AcDbEntity
  8
NOKITOI
  6
CONTINUOUS
 62
     8
 48
5.0
100
AcDbCircle
 10
478.1503511448241
 20
188.8292030189026
 30
0.0
 40
50.300012
100
AcDbArc
 50
188.6764639999999
 51
351.2914929999999
  0
ARC
  5
2E2
330
1A
100
AcDbEntity
  8
NOKITOI
  6
CONTINUOUS
 62
     8
 48
5.0
100
AcDbCircle
 10
478.1503511448241
 20
188.8292030189026
 30
0.0
 40
49.00000099999999
100
AcDbArc
 50
185.413376
 51
354.5863799999999
  0
LINE
  5
2E3
330
1A
100
AcDbEntity
  8
SEIHIN
  6
CONTINUOUS
 62
     3
 48
8.0
100
AcDbLine
 10
469.0001511448243
 20
179.3291910190061
 30
0.0
 11
519.4397511448242
 21
179.3291910190061
 31
0.0
  0
ARC
  5
2E4
330
1A
100
AcDbEntity
  8
SEIHIN
  6
CONTINUOUS
 62
     3
 48
8.0
100
AcDbCircle
 10
478.1504319929065
 20
188.8292225152549
 30
0.0
 40
49.10001206136158
100
AcDbArc
 50
271.8056629506491
 51
310.7632598341007
  0
ARC
  5
2E5
330
1A
100
AcDbEntity
  8
SEIHIN
  6
CONTINUOUS
 62
     3
 48
8.0
100
AcDbCircle
 10
478.1502893668137
 20
188.8291669461563
 30
0.0
 40
47.50000500372177
100
AcDbArc
 50
273.6210443326267
 51
308.9575467068896
  0
ARC
  5
2E6
330
1A
100
AcDbEntity
  8
SEIHIN
  6
CONTINUOUS
 62
     3
 48
8.0
100
AcDbCircle
 10
478.1503070066627
 20
188.8291562630444
 30
0.0
 40
52.29996524406814
100
AcDbArc
 50
193.5580613820404
 51
346.4364699695414
  0
ARC
  5
2E7
330
1A
100
AcDbEntity
  8
SEIHIN
  6
CONTINUOUS
 62
     3
 48
8.0
100
AcDbCircle
 10
478.1503531827556
 20
188.8291926748667
 30
0.0
 40
50.30000165596412
100
AcDbArc
 50
191.8041905809823
 51
348.1892359232529
  0
LINE
  5
2E8
330
1A
100
AcDbEntity
  8
SEIHIN
  6
CONTINUOUS
 62
     3
 48
8.0
100
AcDbLine
 10
469.0001511448243
 20
190.6290910190061
 30
0.0
 11
469.0001511448243
 21
159.828891019006
 31
0.0
  0
LINE
  5
2E9
330
1A
100
AcDbEntity
  8
CENTER_L
  6
CENTER
 62
     1
 48
5.0
100
AcDbLine
 10
478.1503511448241
 20
127.3725910190061
 30
0.0
 11
478.1503511448241
 21
200.1111910190061
 31
0.0
  0
LINE
  5
2EA
330
1A
100
AcDbEntity
  8
SEIHIN
  6
CONTINUOUS
 62
     3
 48
8.0
100
AcDbLine
 10
436.7503511448243
 20
190.6291910190061
 30
0.0
 11
437.0003511448243
 21
165.1031910190061
 31
0.0
  0
LINE
  5
2EB
330
1A
100
AcDbEntity
  8
SEIHIN
  6
CONTINUOUS
 62
     3
 48
8.0
100
AcDbLine
 10
449.0001511448244
 20
190.6291910190061
 30
0.0
 11
449.0001511448244
 21
159.828991019006
 31
0.0
  0
ARC
  5
2EC
330
1A
100
AcDbEntity
  8
SEIHIN
  6
CONTINUOUS
 62
     3
 48
8.0
100
AcDbCircle
 10
478.1503836536838
 20
188.8291189488535
 30
0.0
 40
49.09999659715498
100
AcDbArc
 50
191.4057773227854
 51
217.151689992331
  0
ARC
  5
2ED
330
1A
100
AcDbEntity
  8
SEIHIN
  6
CONTINUOUS
 62
     3
 48
8.0
100
AcDbCircle
 10
478.1504675896952
 20
188.8289596807135
 30
0.0
 40
47.49999285179987
100
AcDbArc
 50
194.4792194783891
 51
218.9572589984514
  0
LINE
  5
2F0
330
1A
100
AcDbEntity
  8
SEIHIN
  6
CONTINUOUS
 62
     3
 48
8.0
100
AcDbLine
 10
449.0001511448244
 20
159.828991019006
 30
0.0
 11
469.0001511448243
 21
159.828991019006
 31
0.0
  0
ARC
  5
2F1
330
1A
100
AcDbEntity
  8
SEIHIN
  6
CONTINUOUS
 62
     3
 48
8.0
100
AcDbCircle
 10
478.1503586509419
 20
188.829188094082
 30
0.0
 40
47.50003531340853
100
AcDbArc
 50
231.0422568016258
 51
266.3787818483508
  0
ARC
  5
2F3
330
1A
100
AcDbEntity
  8
SEIHIN
  6
CONTINUOUS
 62
     3
 48
8.0
100
AcDbCircle
 10
478.1505375332271
 20
188.8289771911095
 30
0.0
 40
49.09999055997529
100
AcDbArc
 50
217.1554408655358
 51
224.9995872528673
  0
LINE
  5
2F4
330
1A
100
AcDbEntity
  8
SEIHIN
  6
CONTINUOUS
 62
     3
 48
8.0
100
AcDbLine
 10
448.2849511448241
 20
151.8926910190061
 30
0.0
 11
448.2369511448244
 21
151.833291019006
 31
0.0
  0
ARC
  5
2F5
330
1A
100
AcDbEntity
  8
SEIHIN
  6
CONTINUOUS
 62
     3
 48
8.0
100
AcDbCircle
 10
478.1498044229347
 20
188.8296987415024
 30
0.0
 40
49.09998238925631
100
AcDbArc
 50
225.000787547806
 51
229.2372740037126
  0
ARC
  5
2F6
330
1A
100
AcDbEntity
  8
SEIHIN
  6
CONTINUOUS
 62
     3
 48
8.0
100
AcDbCircle
 10
447.0705462908114
 20
152.7763905824319
 30
0.0
 40
1.499979023186437
100
AcDbArc
 50
229.236424580397
 51
321.0426417191332
  0
ARC
  5
2F7
330
1A
100
AcDbEntity
  8
SEIHIN
  6
CONTINUOUS
 62
     3
 48
8.0
100
AcDbCircle
 10
449.4033564096862
 20
150.8901478018631
 30
0.0
 40
1.500006789964668
100
AcDbArc
 50
141.0413549599772
 51
232.8478198522106
  0
LINE
  5
2F8
330
1A
100
AcDbEntity
  8
SEIHIN
  6
CONTINUOUS
 62
     3
 48
8.0
100
AcDbLine
 10
441.1544511448243
 20
158.9157910190061
 30
0.0
 11
441.2138511448244
 21
158.9637910190061
 31
0.0
  0
ARC
  5
2F9
330
1A
100
AcDbEntity
  8
SEIHIN
  6
CONTINUOUS
 62
     3
 48
8.0
100
AcDbCircle
 10
440.2113079276814
 20
160.082196283868
 30
0.0
 40
1.500006789964711
100
AcDbArc
 50
217.1521801477904
 51
308.958645040019
  0
ARC
  5
2FA
330
1A
100
AcDbEntity
  8
SEIHIN
  6
CONTINUOUS
 62
     3
 48
8.0
100
AcDbCircle
 10
442.0975507082501
 20
157.7493861649929
 30
0.0
 40
1.499979023186468
100
AcDbArc
 50
128.9573582808601
 51
220.7635754195977
  0
ARC
  5
2FB
330
1A
100
AcDbEntity
  8
SEIHIN
  6
CONTINUOUS
 62
     3
 48
8.0
100
AcDbCircle
 10
476.6503241326711
 20
141.2528188968376
 30
0.0
 40
1.499972988105894
100
AcDbArc
 50
180.0010648739035
 51
268.1939732995473
  0
ARC
  5
2FC
330
1A
100
AcDbEntity
  8
SEIHIN
  6
CONTINUOUS
 62
     3
 48
8.0
100
AcDbCircle
 10
473.6503377282775
 20
141.4423788169221
 30
0.0
 40
1.500013416596351
100
AcDbArc
 50
264.5722656591071
 51
0.0004660811056378
  0
ARC
  5
2FD
330
1A
100
AcDbEntity
  8
SEIHIN
  6
CONTINUOUS
 62
     3
 48
8.0
100
AcDbCircle
 10
479.6503797320358
 20
141.2528205204061
 30
0.0
 40
1.499971413078628
100
AcDbArc
 50
271.8021467179173
 51
359.9988731080437
  0
ARC
  5
2FE
330
1A
100
AcDbEntity
  8
SEIHIN
  6
CONTINUOUS
 62
     3
 48
8.0
100
AcDbCircle
 10
482.6503598331072
 20
141.4423831166575
 30
0.0
 40
1.500008688303761
100
AcDbArc
 50
179.999698154269
 51
275.4240960311136
  0
ARC
  5
2FF
330
1A
100
AcDbEntity
  8
SEIHIN
  6
CONTINUOUS
 62
     3
 48
8.0
100
AcDbCircle
 10
478.150686424039
 20
188.8291857344783
 30
0.0
 40
49.09999471661701
100
AcDbArc
 50
191.1560950181554
 51
269.9996087558851
  0
ARC
  5
300
330
1A
100
AcDbEntity
  8
SEIHIN
  6
CONTINUOUS
 62
     3
 48
8.0
100
AcDbCircle
 10
478.1498158903875
 20
188.8291825841991
 30
0.0
 40
49.09999156712229
100
AcDbArc
 50
270.0005079072612
 51
271.8063830044582
  0
LINE
  5
301
330
1A
100
AcDbEntity
  8
SEIHIN
  6
CONTINUOUS
 62
     3
 48
8.0
100
AcDbLine
 10
419.0003511448243
 20
190.6291910190061
 30
0.0
 11
478.1503511448241
 21
190.6291910190061
 31
0.0
  0
ARC
  5
302
330
1A
100
AcDbEntity
  8
SEIHIN
  6
CONTINUOUS
 62
     3
 48
8.0
100
AcDbCircle
 10
436.2337819230463
 20
189.6292212874223
 30
0.0
 40
0.9999697320574956
100
AcDbArc
 50
90.00176351560455
 51
179.0448215810376
  0
LINE
  5
303
330
1A
100
AcDbEntity
  8
SEIHIN
  6
CONTINUOUS
 62
     3
 48
8.0
100
AcDbLine
 10
419.0003511448243
 20
184.1291910190061
 30
0.0
 11
419.0003511448243
 21
190.6291910190061
 31
0.0
  0
ARC
  5
304
330
1A
100
AcDbEntity
  8
SEIHIN
  6
CONTINUOUS
 62
     3
 48
8.0
100
AcDbCircle
 10
425.5003511448243
 20
184.1291910190061
 30
0.0
 40
6.5
100
AcDbArc
 50
0.0
 51
180.0
  0
LINE
  5
305
330
1A
100
AcDbEntity
  8
SEIHIN
  6
CONTINUOUS
 62
     3
 48
8.0
100
AcDbLine
 10
433.0003511448243
 20
175.6291910190061
 30
0.0
 11
435.0003511448242
 21
175.6291910190061
 31
0.0
  0
LINE
  5
306
330
1A
100
AcDbEntity
  8
SEIHIN
  6
CONTINUOUS
 62
     3
 48
8.0
100
AcDbLine
 10
432.9078511448242
 20
179.3291910190061
 30
0.0
 11
435.0619511448242
 21
179.3291910190061
 31
0.0
  0
ARC
  5
307
330
1A
100
AcDbEntity
  8
SEIHIN
  6
CONTINUOUS
 62
     3
 48
8.0
100
AcDbCircle
 10
427.9364362308117
 20
178.3292031366529
 30
0.0
 40
0.9999878824644465
100
AcDbArc
 50
11.81137378046217
 51
89.99914547966552
  0
LINE
  5
308
330
1A
100
AcDbEntity
  8
SEIHIN
  6
CONTINUOUS
 62
     3
 48
8.0
100
AcDbLine
 10
432.0003511448243
 20
184.1291910190061
 30
0.0
 11
432.0003511448243
 21
178.2026910190061
 31
0.0
  0
LINE
  5
309
330
1A
100
AcDbEntity
  8
SEIHIN
  6
CONTINUOUS
 62
     3
 48
8.0
100
AcDbLine
 10
432.8234511448242
 20
182.704191019006
 30
0.0
 11
433.0003511448243
 21
175.6291910190061
 31
0.0
  0
ARC
  5
30A
330
1A
100
AcDbEntity
  8
SEIHIN
  6
CONTINUOUS
 62
     3
 48
8.0
100
AcDbCircle
 10
425.5003511448243
 20
183.8291910190061
 30
0.0
 40
4.5
100
AcDbArc
 50
180.0
 51
270.0
  0
ARC
  5
30B
330
1A
100
AcDbEntity
  8
SEIHIN
  6
CONTINUOUS
 62
     3
 48
8.0
100
AcDbCircle
 10
426.3368411949626
 20
176.3291988540675
 30
0.0
 40
0.9999921649880304
100
AcDbArc
 50
13.5617978218313
 51
89.99942991044838
  0
LINE
  5
30C
330
1A
100
AcDbEntity
  8
SEIHIN
  6
CONTINUOUS
 62
     3
 48
8.0
100
AcDbLine
 10
425.5003511448243
 20
177.3291910190061
 30
0.0
 11
427.0571840587061
 21
177.3291910190061
 31
0.0
  0
ARC
  5
30D
330
1A
100
AcDbEntity
  8
SEIHIN
  6
CONTINUOUS
 62
     3
 48
8.0
100
AcDbCircle
 10
437.0003620188007
 20
178.2026054221315
 30
0.0
 40
5.000010874709031
100
AcDbArc
 50
179.9990191342023
 51
194.4788339685629
  0
ARC
  5
30E
330
1A
100
AcDbEntity
  8
NOKITOI
  6
CONTINUOUS
 62
     8
 48
5.0
100
AcDbCircle
 10
425.3887511448241
 20
183.8293030189027
 30
0.0
 40
3.999994
100
AcDbArc
 50
5.413986
 51
185.413851
  0
CIRCLE
  5
30F
330
1A
100
AcDbEntity
  8
NOKITOI
  6
CONTINUOUS
 62
     8
 48
5.0
100
AcDbCircle
 10
425.3887511448241
 20
183.8293030189027
 30
0.0
 40
2.7
  0
ARC
  5
310
330
1A
100
AcDbEntity
  8
NOKITOI
  6
CONTINUOUS
 62
     8
 48
5.0
100
AcDbCircle
 10
425.3887511448241
 20
183.8293030189027
 30
0.0
 40
4.000029
100
AcDbArc
 50
185.413851
 51
319.252818
  0
LINE
  5
311
330
1A
100
AcDbEntity
  8
SEIHIN
  6
CONTINUOUS
 62
     3
 48
8.0
100
AcDbLine
 10
426.5002511448242
 20
179.3291910190061
 30
0.0
 11
427.0003511448243
 21
185.6291910190061
 31
0.0
  0
LINE
  5
312
330
1A
100
AcDbEntity
  8
SEIHIN
  6
CONTINUOUS
 62
     3
 48
8.0
100
AcDbLine
 10
425.5003511448243
 20
179.3291910190061
 30
0.0
 11
427.9364511448243
 21
179.3291910190061
 31
0.0
  0
ARC
  5
313
330
1A
100
AcDbEntity
  8
SEIHIN
  6
CONTINUOUS
 62
     3
 48
8.0
100
AcDbCircle
 10
425.5003511448243
 20
184.1291910190061
 30
0.0
 40
4.5
100
AcDbArc
 50
0.0
 51
180.0
  0
LINE
  5
314
330
1A
100
AcDbEntity
  8
SEIHIN
  6
CONTINUOUS
 62
     3
 48
8.0
100
AcDbLine
 10
419.0003511448243
 20
183.8291910190061
 30
0.0
 11
419.0003511448243
 21
184.1291910190061
 31
0.0
  0
LINE
  5
315
330
1A
100
AcDbEntity
  8
SEIHIN
  6
CONTINUOUS
 62
     3
 48
8.0
100
AcDbLine
 10
421.0003511448243
 20
184.1291910190061
 30
0.0
 11
421.0003511448243
 21
183.8291910190061
 31
0.0
  0
LINE
  5
316
330
1A
100
AcDbEntity
  8
SEIHIN
  6
CONTINUOUS
 62
     3
 48
8.0
100
AcDbLine
 10
427.0003511448243
 20
185.6291910190061
 30
0.0
 11
429.7429511448243
 21
185.6291910190061
 31
0.0
  0
ARC
  5
317
330
1A
100
AcDbEntity
  8
SEIHIN
  6
CONTINUOUS
 62
     3
 48
8.0
100
AcDbCircle
 10
428.6626346167589
 20
188.6291674982423
 30
0.0
 40
1.00000937204284
100
AcDbArc
 50
234.9019026358805
 51
54.90659048869822
  0
ARC
  5
318
330
1A
100
AcDbEntity
  8
SEIHIN
  6
CONTINUOUS
 62
     3
 48
8.0
100
AcDbCircle
 10
429.8243637394533
 20
182.629161120177
 30
0.0
 40
3.00002579168453
100
AcDbArc
 50
1.433102618457502
 51
44.25374679574689
  0
ARC
  5
319
330
1A
100
AcDbEntity
  8
SEIHIN
  6
CONTINUOUS
 62
     3
 48
8.0
100
AcDbCircle
 10
431.0003793765273
 20
179.3167083656417
 30
0.0
 40
1.000028271648303
100
AcDbArc
 50
179.9838056127879
 51
191.3914912682462
  0
LINE
  5
31A
330
1A
100
AcDbEntity
  8
SEIHIN
  6
CONTINUOUS
 62
     3
 48
8.0
100
AcDbLine
 10
430.0003511448243
 20
184.1291910190061
 30
0.0
 11
430.0003511448243
 21
179.316991019006
 31
0.0
  0
LINE
  5
31B
330
1A
100
AcDbEntity
  8
SEIHIN
  6
CONTINUOUS
 62
     3
 48
8.0
100
AcDbLine
 10
435.0003511448242
 20
175.6291910190061
 30
0.0
 11
435.2339511448242
 21
189.645891019006
 31
0.0
  0
LINE
  5
31C
330
1A
100
AcDbEntity
  8
SEIHIN
  6
CONTINUOUS
 62
     3
 48
8.0
100
AcDbLine
 10
436.8609511448243
 20
179.3291910190061
 30
0.0
 11
449.0001511448244
 21
179.3291910190061
 31
0.0
  0
LINE
  5
31D
330
1A
100
AcDbEntity
  8
SEIHIN
  6
CONTINUOUS
 62
     3
 48
8.0
100
AcDbLine
 10
541.3003511448244
 20
177.3291910190061
 30
0.0
 11
541.3003511448244
 21
136.5291910190061
 31
0.0
  0
LINE
  5
31E
330
1A
100
AcDbEntity
  8
SEIHIN
  6
CONTINUOUS
 62
     3
 48
8.0
100
AcDbLine
 10
537.3003511448244
 20
177.3291910190061
 30
0.0
 11
537.3003511448244
 21
138.5291910190061
 31
0.0
  0
LINE
  5
31F
330
1A
100
AcDbEntity
  8
SEIHIN
  6
CONTINUOUS
 62
     3
 48
8.0
100
AcDbLine
 10
519.5503511448241
 20
190.6291910190061
 30
0.0
 11
519.3003511448242
 21
165.1031910190061
 31
0.0
  0
ARC
  5
320
330
1A
100
AcDbEntity
  8
SEIHIN
  6
CONTINUOUS
 62
     3
 48
8.0
100
AcDbCircle
 10
478.150385977597
 20
188.8292602197383
 30
0.0
 40
47.49997153104919
100
AcDbArc
 50
321.0420988931393
 51
345.5201503100291
  0
ARC
  5
321
330
1A
100
AcDbEntity
  8
SEIHIN
  6
CONTINUOUS
 62
     3
 48
8.0
100
AcDbCircle
 10
478.1504104352868
 20
188.8293224617678
 30
0.0
 40
49.09996663332586
100
AcDbArc
 50
322.8479855562002
 51
348.5938543120192
  0
ARC
  5
322
330
1A
100
AcDbEntity
  8
SEIHIN
  6
CONTINUOUS
 62
     3
 48
8.0
100
AcDbCircle
 10
516.0893392779636
 20
160.0821895735866
 30
0.0
 40
1.499966937967602
100
AcDbArc
 50
231.042829945087
 51
322.8469879763837
  0
ARC
  5
323
330
1A
100
AcDbEntity
  8
SEIHIN
  6
CONTINUOUS
 62
     3
 48
8.0
100
AcDbCircle
 10
478.1503189834011
 20
188.8291541232565
 30
0.0
 40
49.09993590308823
100
AcDbArc
 50
314.9998919540671
 51
322.8439589158172
  0
LINE
  5
324
330
1A
100
AcDbEntity
  8
SEIHIN
  6
CONTINUOUS
 62
     3
 48
8.0
100
AcDbLine
 10
537.3003511448244
 20
138.5291910190061
 30
0.0
 11
492.4751511448241
 21
138.5291910190061
 31
0.0
  0
ARC
  5
325
330
1A
100
AcDbEntity
  8
SEIHIN
  6
CONTINUOUS
 62
     3
 48
8.0
100
AcDbCircle
 10
509.2301559988372
 20
152.7763905824319
 30
0.0
 40
1.499979023186371
100
AcDbArc
 50
218.9573582808658
 51
310.763575419602
  0
LINE
  5
326
330
1A
100
AcDbEntity
  8
SEIHIN
  6
CONTINUOUS
 62
     3
 48
8.0
100
AcDbLine
 10
508.0157511448243
 20
151.8926910190061
 30
0.0
 11
508.0637511448243
 21
151.833291019006
 31
0.0
  0
ARC
  5
327
330
1A
100
AcDbEntity
  8
SEIHIN
  6
CONTINUOUS
 62
     3
 48
8.0
100
AcDbCircle
 10
506.8973458799623
 20
150.8901478018632
 30
0.0
 40
1.500006789964745
100
AcDbArc
 50
307.1521801477866
 51
38.95864504001526
  0
ARC
  5
328
330
1A
100
AcDbEntity
  8
SEIHIN
  6
CONTINUOUS
 62
     3
 48
8.0
100
AcDbCircle
 10
478.1507943110439
 20
188.8296025704066
 30
0.0
 40
49.09998761094126
100
AcDbArc
 50
310.7627262216624
 51
314.9992122268216
  0
LINE
  5
329
330
1A
100
AcDbEntity
  8
SEIHIN
  6
CONTINUOUS
 62
     3
 48
8.0
100
AcDbLine
 10
515.1462511448242
 20
158.9157910190061
 30
0.0
 11
515.0868511448243
 21
158.9637910190061
 31
0.0
  0
ARC
  5
32A
330
1A
100
AcDbEntity
  8
SEIHIN
  6
CONTINUOUS
 62
     3
 48
8.0
100
AcDbCircle
 10
514.2031515813982
 20
157.749386164993
 30
0.0
 40
1.499979023186486
100
AcDbArc
 50
319.2364245804014
 51
51.04264171913752
  0
LINE
  5
32B
330
1A
100
AcDbEntity
  8
SEIHIN
  6
CONTINUOUS
 62
     3
 48
8.0
100
AcDbLine
 10
537.3003511448244
 20
138.5291910190061
 30
0.0
 11
541.3003511448244
 21
136.5291910190061
 31
0.0
  0
LINE
  5
32C
330
1A
100
AcDbEntity
  8
SEIHIN
  6
CONTINUOUS
 62
     3
 48
8.0
100
AcDbLine
 10
537.3003511448244
 20
184.1291910190061
 30
0.0
 11
537.3003511448244
 21
190.6291910190061
 31
0.0
  0
ARC
  5
32D
330
1A
100
AcDbEntity
  8
SEIHIN
  6
CONTINUOUS
 62
     3
 48
8.0
100
AcDbCircle
 10
520.0669203666023
 20
189.6292212874223
 30
0.0
 40
0.9999697320575446
100
AcDbArc
 50
0.9551784189623404
 51
89.99823648439546
  0
ARC
  5
32E
330
1A
100
AcDbEntity
  8
SEIHIN
  6
CONTINUOUS
 62
     3
 48
8.0
100
AcDbCircle
 10
530.8003511448243
 20
184.1291910190061
 30
0.0
 40
6.500000000000056
100
AcDbArc
 50
0.0
 51
180.0
  0
CIRCLE
  5
32F
330
1A
100
AcDbEntity
  8
NOKITOI
  6
CONTINUOUS
 62
     8
 48
5.0
100
AcDbCircle
 10
530.9119511448241
 20
183.8291030189027
 30
0.0
 40
2.7
  0
ARC
  5
330
330
1A
100
AcDbEntity
  8
NOKITOI
  6
CONTINUOUS
 62
     8
 48
5.0
100
AcDbCircle
 10
530.9119511448241
 20
183.8291030189027
 30
0.0
 40
3.999994
100
AcDbArc
 50
220.269583
 51
121.7840119999999
  0
ARC
  5
331
330
1A
100
AcDbEntity
  8
SEIHIN
  6
CONTINUOUS
 62
     3
 48
8.0
100
AcDbCircle
 10
530.8003511448241
 20
184.1291910190061
 30
0.0
 40
4.5
100
AcDbArc
 50
0.0
 51
180.0
  0
ARC
  5
332
330
1A
100
AcDbEntity
  8
SEIHIN
  6
CONTINUOUS
 62
     3
 48
8.0
100
AcDbCircle
 10
530.8003511448241
 20
183.8291910190061
 30
0.0
 40
4.5
100
AcDbArc
 50
270.0
 51
0.0
  0
ARC
  5
333
330
1A
100
AcDbEntity
  8
SEIHIN
  6
CONTINUOUS
 62
     3
 48
8.0
100
AcDbCircle
 10
530.8003511448243
 20
183.8291910190061
 30
0.0
 40
6.500000000000056
100
AcDbArc
 50
269.9999999999994
 51
359.9999999999994
  0
ARC
  5
334
330
1A
100
AcDbEntity
  8
SEIHIN
  6
CONTINUOUS
 62
     3
 48
8.0
100
AcDbCircle
 10
528.3642660588368
 20
178.3292031366529
 30
0.0
 40
0.9999878824643825
100
AcDbArc
 50
90.00085452033124
 51
168.1886262195387
  0
LINE
  5
335
330
1A
100
AcDbEntity
  8
SEIHIN
  6
CONTINUOUS
 62
     3
 48
8.0
100
AcDbLine
 10
521.3003511448244
 20
175.6291910190061
 30
0.0
 11
521.0667511448243
 21
189.645891019006
 31
0.0
  0
LINE
  5
336
330
1A
100
AcDbEntity
  8
SEIHIN
  6
CONTINUOUS
 62
     3
 48
8.0
100
AcDbLine
 10
523.4772511448242
 20
182.704191019006
 30
0.0
 11
523.3003511448242
 21
175.6291910190061
 31
0.0
  0
LINE
  5
337
330
1A
100
AcDbEntity
  8
SEIHIN
  6
CONTINUOUS
 62
     3
 48
8.0
100
AcDbLine
 10
524.3003511448241
 20
184.1291910190061
 30
0.0
 11
524.3003511448241
 21
178.2026910190061
 31
0.0
  0
LINE
  5
338
330
1A
100
AcDbEntity
  8
SEIHIN
  6
CONTINUOUS
 62
     3
 48
8.0
100
AcDbLine
 10
523.3003511448242
 20
175.6291910190061
 30
0.0
 11
521.3003511448244
 21
175.6291910190061
 31
0.0
  0
ARC
  5
339
330
1A
100
AcDbEntity
  8
SEIHIN
  6
CONTINUOUS
 62
     3
 48
8.0
100
AcDbCircle
 10
519.3003402696358
 20
178.2026054194375
 30
0.0
 40
5.000010875209161
100
AcDbArc
 50
345.5211660648001
 51
359.9998349835706
  0
ARC
  5
33A
330
1A
100
AcDbEntity
  8
SEIHIN
  6
CONTINUOUS
 62
     3
 48
8.0
100
AcDbCircle
 10
529.963861094686
 20
176.3291988540674
 30
0.0
 40
0.9999921649881468
100
AcDbArc
 50
90.00057008954835
 51
166.4382021781654
  0
LINE
  5
33B
330
1A
100
AcDbEntity
  8
SEIHIN
  6
CONTINUOUS
 62
     3
 48
8.0
100
AcDbLine
 10
521.2386511448242
 20
179.3291910190061
 30
0.0
 11
523.3928511448243
 21
179.3291910190061
 31
0.0
  0
ARC
  5
33C
330
1A
100
AcDbEntity
  8
SEIHIN
  6
CONTINUOUS
 62
     3
 48
8.0
100
AcDbCircle
 10
526.4762536209291
 20
182.6291968969192
 30
0.0
 40
2.999939994405041
100
AcDbArc
 50
135.7456106862225
 51
178.5675398995574
  0
ARC
  5
33D
330
1A
100
AcDbEntity
  8
NOKITOI
  6
CONTINUOUS
 62
     8
 48
5.0
100
AcDbCircle
 10
530.9119511448241
 20
183.8291030189027
 30
0.0
 40
3.999958
100
AcDbArc
 50
121.784767
 51
174.584588
  0
LINE
  5
33E
330
1A
100
AcDbEntity
  8
SEIHIN
  6
CONTINUOUS
 62
     3
 48
8.0
100
AcDbLine
 10
529.3003511448244
 20
185.6291910190061
 30
0.0
 11
526.5577511448241
 21
185.6291910190061
 31
0.0
  0
ARC
  5
33F
330
1A
100
AcDbEntity
  8
SEIHIN
  6
CONTINUOUS
 62
     3
 48
8.0
100
AcDbCircle
 10
527.6380676728896
 20
188.6291674982423
 30
0.0
 40
1.000009372042841
100
AcDbArc
 50
125.0934095113017
 51
305.0980973641169
  0
LINE
  5
340
330
1A
100
AcDbEntity
  8
SEIHIN
  6
CONTINUOUS
 62
     3
 48
8.0
100
AcDbLine
 10
530.8003511448241
 20
179.3291910190061
 30
0.0
 11
528.3642511448242
 21
179.3291910190061
 31
0.0
  0
ARC
  5
341
330
1A
100
AcDbEntity
  8
SEIHIN
  6
CONTINUOUS
 62
     3
 48
8.0
100
AcDbCircle
 10
525.3003229131212
 20
179.3167083656417
 30
0.0
 40
1.0000282716483
100
AcDbArc
 50
348.6085087317536
 51
0.0161943872120482
  0
LINE
  5
342
330
1A
100
AcDbEntity
  8
SEIHIN
  6
CONTINUOUS
 62
     3
 48
8.0
100
AcDbLine
 10
526.3003511448241
 20
184.1291910190061
 30
0.0
 11
526.3003511448241
 21
179.316991019006
 31
0.0
  0
LINE
  5
343
330
1A
100
AcDbEntity
  8
SEIHIN
  6
CONTINUOUS
 62
     3
 48
8.0
100
AcDbLine
 10
529.8003511448244
 20
179.3291910190061
 30
0.0
 11
529.3003511448244
 21
185.6291910190061
 31
0.0
  0
LINE
  5
344
330
1A
100
AcDbEntity
  8
SEIHIN
  6
CONTINUOUS
 62
     3
 48
8.0
100
AcDbLine
 10
535.3003511448242
 20
184.1291910190061
 30
0.0
 11
535.3003511448242
 21
183.8291910190061
 31
0.0
  0
LINE
  5
345
330
1A
100
AcDbEntity
  8
SEIHIN
  6
CONTINUOUS
 62
     3
 48
8.0
100
AcDbLine
 10
537.3003511448244
 20
183.8291910190061
 30
0.0
 11
537.3003511448244
 21
184.1291910190061
 31
0.0
  0
LINE
  5
346
330
1A
100
AcDbEntity
  8
SEIHIN
  6
CONTINUOUS
 62
     3
 48
8.0
100
AcDbLine
 10
537.3004511448243
 20
290.604591019006
 30
0.0
 11
478.1503511448241
 21
290.604591019006
 31
0.0
  0
LINE
  5
347
330
1A
100
AcDbEntity
  8
SEIHIN
  6
CONTINUOUS
 62
     3
 48
8.0
100
AcDbLine
 10
419.0003511448243
 20
290.604591019006
 30
0.0
 11
478.1503511448241
 21
290.604591019006
 31
0.0
  0
DIMENSION
  5
348
330
1A
100
AcDbEntity
  8
SUNPOU
  6
CONTINUOUS
100
AcDbDimension
  2
*D4
 10
612.5296812799602
 20
136.5291910190061
 30
0.0
 11
607.5296812799601
 21
163.5791910190061
 31
0.0
 12
-2.275155211970741
 22
-17.04954094722643
 32
0.0
 70
    32
  3
STANDARD
100
AcDbAlignedDimension
 13
572.1505511448243
 23
190.6291910190061
 33
0.0
 14
567.1503511448242
 24
136.5291910190061
 34
0.0
 50
90.0
100
AcDbRotatedDimension
1001
ACAD
1000
DSTYLE
1002
{
1070
   140
1040
6.0
1070
    74
1070
     0
1070
   172
1070
     1
1070
    73
1070
     0
1070
   272
1070
     2
1070
    77
1070
     3
1070
   173
1070
     1
1070
   147
1040
2.0
1070
    42
1040
6.0
1070
    44
1040
3.0
1070
    43
1040
14.0
1070
   271
1070
     0
1070
   178
1070
     4
1070
   177
1070
     4
1070
   176
1070
     4
1070
   141
1040
150.0
1070
     7
1000
_OPEN
1070
     6
1000
_OPEN
1070
    41
1040
7.0
1002
}
  0
LINE
  5
349
330
1A
100
AcDbEntity
  8
SEIHIN
  6
CONTINUOUS
 62
     3
 48
8.0
100
AcDbLine
 10
572.1503511448242
 20
137.5291910190061
 30
0.0
 11
572.1503511448242
 21
190.6291910190061
 31
0.0
  0
LINE
  5
34A
330
1A
100
AcDbEntity
  8
SEIHIN
  6
CONTINUOUS
 62
     3
 48
8.0
100
AcDbLine
 10
567.1503511448242
 20
177.3291910190061
 30
0.0
 11
567.1503511448242
 21
136.5291910190061
 31
0.0
  0
LINE
  5
34B
330
1A
100
AcDbEntity
  8
SEIHIN
  6
CONTINUOUS
 62
     3
 48
8.0
100
AcDbLine
 10
567.1503511448242
 20
136.5291910190061
 30
0.0
 11
572.1503511448242
 21
137.5291910190061
 31
0.0
  0
LINE
  5
34D
330
1A
100
AcDbEntity
  8
SEIHIN
  6
CONTINUOUS
 62
     3
 48
8.0
100
AcDbLine
 10
572.1505511448243
 20
433.0923910190059
 30
0.0
 11
547.1505511448243
 21
433.0923910190059
 31
0.0
  0
LINE
  5
34E
330
1A
100
AcDbEntity
  8
SEIHIN
  6
CONTINUOUS
 62
     3
 48
8.0
100
AcDbLine
 10
572.1505511448243
 20
325.4546910190061
 30
0.0
 11
541.3004511448243
 21
325.4546910190061
 31
0.0
  0
LINE
  5
34F
330
1A
100
AcDbEntity
  8
SEIHIN
  6
CONTINUOUS
 62
     3
 48
8.0
100
AcDbLine
 10
572.1505511448243
 20
336.116991019006
 30
0.0
 11
547.1505511448243
 21
336.1168910190061
 31
0.0
  0
LINE
  5
350
330
1A
100
AcDbEntity
  8
SEIHIN
  6
CONTINUOUS
 62
     3
 48
8.0
100
AcDbLine
 10
572.1505511448243
 20
443.7546910190061
 30
0.0
 11
419.0004511448242
 21
443.7546910190061
 31
0.0
  0
LINE
  5
351
330
1A
100
AcDbEntity
  8
CENTER_L
  6
CENTER
 62
     1
 48
5.0
100
AcDbLine
 10
582.2072511448242
 20
384.6046910190059
 30
0.0
 11
469.7678511448243
 21
384.604591019006
 31
0.0
  0
LINE
  5
352
330
1A
100
AcDbEntity
  8
SEIHIN
  6
CONTINUOUS
100
AcDbLine
 10
429.5011372850077
 20
433.2540042839356
 30
0.0
 11
464.0083227020348
 21
398.7467838236314
 31
0.0
  0
LINE
  5
353
330
1A
100
AcDbEntity
  8
SEIHIN
  6
CONTINUOUS
 62
     3
 48
8.0
100
AcDbLine
 10
533.1504511448243
 20
416.6640910190059
 30
0.0
 11
533.1504511448243
 21
387.6046910190061
 31
0.0
  0
LINE
  5
354
330
1A
100
AcDbEntity
  8
SEIHIN
  6
CONTINUOUS
 62
     3
 48
8.0
100
AcDbLine
 10
535.1504511448244
 20
414.2575910190061
 30
0.0
 11
535.1504511448244
 21
387.6046910190061
 31
0.0
  0
LINE
  5
355
330
1A
100
AcDbEntity
  8
SEIHIN
  6
CONTINUOUS
 62
     3
 48
8.0
100
AcDbLine
 10
547.1505511448243
 20
412.789091019006
 30
0.0
 11
547.1504511448243
 21
389.5315910190061
 31
0.0
  0
LINE
  5
356
330
1A
100
AcDbEntity
  8
SEIHIN
  6
CONTINUOUS
 62
     3
 48
8.0
100
AcDbLine
 10
421.0003511448243
 20
325.604591019006
 30
0.0
 11
421.0003511448243
 21
439.7547910190059
 31
0.0
  0
LINE
  5
357
330
1A
100
AcDbEntity
  8
SEIHIN
  6
CONTINUOUS
 62
     3
 48
8.0
100
AcDbLine
 10
435.2504511448243
 20
393.7546910190061
 30
0.0
 11
435.2504511448243
 21
413.7546910190061
 31
0.0
  0
LINE
  5
358
330
1A
100
AcDbEntity
  8
SEIHIN
  6
CONTINUOUS
 62
     3
 48
8.0
100
AcDbLine
 10
436.7504511448242
 20
393.7546910190061
 30
0.0
 11
436.7504511448242
 21
413.7546910190061
 31
0.0
  0
LINE
  5
359
330
1A
100
AcDbEntity
  8
SEIHIN
  6
CONTINUOUS
 62
     3
 48
8.0
100
AcDbLine
 10
428.9153511448241
 20
395.7546910190061
 30
0.0
 11
428.9153511448241
 21
411.7546910190061
 31
0.0
  0
LINE
  5
35A
330
1A
100
AcDbEntity
  8
SEIHIN
  6
CONTINUOUS
 62
     3
 48
8.0
100
AcDbLine
 10
510.2098511448243
 20
329.604591019006
 30
0.0
 11
481.1504511448243
 21
329.604591019006
 31
0.0
  0
LINE
  5
35B
330
1A
100
AcDbEntity
  8
SEIHIN
  6
CONTINUOUS
 62
     3
 48
8.0
100
AcDbLine
 10
507.8033511448243
 20
327.604591019006
 30
0.0
 11
481.1504511448243
 21
327.604591019006
 31
0.0
  0
LINE
  5
35C
330
1A
100
AcDbEntity
  8
SEIHIN
  6
CONTINUOUS
 62
     3
 48
8.0
100
AcDbLine
 10
506.3349511448243
 20
315.604591019006
 30
0.0
 11
483.0773511448243
 21
315.604591019006
 31
0.0
  0
LINE
  5
35D
330
1A
100
AcDbEntity
  8
SEIHIN
  6
CONTINUOUS
 62
     3
 48
8.0
100
AcDbLine
 10
428.9152511448243
 20
329.604591019006
 30
0.0
 11
428.9153511448241
 21
393.7546910190061
 31
0.0
  0
LINE
  5
35E
330
1A
100
AcDbEntity
  8
SEIHIN
  6
CONTINUOUS
 62
     3
 48
8.0
100
AcDbLine
 10
448.4974511448243
 20
327.604591019006
 30
0.0
 11
475.1503511448243
 21
327.604591019006
 31
0.0
  0
LINE
  5
35F
330
1A
100
AcDbEntity
  8
SEIHIN
  6
CONTINUOUS
 62
     3
 48
8.0
100
AcDbLine
 10
446.0910511448243
 20
329.604591019006
 30
0.0
 11
475.1503511448243
 21
329.604591019006
 31
0.0
  0
LINE
  5
360
330
1A
100
AcDbEntity
  8
SEIHIN
  6
CONTINUOUS
 62
     3
 48
8.0
100
AcDbLine
 10
449.9659511448243
 20
315.604591019006
 30
0.0
 11
473.2234511448243
 21
315.604591019006
 31
0.0
  0
LINE
  5
361
330
1A
100
AcDbEntity
  8
SEIHIN
  6
CONTINUOUS
 62
     3
 48
8.0
100
AcDbLine
 10
446.0911511448244
 20
325.604591019006
 30
0.0
 11
446.0911511448244
 21
329.604591019006
 31
0.0
  0
LINE
  5
362
330
1A
100
AcDbEntity
  8
SEIHIN
  6
CONTINUOUS
 62
     3
 48
8.0
100
AcDbLine
 10
446.0911511448244
 20
329.604591019006
 30
0.0
 11
448.4974511448243
 21
327.604591019006
 31
0.0
  0
LINE
  5
363
330
1A
100
AcDbEntity
  8
SEIHIN
  6
CONTINUOUS
 62
     3
 48
8.0
100
AcDbLine
 10
428.9152511448243
 20
329.604591019006
 30
0.0
 11
432.0003511448243
 21
327.604591019006
 31
0.0
  0
LINE
  5
364
330
1A
100
AcDbEntity
  8
SEIHIN
  6
CONTINUOUS
 62
     3
 48
8.0
100
AcDbLine
 10
441.2139511448243
 20
317.104591019006
 30
0.0
 11
441.2139511448243
 21
329.604591019006
 31
0.0
  0
LINE
  5
365
330
1A
100
AcDbEntity
  8
SEIHIN
  6
CONTINUOUS
 62
     3
 48
8.0
100
AcDbLine
 10
432.0003511448243
 20
327.604591019006
 30
0.0
 11
441.2139511448243
 21
327.604591019006
 31
0.0
  0
LINE
  5
366
330
1A
100
AcDbEntity
  8
SEIHIN
  6
CONTINUOUS
 62
     3
 48
8.0
100
AcDbLine
 10
429.6626511448241
 20
315.604591019006
 30
0.0
 11
439.7139511448243
 21
315.604591019006
 31
0.0
  0
LINE
  5
367
330
1A
100
AcDbEntity
  8
SEIHIN
  6
CONTINUOUS
 62
     3
 48
8.0
100
AcDbLine
 10
419.0003511448243
 20
325.604591019006
 30
0.0
 11
432.0003511448243
 21
325.604591019006
 31
0.0
  0
LINE
  5
368
330
1A
100
AcDbEntity
  8
SEIHIN
  6
CONTINUOUS
 62
     3
 48
8.0
100
AcDbLine
 10
432.0003511448243
 20
325.604591019006
 30
0.0
 11
432.0003511448243
 21
327.604591019006
 31
0.0
  0
LINE
  5
369
330
1A
100
AcDbEntity
  8
SEIHIN
  6
CONTINUOUS
 62
     3
 48
8.0
100
AcDbLine
 10
448.4974511448243
 20
327.604591019006
 30
0.0
 11
448.4974511448243
 21
317.104591019006
 31
0.0
  0
LINE
  5
36A
330
1A
100
AcDbEntity
  8
SEIHIN
  6
CONTINUOUS
 62
     3
 48
8.0
100
AcDbLine
 10
448.2849511448241
 20
325.604591019006
 30
0.0
 11
448.4662511448243
 21
317.0726910190061
 31
0.0
  0
ARC
  5
36B
330
1A
100
AcDbEntity
  8
SEIHIN
  6
CONTINUOUS
 62
     3
 48
8.0
100
AcDbCircle
 10
439.7139511448243
 20
317.104591019006
 30
0.0
 40
1.5
100
AcDbArc
 50
270.0
 51
0.0
  0
ARC
  5
36C
330
1A
100
AcDbEntity
  8
SEIHIN
  6
CONTINUOUS
 62
     3
 48
8.0
100
AcDbCircle
 10
449.9974511448243
 20
317.104591019006
 30
0.0
 40
1.5
100
AcDbArc
 50
180.0
 51
270.0
  0
ARC
  5
36D
330
1A
100
AcDbEntity
  8
SEIHIN
  6
CONTINUOUS
 62
     3
 48
8.0
100
AcDbCircle
 10
449.9659311067179
 20
317.1046106354162
 30
0.0
 40
1.500019616543998
100
AcDbArc
 50
181.2193156240278
 51
270.0007653892772
  0
LINE
  5
36E
330
1A
100
AcDbEntity
  8
SEIHIN
  6
CONTINUOUS
 62
     3
 48
8.0
100
AcDbLine
 10
441.2139511448243
 20
325.604591019006
 30
0.0
 11
448.2849511448241
 21
325.604591019006
 31
0.0
  0
LINE
  5
36F
330
1A
100
AcDbEntity
  8
SEIHIN
  6
CONTINUOUS
 62
     3
 48
8.0
100
AcDbLine
 10
428.9152511448243
 20
329.604591019006
 30
0.0
 11
441.2139511448243
 21
329.604591019006
 31
0.0
  0
LINE
  5
370
330
1A
100
AcDbEntity
  8
SEIHIN
  6
CONTINUOUS
 62
     3
 48
8.0
100
AcDbLine
 10
481.1504511448243
 20
325.604591019006
 30
0.0
 11
481.1504511448243
 21
329.604591019006
 31
0.0
  0
LINE
  5
371
330
1A
100
AcDbEntity
  8
SEIHIN
  6
CONTINUOUS
 62
     3
 48
8.0
100
AcDbLine
 10
475.1503511448243
 20
325.604591019006
 30
0.0
 11
475.1503511448243
 21
329.604591019006
 31
0.0
  0
LINE
  5
372
330
1A
100
AcDbEntity
  8
SEIHIN
  6
CONTINUOUS
 62
     3
 48
8.0
100
AcDbLine
 10
481.5792511448242
 20
317.0297910190061
 30
0.0
 11
481.1504511448243
 21
325.604691019006
 31
0.0
  0
LINE
  5
373
330
1A
100
AcDbEntity
  8
SEIHIN
  6
CONTINUOUS
 62
     3
 48
8.0
100
AcDbLine
 10
474.7216511448243
 20
317.029691019006
 30
0.0
 11
475.1503511448243
 21
325.604591019006
 31
0.0
  0
ARC
  5
374
330
1A
100
AcDbEntity
  8
SEIHIN
  6
CONTINUOUS
 62
     3
 48
8.0
100
AcDbCircle
 10
473.2234885068394
 20
317.1046265598306
 30
0.0
 40
1.500035541289808
100
AcDbArc
 50
269.998572909962
 51
357.1365491610657
  0
ARC
  5
375
330
1A
100
AcDbEntity
  8
SEIHIN
  6
CONTINUOUS
 62
     3
 48
8.0
100
AcDbCircle
 10
483.0773662794037
 20
317.1045766222012
 30
0.0
 40
1.499985603271494
100
AcDbArc
 50
182.861636370909
 51
269.999421896103
  0
LINE
  5
376
330
1A
100
AcDbEntity
  8
SEIHIN
  6
CONTINUOUS
 62
     3
 48
8.0
100
AcDbLine
 10
475.1503511448243
 20
325.604591019006
 30
0.0
 11
478.1503511448241
 21
325.604591019006
 31
0.0
  0
LINE
  5
377
330
1A
100
AcDbEntity
  8
SEIHIN
  6
CONTINUOUS
 62
     3
 48
8.0
100
AcDbLine
 10
481.1504511448243
 20
325.604591019006
 30
0.0
 11
478.1504511448243
 21
325.604591019006
 31
0.0
  0
LINE
  5
378
330
1A
100
AcDbEntity
  8
SEIHIN
  6
CONTINUOUS
 62
     3
 48
8.0
100
AcDbLine
 10
436.7503511448243
 20
393.7546910190061
 30
0.0
 11
427.0003511448243
 21
393.7546910190061
 31
0.0
  0
LINE
  5
379
330
1A
100
AcDbEntity
  8
SEIHIN
  6
CONTINUOUS
 62
     3
 48
8.0
100
AcDbLine
 10
427.0003511448243
 20
395.7546910190061
 30
0.0
 11
435.2504511448243
 21
395.7546910190061
 31
0.0
  0
LINE
  5
37A
330
1A
100
AcDbEntity
  8
SEIHIN
  6
CONTINUOUS
 62
     3
 48
8.0
100
AcDbLine
 10
427.0004511448243
 20
393.7546910190061
 30
0.0
 11
427.0004511448243
 21
395.7546910190061
 31
0.0
  0
LINE
  5
37B
330
1A
100
AcDbEntity
  8
SEIHIN
  6
CONTINUOUS
 62
     3
 48
8.0
100
AcDbLine
 10
432.7504511448242
 20
393.7546910190061
 30
0.0
 11
432.7504511448242
 21
395.7546910190061
 31
0.0
  0
LINE
  5
37C
330
1A
100
AcDbEntity
  8
SEIHIN
  6
CONTINUOUS
100
AcDbLine
 10
492.2925795876571
 20
370.4624982143374
 30
0.0
 11
527.3855511448243
 21
335.3694910190061
 31
0.0
  0
LINE
  5
37D
330
1A
100
AcDbEntity
  8
SEIHIN
  6
CONTINUOUS
 62
     3
 48
8.0
100
AcDbLine
 10
533.1505511448243
 20
352.5452910190059
 30
0.0
 11
533.1504511448243
 21
381.6045910190061
 31
0.0
  0
LINE
  5
37E
330
1A
100
AcDbEntity
  8
SEIHIN
  6
CONTINUOUS
 62
     3
 48
8.0
100
AcDbLine
 10
533.1505511448243
 20
352.5453910190061
 30
0.0
 11
535.1505511448242
 21
354.9516910190061
 31
0.0
  0
LINE
  5
37F
330
1A
100
AcDbEntity
  8
SEIHIN
  6
CONTINUOUS
 62
     3
 48
8.0
100
AcDbLine
 10
537.1504511448243
 20
347.6681910190061
 30
0.0
 11
537.1504511448243
 21
354.7391910190061
 31
0.0
  0
LINE
  5
380
330
1A
100
AcDbEntity
  8
SEIHIN
  6
CONTINUOUS
 62
     3
 48
8.0
100
AcDbLine
 10
519.5503511448241
 20
329.604591019006
 30
0.0
 11
515.0869511448243
 21
329.604591019006
 31
0.0
  0
LINE
  5
381
330
1A
100
AcDbEntity
  8
SEIHIN
  6
CONTINUOUS
 62
     3
 48
8.0
100
AcDbLine
 10
519.5503511448241
 20
327.604591019006
 30
0.0
 11
515.0869511448243
 21
327.604591019006
 31
0.0
  0
LINE
  5
382
330
1A
100
AcDbEntity
  8
SEIHIN
  6
CONTINUOUS
 62
     3
 48
8.0
100
AcDbLine
 10
526.6382511448243
 20
315.604591019006
 30
0.0
 11
516.5869511448241
 21
315.604591019006
 31
0.0
  0
LINE
  5
383
330
1A
100
AcDbEntity
  8
SEIHIN
  6
CONTINUOUS
 62
     3
 48
8.0
100
AcDbLine
 10
510.2097511448241
 20
325.604591019006
 30
0.0
 11
510.2097511448241
 21
329.604591019006
 31
0.0
  0
LINE
  5
384
330
1A
100
AcDbEntity
  8
SEIHIN
  6
CONTINUOUS
 62
     3
 48
8.0
100
AcDbLine
 10
515.0869511448243
 20
317.104591019006
 30
0.0
 11
515.0869511448243
 21
329.604591019006
 31
0.0
  0
LINE
  5
385
330
1A
100
AcDbEntity
  8
SEIHIN
  6
CONTINUOUS
 62
     3
 48
8.0
100
AcDbLine
 10
510.2097511448241
 20
329.604591019006
 30
0.0
 11
507.8033511448243
 21
327.604591019006
 31
0.0
  0
LINE
  5
386
330
1A
100
AcDbEntity
  8
SEIHIN
  6
CONTINUOUS
 62
     3
 48
8.0
100
AcDbLine
 10
507.8033511448243
 20
327.604591019006
 30
0.0
 11
507.8034511448243
 21
317.104591019006
 31
0.0
  0
LINE
  5
387
330
1A
100
AcDbEntity
  8
SEIHIN
  6
CONTINUOUS
 62
     3
 48
8.0
100
AcDbLine
 10
508.0158511448241
 20
325.604591019006
 30
0.0
 11
507.8345511448243
 21
317.0726910190061
 31
0.0
  0
ARC
  5
388
330
1A
100
AcDbEntity
  8
SEIHIN
  6
CONTINUOUS
 62
     3
 48
8.0
100
AcDbCircle
 10
506.3034511448242
 20
317.104591019006
 30
0.0
 40
1.5
100
AcDbArc
 50
270.0
 51
0.0
  0
ARC
  5
389
330
1A
100
AcDbEntity
  8
SEIHIN
  6
CONTINUOUS
 62
     3
 48
8.0
100
AcDbCircle
 10
506.334920119582
 20
317.1045606467244
 30
0.0
 40
1.499969628039233
100
AcDbArc
 50
270.001185100956
 51
358.7825536323581
  0
ARC
  5
38A
330
1A
100
AcDbEntity
  8
SEIHIN
  6
CONTINUOUS
 62
     3
 48
8.0
100
AcDbCircle
 10
516.5869511448242
 20
317.104591019006
 30
0.0
 40
1.499999999999943
100
AcDbArc
 50
179.9999999999978
 51
269.9999999999956
  0
LINE
  5
38B
330
1A
100
AcDbEntity
  8
SEIHIN
  6
CONTINUOUS
 62
     3
 48
8.0
100
AcDbLine
 10
515.0869511448243
 20
325.604591019006
 30
0.0
 11
508.0158511448241
 21
325.604591019006
 31
0.0
  0
LINE
  5
38C
330
1A
100
AcDbEntity
  8
SEIHIN
  6
CONTINUOUS
 62
     3
 48
8.0
100
AcDbLine
 10
537.1504511448243
 20
325.4544910190061
 30
0.0
 11
537.1504511448243
 21
343.2046910190061
 31
0.0
  0
LINE
  5
38D
330
1A
100
AcDbEntity
  8
SEIHIN
  6
CONTINUOUS
 62
     3
 48
8.0
100
AcDbLine
 10
527.3855511448243
 20
327.604591019006
 30
0.0
 11
527.3855511448243
 21
335.3694910190061
 31
0.0
  0
LINE
  5
38E
330
1A
100
AcDbEntity
  8
SEIHIN
  6
CONTINUOUS
 62
     3
 48
8.0
100
AcDbLine
 10
521.0504511448241
 20
325.604591019006
 30
0.0
 11
521.0504511448241
 21
338.604591019006
 31
0.0
  0
LINE
  5
38F
330
1A
100
AcDbEntity
  8
SEIHIN
  6
CONTINUOUS
 62
     3
 48
8.0
100
AcDbLine
 10
519.5504511448243
 20
325.604591019006
 30
0.0
 11
519.5504511448243
 21
338.604591019006
 31
0.0
  0
LINE
  5
390
330
1A
100
AcDbEntity
  8
SEIHIN
  6
CONTINUOUS
 62
     3
 48
8.0
100
AcDbLine
 10
537.3005511448242
 20
325.604591019006
 30
0.0
 11
519.5503511448241
 21
325.604591019006
 31
0.0
  0
LINE
  5
391
330
1A
100
AcDbEntity
  8
SEIHIN
  6
CONTINUOUS
 62
     3
 48
8.0
100
AcDbLine
 10
529.3003511448244
 20
327.604591019006
 30
0.0
 11
521.0504511448241
 21
327.604591019006
 31
0.0
  0
LINE
  5
392
330
1A
100
AcDbEntity
  8
SEIHIN
  6
CONTINUOUS
 62
     3
 48
8.0
100
AcDbLine
 10
523.5504511448243
 20
325.604591019006
 30
0.0
 11
523.5504511448243
 21
327.604591019006
 31
0.0
  0
LINE
  5
393
330
1A
100
AcDbEntity
  8
SEIHIN
  6
CONTINUOUS
 62
     3
 48
8.0
100
AcDbLine
 10
529.3003511448244
 20
325.604591019006
 30
0.0
 11
529.3003511448244
 21
327.604591019006
 31
0.0
  0
ARC
  5
394
330
1A
100
AcDbEntity
  8
SEIHIN
  6
CONTINUOUS
 62
     3
 48
8.0
100
AcDbCircle
 10
541.3004511448243
 20
321.4546910190061
 30
0.0
 40
4.0
100
AcDbArc
 50
90.0
 51
180.0
  0
LINE
  5
395
330
1A
100
AcDbEntity
  8
SEIHIN
  6
CONTINUOUS
 62
     3
 48
8.0
100
AcDbLine
 10
537.1504511448243
 20
352.5453910190061
 30
0.0
 11
533.1505511448243
 21
352.5453910190061
 31
0.0
  0
LINE
  5
396
330
1A
100
AcDbEntity
  8
SEIHIN
  6
CONTINUOUS
 62
     3
 48
8.0
100
AcDbLine
 10
535.1504511448244
 20
335.3694910190061
 30
0.0
 11
527.3855511448243
 21
335.3694910190061
 31
0.0
  0
LINE
  5
397
330
1A
100
AcDbEntity
  8
SEIHIN
  6
CONTINUOUS
 62
     3
 48
8.0
100
AcDbLine
 10
545.6505511448243
 20
347.6681910190061
 30
0.0
 11
533.1505511448243
 21
347.6681910190061
 31
0.0
  0
LINE
  5
398
330
1A
100
AcDbEntity
  8
SEIHIN
  6
CONTINUOUS
 62
     3
 48
8.0
100
AcDbLine
 10
537.1504511448243
 20
341.7046910190061
 30
0.0
 11
524.1504511448243
 21
341.7046910190061
 31
0.0
  0
LINE
  5
399
330
1A
100
AcDbEntity
  8
SEIHIN
  6
CONTINUOUS
 62
     3
 48
8.0
100
AcDbLine
 10
537.1504511448243
 20
343.2046910190061
 30
0.0
 11
524.1504511448243
 21
343.2046910190061
 31
0.0
  0
LINE
  5
39A
330
1A
100
AcDbEntity
  8
SEIHIN
  6
CONTINUOUS
 62
     3
 48
8.0
100
AcDbLine
 10
521.0503511448242
 20
338.604591019006
 30
0.0
 11
519.5503511448241
 21
338.604591019006
 31
0.0
  0
LINE
  5
39B
330
1A
100
AcDbEntity
  8
SEIHIN
  6
CONTINUOUS
 62
     3
 48
8.0
100
AcDbLine
 10
524.1504511448243
 20
341.7046910190061
 30
0.0
 11
524.1504511448243
 21
343.2046910190061
 31
0.0
  0
LINE
  5
39C
330
1A
100
AcDbEntity
  8
SEIHIN
  6
CONTINUOUS
 62
     3
 48
8.0
100
AcDbLine
 10
533.1505511448243
 20
343.2046910190061
 30
0.0
 11
533.1505511448243
 21
347.6681910190061
 31
0.0
  0
LINE
  5
39D
330
1A
100
AcDbEntity
  8
SEIHIN
  6
CONTINUOUS
 62
     3
 48
8.0
100
AcDbLine
 10
547.1505511448243
 20
336.1168910190061
 30
0.0
 11
547.1505511448243
 21
346.1681910190061
 31
0.0
  0
LINE
  5
39E
330
1A
100
AcDbEntity
  8
SEIHIN
  6
CONTINUOUS
 62
     3
 48
8.0
100
AcDbLine
 10
535.1504511448244
 20
333.4547910190061
 30
0.0
 11
535.1504511448244
 21
341.7046910190061
 31
0.0
  0
LINE
  5
39F
330
1A
100
AcDbEntity
  8
SEIHIN
  6
CONTINUOUS
 62
     3
 48
8.0
100
AcDbLine
 10
537.1504511448243
 20
333.4546910190061
 30
0.0
 11
535.1504511448244
 21
333.4546910190061
 31
0.0
  0
LINE
  5
3A0
330
1A
100
AcDbEntity
  8
SEIHIN
  6
CONTINUOUS
 62
     3
 48
8.0
100
AcDbLine
 10
537.1504511448243
 20
339.2046910190061
 30
0.0
 11
535.1504511448244
 21
339.2046910190061
 31
0.0
  0
LINE
  5
3A1
330
1A
100
AcDbEntity
  8
SEIHIN
  6
CONTINUOUS
 62
     3
 48
8.0
100
AcDbLine
 10
535.1505511448242
 20
343.2046910190061
 30
0.0
 11
535.1505511448242
 21
347.6681910190061
 31
0.0
  0
ARC
  5
3A2
330
1A
100
AcDbEntity
  8
SEIHIN
  6
CONTINUOUS
 62
     3
 48
8.0
100
AcDbCircle
 10
545.6505511448243
 20
346.1681910190061
 30
0.0
 40
1.5
100
AcDbArc
 50
0.0
 51
90.0
  0
LINE
  5
3A3
330
1A
100
AcDbEntity
  8
SEIHIN
  6
CONTINUOUS
 62
     3
 48
8.0
100
AcDbLine
 10
535.1505511448242
 20
354.9516910190061
 30
0.0
 11
535.1504511448244
 21
381.6045910190061
 31
0.0
  0
LINE
  5
3A4
330
1A
100
AcDbEntity
  8
SEIHIN
  6
CONTINUOUS
 62
     3
 48
8.0
100
AcDbLine
 10
547.1505511448243
 20
356.4201910190059
 30
0.0
 11
547.1504511448243
 21
379.6776910190061
 31
0.0
  0
LINE
  5
3A5
330
1A
100
AcDbEntity
  8
SEIHIN
  6
CONTINUOUS
 62
     3
 48
8.0
100
AcDbLine
 10
535.1505511448242
 20
354.9516910190061
 30
0.0
 11
545.6505511448243
 21
354.9516910190061
 31
0.0
  0
LINE
  5
3A6
330
1A
100
AcDbEntity
  8
SEIHIN
  6
CONTINUOUS
 62
     3
 48
8.0
100
AcDbLine
 10
537.1504511448243
 20
354.7391910190061
 30
0.0
 11
545.6823511448241
 21
354.9204910190061
 31
0.0
  0
ARC
  5
3A7
330
1A
100
AcDbEntity
  8
SEIHIN
  6
CONTINUOUS
 62
     3
 48
8.0
100
AcDbCircle
 10
545.6505511448243
 20
356.4516910190061
 30
0.0
 40
1.5
100
AcDbArc
 50
270.0
 51
0.0
  0
ARC
  5
3A8
330
1A
100
AcDbEntity
  8
SEIHIN
  6
CONTINUOUS
 62
     3
 48
8.0
100
AcDbCircle
 10
545.6505315284143
 20
356.4201709808995
 30
0.0
 40
1.500019616543883
100
AcDbArc
 50
271.2193156240258
 51
0.0007653892751041
  0
LINE
  5
3A9
330
1A
100
AcDbEntity
  8
SEIHIN
  6
CONTINUOUS
 62
     3
 48
8.0
100
AcDbLine
 10
537.1504511448243
 20
387.6046910190061
 30
0.0
 11
533.1504511448243
 21
387.6046910190061
 31
0.0
  0
LINE
  5
3AA
330
1A
100
AcDbEntity
  8
SEIHIN
  6
CONTINUOUS
 62
     3
 48
8.0
100
AcDbLine
 10
537.1504511448243
 20
381.6045910190061
 30
0.0
 11
533.1504511448243
 21
381.6045910190061
 31
0.0
  0
LINE
  5
3AB
330
1A
100
AcDbEntity
  8
SEIHIN
  6
CONTINUOUS
 62
     3
 48
8.0
100
AcDbLine
 10
537.1504511448243
 20
387.6046910190061
 30
0.0
 11
537.1504511448243
 21
384.6046910190059
 31
0.0
  0
LINE
  5
3AC
330
1A
100
AcDbEntity
  8
SEIHIN
  6
CONTINUOUS
 62
     3
 48
8.0
100
AcDbLine
 10
545.7253511448243
 20
381.1757910190059
 30
0.0
 11
537.1504511448243
 21
381.6045910190061
 31
0.0
  0
LINE
  5
3AD
330
1A
100
AcDbEntity
  8
SEIHIN
  6
CONTINUOUS
 62
     3
 48
8.0
100
AcDbLine
 10
537.1504511448243
 20
381.6045910190061
 30
0.0
 11
537.1504511448243
 21
384.604591019006
 31
0.0
  0
ARC
  5
3AE
330
1A
100
AcDbEntity
  8
SEIHIN
  6
CONTINUOUS
 62
     3
 48
8.0
100
AcDbCircle
 10
545.6504630432521
 20
379.677678510001
 30
0.0
 40
1.499988101624273
100
AcDbArc
 50
0.0004778125890022
 51
87.13444832370278
  0
LINE
  5
3AF
330
1A
100
AcDbEntity
  8
SEIHIN
  6
CONTINUOUS
 62
     3
 48
8.0
100
AcDbLine
 10
545.7254511448243
 20
388.033391019006
 30
0.0
 11
537.1505511448243
 21
387.6046910190061
 31
0.0
  0
ARC
  5
3B0
330
1A
100
AcDbEntity
  8
SEIHIN
  6
CONTINUOUS
 62
     3
 48
8.0
100
AcDbCircle
 10
545.6504156039995
 20
389.531553656991
 30
0.0
 40
1.500035541289883
100
AcDbArc
 50
272.8634508389384
 51
0.0014270900422568
  0
LINE
  5
3B1
330
1A
100
AcDbEntity
  8
SEIHIN
  6
CONTINUOUS
 62
     3
 48
8.0
100
AcDbLine
 10
533.1505511448243
 20
433.8397910190059
 30
0.0
 11
469.0004511448242
 21
433.8397910190059
 31
0.0
  0
LINE
  5
3B2
330
1A
100
AcDbEntity
  8
SEIHIN
  6
CONTINUOUS
 62
     3
 48
8.0
100
AcDbLine
 10
537.1505511448243
 20
441.7546910190061
 30
0.0
 11
423.0003511448243
 21
441.754791019006
 31
0.0
  0
LINE
  5
3B3
330
1A
100
AcDbEntity
  8
SEIHIN
  6
CONTINUOUS
 62
     3
 48
8.0
100
AcDbLine
 10
469.0004511448242
 20
426.0046910190061
 30
0.0
 11
449.0004511448241
 21
426.0046910190061
 31
0.0
  0
LINE
  5
3B4
330
1A
100
AcDbEntity
  8
SEIHIN
  6
CONTINUOUS
 62
     3
 48
8.0
100
AcDbLine
 10
469.0004511448242
 20
427.5046910190061
 30
0.0
 11
449.0004511448241
 21
427.5046910190061
 31
0.0
  0
LINE
  5
3B5
330
1A
100
AcDbEntity
  8
SEIHIN
  6
CONTINUOUS
 62
     3
 48
8.0
100
AcDbLine
 10
467.0004511448243
 20
433.8397910190059
 30
0.0
 11
451.0004511448242
 21
433.8397910190059
 31
0.0
  0
LINE
  5
3B6
330
1A
100
AcDbEntity
  8
SEIHIN
  6
CONTINUOUS
 62
     3
 48
8.0
100
AcDbLine
 10
428.9153511448241
 20
413.7546910190061
 30
0.0
 11
428.9153511448241
 21
431.839791019006
 31
0.0
  0
LINE
  5
3B7
330
1A
100
AcDbEntity
  8
SEIHIN
  6
CONTINUOUS
 62
     3
 48
8.0
100
AcDbLine
 10
427.0004511448243
 20
413.7546910190061
 30
0.0
 11
436.7503511448243
 21
413.7546910190061
 31
0.0
  0
LINE
  5
3B8
330
1A
100
AcDbEntity
  8
SEIHIN
  6
CONTINUOUS
 62
     3
 48
8.0
100
AcDbLine
 10
435.2504511448243
 20
411.7546910190061
 30
0.0
 11
427.0004511448243
 21
411.7546910190061
 31
0.0
  0
LINE
  5
3B9
330
1A
100
AcDbEntity
  8
SEIHIN
  6
CONTINUOUS
 62
     3
 48
8.0
100
AcDbLine
 10
432.7504511448242
 20
411.7546910190061
 30
0.0
 11
432.7504511448242
 21
413.7546910190061
 31
0.0
  0
LINE
  5
3BA
330
1A
100
AcDbEntity
  8
SEIHIN
  6
CONTINUOUS
 62
     3
 48
8.0
100
AcDbLine
 10
427.0004511448243
 20
411.7546910190061
 30
0.0
 11
427.0004511448243
 21
413.7546910190061
 31
0.0
  0
LINE
  5
3BB
330
1A
100
AcDbEntity
  8
SEIHIN
  6
CONTINUOUS
 62
     3
 48
8.0
100
AcDbLine
 10
449.0004511448241
 20
433.8397910190059
 30
0.0
 11
430.9153511448242
 21
433.8397910190059
 31
0.0
  0
ARC
  5
3BC
330
1A
100
AcDbEntity
  8
SEIHIN
  6
CONTINUOUS
 62
     3
 48
8.0
100
AcDbCircle
 10
430.9153511448242
 20
431.839791019006
 30
0.0
 40
2.0
100
AcDbArc
 50
90.0
 51
180.0
  0
ARC
  5
3BD
330
1A
100
AcDbEntity
  8
SEIHIN
  6
CONTINUOUS
 62
     3
 48
8.0
100
AcDbCircle
 10
423.0003511448244
 20
439.754791019006
 30
0.0
 40
2.000000000000056
100
AcDbArc
 50
90.00000000000161
 51
180.0000000000032
  0
LINE
  5
3BE
330
1A
100
AcDbEntity
  8
SEIHIN
  6
CONTINUOUS
 62
     3
 48
8.0
100
AcDbLine
 10
449.0004511448241
 20
435.7546910190061
 30
0.0
 11
449.0004511448241
 21
426.0047910190061
 31
0.0
  0
LINE
  5
3BF
330
1A
100
AcDbEntity
  8
SEIHIN
  6
CONTINUOUS
 62
     3
 48
8.0
100
AcDbLine
 10
451.0004511448242
 20
427.5046910190061
 30
0.0
 11
451.0004511448242
 21
435.7546910190061
 31
0.0
  0
LINE
  5
3C0
330
1A
100
AcDbEntity
  8
SEIHIN
  6
CONTINUOUS
 62
     3
 48
8.0
100
AcDbLine
 10
451.0004511448242
 20
430.0046910190061
 30
0.0
 11
449.0004511448241
 21
430.0046910190061
 31
0.0
  0
LINE
  5
3C1
330
1A
100
AcDbEntity
  8
SEIHIN
  6
CONTINUOUS
 62
     3
 48
8.0
100
AcDbLine
 10
451.0004511448242
 20
435.7546910190061
 30
0.0
 11
449.0004511448241
 21
435.7546910190061
 31
0.0
  0
LINE
  5
3C2
330
1A
100
AcDbEntity
  8
SEIHIN
  6
CONTINUOUS
 62
     3
 48
8.0
100
AcDbLine
 10
469.0004511448242
 20
435.7546910190061
 30
0.0
 11
467.0004511448243
 21
435.7546910190061
 31
0.0
  0
LINE
  5
3C3
330
1A
100
AcDbEntity
  8
SEIHIN
  6
CONTINUOUS
 62
     3
 48
8.0
100
AcDbLine
 10
469.0004511448242
 20
430.0046910190061
 30
0.0
 11
467.0004511448243
 21
430.0046910190061
 31
0.0
  0
LINE
  5
3C4
330
1A
100
AcDbEntity
  8
SEIHIN
  6
CONTINUOUS
 62
     3
 48
8.0
100
AcDbLine
 10
467.0004511448243
 20
435.7546910190061
 30
0.0
 11
467.0004511448243
 21
427.5046910190061
 31
0.0
  0
LINE
  5
3C5
330
1A
100
AcDbEntity
  8
SEIHIN
  6
CONTINUOUS
 62
     3
 48
8.0
100
AcDbLine
 10
469.0004511448242
 20
426.0047910190061
 30
0.0
 11
469.0004511448242
 21
435.7546910190061
 31
0.0
  0
ARC
  5
3C6
330
1A
100
AcDbEntity
  8
SEIHIN
  6
CONTINUOUS
 62
     3
 48
8.0
100
AcDbCircle
 10
545.6505511448242
 20
423.041191019006
 30
0.0
 40
1.500000000000056
100
AcDbArc
 50
270.0000000000043
 51
0.0000000000043425
  0
LINE
  5
3C7
330
1A
100
AcDbEntity
  8
SEIHIN
  6
CONTINUOUS
 62
     3
 48
8.0
100
AcDbLine
 10
533.1505511448243
 20
433.8397910190059
 30
0.0
 11
533.1505511448243
 21
421.5411910190059
 31
0.0
  0
LINE
  5
3C8
330
1A
100
AcDbEntity
  8
SEIHIN
  6
CONTINUOUS
 62
     3
 48
8.0
100
AcDbLine
 10
535.1505511448242
 20
430.7546910190061
 30
0.0
 11
535.1505511448242
 21
421.5411910190059
 31
0.0
  0
LINE
  5
3C9
330
1A
100
AcDbEntity
  8
SEIHIN
  6
CONTINUOUS
 62
     3
 48
8.0
100
AcDbLine
 10
537.1504511448243
 20
416.6639910190061
 30
0.0
 11
533.1504511448243
 21
416.6639910190061
 31
0.0
  0
LINE
  5
3CA
330
1A
100
AcDbEntity
  8
SEIHIN
  6
CONTINUOUS
 62
     3
 48
8.0
100
AcDbLine
 10
533.1504511448243
 20
416.6639910190061
 30
0.0
 11
535.1504511448244
 21
414.2575910190061
 31
0.0
  0
LINE
  5
3CB
330
1A
100
AcDbEntity
  8
SEIHIN
  6
CONTINUOUS
 62
     3
 48
8.0
100
AcDbLine
 10
545.6505511448243
 20
421.5411910190059
 30
0.0
 11
533.1505511448243
 21
421.5411910190059
 31
0.0
  0
LINE
  5
3CC
330
1A
100
AcDbEntity
  8
SEIHIN
  6
CONTINUOUS
 62
     3
 48
8.0
100
AcDbLine
 10
535.1504511448244
 20
414.2575910190061
 30
0.0
 11
545.6505511448243
 21
414.2575910190061
 31
0.0
  0
LINE
  5
3CD
330
1A
100
AcDbEntity
  8
SEIHIN
  6
CONTINUOUS
 62
     3
 48
8.0
100
AcDbLine
 10
537.1505511448243
 20
414.4700910190061
 30
0.0
 11
545.6823511448241
 21
414.2887910190061
 31
0.0
  0
LINE
  5
3CE
330
1A
100
AcDbEntity
  8
SEIHIN
  6
CONTINUOUS
 62
     3
 48
8.0
100
AcDbLine
 10
537.1505511448243
 20
421.5411910190059
 30
0.0
 11
537.1505511448243
 21
414.4700910190061
 31
0.0
  0
ARC
  5
3CF
330
1A
100
AcDbEntity
  8
SEIHIN
  6
CONTINUOUS
 62
     3
 48
8.0
100
AcDbCircle
 10
545.6505511448242
 20
412.757591019006
 30
0.0
 40
1.500000000000113
100
AcDbArc
 50
359.9999999999977
 51
89.99999999999566
  0
ARC
  5
3D0
330
1A
100
AcDbEntity
  8
SEIHIN
  6
CONTINUOUS
 62
     3
 48
8.0
100
AcDbCircle
 10
545.6505325900537
 20
412.7891099713871
 30
0.0
 40
1.500018554890306
100
AcDbArc
 50
359.9992760813229
 51
88.78454460690699
  0
LINE
  5
3D1
330
1A
100
AcDbEntity
  8
SEIHIN
  6
CONTINUOUS
 62
     3
 48
8.0
100
AcDbLine
 10
533.1505511448243
 20
433.8397910190059
 30
0.0
 11
535.1505511448242
 21
430.7546910190061
 31
0.0
  0
LINE
  5
3D2
330
1A
100
AcDbEntity
  8
SEIHIN
  6
CONTINUOUS
 62
     3
 48
8.0
100
AcDbLine
 10
537.1505511448243
 20
443.7547910190059
 30
0.0
 11
537.1505511448243
 21
430.7546910190061
 31
0.0
  0
LINE
  5
3D3
330
1A
100
AcDbEntity
  8
SEIHIN
  6
CONTINUOUS
 62
     3
 48
8.0
100
AcDbLine
 10
537.1505511448243
 20
430.7546910190061
 30
0.0
 11
535.1505511448242
 21
430.7546910190061
 31
0.0
  0
LINE
  5
3D4
330
1A
100
AcDbEntity
  8
SEIHIN
  6
CONTINUOUS
 62
     3
 48
8.0
100
AcDbLine
 10
547.1505511448243
 20
433.0923910190059
 30
0.0
 11
547.1505511448243
 21
423.0411910190061
 31
0.0
  0
DIMENSION
  5
3D5
330
1A
100
AcDbEntity
  8
SUNPOU
  6
CONTINUOUS
100
AcDbDimension
  2
*D5
 10
612.5296812799602
 20
325.4546910190061
 30
0.0
 11
607.5296812799601
 21
384.6046910190061
 31
0.0
 12
-2.275155211970741
 22
-17.04954094722643
 32
0.0
 70
    32
  3
STANDARD
100
AcDbAlignedDimension
 13
572.1505511448243
 23
443.7546910190061
 33
0.0
 14
572.1505511448243
 24
325.4546910190061
 34
0.0
 50
90.0
100
AcDbRotatedDimension
1001
ACAD
1000
DSTYLE
1002
{
1070
   140
1040
6.0
1070
    74
1070
     0
1070
   172
1070
     1
1070
    73
1070
     0
1070
   272
1070
     2
1070
    77
1070
     3
1070
   173
1070
     1
1070
   147
1040
2.0
1070
    42
1040
6.0
1070
    44
1040
3.0
1070
    43
1040
14.0
1070
   271
1070
     0
1070
   178
1070
     4
1070
   177
1070
     4
1070
   176
1070
     4
1070
   141
1040
150.0
1070
     7
1000
_OPEN
1070
     6
1000
_OPEN
1070
    41
1040
7.0
1002
}
  0
LINE
  5
3D6
330
1A
100
AcDbEntity
  8
SEIHIN
  6
CONTINUOUS
 62
     3
 48
8.0
100
AcDbLine
 10
572.1505511448243
 20
443.7547910190059
 30
0.0
 11
572.1504511448244
 21
384.6046910190059
 31
0.0
  0
LINE
  5
3D7
330
1A
100
AcDbEntity
  8
SEIHIN
  6
CONTINUOUS
 62
     3
 48
8.0
100
AcDbLine
 10
572.1505511448243
 20
325.4546910190061
 30
0.0
 11
572.1504511448244
 21
384.6046910190059
 31
0.0
  0
ARC
  5
46E
330
1A
100
AcDbEntity
  8
SEIHIN
  6
CONTINUOUS
 62
     3
 48
8.0
100
AcDbCircle
 10
478.1503070066627
 20
188.8291562630444
 30
0.0
 40
51.59996524406814
100
AcDbArc
 50
193.7474157986453
 51
346.2525842013545
  0
ARC
  5
46F
330
1A
100
AcDbEntity
  8
SEIHIN
  6
CONTINUOUS
 62
     3
 48
8.0
100
AcDbCircle
 10
427.0571840587061
 20
176.3291910190061
 30
0.0
 40
1.0
100
AcDbArc
 50
13.74741579864491
 51
89.99999999999674
  0
ARC
  5
470
330
1A
100
AcDbEntity
  8
SEIHIN
  6
CONTINUOUS
 62
     3
 48
8.0
100
AcDbCircle
 10
529.2434299546193
 20
176.3291910190061
 30
0.0
 40
1.0
100
AcDbArc
 50
90.0
 51
166.2525842013566
  0
ARC
  5
472
330
1A
100
AcDbEntity
  8
SEIHIN
  6
CONTINUOUS
 62
     3
 48
8.0
100
AcDbCircle
 10
263.1503633396886
 20
188.8291814162564
 30
0.0
 40
50.2999903973707
100
AcDbArc
 50
193.5633263386848
 51
269.9998770880806
  0
DIMENSION
  5
4BD
330
1A
100
AcDbEntity
  8
SUNPOU
100
AcDbDimension
  2
*D6
 10
572.1505011448243
 20
364.2509549676538
 30
0.0
 11
588.6713977548461
 21
364.2509549676538
 31
0.0
 70
   160
  1
※<>
  3
STANDARD
100
AcDbAlignedDimension
 13
537.1504511448243
 23
354.7391910190061
 33
0.0
 14
572.1505011448243
 24
355.029691019006
 34
0.0
100
AcDbRotatedDimension
1001
ACAD
1000
DSTYLE
1002
{
1070
   288
1070
     1
1070
   140
1040
6.0
1070
    74
1070
     0
1070
   172
1070
     1
1070
    73
1070
     0
1070
   272
1070
     2
1070
    77
1070
     3
1070
   173
1070
     1
1070
   147
1040
2.0
1070
    42
1040
6.0
1070
    44
1040
3.0
1070
    43
1040
14.0
1070
   271
1070
     0
1070
   178
1070
     4
1070
   177
1070
     4
1070
   176
1070
     4
1070
   141
1040
150.0
1070
     7
1000
_OPEN
1070
     6
1000
_OPEN
1070
    41
1040
7.0
1002
}
  0
VIEWPORT
  5
22
330
17
100
AcDbEntity
 67
     1
  8
0
100
AcDbViewport
 10
313.6808219178082
 20
148.5
 30
0.0
 40
627.3616438356165
 41
297.0
 68
     2
 69
     1
1001
ACAD
1000
MVIEW
1002
{
1070
    16
1010
0.0
1020
0.0
1030
0.0
1010
0.0
1020
0.0
1030
1.0
1040
0.0
1040
297.0
1040
313.6808219178082
1040
148.5
1040
50.0
1040
0.0
1040
0.0
1070
     0
1070
   100
1070
     1
1070
     0
1070
     0
1070
     0
1070
     0
1070
     0
1040
0.0
1040
0.0
1040
0.0
1040
1.0
1040
1.0
1040
10.0
1040
10.0
1070
     0
1002
{
1002
}
1002
}
  0
VIEWPORT
  5
64
330
17
100
AcDbEntity
 67
     1
  8
VIEWPORT
100
AcDbViewport
 10
210.0
 20
148.5
 30
0.0
 40
420.0
 41
297.0
 68
     1
 69
     2
1001
ACAD
1000
MVIEW
1002
{
1070
    16
1010
0.0
1020
0.0
1030
0.0
1010
0.0
1020
0.0
1030
1.0
1040
0.0
1040
605.8799999999998
1040
420.0
1040
297.0
1040
50.0
1040
0.0
1040
0.0
1070
     0
1070
   100
1070
     1
1070
     0
1070
     0
1070
     0
1070
     0
1070
     0
1040
0.0
1040
0.0
1040
0.0
1040
10.0
1040
10.0
1040
0.0
1040
0.0
1070
     0
1002
{
1002
}
1002
}
  0
ENDSEC
  0
SECTION
  2
OBJECTS
  0
DICTIONARY
  5
C
330
0
100
AcDbDictionary
  3
ACAD_GROUP
350
D
  3
ACAD_LAYOUT
350
4EA
  3
ACAD_MLINESTYLE
350
E
  3
ACAD_PLOTSETTINGS
350
4EB
1001
ACAD
1000
TREAT_AS_HARD
1070
     0
  0
DICTIONARY
  5
519
330
1A
100
AcDbDictionary
  3
ACAD_LAYOUTSELFREF
350
529
1001
ACAD
1000
TREAT_AS_HARD
1070
     1
  0
DICTIONARY
  5
517
330
17
100
AcDbDictionary
  3
ACAD_LAYOUTSELFREF
350
528
1001
ACAD
1000
TREAT_AS_HARD
1070
     1
  0
DICTIONARY
  5
D
102
{ACAD_REACTORS
330
C
102
}
330
C
100
AcDbDictionary
1001
ACAD
1000
TREAT_AS_HARD
1070
     0
  0
DICTIONARY
  5
4EA
102
{ACAD_REACTORS
330
C
102
}
330
C
100
AcDbDictionary
1001
ACAD
1000
TREAT_AS_HARD
1070
     0
  0
DICTIONARY
  5
E
102
{ACAD_REACTORS
330
C
102
}
330
C
100
AcDbDictionary
  3
STANDARD
350
13
1001
ACAD
1000
TREAT_AS_HARD
1070
     0
  0
DICTIONARY
  5
4EB
102
{ACAD_REACTORS
330
C
102
}
330
C
100
AcDbDictionary
1001
ACAD
1000
TREAT_AS_HARD
1070
     0
  0
XRECORD
  5
529
102
{ACAD_REACTORS
330
519
102
}
330
519
100
AcDbXrecord
340
1A
  0
XRECORD
  5
528
102
{ACAD_REACTORS
330
517
102
}
330
517
100
AcDbXrecord
340
17
  0
MLINESTYLE
  5
13
102
{ACAD_REACTORS
330
E
102
}
330
E
100
AcDbMlineStyle
  2
STANDARD
 70
     0
  3

 62
     0
 51
90.0
 52
90.0
 71
     2
 49
0.5
 62
   256
  6
BYLAYER
 49
-0.5
 62
   256
  6
BYLAYER
  0
ENDSEC
  0
EOF
