  0
SECTION
  2
HEADER
  9
$ACADVER
  1
AC1012
  9
$DWGCODEPAGE
  3
dos932
  9
$INSBASE
 10
0.0
 20
0.0
 30
0.0
  9
$EXTMIN
 10
10.05047808566086
 20
4.949376903717846
 30
0.0
  9
$EXTMAX
 10
806.2246110975902
 20
563.7825862828226
 30
0.0
  9
$LIMMIN
 10
0.0
 20
0.0
  9
$LIMMAX
 10
840.0
 20
594.0
  9
$ORTHOMODE
 70
     0
  9
$REGENMODE
 70
     1
  9
$FILLMODE
 70
     1
  9
$QTEXTMODE
 70
     0
  9
$MIRRTEXT
 70
     1
  9
$DRAGMODE
 70
     2
  9
$LTSCALE
 40
2.0
  9
$OSMODE
 70
    37
  9
$ATTMODE
 70
     1
  9
$TEXTSIZE
 40
5.0
  9
$TRACEWID
 40
1.0
  9
$TEXTSTYLE
  7
STANDARD
  9
$CLAYER
  8
SUNPOU
  9
$CELTYPE
  6
BYLAYER
  9
$CECOLOR
 62
   256
  9
$CELTSCALE
 40
1.0
  9
$DELOBJ
 70
     1
  9
$DISPSILH
 70
     0
  9
$DIMSCALE
 40
1.0
  9
$DIMASZ
 40
7.0
  9
$DIMEXO
 40
6.0
  9
$DIMDLI
 40
14.0
  9
$DIMRND
 40
0.0
  9
$DIMDLE
 40
0.0
  9
$DIMEXE
 40
3.0
  9
$DIMTP
 40
0.0
  9
$DIMTM
 40
0.0
  9
$DIMTXT
 40
6.0
  9
$DIMCEN
 40
150.0
  9
$DIMTSZ
 40
0.0
  9
$DIMTOL
 70
     0
  9
$DIMLIM
 70
     0
  9
$DIMTIH
 70
     0
  9
$DIMTOH
 70
     0
  9
$DIMSE1
 70
     0
  9
$DIMSE2
 70
     0
  9
$DIMTAD
 70
     3
  9
$DIMZIN
 70
     0
  9
$DIMBLK
  1

  9
$DIMASO
 70
     1
  9
$DIMSHO
 70
     1
  9
$DIMPOST
  1

  9
$DIMAPOST
  1

  9
$DIMALT
 70
     0
  9
$DIMALTD
 70
     2
  9
$DIMALTF
 40
25.4
  9
$DIMLFAC
 40
1.0
  9
$DIMTOFL
 70
     1
  9
$DIMTVP
 40
0.0
  9
$DIMTIX
 70
     0
  9
$DIMSOXD
 70
     0
  9
$DIMSAH
 70
     1
  9
$DIMBLK1
  1
OPEN
  9
$DIMBLK2
  1
OPEN
  9
$DIMSTYLE
  2
STANDARD
  9
$DIMCLRD
 70
   256
  9
$DIMCLRE
 70
   256
  9
$DIMCLRT
 70
   256
  9
$DIMTFAC
 40
1.0
  9
$DIMGAP
 40
2.0
  9
$DIMJUST
 70
     0
  9
$DIMSD1
 70
     0
  9
$DIMSD2
 70
     0
  9
$DIMTOLJ
 70
     1
  9
$DIMTZIN
 70
     0
  9
$DIMALTZ
 70
     0
  9
$DIMALTTZ
 70
     0
  9
$DIMFIT
 70
     3
  9
$DIMUPT
 70
     0
  9
$DIMUNIT
 70
     2
  9
$DIMDEC
 70
     0
  9
$DIMTDEC
 70
     0
  9
$DIMALTU
 70
     2
  9
$DIMALTTD
 70
     2
  9
$DIMTXSTY
  7
STANDARD
  9
$DIMAUNIT
 70
     0
  9
$LUNITS
 70
     2
  9
$LUPREC
 70
     4
  9
$SKETCHINC
 40
1.0
  9
$FILLETRAD
 40
20.0
  9
$AUNITS
 70
     0
  9
$AUPREC
 70
     0
  9
$MENU
  1
.
  9
$ELEVATION
 40
0.0
  9
$PELEVATION
 40
0.0
  9
$THICKNESS
 40
0.0
  9
$LIMCHECK
 70
     0
  9
$BLIPMODE
 70
     0
  9
$CHAMFERA
 40
20.0
  9
$CHAMFERB
 40
20.0
  9
$CHAMFERC
 40
40.0
  9
$CHAMFERD
 40
0.0
  9
$SKPOLY
 70
     0
  9
$TDCREATE
 40
2450994.354346065
  9
$TDUPDATE
 40
2452393.712684652
  9
$TDINDWG
 40
0.0133018056
  9
$TDUSRTIMER
 40
0.0133018056
  9
$USRTIMER
 70
     1
  9
$ANGBASE
 50
0.0
  9
$ANGDIR
 70
     0
  9
$PDMODE
 70
     1
  9
$PDSIZE
 40
0.0
  9
$PLINEWID
 40
0.0
  9
$COORDS
 70
     1
  9
$SPLFRAME
 70
     0
  9
$SPLINETYPE
 70
     6
  9
$SPLINESEGS
 70
     8
  9
$ATTDIA
 70
     0
  9
$ATTREQ
 70
     1
  9
$HANDLING
 70
 10241
  9
$HANDSEED
  5
978
  9
$SURFTAB1
 70
     6
  9
$SURFTAB2
 70
     6
  9
$SURFTYPE
 70
     6
  9
$SURFU
 70
     6
  9
$SURFV
 70
     6
  9
$UCSNAME
  2

  9
$UCSORG
 10
0.0
 20
0.0
 30
0.0
  9
$UCSXDIR
 10
1.0
 20
0.0
 30
0.0
  9
$UCSYDIR
 10
0.0
 20
1.0
 30
0.0
  9
$PUCSNAME
  2

  9
$PUCSORG
 10
0.0
 20
0.0
 30
0.0
  9
$PUCSXDIR
 10
1.0
 20
0.0
 30
0.0
  9
$PUCSYDIR
 10
0.0
 20
1.0
 30
0.0
  9
$USERI1
 70
     0
  9
$USERI2
 70
     0
  9
$USERI3
 70
     0
  9
$USERI4
 70
     0
  9
$USERI5
 70
     0
  9
$USERR1
 40
0.0
  9
$USERR2
 40
0.0
  9
$USERR3
 40
0.0
  9
$USERR4
 40
0.0
  9
$USERR5
 40
0.0
  9
$WORLDVIEW
 70
     1
  9
$SHADEDGE
 70
     3
  9
$SHADEDIF
 70
    70
  9
$TILEMODE
 70
     1
  9
$MAXACTVP
 70
    16
  9
$PINSBASE
 10
0.0
 20
0.0
 30
0.0
  9
$PLIMCHECK
 70
     0
  9
$PEXTMIN
 10
0.0
 20
0.0
 30
0.0
  9
$PEXTMAX
 10
420.0
 20
297.0
 30
0.0
  9
$PLIMMIN
 10
0.0
 20
0.0
  9
$PLIMMAX
 10
420.0
 20
297.0
  9
$UNITMODE
 70
     0
  9
$VISRETAIN
 70
     0
  9
$PLINEGEN
 70
     0
  9
$PSLTSCALE
 70
     1
  9
$TREEDEPTH
 70
  3020
  9
$PICKSTYLE
 70
     1
  9
$CMLSTYLE
  2
STANDARD
  9
$CMLJUST
 70
     0
  9
$CMLSCALE
 40
1.0
  9
$SAVEIMAGES
 70
     1
  0
ENDSEC
  0
SECTION
  2
CLASSES
  0
CLASS
  1
ACDBDICTIONARYWDFLT
  2
AcDbDictionaryWithDefault
  3
AutoCAD 2000
 90
    32768
280
     0
281
     0
  0
CLASS
  1
ACDBPLACEHOLDER
  2
AcDbPlaceHolder
  3
AutoCAD 2000
 90
    32768
280
     0
281
     0
  0
CLASS
  1
LAYOUT
  2
AcDbLayout
  3
AutoCAD 2000
 90
    32768
280
     0
281
     0
  0
CLASS
  1
LONG_TRANSACTION
  2
AcDbLongTransaction
  3
AutoCAD 2000
 90
    32768
280
     0
281
     0
  0
CLASS
  1
LWPOLYLINE
  2
AcDbPolyline
  3
AutoCAD 2000
 90
    32768
280
     0
281
     1
  0
CLASS
  1
HATCH
  2
AcDbHatch
  3
AutoCAD 2000
 90
    32768
280
     0
281
     1
  0
CLASS
  1
XRECORD
  2
AcDbXrecord
  3
AutoCAD 2000
 90
    32768
280
     0
281
     0
  0
CLASS
  1
LONG_TRANSACTION
  2
AcDbLongTransaction
  3
AutoCAD 2000
 90
    32768
280
     0
281
     0
  0
CLASS
  1
LWPOLYLINE
  2
AcDbPolyline
  3
AutoCAD 2000
 90
    32768
280
     0
281
     1
  0
CLASS
  1
HATCH
  2
AcDbHatch
  3
AutoCAD 2000
 90
    32768
280
     0
281
     1
  0
CLASS
  1
XRECORD
  2
AcDbXrecord
  3
AutoCAD 2000
 90
    32768
280
     0
281
     0
  0
CLASS
  1
LONG_TRANSACTION
  2
AcDbLongTransaction
  3
AutoCAD 2000
 90
    32768
280
     0
281
     0
  0
CLASS
  1
LWPOLYLINE
  2
AcDbPolyline
  3
AutoCAD 2000
 90
    32768
280
     0
281
     1
  0
CLASS
  1
HATCH
  2
AcDbHatch
  3
AutoCAD 2000
 90
    32768
280
     0
281
     1
  0
CLASS
  1
XRECORD
  2
AcDbXrecord
  3
AutoCAD 2000
 90
    32768
280
     0
281
     0
  0
ENDSEC
  0
SECTION
  2
TABLES
  0
TABLE
  2
VPORT
  5
8
330
0
100
AcDbSymbolTable
 70
     2
  0
VPORT
  5
975
330
8
100
AcDbSymbolTableRecord
100
AcDbViewportTableRecord
  2
*ACTIVE
 70
     0
 10
0.0
 20
0.0
 11
1.0
 21
1.0
 12
542.4368423345499
 22
287.6546396150724
 13
0.0
 23
0.0
 14
5.0
 24
5.0
 15
0.0
 25
0.0
 16
0.0
 26
0.0
 36
1.0
 17
0.0
 27
0.0
 37
0.0
 40
582.2514758561746
 41
2.169459962756052
 42
50.0
 43
0.0
 44
0.0
 50
0.0
 51
0.0
 71
     0
 72
   100
 73
     1
 74
     0
 75
     0
 76
     0
 77
     0
 78
     0
  0
ENDTAB
  0
TABLE
  2
LTYPE
  5
5
330
0
100
AcDbSymbolTable
 70
     2
  0
LTYPE
  5
14
330
5
100
AcDbSymbolTableRecord
100
AcDbLinetypeTableRecord
  2
BYBLOCK
 70
     0
  3

 72
    65
 73
     0
 40
0.0
  0
LTYPE
  5
15
330
5
100
AcDbSymbolTableRecord
100
AcDbLinetypeTableRecord
  2
BYLAYER
 70
     0
  3

 72
    65
 73
     0
 40
0.0
  0
LTYPE
  5
16
330
5
100
AcDbSymbolTableRecord
100
AcDbLinetypeTableRecord
  2
CONTINUOUS
 70
     0
  3
Solid line
 72
    65
 73
     0
 40
0.0
  0
LTYPE
  5
135
330
5
100
AcDbSymbolTableRecord
100
AcDbLinetypeTableRecord
  2
CENTER
 70
     0
  3
____ _ ____ _ ____ _ ____ _ ____ _ ____ _ ____ 
 72
    65
 73
     4
 40
2.0
 49
1.25
 74
     0
 49
-0.25
 74
     0
 49
0.25
 74
     0
 49
-0.25
 74
     0
  0
ENDTAB
  0
TABLE
  2
LAYER
  5
2
330
0
100
AcDbSymbolTable
 70
     7
  0
LAYER
  5
F
330
2
100
AcDbSymbolTableRecord
100
AcDbLayerTableRecord
  2
0
 70
     0
 62
     7
  6
CONTINUOUS
  0
LAYER
  5
62
330
2
100
AcDbSymbolTableRecord
100
AcDbLayerTableRecord
  2
VIEWPORT
 70
     0
 62
     7
  6
CONTINUOUS
  0
LAYER
  5
65
330
2
100
AcDbSymbolTableRecord
100
AcDbLayerTableRecord
  2
ZUWAKU
 70
     0
 62
     7
  6
CONTINUOUS
  0
LAYER
  5
14E
330
2
100
AcDbSymbolTableRecord
100
AcDbLayerTableRecord
  2
SEIHIN
 70
     0
 62
     3
  6
CONTINUOUS
  0
LAYER
  5
14F
330
2
100
AcDbSymbolTableRecord
100
AcDbLayerTableRecord
  2
SUNPOU
 70
     0
 62
     4
  6
CONTINUOUS
  0
LAYER
  5
150
330
2
100
AcDbSymbolTableRecord
100
AcDbLayerTableRecord
  2
CENTER_L
 70
     0
 62
     1
  6
CENTER
  0
LAYER
  5
8B1
330
2
100
AcDbSymbolTableRecord
100
AcDbLayerTableRecord
  2
DEFPOINTS
 70
     0
 62
     7
  6
CONTINUOUS
  0
ENDTAB
  0
TABLE
  2
STYLE
  5
3
330
0
100
AcDbSymbolTable
 70
     1
  0
STYLE
  5
10
330
3
100
AcDbSymbolTableRecord
100
AcDbTextStyleTableRecord
  2
STANDARD
 70
     0
 40
0.0
 41
1.0
 50
0.0
 71
     0
 42
5.0
  3
TXT
  4
bigfont.shx
  0
ENDTAB
  0
TABLE
  2
VIEW
  5
6
330
0
100
AcDbSymbolTable
 70
     0
  0
ENDTAB
  0
TABLE
  2
UCS
  5
7
330
0
100
AcDbSymbolTable
 70
     0
  0
ENDTAB
  0
TABLE
  2
APPID
  5
9
330
0
100
AcDbSymbolTable
 70
     1
  0
APPID
  5
11
330
9
100
AcDbSymbolTableRecord
100
AcDbRegAppTableRecord
  2
ACAD
 70
     0
  0
ENDTAB
  0
TABLE
  2
DIMSTYLE
  5
A
330
0
100
AcDbSymbolTable
 70
     1
  0
DIMSTYLE
105
1D
102
{ACAD_REACTORS
330
8B6
330
8D0
330
8F1
330
900
102
}
330
A
100
AcDbSymbolTableRecord
100
AcDbDimStyleTableRecord
  2
STANDARD
 70
     0
  3

  4

  5

  6

  7

 40
1.0
 41
0.18
 42
0.0625
 43
0.38
 44
0.18
 45
0.0
 46
0.0
 47
0.0
 48
0.0
140
0.18
141
0.09
142
0.0
143
25.4
144
1.0
145
0.0
146
1.0
147
0.09
 71
     0
 72
     0
 73
     1
 74
     1
 75
     0
 76
     0
 77
     0
 78
     0
170
     0
171
     2
172
     0
173
     0
174
     0
175
     0
176
     0
177
     0
178
     0
270
     2
271
     4
272
     4
273
     2
274
     2
340
10
275
     0
280
     0
281
     0
282
     0
283
     1
284
     0
285
     0
286
     0
287
     3
288
     0
  0
ENDTAB
  0
TABLE
  2
BLOCK_RECORD
  5
1
330
0
100
AcDbSymbolTable
 70
     5
  0
BLOCK_RECORD
  5
1A
102
{ACAD_XDICTIONARY
360
933
102
}
330
1
100
AcDbSymbolTableRecord
100
AcDbBlockTableRecord
  2
*MODEL_SPACE
  0
BLOCK_RECORD
  5
17
102
{ACAD_XDICTIONARY
360
931
102
}
330
1
100
AcDbSymbolTableRecord
100
AcDbBlockTableRecord
  2
*PAPER_SPACE
  0
BLOCK_RECORD
  5
6D
330
1
100
AcDbSymbolTableRecord
100
AcDbBlockTableRecord
  2
_OPEN
  0
BLOCK_RECORD
  5
8A9
330
1
100
AcDbSymbolTableRecord
100
AcDbBlockTableRecord
  2
*D1
  0
BLOCK_RECORD
  5
8C4
330
1
100
AcDbSymbolTableRecord
100
AcDbBlockTableRecord
  2
*D2
  0
BLOCK_RECORD
  5
8E5
330
1
100
AcDbSymbolTableRecord
100
AcDbBlockTableRecord
  2
*D3
  0
BLOCK_RECORD
  5
8F2
330
1
100
AcDbSymbolTableRecord
100
AcDbBlockTableRecord
  2
*D4
  0
ENDTAB
  0
ENDSEC
  0
SECTION
  2
BLOCKS
  0
BLOCK
  5
1B
330
1A
100
AcDbEntity
  8
0
100
AcDbBlockBegin
  2
*MODEL_SPACE
 70
     0
 10
0.0
 20
0.0
 30
0.0
  3
*MODEL_SPACE
  1

  0
ENDBLK
  5
1C
330
1A
100
AcDbEntity
  8
0
100
AcDbBlockEnd
  0
BLOCK
  5
18
330
17
100
AcDbEntity
 67
     1
  8
0
100
AcDbBlockBegin
  2
*PAPER_SPACE
 70
     0
 10
0.0
 20
0.0
 30
0.0
  3
*PAPER_SPACE
  1

  0
ENDBLK
  5
19
330
17
100
AcDbEntity
 67
     1
  8
0
100
AcDbBlockEnd
  0
BLOCK
  5
6E
330
6D
100
AcDbEntity
  8
0
100
AcDbBlockBegin
  2
_OPEN
 70
     0
 10
0.0
 20
0.0
 30
0.0
  3
_OPEN
  1

  0
LINE
  5
6F
330
6D
100
AcDbEntity
  8
0
  6
BYBLOCK
 62
     0
100
AcDbLine
 10
-1.0
 20
0.1666666666666666
 30
0.0
 11
0.0
 21
0.0
 31
0.0
  0
LINE
  5
70
330
6D
100
AcDbEntity
  8
0
  6
BYBLOCK
 62
     0
100
AcDbLine
 10
0.0
 20
0.0
 30
0.0
 11
-1.0
 21
-0.1666666666666666
 31
0.0
  0
LINE
  5
71
330
6D
100
AcDbEntity
  8
0
  6
BYBLOCK
 62
     0
100
AcDbLine
 10
0.0
 20
0.0
 30
0.0
 11
-1.0
 21
0.0
 31
0.0
  0
ENDBLK
  5
72
330
6D
100
AcDbEntity
  8
0
100
AcDbBlockEnd
  0
BLOCK
  5
8AA
330
8A9
100
AcDbEntity
  8
0
100
AcDbBlockBegin
  2
*D1
 70
     1
 10
0.0
 20
0.0
 30
0.0
  3
*D1
  1

  0
LINE
  5
8AB
330
8A9
100
AcDbEntity
  8
0
  6
BYBLOCK
 62
     4
100
AcDbLine
 10
563.5725018507687
 20
373.9217701203509
 30
0.0
 11
563.5725018507687
 21
403.533377692692
 31
0.0
  0
LINE
  5
8AC
330
8A9
100
AcDbEntity
  8
0
  6
BYBLOCK
 62
     4
100
AcDbLine
 10
341.5725018507687
 20
373.9217701203509
 30
0.0
 11
341.5725018507687
 21
403.533377692692
 31
0.0
  0
LINE
  5
8AD
330
8A9
100
AcDbEntity
  8
0
  6
BYBLOCK
 62
     4
100
AcDbLine
 10
556.5725018507687
 20
400.533377692692
 30
0.0
 11
348.5725018507687
 21
400.533377692692
 31
0.0
  0
INSERT
  5
8AE
330
8A9
100
AcDbEntity
  8
0
  6
BYBLOCK
 62
     4
100
AcDbBlockReference
  2
_OPEN
 10
563.5725018507687
 20
400.533377692692
 30
0.0
 41
7.0
 42
7.0
 43
7.0
  0
INSERT
  5
8AF
330
8A9
100
AcDbEntity
  8
0
  6
BYBLOCK
 62
     4
100
AcDbBlockReference
  2
_OPEN
 10
341.5725018507687
 20
400.533377692692
 30
0.0
 41
7.0
 42
7.0
 43
7.0
 50
180.0
  0
MTEXT
  5
8B0
330
8A9
100
AcDbEntity
  8
0
  6
BYBLOCK
 62
     4
100
AcDbMText
 10
452.5725018507687
 20
405.533377692692
 30
0.0
 40
6.0
 41
0.0
 71
     5
 72
     1
  1
\A1;222
1001
ACAD
1000
MTEXTBEGIN
1070
    73
1070
     1
1070
    44
1040
1.0
1070
    74
1070
     0
1000
MTEXTEND
1000
MTEXTBEGIN
1070
    73
1070
     1
1070
    44
1040
1.0
1070
    74
1070
     0
1000
MTEXTEND
1000
MTEXTBEGIN
1070
    73
1070
     1
1070
    44
1040
1.0
1070
    74
1070
     0
1000
MTEXTEND
  0
POINT
  5
8B2
330
8A9
100
AcDbEntity
  8
DEFPOINTS
  6
BYBLOCK
 62
     0
100
AcDbPoint
 10
563.5725018507687
 20
367.9217701203508
 30
0.0
  0
POINT
  5
8B3
330
8A9
100
AcDbEntity
  8
DEFPOINTS
  6
BYBLOCK
 62
     0
100
AcDbPoint
 10
341.5725018507687
 20
367.9217701203508
 30
0.0
  0
POINT
  5
8B4
330
8A9
100
AcDbEntity
  8
DEFPOINTS
  6
BYBLOCK
 62
     0
100
AcDbPoint
 10
341.5725018507687
 20
400.533377692692
 30
0.0
  0
ENDBLK
  5
8B5
330
8A9
100
AcDbEntity
  8
0
100
AcDbBlockEnd
  0
BLOCK
  5
8C5
330
8C4
100
AcDbEntity
  8
0
100
AcDbBlockBegin
  2
*D2
 70
     1
 10
0.0
 20
0.0
 30
0.0
  3
*D2
  1

  0
LINE
  5
8C6
330
8C4
100
AcDbEntity
  8
0
  6
BYBLOCK
 62
     4
100
AcDbLine
 10
544.5724092759426
 20
202.4217701203508
 30
0.0
 11
544.5724092759426
 21
172.3278416455952
 31
0.0
  0
LINE
  5
8C7
330
8C4
100
AcDbEntity
  8
0
  6
BYBLOCK
 62
     4
100
AcDbLine
 10
360.5725865237703
 20
202.4217701203508
 30
0.0
 11
360.5725865237703
 21
172.3278416455952
 31
0.0
  0
LINE
  5
8C8
330
8C4
100
AcDbEntity
  8
0
  6
BYBLOCK
 62
     4
100
AcDbLine
 10
537.5724092759425
 20
175.3278416455952
 30
0.0
 11
367.5725865237704
 21
175.3278416455952
 31
0.0
  0
INSERT
  5
8C9
330
8C4
100
AcDbEntity
  8
0
  6
BYBLOCK
 62
     4
100
AcDbBlockReference
  2
_OPEN
 10
544.5724092759426
 20
175.3278416455952
 30
0.0
 41
7.0
 42
7.0
 43
7.0
  0
INSERT
  5
8CA
330
8C4
100
AcDbEntity
  8
0
  6
BYBLOCK
 62
     4
100
AcDbBlockReference
  2
_OPEN
 10
360.5725865237703
 20
175.3278416455952
 30
0.0
 41
7.0
 42
7.0
 43
7.0
 50
180.0
  0
MTEXT
  5
8CB
330
8C4
100
AcDbEntity
  8
0
  6
BYBLOCK
 62
     4
100
AcDbMText
 10
452.5724978998565
 20
180.3278416455952
 30
0.0
 40
6.0
 41
0.0
 71
     5
 72
     1
  1
\A1;184
1001
ACAD
1000
MTEXTBEGIN
1070
    73
1070
     1
1070
    44
1040
1.0
1070
    74
1070
     0
1000
MTEXTEND
1000
MTEXTBEGIN
1070
    73
1070
     1
1070
    44
1040
1.0
1070
    74
1070
     0
1000
MTEXTEND
1000
MTEXTBEGIN
1070
    73
1070
     1
1070
    44
1040
1.0
1070
    74
1070
     0
1000
MTEXTEND
  0
POINT
  5
8CC
330
8C4
100
AcDbEntity
  8
DEFPOINTS
  6
BYBLOCK
 62
     0
100
AcDbPoint
 10
544.5724092759426
 20
208.4217701203508
 30
0.0
  0
POINT
  5
8CD
330
8C4
100
AcDbEntity
  8
DEFPOINTS
  6
BYBLOCK
 62
     0
100
AcDbPoint
 10
360.5725865237703
 20
208.4217701203508
 30
0.0
  0
POINT
  5
8CE
330
8C4
100
AcDbEntity
  8
DEFPOINTS
  6
BYBLOCK
 62
     0
100
AcDbPoint
 10
360.5725865237703
 20
175.3278416455952
 30
0.0
  0
ENDBLK
  5
8CF
330
8C4
100
AcDbEntity
  8
0
100
AcDbBlockEnd
  0
BLOCK
  5
8E6
330
8E5
100
AcDbEntity
  8
0
100
AcDbBlockBegin
  2
*D3
 70
     1
 10
0.0
 20
0.0
 30
0.0
  3
*D3
  1

  0
LINE
  5
8E7
330
8E5
100
AcDbEntity
  8
0
  6
BYBLOCK
 62
     4
100
AcDbLine
 10
553.2729541105108
 20
390.9860813967396
 30
0.0
 11
587.5867013225038
 21
390.9860813967396
 31
0.0
  0
LINE
  5
8E8
330
8E5
100
AcDbEntity
  8
0
  6
BYBLOCK
 62
     4
100
AcDbLine
 10
536.1125541105109
 20
226.4860813967395
 30
0.0
 11
587.5867013225038
 21
226.4860813967395
 31
0.0
  0
LINE
  5
8E9
330
8E5
100
AcDbEntity
  8
0
  6
BYBLOCK
 62
     4
100
AcDbLine
 10
584.5867013225038
 20
383.9860813967396
 30
0.0
 11
584.5867013225038
 21
233.4860813967396
 31
0.0
  0
INSERT
  5
8EA
330
8E5
100
AcDbEntity
  8
0
  6
BYBLOCK
 62
     4
100
AcDbBlockReference
  2
_OPEN
 10
584.5867013225038
 20
390.9860813967396
 30
0.0
 41
7.0
 42
7.0
 43
7.0
 50
90.0
  0
INSERT
  5
8EB
330
8E5
100
AcDbEntity
  8
0
  6
BYBLOCK
 62
     4
100
AcDbBlockReference
  2
_OPEN
 10
584.5867013225038
 20
226.4860813967395
 30
0.0
 41
7.0
 42
7.0
 43
7.0
 50
270.0
  0
MTEXT
  5
8EC
330
8E5
100
AcDbEntity
  8
0
  6
BYBLOCK
 62
     4
100
AcDbMText
 10
579.5867013225038
 20
308.7360813967396
 30
0.0
 40
6.0
 41
0.0
 71
     5
 72
     1
  1
\A1;165
 11
0.0
 21
1.0
 31
0.0
1001
ACAD
1000
MTEXTBEGIN
1070
    73
1070
     1
1070
    44
1040
1.0
1070
    74
1070
     0
1000
MTEXTEND
1000
MTEXTBEGIN
1070
    73
1070
     1
1070
    44
1040
1.0
1070
    74
1070
     0
1000
MTEXTEND
1000
MTEXTBEGIN
1070
    73
1070
     1
1070
    44
1040
1.0
1070
    74
1070
     0
1000
MTEXTEND
  0
POINT
  5
8ED
330
8E5
100
AcDbEntity
  8
DEFPOINTS
  6
BYBLOCK
 62
     0
100
AcDbPoint
 10
547.2729541105109
 20
390.9860813967396
 30
0.0
  0
POINT
  5
8EE
330
8E5
100
AcDbEntity
  8
DEFPOINTS
  6
BYBLOCK
 62
     0
100
AcDbPoint
 10
530.1125541105109
 20
226.4860813967395
 30
0.0
  0
POINT
  5
8EF
330
8E5
100
AcDbEntity
  8
DEFPOINTS
  6
BYBLOCK
 62
     0
100
AcDbPoint
 10
584.5867013225038
 20
226.4860813967395
 30
0.0
  0
ENDBLK
  5
8F0
330
8E5
100
AcDbEntity
  8
0
100
AcDbBlockEnd
  0
BLOCK
  5
8F3
330
8F2
100
AcDbEntity
  8
0
100
AcDbBlockBegin
  2
*D4
 70
     1
 10
0.0
 20
0.0
 30
0.0
  3
*D4
  1

  0
LINE
  5
8F4
330
8F2
100
AcDbEntity
  8
0
  6
BYBLOCK
 62
     4
100
AcDbLine
 10
558.2728541105109
 20
141.6178813967395
 30
0.0
 11
587.5867013225038
 21
141.6178813967395
 31
0.0
  0
LINE
  5
8F5
330
8F2
100
AcDbEntity
  8
0
  6
BYBLOCK
 62
     4
100
AcDbLine
 10
558.2728541105109
 20
128.6178813967395
 30
0.0
 11
587.5867013225038
 21
128.6178813967395
 31
0.0
  0
LINE
  5
8F6
330
8F2
100
AcDbEntity
  8
0
  6
BYBLOCK
 62
     4
100
AcDbLine
 10
584.5867013225038
 20
148.6178813967395
 30
0.0
 11
584.5867013225038
 21
155.6178813967395
 31
0.0
  0
LINE
  5
8F7
330
8F2
100
AcDbEntity
  8
0
  6
BYBLOCK
 62
     4
100
AcDbLine
 10
584.5867013225038
 20
121.6178813967395
 30
0.0
 11
584.5867013225038
 21
114.6178813967395
 31
0.0
  0
LINE
  5
8F8
330
8F2
100
AcDbEntity
  8
0
  6
BYBLOCK
 62
     4
100
AcDbLine
 10
584.5867013225038
 20
141.6178813967395
 30
0.0
 11
584.5867013225038
 21
128.6178813967395
 31
0.0
  0
INSERT
  5
8F9
330
8F2
100
AcDbEntity
  8
0
  6
BYBLOCK
 62
     4
100
AcDbBlockReference
  2
_OPEN
 10
584.5867013225038
 20
141.6178813967395
 30
0.0
 41
7.0
 42
7.0
 43
7.0
 50
270.0
  0
INSERT
  5
8FA
330
8F2
100
AcDbEntity
  8
0
  6
BYBLOCK
 62
     4
100
AcDbBlockReference
  2
_OPEN
 10
584.5867013225038
 20
128.6178813967395
 30
0.0
 41
7.0
 42
7.0
 43
7.0
 50
90.0
  0
MTEXT
  5
8FB
330
8F2
100
AcDbEntity
  8
0
  6
BYBLOCK
 62
     4
100
AcDbMText
 10
579.5867013225038
 20
135.1178813967395
 30
0.0
 40
6.0
 41
0.0
 71
     5
 72
     1
  1
\A1;13
 11
0.0
 21
1.0
 31
0.0
1001
ACAD
1000
MTEXTBEGIN
1070
    73
1070
     1
1070
    44
1040
1.0
1070
    74
1070
     0
1000
MTEXTEND
1000
MTEXTBEGIN
1070
    73
1070
     1
1070
    44
1040
1.0
1070
    74
1070
     0
1000
MTEXTEND
1000
MTEXTBEGIN
1070
    73
1070
     1
1070
    44
1040
1.0
1070
    74
1070
     0
1000
MTEXTEND
  0
POINT
  5
8FC
330
8F2
100
AcDbEntity
  8
DEFPOINTS
  6
BYBLOCK
 62
     0
100
AcDbPoint
 10
552.2728541105109
 20
141.6178813967395
 30
0.0
  0
POINT
  5
8FD
330
8F2
100
AcDbEntity
  8
DEFPOINTS
  6
BYBLOCK
 62
     0
100
AcDbPoint
 10
552.2728541105109
 20
128.6178813967395
 30
0.0
  0
POINT
  5
8FE
330
8F2
100
AcDbEntity
  8
DEFPOINTS
  6
BYBLOCK
 62
     0
100
AcDbPoint
 10
584.5867013225038
 20
128.6178813967395
 30
0.0
  0
ENDBLK
  5
8FF
330
8F2
100
AcDbEntity
  8
0
100
AcDbBlockEnd
  0
ENDSEC
  0
SECTION
  2
ENTITIES
  0
TEXT
  5
11A
330
1A
100
AcDbEntity
  8
ZUWAKU
 62
     7
 48
10.0
100
AcDbText
 10
795.5579444309237
 20
4.974918402528146
 30
0.0
 40
8.0
  1
A1
100
AcDbText
  0
LINE
  5
11B
330
1A
100
AcDbEntity
  8
ZUWAKU
 62
     7
 48
10.0
100
AcDbLine
 10
10.05047808566086
 20
25.78258628282265
 30
0.0
 11
806.0504780856609
 21
25.78258628282253
 31
0.0
  0
LINE
  5
11C
330
1A
100
AcDbEntity
  8
ZUWAKU
  6
CONTINUOUS
 62
     7
100
AcDbLine
 10
806.0504780856609
 20
563.7825862828226
 30
0.0
 11
10.05047808566086
 21
563.7825862828226
 31
0.0
  0
LINE
  5
11D
330
1A
100
AcDbEntity
  8
ZUWAKU
  6
CONTINUOUS
 62
     7
100
AcDbLine
 10
806.0504780856609
 20
13.78258628282265
 30
0.0
 11
10.05047808566086
 21
13.78258628282265
 31
0.0
  0
LINE
  5
11E
330
1A
100
AcDbEntity
  8
ZUWAKU
  6
CONTINUOUS
 62
     7
100
AcDbLine
 10
10.05047808566086
 20
563.7825862828226
 30
0.0
 11
10.05047808566086
 21
13.78258628282265
 31
0.0
  0
LINE
  5
11F
330
1A
100
AcDbEntity
  8
ZUWAKU
 62
     7
 48
10.0
100
AcDbLine
 10
44.55797523147839
 20
13.78258628282265
 30
0.0
 11
44.5579752314784
 21
25.78258628282265
 31
0.0
  0
TEXT
  5
120
330
1A
100
AcDbEntity
  8
ZUWAKU
 62
     7
100
AcDbText
 10
16.05676551180931
 20
15.52294263804401
 30
0.0
 40
8.0
  1
品 種
100
AcDbText
  0
LINE
  5
121
330
1A
100
AcDbEntity
  8
ZUWAKU
 62
     7
 48
10.0
100
AcDbLine
 10
276.1028387068254
 20
13.78258628282265
 30
0.0
 11
276.1028387068254
 21
25.78258628282261
 31
0.0
  0
LINE
  5
122
330
1A
100
AcDbEntity
  8
ZUWAKU
 62
     7
 48
10.0
100
AcDbLine
 10
209.5138526425484
 20
13.78258628282265
 30
0.0
 11
209.5138526425485
 21
25.78258628282263
 31
0.0
  0
TEXT
  5
123
330
1A
100
AcDbEntity
  8
ZUWAKU
 62
     7
100
AcDbText
 10
282.3131429914078
 20
15.64241700452384
 30
0.0
 40
8.0
  1
へん平型　ＵＴ９０×７５（Ｓ）フタ　
100
AcDbText
  0
TEXT
  5
124
330
1A
100
AcDbEntity
  8
ZUWAKU
 62
     7
100
AcDbText
 10
215.4560837190756
 20
16.18358115302453
 30
0.0
 40
8.0
  1
品名・ｻ ｲ ｽﾞ
100
AcDbText
  0
TEXT
  5
125
330
1A
100
AcDbEntity
  8
ZUWAKU
 62
     7
100
AcDbText
 10
50.3519382305086
 20
16.10306189639755
 30
0.0
 40
8.0
  1
角マス
100
AcDbText
  0
LINE
  5
126
330
1A
100
AcDbEntity
  8
ZUWAKU
 62
     7
 48
10.0
100
AcDbLine
 10
768.7231079932794
 20
13.78258628282237
 30
0.0
 11
768.7231079932794
 21
25.78258628282254
 31
0.0
  0
LINE
  5
127
330
1A
100
AcDbEntity
  8
ZUWAKU
 62
     7
 48
10.0
100
AcDbLine
 10
733.8119002376948
 20
13.78258628282242
 30
0.0
 11
733.8119002376946
 21
25.78258628282254
 31
0.0
  0
TEXT
  5
128
330
1A
100
AcDbEntity
  8
ZUWAKU
 62
     7
100
AcDbText
 10
739.6955629973526
 20
15.24227755810852
 30
0.0
 40
8.0
  1
尺 度
100
AcDbText
  0
TEXT
  5
129
330
1A
100
AcDbEntity
  8
ZUWAKU
 62
     7
100
AcDbText
 10
779.7374630323229
 20
15.55488920081529
 30
0.0
 40
8.0
  1
1/2
100
AcDbText
  0
TEXT
  5
12A
330
1A
100
AcDbEntity
  8
ZUWAKU
 62
     7
100
AcDbText
 10
654.2531733678779
 20
15.90287984531518
 30
0.0
 40
8.0
  1
ＧＨ１３
100
AcDbText
  0
TEXT
  5
12B
330
1A
100
AcDbEntity
  8
ZUWAKU
 62
     7
100
AcDbText
 10
620.3363288383084
 20
15.6519090944263
 30
0.0
 40
8.0
  1
品 番
100
AcDbText
  0
LINE
  5
12C
330
1A
100
AcDbEntity
  8
ZUWAKU
 62
     7
 48
10.0
100
AcDbLine
 10
614.3351028194128
 20
13.78258628282232
 30
0.0
 11
614.3351028194128
 21
25.78258628282256
 31
0.0
  0
LINE
  5
12D
330
1A
100
AcDbEntity
  8
ZUWAKU
 62
     7
 48
10.0
100
AcDbLine
 10
648.7607587371021
 20
13.78258628282232
 30
0.0
 11
648.7607587371021
 21
25.78258628282255
 31
0.0
  0
TEXT
  5
12E
330
1A
100
AcDbEntity
  8
ZUWAKU
 62
     7
 48
10.0
100
AcDbText
 10
646.2758615931216
 20
4.949376903717848
 30
0.0
 40
8.0
  1
積水化学工業株式会社  建材
100
AcDbText
  0
LINE
  5
12F
330
1A
100
AcDbEntity
  8
ZUWAKU
  6
CONTINUOUS
 62
     7
100
AcDbLine
 10
806.0504780856609
 20
563.7825862828226
 30
0.0
 11
806.0504780856609
 21
13.78258628282265
 31
0.0
  0
LINE
  5
4F9
330
1A
100
AcDbEntity
  8
SEIHIN
  6
CONTINUOUS
 62
     3
100
AcDbLine
 10
412.0237679974639
 20
126.3698064842837
 30
0.0
 11
301.0239679974639
 21
126.3698064842837
 31
0.0
  0
LINE
  5
4FA
330
1A
100
AcDbEntity
  8
SEIHIN
  6
CONTINUOUS
 62
     3
100
AcDbLine
 10
412.0237679974639
 20
139.3698064842837
 30
0.0
 11
301.0239679974639
 21
139.3698064842837
 31
0.0
  0
LINE
  5
4FB
330
1A
100
AcDbEntity
  8
SEIHIN
  6
CONTINUOUS
 62
     3
100
AcDbLine
 10
412.0237679974639
 20
224.2380064842837
 30
0.0
 11
323.1842679974637
 21
224.2380064842837
 31
0.0
  0
LINE
  5
4FC
330
1A
100
AcDbEntity
  8
SEIHIN
  6
CONTINUOUS
 62
     3
100
AcDbLine
 10
412.0237679974639
 20
388.7380064842837
 30
0.0
 11
306.0237679974639
 21
388.7380064842837
 31
0.0
  0
LINE
  5
4FD
330
1A
100
AcDbEntity
  8
SEIHIN
  6
CONTINUOUS
 62
     3
100
AcDbLine
 10
379.7325679974639
 20
245.4880064842837
 30
0.0
 11
372.0237679974639
 21
245.4880064842837
 31
0.0
  0
LINE
  5
4FE
330
1A
100
AcDbEntity
  8
SEIHIN
  6
CONTINUOUS
 62
     3
100
AcDbLine
 10
372.0237679974639
 20
227.4880064842836
 30
0.0
 11
379.0237679974639
 21
227.4880064842836
 31
0.0
  0
LINE
  5
4FF
330
1A
100
AcDbEntity
  8
SEIHIN
  6
CONTINUOUS
 62
     3
100
AcDbLine
 10
379.7325679974639
 20
247.4880064842837
 30
0.0
 11
372.0237679974639
 21
247.4880064842837
 31
0.0
  0
LINE
  5
500
330
1A
100
AcDbEntity
  8
SEIHIN
  6
CONTINUOUS
 62
     3
100
AcDbLine
 10
372.0237679974639
 20
265.4880064842837
 30
0.0
 11
379.0237679974639
 21
265.4880064842837
 31
0.0
  0
LINE
  5
501
330
1A
100
AcDbEntity
  8
SEIHIN
  6
CONTINUOUS
 62
     3
100
AcDbLine
 10
379.7325679974639
 20
285.4880064842837
 30
0.0
 11
372.0237679974639
 21
285.4880064842837
 31
0.0
  0
LINE
  5
502
330
1A
100
AcDbEntity
  8
SEIHIN
  6
CONTINUOUS
 62
     3
100
AcDbLine
 10
372.0237679974639
 20
267.4880064842837
 30
0.0
 11
379.0237679974639
 21
267.4880064842837
 31
0.0
  0
LINE
  5
503
330
1A
100
AcDbEntity
  8
SEIHIN
  6
CONTINUOUS
 62
     3
100
AcDbLine
 10
379.7325679974639
 20
287.4880064842837
 30
0.0
 11
372.0237679974639
 21
287.4880064842837
 31
0.0
  0
LINE
  5
504
330
1A
100
AcDbEntity
  8
SEIHIN
  6
CONTINUOUS
 62
     3
100
AcDbLine
 10
372.0237679974639
 20
305.4880064842837
 30
0.0
 11
379.0237679974639
 21
305.4880064842837
 31
0.0
  0
LINE
  5
505
330
1A
100
AcDbEntity
  8
SEIHIN
  6
CONTINUOUS
 62
     3
100
AcDbLine
 10
379.7325679974639
 20
325.4880064842837
 30
0.0
 11
372.0237679974639
 21
325.4880064842837
 31
0.0
  0
LINE
  5
506
330
1A
100
AcDbEntity
  8
SEIHIN
  6
CONTINUOUS
 62
     3
100
AcDbLine
 10
372.0237679974639
 20
307.4880064842837
 30
0.0
 11
379.0237679974639
 21
307.4880064842837
 31
0.0
  0
LINE
  5
507
330
1A
100
AcDbEntity
  8
SEIHIN
  6
CONTINUOUS
 62
     3
100
AcDbLine
 10
379.7325679974639
 20
327.4880064842837
 30
0.0
 11
372.0237679974639
 21
327.4880064842837
 31
0.0
  0
LINE
  5
508
330
1A
100
AcDbEntity
  8
SEIHIN
  6
CONTINUOUS
 62
     3
100
AcDbLine
 10
372.0237679974639
 20
345.4880064842837
 30
0.0
 11
379.0237679974639
 21
345.4880064842837
 31
0.0
  0
LINE
  5
509
330
1A
100
AcDbEntity
  8
SEIHIN
  6
CONTINUOUS
 62
     3
100
AcDbLine
 10
379.7325679974639
 20
365.4880064842837
 30
0.0
 11
372.0237679974639
 21
365.4880064842837
 31
0.0
  0
LINE
  5
50A
330
1A
100
AcDbEntity
  8
SEIHIN
  6
CONTINUOUS
 62
     3
100
AcDbLine
 10
372.0237679974639
 20
347.4880064842837
 30
0.0
 11
379.0237679974639
 21
347.4880064842837
 31
0.0
  0
LINE
  5
50B
330
1A
100
AcDbEntity
  8
SEIHIN
  6
CONTINUOUS
 62
     3
100
AcDbLine
 10
379.7325679974639
 20
367.4880064842837
 30
0.0
 11
372.0237679974639
 21
367.4880064842837
 31
0.0
  0
LINE
  5
50C
330
1A
100
AcDbEntity
  8
SEIHIN
  6
CONTINUOUS
 62
     3
100
AcDbLine
 10
372.0237679974639
 20
385.4880064842837
 30
0.0
 11
379.0237679974639
 21
385.4880064842837
 31
0.0
  0
LINE
  5
50E
330
1A
100
AcDbEntity
  8
SEIHIN
  6
CONTINUOUS
 62
     3
100
AcDbLine
 10
301.0237679974639
 20
383.7380064842837
 30
0.0
 11
301.0238679974638
 21
265.3651064842837
 31
0.0
  0
LINE
  5
50F
330
1A
100
AcDbEntity
  8
SEIHIN
  6
CONTINUOUS
 62
     3
100
AcDbLine
 10
321.0237679974639
 20
288.7793064842837
 30
0.0
 11
321.0237679974639
 21
303.4880064842837
 31
0.0
  0
LINE
  5
510
330
1A
100
AcDbEntity
  8
SEIHIN
  6
CONTINUOUS
 62
     3
100
AcDbLine
 10
323.0237679974639
 20
288.7793064842837
 30
0.0
 11
323.0237679974639
 21
303.4880064842837
 31
0.0
  0
LINE
  5
511
330
1A
100
AcDbEntity
  8
SEIHIN
  6
CONTINUOUS
 62
     3
100
AcDbLine
 10
303.0237679974639
 20
289.4880064842837
 30
0.0
 11
303.0237679974639
 21
303.4880064842837
 31
0.0
  0
LINE
  5
512
330
1A
100
AcDbEntity
  8
SEIHIN
  6
CONTINUOUS
 62
     3
100
AcDbLine
 10
341.0237679974639
 20
289.4880064842837
 30
0.0
 11
341.0237679974639
 21
303.4880064842837
 31
0.0
  0
LINE
  5
513
330
1A
100
AcDbEntity
  8
SEIHIN
  6
CONTINUOUS
 62
     3
100
AcDbLine
 10
361.0237679974639
 20
289.4880064842837
 30
0.0
 11
361.0237679974639
 21
303.4880064842837
 31
0.0
  0
LINE
  5
514
330
1A
100
AcDbEntity
  8
SEIHIN
  6
CONTINUOUS
 62
     3
100
AcDbLine
 10
343.0237679974639
 20
289.4880064842837
 30
0.0
 11
343.0237679974639
 21
303.4880064842837
 31
0.0
  0
LINE
  5
515
330
1A
100
AcDbEntity
  8
SEIHIN
  6
CONTINUOUS
 62
     3
100
AcDbLine
 10
363.0237679974639
 20
289.4880064842837
 30
0.0
 11
363.0237679974639
 21
303.4880064842837
 31
0.0
  0
LINE
  5
51D
330
1A
100
AcDbEntity
  8
SEIHIN
  6
CONTINUOUS
 62
     3
100
AcDbLine
 10
301.0239679974639
 20
139.3697064842837
 30
0.0
 11
301.0239679974639
 21
126.3698064842837
 31
0.0
  0
LINE
  5
523
330
1A
100
AcDbEntity
  8
SEIHIN
  6
CONTINUOUS
 62
     3
100
AcDbLine
 10
320.0239679974639
 20
126.3698064842837
 30
0.0
 11
320.0239679974639
 21
139.3698064842837
 31
0.0
  0
LINE
  5
527
330
1A
100
AcDbEntity
  8
SEIHIN
  6
CONTINUOUS
 62
     3
100
AcDbLine
 10
319.7325679974639
 20
247.4880064842837
 30
0.0
 11
312.4584679974637
 21
247.4880064842837
 31
0.0
  0
LINE
  5
528
330
1A
100
AcDbEntity
  8
SEIHIN
  6
CONTINUOUS
 62
     3
100
AcDbLine
 10
318.6678679974638
 20
227.0927064842837
 30
0.0
 11
301.5074679974639
 21
263.2198064842837
 31
0.0
  0
LINE
  5
529
330
1A
100
AcDbEntity
  8
SEIHIN
  6
CONTINUOUS
 62
     3
100
AcDbLine
 10
312.0237679974639
 20
265.4880064842837
 30
0.0
 11
319.0237679974639
 21
265.4880064842837
 31
0.0
  0
LINE
  5
52A
330
1A
100
AcDbEntity
  8
SEIHIN
  6
CONTINUOUS
 62
     3
100
AcDbLine
 10
319.7325679974639
 20
285.4880064842837
 30
0.0
 11
312.0237679974639
 21
285.4880064842837
 31
0.0
  0
LINE
  5
52B
330
1A
100
AcDbEntity
  8
SEIHIN
  6
CONTINUOUS
 62
     3
100
AcDbLine
 10
312.0237679974639
 20
267.4880064842837
 30
0.0
 11
319.0237679974639
 21
267.4880064842837
 31
0.0
  0
LINE
  5
52C
330
1A
100
AcDbEntity
  8
SEIHIN
  6
CONTINUOUS
 62
     3
100
AcDbLine
 10
319.7325679974639
 20
287.4880064842837
 30
0.0
 11
312.0237679974639
 21
287.4880064842837
 31
0.0
  0
ARC
  5
52F
330
1A
100
AcDbEntity
  8
SEIHIN
  6
CONTINUOUS
 62
     3
100
AcDbCircle
 10
305.0237679974639
 20
269.4880064842837
 30
0.0
 40
2.0
100
AcDbArc
 50
180.0
 51
270.0
  0
LINE
  5
530
330
1A
100
AcDbEntity
  8
SEIHIN
  6
CONTINUOUS
 62
     3
100
AcDbLine
 10
303.6624679974638
 20
263.3444064842836
 30
0.0
 11
310.6518679974637
 21
248.6299064842837
 31
0.0
  0
ARC
  5
531
330
1A
100
AcDbEntity
  8
SEIHIN
  6
CONTINUOUS
 62
     3
100
AcDbCircle
 10
312.4584404759343
 20
249.4880238803822
 30
0.0
 40
2.000017396287922
100
AcDbArc
 50
205.4076008567751
 51
270.000788426883
  0
ARC
  5
532
330
1A
100
AcDbEntity
  8
SEIHIN
  6
CONTINUOUS
 62
     3
100
AcDbCircle
 10
305.0173706342565
 20
263.9880106559619
 30
0.0
 40
1.499995828324119
100
AcDbArc
 50
90.00010071834605
 51
205.4085951414363
  0
ARC
  5
533
330
1A
100
AcDbEntity
  8
SEIHIN
  6
CONTINUOUS
 62
     3
100
AcDbCircle
 10
306.0238770499483
 20
265.3650663280268
 30
0.0
 40
5.000009052645795
100
AcDbArc
 50
179.999539844025
 51
205.4073614605673
  0
LINE
  5
534
330
1A
100
AcDbEntity
  8
SEIHIN
  6
CONTINUOUS
 62
     3
100
AcDbLine
 10
312.0237679974639
 20
265.4880064842837
 30
0.0
 11
305.0173679974637
 21
265.4880064842837
 31
0.0
  0
LINE
  5
535
330
1A
100
AcDbEntity
  8
SEIHIN
  6
CONTINUOUS
 62
     3
100
AcDbLine
 10
312.0237679974639
 20
267.4880064842837
 30
0.0
 11
305.0237679974639
 21
267.4880064842837
 31
0.0
  0
LINE
  5
536
330
1A
100
AcDbEntity
  8
SEIHIN
  6
CONTINUOUS
 62
     3
100
AcDbLine
 10
303.0237679974639
 20
283.4880064842837
 30
0.0
 11
303.0237679974639
 21
269.4880064842837
 31
0.0
  0
ARC
  5
537
330
1A
100
AcDbEntity
  8
SEIHIN
  6
CONTINUOUS
 62
     3
100
AcDbCircle
 10
305.0237679974639
 20
283.4880064842837
 30
0.0
 40
2.0
100
AcDbArc
 50
90.0
 51
180.0
  0
ARC
  5
538
330
1A
100
AcDbEntity
  8
SEIHIN
  6
CONTINUOUS
 62
     3
100
AcDbCircle
 10
305.0237679974639
 20
289.4880064842837
 30
0.0
 40
2.0
100
AcDbArc
 50
180.0
 51
270.0
  0
LINE
  5
539
330
1A
100
AcDbEntity
  8
SEIHIN
  6
CONTINUOUS
 62
     3
100
AcDbLine
 10
305.0237679974639
 20
285.4880064842837
 30
0.0
 11
312.0237679974639
 21
285.4880064842837
 31
0.0
  0
LINE
  5
53A
330
1A
100
AcDbEntity
  8
SEIHIN
  6
CONTINUOUS
 62
     3
100
AcDbLine
 10
305.0237679974639
 20
287.4880064842837
 30
0.0
 11
312.0237679974639
 21
287.4880064842837
 31
0.0
  0
ARC
  5
53B
330
1A
100
AcDbEntity
  8
SEIHIN
  6
CONTINUOUS
 62
     3
100
AcDbCircle
 10
339.0237679974639
 20
249.4880064842837
 30
0.0
 40
2.0
100
AcDbArc
 50
270.0
 51
0.0
  0
ARC
  5
53C
330
1A
100
AcDbEntity
  8
SEIHIN
  6
CONTINUOUS
 62
     3
100
AcDbCircle
 10
359.0237679974639
 20
249.4880064842837
 30
0.0
 40
2.0
100
AcDbArc
 50
270.0
 51
0.0
  0
ARC
  5
53D
330
1A
100
AcDbEntity
  8
SEIHIN
  6
CONTINUOUS
 62
     3
100
AcDbCircle
 10
345.0237679974639
 20
249.4880064842837
 30
0.0
 40
2.0
100
AcDbArc
 50
180.0
 51
270.0
  0
ARC
  5
53E
330
1A
100
AcDbEntity
  8
SEIHIN
  6
CONTINUOUS
 62
     3
100
AcDbCircle
 10
365.0237679974639
 20
249.4880064842837
 30
0.0
 40
2.0
100
AcDbArc
 50
180.0
 51
270.0
  0
ARC
  5
53F
330
1A
100
AcDbEntity
  8
SEIHIN
  6
CONTINUOUS
 62
     3
100
AcDbCircle
 10
345.0237679974639
 20
243.4880064842837
 30
0.0
 40
2.0
100
AcDbArc
 50
90.0
 51
180.0
  0
ARC
  5
540
330
1A
100
AcDbEntity
  8
SEIHIN
  6
CONTINUOUS
 62
     3
100
AcDbCircle
 10
345.0237679974639
 20
229.4880064842836
 30
0.0
 40
2.0
100
AcDbArc
 50
180.0
 51
270.0
  0
ARC
  5
541
330
1A
100
AcDbEntity
  8
SEIHIN
  6
CONTINUOUS
 62
     3
100
AcDbCircle
 10
323.1842536756863
 20
229.2380155367669
 30
0.0
 40
5.000009052503796
100
AcDbArc
 50
205.4079857317259
 51
270.0001641151838
  0
LINE
  5
542
330
1A
100
AcDbEntity
  8
SEIHIN
  6
CONTINUOUS
 62
     3
100
AcDbLine
 10
324.3150679974639
 20
245.4880064842837
 30
0.0
 11
332.0237679974639
 21
245.4880064842837
 31
0.0
  0
LINE
  5
543
330
1A
100
AcDbEntity
  8
SEIHIN
  6
CONTINUOUS
 62
     3
100
AcDbLine
 10
332.0237679974639
 20
227.4880064842836
 30
0.0
 11
325.0237679974639
 21
227.4880064842836
 31
0.0
  0
LINE
  5
544
330
1A
100
AcDbEntity
  8
SEIHIN
  6
CONTINUOUS
 62
     3
100
AcDbLine
 10
313.5018679974638
 20
242.6299064842837
 30
0.0
 11
320.0721679974638
 21
228.7977064842837
 31
0.0
  0
LINE
  5
545
330
1A
100
AcDbEntity
  8
SEIHIN
  6
CONTINUOUS
 62
     3
100
AcDbLine
 10
321.0237679974639
 20
244.1967064842836
 30
0.0
 11
321.0237679974639
 21
229.0122064842837
 31
0.0
  0
LINE
  5
546
330
1A
100
AcDbEntity
  8
SEIHIN
  6
CONTINUOUS
 62
     3
100
AcDbLine
 10
323.0237679974639
 20
244.1967064842836
 30
0.0
 11
323.0237679974639
 21
229.4880064842836
 31
0.0
  0
ARC
  5
547
330
1A
100
AcDbEntity
  8
SEIHIN
  6
CONTINUOUS
 62
     3
100
AcDbCircle
 10
320.5237915935774
 20
229.0122118033435
 30
0.0
 40
0.4999764039148146
100
AcDbArc
 50
205.4060733833314
 51
359.9993904518722
  0
ARC
  5
548
330
1A
100
AcDbEntity
  8
SEIHIN
  6
CONTINUOUS
 62
     3
100
AcDbCircle
 10
325.0237679974639
 20
229.4880064842836
 30
0.0
 40
2.0
100
AcDbArc
 50
180.0
 51
270.0
  0
ARC
  5
549
330
1A
100
AcDbEntity
  8
SEIHIN
  6
CONTINUOUS
 62
     3
100
AcDbCircle
 10
322.0238567203423
 20
246.4879177628249
 30
0.0
 40
2.499965315068053
100
AcDbArc
 50
203.5763068347114
 51
246.4192559316366
  0
ARC
  5
54A
330
1A
100
AcDbEntity
  8
SEIHIN
  6
CONTINUOUS
 62
     3
100
AcDbCircle
 10
315.3084570015542
 20
243.4879890881849
 30
0.0
 40
2.000017396128968
100
AcDbArc
 50
89.99968499313544
 51
205.4064974230272
  0
LINE
  5
54B
330
1A
100
AcDbEntity
  8
SEIHIN
  6
CONTINUOUS
 62
     3
100
AcDbLine
 10
319.7325679974639
 20
245.4880064842837
 30
0.0
 11
315.3084679974638
 21
245.4880064842837
 31
0.0
  0
ARC
  5
54C
330
1A
100
AcDbEntity
  8
SEIHIN
  6
CONTINUOUS
 62
     3
100
AcDbCircle
 10
322.0237679974638
 20
246.4880064842836
 30
0.0
 40
2.500011137975185
100
AcDbArc
 50
293.5780670725835
 51
336.421932927421
  0
LINE
  5
54D
330
1A
100
AcDbEntity
  8
SEIHIN
  6
CONTINUOUS
 62
     3
100
AcDbLine
 10
341.0237679974639
 20
243.4880064842837
 30
0.0
 11
341.0237679974639
 21
229.4880064842836
 31
0.0
  0
LINE
  5
54E
330
1A
100
AcDbEntity
  8
SEIHIN
  6
CONTINUOUS
 62
     3
100
AcDbLine
 10
343.0237679974639
 20
243.4880064842837
 30
0.0
 11
343.0237679974639
 21
229.4880064842836
 31
0.0
  0
LINE
  5
54F
330
1A
100
AcDbEntity
  8
SEIHIN
  6
CONTINUOUS
 62
     3
100
AcDbLine
 10
332.0237679974639
 20
227.4880064842836
 30
0.0
 11
339.0237679974639
 21
227.4880064842836
 31
0.0
  0
ARC
  5
550
330
1A
100
AcDbEntity
  8
SEIHIN
  6
CONTINUOUS
 62
     3
100
AcDbCircle
 10
339.0237679974639
 20
229.4880064842836
 30
0.0
 40
2.0
100
AcDbArc
 50
270.0
 51
0.0
  0
LINE
  5
551
330
1A
100
AcDbEntity
  8
SEIHIN
  6
CONTINUOUS
 62
     3
100
AcDbLine
 10
339.0237679974639
 20
245.4880064842837
 30
0.0
 11
332.0237679974639
 21
245.4880064842837
 31
0.0
  0
ARC
  5
552
330
1A
100
AcDbEntity
  8
SEIHIN
  6
CONTINUOUS
 62
     3
100
AcDbCircle
 10
339.0237679974639
 20
243.4880064842837
 30
0.0
 40
2.0
100
AcDbArc
 50
0.0
 51
90.0
  0
ARC
  5
553
330
1A
100
AcDbEntity
  8
SEIHIN
  6
CONTINUOUS
 62
     3
100
AcDbCircle
 10
359.0237679974639
 20
243.4880064842837
 30
0.0
 40
2.0
100
AcDbArc
 50
0.0
 51
90.0
  0
ARC
  5
554
330
1A
100
AcDbEntity
  8
SEIHIN
  6
CONTINUOUS
 62
     3
100
AcDbCircle
 10
359.0237679974639
 20
229.4880064842836
 30
0.0
 40
2.0
100
AcDbArc
 50
270.0
 51
0.0
  0
LINE
  5
555
330
1A
100
AcDbEntity
  8
SEIHIN
  6
CONTINUOUS
 62
     3
100
AcDbLine
 10
352.0237679974639
 20
227.4880064842836
 30
0.0
 11
345.0237679974639
 21
227.4880064842836
 31
0.0
  0
LINE
  5
556
330
1A
100
AcDbEntity
  8
SEIHIN
  6
CONTINUOUS
 62
     3
100
AcDbLine
 10
352.0237679974639
 20
227.4880064842836
 30
0.0
 11
359.0237679974639
 21
227.4880064842836
 31
0.0
  0
LINE
  5
557
330
1A
100
AcDbEntity
  8
SEIHIN
  6
CONTINUOUS
 62
     3
100
AcDbLine
 10
345.0237679974639
 20
245.4880064842837
 30
0.0
 11
352.0237679974639
 21
245.4880064842837
 31
0.0
  0
LINE
  5
558
330
1A
100
AcDbEntity
  8
SEIHIN
  6
CONTINUOUS
 62
     3
100
AcDbLine
 10
359.0237679974639
 20
245.4880064842837
 30
0.0
 11
352.0237679974639
 21
245.4880064842837
 31
0.0
  0
LINE
  5
559
330
1A
100
AcDbEntity
  8
SEIHIN
  6
CONTINUOUS
 62
     3
100
AcDbLine
 10
361.0237679974639
 20
243.4880064842837
 30
0.0
 11
361.0237679974639
 21
229.4880064842836
 31
0.0
  0
LINE
  5
55A
330
1A
100
AcDbEntity
  8
SEIHIN
  6
CONTINUOUS
 62
     3
100
AcDbLine
 10
363.0237679974639
 20
243.4880064842837
 30
0.0
 11
363.0237679974639
 21
229.4880064842836
 31
0.0
  0
LINE
  5
55B
330
1A
100
AcDbEntity
  8
SEIHIN
  6
CONTINUOUS
 62
     3
100
AcDbLine
 10
372.0237679974639
 20
227.4880064842836
 30
0.0
 11
365.0237679974639
 21
227.4880064842836
 31
0.0
  0
ARC
  5
55C
330
1A
100
AcDbEntity
  8
SEIHIN
  6
CONTINUOUS
 62
     3
100
AcDbCircle
 10
365.0237679974639
 20
229.4880064842836
 30
0.0
 40
2.0
100
AcDbArc
 50
180.0
 51
270.0
  0
LINE
  5
55D
330
1A
100
AcDbEntity
  8
SEIHIN
  6
CONTINUOUS
 62
     3
100
AcDbLine
 10
365.0237679974639
 20
245.4880064842837
 30
0.0
 11
372.0237679974639
 21
245.4880064842837
 31
0.0
  0
ARC
  5
55E
330
1A
100
AcDbEntity
  8
SEIHIN
  6
CONTINUOUS
 62
     3
100
AcDbCircle
 10
365.0237679974639
 20
243.4880064842837
 30
0.0
 40
2.0
100
AcDbArc
 50
90.0
 51
180.0
  0
ARC
  5
55F
330
1A
100
AcDbEntity
  8
SEIHIN
  6
CONTINUOUS
 62
     3
100
AcDbCircle
 10
345.0237679974639
 20
263.4880064842837
 30
0.0
 40
2.0
100
AcDbArc
 50
90.0
 51
180.0
  0
ARC
  5
560
330
1A
100
AcDbEntity
  8
SEIHIN
  6
CONTINUOUS
 62
     3
100
AcDbCircle
 10
345.0237679974639
 20
283.4880064842837
 30
0.0
 40
2.0
100
AcDbArc
 50
90.0
 51
180.0
  0
ARC
  5
561
330
1A
100
AcDbEntity
  8
SEIHIN
  6
CONTINUOUS
 62
     3
100
AcDbCircle
 10
345.0237679974639
 20
269.4880064842837
 30
0.0
 40
2.0
100
AcDbArc
 50
180.0
 51
270.0
  0
ARC
  5
562
330
1A
100
AcDbEntity
  8
SEIHIN
  6
CONTINUOUS
 62
     3
100
AcDbCircle
 10
345.0237679974639
 20
289.4880064842837
 30
0.0
 40
2.0
100
AcDbArc
 50
180.0
 51
270.0
  0
ARC
  5
563
330
1A
100
AcDbEntity
  8
SEIHIN
  6
CONTINUOUS
 62
     3
100
AcDbCircle
 10
319.0237679974639
 20
269.4880064842837
 30
0.0
 40
2.0
100
AcDbArc
 50
270.0
 51
0.0
  0
ARC
  5
564
330
1A
100
AcDbEntity
  8
SEIHIN
  6
CONTINUOUS
 62
     3
100
AcDbCircle
 10
339.0237679974639
 20
269.4880064842837
 30
0.0
 40
2.0
100
AcDbArc
 50
270.0
 51
0.0
  0
ARC
  5
565
330
1A
100
AcDbEntity
  8
SEIHIN
  6
CONTINUOUS
 62
     3
100
AcDbCircle
 10
325.0237679974639
 20
269.4880064842837
 30
0.0
 40
2.0
100
AcDbArc
 50
180.0
 51
270.0
  0
LINE
  5
566
330
1A
100
AcDbEntity
  8
SEIHIN
  6
CONTINUOUS
 62
     3
100
AcDbLine
 10
324.3150679974639
 20
247.4880064842837
 30
0.0
 11
332.0237679974639
 21
247.4880064842837
 31
0.0
  0
LINE
  5
567
330
1A
100
AcDbEntity
  8
SEIHIN
  6
CONTINUOUS
 62
     3
100
AcDbLine
 10
332.0237679974639
 20
265.4880064842837
 30
0.0
 11
325.0237679974639
 21
265.4880064842837
 31
0.0
  0
LINE
  5
568
330
1A
100
AcDbEntity
  8
SEIHIN
  6
CONTINUOUS
 62
     3
100
AcDbLine
 10
332.0237679974639
 20
267.4880064842837
 30
0.0
 11
325.0237679974639
 21
267.4880064842837
 31
0.0
  0
LINE
  5
569
330
1A
100
AcDbEntity
  8
SEIHIN
  6
CONTINUOUS
 62
     3
100
AcDbLine
 10
321.0237679974639
 20
248.7793064842837
 30
0.0
 11
321.0237679974639
 21
263.4880064842837
 31
0.0
  0
LINE
  5
56A
330
1A
100
AcDbEntity
  8
SEIHIN
  6
CONTINUOUS
 62
     3
100
AcDbLine
 10
323.0237679974639
 20
248.7793064842837
 30
0.0
 11
323.0237679974639
 21
263.4880064842837
 31
0.0
  0
ARC
  5
56B
330
1A
100
AcDbEntity
  8
SEIHIN
  6
CONTINUOUS
 62
     3
100
AcDbCircle
 10
322.0238567203421
 20
246.4880952057424
 30
0.0
 40
2.499965315067999
100
AcDbArc
 50
113.5807440683621
 51
156.4236931652873
  0
ARC
  5
56C
330
1A
100
AcDbEntity
  8
SEIHIN
  6
CONTINUOUS
 62
     3
100
AcDbCircle
 10
322.0237679974639
 20
246.4880064842837
 30
0.0
 40
2.50001113797513
100
AcDbArc
 50
23.57806707258015
 51
66.4219329274177
  0
ARC
  5
56D
330
1A
100
AcDbEntity
  8
SEIHIN
  6
CONTINUOUS
 62
     3
100
AcDbCircle
 10
319.0237679974639
 20
263.4880064842837
 30
0.0
 40
2.0
100
AcDbArc
 50
0.0
 51
90.0
  0
ARC
  5
56E
330
1A
100
AcDbEntity
  8
SEIHIN
  6
CONTINUOUS
 62
     3
100
AcDbCircle
 10
325.0237679974639
 20
263.4880064842837
 30
0.0
 40
2.0
100
AcDbArc
 50
90.0
 51
180.0
  0
LINE
  5
56F
330
1A
100
AcDbEntity
  8
SEIHIN
  6
CONTINUOUS
 62
     3
100
AcDbLine
 10
341.0237679974639
 20
249.4880064842837
 30
0.0
 11
341.0237679974639
 21
263.4880064842837
 31
0.0
  0
LINE
  5
570
330
1A
100
AcDbEntity
  8
SEIHIN
  6
CONTINUOUS
 62
     3
100
AcDbLine
 10
343.0237679974639
 20
249.4880064842837
 30
0.0
 11
343.0237679974639
 21
263.4880064842837
 31
0.0
  0
LINE
  5
571
330
1A
100
AcDbEntity
  8
SEIHIN
  6
CONTINUOUS
 62
     3
100
AcDbLine
 10
339.0237679974639
 20
247.4880064842837
 30
0.0
 11
332.0237679974639
 21
247.4880064842837
 31
0.0
  0
LINE
  5
572
330
1A
100
AcDbEntity
  8
SEIHIN
  6
CONTINUOUS
 62
     3
100
AcDbLine
 10
332.0237679974639
 20
265.4880064842837
 30
0.0
 11
339.0237679974639
 21
265.4880064842837
 31
0.0
  0
LINE
  5
573
330
1A
100
AcDbEntity
  8
SEIHIN
  6
CONTINUOUS
 62
     3
100
AcDbLine
 10
332.0237679974639
 20
267.4880064842837
 30
0.0
 11
339.0237679974639
 21
267.4880064842837
 31
0.0
  0
ARC
  5
574
330
1A
100
AcDbEntity
  8
SEIHIN
  6
CONTINUOUS
 62
     3
100
AcDbCircle
 10
339.0237679974639
 20
263.4880064842837
 30
0.0
 40
2.0
100
AcDbArc
 50
0.0
 51
90.0
  0
LINE
  5
575
330
1A
100
AcDbEntity
  8
SEIHIN
  6
CONTINUOUS
 62
     3
100
AcDbLine
 10
324.3150679974639
 20
285.4880064842837
 30
0.0
 11
332.0237679974639
 21
285.4880064842837
 31
0.0
  0
LINE
  5
576
330
1A
100
AcDbEntity
  8
SEIHIN
  6
CONTINUOUS
 62
     3
100
AcDbLine
 10
324.3150679974639
 20
287.4880064842837
 30
0.0
 11
332.0237679974639
 21
287.4880064842837
 31
0.0
  0
LINE
  5
577
330
1A
100
AcDbEntity
  8
SEIHIN
  6
CONTINUOUS
 62
     3
100
AcDbLine
 10
321.0237679974639
 20
284.1967064842836
 30
0.0
 11
321.0237679974639
 21
269.4880064842837
 31
0.0
  0
LINE
  5
578
330
1A
100
AcDbEntity
  8
SEIHIN
  6
CONTINUOUS
 62
     3
100
AcDbLine
 10
323.0237679974639
 20
284.1967064842836
 30
0.0
 11
323.0237679974639
 21
269.4880064842837
 31
0.0
  0
ARC
  5
579
330
1A
100
AcDbEntity
  8
SEIHIN
  6
CONTINUOUS
 62
     3
100
AcDbCircle
 10
322.0238567203423
 20
286.4879177628249
 30
0.0
 40
2.49996531506807
100
AcDbArc
 50
203.5763068347105
 51
246.419255931636
  0
ARC
  5
57A
330
1A
100
AcDbEntity
  8
SEIHIN
  6
CONTINUOUS
 62
     3
100
AcDbCircle
 10
322.0238567203421
 20
286.4880952057424
 30
0.0
 40
2.499965315067985
100
AcDbArc
 50
113.5807440683615
 51
156.4236931652865
  0
ARC
  5
57B
330
1A
100
AcDbEntity
  8
SEIHIN
  6
CONTINUOUS
 62
     3
100
AcDbCircle
 10
322.0237679974638
 20
286.4880064842836
 30
0.0
 40
2.500011137975199
100
AcDbArc
 50
293.578067072584
 51
336.4219329274218
  0
ARC
  5
57C
330
1A
100
AcDbEntity
  8
SEIHIN
  6
CONTINUOUS
 62
     3
100
AcDbCircle
 10
322.0237679974639
 20
286.4880064842838
 30
0.0
 40
2.500011137975127
100
AcDbArc
 50
23.57806707258079
 51
66.42193292741797
  0
LINE
  5
57D
330
1A
100
AcDbEntity
  8
SEIHIN
  6
CONTINUOUS
 62
     3
100
AcDbLine
 10
341.0237679974639
 20
283.4880064842837
 30
0.0
 11
341.0237679974639
 21
269.4880064842837
 31
0.0
  0
LINE
  5
57E
330
1A
100
AcDbEntity
  8
SEIHIN
  6
CONTINUOUS
 62
     3
100
AcDbLine
 10
343.0237679974639
 20
283.4880064842837
 30
0.0
 11
343.0237679974639
 21
269.4880064842837
 31
0.0
  0
LINE
  5
57F
330
1A
100
AcDbEntity
  8
SEIHIN
  6
CONTINUOUS
 62
     3
100
AcDbLine
 10
339.0237679974639
 20
285.4880064842837
 30
0.0
 11
332.0237679974639
 21
285.4880064842837
 31
0.0
  0
LINE
  5
580
330
1A
100
AcDbEntity
  8
SEIHIN
  6
CONTINUOUS
 62
     3
100
AcDbLine
 10
339.0237679974639
 20
287.4880064842837
 30
0.0
 11
332.0237679974639
 21
287.4880064842837
 31
0.0
  0
ARC
  5
581
330
1A
100
AcDbEntity
  8
SEIHIN
  6
CONTINUOUS
 62
     3
100
AcDbCircle
 10
339.0237679974639
 20
283.4880064842837
 30
0.0
 40
2.0
100
AcDbArc
 50
0.0
 51
90.0
  0
ARC
  5
582
330
1A
100
AcDbEntity
  8
SEIHIN
  6
CONTINUOUS
 62
     3
100
AcDbCircle
 10
339.0237679974639
 20
289.4880064842837
 30
0.0
 40
2.0
100
AcDbArc
 50
270.0
 51
0.0
  0
ARC
  5
583
330
1A
100
AcDbEntity
  8
SEIHIN
  6
CONTINUOUS
 62
     3
100
AcDbCircle
 10
359.0237679974639
 20
269.4880064842837
 30
0.0
 40
2.0
100
AcDbArc
 50
270.0
 51
0.0
  0
ARC
  5
584
330
1A
100
AcDbEntity
  8
SEIHIN
  6
CONTINUOUS
 62
     3
100
AcDbCircle
 10
365.0237679974639
 20
269.4880064842837
 30
0.0
 40
2.0
100
AcDbArc
 50
180.0
 51
270.0
  0
ARC
  5
585
330
1A
100
AcDbEntity
  8
SEIHIN
  6
CONTINUOUS
 62
     3
100
AcDbCircle
 10
359.0237679974639
 20
263.4880064842837
 30
0.0
 40
2.0
100
AcDbArc
 50
0.0
 51
90.0
  0
LINE
  5
586
330
1A
100
AcDbEntity
  8
SEIHIN
  6
CONTINUOUS
 62
     3
100
AcDbLine
 10
345.0237679974639
 20
247.4880064842837
 30
0.0
 11
352.0237679974639
 21
247.4880064842837
 31
0.0
  0
LINE
  5
587
330
1A
100
AcDbEntity
  8
SEIHIN
  6
CONTINUOUS
 62
     3
100
AcDbLine
 10
359.0237679974639
 20
247.4880064842837
 30
0.0
 11
352.0237679974639
 21
247.4880064842837
 31
0.0
  0
LINE
  5
588
330
1A
100
AcDbEntity
  8
SEIHIN
  6
CONTINUOUS
 62
     3
100
AcDbLine
 10
352.0237679974639
 20
265.4880064842837
 30
0.0
 11
345.0237679974639
 21
265.4880064842837
 31
0.0
  0
LINE
  5
589
330
1A
100
AcDbEntity
  8
SEIHIN
  6
CONTINUOUS
 62
     3
100
AcDbLine
 10
352.0237679974639
 20
267.4880064842837
 30
0.0
 11
345.0237679974639
 21
267.4880064842837
 31
0.0
  0
LINE
  5
58A
330
1A
100
AcDbEntity
  8
SEIHIN
  6
CONTINUOUS
 62
     3
100
AcDbLine
 10
352.0237679974639
 20
265.4880064842837
 30
0.0
 11
359.0237679974639
 21
265.4880064842837
 31
0.0
  0
LINE
  5
58B
330
1A
100
AcDbEntity
  8
SEIHIN
  6
CONTINUOUS
 62
     3
100
AcDbLine
 10
352.0237679974639
 20
267.4880064842837
 30
0.0
 11
359.0237679974639
 21
267.4880064842837
 31
0.0
  0
LINE
  5
58C
330
1A
100
AcDbEntity
  8
SEIHIN
  6
CONTINUOUS
 62
     3
100
AcDbLine
 10
361.0237679974639
 20
249.4880064842837
 30
0.0
 11
361.0237679974639
 21
263.4880064842837
 31
0.0
  0
LINE
  5
58D
330
1A
100
AcDbEntity
  8
SEIHIN
  6
CONTINUOUS
 62
     3
100
AcDbLine
 10
363.0237679974639
 20
249.4880064842837
 30
0.0
 11
363.0237679974639
 21
263.4880064842837
 31
0.0
  0
LINE
  5
58E
330
1A
100
AcDbEntity
  8
SEIHIN
  6
CONTINUOUS
 62
     3
100
AcDbLine
 10
365.0237679974639
 20
247.4880064842837
 30
0.0
 11
372.0237679974639
 21
247.4880064842837
 31
0.0
  0
LINE
  5
58F
330
1A
100
AcDbEntity
  8
SEIHIN
  6
CONTINUOUS
 62
     3
100
AcDbLine
 10
372.0237679974639
 20
265.4880064842837
 30
0.0
 11
365.0237679974639
 21
265.4880064842837
 31
0.0
  0
LINE
  5
590
330
1A
100
AcDbEntity
  8
SEIHIN
  6
CONTINUOUS
 62
     3
100
AcDbLine
 10
372.0237679974639
 20
267.4880064842837
 30
0.0
 11
365.0237679974639
 21
267.4880064842837
 31
0.0
  0
ARC
  5
591
330
1A
100
AcDbEntity
  8
SEIHIN
  6
CONTINUOUS
 62
     3
100
AcDbCircle
 10
365.0237679974639
 20
263.4880064842837
 30
0.0
 40
2.0
100
AcDbArc
 50
90.0
 51
180.0
  0
ARC
  5
592
330
1A
100
AcDbEntity
  8
SEIHIN
  6
CONTINUOUS
 62
     3
100
AcDbCircle
 10
359.0237679974639
 20
283.4880064842837
 30
0.0
 40
2.0
100
AcDbArc
 50
0.0
 51
90.0
  0
ARC
  5
593
330
1A
100
AcDbEntity
  8
SEIHIN
  6
CONTINUOUS
 62
     3
100
AcDbCircle
 10
359.0237679974639
 20
289.4880064842837
 30
0.0
 40
2.0
100
AcDbArc
 50
270.0
 51
0.0
  0
LINE
  5
594
330
1A
100
AcDbEntity
  8
SEIHIN
  6
CONTINUOUS
 62
     3
100
AcDbLine
 10
345.0237679974639
 20
285.4880064842837
 30
0.0
 11
352.0237679974639
 21
285.4880064842837
 31
0.0
  0
LINE
  5
595
330
1A
100
AcDbEntity
  8
SEIHIN
  6
CONTINUOUS
 62
     3
100
AcDbLine
 10
345.0237679974639
 20
287.4880064842837
 30
0.0
 11
352.0237679974639
 21
287.4880064842837
 31
0.0
  0
LINE
  5
596
330
1A
100
AcDbEntity
  8
SEIHIN
  6
CONTINUOUS
 62
     3
100
AcDbLine
 10
359.0237679974639
 20
285.4880064842837
 30
0.0
 11
352.0237679974639
 21
285.4880064842837
 31
0.0
  0
LINE
  5
597
330
1A
100
AcDbEntity
  8
SEIHIN
  6
CONTINUOUS
 62
     3
100
AcDbLine
 10
359.0237679974639
 20
287.4880064842837
 30
0.0
 11
352.0237679974639
 21
287.4880064842837
 31
0.0
  0
LINE
  5
598
330
1A
100
AcDbEntity
  8
SEIHIN
  6
CONTINUOUS
 62
     3
100
AcDbLine
 10
361.0237679974639
 20
283.4880064842837
 30
0.0
 11
361.0237679974639
 21
269.4880064842837
 31
0.0
  0
LINE
  5
599
330
1A
100
AcDbEntity
  8
SEIHIN
  6
CONTINUOUS
 62
     3
100
AcDbLine
 10
363.0237679974639
 20
283.4880064842837
 30
0.0
 11
363.0237679974639
 21
269.4880064842837
 31
0.0
  0
LINE
  5
59A
330
1A
100
AcDbEntity
  8
SEIHIN
  6
CONTINUOUS
 62
     3
100
AcDbLine
 10
365.0237679974639
 20
285.4880064842837
 30
0.0
 11
372.0237679974639
 21
285.4880064842837
 31
0.0
  0
LINE
  5
59B
330
1A
100
AcDbEntity
  8
SEIHIN
  6
CONTINUOUS
 62
     3
100
AcDbLine
 10
365.0237679974639
 20
287.4880064842837
 30
0.0
 11
372.0237679974639
 21
287.4880064842837
 31
0.0
  0
ARC
  5
59C
330
1A
100
AcDbEntity
  8
SEIHIN
  6
CONTINUOUS
 62
     3
100
AcDbCircle
 10
365.0237679974639
 20
283.4880064842837
 30
0.0
 40
2.0
100
AcDbArc
 50
90.0
 51
180.0
  0
ARC
  5
59D
330
1A
100
AcDbEntity
  8
SEIHIN
  6
CONTINUOUS
 62
     3
100
AcDbCircle
 10
365.0237679974639
 20
289.4880064842837
 30
0.0
 40
2.0
100
AcDbArc
 50
180.0
 51
270.0
  0
LINE
  5
59F
330
1A
100
AcDbEntity
  8
SEIHIN
  6
CONTINUOUS
 62
     3
100
AcDbLine
 10
321.0237679974639
 20
368.7793064842837
 30
0.0
 11
321.0237679974639
 21
383.4880064842837
 31
0.0
  0
LINE
  5
5A0
330
1A
100
AcDbEntity
  8
SEIHIN
  6
CONTINUOUS
 62
     3
100
AcDbLine
 10
323.0237679974639
 20
368.7793064842837
 30
0.0
 11
323.0237679974639
 21
383.4880064842837
 31
0.0
  0
LINE
  5
5A1
330
1A
100
AcDbEntity
  8
SEIHIN
  6
CONTINUOUS
 62
     3
100
AcDbLine
 10
303.0237679974639
 20
369.4880064842837
 30
0.0
 11
303.0237679974639
 21
383.4880064842837
 31
0.0
  0
LINE
  5
5A2
330
1A
100
AcDbEntity
  8
SEIHIN
  6
CONTINUOUS
 62
     3
100
AcDbLine
 10
341.0237679974639
 20
369.4880064842837
 30
0.0
 11
341.0237679974639
 21
383.4880064842837
 31
0.0
  0
LINE
  5
5A3
330
1A
100
AcDbEntity
  8
SEIHIN
  6
CONTINUOUS
 62
     3
100
AcDbLine
 10
361.0237679974639
 20
369.4880064842837
 30
0.0
 11
361.0237679974639
 21
383.4880064842837
 31
0.0
  0
LINE
  5
5A4
330
1A
100
AcDbEntity
  8
SEIHIN
  6
CONTINUOUS
 62
     3
100
AcDbLine
 10
343.0237679974639
 20
369.4880064842837
 30
0.0
 11
343.0237679974639
 21
383.4880064842837
 31
0.0
  0
LINE
  5
5A5
330
1A
100
AcDbEntity
  8
SEIHIN
  6
CONTINUOUS
 62
     3
100
AcDbLine
 10
363.0237679974639
 20
369.4880064842837
 30
0.0
 11
363.0237679974639
 21
383.4880064842837
 31
0.0
  0
LINE
  5
5A6
330
1A
100
AcDbEntity
  8
SEIHIN
  6
CONTINUOUS
 62
     3
100
AcDbLine
 10
312.0237679974639
 20
305.4880064842837
 30
0.0
 11
319.0237679974639
 21
305.4880064842837
 31
0.0
  0
LINE
  5
5A7
330
1A
100
AcDbEntity
  8
SEIHIN
  6
CONTINUOUS
 62
     3
100
AcDbLine
 10
319.7325679974639
 20
325.4880064842837
 30
0.0
 11
312.0237679974639
 21
325.4880064842837
 31
0.0
  0
LINE
  5
5A8
330
1A
100
AcDbEntity
  8
SEIHIN
  6
CONTINUOUS
 62
     3
100
AcDbLine
 10
312.0237679974639
 20
307.4880064842837
 30
0.0
 11
319.0237679974639
 21
307.4880064842837
 31
0.0
  0
LINE
  5
5A9
330
1A
100
AcDbEntity
  8
SEIHIN
  6
CONTINUOUS
 62
     3
100
AcDbLine
 10
319.7325679974639
 20
327.4880064842837
 30
0.0
 11
312.0237679974639
 21
327.4880064842837
 31
0.0
  0
LINE
  5
5AA
330
1A
100
AcDbEntity
  8
SEIHIN
  6
CONTINUOUS
 62
     3
100
AcDbLine
 10
312.0237679974639
 20
345.4880064842837
 30
0.0
 11
319.0237679974639
 21
345.4880064842837
 31
0.0
  0
LINE
  5
5AB
330
1A
100
AcDbEntity
  8
SEIHIN
  6
CONTINUOUS
 62
     3
100
AcDbLine
 10
319.7325679974639
 20
365.4880064842837
 30
0.0
 11
312.0237679974639
 21
365.4880064842837
 31
0.0
  0
LINE
  5
5AC
330
1A
100
AcDbEntity
  8
SEIHIN
  6
CONTINUOUS
 62
     3
100
AcDbLine
 10
312.0237679974639
 20
347.4880064842837
 30
0.0
 11
319.0237679974639
 21
347.4880064842837
 31
0.0
  0
LINE
  5
5AD
330
1A
100
AcDbEntity
  8
SEIHIN
  6
CONTINUOUS
 62
     3
100
AcDbLine
 10
319.7325679974639
 20
367.4880064842837
 30
0.0
 11
312.0237679974639
 21
367.4880064842837
 31
0.0
  0
LINE
  5
5AE
330
1A
100
AcDbEntity
  8
SEIHIN
  6
CONTINUOUS
 62
     3
100
AcDbLine
 10
303.0237679974639
 20
329.4880064842837
 30
0.0
 11
303.0237679974639
 21
343.4880064842837
 31
0.0
  0
LINE
  5
5AF
330
1A
100
AcDbEntity
  8
SEIHIN
  6
CONTINUOUS
 62
     3
100
AcDbLine
 10
303.0237679974639
 20
323.4880064842837
 30
0.0
 11
303.0237679974639
 21
309.4880064842837
 31
0.0
  0
ARC
  5
5B0
330
1A
100
AcDbEntity
  8
SEIHIN
  6
CONTINUOUS
 62
     3
100
AcDbCircle
 10
305.0237679974639
 20
303.4880064842837
 30
0.0
 40
2.0
100
AcDbArc
 50
90.0
 51
180.0
  0
ARC
  5
5B1
330
1A
100
AcDbEntity
  8
SEIHIN
  6
CONTINUOUS
 62
     3
100
AcDbCircle
 10
305.0237679974639
 20
309.4880064842837
 30
0.0
 40
2.0
100
AcDbArc
 50
180.0
 51
270.0
  0
LINE
  5
5B2
330
1A
100
AcDbEntity
  8
SEIHIN
  6
CONTINUOUS
 62
     3
100
AcDbLine
 10
312.0237679974639
 20
305.4880064842837
 30
0.0
 11
305.0237679974639
 21
305.4880064842837
 31
0.0
  0
LINE
  5
5B3
330
1A
100
AcDbEntity
  8
SEIHIN
  6
CONTINUOUS
 62
     3
100
AcDbLine
 10
312.0237679974639
 20
307.4880064842837
 30
0.0
 11
305.0237679974639
 21
307.4880064842837
 31
0.0
  0
ARC
  5
5B4
330
1A
100
AcDbEntity
  8
SEIHIN
  6
CONTINUOUS
 62
     3
100
AcDbCircle
 10
305.0237679974639
 20
323.4880064842837
 30
0.0
 40
2.0
100
AcDbArc
 50
90.0
 51
180.0
  0
ARC
  5
5B5
330
1A
100
AcDbEntity
  8
SEIHIN
  6
CONTINUOUS
 62
     3
100
AcDbCircle
 10
305.0237679974639
 20
329.4880064842837
 30
0.0
 40
2.0
100
AcDbArc
 50
180.0
 51
270.0
  0
LINE
  5
5B6
330
1A
100
AcDbEntity
  8
SEIHIN
  6
CONTINUOUS
 62
     3
100
AcDbLine
 10
305.0237679974639
 20
325.4880064842837
 30
0.0
 11
312.0237679974639
 21
325.4880064842837
 31
0.0
  0
LINE
  5
5B7
330
1A
100
AcDbEntity
  8
SEIHIN
  6
CONTINUOUS
 62
     3
100
AcDbLine
 10
305.0237679974639
 20
327.4880064842837
 30
0.0
 11
312.0237679974639
 21
327.4880064842837
 31
0.0
  0
LINE
  5
5B8
330
1A
100
AcDbEntity
  8
SEIHIN
  6
CONTINUOUS
 62
     3
100
AcDbLine
 10
303.0237679974639
 20
363.4880064842837
 30
0.0
 11
303.0237679974639
 21
349.4880064842837
 31
0.0
  0
ARC
  5
5B9
330
1A
100
AcDbEntity
  8
SEIHIN
  6
CONTINUOUS
 62
     3
100
AcDbCircle
 10
305.0237679974639
 20
343.4880064842837
 30
0.0
 40
2.0
100
AcDbArc
 50
90.0
 51
180.0
  0
LINE
  5
5BA
330
1A
100
AcDbEntity
  8
SEIHIN
  6
CONTINUOUS
 62
     3
100
AcDbLine
 10
312.0237679974639
 20
345.4880064842837
 30
0.0
 11
305.0237679974639
 21
345.4880064842837
 31
0.0
  0
ARC
  5
5BB
330
1A
100
AcDbEntity
  8
SEIHIN
  6
CONTINUOUS
 62
     3
100
AcDbCircle
 10
305.0237679974639
 20
349.4880064842837
 30
0.0
 40
2.0
100
AcDbArc
 50
180.0
 51
270.0
  0
LINE
  5
5BC
330
1A
100
AcDbEntity
  8
SEIHIN
  6
CONTINUOUS
 62
     3
100
AcDbLine
 10
312.0237679974639
 20
347.4880064842837
 30
0.0
 11
305.0237679974639
 21
347.4880064842837
 31
0.0
  0
ARC
  5
5BD
330
1A
100
AcDbEntity
  8
SEIHIN
  6
CONTINUOUS
 62
     3
100
AcDbCircle
 10
305.0237679974639
 20
369.4880064842837
 30
0.0
 40
2.0
100
AcDbArc
 50
180.0
 51
270.0
  0
ARC
  5
5BE
330
1A
100
AcDbEntity
  8
SEIHIN
  6
CONTINUOUS
 62
     3
100
AcDbCircle
 10
305.0237679974639
 20
363.4880064842837
 30
0.0
 40
2.0
100
AcDbArc
 50
90.0
 51
180.0
  0
LINE
  5
5BF
330
1A
100
AcDbEntity
  8
SEIHIN
  6
CONTINUOUS
 62
     3
100
AcDbLine
 10
305.0237679974639
 20
365.4880064842837
 30
0.0
 11
312.0237679974639
 21
365.4880064842837
 31
0.0
  0
LINE
  5
5C0
330
1A
100
AcDbEntity
  8
SEIHIN
  6
CONTINUOUS
 62
     3
100
AcDbLine
 10
305.0237679974639
 20
367.4880064842837
 30
0.0
 11
312.0237679974639
 21
367.4880064842837
 31
0.0
  0
LINE
  5
5C1
330
1A
100
AcDbEntity
  8
SEIHIN
  6
CONTINUOUS
 62
     3
100
AcDbLine
 10
321.0237679974639
 20
328.7793064842837
 30
0.0
 11
321.0237679974639
 21
343.4880064842837
 31
0.0
  0
LINE
  5
5C2
330
1A
100
AcDbEntity
  8
SEIHIN
  6
CONTINUOUS
 62
     3
100
AcDbLine
 10
323.0237679974639
 20
328.7793064842837
 30
0.0
 11
323.0237679974639
 21
343.4880064842837
 31
0.0
  0
LINE
  5
5C3
330
1A
100
AcDbEntity
  8
SEIHIN
  6
CONTINUOUS
 62
     3
100
AcDbLine
 10
341.0237679974639
 20
329.4880064842837
 30
0.0
 11
341.0237679974639
 21
343.4880064842837
 31
0.0
  0
LINE
  5
5C4
330
1A
100
AcDbEntity
  8
SEIHIN
  6
CONTINUOUS
 62
     3
100
AcDbLine
 10
361.0237679974639
 20
329.4880064842837
 30
0.0
 11
361.0237679974639
 21
343.4880064842837
 31
0.0
  0
LINE
  5
5C5
330
1A
100
AcDbEntity
  8
SEIHIN
  6
CONTINUOUS
 62
     3
100
AcDbLine
 10
343.0237679974639
 20
329.4880064842837
 30
0.0
 11
343.0237679974639
 21
343.4880064842837
 31
0.0
  0
LINE
  5
5C6
330
1A
100
AcDbEntity
  8
SEIHIN
  6
CONTINUOUS
 62
     3
100
AcDbLine
 10
363.0237679974639
 20
329.4880064842837
 30
0.0
 11
363.0237679974639
 21
343.4880064842837
 31
0.0
  0
ARC
  5
5C7
330
1A
100
AcDbEntity
  8
SEIHIN
  6
CONTINUOUS
 62
     3
100
AcDbCircle
 10
345.0237679974639
 20
303.4880064842837
 30
0.0
 40
2.0
100
AcDbArc
 50
90.0
 51
180.0
  0
ARC
  5
5C8
330
1A
100
AcDbEntity
  8
SEIHIN
  6
CONTINUOUS
 62
     3
100
AcDbCircle
 10
345.0237679974639
 20
323.4880064842837
 30
0.0
 40
2.0
100
AcDbArc
 50
90.0
 51
180.0
  0
ARC
  5
5C9
330
1A
100
AcDbEntity
  8
SEIHIN
  6
CONTINUOUS
 62
     3
100
AcDbCircle
 10
345.0237679974639
 20
309.4880064842837
 30
0.0
 40
2.0
100
AcDbArc
 50
180.0
 51
270.0
  0
ARC
  5
5CA
330
1A
100
AcDbEntity
  8
SEIHIN
  6
CONTINUOUS
 62
     3
100
AcDbCircle
 10
345.0237679974639
 20
329.4880064842837
 30
0.0
 40
2.0
100
AcDbArc
 50
180.0
 51
270.0
  0
LINE
  5
5CB
330
1A
100
AcDbEntity
  8
SEIHIN
  6
CONTINUOUS
 62
     3
100
AcDbLine
 10
321.0237679974639
 20
324.1967064842837
 30
0.0
 11
321.0237679974639
 21
309.4880064842837
 31
0.0
  0
LINE
  5
5CC
330
1A
100
AcDbEntity
  8
SEIHIN
  6
CONTINUOUS
 62
     3
100
AcDbLine
 10
323.0237679974639
 20
324.1967064842837
 30
0.0
 11
323.0237679974639
 21
309.4880064842837
 31
0.0
  0
LINE
  5
5CD
330
1A
100
AcDbEntity
  8
SEIHIN
  6
CONTINUOUS
 62
     3
100
AcDbLine
 10
341.0237679974639
 20
323.4880064842837
 30
0.0
 11
341.0237679974639
 21
309.4880064842837
 31
0.0
  0
LINE
  5
5CE
330
1A
100
AcDbEntity
  8
SEIHIN
  6
CONTINUOUS
 62
     3
100
AcDbLine
 10
343.0237679974639
 20
323.4880064842837
 30
0.0
 11
343.0237679974639
 21
309.4880064842837
 31
0.0
  0
LINE
  5
5CF
330
1A
100
AcDbEntity
  8
SEIHIN
  6
CONTINUOUS
 62
     3
100
AcDbLine
 10
332.0237679974639
 20
305.4880064842837
 30
0.0
 11
325.0237679974639
 21
305.4880064842837
 31
0.0
  0
LINE
  5
5D0
330
1A
100
AcDbEntity
  8
SEIHIN
  6
CONTINUOUS
 62
     3
100
AcDbLine
 10
332.0237679974639
 20
307.4880064842837
 30
0.0
 11
325.0237679974639
 21
307.4880064842837
 31
0.0
  0
ARC
  5
5D1
330
1A
100
AcDbEntity
  8
SEIHIN
  6
CONTINUOUS
 62
     3
100
AcDbCircle
 10
319.0237679974639
 20
303.4880064842837
 30
0.0
 40
2.0
100
AcDbArc
 50
0.0
 51
90.0
  0
ARC
  5
5D2
330
1A
100
AcDbEntity
  8
SEIHIN
  6
CONTINUOUS
 62
     3
100
AcDbCircle
 10
319.0237679974639
 20
309.4880064842837
 30
0.0
 40
2.0
100
AcDbArc
 50
270.0
 51
0.0
  0
ARC
  5
5D3
330
1A
100
AcDbEntity
  8
SEIHIN
  6
CONTINUOUS
 62
     3
100
AcDbCircle
 10
325.0237679974639
 20
303.4880064842837
 30
0.0
 40
2.0
100
AcDbArc
 50
90.0
 51
180.0
  0
ARC
  5
5D4
330
1A
100
AcDbEntity
  8
SEIHIN
  6
CONTINUOUS
 62
     3
100
AcDbCircle
 10
325.0237679974639
 20
309.4880064842837
 30
0.0
 40
2.0
100
AcDbArc
 50
180.0
 51
270.0
  0
LINE
  5
5D5
330
1A
100
AcDbEntity
  8
SEIHIN
  6
CONTINUOUS
 62
     3
100
AcDbLine
 10
332.0237679974639
 20
305.4880064842837
 30
0.0
 11
339.0237679974639
 21
305.4880064842837
 31
0.0
  0
LINE
  5
5D6
330
1A
100
AcDbEntity
  8
SEIHIN
  6
CONTINUOUS
 62
     3
100
AcDbLine
 10
332.0237679974639
 20
307.4880064842837
 30
0.0
 11
339.0237679974639
 21
307.4880064842837
 31
0.0
  0
ARC
  5
5D7
330
1A
100
AcDbEntity
  8
SEIHIN
  6
CONTINUOUS
 62
     3
100
AcDbCircle
 10
339.0237679974639
 20
303.4880064842837
 30
0.0
 40
2.0
100
AcDbArc
 50
0.0
 51
90.0
  0
ARC
  5
5D8
330
1A
100
AcDbEntity
  8
SEIHIN
  6
CONTINUOUS
 62
     3
100
AcDbCircle
 10
339.0237679974639
 20
309.4880064842837
 30
0.0
 40
2.0
100
AcDbArc
 50
270.0
 51
0.0
  0
LINE
  5
5D9
330
1A
100
AcDbEntity
  8
SEIHIN
  6
CONTINUOUS
 62
     3
100
AcDbLine
 10
324.3150679974639
 20
325.4880064842837
 30
0.0
 11
332.0237679974639
 21
325.4880064842837
 31
0.0
  0
LINE
  5
5DA
330
1A
100
AcDbEntity
  8
SEIHIN
  6
CONTINUOUS
 62
     3
100
AcDbLine
 10
324.3150679974639
 20
327.4880064842837
 30
0.0
 11
332.0237679974639
 21
327.4880064842837
 31
0.0
  0
ARC
  5
5DB
330
1A
100
AcDbEntity
  8
SEIHIN
  6
CONTINUOUS
 62
     3
100
AcDbCircle
 10
322.0238567203421
 20
326.487917762825
 30
0.0
 40
2.499965315068003
100
AcDbArc
 50
203.576306834712
 51
246.4192559316376
  0
ARC
  5
5DC
330
1A
100
AcDbEntity
  8
SEIHIN
  6
CONTINUOUS
 62
     3
100
AcDbCircle
 10
322.0237679974639
 20
326.4880064842837
 30
0.0
 40
2.500011137975148
100
AcDbArc
 50
293.5780670725828
 51
336.4219329274205
  0
ARC
  5
5DD
330
1A
100
AcDbEntity
  8
SEIHIN
  6
CONTINUOUS
 62
     3
100
AcDbCircle
 10
322.0238567203421
 20
326.4880952057424
 30
0.0
 40
2.499965315067978
100
AcDbArc
 50
113.5807440683616
 51
156.4236931652867
  0
ARC
  5
5DE
330
1A
100
AcDbEntity
  8
SEIHIN
  6
CONTINUOUS
 62
     3
100
AcDbCircle
 10
322.0237679974639
 20
326.4880064842837
 30
0.0
 40
2.500011137975131
100
AcDbArc
 50
23.57806707258102
 51
66.42193292741807
  0
ARC
  5
5DF
330
1A
100
AcDbEntity
  8
SEIHIN
  6
CONTINUOUS
 62
     3
100
AcDbCircle
 10
339.0237679974639
 20
323.4880064842837
 30
0.0
 40
2.0
100
AcDbArc
 50
0.0
 51
90.0
  0
LINE
  5
5E0
330
1A
100
AcDbEntity
  8
SEIHIN
  6
CONTINUOUS
 62
     3
100
AcDbLine
 10
339.0237679974639
 20
325.4880064842837
 30
0.0
 11
332.0237679974639
 21
325.4880064842837
 31
0.0
  0
LINE
  5
5E1
330
1A
100
AcDbEntity
  8
SEIHIN
  6
CONTINUOUS
 62
     3
100
AcDbLine
 10
339.0237679974639
 20
327.4880064842837
 30
0.0
 11
332.0237679974639
 21
327.4880064842837
 31
0.0
  0
ARC
  5
5E2
330
1A
100
AcDbEntity
  8
SEIHIN
  6
CONTINUOUS
 62
     3
100
AcDbCircle
 10
339.0237679974639
 20
329.4880064842837
 30
0.0
 40
2.0
100
AcDbArc
 50
270.0
 51
0.0
  0
LINE
  5
5E3
330
1A
100
AcDbEntity
  8
SEIHIN
  6
CONTINUOUS
 62
     3
100
AcDbLine
 10
361.0237679974639
 20
323.4880064842837
 30
0.0
 11
361.0237679974639
 21
309.4880064842837
 31
0.0
  0
LINE
  5
5E4
330
1A
100
AcDbEntity
  8
SEIHIN
  6
CONTINUOUS
 62
     3
100
AcDbLine
 10
363.0237679974639
 20
323.4880064842837
 30
0.0
 11
363.0237679974639
 21
309.4880064842837
 31
0.0
  0
ARC
  5
5E5
330
1A
100
AcDbEntity
  8
SEIHIN
  6
CONTINUOUS
 62
     3
100
AcDbCircle
 10
359.0237679974639
 20
303.4880064842837
 30
0.0
 40
2.0
100
AcDbArc
 50
0.0
 51
90.0
  0
ARC
  5
5E6
330
1A
100
AcDbEntity
  8
SEIHIN
  6
CONTINUOUS
 62
     3
100
AcDbCircle
 10
359.0237679974639
 20
309.4880064842837
 30
0.0
 40
2.0
100
AcDbArc
 50
270.0
 51
0.0
  0
LINE
  5
5E7
330
1A
100
AcDbEntity
  8
SEIHIN
  6
CONTINUOUS
 62
     3
100
AcDbLine
 10
352.0237679974639
 20
305.4880064842837
 30
0.0
 11
345.0237679974639
 21
305.4880064842837
 31
0.0
  0
LINE
  5
5E8
330
1A
100
AcDbEntity
  8
SEIHIN
  6
CONTINUOUS
 62
     3
100
AcDbLine
 10
352.0237679974639
 20
307.4880064842837
 30
0.0
 11
345.0237679974639
 21
307.4880064842837
 31
0.0
  0
LINE
  5
5E9
330
1A
100
AcDbEntity
  8
SEIHIN
  6
CONTINUOUS
 62
     3
100
AcDbLine
 10
352.0237679974639
 20
305.4880064842837
 30
0.0
 11
359.0237679974639
 21
305.4880064842837
 31
0.0
  0
LINE
  5
5EA
330
1A
100
AcDbEntity
  8
SEIHIN
  6
CONTINUOUS
 62
     3
100
AcDbLine
 10
352.0237679974639
 20
307.4880064842837
 30
0.0
 11
359.0237679974639
 21
307.4880064842837
 31
0.0
  0
LINE
  5
5EB
330
1A
100
AcDbEntity
  8
SEIHIN
  6
CONTINUOUS
 62
     3
100
AcDbLine
 10
372.0237679974639
 20
305.4880064842837
 30
0.0
 11
365.0237679974639
 21
305.4880064842837
 31
0.0
  0
LINE
  5
5EC
330
1A
100
AcDbEntity
  8
SEIHIN
  6
CONTINUOUS
 62
     3
100
AcDbLine
 10
372.0237679974639
 20
307.4880064842837
 30
0.0
 11
365.0237679974639
 21
307.4880064842837
 31
0.0
  0
ARC
  5
5ED
330
1A
100
AcDbEntity
  8
SEIHIN
  6
CONTINUOUS
 62
     3
100
AcDbCircle
 10
365.0237679974639
 20
303.4880064842837
 30
0.0
 40
2.0
100
AcDbArc
 50
90.0
 51
180.0
  0
ARC
  5
5EE
330
1A
100
AcDbEntity
  8
SEIHIN
  6
CONTINUOUS
 62
     3
100
AcDbCircle
 10
365.0237679974639
 20
309.4880064842837
 30
0.0
 40
2.0
100
AcDbArc
 50
180.0
 51
270.0
  0
ARC
  5
5EF
330
1A
100
AcDbEntity
  8
SEIHIN
  6
CONTINUOUS
 62
     3
100
AcDbCircle
 10
359.0237679974639
 20
323.4880064842837
 30
0.0
 40
2.0
100
AcDbArc
 50
0.0
 51
90.0
  0
ARC
  5
5F0
330
1A
100
AcDbEntity
  8
SEIHIN
  6
CONTINUOUS
 62
     3
100
AcDbCircle
 10
359.0237679974639
 20
329.4880064842837
 30
0.0
 40
2.0
100
AcDbArc
 50
270.0
 51
0.0
  0
LINE
  5
5F1
330
1A
100
AcDbEntity
  8
SEIHIN
  6
CONTINUOUS
 62
     3
100
AcDbLine
 10
345.0237679974639
 20
325.4880064842837
 30
0.0
 11
352.0237679974639
 21
325.4880064842837
 31
0.0
  0
LINE
  5
5F2
330
1A
100
AcDbEntity
  8
SEIHIN
  6
CONTINUOUS
 62
     3
100
AcDbLine
 10
345.0237679974639
 20
327.4880064842837
 30
0.0
 11
352.0237679974639
 21
327.4880064842837
 31
0.0
  0
LINE
  5
5F3
330
1A
100
AcDbEntity
  8
SEIHIN
  6
CONTINUOUS
 62
     3
100
AcDbLine
 10
359.0237679974639
 20
325.4880064842837
 30
0.0
 11
352.0237679974639
 21
325.4880064842837
 31
0.0
  0
LINE
  5
5F4
330
1A
100
AcDbEntity
  8
SEIHIN
  6
CONTINUOUS
 62
     3
100
AcDbLine
 10
359.0237679974639
 20
327.4880064842837
 30
0.0
 11
352.0237679974639
 21
327.4880064842837
 31
0.0
  0
ARC
  5
5F5
330
1A
100
AcDbEntity
  8
SEIHIN
  6
CONTINUOUS
 62
     3
100
AcDbCircle
 10
365.0237679974639
 20
323.4880064842837
 30
0.0
 40
2.0
100
AcDbArc
 50
90.0
 51
180.0
  0
LINE
  5
5F6
330
1A
100
AcDbEntity
  8
SEIHIN
  6
CONTINUOUS
 62
     3
100
AcDbLine
 10
365.0237679974639
 20
325.4880064842837
 30
0.0
 11
372.0237679974639
 21
325.4880064842837
 31
0.0
  0
LINE
  5
5F7
330
1A
100
AcDbEntity
  8
SEIHIN
  6
CONTINUOUS
 62
     3
100
AcDbLine
 10
365.0237679974639
 20
327.4880064842837
 30
0.0
 11
372.0237679974639
 21
327.4880064842837
 31
0.0
  0
ARC
  5
5F8
330
1A
100
AcDbEntity
  8
SEIHIN
  6
CONTINUOUS
 62
     3
100
AcDbCircle
 10
365.0237679974639
 20
329.4880064842837
 30
0.0
 40
2.0
100
AcDbArc
 50
180.0
 51
270.0
  0
ARC
  5
5F9
330
1A
100
AcDbEntity
  8
SEIHIN
  6
CONTINUOUS
 62
     3
100
AcDbCircle
 10
345.0237679974639
 20
343.4880064842837
 30
0.0
 40
2.0
100
AcDbArc
 50
90.0
 51
180.0
  0
ARC
  5
5FA
330
1A
100
AcDbEntity
  8
SEIHIN
  6
CONTINUOUS
 62
     3
100
AcDbCircle
 10
345.0237679974639
 20
363.4880064842837
 30
0.0
 40
2.0
100
AcDbArc
 50
90.0
 51
180.0
  0
ARC
  5
5FB
330
1A
100
AcDbEntity
  8
SEIHIN
  6
CONTINUOUS
 62
     3
100
AcDbCircle
 10
345.0237679974639
 20
349.4880064842837
 30
0.0
 40
2.0
100
AcDbArc
 50
180.0
 51
270.0
  0
ARC
  5
5FC
330
1A
100
AcDbEntity
  8
SEIHIN
  6
CONTINUOUS
 62
     3
100
AcDbCircle
 10
345.0237679974639
 20
369.4880064842837
 30
0.0
 40
2.0
100
AcDbArc
 50
180.0
 51
270.0
  0
LINE
  5
5FD
330
1A
100
AcDbEntity
  8
SEIHIN
  6
CONTINUOUS
 62
     3
100
AcDbLine
 10
321.0237679974639
 20
364.1967064842837
 30
0.0
 11
321.0237679974639
 21
349.4880064842837
 31
0.0
  0
LINE
  5
5FE
330
1A
100
AcDbEntity
  8
SEIHIN
  6
CONTINUOUS
 62
     3
100
AcDbLine
 10
323.0237679974639
 20
364.1967064842837
 30
0.0
 11
323.0237679974639
 21
349.4880064842837
 31
0.0
  0
LINE
  5
5FF
330
1A
100
AcDbEntity
  8
SEIHIN
  6
CONTINUOUS
 62
     3
100
AcDbLine
 10
341.0237679974639
 20
363.4880064842837
 30
0.0
 11
341.0237679974639
 21
349.4880064842837
 31
0.0
  0
LINE
  5
600
330
1A
100
AcDbEntity
  8
SEIHIN
  6
CONTINUOUS
 62
     3
100
AcDbLine
 10
343.0237679974639
 20
363.4880064842837
 30
0.0
 11
343.0237679974639
 21
349.4880064842837
 31
0.0
  0
LINE
  5
601
330
1A
100
AcDbEntity
  8
SEIHIN
  6
CONTINUOUS
 62
     3
100
AcDbLine
 10
332.0237679974639
 20
345.4880064842837
 30
0.0
 11
325.0237679974639
 21
345.4880064842837
 31
0.0
  0
LINE
  5
602
330
1A
100
AcDbEntity
  8
SEIHIN
  6
CONTINUOUS
 62
     3
100
AcDbLine
 10
332.0237679974639
 20
347.4880064842837
 30
0.0
 11
325.0237679974639
 21
347.4880064842837
 31
0.0
  0
ARC
  5
603
330
1A
100
AcDbEntity
  8
SEIHIN
  6
CONTINUOUS
 62
     3
100
AcDbCircle
 10
319.0237679974639
 20
343.4880064842837
 30
0.0
 40
2.0
100
AcDbArc
 50
0.0
 51
90.0
  0
ARC
  5
604
330
1A
100
AcDbEntity
  8
SEIHIN
  6
CONTINUOUS
 62
     3
100
AcDbCircle
 10
325.0237679974639
 20
343.4880064842837
 30
0.0
 40
2.0
100
AcDbArc
 50
90.0
 51
180.0
  0
ARC
  5
605
330
1A
100
AcDbEntity
  8
SEIHIN
  6
CONTINUOUS
 62
     3
100
AcDbCircle
 10
319.0237679974639
 20
349.4880064842837
 30
0.0
 40
2.0
100
AcDbArc
 50
270.0
 51
0.0
  0
ARC
  5
606
330
1A
100
AcDbEntity
  8
SEIHIN
  6
CONTINUOUS
 62
     3
100
AcDbCircle
 10
325.0237679974639
 20
349.4880064842837
 30
0.0
 40
2.0
100
AcDbArc
 50
180.0
 51
270.0
  0
LINE
  5
607
330
1A
100
AcDbEntity
  8
SEIHIN
  6
CONTINUOUS
 62
     3
100
AcDbLine
 10
332.0237679974639
 20
345.4880064842837
 30
0.0
 11
339.0237679974639
 21
345.4880064842837
 31
0.0
  0
ARC
  5
608
330
1A
100
AcDbEntity
  8
SEIHIN
  6
CONTINUOUS
 62
     3
100
AcDbCircle
 10
339.0237679974639
 20
343.4880064842837
 30
0.0
 40
2.0
100
AcDbArc
 50
0.0
 51
90.0
  0
LINE
  5
609
330
1A
100
AcDbEntity
  8
SEIHIN
  6
CONTINUOUS
 62
     3
100
AcDbLine
 10
332.0237679974639
 20
347.4880064842837
 30
0.0
 11
339.0237679974639
 21
347.4880064842837
 31
0.0
  0
ARC
  5
60A
330
1A
100
AcDbEntity
  8
SEIHIN
  6
CONTINUOUS
 62
     3
100
AcDbCircle
 10
339.0237679974639
 20
349.4880064842837
 30
0.0
 40
2.0
100
AcDbArc
 50
270.0
 51
0.0
  0
LINE
  5
60B
330
1A
100
AcDbEntity
  8
SEIHIN
  6
CONTINUOUS
 62
     3
100
AcDbLine
 10
324.3150679974639
 20
365.4880064842837
 30
0.0
 11
332.0237679974639
 21
365.4880064842837
 31
0.0
  0
LINE
  5
60C
330
1A
100
AcDbEntity
  8
SEIHIN
  6
CONTINUOUS
 62
     3
100
AcDbLine
 10
324.3150679974639
 20
367.4880064842837
 30
0.0
 11
332.0237679974639
 21
367.4880064842837
 31
0.0
  0
ARC
  5
60D
330
1A
100
AcDbEntity
  8
SEIHIN
  6
CONTINUOUS
 62
     3
100
AcDbCircle
 10
322.0238567203421
 20
366.4880952057424
 30
0.0
 40
2.499965315067978
100
AcDbArc
 50
113.5807440683616
 51
156.4236931652867
  0
ARC
  5
60E
330
1A
100
AcDbEntity
  8
SEIHIN
  6
CONTINUOUS
 62
     3
100
AcDbCircle
 10
322.0237679974639
 20
366.4880064842837
 30
0.0
 40
2.500011137975131
100
AcDbArc
 50
23.57806707258102
 51
66.42193292741807
  0
ARC
  5
60F
330
1A
100
AcDbEntity
  8
SEIHIN
  6
CONTINUOUS
 62
     3
100
AcDbCircle
 10
322.0238567203421
 20
366.487917762825
 30
0.0
 40
2.499965315068003
100
AcDbArc
 50
203.576306834712
 51
246.4192559316376
  0
ARC
  5
610
330
1A
100
AcDbEntity
  8
SEIHIN
  6
CONTINUOUS
 62
     3
100
AcDbCircle
 10
322.0237679974639
 20
366.4880064842837
 30
0.0
 40
2.500011137975148
100
AcDbArc
 50
293.5780670725828
 51
336.4219329274205
  0
ARC
  5
611
330
1A
100
AcDbEntity
  8
SEIHIN
  6
CONTINUOUS
 62
     3
100
AcDbCircle
 10
339.0237679974639
 20
369.4880064842837
 30
0.0
 40
2.0
100
AcDbArc
 50
270.0
 51
0.0
  0
LINE
  5
612
330
1A
100
AcDbEntity
  8
SEIHIN
  6
CONTINUOUS
 62
     3
100
AcDbLine
 10
339.0237679974639
 20
365.4880064842837
 30
0.0
 11
332.0237679974639
 21
365.4880064842837
 31
0.0
  0
LINE
  5
613
330
1A
100
AcDbEntity
  8
SEIHIN
  6
CONTINUOUS
 62
     3
100
AcDbLine
 10
339.0237679974639
 20
367.4880064842837
 30
0.0
 11
332.0237679974639
 21
367.4880064842837
 31
0.0
  0
ARC
  5
614
330
1A
100
AcDbEntity
  8
SEIHIN
  6
CONTINUOUS
 62
     3
100
AcDbCircle
 10
339.0237679974639
 20
363.4880064842837
 30
0.0
 40
2.0
100
AcDbArc
 50
0.0
 51
90.0
  0
LINE
  5
615
330
1A
100
AcDbEntity
  8
SEIHIN
  6
CONTINUOUS
 62
     3
100
AcDbLine
 10
361.0237679974639
 20
363.4880064842837
 30
0.0
 11
361.0237679974639
 21
349.4880064842837
 31
0.0
  0
LINE
  5
616
330
1A
100
AcDbEntity
  8
SEIHIN
  6
CONTINUOUS
 62
     3
100
AcDbLine
 10
363.0237679974639
 20
363.4880064842837
 30
0.0
 11
363.0237679974639
 21
349.4880064842837
 31
0.0
  0
ARC
  5
617
330
1A
100
AcDbEntity
  8
SEIHIN
  6
CONTINUOUS
 62
     3
100
AcDbCircle
 10
359.0237679974639
 20
343.4880064842837
 30
0.0
 40
2.0
100
AcDbArc
 50
0.0
 51
90.0
  0
ARC
  5
618
330
1A
100
AcDbEntity
  8
SEIHIN
  6
CONTINUOUS
 62
     3
100
AcDbCircle
 10
359.0237679974639
 20
349.4880064842837
 30
0.0
 40
2.0
100
AcDbArc
 50
270.0
 51
0.0
  0
LINE
  5
619
330
1A
100
AcDbEntity
  8
SEIHIN
  6
CONTINUOUS
 62
     3
100
AcDbLine
 10
352.0237679974639
 20
345.4880064842837
 30
0.0
 11
345.0237679974639
 21
345.4880064842837
 31
0.0
  0
LINE
  5
61A
330
1A
100
AcDbEntity
  8
SEIHIN
  6
CONTINUOUS
 62
     3
100
AcDbLine
 10
352.0237679974639
 20
345.4880064842837
 30
0.0
 11
359.0237679974639
 21
345.4880064842837
 31
0.0
  0
LINE
  5
61B
330
1A
100
AcDbEntity
  8
SEIHIN
  6
CONTINUOUS
 62
     3
100
AcDbLine
 10
352.0237679974639
 20
347.4880064842837
 30
0.0
 11
345.0237679974639
 21
347.4880064842837
 31
0.0
  0
LINE
  5
61C
330
1A
100
AcDbEntity
  8
SEIHIN
  6
CONTINUOUS
 62
     3
100
AcDbLine
 10
352.0237679974639
 20
347.4880064842837
 30
0.0
 11
359.0237679974639
 21
347.4880064842837
 31
0.0
  0
LINE
  5
61D
330
1A
100
AcDbEntity
  8
SEIHIN
  6
CONTINUOUS
 62
     3
100
AcDbLine
 10
372.0237679974639
 20
345.4880064842837
 30
0.0
 11
365.0237679974639
 21
345.4880064842837
 31
0.0
  0
ARC
  5
61E
330
1A
100
AcDbEntity
  8
SEIHIN
  6
CONTINUOUS
 62
     3
100
AcDbCircle
 10
365.0237679974639
 20
343.4880064842837
 30
0.0
 40
2.0
100
AcDbArc
 50
90.0
 51
180.0
  0
LINE
  5
61F
330
1A
100
AcDbEntity
  8
SEIHIN
  6
CONTINUOUS
 62
     3
100
AcDbLine
 10
372.0237679974639
 20
347.4880064842837
 30
0.0
 11
365.0237679974639
 21
347.4880064842837
 31
0.0
  0
ARC
  5
620
330
1A
100
AcDbEntity
  8
SEIHIN
  6
CONTINUOUS
 62
     3
100
AcDbCircle
 10
365.0237679974639
 20
349.4880064842837
 30
0.0
 40
2.0
100
AcDbArc
 50
180.0
 51
270.0
  0
ARC
  5
621
330
1A
100
AcDbEntity
  8
SEIHIN
  6
CONTINUOUS
 62
     3
100
AcDbCircle
 10
359.0237679974639
 20
363.4880064842837
 30
0.0
 40
2.0
100
AcDbArc
 50
0.0
 51
90.0
  0
ARC
  5
622
330
1A
100
AcDbEntity
  8
SEIHIN
  6
CONTINUOUS
 62
     3
100
AcDbCircle
 10
359.0237679974639
 20
369.4880064842837
 30
0.0
 40
2.0
100
AcDbArc
 50
270.0
 51
0.0
  0
LINE
  5
623
330
1A
100
AcDbEntity
  8
SEIHIN
  6
CONTINUOUS
 62
     3
100
AcDbLine
 10
345.0237679974639
 20
365.4880064842837
 30
0.0
 11
352.0237679974639
 21
365.4880064842837
 31
0.0
  0
LINE
  5
624
330
1A
100
AcDbEntity
  8
SEIHIN
  6
CONTINUOUS
 62
     3
100
AcDbLine
 10
345.0237679974639
 20
367.4880064842837
 30
0.0
 11
352.0237679974639
 21
367.4880064842837
 31
0.0
  0
LINE
  5
625
330
1A
100
AcDbEntity
  8
SEIHIN
  6
CONTINUOUS
 62
     3
100
AcDbLine
 10
359.0237679974639
 20
365.4880064842837
 30
0.0
 11
352.0237679974639
 21
365.4880064842837
 31
0.0
  0
LINE
  5
626
330
1A
100
AcDbEntity
  8
SEIHIN
  6
CONTINUOUS
 62
     3
100
AcDbLine
 10
359.0237679974639
 20
367.4880064842837
 30
0.0
 11
352.0237679974639
 21
367.4880064842837
 31
0.0
  0
ARC
  5
627
330
1A
100
AcDbEntity
  8
SEIHIN
  6
CONTINUOUS
 62
     3
100
AcDbCircle
 10
365.0237679974639
 20
369.4880064842837
 30
0.0
 40
2.0
100
AcDbArc
 50
180.0
 51
270.0
  0
LINE
  5
628
330
1A
100
AcDbEntity
  8
SEIHIN
  6
CONTINUOUS
 62
     3
100
AcDbLine
 10
365.0237679974639
 20
365.4880064842837
 30
0.0
 11
372.0237679974639
 21
365.4880064842837
 31
0.0
  0
LINE
  5
629
330
1A
100
AcDbEntity
  8
SEIHIN
  6
CONTINUOUS
 62
     3
100
AcDbLine
 10
365.0237679974639
 20
367.4880064842837
 30
0.0
 11
372.0237679974639
 21
367.4880064842837
 31
0.0
  0
ARC
  5
62A
330
1A
100
AcDbEntity
  8
SEIHIN
  6
CONTINUOUS
 62
     3
100
AcDbCircle
 10
365.0237679974639
 20
363.4880064842837
 30
0.0
 40
2.0
100
AcDbArc
 50
90.0
 51
180.0
  0
LINE
  5
62B
330
1A
100
AcDbEntity
  8
SEIHIN
  6
CONTINUOUS
 62
     3
100
AcDbLine
 10
312.0237679974639
 20
385.4880064842837
 30
0.0
 11
319.0237679974639
 21
385.4880064842837
 31
0.0
  0
ARC
  5
630
330
1A
100
AcDbEntity
  8
SEIHIN
  6
CONTINUOUS
 62
     3
100
AcDbCircle
 10
306.0237679974639
 20
383.7380064842837
 30
0.0
 40
5.0
100
AcDbArc
 50
90.0
 51
180.0
  0
ARC
  5
631
330
1A
100
AcDbEntity
  8
SEIHIN
  6
CONTINUOUS
 62
     3
100
AcDbCircle
 10
305.0237679974639
 20
383.4880064842837
 30
0.0
 40
2.0
100
AcDbArc
 50
90.0
 51
180.0
  0
LINE
  5
632
330
1A
100
AcDbEntity
  8
SEIHIN
  6
CONTINUOUS
 62
     3
100
AcDbLine
 10
312.0237679974639
 20
385.4880064842837
 30
0.0
 11
305.0237679974639
 21
385.4880064842837
 31
0.0
  0
ARC
  5
635
330
1A
100
AcDbEntity
  8
SEIHIN
  6
CONTINUOUS
 62
     3
100
AcDbCircle
 10
345.0237679974639
 20
383.4880064842837
 30
0.0
 40
2.0
100
AcDbArc
 50
90.0
 51
180.0
  0
LINE
  5
636
330
1A
100
AcDbEntity
  8
SEIHIN
  6
CONTINUOUS
 62
     3
100
AcDbLine
 10
332.0237679974639
 20
385.4880064842837
 30
0.0
 11
325.0237679974639
 21
385.4880064842837
 31
0.0
  0
ARC
  5
637
330
1A
100
AcDbEntity
  8
SEIHIN
  6
CONTINUOUS
 62
     3
100
AcDbCircle
 10
319.0237679974639
 20
383.4880064842837
 30
0.0
 40
2.0
100
AcDbArc
 50
0.0
 51
90.0
  0
ARC
  5
638
330
1A
100
AcDbEntity
  8
SEIHIN
  6
CONTINUOUS
 62
     3
100
AcDbCircle
 10
325.0237679974639
 20
383.4880064842837
 30
0.0
 40
2.0
100
AcDbArc
 50
90.0
 51
180.0
  0
LINE
  5
639
330
1A
100
AcDbEntity
  8
SEIHIN
  6
CONTINUOUS
 62
     3
100
AcDbLine
 10
332.0237679974639
 20
385.4880064842837
 30
0.0
 11
339.0237679974639
 21
385.4880064842837
 31
0.0
  0
ARC
  5
63A
330
1A
100
AcDbEntity
  8
SEIHIN
  6
CONTINUOUS
 62
     3
100
AcDbCircle
 10
339.0237679974639
 20
383.4880064842837
 30
0.0
 40
2.0
100
AcDbArc
 50
0.0
 51
90.0
  0
ARC
  5
63B
330
1A
100
AcDbEntity
  8
SEIHIN
  6
CONTINUOUS
 62
     3
100
AcDbCircle
 10
359.0237679974639
 20
383.4880064842837
 30
0.0
 40
2.0
100
AcDbArc
 50
0.0
 51
90.0
  0
LINE
  5
63C
330
1A
100
AcDbEntity
  8
SEIHIN
  6
CONTINUOUS
 62
     3
100
AcDbLine
 10
352.0237679974639
 20
385.4880064842837
 30
0.0
 11
345.0237679974639
 21
385.4880064842837
 31
0.0
  0
LINE
  5
63D
330
1A
100
AcDbEntity
  8
SEIHIN
  6
CONTINUOUS
 62
     3
100
AcDbLine
 10
352.0237679974639
 20
385.4880064842837
 30
0.0
 11
359.0237679974639
 21
385.4880064842837
 31
0.0
  0
LINE
  5
63E
330
1A
100
AcDbEntity
  8
SEIHIN
  6
CONTINUOUS
 62
     3
100
AcDbLine
 10
372.0237679974639
 20
385.4880064842837
 30
0.0
 11
365.0237679974639
 21
385.4880064842837
 31
0.0
  0
ARC
  5
63F
330
1A
100
AcDbEntity
  8
SEIHIN
  6
CONTINUOUS
 62
     3
100
AcDbCircle
 10
365.0237679974639
 20
383.4880064842837
 30
0.0
 40
2.0
100
AcDbArc
 50
90.0
 51
180.0
  0
LINE
  5
640
330
1A
100
AcDbEntity
  8
SEIHIN
  6
CONTINUOUS
 62
     3
100
AcDbLine
 10
381.0237679974639
 20
288.7793064842837
 30
0.0
 11
381.0237679974639
 21
303.4880064842837
 31
0.0
  0
LINE
  5
641
330
1A
100
AcDbEntity
  8
SEIHIN
  6
CONTINUOUS
 62
     3
100
AcDbLine
 10
383.0237679974639
 20
288.7793064842837
 30
0.0
 11
383.0237679974639
 21
303.4880064842837
 31
0.0
  0
LINE
  5
642
330
1A
100
AcDbEntity
  8
SEIHIN
  6
CONTINUOUS
 62
     3
100
AcDbLine
 10
401.0237679974639
 20
289.4880064842837
 30
0.0
 11
401.0237679974639
 21
303.4880064842837
 31
0.0
  0
LINE
  5
643
330
1A
100
AcDbEntity
  8
SEIHIN
  6
CONTINUOUS
 62
     3
100
AcDbLine
 10
403.0237679974639
 20
289.4880064842837
 30
0.0
 11
403.0237679974639
 21
303.4880064842837
 31
0.0
  0
LINE
  5
644
330
1A
100
AcDbEntity
  8
SEIHIN
  6
CONTINUOUS
 62
     3
100
AcDbLine
 10
523.0237679974639
 20
383.7380064842837
 30
0.0
 11
523.0237679974639
 21
265.3651064842837
 31
0.0
  0
LINE
  5
645
330
1A
100
AcDbEntity
  8
SEIHIN
  6
CONTINUOUS
 62
     3
100
AcDbLine
 10
503.0237679974638
 20
288.7793064842837
 30
0.0
 11
503.0237679974638
 21
303.4880064842837
 31
0.0
  0
LINE
  5
646
330
1A
100
AcDbEntity
  8
SEIHIN
  6
CONTINUOUS
 62
     3
100
AcDbLine
 10
501.0237679974639
 20
288.7793064842837
 30
0.0
 11
501.0237679974639
 21
303.4880064842837
 31
0.0
  0
LINE
  5
647
330
1A
100
AcDbEntity
  8
SEIHIN
  6
CONTINUOUS
 62
     3
100
AcDbLine
 10
443.0237679974639
 20
288.7793064842837
 30
0.0
 11
443.0237679974639
 21
303.4880064842837
 31
0.0
  0
LINE
  5
648
330
1A
100
AcDbEntity
  8
SEIHIN
  6
CONTINUOUS
 62
     3
100
AcDbLine
 10
441.0237679974639
 20
288.7793064842837
 30
0.0
 11
441.0237679974639
 21
303.4880064842837
 31
0.0
  0
LINE
  5
649
330
1A
100
AcDbEntity
  8
SEIHIN
  6
CONTINUOUS
 62
     3
100
AcDbLine
 10
521.0237679974638
 20
289.4880064842837
 30
0.0
 11
521.0237679974638
 21
303.4880064842837
 31
0.0
  0
LINE
  5
64A
330
1A
100
AcDbEntity
  8
SEIHIN
  6
CONTINUOUS
 62
     3
100
AcDbLine
 10
483.0237679974638
 20
289.4880064842837
 30
0.0
 11
483.0237679974638
 21
303.4880064842837
 31
0.0
  0
LINE
  5
64B
330
1A
100
AcDbEntity
  8
SEIHIN
  6
CONTINUOUS
 62
     3
100
AcDbLine
 10
463.0237679974637
 20
289.4880064842837
 30
0.0
 11
463.0237679974637
 21
303.4880064842837
 31
0.0
  0
LINE
  5
64C
330
1A
100
AcDbEntity
  8
SEIHIN
  6
CONTINUOUS
 62
     3
100
AcDbLine
 10
481.0237679974639
 20
289.4880064842837
 30
0.0
 11
481.0237679974639
 21
303.4880064842837
 31
0.0
  0
LINE
  5
64D
330
1A
100
AcDbEntity
  8
SEIHIN
  6
CONTINUOUS
 62
     3
100
AcDbLine
 10
461.0237679974639
 20
289.4880064842837
 30
0.0
 11
461.0237679974639
 21
303.4880064842837
 31
0.0
  0
LINE
  5
64E
330
1A
100
AcDbEntity
  8
SEIHIN
  6
CONTINUOUS
 62
     3
100
AcDbLine
 10
423.0237679974639
 20
289.4880064842837
 30
0.0
 11
423.0237679974639
 21
303.4880064842837
 31
0.0
  0
LINE
  5
64F
330
1A
100
AcDbEntity
  8
SEIHIN
  6
CONTINUOUS
 62
     3
100
AcDbLine
 10
421.0237679974637
 20
289.4880064842837
 30
0.0
 11
421.0237679974637
 21
303.4880064842837
 31
0.0
  0
LINE
  5
650
330
1A
100
AcDbEntity
  8
CENTER_L
  6
CENTER
 62
     1
 48
5.0
100
AcDbLine
 10
412.0237679974639
 20
399.5314064842835
 30
0.0
 11
412.0237679974639
 21
214.6893064842836
 31
0.0
  0
ARC
  5
653
330
1A
100
AcDbEntity
  8
SEIHIN
  6
CONTINUOUS
 62
     3
100
AcDbCircle
 10
502.0238567203423
 20
246.4879177628249
 30
0.0
 40
2.499965315068053
100
AcDbArc
 50
203.5763068347114
 51
246.4192559316366
  0
ARC
  5
654
330
1A
100
AcDbEntity
  8
SEIHIN
  6
CONTINUOUS
 62
     3
100
AcDbCircle
 10
499.0237679974638
 20
229.4880064842836
 30
0.0
 40
2.0
100
AcDbArc
 50
270.0
 51
0.0
  0
ARC
  5
655
330
1A
100
AcDbEntity
  8
SEIHIN
  6
CONTINUOUS
 62
     3
100
AcDbCircle
 10
502.0238567203421
 20
246.4880952057424
 30
0.0
 40
2.499965315067993
100
AcDbArc
 50
113.5807440683618
 51
156.4236931652872
  0
ARC
  5
656
330
1A
100
AcDbEntity
  8
SEIHIN
  6
CONTINUOUS
 62
     3
100
AcDbCircle
 10
499.0237679974638
 20
263.4880064842837
 30
0.0
 40
2.0
100
AcDbArc
 50
0.0
 51
90.0
  0
ARC
  5
657
330
1A
100
AcDbEntity
  8
SEIHIN
  6
CONTINUOUS
 62
     3
100
AcDbCircle
 10
502.0238567203423
 20
286.4879177628249
 30
0.0
 40
2.49996531506807
100
AcDbArc
 50
203.5763068347105
 51
246.419255931636
  0
ARC
  5
658
330
1A
100
AcDbEntity
  8
SEIHIN
  6
CONTINUOUS
 62
     3
100
AcDbCircle
 10
499.0237679974638
 20
269.4880064842837
 30
0.0
 40
2.0
100
AcDbArc
 50
270.0
 51
0.0
  0
ARC
  5
659
330
1A
100
AcDbEntity
  8
SEIHIN
  6
CONTINUOUS
 62
     3
100
AcDbCircle
 10
502.0238567203421
 20
286.4880952057424
 30
0.0
 40
2.49996531506799
100
AcDbArc
 50
113.5807440683618
 51
156.4236931652866
  0
LINE
  5
65A
330
1A
100
AcDbEntity
  8
SEIHIN
  6
CONTINUOUS
 62
     3
100
AcDbLine
 10
412.0237679974639
 20
224.2380064842837
 30
0.0
 11
500.8633679974638
 21
224.2380064842837
 31
0.0
  0
LINE
  5
65B
330
1A
100
AcDbEntity
  8
SEIHIN
  6
CONTINUOUS
 62
     3
100
AcDbLine
 10
412.0237679974639
 20
139.3698064842837
 30
0.0
 11
523.0236679974638
 21
139.3698064842837
 31
0.0
  0
LINE
  5
65C
330
1A
100
AcDbEntity
  8
SEIHIN
  6
CONTINUOUS
 62
     3
100
AcDbLine
 10
412.0237679974639
 20
126.3698064842837
 30
0.0
 11
523.0236679974638
 21
126.3698064842837
 31
0.0
  0
LINE
  5
65D
330
1A
100
AcDbEntity
  8
CENTER_L
  6
CENTER
 62
     1
 48
5.0
100
AcDbLine
 10
412.0237679974639
 20
148.2220064842837
 30
0.0
 11
412.0237679974639
 21
118.8668064842837
 31
0.0
  0
LINE
  5
65F
330
1A
100
AcDbEntity
  8
SEIHIN
  6
CONTINUOUS
 62
     3
100
AcDbLine
 10
439.7325679974639
 20
245.4880064842837
 30
0.0
 11
432.0237679974639
 21
245.4880064842837
 31
0.0
  0
LINE
  5
660
330
1A
100
AcDbEntity
  8
SEIHIN
  6
CONTINUOUS
 62
     3
100
AcDbLine
 10
432.0237679974639
 20
227.4880064842836
 30
0.0
 11
439.0237679974639
 21
227.4880064842836
 31
0.0
  0
LINE
  5
661
330
1A
100
AcDbEntity
  8
SEIHIN
  6
CONTINUOUS
 62
     3
100
AcDbLine
 10
439.7325679974639
 20
247.4880064842837
 30
0.0
 11
432.0237679974639
 21
247.4880064842837
 31
0.0
  0
LINE
  5
662
330
1A
100
AcDbEntity
  8
SEIHIN
  6
CONTINUOUS
 62
     3
100
AcDbLine
 10
432.0237679974639
 20
265.4880064842837
 30
0.0
 11
439.0237679974639
 21
265.4880064842837
 31
0.0
  0
LINE
  5
663
330
1A
100
AcDbEntity
  8
SEIHIN
  6
CONTINUOUS
 62
     3
100
AcDbLine
 10
439.7325679974639
 20
285.4880064842837
 30
0.0
 11
432.0237679974639
 21
285.4880064842837
 31
0.0
  0
LINE
  5
664
330
1A
100
AcDbEntity
  8
SEIHIN
  6
CONTINUOUS
 62
     3
100
AcDbLine
 10
432.0237679974639
 20
267.4880064842837
 30
0.0
 11
439.0237679974639
 21
267.4880064842837
 31
0.0
  0
LINE
  5
665
330
1A
100
AcDbEntity
  8
SEIHIN
  6
CONTINUOUS
 62
     3
100
AcDbLine
 10
439.7325679974639
 20
287.4880064842837
 30
0.0
 11
432.0237679974639
 21
287.4880064842837
 31
0.0
  0
ARC
  5
666
330
1A
100
AcDbEntity
  8
SEIHIN
  6
CONTINUOUS
 62
     3
100
AcDbCircle
 10
399.0237679974639
 20
249.4880064842837
 30
0.0
 40
2.0
100
AcDbArc
 50
270.0
 51
0.0
  0
ARC
  5
667
330
1A
100
AcDbEntity
  8
SEIHIN
  6
CONTINUOUS
 62
     3
100
AcDbCircle
 10
405.0237679974639
 20
249.4880064842837
 30
0.0
 40
2.0
100
AcDbArc
 50
180.0
 51
270.0
  0
ARC
  5
668
330
1A
100
AcDbEntity
  8
SEIHIN
  6
CONTINUOUS
 62
     3
100
AcDbCircle
 10
425.0237679974639
 20
249.4880064842837
 30
0.0
 40
2.0
100
AcDbArc
 50
180.0
 51
270.0
  0
ARC
  5
669
330
1A
100
AcDbEntity
  8
SEIHIN
  6
CONTINUOUS
 62
     3
100
AcDbCircle
 10
419.0237679974638
 20
249.4880064842836
 30
0.0
 40
1.999999999999914
100
AcDbArc
 50
270.0000000000024
 51
0.0000000000024427
  0
LINE
  5
66A
330
1A
100
AcDbEntity
  8
SEIHIN
  6
CONTINUOUS
 62
     3
100
AcDbLine
 10
405.0237679974639
 20
245.4880064842837
 30
0.0
 11
412.0237679974639
 21
245.4880064842837
 31
0.0
  0
LINE
  5
66B
330
1A
100
AcDbEntity
  8
SEIHIN
  6
CONTINUOUS
 62
     3
100
AcDbLine
 10
412.0237679974639
 20
227.4880064842836
 30
0.0
 11
405.0237679974639
 21
227.4880064842836
 31
0.0
  0
LINE
  5
66C
330
1A
100
AcDbEntity
  8
SEIHIN
  6
CONTINUOUS
 62
     3
100
AcDbLine
 10
384.3150679974637
 20
245.4880064842837
 30
0.0
 11
392.0237679974639
 21
245.4880064842837
 31
0.0
  0
LINE
  5
66D
330
1A
100
AcDbEntity
  8
SEIHIN
  6
CONTINUOUS
 62
     3
100
AcDbLine
 10
392.0237679974639
 20
227.4880064842836
 30
0.0
 11
385.0237679974639
 21
227.4880064842836
 31
0.0
  0
LINE
  5
66E
330
1A
100
AcDbEntity
  8
SEIHIN
  6
CONTINUOUS
 62
     3
100
AcDbLine
 10
381.0237679974639
 20
244.1967064842836
 30
0.0
 11
381.0237679974639
 21
229.4880064842836
 31
0.0
  0
LINE
  5
66F
330
1A
100
AcDbEntity
  8
SEIHIN
  6
CONTINUOUS
 62
     3
100
AcDbLine
 10
383.0237679974639
 20
244.1967064842836
 30
0.0
 11
383.0237679974639
 21
229.4880064842836
 31
0.0
  0
ARC
  5
670
330
1A
100
AcDbEntity
  8
SEIHIN
  6
CONTINUOUS
 62
     3
100
AcDbCircle
 10
385.0237679974639
 20
229.4880064842836
 30
0.0
 40
2.0
100
AcDbArc
 50
180.0
 51
270.0
  0
ARC
  5
671
330
1A
100
AcDbEntity
  8
SEIHIN
  6
CONTINUOUS
 62
     3
100
AcDbCircle
 10
379.0237679974639
 20
229.4880064842836
 30
0.0
 40
2.0
100
AcDbArc
 50
270.0
 51
0.0
  0
ARC
  5
672
330
1A
100
AcDbEntity
  8
SEIHIN
  6
CONTINUOUS
 62
     3
100
AcDbCircle
 10
382.0238567203422
 20
246.4879177628249
 30
0.0
 40
2.499965315068053
100
AcDbArc
 50
203.5763068347114
 51
246.4192559316366
  0
ARC
  5
673
330
1A
100
AcDbEntity
  8
SEIHIN
  6
CONTINUOUS
 62
     3
100
AcDbCircle
 10
382.0237679974638
 20
246.4880064842834
 30
0.0
 40
2.500011137975019
100
AcDbArc
 50
293.5780670725873
 51
336.4219329274249
  0
LINE
  5
674
330
1A
100
AcDbEntity
  8
SEIHIN
  6
CONTINUOUS
 62
     3
100
AcDbLine
 10
401.0237679974639
 20
243.4880064842837
 30
0.0
 11
401.0237679974639
 21
229.4880064842836
 31
0.0
  0
LINE
  5
675
330
1A
100
AcDbEntity
  8
SEIHIN
  6
CONTINUOUS
 62
     3
100
AcDbLine
 10
403.0237679974639
 20
243.4880064842837
 30
0.0
 11
403.0237679974639
 21
229.4880064842836
 31
0.0
  0
LINE
  5
676
330
1A
100
AcDbEntity
  8
SEIHIN
  6
CONTINUOUS
 62
     3
100
AcDbLine
 10
392.0237679974639
 20
227.4880064842836
 30
0.0
 11
399.0237679974639
 21
227.4880064842836
 31
0.0
  0
ARC
  5
677
330
1A
100
AcDbEntity
  8
SEIHIN
  6
CONTINUOUS
 62
     3
100
AcDbCircle
 10
399.0237679974639
 20
229.4880064842836
 30
0.0
 40
2.0
100
AcDbArc
 50
270.0
 51
0.0
  0
ARC
  5
678
330
1A
100
AcDbEntity
  8
SEIHIN
  6
CONTINUOUS
 62
     3
100
AcDbCircle
 10
405.0237679974639
 20
229.4880064842836
 30
0.0
 40
2.0
100
AcDbArc
 50
180.0
 51
270.0
  0
LINE
  5
679
330
1A
100
AcDbEntity
  8
SEIHIN
  6
CONTINUOUS
 62
     3
100
AcDbLine
 10
399.0237679974639
 20
245.4880064842837
 30
0.0
 11
392.0237679974639
 21
245.4880064842837
 31
0.0
  0
ARC
  5
67A
330
1A
100
AcDbEntity
  8
SEIHIN
  6
CONTINUOUS
 62
     3
100
AcDbCircle
 10
399.0237679974639
 20
243.4880064842837
 30
0.0
 40
2.0
100
AcDbArc
 50
0.0
 51
90.0
  0
ARC
  5
67B
330
1A
100
AcDbEntity
  8
SEIHIN
  6
CONTINUOUS
 62
     3
100
AcDbCircle
 10
405.0237679974639
 20
243.4880064842837
 30
0.0
 40
2.0
100
AcDbArc
 50
90.0
 51
180.0
  0
LINE
  5
67C
330
1A
100
AcDbEntity
  8
SEIHIN
  6
CONTINUOUS
 62
     3
100
AcDbLine
 10
421.0237679974637
 20
243.4880064842837
 30
0.0
 11
421.0237679974637
 21
229.4880064842836
 31
0.0
  0
LINE
  5
67D
330
1A
100
AcDbEntity
  8
SEIHIN
  6
CONTINUOUS
 62
     3
100
AcDbLine
 10
412.0237679974639
 20
227.4880064842836
 30
0.0
 11
419.0237679974639
 21
227.4880064842836
 31
0.0
  0
ARC
  5
67E
330
1A
100
AcDbEntity
  8
SEIHIN
  6
CONTINUOUS
 62
     3
100
AcDbCircle
 10
419.0237679974638
 20
229.4880064842835
 30
0.0
 40
1.999999999999914
100
AcDbArc
 50
270.0000000000024
 51
0.0000000000024427
  0
LINE
  5
67F
330
1A
100
AcDbEntity
  8
SEIHIN
  6
CONTINUOUS
 62
     3
100
AcDbLine
 10
419.0237679974639
 20
245.4880064842837
 30
0.0
 11
412.0237679974639
 21
245.4880064842837
 31
0.0
  0
ARC
  5
680
330
1A
100
AcDbEntity
  8
SEIHIN
  6
CONTINUOUS
 62
     3
100
AcDbCircle
 10
419.0237679974638
 20
243.4880064842837
 30
0.0
 40
1.999999999999914
100
AcDbArc
 50
359.9999999999975
 51
89.99999999999756
  0
LINE
  5
681
330
1A
100
AcDbEntity
  8
SEIHIN
  6
CONTINUOUS
 62
     3
100
AcDbLine
 10
423.0237679974639
 20
243.4880064842837
 30
0.0
 11
423.0237679974639
 21
229.4880064842836
 31
0.0
  0
LINE
  5
682
330
1A
100
AcDbEntity
  8
SEIHIN
  6
CONTINUOUS
 62
     3
100
AcDbLine
 10
432.0237679974639
 20
227.4880064842836
 30
0.0
 11
425.0237679974639
 21
227.4880064842836
 31
0.0
  0
ARC
  5
683
330
1A
100
AcDbEntity
  8
SEIHIN
  6
CONTINUOUS
 62
     3
100
AcDbCircle
 10
425.0237679974639
 20
229.4880064842836
 30
0.0
 40
2.0
100
AcDbArc
 50
180.0
 51
270.0
  0
LINE
  5
684
330
1A
100
AcDbEntity
  8
SEIHIN
  6
CONTINUOUS
 62
     3
100
AcDbLine
 10
425.0237679974639
 20
245.4880064842837
 30
0.0
 11
432.0237679974639
 21
245.4880064842837
 31
0.0
  0
ARC
  5
685
330
1A
100
AcDbEntity
  8
SEIHIN
  6
CONTINUOUS
 62
     3
100
AcDbCircle
 10
425.0237679974639
 20
243.4880064842837
 30
0.0
 40
2.0
100
AcDbArc
 50
90.0
 51
180.0
  0
LINE
  5
686
330
1A
100
AcDbEntity
  8
SEIHIN
  6
CONTINUOUS
 62
     3
100
AcDbLine
 10
405.0237679974639
 20
247.4880064842837
 30
0.0
 11
412.0237679974639
 21
247.4880064842837
 31
0.0
  0
LINE
  5
687
330
1A
100
AcDbEntity
  8
SEIHIN
  6
CONTINUOUS
 62
     3
100
AcDbLine
 10
412.0237679974639
 20
265.4880064842837
 30
0.0
 11
405.0237679974639
 21
265.4880064842837
 31
0.0
  0
LINE
  5
688
330
1A
100
AcDbEntity
  8
SEIHIN
  6
CONTINUOUS
 62
     3
100
AcDbLine
 10
405.0237679974639
 20
285.4880064842837
 30
0.0
 11
412.0237679974639
 21
285.4880064842837
 31
0.0
  0
LINE
  5
689
330
1A
100
AcDbEntity
  8
SEIHIN
  6
CONTINUOUS
 62
     3
100
AcDbLine
 10
412.0237679974639
 20
267.4880064842837
 30
0.0
 11
405.0237679974639
 21
267.4880064842837
 31
0.0
  0
LINE
  5
68A
330
1A
100
AcDbEntity
  8
SEIHIN
  6
CONTINUOUS
 62
     3
100
AcDbLine
 10
405.0237679974639
 20
287.4880064842837
 30
0.0
 11
412.0237679974639
 21
287.4880064842837
 31
0.0
  0
ARC
  5
68B
330
1A
100
AcDbEntity
  8
SEIHIN
  6
CONTINUOUS
 62
     3
100
AcDbCircle
 10
379.0237679974639
 20
269.4880064842837
 30
0.0
 40
2.0
100
AcDbArc
 50
270.0
 51
0.0
  0
ARC
  5
68C
330
1A
100
AcDbEntity
  8
SEIHIN
  6
CONTINUOUS
 62
     3
100
AcDbCircle
 10
399.0237679974639
 20
269.4880064842837
 30
0.0
 40
2.0
100
AcDbArc
 50
270.0
 51
0.0
  0
ARC
  5
68D
330
1A
100
AcDbEntity
  8
SEIHIN
  6
CONTINUOUS
 62
     3
100
AcDbCircle
 10
385.0237679974639
 20
269.4880064842837
 30
0.0
 40
2.0
100
AcDbArc
 50
180.0
 51
270.0
  0
ARC
  5
68E
330
1A
100
AcDbEntity
  8
SEIHIN
  6
CONTINUOUS
 62
     3
100
AcDbCircle
 10
405.0237679974639
 20
269.4880064842837
 30
0.0
 40
2.0
100
AcDbArc
 50
180.0
 51
270.0
  0
LINE
  5
68F
330
1A
100
AcDbEntity
  8
SEIHIN
  6
CONTINUOUS
 62
     3
100
AcDbLine
 10
384.3150679974637
 20
247.4880064842837
 30
0.0
 11
392.0237679974639
 21
247.4880064842837
 31
0.0
  0
LINE
  5
690
330
1A
100
AcDbEntity
  8
SEIHIN
  6
CONTINUOUS
 62
     3
100
AcDbLine
 10
392.0237679974639
 20
265.4880064842837
 30
0.0
 11
385.0237679974639
 21
265.4880064842837
 31
0.0
  0
LINE
  5
691
330
1A
100
AcDbEntity
  8
SEIHIN
  6
CONTINUOUS
 62
     3
100
AcDbLine
 10
392.0237679974639
 20
267.4880064842837
 30
0.0
 11
385.0237679974639
 21
267.4880064842837
 31
0.0
  0
LINE
  5
692
330
1A
100
AcDbEntity
  8
SEIHIN
  6
CONTINUOUS
 62
     3
100
AcDbLine
 10
381.0237679974639
 20
248.7793064842837
 30
0.0
 11
381.0237679974639
 21
263.4880064842837
 31
0.0
  0
LINE
  5
693
330
1A
100
AcDbEntity
  8
SEIHIN
  6
CONTINUOUS
 62
     3
100
AcDbLine
 10
383.0237679974639
 20
248.7793064842837
 30
0.0
 11
383.0237679974639
 21
263.4880064842837
 31
0.0
  0
ARC
  5
694
330
1A
100
AcDbEntity
  8
SEIHIN
  6
CONTINUOUS
 62
     3
100
AcDbCircle
 10
382.0238567203421
 20
246.4880952057424
 30
0.0
 40
2.499965315067993
100
AcDbArc
 50
113.5807440683618
 51
156.4236931652872
  0
ARC
  5
695
330
1A
100
AcDbEntity
  8
SEIHIN
  6
CONTINUOUS
 62
     3
100
AcDbCircle
 10
382.0237679974638
 20
246.4880064842839
 30
0.0
 40
2.500011137974953
100
AcDbArc
 50
23.57806707257651
 51
66.42193292741423
  0
ARC
  5
696
330
1A
100
AcDbEntity
  8
SEIHIN
  6
CONTINUOUS
 62
     3
100
AcDbCircle
 10
385.0237679974639
 20
263.4880064842837
 30
0.0
 40
2.0
100
AcDbArc
 50
90.0
 51
180.0
  0
ARC
  5
697
330
1A
100
AcDbEntity
  8
SEIHIN
  6
CONTINUOUS
 62
     3
100
AcDbCircle
 10
379.0237679974639
 20
263.4880064842837
 30
0.0
 40
2.0
100
AcDbArc
 50
0.0
 51
90.0
  0
LINE
  5
698
330
1A
100
AcDbEntity
  8
SEIHIN
  6
CONTINUOUS
 62
     3
100
AcDbLine
 10
401.0237679974639
 20
249.4880064842837
 30
0.0
 11
401.0237679974639
 21
263.4880064842837
 31
0.0
  0
LINE
  5
699
330
1A
100
AcDbEntity
  8
SEIHIN
  6
CONTINUOUS
 62
     3
100
AcDbLine
 10
403.0237679974639
 20
249.4880064842837
 30
0.0
 11
403.0237679974639
 21
263.4880064842837
 31
0.0
  0
LINE
  5
69A
330
1A
100
AcDbEntity
  8
SEIHIN
  6
CONTINUOUS
 62
     3
100
AcDbLine
 10
399.0237679974639
 20
247.4880064842837
 30
0.0
 11
392.0237679974639
 21
247.4880064842837
 31
0.0
  0
LINE
  5
69B
330
1A
100
AcDbEntity
  8
SEIHIN
  6
CONTINUOUS
 62
     3
100
AcDbLine
 10
392.0237679974639
 20
265.4880064842837
 30
0.0
 11
399.0237679974639
 21
265.4880064842837
 31
0.0
  0
LINE
  5
69C
330
1A
100
AcDbEntity
  8
SEIHIN
  6
CONTINUOUS
 62
     3
100
AcDbLine
 10
392.0237679974639
 20
267.4880064842837
 30
0.0
 11
399.0237679974639
 21
267.4880064842837
 31
0.0
  0
ARC
  5
69D
330
1A
100
AcDbEntity
  8
SEIHIN
  6
CONTINUOUS
 62
     3
100
AcDbCircle
 10
399.0237679974639
 20
263.4880064842837
 30
0.0
 40
2.0
100
AcDbArc
 50
0.0
 51
90.0
  0
ARC
  5
69E
330
1A
100
AcDbEntity
  8
SEIHIN
  6
CONTINUOUS
 62
     3
100
AcDbCircle
 10
405.0237679974639
 20
263.4880064842837
 30
0.0
 40
2.0
100
AcDbArc
 50
90.0
 51
180.0
  0
LINE
  5
69F
330
1A
100
AcDbEntity
  8
SEIHIN
  6
CONTINUOUS
 62
     3
100
AcDbLine
 10
384.3150679974637
 20
285.4880064842837
 30
0.0
 11
392.0237679974639
 21
285.4880064842837
 31
0.0
  0
LINE
  5
6A0
330
1A
100
AcDbEntity
  8
SEIHIN
  6
CONTINUOUS
 62
     3
100
AcDbLine
 10
384.3150679974637
 20
287.4880064842837
 30
0.0
 11
392.0237679974639
 21
287.4880064842837
 31
0.0
  0
LINE
  5
6A1
330
1A
100
AcDbEntity
  8
SEIHIN
  6
CONTINUOUS
 62
     3
100
AcDbLine
 10
381.0237679974639
 20
284.1967064842836
 30
0.0
 11
381.0237679974639
 21
269.4880064842837
 31
0.0
  0
LINE
  5
6A2
330
1A
100
AcDbEntity
  8
SEIHIN
  6
CONTINUOUS
 62
     3
100
AcDbLine
 10
383.0237679974639
 20
284.1967064842836
 30
0.0
 11
383.0237679974639
 21
269.4880064842837
 31
0.0
  0
ARC
  5
6A3
330
1A
100
AcDbEntity
  8
SEIHIN
  6
CONTINUOUS
 62
     3
100
AcDbCircle
 10
382.0238567203422
 20
286.4879177628249
 30
0.0
 40
2.49996531506807
100
AcDbArc
 50
203.5763068347105
 51
246.419255931636
  0
ARC
  5
6A4
330
1A
100
AcDbEntity
  8
SEIHIN
  6
CONTINUOUS
 62
     3
100
AcDbCircle
 10
382.0238567203421
 20
286.4880952057424
 30
0.0
 40
2.49996531506799
100
AcDbArc
 50
113.5807440683618
 51
156.4236931652866
  0
ARC
  5
6A5
330
1A
100
AcDbEntity
  8
SEIHIN
  6
CONTINUOUS
 62
     3
100
AcDbCircle
 10
382.0237679974638
 20
286.4880064842834
 30
0.0
 40
2.500011137975035
100
AcDbArc
 50
293.5780670725879
 51
336.4219329274256
  0
ARC
  5
6A6
330
1A
100
AcDbEntity
  8
SEIHIN
  6
CONTINUOUS
 62
     3
100
AcDbCircle
 10
382.0237679974638
 20
286.488006484284
 30
0.0
 40
2.500011137974962
100
AcDbArc
 50
23.57806707257702
 51
66.42193292741419
  0
LINE
  5
6A7
330
1A
100
AcDbEntity
  8
SEIHIN
  6
CONTINUOUS
 62
     3
100
AcDbLine
 10
401.0237679974639
 20
283.4880064842837
 30
0.0
 11
401.0237679974639
 21
269.4880064842837
 31
0.0
  0
LINE
  5
6A8
330
1A
100
AcDbEntity
  8
SEIHIN
  6
CONTINUOUS
 62
     3
100
AcDbLine
 10
403.0237679974639
 20
283.4880064842837
 30
0.0
 11
403.0237679974639
 21
269.4880064842837
 31
0.0
  0
LINE
  5
6A9
330
1A
100
AcDbEntity
  8
SEIHIN
  6
CONTINUOUS
 62
     3
100
AcDbLine
 10
399.0237679974639
 20
285.4880064842837
 30
0.0
 11
392.0237679974639
 21
285.4880064842837
 31
0.0
  0
LINE
  5
6AA
330
1A
100
AcDbEntity
  8
SEIHIN
  6
CONTINUOUS
 62
     3
100
AcDbLine
 10
399.0237679974639
 20
287.4880064842837
 30
0.0
 11
392.0237679974639
 21
287.4880064842837
 31
0.0
  0
ARC
  5
6AB
330
1A
100
AcDbEntity
  8
SEIHIN
  6
CONTINUOUS
 62
     3
100
AcDbCircle
 10
399.0237679974639
 20
283.4880064842837
 30
0.0
 40
2.0
100
AcDbArc
 50
0.0
 51
90.0
  0
ARC
  5
6AC
330
1A
100
AcDbEntity
  8
SEIHIN
  6
CONTINUOUS
 62
     3
100
AcDbCircle
 10
405.0237679974639
 20
283.4880064842837
 30
0.0
 40
2.0
100
AcDbArc
 50
90.0
 51
180.0
  0
ARC
  5
6AD
330
1A
100
AcDbEntity
  8
SEIHIN
  6
CONTINUOUS
 62
     3
100
AcDbCircle
 10
399.0237679974639
 20
289.4880064842837
 30
0.0
 40
2.0
100
AcDbArc
 50
270.0
 51
0.0
  0
ARC
  5
6AE
330
1A
100
AcDbEntity
  8
SEIHIN
  6
CONTINUOUS
 62
     3
100
AcDbCircle
 10
405.0237679974639
 20
289.4880064842837
 30
0.0
 40
2.0
100
AcDbArc
 50
180.0
 51
270.0
  0
ARC
  5
6AF
330
1A
100
AcDbEntity
  8
SEIHIN
  6
CONTINUOUS
 62
     3
100
AcDbCircle
 10
425.0237679974639
 20
269.4880064842837
 30
0.0
 40
2.0
100
AcDbArc
 50
180.0
 51
270.0
  0
ARC
  5
6B0
330
1A
100
AcDbEntity
  8
SEIHIN
  6
CONTINUOUS
 62
     3
100
AcDbCircle
 10
419.0237679974638
 20
269.4880064842836
 30
0.0
 40
1.999999999999914
100
AcDbArc
 50
270.0000000000024
 51
0.0000000000024427
  0
LINE
  5
6B1
330
1A
100
AcDbEntity
  8
SEIHIN
  6
CONTINUOUS
 62
     3
100
AcDbLine
 10
421.0237679974637
 20
249.4880064842837
 30
0.0
 11
421.0237679974637
 21
263.4880064842837
 31
0.0
  0
LINE
  5
6B2
330
1A
100
AcDbEntity
  8
SEIHIN
  6
CONTINUOUS
 62
     3
100
AcDbLine
 10
419.0237679974639
 20
247.4880064842837
 30
0.0
 11
412.0237679974639
 21
247.4880064842837
 31
0.0
  0
LINE
  5
6B3
330
1A
100
AcDbEntity
  8
SEIHIN
  6
CONTINUOUS
 62
     3
100
AcDbLine
 10
412.0237679974639
 20
265.4880064842837
 30
0.0
 11
419.0237679974639
 21
265.4880064842837
 31
0.0
  0
LINE
  5
6B4
330
1A
100
AcDbEntity
  8
SEIHIN
  6
CONTINUOUS
 62
     3
100
AcDbLine
 10
412.0237679974639
 20
267.4880064842837
 30
0.0
 11
419.0237679974639
 21
267.4880064842837
 31
0.0
  0
ARC
  5
6B5
330
1A
100
AcDbEntity
  8
SEIHIN
  6
CONTINUOUS
 62
     3
100
AcDbCircle
 10
419.0237679974638
 20
263.4880064842838
 30
0.0
 40
1.999999999999914
100
AcDbArc
 50
359.9999999999975
 51
89.99999999999756
  0
LINE
  5
6B6
330
1A
100
AcDbEntity
  8
SEIHIN
  6
CONTINUOUS
 62
     3
100
AcDbLine
 10
423.0237679974639
 20
249.4880064842837
 30
0.0
 11
423.0237679974639
 21
263.4880064842837
 31
0.0
  0
LINE
  5
6B7
330
1A
100
AcDbEntity
  8
SEIHIN
  6
CONTINUOUS
 62
     3
100
AcDbLine
 10
425.0237679974639
 20
247.4880064842837
 30
0.0
 11
432.0237679974639
 21
247.4880064842837
 31
0.0
  0
LINE
  5
6B8
330
1A
100
AcDbEntity
  8
SEIHIN
  6
CONTINUOUS
 62
     3
100
AcDbLine
 10
432.0237679974639
 20
265.4880064842837
 30
0.0
 11
425.0237679974639
 21
265.4880064842837
 31
0.0
  0
LINE
  5
6B9
330
1A
100
AcDbEntity
  8
SEIHIN
  6
CONTINUOUS
 62
     3
100
AcDbLine
 10
432.0237679974639
 20
267.4880064842837
 30
0.0
 11
425.0237679974639
 21
267.4880064842837
 31
0.0
  0
ARC
  5
6BA
330
1A
100
AcDbEntity
  8
SEIHIN
  6
CONTINUOUS
 62
     3
100
AcDbCircle
 10
425.0237679974639
 20
263.4880064842837
 30
0.0
 40
2.0
100
AcDbArc
 50
90.0
 51
180.0
  0
LINE
  5
6BB
330
1A
100
AcDbEntity
  8
SEIHIN
  6
CONTINUOUS
 62
     3
100
AcDbLine
 10
421.0237679974637
 20
283.4880064842837
 30
0.0
 11
421.0237679974637
 21
269.4880064842837
 31
0.0
  0
LINE
  5
6BC
330
1A
100
AcDbEntity
  8
SEIHIN
  6
CONTINUOUS
 62
     3
100
AcDbLine
 10
419.0237679974639
 20
285.4880064842837
 30
0.0
 11
412.0237679974639
 21
285.4880064842837
 31
0.0
  0
LINE
  5
6BD
330
1A
100
AcDbEntity
  8
SEIHIN
  6
CONTINUOUS
 62
     3
100
AcDbLine
 10
419.0237679974639
 20
287.4880064842837
 30
0.0
 11
412.0237679974639
 21
287.4880064842837
 31
0.0
  0
ARC
  5
6BE
330
1A
100
AcDbEntity
  8
SEIHIN
  6
CONTINUOUS
 62
     3
100
AcDbCircle
 10
419.0237679974638
 20
283.4880064842838
 30
0.0
 40
1.999999999999914
100
AcDbArc
 50
359.9999999999975
 51
89.99999999999756
  0
ARC
  5
6BF
330
1A
100
AcDbEntity
  8
SEIHIN
  6
CONTINUOUS
 62
     3
100
AcDbCircle
 10
419.0237679974638
 20
289.4880064842837
 30
0.0
 40
1.999999999999914
100
AcDbArc
 50
270.0000000000024
 51
0.0000000000024427
  0
LINE
  5
6C0
330
1A
100
AcDbEntity
  8
SEIHIN
  6
CONTINUOUS
 62
     3
100
AcDbLine
 10
423.0237679974639
 20
283.4880064842837
 30
0.0
 11
423.0237679974639
 21
269.4880064842837
 31
0.0
  0
LINE
  5
6C1
330
1A
100
AcDbEntity
  8
SEIHIN
  6
CONTINUOUS
 62
     3
100
AcDbLine
 10
425.0237679974639
 20
285.4880064842837
 30
0.0
 11
432.0237679974639
 21
285.4880064842837
 31
0.0
  0
LINE
  5
6C2
330
1A
100
AcDbEntity
  8
SEIHIN
  6
CONTINUOUS
 62
     3
100
AcDbLine
 10
425.0237679974639
 20
287.4880064842837
 30
0.0
 11
432.0237679974639
 21
287.4880064842837
 31
0.0
  0
ARC
  5
6C3
330
1A
100
AcDbEntity
  8
SEIHIN
  6
CONTINUOUS
 62
     3
100
AcDbCircle
 10
425.0237679974639
 20
283.4880064842837
 30
0.0
 40
2.0
100
AcDbArc
 50
90.0
 51
180.0
  0
ARC
  5
6C4
330
1A
100
AcDbEntity
  8
SEIHIN
  6
CONTINUOUS
 62
     3
100
AcDbCircle
 10
425.0237679974639
 20
289.4880064842837
 30
0.0
 40
2.0
100
AcDbArc
 50
180.0
 51
270.0
  0
ARC
  5
6C5
330
1A
100
AcDbEntity
  8
SEIHIN
  6
CONTINUOUS
 62
     3
100
AcDbCircle
 10
485.0237679974639
 20
249.4880064842837
 30
0.0
 40
2.0
100
AcDbArc
 50
180.0
 51
270.0
  0
ARC
  5
6C6
330
1A
100
AcDbEntity
  8
SEIHIN
  6
CONTINUOUS
 62
     3
100
AcDbCircle
 10
465.0237679974638
 20
249.4880064842837
 30
0.0
 40
2.000000000000085
100
AcDbArc
 50
180.0000000000024
 51
270.0000000000024
  0
ARC
  5
6C7
330
1A
100
AcDbEntity
  8
SEIHIN
  6
CONTINUOUS
 62
     3
100
AcDbCircle
 10
479.0237679974638
 20
249.4880064842837
 30
0.0
 40
2.0
100
AcDbArc
 50
270.0
 51
0.0
  0
ARC
  5
6C8
330
1A
100
AcDbEntity
  8
SEIHIN
  6
CONTINUOUS
 62
     3
100
AcDbCircle
 10
459.0237679974638
 20
249.4880064842837
 30
0.0
 40
2.000000000000085
100
AcDbArc
 50
269.9999999999975
 51
359.9999999999975
  0
LINE
  5
6C9
330
1A
100
AcDbEntity
  8
SEIHIN
  6
CONTINUOUS
 62
     3
100
AcDbLine
 10
465.0237679974639
 20
245.4880064842837
 30
0.0
 11
472.0237679974639
 21
245.4880064842837
 31
0.0
  0
LINE
  5
6CA
330
1A
100
AcDbEntity
  8
SEIHIN
  6
CONTINUOUS
 62
     3
100
AcDbLine
 10
472.0237679974639
 20
227.4880064842836
 30
0.0
 11
465.0237679974639
 21
227.4880064842836
 31
0.0
  0
LINE
  5
6CB
330
1A
100
AcDbEntity
  8
SEIHIN
  6
CONTINUOUS
 62
     3
100
AcDbLine
 10
459.0237679974637
 20
245.4880064842837
 30
0.0
 11
452.0237679974639
 21
245.4880064842837
 31
0.0
  0
LINE
  5
6CC
330
1A
100
AcDbEntity
  8
SEIHIN
  6
CONTINUOUS
 62
     3
100
AcDbLine
 10
452.0237679974639
 20
227.4880064842836
 30
0.0
 11
459.0237679974637
 21
227.4880064842836
 31
0.0
  0
LINE
  5
6CD
330
1A
100
AcDbEntity
  8
SEIHIN
  6
CONTINUOUS
 62
     3
100
AcDbLine
 10
443.0237679974639
 20
244.1967064842836
 30
0.0
 11
443.0237679974639
 21
229.4880064842836
 31
0.0
  0
LINE
  5
6CE
330
1A
100
AcDbEntity
  8
SEIHIN
  6
CONTINUOUS
 62
     3
100
AcDbLine
 10
441.0237679974639
 20
244.1967064842836
 30
0.0
 11
441.0237679974639
 21
229.4880064842836
 31
0.0
  0
LINE
  5
6CF
330
1A
100
AcDbEntity
  8
SEIHIN
  6
CONTINUOUS
 62
     3
100
AcDbLine
 10
452.0237679974639
 20
227.4880064842836
 30
0.0
 11
445.0237679974639
 21
227.4880064842836
 31
0.0
  0
ARC
  5
6D0
330
1A
100
AcDbEntity
  8
SEIHIN
  6
CONTINUOUS
 62
     3
100
AcDbCircle
 10
445.0237679974639
 20
229.4880064842836
 30
0.0
 40
2.0
100
AcDbArc
 50
180.0
 51
270.0
  0
ARC
  5
6D1
330
1A
100
AcDbEntity
  8
SEIHIN
  6
CONTINUOUS
 62
     3
100
AcDbCircle
 10
439.0237679974639
 20
229.4880064842836
 30
0.0
 40
2.0
100
AcDbArc
 50
270.0
 51
0.0
  0
LINE
  5
6D2
330
1A
100
AcDbEntity
  8
SEIHIN
  6
CONTINUOUS
 62
     3
100
AcDbLine
 10
444.3150679974637
 20
245.4880064842837
 30
0.0
 11
452.0237679974639
 21
245.4880064842837
 31
0.0
  0
ARC
  5
6D3
330
1A
100
AcDbEntity
  8
SEIHIN
  6
CONTINUOUS
 62
     3
100
AcDbCircle
 10
442.0237679974638
 20
246.4880064842834
 30
0.0
 40
2.500011137975019
100
AcDbArc
 50
293.5780670725873
 51
336.4219329274249
  0
ARC
  5
6D4
330
1A
100
AcDbEntity
  8
SEIHIN
  6
CONTINUOUS
 62
     3
100
AcDbCircle
 10
442.0238567203423
 20
246.4879177628249
 30
0.0
 40
2.499965315068053
100
AcDbArc
 50
203.5763068347114
 51
246.4192559316366
  0
LINE
  5
6D5
330
1A
100
AcDbEntity
  8
SEIHIN
  6
CONTINUOUS
 62
     3
100
AcDbLine
 10
463.0237679974637
 20
243.4880064842837
 30
0.0
 11
463.0237679974637
 21
229.4880064842836
 31
0.0
  0
LINE
  5
6D6
330
1A
100
AcDbEntity
  8
SEIHIN
  6
CONTINUOUS
 62
     3
100
AcDbLine
 10
461.0237679974639
 20
243.4880064842837
 30
0.0
 11
461.0237679974639
 21
229.4880064842836
 31
0.0
  0
ARC
  5
6D7
330
1A
100
AcDbEntity
  8
SEIHIN
  6
CONTINUOUS
 62
     3
100
AcDbCircle
 10
459.0237679974638
 20
229.4880064842837
 30
0.0
 40
2.000000000000085
100
AcDbArc
 50
269.9999999999975
 51
359.9999999999975
  0
ARC
  5
6D8
330
1A
100
AcDbEntity
  8
SEIHIN
  6
CONTINUOUS
 62
     3
100
AcDbCircle
 10
465.0237679974638
 20
229.4880064842837
 30
0.0
 40
2.000000000000085
100
AcDbArc
 50
180.0000000000024
 51
270.0000000000024
  0
ARC
  5
6D9
330
1A
100
AcDbEntity
  8
SEIHIN
  6
CONTINUOUS
 62
     3
100
AcDbCircle
 10
459.0237679974638
 20
243.4880064842836
 30
0.0
 40
2.000000000000085
100
AcDbArc
 50
0.0000000000024427
 51
90.00000000000245
  0
ARC
  5
6DA
330
1A
100
AcDbEntity
  8
SEIHIN
  6
CONTINUOUS
 62
     3
100
AcDbCircle
 10
465.0237679974638
 20
243.4880064842836
 30
0.0
 40
2.000000000000085
100
AcDbArc
 50
89.99999999999756
 51
179.9999999999975
  0
ARC
  5
6DB
330
1A
100
AcDbEntity
  8
SEIHIN
  6
CONTINUOUS
 62
     3
100
AcDbCircle
 10
485.0237679974639
 20
243.4880064842837
 30
0.0
 40
2.0
100
AcDbArc
 50
90.0
 51
180.0
  0
ARC
  5
6DC
330
1A
100
AcDbEntity
  8
SEIHIN
  6
CONTINUOUS
 62
     3
100
AcDbCircle
 10
485.0237679974639
 20
229.4880064842836
 30
0.0
 40
2.0
100
AcDbArc
 50
180.0
 51
270.0
  0
LINE
  5
6DD
330
1A
100
AcDbEntity
  8
SEIHIN
  6
CONTINUOUS
 62
     3
100
AcDbLine
 10
483.0237679974638
 20
243.4880064842837
 30
0.0
 11
483.0237679974638
 21
229.4880064842836
 31
0.0
  0
LINE
  5
6DE
330
1A
100
AcDbEntity
  8
SEIHIN
  6
CONTINUOUS
 62
     3
100
AcDbLine
 10
481.0237679974639
 20
243.4880064842837
 30
0.0
 11
481.0237679974639
 21
229.4880064842836
 31
0.0
  0
LINE
  5
6DF
330
1A
100
AcDbEntity
  8
SEIHIN
  6
CONTINUOUS
 62
     3
100
AcDbLine
 10
472.0237679974639
 20
227.4880064842836
 30
0.0
 11
479.0237679974638
 21
227.4880064842836
 31
0.0
  0
ARC
  5
6E0
330
1A
100
AcDbEntity
  8
SEIHIN
  6
CONTINUOUS
 62
     3
100
AcDbCircle
 10
479.0237679974638
 20
229.4880064842836
 30
0.0
 40
2.0
100
AcDbArc
 50
270.0
 51
0.0
  0
LINE
  5
6E1
330
1A
100
AcDbEntity
  8
SEIHIN
  6
CONTINUOUS
 62
     3
100
AcDbLine
 10
479.0237679974638
 20
245.4880064842837
 30
0.0
 11
472.0237679974639
 21
245.4880064842837
 31
0.0
  0
ARC
  5
6E2
330
1A
100
AcDbEntity
  8
SEIHIN
  6
CONTINUOUS
 62
     3
100
AcDbCircle
 10
479.0237679974638
 20
243.4880064842837
 30
0.0
 40
2.0
100
AcDbArc
 50
0.0
 51
90.0
  0
LINE
  5
6E3
330
1A
100
AcDbEntity
  8
SEIHIN
  6
CONTINUOUS
 62
     3
100
AcDbLine
 10
492.0237679974639
 20
227.4880064842836
 30
0.0
 11
499.0237679974638
 21
227.4880064842836
 31
0.0
  0
LINE
  5
6E4
330
1A
100
AcDbEntity
  8
SEIHIN
  6
CONTINUOUS
 62
     3
100
AcDbLine
 10
492.0237679974639
 20
227.4880064842836
 30
0.0
 11
485.0237679974639
 21
227.4880064842836
 31
0.0
  0
LINE
  5
6E5
330
1A
100
AcDbEntity
  8
SEIHIN
  6
CONTINUOUS
 62
     3
100
AcDbLine
 10
499.732567997464
 20
245.4880064842837
 30
0.0
 11
492.0237679974639
 21
245.4880064842837
 31
0.0
  0
LINE
  5
6E6
330
1A
100
AcDbEntity
  8
SEIHIN
  6
CONTINUOUS
 62
     3
100
AcDbLine
 10
485.0237679974639
 20
245.4880064842837
 30
0.0
 11
492.0237679974639
 21
245.4880064842837
 31
0.0
  0
LINE
  5
6E7
330
1A
100
AcDbEntity
  8
SEIHIN
  6
CONTINUOUS
 62
     3
100
AcDbLine
 10
465.0237679974639
 20
247.4880064842837
 30
0.0
 11
472.0237679974639
 21
247.4880064842837
 31
0.0
  0
LINE
  5
6E8
330
1A
100
AcDbEntity
  8
SEIHIN
  6
CONTINUOUS
 62
     3
100
AcDbLine
 10
472.0237679974639
 20
265.4880064842837
 30
0.0
 11
465.0237679974639
 21
265.4880064842837
 31
0.0
  0
LINE
  5
6E9
330
1A
100
AcDbEntity
  8
SEIHIN
  6
CONTINUOUS
 62
     3
100
AcDbLine
 10
465.0237679974639
 20
285.4880064842837
 30
0.0
 11
472.0237679974639
 21
285.4880064842837
 31
0.0
  0
LINE
  5
6EA
330
1A
100
AcDbEntity
  8
SEIHIN
  6
CONTINUOUS
 62
     3
100
AcDbLine
 10
472.0237679974639
 20
267.4880064842837
 30
0.0
 11
465.0237679974639
 21
267.4880064842837
 31
0.0
  0
LINE
  5
6EB
330
1A
100
AcDbEntity
  8
SEIHIN
  6
CONTINUOUS
 62
     3
100
AcDbLine
 10
465.0237679974639
 20
287.4880064842837
 30
0.0
 11
472.0237679974639
 21
287.4880064842837
 31
0.0
  0
ARC
  5
6EC
330
1A
100
AcDbEntity
  8
SEIHIN
  6
CONTINUOUS
 62
     3
100
AcDbCircle
 10
465.0237679974638
 20
269.4880064842838
 30
0.0
 40
2.000000000000085
100
AcDbArc
 50
180.0000000000024
 51
270.0000000000024
  0
ARC
  5
6ED
330
1A
100
AcDbEntity
  8
SEIHIN
  6
CONTINUOUS
 62
     3
100
AcDbCircle
 10
445.0237679974639
 20
269.4880064842837
 30
0.0
 40
2.0
100
AcDbArc
 50
180.0
 51
270.0
  0
ARC
  5
6EE
330
1A
100
AcDbEntity
  8
SEIHIN
  6
CONTINUOUS
 62
     3
100
AcDbCircle
 10
459.0237679974638
 20
269.4880064842838
 30
0.0
 40
2.000000000000085
100
AcDbArc
 50
269.9999999999975
 51
359.9999999999975
  0
ARC
  5
6EF
330
1A
100
AcDbEntity
  8
SEIHIN
  6
CONTINUOUS
 62
     3
100
AcDbCircle
 10
439.0237679974639
 20
269.4880064842837
 30
0.0
 40
2.0
100
AcDbArc
 50
270.0
 51
0.0
  0
LINE
  5
6F0
330
1A
100
AcDbEntity
  8
SEIHIN
  6
CONTINUOUS
 62
     3
100
AcDbLine
 10
459.0237679974637
 20
247.4880064842837
 30
0.0
 11
452.0237679974639
 21
247.4880064842837
 31
0.0
  0
LINE
  5
6F1
330
1A
100
AcDbEntity
  8
SEIHIN
  6
CONTINUOUS
 62
     3
100
AcDbLine
 10
452.0237679974639
 20
265.4880064842837
 30
0.0
 11
459.0237679974637
 21
265.4880064842837
 31
0.0
  0
LINE
  5
6F2
330
1A
100
AcDbEntity
  8
SEIHIN
  6
CONTINUOUS
 62
     3
100
AcDbLine
 10
452.0237679974639
 20
267.4880064842837
 30
0.0
 11
459.0237679974637
 21
267.4880064842837
 31
0.0
  0
LINE
  5
6F3
330
1A
100
AcDbEntity
  8
SEIHIN
  6
CONTINUOUS
 62
     3
100
AcDbLine
 10
443.0237679974639
 20
248.7793064842837
 30
0.0
 11
443.0237679974639
 21
263.4880064842837
 31
0.0
  0
LINE
  5
6F4
330
1A
100
AcDbEntity
  8
SEIHIN
  6
CONTINUOUS
 62
     3
100
AcDbLine
 10
441.0237679974639
 20
248.7793064842837
 30
0.0
 11
441.0237679974639
 21
263.4880064842837
 31
0.0
  0
LINE
  5
6F5
330
1A
100
AcDbEntity
  8
SEIHIN
  6
CONTINUOUS
 62
     3
100
AcDbLine
 10
444.3150679974637
 20
247.4880064842837
 30
0.0
 11
452.0237679974639
 21
247.4880064842837
 31
0.0
  0
ARC
  5
6F6
330
1A
100
AcDbEntity
  8
SEIHIN
  6
CONTINUOUS
 62
     3
100
AcDbCircle
 10
442.0237679974639
 20
246.4880064842839
 30
0.0
 40
2.500011137974953
100
AcDbArc
 50
23.57806707257651
 51
66.42193292741423
  0
ARC
  5
6F7
330
1A
100
AcDbEntity
  8
SEIHIN
  6
CONTINUOUS
 62
     3
100
AcDbCircle
 10
442.0238567203421
 20
246.4880952057424
 30
0.0
 40
2.499965315067993
100
AcDbArc
 50
113.5807440683618
 51
156.4236931652872
  0
LINE
  5
6F8
330
1A
100
AcDbEntity
  8
SEIHIN
  6
CONTINUOUS
 62
     3
100
AcDbLine
 10
452.0237679974639
 20
265.4880064842837
 30
0.0
 11
445.0237679974639
 21
265.4880064842837
 31
0.0
  0
LINE
  5
6F9
330
1A
100
AcDbEntity
  8
SEIHIN
  6
CONTINUOUS
 62
     3
100
AcDbLine
 10
452.0237679974639
 20
267.4880064842837
 30
0.0
 11
445.0237679974639
 21
267.4880064842837
 31
0.0
  0
ARC
  5
6FA
330
1A
100
AcDbEntity
  8
SEIHIN
  6
CONTINUOUS
 62
     3
100
AcDbCircle
 10
445.0237679974639
 20
263.4880064842837
 30
0.0
 40
2.0
100
AcDbArc
 50
90.0
 51
180.0
  0
ARC
  5
6FB
330
1A
100
AcDbEntity
  8
SEIHIN
  6
CONTINUOUS
 62
     3
100
AcDbCircle
 10
439.0237679974639
 20
263.4880064842837
 30
0.0
 40
2.0
100
AcDbArc
 50
0.0
 51
90.0
  0
LINE
  5
6FC
330
1A
100
AcDbEntity
  8
SEIHIN
  6
CONTINUOUS
 62
     3
100
AcDbLine
 10
463.0237679974637
 20
249.4880064842837
 30
0.0
 11
463.0237679974637
 21
263.4880064842837
 31
0.0
  0
LINE
  5
6FD
330
1A
100
AcDbEntity
  8
SEIHIN
  6
CONTINUOUS
 62
     3
100
AcDbLine
 10
461.0237679974639
 20
249.4880064842837
 30
0.0
 11
461.0237679974639
 21
263.4880064842837
 31
0.0
  0
ARC
  5
6FE
330
1A
100
AcDbEntity
  8
SEIHIN
  6
CONTINUOUS
 62
     3
100
AcDbCircle
 10
459.0237679974638
 20
263.4880064842836
 30
0.0
 40
2.000000000000085
100
AcDbArc
 50
0.0000000000024427
 51
90.00000000000245
  0
ARC
  5
6FF
330
1A
100
AcDbEntity
  8
SEIHIN
  6
CONTINUOUS
 62
     3
100
AcDbCircle
 10
465.0237679974638
 20
263.4880064842836
 30
0.0
 40
2.000000000000085
100
AcDbArc
 50
89.99999999999756
 51
179.9999999999975
  0
LINE
  5
700
330
1A
100
AcDbEntity
  8
SEIHIN
  6
CONTINUOUS
 62
     3
100
AcDbLine
 10
459.0237679974637
 20
285.4880064842837
 30
0.0
 11
452.0237679974639
 21
285.4880064842837
 31
0.0
  0
LINE
  5
701
330
1A
100
AcDbEntity
  8
SEIHIN
  6
CONTINUOUS
 62
     3
100
AcDbLine
 10
459.0237679974637
 20
287.4880064842837
 30
0.0
 11
452.0237679974639
 21
287.4880064842837
 31
0.0
  0
LINE
  5
702
330
1A
100
AcDbEntity
  8
SEIHIN
  6
CONTINUOUS
 62
     3
100
AcDbLine
 10
443.0237679974639
 20
284.1967064842836
 30
0.0
 11
443.0237679974639
 21
269.4880064842837
 31
0.0
  0
LINE
  5
703
330
1A
100
AcDbEntity
  8
SEIHIN
  6
CONTINUOUS
 62
     3
100
AcDbLine
 10
441.0237679974639
 20
284.1967064842836
 30
0.0
 11
441.0237679974639
 21
269.4880064842837
 31
0.0
  0
LINE
  5
704
330
1A
100
AcDbEntity
  8
SEIHIN
  6
CONTINUOUS
 62
     3
100
AcDbLine
 10
444.3150679974637
 20
285.4880064842837
 30
0.0
 11
452.0237679974639
 21
285.4880064842837
 31
0.0
  0
LINE
  5
705
330
1A
100
AcDbEntity
  8
SEIHIN
  6
CONTINUOUS
 62
     3
100
AcDbLine
 10
444.3150679974637
 20
287.4880064842837
 30
0.0
 11
452.0237679974639
 21
287.4880064842837
 31
0.0
  0
ARC
  5
706
330
1A
100
AcDbEntity
  8
SEIHIN
  6
CONTINUOUS
 62
     3
100
AcDbCircle
 10
442.0237679974637
 20
286.4880064842834
 30
0.0
 40
2.500011137975035
100
AcDbArc
 50
293.5780670725879
 51
336.4219329274256
  0
ARC
  5
707
330
1A
100
AcDbEntity
  8
SEIHIN
  6
CONTINUOUS
 62
     3
100
AcDbCircle
 10
442.0238567203423
 20
286.4879177628249
 30
0.0
 40
2.49996531506807
100
AcDbArc
 50
203.5763068347105
 51
246.419255931636
  0
ARC
  5
708
330
1A
100
AcDbEntity
  8
SEIHIN
  6
CONTINUOUS
 62
     3
100
AcDbCircle
 10
442.0237679974639
 20
286.488006484284
 30
0.0
 40
2.500011137974962
100
AcDbArc
 50
23.57806707257702
 51
66.42193292741419
  0
ARC
  5
709
330
1A
100
AcDbEntity
  8
SEIHIN
  6
CONTINUOUS
 62
     3
100
AcDbCircle
 10
442.0238567203421
 20
286.4880952057424
 30
0.0
 40
2.49996531506799
100
AcDbArc
 50
113.5807440683618
 51
156.4236931652866
  0
LINE
  5
70A
330
1A
100
AcDbEntity
  8
SEIHIN
  6
CONTINUOUS
 62
     3
100
AcDbLine
 10
463.0237679974637
 20
283.4880064842837
 30
0.0
 11
463.0237679974637
 21
269.4880064842837
 31
0.0
  0
LINE
  5
70B
330
1A
100
AcDbEntity
  8
SEIHIN
  6
CONTINUOUS
 62
     3
100
AcDbLine
 10
461.0237679974639
 20
283.4880064842837
 30
0.0
 11
461.0237679974639
 21
269.4880064842837
 31
0.0
  0
ARC
  5
70C
330
1A
100
AcDbEntity
  8
SEIHIN
  6
CONTINUOUS
 62
     3
100
AcDbCircle
 10
459.0237679974638
 20
283.4880064842836
 30
0.0
 40
2.000000000000085
100
AcDbArc
 50
0.0000000000024427
 51
90.00000000000245
  0
ARC
  5
70D
330
1A
100
AcDbEntity
  8
SEIHIN
  6
CONTINUOUS
 62
     3
100
AcDbCircle
 10
459.0237679974638
 20
289.4880064842837
 30
0.0
 40
2.000000000000085
100
AcDbArc
 50
269.9999999999975
 51
359.9999999999975
  0
ARC
  5
70E
330
1A
100
AcDbEntity
  8
SEIHIN
  6
CONTINUOUS
 62
     3
100
AcDbCircle
 10
465.0237679974638
 20
283.4880064842836
 30
0.0
 40
2.000000000000085
100
AcDbArc
 50
89.99999999999756
 51
179.9999999999975
  0
ARC
  5
70F
330
1A
100
AcDbEntity
  8
SEIHIN
  6
CONTINUOUS
 62
     3
100
AcDbCircle
 10
465.0237679974638
 20
289.4880064842837
 30
0.0
 40
2.000000000000085
100
AcDbArc
 50
180.0000000000024
 51
270.0000000000024
  0
ARC
  5
710
330
1A
100
AcDbEntity
  8
SEIHIN
  6
CONTINUOUS
 62
     3
100
AcDbCircle
 10
485.0237679974639
 20
269.4880064842837
 30
0.0
 40
2.0
100
AcDbArc
 50
180.0
 51
270.0
  0
ARC
  5
711
330
1A
100
AcDbEntity
  8
SEIHIN
  6
CONTINUOUS
 62
     3
100
AcDbCircle
 10
479.0237679974638
 20
269.4880064842837
 30
0.0
 40
2.0
100
AcDbArc
 50
270.0
 51
0.0
  0
ARC
  5
712
330
1A
100
AcDbEntity
  8
SEIHIN
  6
CONTINUOUS
 62
     3
100
AcDbCircle
 10
485.0237679974639
 20
263.4880064842837
 30
0.0
 40
2.0
100
AcDbArc
 50
90.0
 51
180.0
  0
LINE
  5
713
330
1A
100
AcDbEntity
  8
SEIHIN
  6
CONTINUOUS
 62
     3
100
AcDbLine
 10
483.0237679974638
 20
249.4880064842837
 30
0.0
 11
483.0237679974638
 21
263.4880064842837
 31
0.0
  0
LINE
  5
714
330
1A
100
AcDbEntity
  8
SEIHIN
  6
CONTINUOUS
 62
     3
100
AcDbLine
 10
481.0237679974639
 20
249.4880064842837
 30
0.0
 11
481.0237679974639
 21
263.4880064842837
 31
0.0
  0
LINE
  5
715
330
1A
100
AcDbEntity
  8
SEIHIN
  6
CONTINUOUS
 62
     3
100
AcDbLine
 10
479.0237679974638
 20
247.4880064842837
 30
0.0
 11
472.0237679974639
 21
247.4880064842837
 31
0.0
  0
LINE
  5
716
330
1A
100
AcDbEntity
  8
SEIHIN
  6
CONTINUOUS
 62
     3
100
AcDbLine
 10
472.0237679974639
 20
265.4880064842837
 30
0.0
 11
479.0237679974638
 21
265.4880064842837
 31
0.0
  0
LINE
  5
717
330
1A
100
AcDbEntity
  8
SEIHIN
  6
CONTINUOUS
 62
     3
100
AcDbLine
 10
472.0237679974639
 20
267.4880064842837
 30
0.0
 11
479.0237679974638
 21
267.4880064842837
 31
0.0
  0
ARC
  5
718
330
1A
100
AcDbEntity
  8
SEIHIN
  6
CONTINUOUS
 62
     3
100
AcDbCircle
 10
479.0237679974638
 20
263.4880064842837
 30
0.0
 40
2.0
100
AcDbArc
 50
0.0
 51
90.0
  0
LINE
  5
719
330
1A
100
AcDbEntity
  8
SEIHIN
  6
CONTINUOUS
 62
     3
100
AcDbLine
 10
499.732567997464
 20
247.4880064842837
 30
0.0
 11
492.0237679974639
 21
247.4880064842837
 31
0.0
  0
LINE
  5
71A
330
1A
100
AcDbEntity
  8
SEIHIN
  6
CONTINUOUS
 62
     3
100
AcDbLine
 10
485.0237679974639
 20
247.4880064842837
 30
0.0
 11
492.0237679974639
 21
247.4880064842837
 31
0.0
  0
LINE
  5
71B
330
1A
100
AcDbEntity
  8
SEIHIN
  6
CONTINUOUS
 62
     3
100
AcDbLine
 10
492.0237679974639
 20
265.4880064842837
 30
0.0
 11
499.0237679974638
 21
265.4880064842837
 31
0.0
  0
LINE
  5
71C
330
1A
100
AcDbEntity
  8
SEIHIN
  6
CONTINUOUS
 62
     3
100
AcDbLine
 10
492.0237679974639
 20
267.4880064842837
 30
0.0
 11
499.0237679974638
 21
267.4880064842837
 31
0.0
  0
LINE
  5
71D
330
1A
100
AcDbEntity
  8
SEIHIN
  6
CONTINUOUS
 62
     3
100
AcDbLine
 10
492.0237679974639
 20
265.4880064842837
 30
0.0
 11
485.0237679974639
 21
265.4880064842837
 31
0.0
  0
LINE
  5
71E
330
1A
100
AcDbEntity
  8
SEIHIN
  6
CONTINUOUS
 62
     3
100
AcDbLine
 10
492.0237679974639
 20
267.4880064842837
 30
0.0
 11
485.0237679974639
 21
267.4880064842837
 31
0.0
  0
ARC
  5
71F
330
1A
100
AcDbEntity
  8
SEIHIN
  6
CONTINUOUS
 62
     3
100
AcDbCircle
 10
485.0237679974639
 20
283.4880064842837
 30
0.0
 40
2.0
100
AcDbArc
 50
90.0
 51
180.0
  0
ARC
  5
720
330
1A
100
AcDbEntity
  8
SEIHIN
  6
CONTINUOUS
 62
     3
100
AcDbCircle
 10
485.0237679974639
 20
289.4880064842837
 30
0.0
 40
2.0
100
AcDbArc
 50
180.0
 51
270.0
  0
LINE
  5
721
330
1A
100
AcDbEntity
  8
SEIHIN
  6
CONTINUOUS
 62
     3
100
AcDbLine
 10
483.0237679974638
 20
283.4880064842837
 30
0.0
 11
483.0237679974638
 21
269.4880064842837
 31
0.0
  0
LINE
  5
722
330
1A
100
AcDbEntity
  8
SEIHIN
  6
CONTINUOUS
 62
     3
100
AcDbLine
 10
481.0237679974639
 20
283.4880064842837
 30
0.0
 11
481.0237679974639
 21
269.4880064842837
 31
0.0
  0
LINE
  5
723
330
1A
100
AcDbEntity
  8
SEIHIN
  6
CONTINUOUS
 62
     3
100
AcDbLine
 10
479.0237679974638
 20
285.4880064842837
 30
0.0
 11
472.0237679974639
 21
285.4880064842837
 31
0.0
  0
LINE
  5
724
330
1A
100
AcDbEntity
  8
SEIHIN
  6
CONTINUOUS
 62
     3
100
AcDbLine
 10
479.0237679974638
 20
287.4880064842837
 30
0.0
 11
472.0237679974639
 21
287.4880064842837
 31
0.0
  0
ARC
  5
725
330
1A
100
AcDbEntity
  8
SEIHIN
  6
CONTINUOUS
 62
     3
100
AcDbCircle
 10
479.0237679974638
 20
283.4880064842837
 30
0.0
 40
2.0
100
AcDbArc
 50
0.0
 51
90.0
  0
ARC
  5
726
330
1A
100
AcDbEntity
  8
SEIHIN
  6
CONTINUOUS
 62
     3
100
AcDbCircle
 10
479.0237679974638
 20
289.4880064842837
 30
0.0
 40
2.0
100
AcDbArc
 50
270.0
 51
0.0
  0
LINE
  5
727
330
1A
100
AcDbEntity
  8
SEIHIN
  6
CONTINUOUS
 62
     3
100
AcDbLine
 10
499.732567997464
 20
285.4880064842837
 30
0.0
 11
492.0237679974639
 21
285.4880064842837
 31
0.0
  0
LINE
  5
728
330
1A
100
AcDbEntity
  8
SEIHIN
  6
CONTINUOUS
 62
     3
100
AcDbLine
 10
499.732567997464
 20
287.4880064842837
 30
0.0
 11
492.0237679974639
 21
287.4880064842837
 31
0.0
  0
LINE
  5
729
330
1A
100
AcDbEntity
  8
SEIHIN
  6
CONTINUOUS
 62
     3
100
AcDbLine
 10
485.0237679974639
 20
285.4880064842837
 30
0.0
 11
492.0237679974639
 21
285.4880064842837
 31
0.0
  0
LINE
  5
72A
330
1A
100
AcDbEntity
  8
SEIHIN
  6
CONTINUOUS
 62
     3
100
AcDbLine
 10
485.0237679974639
 20
287.4880064842837
 30
0.0
 11
492.0237679974639
 21
287.4880064842837
 31
0.0
  0
LINE
  5
72C
330
1A
100
AcDbEntity
  8
SEIHIN
  6
CONTINUOUS
 62
     3
100
AcDbLine
 10
504.0236679974639
 20
126.3698064842837
 30
0.0
 11
504.0236679974639
 21
139.3698064842837
 31
0.0
  0
LINE
  5
72D
330
1A
100
AcDbEntity
  8
SEIHIN
  6
CONTINUOUS
 62
     3
100
AcDbLine
 10
523.0236679974638
 20
139.3697064842837
 30
0.0
 11
523.0236679974638
 21
126.3698064842837
 31
0.0
  0
LINE
  5
72E
330
1A
100
AcDbEntity
  8
SEIHIN
  6
CONTINUOUS
 62
     3
100
AcDbLine
 10
505.3796679974639
 20
227.0927064842837
 30
0.0
 11
522.5401679974639
 21
263.2198064842837
 31
0.0
  0
ARC
  5
72F
330
1A
100
AcDbEntity
  8
SEIHIN
  6
CONTINUOUS
 62
     3
100
AcDbCircle
 10
500.8633108659219
 20
229.2379703730225
 30
0.0
 40
4.999963889065194
100
AcDbArc
 50
270.000654683975
 51
334.5923413955683
  0
LINE
  5
730
330
1A
100
AcDbEntity
  8
SEIHIN
  6
CONTINUOUS
 62
     3
100
AcDbLine
 10
510.5457679974638
 20
242.6299064842837
 30
0.0
 11
503.9754679974639
 21
228.7977064842837
 31
0.0
  0
LINE
  5
731
330
1A
100
AcDbEntity
  8
SEIHIN
  6
CONTINUOUS
 62
     3
100
AcDbLine
 10
503.0237679974638
 20
244.1967064842836
 30
0.0
 11
503.0237679974638
 21
229.0122064842837
 31
0.0
  0
LINE
  5
732
330
1A
100
AcDbEntity
  8
SEIHIN
  6
CONTINUOUS
 62
     3
100
AcDbLine
 10
501.0237679974639
 20
244.1967064842836
 30
0.0
 11
501.0237679974639
 21
229.4880064842836
 31
0.0
  0
ARC
  5
733
330
1A
100
AcDbEntity
  8
SEIHIN
  6
CONTINUOUS
 62
     3
100
AcDbCircle
 10
503.5237895665334
 20
229.0122016231344
 30
0.0
 40
0.5000215690931612
100
AcDbArc
 50
179.9994429773585
 51
334.5976760636833
  0
LINE
  5
734
330
1A
100
AcDbEntity
  8
SEIHIN
  6
CONTINUOUS
 62
     3
100
AcDbLine
 10
504.3150679974639
 20
245.4880064842837
 30
0.0
 11
508.7391679974636
 21
245.4880064842837
 31
0.0
  0
ARC
  5
735
330
1A
100
AcDbEntity
  8
SEIHIN
  6
CONTINUOUS
 62
     3
100
AcDbCircle
 10
502.0237679974639
 20
246.4880064842836
 30
0.0
 40
2.500011137975185
100
AcDbArc
 50
293.5780670725835
 51
336.421932927421
  0
ARC
  5
736
330
1A
100
AcDbEntity
  8
SEIHIN
  6
CONTINUOUS
 62
     3
100
AcDbCircle
 10
508.7391925524769
 20
243.4879676350382
 30
0.0
 40
2.000038849396234
100
AcDbArc
 50
334.5913033874154
 51
90.00070343564626
  0
ARC
  5
737
330
1A
100
AcDbEntity
  8
SEIHIN
  6
CONTINUOUS
 62
     3
100
AcDbCircle
 10
505.0237679974639
 20
269.4880064842836
 30
0.0
 40
1.999999999999914
100
AcDbArc
 50
179.9999999999975
 51
269.9999999999975
  0
ARC
  5
738
330
1A
100
AcDbEntity
  8
SEIHIN
  6
CONTINUOUS
 62
     3
100
AcDbCircle
 10
519.0237679974639
 20
269.4880064842836
 30
0.0
 40
1.999999999999914
100
AcDbArc
 50
270.0000000000032
 51
0.0000000000024427
  0
LINE
  5
739
330
1A
100
AcDbEntity
  8
SEIHIN
  6
CONTINUOUS
 62
     3
100
AcDbLine
 10
512.0237679974638
 20
265.4880064842837
 30
0.0
 11
519.0302679974638
 21
265.4880064842837
 31
0.0
  0
LINE
  5
73A
330
1A
100
AcDbEntity
  8
SEIHIN
  6
CONTINUOUS
 62
     3
100
AcDbLine
 10
520.3851679974639
 20
263.3444064842836
 30
0.0
 11
513.3957679974637
 21
248.6299064842837
 31
0.0
  0
LINE
  5
73B
330
1A
100
AcDbEntity
  8
SEIHIN
  6
CONTINUOUS
 62
     3
100
AcDbLine
 10
512.0237679974638
 20
267.4880064842837
 30
0.0
 11
519.0237679974639
 21
267.4880064842837
 31
0.0
  0
LINE
  5
73C
330
1A
100
AcDbEntity
  8
SEIHIN
  6
CONTINUOUS
 62
     3
100
AcDbLine
 10
503.0237679974638
 20
248.7793064842837
 30
0.0
 11
503.0237679974638
 21
263.4880064842837
 31
0.0
  0
LINE
  5
73D
330
1A
100
AcDbEntity
  8
SEIHIN
  6
CONTINUOUS
 62
     3
100
AcDbLine
 10
501.0237679974639
 20
248.7793064842837
 30
0.0
 11
501.0237679974639
 21
263.4880064842837
 31
0.0
  0
LINE
  5
73E
330
1A
100
AcDbEntity
  8
SEIHIN
  6
CONTINUOUS
 62
     3
100
AcDbLine
 10
504.3150679974639
 20
247.4880064842837
 30
0.0
 11
511.589167997464
 21
247.4880064842837
 31
0.0
  0
ARC
  5
73F
330
1A
100
AcDbEntity
  8
SEIHIN
  6
CONTINUOUS
 62
     3
100
AcDbCircle
 10
502.0237679974639
 20
246.4880064842837
 30
0.0
 40
2.500011137975143
100
AcDbArc
 50
23.57806707258002
 51
66.4219329274174
  0
ARC
  5
740
330
1A
100
AcDbEntity
  8
SEIHIN
  6
CONTINUOUS
 62
     3
100
AcDbCircle
 10
511.5892294620557
 20
249.4880453335288
 30
0.0
 40
2.000038850189585
100
AcDbArc
 50
269.998239203352
 51
334.5888391551201
  0
LINE
  5
741
330
1A
100
AcDbEntity
  8
SEIHIN
  6
CONTINUOUS
 62
     3
100
AcDbLine
 10
512.0237679974638
 20
265.4880064842837
 30
0.0
 11
505.0237679974639
 21
265.4880064842837
 31
0.0
  0
LINE
  5
742
330
1A
100
AcDbEntity
  8
SEIHIN
  6
CONTINUOUS
 62
     3
100
AcDbLine
 10
512.0237679974638
 20
267.4880064842837
 30
0.0
 11
505.0237679974639
 21
267.4880064842837
 31
0.0
  0
ARC
  5
743
330
1A
100
AcDbEntity
  8
SEIHIN
  6
CONTINUOUS
 62
     3
100
AcDbCircle
 10
505.0237679974639
 20
263.4880064842838
 30
0.0
 40
1.999999999999914
100
AcDbArc
 50
90.00000000000245
 51
180.0000000000024
  0
ARC
  5
744
330
1A
100
AcDbEntity
  8
SEIHIN
  6
CONTINUOUS
 62
     3
100
AcDbCircle
 10
518.0237589449795
 20
265.3650663280266
 30
0.0
 40
5.000009052645725
100
AcDbArc
 50
334.5926385394355
 51
0.000460155977901
  0
ARC
  5
745
330
1A
100
AcDbEntity
  8
SEIHIN
  6
CONTINUOUS
 62
     3
100
AcDbCircle
 10
519.0302653606709
 20
263.9880106559619
 30
0.0
 40
1.499995828324141
100
AcDbArc
 50
334.5914048585644
 51
89.99989928165287
  0
LINE
  5
746
330
1A
100
AcDbEntity
  8
SEIHIN
  6
CONTINUOUS
 62
     3
100
AcDbLine
 10
519.0237679974639
 20
285.4880064842837
 30
0.0
 11
512.0237679974638
 21
285.4880064842837
 31
0.0
  0
LINE
  5
747
330
1A
100
AcDbEntity
  8
SEIHIN
  6
CONTINUOUS
 62
     3
100
AcDbLine
 10
519.0237679974639
 20
287.4880064842837
 30
0.0
 11
512.0237679974638
 21
287.4880064842837
 31
0.0
  0
LINE
  5
748
330
1A
100
AcDbEntity
  8
SEIHIN
  6
CONTINUOUS
 62
     3
100
AcDbLine
 10
503.0237679974638
 20
284.1967064842836
 30
0.0
 11
503.0237679974638
 21
269.4880064842837
 31
0.0
  0
LINE
  5
749
330
1A
100
AcDbEntity
  8
SEIHIN
  6
CONTINUOUS
 62
     3
100
AcDbLine
 10
501.0237679974639
 20
284.1967064842836
 30
0.0
 11
501.0237679974639
 21
269.4880064842837
 31
0.0
  0
LINE
  5
74A
330
1A
100
AcDbEntity
  8
SEIHIN
  6
CONTINUOUS
 62
     3
100
AcDbLine
 10
504.3150679974639
 20
285.4880064842837
 30
0.0
 11
512.0237679974638
 21
285.4880064842837
 31
0.0
  0
LINE
  5
74B
330
1A
100
AcDbEntity
  8
SEIHIN
  6
CONTINUOUS
 62
     3
100
AcDbLine
 10
504.3150679974639
 20
287.4880064842837
 30
0.0
 11
512.0237679974638
 21
287.4880064842837
 31
0.0
  0
ARC
  5
74C
330
1A
100
AcDbEntity
  8
SEIHIN
  6
CONTINUOUS
 62
     3
100
AcDbCircle
 10
502.0237679974639
 20
286.4880064842836
 30
0.0
 40
2.500011137975199
100
AcDbArc
 50
293.578067072584
 51
336.4219329274218
  0
ARC
  5
74D
330
1A
100
AcDbEntity
  8
SEIHIN
  6
CONTINUOUS
 62
     3
100
AcDbCircle
 10
502.023767997464
 20
286.4880064842838
 30
0.0
 40
2.500011137975101
100
AcDbArc
 50
23.57806707258105
 51
66.42193292741857
  0
LINE
  5
74E
330
1A
100
AcDbEntity
  8
SEIHIN
  6
CONTINUOUS
 62
     3
100
AcDbLine
 10
521.0237679974638
 20
283.4880064842837
 30
0.0
 11
521.0237679974638
 21
269.4880064842837
 31
0.0
  0
ARC
  5
74F
330
1A
100
AcDbEntity
  8
SEIHIN
  6
CONTINUOUS
 62
     3
100
AcDbCircle
 10
519.0237679974639
 20
283.4880064842838
 30
0.0
 40
1.999999999999943
100
AcDbArc
 50
359.9999999999975
 51
89.99999999999674
  0
ARC
  5
750
330
1A
100
AcDbEntity
  8
SEIHIN
  6
CONTINUOUS
 62
     3
100
AcDbCircle
 10
519.0237679974639
 20
289.4880064842837
 30
0.0
 40
1.999999999999914
100
AcDbArc
 50
270.0000000000032
 51
0.0000000000024427
  0
ARC
  5
751
330
1A
100
AcDbEntity
  8
SEIHIN
  6
CONTINUOUS
 62
     3
100
AcDbCircle
 10
499.0237679974638
 20
303.4880064842837
 30
0.0
 40
2.0
100
AcDbArc
 50
0.0
 51
90.0
  0
ARC
  5
752
330
1A
100
AcDbEntity
  8
SEIHIN
  6
CONTINUOUS
 62
     3
100
AcDbCircle
 10
502.0238567203423
 20
326.487917762825
 30
0.0
 40
2.499965315068029
100
AcDbArc
 50
203.5763068347117
 51
246.419255931637
  0
ARC
  5
753
330
1A
100
AcDbEntity
  8
SEIHIN
  6
CONTINUOUS
 62
     3
100
AcDbCircle
 10
499.0237679974638
 20
309.4880064842837
 30
0.0
 40
2.0
100
AcDbArc
 50
270.0
 51
0.0
  0
ARC
  5
754
330
1A
100
AcDbEntity
  8
SEIHIN
  6
CONTINUOUS
 62
     3
100
AcDbCircle
 10
502.0238567203421
 20
326.4880952057424
 30
0.0
 40
2.499965315067984
100
AcDbArc
 50
113.5807440683618
 51
156.4236931652868
  0
ARC
  5
755
330
1A
100
AcDbEntity
  8
SEIHIN
  6
CONTINUOUS
 62
     3
100
AcDbCircle
 10
499.0237679974638
 20
343.4880064842837
 30
0.0
 40
2.0
100
AcDbArc
 50
0.0
 51
90.0
  0
ARC
  5
756
330
1A
100
AcDbEntity
  8
SEIHIN
  6
CONTINUOUS
 62
     3
100
AcDbCircle
 10
502.0238567203423
 20
366.487917762825
 30
0.0
 40
2.499965315068029
100
AcDbArc
 50
203.5763068347117
 51
246.419255931637
  0
ARC
  5
757
330
1A
100
AcDbEntity
  8
SEIHIN
  6
CONTINUOUS
 62
     3
100
AcDbCircle
 10
499.0237679974638
 20
349.4880064842837
 30
0.0
 40
2.0
100
AcDbArc
 50
270.0
 51
0.0
  0
ARC
  5
758
330
1A
100
AcDbEntity
  8
SEIHIN
  6
CONTINUOUS
 62
     3
100
AcDbCircle
 10
499.0237679974638
 20
383.4880064842837
 30
0.0
 40
2.0
100
AcDbArc
 50
0.0
 51
90.0
  0
ARC
  5
759
330
1A
100
AcDbEntity
  8
SEIHIN
  6
CONTINUOUS
 62
     3
100
AcDbCircle
 10
502.0238567203421
 20
366.4880952057424
 30
0.0
 40
2.499965315067984
100
AcDbArc
 50
113.5807440683618
 51
156.4236931652868
  0
LINE
  5
75A
330
1A
100
AcDbEntity
  8
SEIHIN
  6
CONTINUOUS
 62
     3
100
AcDbLine
 10
412.0237679974639
 20
388.7380064842837
 30
0.0
 11
518.0237679974639
 21
388.7380064842837
 31
0.0
  0
LINE
  5
75B
330
1A
100
AcDbEntity
  8
SEIHIN
  6
CONTINUOUS
 62
     3
100
AcDbLine
 10
381.0237679974639
 20
368.7793064842837
 30
0.0
 11
381.0237679974639
 21
383.4880064842837
 31
0.0
  0
LINE
  5
75C
330
1A
100
AcDbEntity
  8
SEIHIN
  6
CONTINUOUS
 62
     3
100
AcDbLine
 10
383.0237679974639
 20
368.7793064842837
 30
0.0
 11
383.0237679974639
 21
383.4880064842837
 31
0.0
  0
LINE
  5
75D
330
1A
100
AcDbEntity
  8
SEIHIN
  6
CONTINUOUS
 62
     3
100
AcDbLine
 10
401.0237679974639
 20
369.4880064842837
 30
0.0
 11
401.0237679974639
 21
383.4880064842837
 31
0.0
  0
LINE
  5
75E
330
1A
100
AcDbEntity
  8
SEIHIN
  6
CONTINUOUS
 62
     3
100
AcDbLine
 10
403.0237679974639
 20
369.4880064842837
 30
0.0
 11
403.0237679974639
 21
383.4880064842837
 31
0.0
  0
LINE
  5
75F
330
1A
100
AcDbEntity
  8
SEIHIN
  6
CONTINUOUS
 62
     3
100
AcDbLine
 10
483.0237679974638
 20
369.4880064842837
 30
0.0
 11
483.0237679974638
 21
383.4880064842837
 31
0.0
  0
LINE
  5
760
330
1A
100
AcDbEntity
  8
SEIHIN
  6
CONTINUOUS
 62
     3
100
AcDbLine
 10
463.0237679974637
 20
369.4880064842837
 30
0.0
 11
463.0237679974637
 21
383.4880064842837
 31
0.0
  0
LINE
  5
761
330
1A
100
AcDbEntity
  8
SEIHIN
  6
CONTINUOUS
 62
     3
100
AcDbLine
 10
481.0237679974639
 20
369.4880064842837
 30
0.0
 11
481.0237679974639
 21
383.4880064842837
 31
0.0
  0
LINE
  5
762
330
1A
100
AcDbEntity
  8
SEIHIN
  6
CONTINUOUS
 62
     3
100
AcDbLine
 10
443.0237679974639
 20
368.7793064842837
 30
0.0
 11
443.0237679974639
 21
383.4880064842837
 31
0.0
  0
LINE
  5
763
330
1A
100
AcDbEntity
  8
SEIHIN
  6
CONTINUOUS
 62
     3
100
AcDbLine
 10
461.0237679974639
 20
369.4880064842837
 30
0.0
 11
461.0237679974639
 21
383.4880064842837
 31
0.0
  0
LINE
  5
764
330
1A
100
AcDbEntity
  8
SEIHIN
  6
CONTINUOUS
 62
     3
100
AcDbLine
 10
423.0237679974639
 20
369.4880064842837
 30
0.0
 11
423.0237679974639
 21
383.4880064842837
 31
0.0
  0
LINE
  5
765
330
1A
100
AcDbEntity
  8
SEIHIN
  6
CONTINUOUS
 62
     3
100
AcDbLine
 10
441.0237679974639
 20
368.7793064842837
 30
0.0
 11
441.0237679974639
 21
383.4880064842837
 31
0.0
  0
LINE
  5
766
330
1A
100
AcDbEntity
  8
SEIHIN
  6
CONTINUOUS
 62
     3
100
AcDbLine
 10
421.0237679974637
 20
369.4880064842837
 30
0.0
 11
421.0237679974637
 21
383.4880064842837
 31
0.0
  0
LINE
  5
767
330
1A
100
AcDbEntity
  8
SEIHIN
  6
CONTINUOUS
 62
     3
100
AcDbLine
 10
432.0237679974639
 20
305.4880064842837
 30
0.0
 11
439.0237679974639
 21
305.4880064842837
 31
0.0
  0
LINE
  5
768
330
1A
100
AcDbEntity
  8
SEIHIN
  6
CONTINUOUS
 62
     3
100
AcDbLine
 10
439.7325679974639
 20
325.4880064842837
 30
0.0
 11
432.0237679974639
 21
325.4880064842837
 31
0.0
  0
LINE
  5
769
330
1A
100
AcDbEntity
  8
SEIHIN
  6
CONTINUOUS
 62
     3
100
AcDbLine
 10
432.0237679974639
 20
307.4880064842837
 30
0.0
 11
439.0237679974639
 21
307.4880064842837
 31
0.0
  0
LINE
  5
76A
330
1A
100
AcDbEntity
  8
SEIHIN
  6
CONTINUOUS
 62
     3
100
AcDbLine
 10
439.7325679974639
 20
327.4880064842837
 30
0.0
 11
432.0237679974639
 21
327.4880064842837
 31
0.0
  0
LINE
  5
76B
330
1A
100
AcDbEntity
  8
SEIHIN
  6
CONTINUOUS
 62
     3
100
AcDbLine
 10
432.0237679974639
 20
345.4880064842837
 30
0.0
 11
439.0237679974639
 21
345.4880064842837
 31
0.0
  0
LINE
  5
76C
330
1A
100
AcDbEntity
  8
SEIHIN
  6
CONTINUOUS
 62
     3
100
AcDbLine
 10
439.7325679974639
 20
365.4880064842837
 30
0.0
 11
432.0237679974639
 21
365.4880064842837
 31
0.0
  0
LINE
  5
76D
330
1A
100
AcDbEntity
  8
SEIHIN
  6
CONTINUOUS
 62
     3
100
AcDbLine
 10
432.0237679974639
 20
347.4880064842837
 30
0.0
 11
439.0237679974639
 21
347.4880064842837
 31
0.0
  0
LINE
  5
76E
330
1A
100
AcDbEntity
  8
SEIHIN
  6
CONTINUOUS
 62
     3
100
AcDbLine
 10
439.7325679974639
 20
367.4880064842837
 30
0.0
 11
432.0237679974639
 21
367.4880064842837
 31
0.0
  0
LINE
  5
76F
330
1A
100
AcDbEntity
  8
SEIHIN
  6
CONTINUOUS
 62
     3
100
AcDbLine
 10
381.0237679974639
 20
328.7793064842837
 30
0.0
 11
381.0237679974639
 21
343.4880064842837
 31
0.0
  0
LINE
  5
770
330
1A
100
AcDbEntity
  8
SEIHIN
  6
CONTINUOUS
 62
     3
100
AcDbLine
 10
383.0237679974639
 20
328.7793064842837
 30
0.0
 11
383.0237679974639
 21
343.4880064842837
 31
0.0
  0
LINE
  5
771
330
1A
100
AcDbEntity
  8
SEIHIN
  6
CONTINUOUS
 62
     3
100
AcDbLine
 10
401.0237679974639
 20
329.4880064842837
 30
0.0
 11
401.0237679974639
 21
343.4880064842837
 31
0.0
  0
LINE
  5
772
330
1A
100
AcDbEntity
  8
SEIHIN
  6
CONTINUOUS
 62
     3
100
AcDbLine
 10
403.0237679974639
 20
329.4880064842837
 30
0.0
 11
403.0237679974639
 21
343.4880064842837
 31
0.0
  0
LINE
  5
773
330
1A
100
AcDbEntity
  8
SEIHIN
  6
CONTINUOUS
 62
     3
100
AcDbLine
 10
423.0237679974639
 20
329.4880064842837
 30
0.0
 11
423.0237679974639
 21
343.4880064842837
 31
0.0
  0
LINE
  5
774
330
1A
100
AcDbEntity
  8
SEIHIN
  6
CONTINUOUS
 62
     3
100
AcDbLine
 10
421.0237679974637
 20
329.4880064842837
 30
0.0
 11
421.0237679974637
 21
343.4880064842837
 31
0.0
  0
LINE
  5
775
330
1A
100
AcDbEntity
  8
SEIHIN
  6
CONTINUOUS
 62
     3
100
AcDbLine
 10
412.0237679974639
 20
305.4880064842837
 30
0.0
 11
405.0237679974639
 21
305.4880064842837
 31
0.0
  0
LINE
  5
776
330
1A
100
AcDbEntity
  8
SEIHIN
  6
CONTINUOUS
 62
     3
100
AcDbLine
 10
405.0237679974639
 20
325.4880064842837
 30
0.0
 11
412.0237679974639
 21
325.4880064842837
 31
0.0
  0
LINE
  5
777
330
1A
100
AcDbEntity
  8
SEIHIN
  6
CONTINUOUS
 62
     3
100
AcDbLine
 10
412.0237679974639
 20
307.4880064842837
 30
0.0
 11
405.0237679974639
 21
307.4880064842837
 31
0.0
  0
LINE
  5
778
330
1A
100
AcDbEntity
  8
SEIHIN
  6
CONTINUOUS
 62
     3
100
AcDbLine
 10
405.0237679974639
 20
327.4880064842837
 30
0.0
 11
412.0237679974639
 21
327.4880064842837
 31
0.0
  0
LINE
  5
779
330
1A
100
AcDbEntity
  8
SEIHIN
  6
CONTINUOUS
 62
     3
100
AcDbLine
 10
381.0237679974639
 20
324.1967064842837
 30
0.0
 11
381.0237679974639
 21
309.4880064842837
 31
0.0
  0
LINE
  5
77A
330
1A
100
AcDbEntity
  8
SEIHIN
  6
CONTINUOUS
 62
     3
100
AcDbLine
 10
383.0237679974639
 20
324.1967064842837
 30
0.0
 11
383.0237679974639
 21
309.4880064842837
 31
0.0
  0
LINE
  5
77B
330
1A
100
AcDbEntity
  8
SEIHIN
  6
CONTINUOUS
 62
     3
100
AcDbLine
 10
401.0237679974639
 20
323.4880064842837
 30
0.0
 11
401.0237679974639
 21
309.4880064842837
 31
0.0
  0
LINE
  5
77C
330
1A
100
AcDbEntity
  8
SEIHIN
  6
CONTINUOUS
 62
     3
100
AcDbLine
 10
403.0237679974639
 20
323.4880064842837
 30
0.0
 11
403.0237679974639
 21
309.4880064842837
 31
0.0
  0
LINE
  5
77D
330
1A
100
AcDbEntity
  8
SEIHIN
  6
CONTINUOUS
 62
     3
100
AcDbLine
 10
392.0237679974639
 20
305.4880064842837
 30
0.0
 11
385.0237679974639
 21
305.4880064842837
 31
0.0
  0
LINE
  5
77E
330
1A
100
AcDbEntity
  8
SEIHIN
  6
CONTINUOUS
 62
     3
100
AcDbLine
 10
392.0237679974639
 20
307.4880064842837
 30
0.0
 11
385.0237679974639
 21
307.4880064842837
 31
0.0
  0
ARC
  5
77F
330
1A
100
AcDbEntity
  8
SEIHIN
  6
CONTINUOUS
 62
     3
100
AcDbCircle
 10
385.0237679974639
 20
303.4880064842837
 30
0.0
 40
2.0
100
AcDbArc
 50
90.0
 51
180.0
  0
ARC
  5
780
330
1A
100
AcDbEntity
  8
SEIHIN
  6
CONTINUOUS
 62
     3
100
AcDbCircle
 10
385.0237679974639
 20
309.4880064842837
 30
0.0
 40
2.0
100
AcDbArc
 50
180.0
 51
270.0
  0
ARC
  5
781
330
1A
100
AcDbEntity
  8
SEIHIN
  6
CONTINUOUS
 62
     3
100
AcDbCircle
 10
379.0237679974639
 20
303.4880064842837
 30
0.0
 40
2.0
100
AcDbArc
 50
0.0
 51
90.0
  0
ARC
  5
782
330
1A
100
AcDbEntity
  8
SEIHIN
  6
CONTINUOUS
 62
     3
100
AcDbCircle
 10
379.0237679974639
 20
309.4880064842837
 30
0.0
 40
2.0
100
AcDbArc
 50
270.0
 51
0.0
  0
LINE
  5
783
330
1A
100
AcDbEntity
  8
SEIHIN
  6
CONTINUOUS
 62
     3
100
AcDbLine
 10
392.0237679974639
 20
305.4880064842837
 30
0.0
 11
399.0237679974639
 21
305.4880064842837
 31
0.0
  0
LINE
  5
784
330
1A
100
AcDbEntity
  8
SEIHIN
  6
CONTINUOUS
 62
     3
100
AcDbLine
 10
392.0237679974639
 20
307.4880064842837
 30
0.0
 11
399.0237679974639
 21
307.4880064842837
 31
0.0
  0
ARC
  5
785
330
1A
100
AcDbEntity
  8
SEIHIN
  6
CONTINUOUS
 62
     3
100
AcDbCircle
 10
399.0237679974639
 20
303.4880064842837
 30
0.0
 40
2.0
100
AcDbArc
 50
0.0
 51
90.0
  0
ARC
  5
786
330
1A
100
AcDbEntity
  8
SEIHIN
  6
CONTINUOUS
 62
     3
100
AcDbCircle
 10
405.0237679974639
 20
303.4880064842837
 30
0.0
 40
2.0
100
AcDbArc
 50
90.0
 51
180.0
  0
ARC
  5
787
330
1A
100
AcDbEntity
  8
SEIHIN
  6
CONTINUOUS
 62
     3
100
AcDbCircle
 10
399.0237679974639
 20
309.4880064842837
 30
0.0
 40
2.0
100
AcDbArc
 50
270.0
 51
0.0
  0
ARC
  5
788
330
1A
100
AcDbEntity
  8
SEIHIN
  6
CONTINUOUS
 62
     3
100
AcDbCircle
 10
405.0237679974639
 20
309.4880064842837
 30
0.0
 40
2.0
100
AcDbArc
 50
180.0
 51
270.0
  0
LINE
  5
789
330
1A
100
AcDbEntity
  8
SEIHIN
  6
CONTINUOUS
 62
     3
100
AcDbLine
 10
384.3150679974637
 20
325.4880064842837
 30
0.0
 11
392.0237679974639
 21
325.4880064842837
 31
0.0
  0
LINE
  5
78A
330
1A
100
AcDbEntity
  8
SEIHIN
  6
CONTINUOUS
 62
     3
100
AcDbLine
 10
384.3150679974637
 20
327.4880064842837
 30
0.0
 11
392.0237679974639
 21
327.4880064842837
 31
0.0
  0
ARC
  5
78B
330
1A
100
AcDbEntity
  8
SEIHIN
  6
CONTINUOUS
 62
     3
100
AcDbCircle
 10
382.0238567203422
 20
326.487917762825
 30
0.0
 40
2.499965315068029
100
AcDbArc
 50
203.5763068347117
 51
246.419255931637
  0
ARC
  5
78C
330
1A
100
AcDbEntity
  8
SEIHIN
  6
CONTINUOUS
 62
     3
100
AcDbCircle
 10
382.0237679974638
 20
326.4880064842834
 30
0.0
 40
2.50001113797498
100
AcDbArc
 50
293.5780670725869
 51
336.4219329274246
  0
ARC
  5
78D
330
1A
100
AcDbEntity
  8
SEIHIN
  6
CONTINUOUS
 62
     3
100
AcDbCircle
 10
382.0238567203421
 20
326.4880952057424
 30
0.0
 40
2.499965315067984
100
AcDbArc
 50
113.5807440683618
 51
156.4236931652868
  0
ARC
  5
78E
330
1A
100
AcDbEntity
  8
SEIHIN
  6
CONTINUOUS
 62
     3
100
AcDbCircle
 10
382.0237679974638
 20
326.488006484284
 30
0.0
 40
2.500011137974962
100
AcDbArc
 50
23.57806707257702
 51
66.42193292741419
  0
ARC
  5
78F
330
1A
100
AcDbEntity
  8
SEIHIN
  6
CONTINUOUS
 62
     3
100
AcDbCircle
 10
399.0237679974639
 20
323.4880064842837
 30
0.0
 40
2.0
100
AcDbArc
 50
0.0
 51
90.0
  0
ARC
  5
790
330
1A
100
AcDbEntity
  8
SEIHIN
  6
CONTINUOUS
 62
     3
100
AcDbCircle
 10
405.0237679974639
 20
323.4880064842837
 30
0.0
 40
2.0
100
AcDbArc
 50
90.0
 51
180.0
  0
LINE
  5
791
330
1A
100
AcDbEntity
  8
SEIHIN
  6
CONTINUOUS
 62
     3
100
AcDbLine
 10
399.0237679974639
 20
325.4880064842837
 30
0.0
 11
392.0237679974639
 21
325.4880064842837
 31
0.0
  0
LINE
  5
792
330
1A
100
AcDbEntity
  8
SEIHIN
  6
CONTINUOUS
 62
     3
100
AcDbLine
 10
399.0237679974639
 20
327.4880064842837
 30
0.0
 11
392.0237679974639
 21
327.4880064842837
 31
0.0
  0
ARC
  5
793
330
1A
100
AcDbEntity
  8
SEIHIN
  6
CONTINUOUS
 62
     3
100
AcDbCircle
 10
399.0237679974639
 20
329.4880064842837
 30
0.0
 40
2.0
100
AcDbArc
 50
270.0
 51
0.0
  0
ARC
  5
794
330
1A
100
AcDbEntity
  8
SEIHIN
  6
CONTINUOUS
 62
     3
100
AcDbCircle
 10
405.0237679974639
 20
329.4880064842837
 30
0.0
 40
2.0
100
AcDbArc
 50
180.0
 51
270.0
  0
LINE
  5
795
330
1A
100
AcDbEntity
  8
SEIHIN
  6
CONTINUOUS
 62
     3
100
AcDbLine
 10
423.0237679974639
 20
323.4880064842837
 30
0.0
 11
423.0237679974639
 21
309.4880064842837
 31
0.0
  0
LINE
  5
796
330
1A
100
AcDbEntity
  8
SEIHIN
  6
CONTINUOUS
 62
     3
100
AcDbLine
 10
421.0237679974637
 20
323.4880064842837
 30
0.0
 11
421.0237679974637
 21
309.4880064842837
 31
0.0
  0
LINE
  5
797
330
1A
100
AcDbEntity
  8
SEIHIN
  6
CONTINUOUS
 62
     3
100
AcDbLine
 10
412.0237679974639
 20
305.4880064842837
 30
0.0
 11
419.0237679974639
 21
305.4880064842837
 31
0.0
  0
LINE
  5
798
330
1A
100
AcDbEntity
  8
SEIHIN
  6
CONTINUOUS
 62
     3
100
AcDbLine
 10
412.0237679974639
 20
307.4880064842837
 30
0.0
 11
419.0237679974639
 21
307.4880064842837
 31
0.0
  0
ARC
  5
799
330
1A
100
AcDbEntity
  8
SEIHIN
  6
CONTINUOUS
 62
     3
100
AcDbCircle
 10
419.0237679974638
 20
303.4880064842838
 30
0.0
 40
1.999999999999914
100
AcDbArc
 50
359.9999999999975
 51
89.99999999999756
  0
ARC
  5
79A
330
1A
100
AcDbEntity
  8
SEIHIN
  6
CONTINUOUS
 62
     3
100
AcDbCircle
 10
419.0237679974638
 20
309.4880064842836
 30
0.0
 40
1.999999999999914
100
AcDbArc
 50
270.0000000000024
 51
0.0000000000024427
  0
LINE
  5
79B
330
1A
100
AcDbEntity
  8
SEIHIN
  6
CONTINUOUS
 62
     3
100
AcDbLine
 10
432.0237679974639
 20
305.4880064842837
 30
0.0
 11
425.0237679974639
 21
305.4880064842837
 31
0.0
  0
LINE
  5
79C
330
1A
100
AcDbEntity
  8
SEIHIN
  6
CONTINUOUS
 62
     3
100
AcDbLine
 10
432.0237679974639
 20
307.4880064842837
 30
0.0
 11
425.0237679974639
 21
307.4880064842837
 31
0.0
  0
ARC
  5
79D
330
1A
100
AcDbEntity
  8
SEIHIN
  6
CONTINUOUS
 62
     3
100
AcDbCircle
 10
425.0237679974639
 20
303.4880064842837
 30
0.0
 40
2.0
100
AcDbArc
 50
90.0
 51
180.0
  0
ARC
  5
79E
330
1A
100
AcDbEntity
  8
SEIHIN
  6
CONTINUOUS
 62
     3
100
AcDbCircle
 10
425.0237679974639
 20
309.4880064842837
 30
0.0
 40
2.0
100
AcDbArc
 50
180.0
 51
270.0
  0
ARC
  5
79F
330
1A
100
AcDbEntity
  8
SEIHIN
  6
CONTINUOUS
 62
     3
100
AcDbCircle
 10
419.0237679974638
 20
323.4880064842838
 30
0.0
 40
1.999999999999914
100
AcDbArc
 50
359.9999999999975
 51
89.99999999999756
  0
LINE
  5
7A0
330
1A
100
AcDbEntity
  8
SEIHIN
  6
CONTINUOUS
 62
     3
100
AcDbLine
 10
419.0237679974639
 20
325.4880064842837
 30
0.0
 11
412.0237679974639
 21
325.4880064842837
 31
0.0
  0
LINE
  5
7A1
330
1A
100
AcDbEntity
  8
SEIHIN
  6
CONTINUOUS
 62
     3
100
AcDbLine
 10
419.0237679974639
 20
327.4880064842837
 30
0.0
 11
412.0237679974639
 21
327.4880064842837
 31
0.0
  0
ARC
  5
7A2
330
1A
100
AcDbEntity
  8
SEIHIN
  6
CONTINUOUS
 62
     3
100
AcDbCircle
 10
419.0237679974638
 20
329.4880064842836
 30
0.0
 40
1.999999999999914
100
AcDbArc
 50
270.0000000000024
 51
0.0000000000024427
  0
ARC
  5
7A3
330
1A
100
AcDbEntity
  8
SEIHIN
  6
CONTINUOUS
 62
     3
100
AcDbCircle
 10
425.0237679974639
 20
323.4880064842837
 30
0.0
 40
2.0
100
AcDbArc
 50
90.0
 51
180.0
  0
LINE
  5
7A4
330
1A
100
AcDbEntity
  8
SEIHIN
  6
CONTINUOUS
 62
     3
100
AcDbLine
 10
425.0237679974639
 20
325.4880064842837
 30
0.0
 11
432.0237679974639
 21
325.4880064842837
 31
0.0
  0
LINE
  5
7A5
330
1A
100
AcDbEntity
  8
SEIHIN
  6
CONTINUOUS
 62
     3
100
AcDbLine
 10
425.0237679974639
 20
327.4880064842837
 30
0.0
 11
432.0237679974639
 21
327.4880064842837
 31
0.0
  0
ARC
  5
7A6
330
1A
100
AcDbEntity
  8
SEIHIN
  6
CONTINUOUS
 62
     3
100
AcDbCircle
 10
425.0237679974639
 20
329.4880064842837
 30
0.0
 40
2.0
100
AcDbArc
 50
180.0
 51
270.0
  0
LINE
  5
7A7
330
1A
100
AcDbEntity
  8
SEIHIN
  6
CONTINUOUS
 62
     3
100
AcDbLine
 10
412.0237679974639
 20
345.4880064842837
 30
0.0
 11
405.0237679974639
 21
345.4880064842837
 31
0.0
  0
LINE
  5
7A8
330
1A
100
AcDbEntity
  8
SEIHIN
  6
CONTINUOUS
 62
     3
100
AcDbLine
 10
405.0237679974639
 20
365.4880064842837
 30
0.0
 11
412.0237679974639
 21
365.4880064842837
 31
0.0
  0
LINE
  5
7A9
330
1A
100
AcDbEntity
  8
SEIHIN
  6
CONTINUOUS
 62
     3
100
AcDbLine
 10
412.0237679974639
 20
347.4880064842837
 30
0.0
 11
405.0237679974639
 21
347.4880064842837
 31
0.0
  0
LINE
  5
7AA
330
1A
100
AcDbEntity
  8
SEIHIN
  6
CONTINUOUS
 62
     3
100
AcDbLine
 10
405.0237679974639
 20
367.4880064842837
 30
0.0
 11
412.0237679974639
 21
367.4880064842837
 31
0.0
  0
LINE
  5
7AB
330
1A
100
AcDbEntity
  8
SEIHIN
  6
CONTINUOUS
 62
     3
100
AcDbLine
 10
381.0237679974639
 20
364.1967064842837
 30
0.0
 11
381.0237679974639
 21
349.4880064842837
 31
0.0
  0
LINE
  5
7AC
330
1A
100
AcDbEntity
  8
SEIHIN
  6
CONTINUOUS
 62
     3
100
AcDbLine
 10
383.0237679974639
 20
364.1967064842837
 30
0.0
 11
383.0237679974639
 21
349.4880064842837
 31
0.0
  0
LINE
  5
7AD
330
1A
100
AcDbEntity
  8
SEIHIN
  6
CONTINUOUS
 62
     3
100
AcDbLine
 10
401.0237679974639
 20
363.4880064842837
 30
0.0
 11
401.0237679974639
 21
349.4880064842837
 31
0.0
  0
LINE
  5
7AE
330
1A
100
AcDbEntity
  8
SEIHIN
  6
CONTINUOUS
 62
     3
100
AcDbLine
 10
403.0237679974639
 20
363.4880064842837
 30
0.0
 11
403.0237679974639
 21
349.4880064842837
 31
0.0
  0
LINE
  5
7AF
330
1A
100
AcDbEntity
  8
SEIHIN
  6
CONTINUOUS
 62
     3
100
AcDbLine
 10
392.0237679974639
 20
345.4880064842837
 30
0.0
 11
385.0237679974639
 21
345.4880064842837
 31
0.0
  0
LINE
  5
7B0
330
1A
100
AcDbEntity
  8
SEIHIN
  6
CONTINUOUS
 62
     3
100
AcDbLine
 10
392.0237679974639
 20
347.4880064842837
 30
0.0
 11
385.0237679974639
 21
347.4880064842837
 31
0.0
  0
ARC
  5
7B1
330
1A
100
AcDbEntity
  8
SEIHIN
  6
CONTINUOUS
 62
     3
100
AcDbCircle
 10
385.0237679974639
 20
343.4880064842837
 30
0.0
 40
2.0
100
AcDbArc
 50
90.0
 51
180.0
  0
ARC
  5
7B2
330
1A
100
AcDbEntity
  8
SEIHIN
  6
CONTINUOUS
 62
     3
100
AcDbCircle
 10
379.0237679974639
 20
343.4880064842837
 30
0.0
 40
2.0
100
AcDbArc
 50
0.0
 51
90.0
  0
ARC
  5
7B3
330
1A
100
AcDbEntity
  8
SEIHIN
  6
CONTINUOUS
 62
     3
100
AcDbCircle
 10
385.0237679974639
 20
349.4880064842837
 30
0.0
 40
2.0
100
AcDbArc
 50
180.0
 51
270.0
  0
ARC
  5
7B4
330
1A
100
AcDbEntity
  8
SEIHIN
  6
CONTINUOUS
 62
     3
100
AcDbCircle
 10
379.0237679974639
 20
349.4880064842837
 30
0.0
 40
2.0
100
AcDbArc
 50
270.0
 51
0.0
  0
LINE
  5
7B5
330
1A
100
AcDbEntity
  8
SEIHIN
  6
CONTINUOUS
 62
     3
100
AcDbLine
 10
392.0237679974639
 20
345.4880064842837
 30
0.0
 11
399.0237679974639
 21
345.4880064842837
 31
0.0
  0
ARC
  5
7B6
330
1A
100
AcDbEntity
  8
SEIHIN
  6
CONTINUOUS
 62
     3
100
AcDbCircle
 10
399.0237679974639
 20
343.4880064842837
 30
0.0
 40
2.0
100
AcDbArc
 50
0.0
 51
90.0
  0
ARC
  5
7B7
330
1A
100
AcDbEntity
  8
SEIHIN
  6
CONTINUOUS
 62
     3
100
AcDbCircle
 10
405.0237679974639
 20
343.4880064842837
 30
0.0
 40
2.0
100
AcDbArc
 50
90.0
 51
180.0
  0
LINE
  5
7B8
330
1A
100
AcDbEntity
  8
SEIHIN
  6
CONTINUOUS
 62
     3
100
AcDbLine
 10
392.0237679974639
 20
347.4880064842837
 30
0.0
 11
399.0237679974639
 21
347.4880064842837
 31
0.0
  0
ARC
  5
7B9
330
1A
100
AcDbEntity
  8
SEIHIN
  6
CONTINUOUS
 62
     3
100
AcDbCircle
 10
399.0237679974639
 20
349.4880064842837
 30
0.0
 40
2.0
100
AcDbArc
 50
270.0
 51
0.0
  0
ARC
  5
7BA
330
1A
100
AcDbEntity
  8
SEIHIN
  6
CONTINUOUS
 62
     3
100
AcDbCircle
 10
405.0237679974639
 20
349.4880064842837
 30
0.0
 40
2.0
100
AcDbArc
 50
180.0
 51
270.0
  0
LINE
  5
7BB
330
1A
100
AcDbEntity
  8
SEIHIN
  6
CONTINUOUS
 62
     3
100
AcDbLine
 10
384.3150679974637
 20
365.4880064842837
 30
0.0
 11
392.0237679974639
 21
365.4880064842837
 31
0.0
  0
LINE
  5
7BC
330
1A
100
AcDbEntity
  8
SEIHIN
  6
CONTINUOUS
 62
     3
100
AcDbLine
 10
384.3150679974637
 20
367.4880064842837
 30
0.0
 11
392.0237679974639
 21
367.4880064842837
 31
0.0
  0
ARC
  5
7BD
330
1A
100
AcDbEntity
  8
SEIHIN
  6
CONTINUOUS
 62
     3
100
AcDbCircle
 10
382.0238567203421
 20
366.4880952057424
 30
0.0
 40
2.499965315067984
100
AcDbArc
 50
113.5807440683618
 51
156.4236931652868
  0
ARC
  5
7BE
330
1A
100
AcDbEntity
  8
SEIHIN
  6
CONTINUOUS
 62
     3
100
AcDbCircle
 10
382.0237679974638
 20
366.488006484284
 30
0.0
 40
2.500011137974962
100
AcDbArc
 50
23.57806707257702
 51
66.42193292741419
  0
ARC
  5
7BF
330
1A
100
AcDbEntity
  8
SEIHIN
  6
CONTINUOUS
 62
     3
100
AcDbCircle
 10
382.0238567203422
 20
366.487917762825
 30
0.0
 40
2.499965315068029
100
AcDbArc
 50
203.5763068347117
 51
246.419255931637
  0
ARC
  5
7C0
330
1A
100
AcDbEntity
  8
SEIHIN
  6
CONTINUOUS
 62
     3
100
AcDbCircle
 10
382.0237679974638
 20
366.4880064842834
 30
0.0
 40
2.50001113797498
100
AcDbArc
 50
293.5780670725869
 51
336.4219329274246
  0
ARC
  5
7C1
330
1A
100
AcDbEntity
  8
SEIHIN
  6
CONTINUOUS
 62
     3
100
AcDbCircle
 10
399.0237679974639
 20
369.4880064842837
 30
0.0
 40
2.0
100
AcDbArc
 50
270.0
 51
0.0
  0
ARC
  5
7C2
330
1A
100
AcDbEntity
  8
SEIHIN
  6
CONTINUOUS
 62
     3
100
AcDbCircle
 10
405.0237679974639
 20
369.4880064842837
 30
0.0
 40
2.0
100
AcDbArc
 50
180.0
 51
270.0
  0
LINE
  5
7C3
330
1A
100
AcDbEntity
  8
SEIHIN
  6
CONTINUOUS
 62
     3
100
AcDbLine
 10
399.0237679974639
 20
365.4880064842837
 30
0.0
 11
392.0237679974639
 21
365.4880064842837
 31
0.0
  0
LINE
  5
7C4
330
1A
100
AcDbEntity
  8
SEIHIN
  6
CONTINUOUS
 62
     3
100
AcDbLine
 10
399.0237679974639
 20
367.4880064842837
 30
0.0
 11
392.0237679974639
 21
367.4880064842837
 31
0.0
  0
ARC
  5
7C5
330
1A
100
AcDbEntity
  8
SEIHIN
  6
CONTINUOUS
 62
     3
100
AcDbCircle
 10
399.0237679974639
 20
363.4880064842837
 30
0.0
 40
2.0
100
AcDbArc
 50
0.0
 51
90.0
  0
ARC
  5
7C6
330
1A
100
AcDbEntity
  8
SEIHIN
  6
CONTINUOUS
 62
     3
100
AcDbCircle
 10
405.0237679974639
 20
363.4880064842837
 30
0.0
 40
2.0
100
AcDbArc
 50
90.0
 51
180.0
  0
LINE
  5
7C7
330
1A
100
AcDbEntity
  8
SEIHIN
  6
CONTINUOUS
 62
     3
100
AcDbLine
 10
423.0237679974639
 20
363.4880064842837
 30
0.0
 11
423.0237679974639
 21
349.4880064842837
 31
0.0
  0
LINE
  5
7C8
330
1A
100
AcDbEntity
  8
SEIHIN
  6
CONTINUOUS
 62
     3
100
AcDbLine
 10
421.0237679974637
 20
363.4880064842837
 30
0.0
 11
421.0237679974637
 21
349.4880064842837
 31
0.0
  0
LINE
  5
7C9
330
1A
100
AcDbEntity
  8
SEIHIN
  6
CONTINUOUS
 62
     3
100
AcDbLine
 10
412.0237679974639
 20
345.4880064842837
 30
0.0
 11
419.0237679974639
 21
345.4880064842837
 31
0.0
  0
ARC
  5
7CA
330
1A
100
AcDbEntity
  8
SEIHIN
  6
CONTINUOUS
 62
     3
100
AcDbCircle
 10
419.0237679974638
 20
343.4880064842837
 30
0.0
 40
1.999999999999914
100
AcDbArc
 50
359.9999999999975
 51
89.99999999999756
  0
LINE
  5
7CB
330
1A
100
AcDbEntity
  8
SEIHIN
  6
CONTINUOUS
 62
     3
100
AcDbLine
 10
412.0237679974639
 20
347.4880064842837
 30
0.0
 11
419.0237679974639
 21
347.4880064842837
 31
0.0
  0
ARC
  5
7CC
330
1A
100
AcDbEntity
  8
SEIHIN
  6
CONTINUOUS
 62
     3
100
AcDbCircle
 10
419.0237679974638
 20
349.4880064842837
 30
0.0
 40
1.999999999999914
100
AcDbArc
 50
270.0000000000024
 51
0.0000000000024427
  0
LINE
  5
7CD
330
1A
100
AcDbEntity
  8
SEIHIN
  6
CONTINUOUS
 62
     3
100
AcDbLine
 10
432.0237679974639
 20
345.4880064842837
 30
0.0
 11
425.0237679974639
 21
345.4880064842837
 31
0.0
  0
ARC
  5
7CE
330
1A
100
AcDbEntity
  8
SEIHIN
  6
CONTINUOUS
 62
     3
100
AcDbCircle
 10
425.0237679974639
 20
343.4880064842837
 30
0.0
 40
2.0
100
AcDbArc
 50
90.0
 51
180.0
  0
LINE
  5
7CF
330
1A
100
AcDbEntity
  8
SEIHIN
  6
CONTINUOUS
 62
     3
100
AcDbLine
 10
432.0237679974639
 20
347.4880064842837
 30
0.0
 11
425.0237679974639
 21
347.4880064842837
 31
0.0
  0
ARC
  5
7D0
330
1A
100
AcDbEntity
  8
SEIHIN
  6
CONTINUOUS
 62
     3
100
AcDbCircle
 10
425.0237679974639
 20
349.4880064842837
 30
0.0
 40
2.0
100
AcDbArc
 50
180.0
 51
270.0
  0
ARC
  5
7D1
330
1A
100
AcDbEntity
  8
SEIHIN
  6
CONTINUOUS
 62
     3
100
AcDbCircle
 10
419.0237679974638
 20
369.4880064842836
 30
0.0
 40
1.999999999999914
100
AcDbArc
 50
270.0000000000024
 51
0.0000000000024427
  0
LINE
  5
7D2
330
1A
100
AcDbEntity
  8
SEIHIN
  6
CONTINUOUS
 62
     3
100
AcDbLine
 10
419.0237679974639
 20
365.4880064842837
 30
0.0
 11
412.0237679974639
 21
365.4880064842837
 31
0.0
  0
LINE
  5
7D3
330
1A
100
AcDbEntity
  8
SEIHIN
  6
CONTINUOUS
 62
     3
100
AcDbLine
 10
419.0237679974639
 20
367.4880064842837
 30
0.0
 11
412.0237679974639
 21
367.4880064842837
 31
0.0
  0
ARC
  5
7D4
330
1A
100
AcDbEntity
  8
SEIHIN
  6
CONTINUOUS
 62
     3
100
AcDbCircle
 10
419.0237679974638
 20
363.4880064842838
 30
0.0
 40
1.999999999999914
100
AcDbArc
 50
359.9999999999975
 51
89.99999999999756
  0
ARC
  5
7D5
330
1A
100
AcDbEntity
  8
SEIHIN
  6
CONTINUOUS
 62
     3
100
AcDbCircle
 10
425.0237679974639
 20
369.4880064842837
 30
0.0
 40
2.0
100
AcDbArc
 50
180.0
 51
270.0
  0
LINE
  5
7D6
330
1A
100
AcDbEntity
  8
SEIHIN
  6
CONTINUOUS
 62
     3
100
AcDbLine
 10
425.0237679974639
 20
365.4880064842837
 30
0.0
 11
432.0237679974639
 21
365.4880064842837
 31
0.0
  0
LINE
  5
7D7
330
1A
100
AcDbEntity
  8
SEIHIN
  6
CONTINUOUS
 62
     3
100
AcDbLine
 10
425.0237679974639
 20
367.4880064842837
 30
0.0
 11
432.0237679974639
 21
367.4880064842837
 31
0.0
  0
ARC
  5
7D8
330
1A
100
AcDbEntity
  8
SEIHIN
  6
CONTINUOUS
 62
     3
100
AcDbCircle
 10
425.0237679974639
 20
363.4880064842837
 30
0.0
 40
2.0
100
AcDbArc
 50
90.0
 51
180.0
  0
LINE
  5
7D9
330
1A
100
AcDbEntity
  8
SEIHIN
  6
CONTINUOUS
 62
     3
100
AcDbLine
 10
443.0237679974639
 20
328.7793064842837
 30
0.0
 11
443.0237679974639
 21
343.4880064842837
 31
0.0
  0
LINE
  5
7DA
330
1A
100
AcDbEntity
  8
SEIHIN
  6
CONTINUOUS
 62
     3
100
AcDbLine
 10
441.0237679974639
 20
328.7793064842837
 30
0.0
 11
441.0237679974639
 21
343.4880064842837
 31
0.0
  0
LINE
  5
7DB
330
1A
100
AcDbEntity
  8
SEIHIN
  6
CONTINUOUS
 62
     3
100
AcDbLine
 10
483.0237679974638
 20
329.4880064842837
 30
0.0
 11
483.0237679974638
 21
343.4880064842837
 31
0.0
  0
LINE
  5
7DC
330
1A
100
AcDbEntity
  8
SEIHIN
  6
CONTINUOUS
 62
     3
100
AcDbLine
 10
463.0237679974637
 20
329.4880064842837
 30
0.0
 11
463.0237679974637
 21
343.4880064842837
 31
0.0
  0
LINE
  5
7DD
330
1A
100
AcDbEntity
  8
SEIHIN
  6
CONTINUOUS
 62
     3
100
AcDbLine
 10
481.0237679974639
 20
329.4880064842837
 30
0.0
 11
481.0237679974639
 21
343.4880064842837
 31
0.0
  0
LINE
  5
7DE
330
1A
100
AcDbEntity
  8
SEIHIN
  6
CONTINUOUS
 62
     3
100
AcDbLine
 10
461.0237679974639
 20
329.4880064842837
 30
0.0
 11
461.0237679974639
 21
343.4880064842837
 31
0.0
  0
LINE
  5
7DF
330
1A
100
AcDbEntity
  8
SEIHIN
  6
CONTINUOUS
 62
     3
100
AcDbLine
 10
472.0237679974639
 20
305.4880064842837
 30
0.0
 11
465.0237679974639
 21
305.4880064842837
 31
0.0
  0
LINE
  5
7E0
330
1A
100
AcDbEntity
  8
SEIHIN
  6
CONTINUOUS
 62
     3
100
AcDbLine
 10
465.0237679974639
 20
325.4880064842837
 30
0.0
 11
472.0237679974639
 21
325.4880064842837
 31
0.0
  0
LINE
  5
7E1
330
1A
100
AcDbEntity
  8
SEIHIN
  6
CONTINUOUS
 62
     3
100
AcDbLine
 10
472.0237679974639
 20
307.4880064842837
 30
0.0
 11
465.0237679974639
 21
307.4880064842837
 31
0.0
  0
LINE
  5
7E2
330
1A
100
AcDbEntity
  8
SEIHIN
  6
CONTINUOUS
 62
     3
100
AcDbLine
 10
465.0237679974639
 20
327.4880064842837
 30
0.0
 11
472.0237679974639
 21
327.4880064842837
 31
0.0
  0
LINE
  5
7E3
330
1A
100
AcDbEntity
  8
SEIHIN
  6
CONTINUOUS
 62
     3
100
AcDbLine
 10
443.0237679974639
 20
324.1967064842837
 30
0.0
 11
443.0237679974639
 21
309.4880064842837
 31
0.0
  0
LINE
  5
7E4
330
1A
100
AcDbEntity
  8
SEIHIN
  6
CONTINUOUS
 62
     3
100
AcDbLine
 10
441.0237679974639
 20
324.1967064842837
 30
0.0
 11
441.0237679974639
 21
309.4880064842837
 31
0.0
  0
LINE
  5
7E5
330
1A
100
AcDbEntity
  8
SEIHIN
  6
CONTINUOUS
 62
     3
100
AcDbLine
 10
463.0237679974637
 20
323.4880064842837
 30
0.0
 11
463.0237679974637
 21
309.4880064842837
 31
0.0
  0
LINE
  5
7E6
330
1A
100
AcDbEntity
  8
SEIHIN
  6
CONTINUOUS
 62
     3
100
AcDbLine
 10
461.0237679974639
 20
323.4880064842837
 30
0.0
 11
461.0237679974639
 21
309.4880064842837
 31
0.0
  0
LINE
  5
7E7
330
1A
100
AcDbEntity
  8
SEIHIN
  6
CONTINUOUS
 62
     3
100
AcDbLine
 10
452.0237679974639
 20
305.4880064842837
 30
0.0
 11
459.0237679974637
 21
305.4880064842837
 31
0.0
  0
LINE
  5
7E8
330
1A
100
AcDbEntity
  8
SEIHIN
  6
CONTINUOUS
 62
     3
100
AcDbLine
 10
452.0237679974639
 20
307.4880064842837
 30
0.0
 11
459.0237679974637
 21
307.4880064842837
 31
0.0
  0
LINE
  5
7E9
330
1A
100
AcDbEntity
  8
SEIHIN
  6
CONTINUOUS
 62
     3
100
AcDbLine
 10
452.0237679974639
 20
305.4880064842837
 30
0.0
 11
445.0237679974639
 21
305.4880064842837
 31
0.0
  0
LINE
  5
7EA
330
1A
100
AcDbEntity
  8
SEIHIN
  6
CONTINUOUS
 62
     3
100
AcDbLine
 10
452.0237679974639
 20
307.4880064842837
 30
0.0
 11
445.0237679974639
 21
307.4880064842837
 31
0.0
  0
ARC
  5
7EB
330
1A
100
AcDbEntity
  8
SEIHIN
  6
CONTINUOUS
 62
     3
100
AcDbCircle
 10
445.0237679974639
 20
303.4880064842837
 30
0.0
 40
2.0
100
AcDbArc
 50
90.0
 51
180.0
  0
ARC
  5
7EC
330
1A
100
AcDbEntity
  8
SEIHIN
  6
CONTINUOUS
 62
     3
100
AcDbCircle
 10
439.0237679974639
 20
303.4880064842837
 30
0.0
 40
2.0
100
AcDbArc
 50
0.0
 51
90.0
  0
ARC
  5
7ED
330
1A
100
AcDbEntity
  8
SEIHIN
  6
CONTINUOUS
 62
     3
100
AcDbCircle
 10
445.0237679974639
 20
309.4880064842837
 30
0.0
 40
2.0
100
AcDbArc
 50
180.0
 51
270.0
  0
ARC
  5
7EE
330
1A
100
AcDbEntity
  8
SEIHIN
  6
CONTINUOUS
 62
     3
100
AcDbCircle
 10
439.0237679974639
 20
309.4880064842837
 30
0.0
 40
2.0
100
AcDbArc
 50
270.0
 51
0.0
  0
ARC
  5
7EF
330
1A
100
AcDbEntity
  8
SEIHIN
  6
CONTINUOUS
 62
     3
100
AcDbCircle
 10
459.0237679974638
 20
303.4880064842837
 30
0.0
 40
2.000000000000085
100
AcDbArc
 50
0.0000000000024427
 51
90.00000000000245
  0
ARC
  5
7F0
330
1A
100
AcDbEntity
  8
SEIHIN
  6
CONTINUOUS
 62
     3
100
AcDbCircle
 10
459.0237679974638
 20
309.4880064842838
 30
0.0
 40
2.000000000000085
100
AcDbArc
 50
269.9999999999975
 51
359.9999999999975
  0
ARC
  5
7F1
330
1A
100
AcDbEntity
  8
SEIHIN
  6
CONTINUOUS
 62
     3
100
AcDbCircle
 10
465.0237679974638
 20
303.4880064842837
 30
0.0
 40
2.000000000000085
100
AcDbArc
 50
89.99999999999756
 51
179.9999999999975
  0
ARC
  5
7F2
330
1A
100
AcDbEntity
  8
SEIHIN
  6
CONTINUOUS
 62
     3
100
AcDbCircle
 10
465.0237679974638
 20
309.4880064842838
 30
0.0
 40
2.000000000000085
100
AcDbArc
 50
180.0000000000024
 51
270.0000000000024
  0
LINE
  5
7F3
330
1A
100
AcDbEntity
  8
SEIHIN
  6
CONTINUOUS
 62
     3
100
AcDbLine
 10
459.0237679974637
 20
325.4880064842837
 30
0.0
 11
452.0237679974639
 21
325.4880064842837
 31
0.0
  0
LINE
  5
7F4
330
1A
100
AcDbEntity
  8
SEIHIN
  6
CONTINUOUS
 62
     3
100
AcDbLine
 10
459.0237679974637
 20
327.4880064842837
 30
0.0
 11
452.0237679974639
 21
327.4880064842837
 31
0.0
  0
ARC
  5
7F5
330
1A
100
AcDbEntity
  8
SEIHIN
  6
CONTINUOUS
 62
     3
100
AcDbCircle
 10
442.0237679974638
 20
326.4880064842834
 30
0.0
 40
2.50001113797498
100
AcDbArc
 50
293.5780670725869
 51
336.4219329274246
  0
ARC
  5
7F6
330
1A
100
AcDbEntity
  8
SEIHIN
  6
CONTINUOUS
 62
     3
100
AcDbCircle
 10
442.0238567203422
 20
326.487917762825
 30
0.0
 40
2.499965315068029
100
AcDbArc
 50
203.5763068347117
 51
246.419255931637
  0
LINE
  5
7F7
330
1A
100
AcDbEntity
  8
SEIHIN
  6
CONTINUOUS
 62
     3
100
AcDbLine
 10
444.3150679974637
 20
325.4880064842837
 30
0.0
 11
452.0237679974639
 21
325.4880064842837
 31
0.0
  0
LINE
  5
7F8
330
1A
100
AcDbEntity
  8
SEIHIN
  6
CONTINUOUS
 62
     3
100
AcDbLine
 10
444.3150679974637
 20
327.4880064842837
 30
0.0
 11
452.0237679974639
 21
327.4880064842837
 31
0.0
  0
ARC
  5
7F9
330
1A
100
AcDbEntity
  8
SEIHIN
  6
CONTINUOUS
 62
     3
100
AcDbCircle
 10
442.0237679974639
 20
326.488006484284
 30
0.0
 40
2.500011137974962
100
AcDbArc
 50
23.57806707257702
 51
66.42193292741419
  0
ARC
  5
7FA
330
1A
100
AcDbEntity
  8
SEIHIN
  6
CONTINUOUS
 62
     3
100
AcDbCircle
 10
442.0238567203421
 20
326.4880952057424
 30
0.0
 40
2.499965315067984
100
AcDbArc
 50
113.5807440683618
 51
156.4236931652868
  0
ARC
  5
7FB
330
1A
100
AcDbEntity
  8
SEIHIN
  6
CONTINUOUS
 62
     3
100
AcDbCircle
 10
465.0237679974638
 20
323.4880064842836
 30
0.0
 40
2.000000000000085
100
AcDbArc
 50
89.99999999999756
 51
179.9999999999975
  0
ARC
  5
7FC
330
1A
100
AcDbEntity
  8
SEIHIN
  6
CONTINUOUS
 62
     3
100
AcDbCircle
 10
459.0237679974638
 20
323.4880064842836
 30
0.0
 40
2.000000000000085
100
AcDbArc
 50
0.0000000000024427
 51
90.00000000000245
  0
ARC
  5
7FD
330
1A
100
AcDbEntity
  8
SEIHIN
  6
CONTINUOUS
 62
     3
100
AcDbCircle
 10
459.0237679974638
 20
329.4880064842838
 30
0.0
 40
2.000000000000085
100
AcDbArc
 50
269.9999999999975
 51
359.9999999999975
  0
ARC
  5
7FE
330
1A
100
AcDbEntity
  8
SEIHIN
  6
CONTINUOUS
 62
     3
100
AcDbCircle
 10
465.0237679974638
 20
329.4880064842838
 30
0.0
 40
2.000000000000085
100
AcDbArc
 50
180.0000000000024
 51
270.0000000000024
  0
LINE
  5
7FF
330
1A
100
AcDbEntity
  8
SEIHIN
  6
CONTINUOUS
 62
     3
100
AcDbLine
 10
483.0237679974638
 20
323.4880064842837
 30
0.0
 11
483.0237679974638
 21
309.4880064842837
 31
0.0
  0
LINE
  5
800
330
1A
100
AcDbEntity
  8
SEIHIN
  6
CONTINUOUS
 62
     3
100
AcDbLine
 10
481.0237679974639
 20
323.4880064842837
 30
0.0
 11
481.0237679974639
 21
309.4880064842837
 31
0.0
  0
ARC
  5
801
330
1A
100
AcDbEntity
  8
SEIHIN
  6
CONTINUOUS
 62
     3
100
AcDbCircle
 10
485.0237679974639
 20
303.4880064842837
 30
0.0
 40
2.0
100
AcDbArc
 50
90.0
 51
180.0
  0
ARC
  5
802
330
1A
100
AcDbEntity
  8
SEIHIN
  6
CONTINUOUS
 62
     3
100
AcDbCircle
 10
485.0237679974639
 20
309.4880064842837
 30
0.0
 40
2.0
100
AcDbArc
 50
180.0
 51
270.0
  0
LINE
  5
803
330
1A
100
AcDbEntity
  8
SEIHIN
  6
CONTINUOUS
 62
     3
100
AcDbLine
 10
472.0237679974639
 20
305.4880064842837
 30
0.0
 11
479.0237679974638
 21
305.4880064842837
 31
0.0
  0
LINE
  5
804
330
1A
100
AcDbEntity
  8
SEIHIN
  6
CONTINUOUS
 62
     3
100
AcDbLine
 10
472.0237679974639
 20
307.4880064842837
 30
0.0
 11
479.0237679974638
 21
307.4880064842837
 31
0.0
  0
ARC
  5
805
330
1A
100
AcDbEntity
  8
SEIHIN
  6
CONTINUOUS
 62
     3
100
AcDbCircle
 10
479.0237679974638
 20
303.4880064842837
 30
0.0
 40
2.0
100
AcDbArc
 50
0.0
 51
90.0
  0
ARC
  5
806
330
1A
100
AcDbEntity
  8
SEIHIN
  6
CONTINUOUS
 62
     3
100
AcDbCircle
 10
479.0237679974638
 20
309.4880064842837
 30
0.0
 40
2.0
100
AcDbArc
 50
270.0
 51
0.0
  0
LINE
  5
807
330
1A
100
AcDbEntity
  8
SEIHIN
  6
CONTINUOUS
 62
     3
100
AcDbLine
 10
492.0237679974639
 20
305.4880064842837
 30
0.0
 11
499.0237679974638
 21
305.4880064842837
 31
0.0
  0
LINE
  5
808
330
1A
100
AcDbEntity
  8
SEIHIN
  6
CONTINUOUS
 62
     3
100
AcDbLine
 10
492.0237679974639
 20
307.4880064842837
 30
0.0
 11
499.0237679974638
 21
307.4880064842837
 31
0.0
  0
LINE
  5
809
330
1A
100
AcDbEntity
  8
SEIHIN
  6
CONTINUOUS
 62
     3
100
AcDbLine
 10
492.0237679974639
 20
305.4880064842837
 30
0.0
 11
485.0237679974639
 21
305.4880064842837
 31
0.0
  0
LINE
  5
80A
330
1A
100
AcDbEntity
  8
SEIHIN
  6
CONTINUOUS
 62
     3
100
AcDbLine
 10
492.0237679974639
 20
307.4880064842837
 30
0.0
 11
485.0237679974639
 21
307.4880064842837
 31
0.0
  0
ARC
  5
80B
330
1A
100
AcDbEntity
  8
SEIHIN
  6
CONTINUOUS
 62
     3
100
AcDbCircle
 10
485.0237679974639
 20
323.4880064842837
 30
0.0
 40
2.0
100
AcDbArc
 50
90.0
 51
180.0
  0
ARC
  5
80C
330
1A
100
AcDbEntity
  8
SEIHIN
  6
CONTINUOUS
 62
     3
100
AcDbCircle
 10
485.0237679974639
 20
329.4880064842837
 30
0.0
 40
2.0
100
AcDbArc
 50
180.0
 51
270.0
  0
ARC
  5
80D
330
1A
100
AcDbEntity
  8
SEIHIN
  6
CONTINUOUS
 62
     3
100
AcDbCircle
 10
479.0237679974638
 20
323.4880064842837
 30
0.0
 40
2.0
100
AcDbArc
 50
0.0
 51
90.0
  0
LINE
  5
80E
330
1A
100
AcDbEntity
  8
SEIHIN
  6
CONTINUOUS
 62
     3
100
AcDbLine
 10
479.0237679974638
 20
325.4880064842837
 30
0.0
 11
472.0237679974639
 21
325.4880064842837
 31
0.0
  0
LINE
  5
80F
330
1A
100
AcDbEntity
  8
SEIHIN
  6
CONTINUOUS
 62
     3
100
AcDbLine
 10
479.0237679974638
 20
327.4880064842837
 30
0.0
 11
472.0237679974639
 21
327.4880064842837
 31
0.0
  0
ARC
  5
810
330
1A
100
AcDbEntity
  8
SEIHIN
  6
CONTINUOUS
 62
     3
100
AcDbCircle
 10
479.0237679974638
 20
329.4880064842837
 30
0.0
 40
2.0
100
AcDbArc
 50
270.0
 51
0.0
  0
LINE
  5
811
330
1A
100
AcDbEntity
  8
SEIHIN
  6
CONTINUOUS
 62
     3
100
AcDbLine
 10
499.732567997464
 20
325.4880064842837
 30
0.0
 11
492.0237679974639
 21
325.4880064842837
 31
0.0
  0
LINE
  5
812
330
1A
100
AcDbEntity
  8
SEIHIN
  6
CONTINUOUS
 62
     3
100
AcDbLine
 10
499.732567997464
 20
327.4880064842837
 30
0.0
 11
492.0237679974639
 21
327.4880064842837
 31
0.0
  0
LINE
  5
813
330
1A
100
AcDbEntity
  8
SEIHIN
  6
CONTINUOUS
 62
     3
100
AcDbLine
 10
485.0237679974639
 20
325.4880064842837
 30
0.0
 11
492.0237679974639
 21
325.4880064842837
 31
0.0
  0
LINE
  5
814
330
1A
100
AcDbEntity
  8
SEIHIN
  6
CONTINUOUS
 62
     3
100
AcDbLine
 10
485.0237679974639
 20
327.4880064842837
 30
0.0
 11
492.0237679974639
 21
327.4880064842837
 31
0.0
  0
LINE
  5
815
330
1A
100
AcDbEntity
  8
SEIHIN
  6
CONTINUOUS
 62
     3
100
AcDbLine
 10
472.0237679974639
 20
345.4880064842837
 30
0.0
 11
465.0237679974639
 21
345.4880064842837
 31
0.0
  0
LINE
  5
816
330
1A
100
AcDbEntity
  8
SEIHIN
  6
CONTINUOUS
 62
     3
100
AcDbLine
 10
465.0237679974639
 20
365.4880064842837
 30
0.0
 11
472.0237679974639
 21
365.4880064842837
 31
0.0
  0
LINE
  5
817
330
1A
100
AcDbEntity
  8
SEIHIN
  6
CONTINUOUS
 62
     3
100
AcDbLine
 10
472.0237679974639
 20
347.4880064842837
 30
0.0
 11
465.0237679974639
 21
347.4880064842837
 31
0.0
  0
LINE
  5
818
330
1A
100
AcDbEntity
  8
SEIHIN
  6
CONTINUOUS
 62
     3
100
AcDbLine
 10
465.0237679974639
 20
367.4880064842837
 30
0.0
 11
472.0237679974639
 21
367.4880064842837
 31
0.0
  0
LINE
  5
819
330
1A
100
AcDbEntity
  8
SEIHIN
  6
CONTINUOUS
 62
     3
100
AcDbLine
 10
443.0237679974639
 20
364.1967064842837
 30
0.0
 11
443.0237679974639
 21
349.4880064842837
 31
0.0
  0
LINE
  5
81A
330
1A
100
AcDbEntity
  8
SEIHIN
  6
CONTINUOUS
 62
     3
100
AcDbLine
 10
441.0237679974639
 20
364.1967064842837
 30
0.0
 11
441.0237679974639
 21
349.4880064842837
 31
0.0
  0
LINE
  5
81B
330
1A
100
AcDbEntity
  8
SEIHIN
  6
CONTINUOUS
 62
     3
100
AcDbLine
 10
463.0237679974637
 20
363.4880064842837
 30
0.0
 11
463.0237679974637
 21
349.4880064842837
 31
0.0
  0
LINE
  5
81C
330
1A
100
AcDbEntity
  8
SEIHIN
  6
CONTINUOUS
 62
     3
100
AcDbLine
 10
461.0237679974639
 20
363.4880064842837
 30
0.0
 11
461.0237679974639
 21
349.4880064842837
 31
0.0
  0
LINE
  5
81D
330
1A
100
AcDbEntity
  8
SEIHIN
  6
CONTINUOUS
 62
     3
100
AcDbLine
 10
452.0237679974639
 20
345.4880064842837
 30
0.0
 11
459.0237679974637
 21
345.4880064842837
 31
0.0
  0
LINE
  5
81E
330
1A
100
AcDbEntity
  8
SEIHIN
  6
CONTINUOUS
 62
     3
100
AcDbLine
 10
452.0237679974639
 20
347.4880064842837
 30
0.0
 11
459.0237679974637
 21
347.4880064842837
 31
0.0
  0
LINE
  5
81F
330
1A
100
AcDbEntity
  8
SEIHIN
  6
CONTINUOUS
 62
     3
100
AcDbLine
 10
452.0237679974639
 20
345.4880064842837
 30
0.0
 11
445.0237679974639
 21
345.4880064842837
 31
0.0
  0
ARC
  5
820
330
1A
100
AcDbEntity
  8
SEIHIN
  6
CONTINUOUS
 62
     3
100
AcDbCircle
 10
445.0237679974639
 20
343.4880064842837
 30
0.0
 40
2.0
100
AcDbArc
 50
90.0
 51
180.0
  0
ARC
  5
821
330
1A
100
AcDbEntity
  8
SEIHIN
  6
CONTINUOUS
 62
     3
100
AcDbCircle
 10
439.0237679974639
 20
343.4880064842837
 30
0.0
 40
2.0
100
AcDbArc
 50
0.0
 51
90.0
  0
LINE
  5
822
330
1A
100
AcDbEntity
  8
SEIHIN
  6
CONTINUOUS
 62
     3
100
AcDbLine
 10
452.0237679974639
 20
347.4880064842837
 30
0.0
 11
445.0237679974639
 21
347.4880064842837
 31
0.0
  0
ARC
  5
823
330
1A
100
AcDbEntity
  8
SEIHIN
  6
CONTINUOUS
 62
     3
100
AcDbCircle
 10
445.0237679974639
 20
349.4880064842837
 30
0.0
 40
2.0
100
AcDbArc
 50
180.0
 51
270.0
  0
ARC
  5
824
330
1A
100
AcDbEntity
  8
SEIHIN
  6
CONTINUOUS
 62
     3
100
AcDbCircle
 10
439.0237679974639
 20
349.4880064842837
 30
0.0
 40
2.0
100
AcDbArc
 50
270.0
 51
0.0
  0
ARC
  5
825
330
1A
100
AcDbEntity
  8
SEIHIN
  6
CONTINUOUS
 62
     3
100
AcDbCircle
 10
459.0237679974638
 20
343.4880064842837
 30
0.0
 40
2.000000000000085
100
AcDbArc
 50
0.0000000000024427
 51
90.00000000000245
  0
ARC
  5
826
330
1A
100
AcDbEntity
  8
SEIHIN
  6
CONTINUOUS
 62
     3
100
AcDbCircle
 10
465.0237679974638
 20
343.4880064842837
 30
0.0
 40
2.000000000000085
100
AcDbArc
 50
89.99999999999756
 51
179.9999999999975
  0
ARC
  5
827
330
1A
100
AcDbEntity
  8
SEIHIN
  6
CONTINUOUS
 62
     3
100
AcDbCircle
 10
459.0237679974638
 20
349.4880064842837
 30
0.0
 40
2.000000000000085
100
AcDbArc
 50
269.9999999999975
 51
359.9999999999975
  0
ARC
  5
828
330
1A
100
AcDbEntity
  8
SEIHIN
  6
CONTINUOUS
 62
     3
100
AcDbCircle
 10
465.0237679974638
 20
349.4880064842837
 30
0.0
 40
2.000000000000085
100
AcDbArc
 50
180.0000000000024
 51
270.0000000000024
  0
LINE
  5
829
330
1A
100
AcDbEntity
  8
SEIHIN
  6
CONTINUOUS
 62
     3
100
AcDbLine
 10
459.0237679974637
 20
365.4880064842837
 30
0.0
 11
452.0237679974639
 21
365.4880064842837
 31
0.0
  0
LINE
  5
82A
330
1A
100
AcDbEntity
  8
SEIHIN
  6
CONTINUOUS
 62
     3
100
AcDbLine
 10
459.0237679974637
 20
367.4880064842837
 30
0.0
 11
452.0237679974639
 21
367.4880064842837
 31
0.0
  0
ARC
  5
82B
330
1A
100
AcDbEntity
  8
SEIHIN
  6
CONTINUOUS
 62
     3
100
AcDbCircle
 10
442.0238567203421
 20
366.4880952057424
 30
0.0
 40
2.499965315067984
100
AcDbArc
 50
113.5807440683618
 51
156.4236931652868
  0
ARC
  5
82C
330
1A
100
AcDbEntity
  8
SEIHIN
  6
CONTINUOUS
 62
     3
100
AcDbCircle
 10
442.0237679974639
 20
366.488006484284
 30
0.0
 40
2.500011137974962
100
AcDbArc
 50
23.57806707257702
 51
66.42193292741419
  0
LINE
  5
82D
330
1A
100
AcDbEntity
  8
SEIHIN
  6
CONTINUOUS
 62
     3
100
AcDbLine
 10
444.3150679974637
 20
365.4880064842837
 30
0.0
 11
452.0237679974639
 21
365.4880064842837
 31
0.0
  0
LINE
  5
82E
330
1A
100
AcDbEntity
  8
SEIHIN
  6
CONTINUOUS
 62
     3
100
AcDbLine
 10
444.3150679974637
 20
367.4880064842837
 30
0.0
 11
452.0237679974639
 21
367.4880064842837
 31
0.0
  0
ARC
  5
82F
330
1A
100
AcDbEntity
  8
SEIHIN
  6
CONTINUOUS
 62
     3
100
AcDbCircle
 10
442.0237679974638
 20
366.4880064842834
 30
0.0
 40
2.50001113797498
100
AcDbArc
 50
293.5780670725869
 51
336.4219329274246
  0
ARC
  5
830
330
1A
100
AcDbEntity
  8
SEIHIN
  6
CONTINUOUS
 62
     3
100
AcDbCircle
 10
442.0238567203422
 20
366.487917762825
 30
0.0
 40
2.499965315068029
100
AcDbArc
 50
203.5763068347117
 51
246.419255931637
  0
ARC
  5
831
330
1A
100
AcDbEntity
  8
SEIHIN
  6
CONTINUOUS
 62
     3
100
AcDbCircle
 10
465.0237679974638
 20
369.4880064842838
 30
0.0
 40
2.000000000000085
100
AcDbArc
 50
180.0000000000024
 51
270.0000000000024
  0
ARC
  5
832
330
1A
100
AcDbEntity
  8
SEIHIN
  6
CONTINUOUS
 62
     3
100
AcDbCircle
 10
459.0237679974638
 20
369.4880064842838
 30
0.0
 40
2.000000000000085
100
AcDbArc
 50
269.9999999999975
 51
359.9999999999975
  0
ARC
  5
833
330
1A
100
AcDbEntity
  8
SEIHIN
  6
CONTINUOUS
 62
     3
100
AcDbCircle
 10
459.0237679974638
 20
363.4880064842836
 30
0.0
 40
2.000000000000085
100
AcDbArc
 50
0.0000000000024427
 51
90.00000000000245
  0
ARC
  5
834
330
1A
100
AcDbEntity
  8
SEIHIN
  6
CONTINUOUS
 62
     3
100
AcDbCircle
 10
465.0237679974638
 20
363.4880064842836
 30
0.0
 40
2.000000000000085
100
AcDbArc
 50
89.99999999999756
 51
179.9999999999975
  0
LINE
  5
835
330
1A
100
AcDbEntity
  8
SEIHIN
  6
CONTINUOUS
 62
     3
100
AcDbLine
 10
483.0237679974638
 20
363.4880064842837
 30
0.0
 11
483.0237679974638
 21
349.4880064842837
 31
0.0
  0
LINE
  5
836
330
1A
100
AcDbEntity
  8
SEIHIN
  6
CONTINUOUS
 62
     3
100
AcDbLine
 10
481.0237679974639
 20
363.4880064842837
 30
0.0
 11
481.0237679974639
 21
349.4880064842837
 31
0.0
  0
ARC
  5
837
330
1A
100
AcDbEntity
  8
SEIHIN
  6
CONTINUOUS
 62
     3
100
AcDbCircle
 10
485.0237679974639
 20
343.4880064842837
 30
0.0
 40
2.0
100
AcDbArc
 50
90.0
 51
180.0
  0
ARC
  5
838
330
1A
100
AcDbEntity
  8
SEIHIN
  6
CONTINUOUS
 62
     3
100
AcDbCircle
 10
485.0237679974639
 20
349.4880064842837
 30
0.0
 40
2.0
100
AcDbArc
 50
180.0
 51
270.0
  0
LINE
  5
839
330
1A
100
AcDbEntity
  8
SEIHIN
  6
CONTINUOUS
 62
     3
100
AcDbLine
 10
472.0237679974639
 20
345.4880064842837
 30
0.0
 11
479.0237679974638
 21
345.4880064842837
 31
0.0
  0
ARC
  5
83A
330
1A
100
AcDbEntity
  8
SEIHIN
  6
CONTINUOUS
 62
     3
100
AcDbCircle
 10
479.0237679974638
 20
343.4880064842837
 30
0.0
 40
2.0
100
AcDbArc
 50
0.0
 51
90.0
  0
LINE
  5
83B
330
1A
100
AcDbEntity
  8
SEIHIN
  6
CONTINUOUS
 62
     3
100
AcDbLine
 10
472.0237679974639
 20
347.4880064842837
 30
0.0
 11
479.0237679974638
 21
347.4880064842837
 31
0.0
  0
ARC
  5
83C
330
1A
100
AcDbEntity
  8
SEIHIN
  6
CONTINUOUS
 62
     3
100
AcDbCircle
 10
479.0237679974638
 20
349.4880064842837
 30
0.0
 40
2.0
100
AcDbArc
 50
270.0
 51
0.0
  0
LINE
  5
83D
330
1A
100
AcDbEntity
  8
SEIHIN
  6
CONTINUOUS
 62
     3
100
AcDbLine
 10
492.0237679974639
 20
345.4880064842837
 30
0.0
 11
499.0237679974638
 21
345.4880064842837
 31
0.0
  0
LINE
  5
83E
330
1A
100
AcDbEntity
  8
SEIHIN
  6
CONTINUOUS
 62
     3
100
AcDbLine
 10
492.0237679974639
 20
345.4880064842837
 30
0.0
 11
485.0237679974639
 21
345.4880064842837
 31
0.0
  0
LINE
  5
83F
330
1A
100
AcDbEntity
  8
SEIHIN
  6
CONTINUOUS
 62
     3
100
AcDbLine
 10
492.0237679974639
 20
347.4880064842837
 30
0.0
 11
499.0237679974638
 21
347.4880064842837
 31
0.0
  0
LINE
  5
840
330
1A
100
AcDbEntity
  8
SEIHIN
  6
CONTINUOUS
 62
     3
100
AcDbLine
 10
492.0237679974639
 20
347.4880064842837
 30
0.0
 11
485.0237679974639
 21
347.4880064842837
 31
0.0
  0
ARC
  5
841
330
1A
100
AcDbEntity
  8
SEIHIN
  6
CONTINUOUS
 62
     3
100
AcDbCircle
 10
485.0237679974639
 20
363.4880064842837
 30
0.0
 40
2.0
100
AcDbArc
 50
90.0
 51
180.0
  0
ARC
  5
842
330
1A
100
AcDbEntity
  8
SEIHIN
  6
CONTINUOUS
 62
     3
100
AcDbCircle
 10
485.0237679974639
 20
369.4880064842837
 30
0.0
 40
2.0
100
AcDbArc
 50
180.0
 51
270.0
  0
ARC
  5
843
330
1A
100
AcDbEntity
  8
SEIHIN
  6
CONTINUOUS
 62
     3
100
AcDbCircle
 10
479.0237679974638
 20
369.4880064842837
 30
0.0
 40
2.0
100
AcDbArc
 50
270.0
 51
0.0
  0
LINE
  5
844
330
1A
100
AcDbEntity
  8
SEIHIN
  6
CONTINUOUS
 62
     3
100
AcDbLine
 10
479.0237679974638
 20
365.4880064842837
 30
0.0
 11
472.0237679974639
 21
365.4880064842837
 31
0.0
  0
LINE
  5
845
330
1A
100
AcDbEntity
  8
SEIHIN
  6
CONTINUOUS
 62
     3
100
AcDbLine
 10
479.0237679974638
 20
367.4880064842837
 30
0.0
 11
472.0237679974639
 21
367.4880064842837
 31
0.0
  0
ARC
  5
846
330
1A
100
AcDbEntity
  8
SEIHIN
  6
CONTINUOUS
 62
     3
100
AcDbCircle
 10
479.0237679974638
 20
363.4880064842837
 30
0.0
 40
2.0
100
AcDbArc
 50
0.0
 51
90.0
  0
LINE
  5
847
330
1A
100
AcDbEntity
  8
SEIHIN
  6
CONTINUOUS
 62
     3
100
AcDbLine
 10
499.732567997464
 20
365.4880064842837
 30
0.0
 11
492.0237679974639
 21
365.4880064842837
 31
0.0
  0
LINE
  5
848
330
1A
100
AcDbEntity
  8
SEIHIN
  6
CONTINUOUS
 62
     3
100
AcDbLine
 10
499.732567997464
 20
367.4880064842837
 30
0.0
 11
492.0237679974639
 21
367.4880064842837
 31
0.0
  0
LINE
  5
849
330
1A
100
AcDbEntity
  8
SEIHIN
  6
CONTINUOUS
 62
     3
100
AcDbLine
 10
485.0237679974639
 20
365.4880064842837
 30
0.0
 11
492.0237679974639
 21
365.4880064842837
 31
0.0
  0
LINE
  5
84A
330
1A
100
AcDbEntity
  8
SEIHIN
  6
CONTINUOUS
 62
     3
100
AcDbLine
 10
485.0237679974639
 20
367.4880064842837
 30
0.0
 11
492.0237679974639
 21
367.4880064842837
 31
0.0
  0
LINE
  5
84B
330
1A
100
AcDbEntity
  8
SEIHIN
  6
CONTINUOUS
 62
     3
100
AcDbLine
 10
432.0237679974639
 20
385.4880064842837
 30
0.0
 11
439.0237679974639
 21
385.4880064842837
 31
0.0
  0
LINE
  5
84C
330
1A
100
AcDbEntity
  8
SEIHIN
  6
CONTINUOUS
 62
     3
100
AcDbLine
 10
412.0237679974639
 20
385.4880064842837
 30
0.0
 11
405.0237679974639
 21
385.4880064842837
 31
0.0
  0
LINE
  5
84D
330
1A
100
AcDbEntity
  8
SEIHIN
  6
CONTINUOUS
 62
     3
100
AcDbLine
 10
392.0237679974639
 20
385.4880064842837
 30
0.0
 11
385.0237679974639
 21
385.4880064842837
 31
0.0
  0
ARC
  5
84E
330
1A
100
AcDbEntity
  8
SEIHIN
  6
CONTINUOUS
 62
     3
100
AcDbCircle
 10
385.0237679974639
 20
383.4880064842837
 30
0.0
 40
2.0
100
AcDbArc
 50
90.0
 51
180.0
  0
ARC
  5
84F
330
1A
100
AcDbEntity
  8
SEIHIN
  6
CONTINUOUS
 62
     3
100
AcDbCircle
 10
379.0237679974639
 20
383.4880064842837
 30
0.0
 40
2.0
100
AcDbArc
 50
0.0
 51
90.0
  0
LINE
  5
850
330
1A
100
AcDbEntity
  8
SEIHIN
  6
CONTINUOUS
 62
     3
100
AcDbLine
 10
392.0237679974639
 20
385.4880064842837
 30
0.0
 11
399.0237679974639
 21
385.4880064842837
 31
0.0
  0
ARC
  5
851
330
1A
100
AcDbEntity
  8
SEIHIN
  6
CONTINUOUS
 62
     3
100
AcDbCircle
 10
399.0237679974639
 20
383.4880064842837
 30
0.0
 40
2.0
100
AcDbArc
 50
0.0
 51
90.0
  0
ARC
  5
852
330
1A
100
AcDbEntity
  8
SEIHIN
  6
CONTINUOUS
 62
     3
100
AcDbCircle
 10
405.0237679974639
 20
383.4880064842837
 30
0.0
 40
2.0
100
AcDbArc
 50
90.0
 51
180.0
  0
LINE
  5
853
330
1A
100
AcDbEntity
  8
SEIHIN
  6
CONTINUOUS
 62
     3
100
AcDbLine
 10
412.0237679974639
 20
385.4880064842837
 30
0.0
 11
419.0237679974639
 21
385.4880064842837
 31
0.0
  0
ARC
  5
854
330
1A
100
AcDbEntity
  8
SEIHIN
  6
CONTINUOUS
 62
     3
100
AcDbCircle
 10
419.0237679974638
 20
383.4880064842838
 30
0.0
 40
1.999999999999914
100
AcDbArc
 50
359.9999999999975
 51
89.99999999999756
  0
LINE
  5
855
330
1A
100
AcDbEntity
  8
SEIHIN
  6
CONTINUOUS
 62
     3
100
AcDbLine
 10
432.0237679974639
 20
385.4880064842837
 30
0.0
 11
425.0237679974639
 21
385.4880064842837
 31
0.0
  0
ARC
  5
856
330
1A
100
AcDbEntity
  8
SEIHIN
  6
CONTINUOUS
 62
     3
100
AcDbCircle
 10
425.0237679974639
 20
383.4880064842837
 30
0.0
 40
2.0
100
AcDbArc
 50
90.0
 51
180.0
  0
LINE
  5
858
330
1A
100
AcDbEntity
  8
SEIHIN
  6
CONTINUOUS
 62
     3
100
AcDbLine
 10
472.0237679974639
 20
385.4880064842837
 30
0.0
 11
465.0237679974639
 21
385.4880064842837
 31
0.0
  0
LINE
  5
859
330
1A
100
AcDbEntity
  8
SEIHIN
  6
CONTINUOUS
 62
     3
100
AcDbLine
 10
452.0237679974639
 20
385.4880064842837
 30
0.0
 11
459.0237679974637
 21
385.4880064842837
 31
0.0
  0
LINE
  5
85A
330
1A
100
AcDbEntity
  8
SEIHIN
  6
CONTINUOUS
 62
     3
100
AcDbLine
 10
452.0237679974639
 20
385.4880064842837
 30
0.0
 11
445.0237679974639
 21
385.4880064842837
 31
0.0
  0
ARC
  5
85B
330
1A
100
AcDbEntity
  8
SEIHIN
  6
CONTINUOUS
 62
     3
100
AcDbCircle
 10
445.0237679974639
 20
383.4880064842837
 30
0.0
 40
2.0
100
AcDbArc
 50
90.0
 51
180.0
  0
ARC
  5
85C
330
1A
100
AcDbEntity
  8
SEIHIN
  6
CONTINUOUS
 62
     3
100
AcDbCircle
 10
439.0237679974639
 20
383.4880064842837
 30
0.0
 40
2.0
100
AcDbArc
 50
0.0
 51
90.0
  0
ARC
  5
85D
330
1A
100
AcDbEntity
  8
SEIHIN
  6
CONTINUOUS
 62
     3
100
AcDbCircle
 10
459.0237679974638
 20
383.4880064842836
 30
0.0
 40
2.000000000000085
100
AcDbArc
 50
0.0000000000024427
 51
90.00000000000245
  0
ARC
  5
85E
330
1A
100
AcDbEntity
  8
SEIHIN
  6
CONTINUOUS
 62
     3
100
AcDbCircle
 10
465.0237679974638
 20
383.4880064842836
 30
0.0
 40
2.000000000000085
100
AcDbArc
 50
89.99999999999756
 51
179.9999999999975
  0
ARC
  5
85F
330
1A
100
AcDbEntity
  8
SEIHIN
  6
CONTINUOUS
 62
     3
100
AcDbCircle
 10
485.0237679974639
 20
383.4880064842837
 30
0.0
 40
2.0
100
AcDbArc
 50
90.0
 51
180.0
  0
LINE
  5
860
330
1A
100
AcDbEntity
  8
SEIHIN
  6
CONTINUOUS
 62
     3
100
AcDbLine
 10
472.0237679974639
 20
385.4880064842837
 30
0.0
 11
479.0237679974638
 21
385.4880064842837
 31
0.0
  0
ARC
  5
861
330
1A
100
AcDbEntity
  8
SEIHIN
  6
CONTINUOUS
 62
     3
100
AcDbCircle
 10
479.0237679974638
 20
383.4880064842837
 30
0.0
 40
2.0
100
AcDbArc
 50
0.0
 51
90.0
  0
LINE
  5
862
330
1A
100
AcDbEntity
  8
SEIHIN
  6
CONTINUOUS
 62
     3
100
AcDbLine
 10
492.0237679974639
 20
385.4880064842837
 30
0.0
 11
499.0237679974638
 21
385.4880064842837
 31
0.0
  0
LINE
  5
863
330
1A
100
AcDbEntity
  8
SEIHIN
  6
CONTINUOUS
 62
     3
100
AcDbLine
 10
492.0237679974639
 20
385.4880064842837
 30
0.0
 11
485.0237679974639
 21
385.4880064842837
 31
0.0
  0
LINE
  5
864
330
1A
100
AcDbEntity
  8
SEIHIN
  6
CONTINUOUS
 62
     3
100
AcDbLine
 10
503.0237679974638
 20
368.7793064842837
 30
0.0
 11
503.0237679974638
 21
383.4880064842837
 31
0.0
  0
LINE
  5
865
330
1A
100
AcDbEntity
  8
SEIHIN
  6
CONTINUOUS
 62
     3
100
AcDbLine
 10
521.0237679974638
 20
369.4880064842837
 30
0.0
 11
521.0237679974638
 21
383.4880064842837
 31
0.0
  0
LINE
  5
866
330
1A
100
AcDbEntity
  8
SEIHIN
  6
CONTINUOUS
 62
     3
100
AcDbLine
 10
501.0237679974639
 20
368.7793064842837
 30
0.0
 11
501.0237679974639
 21
383.4880064842837
 31
0.0
  0
LINE
  5
867
330
1A
100
AcDbEntity
  8
SEIHIN
  6
CONTINUOUS
 62
     3
100
AcDbLine
 10
503.0237679974638
 20
328.7793064842837
 30
0.0
 11
503.0237679974638
 21
343.4880064842837
 31
0.0
  0
LINE
  5
868
330
1A
100
AcDbEntity
  8
SEIHIN
  6
CONTINUOUS
 62
     3
100
AcDbLine
 10
501.0237679974639
 20
328.7793064842837
 30
0.0
 11
501.0237679974639
 21
343.4880064842837
 31
0.0
  0
LINE
  5
869
330
1A
100
AcDbEntity
  8
SEIHIN
  6
CONTINUOUS
 62
     3
100
AcDbLine
 10
521.0237679974638
 20
329.4880064842837
 30
0.0
 11
521.0237679974638
 21
343.4880064842837
 31
0.0
  0
LINE
  5
86A
330
1A
100
AcDbEntity
  8
SEIHIN
  6
CONTINUOUS
 62
     3
100
AcDbLine
 10
503.0237679974638
 20
324.1967064842837
 30
0.0
 11
503.0237679974638
 21
309.4880064842837
 31
0.0
  0
LINE
  5
86B
330
1A
100
AcDbEntity
  8
SEIHIN
  6
CONTINUOUS
 62
     3
100
AcDbLine
 10
501.0237679974639
 20
324.1967064842837
 30
0.0
 11
501.0237679974639
 21
309.4880064842837
 31
0.0
  0
LINE
  5
86C
330
1A
100
AcDbEntity
  8
SEIHIN
  6
CONTINUOUS
 62
     3
100
AcDbLine
 10
521.0237679974638
 20
323.4880064842837
 30
0.0
 11
521.0237679974638
 21
309.4880064842837
 31
0.0
  0
LINE
  5
86D
330
1A
100
AcDbEntity
  8
SEIHIN
  6
CONTINUOUS
 62
     3
100
AcDbLine
 10
512.0237679974638
 20
305.4880064842837
 30
0.0
 11
519.0237679974639
 21
305.4880064842837
 31
0.0
  0
LINE
  5
86E
330
1A
100
AcDbEntity
  8
SEIHIN
  6
CONTINUOUS
 62
     3
100
AcDbLine
 10
512.0237679974638
 20
307.4880064842837
 30
0.0
 11
519.0237679974639
 21
307.4880064842837
 31
0.0
  0
LINE
  5
86F
330
1A
100
AcDbEntity
  8
SEIHIN
  6
CONTINUOUS
 62
     3
100
AcDbLine
 10
512.0237679974638
 20
305.4880064842837
 30
0.0
 11
505.0237679974639
 21
305.4880064842837
 31
0.0
  0
LINE
  5
870
330
1A
100
AcDbEntity
  8
SEIHIN
  6
CONTINUOUS
 62
     3
100
AcDbLine
 10
512.0237679974638
 20
307.4880064842837
 30
0.0
 11
505.0237679974639
 21
307.4880064842837
 31
0.0
  0
ARC
  5
871
330
1A
100
AcDbEntity
  8
SEIHIN
  6
CONTINUOUS
 62
     3
100
AcDbCircle
 10
505.0237679974639
 20
303.4880064842838
 30
0.0
 40
1.999999999999914
100
AcDbArc
 50
90.00000000000245
 51
180.0000000000024
  0
ARC
  5
872
330
1A
100
AcDbEntity
  8
SEIHIN
  6
CONTINUOUS
 62
     3
100
AcDbCircle
 10
505.0237679974639
 20
309.4880064842836
 30
0.0
 40
1.999999999999914
100
AcDbArc
 50
179.9999999999975
 51
269.9999999999975
  0
ARC
  5
873
330
1A
100
AcDbEntity
  8
SEIHIN
  6
CONTINUOUS
 62
     3
100
AcDbCircle
 10
519.0237679974639
 20
303.4880064842838
 30
0.0
 40
1.999999999999943
100
AcDbArc
 50
359.9999999999975
 51
89.99999999999674
  0
ARC
  5
874
330
1A
100
AcDbEntity
  8
SEIHIN
  6
CONTINUOUS
 62
     3
100
AcDbCircle
 10
519.0237679974639
 20
309.4880064842836
 30
0.0
 40
1.999999999999914
100
AcDbArc
 50
270.0000000000032
 51
0.0000000000024427
  0
LINE
  5
875
330
1A
100
AcDbEntity
  8
SEIHIN
  6
CONTINUOUS
 62
     3
100
AcDbLine
 10
519.0237679974639
 20
325.4880064842837
 30
0.0
 11
512.0237679974638
 21
325.4880064842837
 31
0.0
  0
LINE
  5
876
330
1A
100
AcDbEntity
  8
SEIHIN
  6
CONTINUOUS
 62
     3
100
AcDbLine
 10
519.0237679974639
 20
327.4880064842837
 30
0.0
 11
512.0237679974638
 21
327.4880064842837
 31
0.0
  0
ARC
  5
877
330
1A
100
AcDbEntity
  8
SEIHIN
  6
CONTINUOUS
 62
     3
100
AcDbCircle
 10
502.0237679974639
 20
326.4880064842837
 30
0.0
 40
2.500011137975143
100
AcDbArc
 50
293.5780670725825
 51
336.4219329274204
  0
LINE
  5
878
330
1A
100
AcDbEntity
  8
SEIHIN
  6
CONTINUOUS
 62
     3
100
AcDbLine
 10
504.3150679974639
 20
325.4880064842837
 30
0.0
 11
512.0237679974638
 21
325.4880064842837
 31
0.0
  0
LINE
  5
879
330
1A
100
AcDbEntity
  8
SEIHIN
  6
CONTINUOUS
 62
     3
100
AcDbLine
 10
504.3150679974639
 20
327.4880064842837
 30
0.0
 11
512.0237679974638
 21
327.4880064842837
 31
0.0
  0
ARC
  5
87A
330
1A
100
AcDbEntity
  8
SEIHIN
  6
CONTINUOUS
 62
     3
100
AcDbCircle
 10
502.023767997464
 20
326.4880064842837
 30
0.0
 40
2.500011137975105
100
AcDbArc
 50
23.57806707258129
 51
66.42193292741866
  0
ARC
  5
87B
330
1A
100
AcDbEntity
  8
SEIHIN
  6
CONTINUOUS
 62
     3
100
AcDbCircle
 10
519.0237679974639
 20
323.4880064842838
 30
0.0
 40
1.999999999999943
100
AcDbArc
 50
359.9999999999975
 51
89.99999999999674
  0
ARC
  5
87C
330
1A
100
AcDbEntity
  8
SEIHIN
  6
CONTINUOUS
 62
     3
100
AcDbCircle
 10
519.0237679974639
 20
329.4880064842836
 30
0.0
 40
1.999999999999914
100
AcDbArc
 50
270.0000000000032
 51
0.0000000000024427
  0
LINE
  5
87D
330
1A
100
AcDbEntity
  8
SEIHIN
  6
CONTINUOUS
 62
     3
100
AcDbLine
 10
503.0237679974638
 20
364.1967064842837
 30
0.0
 11
503.0237679974638
 21
349.4880064842837
 31
0.0
  0
LINE
  5
87E
330
1A
100
AcDbEntity
  8
SEIHIN
  6
CONTINUOUS
 62
     3
100
AcDbLine
 10
501.0237679974639
 20
364.1967064842837
 30
0.0
 11
501.0237679974639
 21
349.4880064842837
 31
0.0
  0
LINE
  5
87F
330
1A
100
AcDbEntity
  8
SEIHIN
  6
CONTINUOUS
 62
     3
100
AcDbLine
 10
521.0237679974638
 20
363.4880064842837
 30
0.0
 11
521.0237679974638
 21
349.4880064842837
 31
0.0
  0
LINE
  5
880
330
1A
100
AcDbEntity
  8
SEIHIN
  6
CONTINUOUS
 62
     3
100
AcDbLine
 10
512.0237679974638
 20
345.4880064842837
 30
0.0
 11
519.0237679974639
 21
345.4880064842837
 31
0.0
  0
LINE
  5
881
330
1A
100
AcDbEntity
  8
SEIHIN
  6
CONTINUOUS
 62
     3
100
AcDbLine
 10
512.0237679974638
 20
347.4880064842837
 30
0.0
 11
519.0237679974639
 21
347.4880064842837
 31
0.0
  0
LINE
  5
882
330
1A
100
AcDbEntity
  8
SEIHIN
  6
CONTINUOUS
 62
     3
100
AcDbLine
 10
512.0237679974638
 20
345.4880064842837
 30
0.0
 11
505.0237679974639
 21
345.4880064842837
 31
0.0
  0
ARC
  5
883
330
1A
100
AcDbEntity
  8
SEIHIN
  6
CONTINUOUS
 62
     3
100
AcDbCircle
 10
505.0237679974639
 20
343.4880064842837
 30
0.0
 40
1.999999999999914
100
AcDbArc
 50
90.00000000000245
 51
180.0000000000024
  0
LINE
  5
884
330
1A
100
AcDbEntity
  8
SEIHIN
  6
CONTINUOUS
 62
     3
100
AcDbLine
 10
512.0237679974638
 20
347.4880064842837
 30
0.0
 11
505.0237679974639
 21
347.4880064842837
 31
0.0
  0
ARC
  5
885
330
1A
100
AcDbEntity
  8
SEIHIN
  6
CONTINUOUS
 62
     3
100
AcDbCircle
 10
505.0237679974639
 20
349.4880064842837
 30
0.0
 40
1.999999999999914
100
AcDbArc
 50
179.9999999999975
 51
269.9999999999975
  0
ARC
  5
886
330
1A
100
AcDbEntity
  8
SEIHIN
  6
CONTINUOUS
 62
     3
100
AcDbCircle
 10
519.0237679974639
 20
343.4880064842837
 30
0.0
 40
1.999999999999943
100
AcDbArc
 50
359.9999999999975
 51
89.99999999999674
  0
ARC
  5
887
330
1A
100
AcDbEntity
  8
SEIHIN
  6
CONTINUOUS
 62
     3
100
AcDbCircle
 10
519.0237679974639
 20
349.4880064842837
 30
0.0
 40
1.999999999999914
100
AcDbArc
 50
270.0000000000032
 51
0.0000000000024427
  0
LINE
  5
888
330
1A
100
AcDbEntity
  8
SEIHIN
  6
CONTINUOUS
 62
     3
100
AcDbLine
 10
519.0237679974639
 20
365.4880064842837
 30
0.0
 11
512.0237679974638
 21
365.4880064842837
 31
0.0
  0
LINE
  5
889
330
1A
100
AcDbEntity
  8
SEIHIN
  6
CONTINUOUS
 62
     3
100
AcDbLine
 10
519.0237679974639
 20
367.4880064842837
 30
0.0
 11
512.0237679974638
 21
367.4880064842837
 31
0.0
  0
ARC
  5
88A
330
1A
100
AcDbEntity
  8
SEIHIN
  6
CONTINUOUS
 62
     3
100
AcDbCircle
 10
502.023767997464
 20
366.4880064842837
 30
0.0
 40
2.500011137975105
100
AcDbArc
 50
23.57806707258129
 51
66.42193292741866
  0
LINE
  5
88B
330
1A
100
AcDbEntity
  8
SEIHIN
  6
CONTINUOUS
 62
     3
100
AcDbLine
 10
504.3150679974639
 20
365.4880064842837
 30
0.0
 11
512.0237679974638
 21
365.4880064842837
 31
0.0
  0
LINE
  5
88C
330
1A
100
AcDbEntity
  8
SEIHIN
  6
CONTINUOUS
 62
     3
100
AcDbLine
 10
504.3150679974639
 20
367.4880064842837
 30
0.0
 11
512.0237679974638
 21
367.4880064842837
 31
0.0
  0
ARC
  5
88D
330
1A
100
AcDbEntity
  8
SEIHIN
  6
CONTINUOUS
 62
     3
100
AcDbCircle
 10
502.0237679974639
 20
366.4880064842837
 30
0.0
 40
2.500011137975143
100
AcDbArc
 50
293.5780670725825
 51
336.4219329274204
  0
ARC
  5
88E
330
1A
100
AcDbEntity
  8
SEIHIN
  6
CONTINUOUS
 62
     3
100
AcDbCircle
 10
519.0237679974639
 20
369.4880064842836
 30
0.0
 40
1.999999999999914
100
AcDbArc
 50
270.0000000000032
 51
0.0000000000024427
  0
ARC
  5
88F
330
1A
100
AcDbEntity
  8
SEIHIN
  6
CONTINUOUS
 62
     3
100
AcDbCircle
 10
519.0237679974639
 20
363.4880064842838
 30
0.0
 40
1.999999999999943
100
AcDbArc
 50
359.9999999999975
 51
89.99999999999674
  0
LINE
  5
891
330
1A
100
AcDbEntity
  8
SEIHIN
  6
CONTINUOUS
 62
     3
100
AcDbLine
 10
512.0237679974638
 20
385.4880064842837
 30
0.0
 11
519.0237679974639
 21
385.4880064842837
 31
0.0
  0
LINE
  5
892
330
1A
100
AcDbEntity
  8
SEIHIN
  6
CONTINUOUS
 62
     3
100
AcDbLine
 10
512.0237679974638
 20
385.4880064842837
 30
0.0
 11
505.0237679974639
 21
385.4880064842837
 31
0.0
  0
ARC
  5
893
330
1A
100
AcDbEntity
  8
SEIHIN
  6
CONTINUOUS
 62
     3
100
AcDbCircle
 10
505.0237679974639
 20
383.4880064842838
 30
0.0
 40
1.999999999999914
100
AcDbArc
 50
90.00000000000245
 51
180.0000000000024
  0
ARC
  5
894
330
1A
100
AcDbEntity
  8
SEIHIN
  6
CONTINUOUS
 62
     3
100
AcDbCircle
 10
518.0237679974639
 20
383.7380064842837
 30
0.0
 40
5.0
100
AcDbArc
 50
0.0
 51
90.0
  0
ARC
  5
895
330
1A
100
AcDbEntity
  8
SEIHIN
  6
CONTINUOUS
 62
     3
100
AcDbCircle
 10
519.0237679974639
 20
383.4880064842838
 30
0.0
 40
1.999999999999943
100
AcDbArc
 50
359.9999999999975
 51
89.99999999999674
  0
DIMENSION
  5
8B6
330
1A
100
AcDbEntity
  8
SUNPOU
  6
CONTINUOUS
100
AcDbDimension
  2
*D1
 10
301.0237679974639
 20
416.3496140566248
 30
0.0
 11
412.0237679974638
 21
421.3496140566248
 31
0.0
 12
-40.54873385330483
 22
15.81623636393283
 32
0.0
 70
    32
  3
STANDARD
100
AcDbAlignedDimension
 13
523.0237679974639
 23
383.7380064842837
 33
0.0
 14
301.0237679974639
 24
383.7380064842837
 34
0.0
100
AcDbRotatedDimension
1001
ACAD
1000
DSTYLE
1002
{
1070
   140
1040
6.0
1070
    74
1070
     0
1070
   172
1070
     1
1070
    73
1070
     0
1070
   272
1070
     2
1070
    77
1070
     3
1070
   173
1070
     1
1070
   147
1040
2.0
1070
    42
1040
6.0
1070
    44
1040
3.0
1070
    43
1040
14.0
1070
   271
1070
     0
1070
   178
1070
     4
1070
   177
1070
     4
1070
   176
1070
     4
1070
   141
1040
150.0
1070
     7
1000
_OPEN
1070
     6
1000
_OPEN
1070
    41
1040
7.0
1002
}
  0
DIMENSION
  5
8D0
330
1A
100
AcDbEntity
  8
SUNPOU
  6
CONTINUOUS
100
AcDbDimension
  2
*D2
 10
320.0238526704655
 20
191.1440780095281
 30
0.0
 11
412.0237640465516
 21
196.1440780095281
 31
0.0
 12
-40.54873385330483
 22
15.81623636393283
 32
0.0
 70
    32
  3
STANDARD
100
AcDbAlignedDimension
 13
504.0236754226377
 23
224.2380064842837
 33
0.0
 14
320.0238526704655
 24
224.2380064842837
 34
0.0
100
AcDbRotatedDimension
1001
ACAD
1000
DSTYLE
1002
{
1070
   140
1040
6.0
1070
    74
1070
     0
1070
   172
1070
     1
1070
    73
1070
     0
1070
   272
1070
     2
1070
    77
1070
     3
1070
   173
1070
     1
1070
   147
1040
2.0
1070
    42
1040
6.0
1070
    44
1040
3.0
1070
    43
1040
14.0
1070
   271
1070
     0
1070
   178
1070
     4
1070
   177
1070
     4
1070
   176
1070
     4
1070
   141
1040
150.0
1070
     7
1000
_OPEN
1070
     6
1000
_OPEN
1070
    41
1040
7.0
1002
}
  0
DIMENSION
  5
8F1
330
1A
100
AcDbEntity
  8
SUNPOU
  6
CONTINUOUS
100
AcDbDimension
  2
*D3
 10
555.3375152094568
 20
224.2380064842837
 30
0.0
 11
550.3375152094568
 21
306.4880064842837
 31
0.0
 12
-29.24918611304701
 22
-2.248074912455876
 32
0.0
 70
    32
  3
STANDARD
100
AcDbAlignedDimension
 13
518.0237679974639
 23
388.7380064842837
 33
0.0
 14
500.8633679974638
 24
224.2380064842837
 34
0.0
 50
90.0
100
AcDbRotatedDimension
1001
ACAD
1000
DSTYLE
1002
{
1070
   140
1040
6.0
1070
    74
1070
     0
1070
   172
1070
     1
1070
    73
1070
     0
1070
   272
1070
     2
1070
    77
1070
     3
1070
   173
1070
     1
1070
   147
1040
2.0
1070
    42
1040
6.0
1070
    44
1040
3.0
1070
    43
1040
14.0
1070
   271
1070
     0
1070
   178
1070
     4
1070
   177
1070
     4
1070
   176
1070
     4
1070
   141
1040
150.0
1070
     7
1000
_OPEN
1070
     6
1000
_OPEN
1070
    41
1040
7.0
1002
}
  0
DIMENSION
  5
900
330
1A
100
AcDbEntity
  8
SUNPOU
  6
CONTINUOUS
100
AcDbDimension
  2
*D4
 10
555.3375152094568
 20
126.3698064842837
 30
0.0
 11
550.3375152094568
 21
132.8698064842837
 31
0.0
 12
-29.24918611304701
 22
-2.248074912455876
 32
0.0
 70
    32
  3
STANDARD
100
AcDbAlignedDimension
 13
523.0236679974638
 23
139.3698064842837
 33
0.0
 14
523.0236679974638
 24
126.3698064842837
 34
0.0
 50
90.0
100
AcDbRotatedDimension
1001
ACAD
1000
DSTYLE
1002
{
1070
   140
1040
6.0
1070
    74
1070
     0
1070
   172
1070
     1
1070
    73
1070
     0
1070
   272
1070
     2
1070
    77
1070
     3
1070
   173
1070
     1
1070
   147
1040
2.0
1070
    42
1040
6.0
1070
    44
1040
3.0
1070
    43
1040
14.0
1070
   271
1070
     0
1070
   178
1070
     4
1070
   177
1070
     4
1070
   176
1070
     4
1070
   141
1040
150.0
1070
     7
1000
_OPEN
1070
     6
1000
_OPEN
1070
    41
1040
7.0
1002
}
  0
VIEWPORT
  5
22
330
17
100
AcDbEntity
 67
     1
  8
0
100
AcDbViewport
 10
313.6808219178082
 20
148.5
 30
0.0
 40
627.3616438356165
 41
297.0
 68
     2
 69
     1
1001
ACAD
1000
MVIEW
1002
{
1070
    16
1010
0.0
1020
0.0
1030
0.0
1010
0.0
1020
0.0
1030
1.0
1040
0.0
1040
297.0
1040
313.6808219178082
1040
148.5
1040
50.0
1040
0.0
1040
0.0
1070
     0
1070
   100
1070
     1
1070
     0
1070
     0
1070
     0
1070
     0
1070
     0
1040
0.0
1040
0.0
1040
0.0
1040
1.0
1040
1.0
1040
10.0
1040
10.0
1070
     0
1002
{
1002
}
1002
}
  0
VIEWPORT
  5
64
330
17
100
AcDbEntity
 67
     1
  8
VIEWPORT
100
AcDbViewport
 10
210.0
 20
148.5
 30
0.0
 40
420.0
 41
297.0
 68
     1
 69
     2
1001
ACAD
1000
MVIEW
1002
{
1070
    16
1010
0.0
1020
0.0
1030
0.0
1010
0.0
1020
0.0
1030
1.0
1040
0.0
1040
605.8799999999998
1040
420.0
1040
297.0
1040
50.0
1040
0.0
1040
0.0
1070
     0
1070
   100
1070
     1
1070
     0
1070
     0
1070
     0
1070
     0
1070
     0
1040
0.0
1040
0.0
1040
0.0
1040
10.0
1040
10.0
1040
0.0
1040
0.0
1070
     0
1002
{
1002
}
1002
}
  0
ENDSEC
  0
SECTION
  2
OBJECTS
  0
DICTIONARY
  5
C
330
0
100
AcDbDictionary
  3
ACAD_GROUP
350
D
  3
ACAD_LAYOUT
350
906
  3
ACAD_MLINESTYLE
350
E
  3
ACAD_PLOTSETTINGS
350
907
1001
ACAD
1000
TREAT_AS_HARD
1070
     0
  0
DICTIONARY
  5
933
330
1A
100
AcDbDictionary
  3
ACAD_LAYOUTSELFREF
350
977
1001
ACAD
1000
TREAT_AS_HARD
1070
     1
  0
DICTIONARY
  5
931
330
17
100
AcDbDictionary
  3
ACAD_LAYOUTSELFREF
350
976
1001
ACAD
1000
TREAT_AS_HARD
1070
     1
  0
DICTIONARY
  5
D
102
{ACAD_REACTORS
330
C
102
}
330
C
100
AcDbDictionary
1001
ACAD
1000
TREAT_AS_HARD
1070
     0
  0
DICTIONARY
  5
906
102
{ACAD_REACTORS
330
C
102
}
330
C
100
AcDbDictionary
1001
ACAD
1000
TREAT_AS_HARD
1070
     0
  0
DICTIONARY
  5
E
102
{ACAD_REACTORS
330
C
102
}
330
C
100
AcDbDictionary
  3
STANDARD
350
13
1001
ACAD
1000
TREAT_AS_HARD
1070
     0
  0
DICTIONARY
  5
907
102
{ACAD_REACTORS
330
C
102
}
330
C
100
AcDbDictionary
1001
ACAD
1000
TREAT_AS_HARD
1070
     0
  0
XRECORD
  5
977
102
{ACAD_REACTORS
330
933
102
}
330
933
100
AcDbXrecord
340
1A
  0
XRECORD
  5
976
102
{ACAD_REACTORS
330
931
102
}
330
931
100
AcDbXrecord
340
17
  0
MLINESTYLE
  5
13
102
{ACAD_REACTORS
330
E
102
}
330
E
100
AcDbMlineStyle
  2
STANDARD
 70
     0
  3

 62
     0
 51
90.0
 52
90.0
 71
     2
 49
0.5
 62
   256
  6
BYLAYER
 49
-0.5
 62
   256
  6
BYLAYER
  0
ENDSEC
  0
EOF
