  0
SECTION
  2
HEADER
  9
$ACADVER
  1
AC1012
  9
$DWGCODEPAGE
  3
dos932
  9
$INSBASE
 10
0.0
 20
0.0
 30
0.0
  9
$EXTMIN
 10
10.0360127096485
 20
4.921601730540487
 30
-0.0000000000112498
  9
$EXTMAX
 10
806.2518329711769
 20
563.79062024433
 30
0.0000000000002956
  9
$LIMMIN
 10
0.0
 20
0.0
  9
$LIMMAX
 10
840.0
 20
594.0
  9
$ORTHOMODE
 70
     1
  9
$REGENMODE
 70
     1
  9
$FILLMODE
 70
     1
  9
$QTEXTMODE
 70
     0
  9
$MIRRTEXT
 70
     1
  9
$DRAGMODE
 70
     2
  9
$LTSCALE
 40
2.0
  9
$OSMODE
 70
    37
  9
$ATTMODE
 70
     1
  9
$TEXTSIZE
 40
5.0
  9
$TRACEWID
 40
1.0
  9
$TEXTSTYLE
  7
STANDARD
  9
$CLAYER
  8
SUNPOU
  9
$CELTYPE
  6
BYLAYER
  9
$CECOLOR
 62
   256
  9
$CELTSCALE
 40
1.0
  9
$DELOBJ
 70
     1
  9
$DISPSILH
 70
     0
  9
$DIMSCALE
 40
1.0
  9
$DIMASZ
 40
7.0
  9
$DIMEXO
 40
6.0
  9
$DIMDLI
 40
14.0
  9
$DIMRND
 40
0.0
  9
$DIMDLE
 40
0.0
  9
$DIMEXE
 40
3.0
  9
$DIMTP
 40
0.0
  9
$DIMTM
 40
0.0
  9
$DIMTXT
 40
6.0
  9
$DIMCEN
 40
150.0
  9
$DIMTSZ
 40
0.0
  9
$DIMTOL
 70
     0
  9
$DIMLIM
 70
     0
  9
$DIMTIH
 70
     0
  9
$DIMTOH
 70
     0
  9
$DIMSE1
 70
     0
  9
$DIMSE2
 70
     0
  9
$DIMTAD
 70
     3
  9
$DIMZIN
 70
     0
  9
$DIMBLK
  1

  9
$DIMASO
 70
     1
  9
$DIMSHO
 70
     1
  9
$DIMPOST
  1

  9
$DIMAPOST
  1

  9
$DIMALT
 70
     0
  9
$DIMALTD
 70
     2
  9
$DIMALTF
 40
25.4
  9
$DIMLFAC
 40
1.0
  9
$DIMTOFL
 70
     1
  9
$DIMTVP
 40
0.0
  9
$DIMTIX
 70
     0
  9
$DIMSOXD
 70
     0
  9
$DIMSAH
 70
     1
  9
$DIMBLK1
  1
OPEN
  9
$DIMBLK2
  1
OPEN
  9
$DIMSTYLE
  2
STANDARD
  9
$DIMCLRD
 70
   256
  9
$DIMCLRE
 70
   256
  9
$DIMCLRT
 70
   256
  9
$DIMTFAC
 40
1.0
  9
$DIMGAP
 40
2.0
  9
$DIMJUST
 70
     0
  9
$DIMSD1
 70
     0
  9
$DIMSD2
 70
     0
  9
$DIMTOLJ
 70
     1
  9
$DIMTZIN
 70
     0
  9
$DIMALTZ
 70
     0
  9
$DIMALTTZ
 70
     0
  9
$DIMFIT
 70
     3
  9
$DIMUPT
 70
     0
  9
$DIMUNIT
 70
     2
  9
$DIMDEC
 70
     0
  9
$DIMTDEC
 70
     0
  9
$DIMALTU
 70
     2
  9
$DIMALTTD
 70
     2
  9
$DIMTXSTY
  7
STANDARD
  9
$DIMAUNIT
 70
     0
  9
$LUNITS
 70
     2
  9
$LUPREC
 70
     4
  9
$SKETCHINC
 40
1.0
  9
$FILLETRAD
 40
20.0
  9
$AUNITS
 70
     0
  9
$AUPREC
 70
     0
  9
$MENU
  1
.
  9
$ELEVATION
 40
0.0
  9
$PELEVATION
 40
0.0
  9
$THICKNESS
 40
0.0
  9
$LIMCHECK
 70
     0
  9
$BLIPMODE
 70
     0
  9
$CHAMFERA
 40
20.0
  9
$CHAMFERB
 40
20.0
  9
$CHAMFERC
 40
40.0
  9
$CHAMFERD
 40
0.0
  9
$SKPOLY
 70
     0
  9
$TDCREATE
 40
2450994.354346065
  9
$TDUPDATE
 40
2452395.861738854
  9
$TDINDWG
 40
0.0112680208
  9
$TDUSRTIMER
 40
0.0112680208
  9
$USRTIMER
 70
     1
  9
$ANGBASE
 50
0.0
  9
$ANGDIR
 70
     0
  9
$PDMODE
 70
     1
  9
$PDSIZE
 40
0.0
  9
$PLINEWID
 40
0.0
  9
$COORDS
 70
     1
  9
$SPLFRAME
 70
     0
  9
$SPLINETYPE
 70
     6
  9
$SPLINESEGS
 70
     8
  9
$ATTDIA
 70
     0
  9
$ATTREQ
 70
     1
  9
$HANDLING
 70
 10241
  9
$HANDSEED
  5
AB4
  9
$SURFTAB1
 70
     6
  9
$SURFTAB2
 70
     6
  9
$SURFTYPE
 70
     6
  9
$SURFU
 70
     6
  9
$SURFV
 70
     6
  9
$UCSNAME
  2

  9
$UCSORG
 10
0.0
 20
0.0
 30
0.0
  9
$UCSXDIR
 10
1.0
 20
0.0
 30
0.0
  9
$UCSYDIR
 10
0.0
 20
1.0
 30
0.0
  9
$PUCSNAME
  2

  9
$PUCSORG
 10
0.0
 20
0.0
 30
0.0
  9
$PUCSXDIR
 10
1.0
 20
0.0
 30
0.0
  9
$PUCSYDIR
 10
0.0
 20
1.0
 30
0.0
  9
$USERI1
 70
     0
  9
$USERI2
 70
     0
  9
$USERI3
 70
     0
  9
$USERI4
 70
     0
  9
$USERI5
 70
     0
  9
$USERR1
 40
0.0
  9
$USERR2
 40
0.0
  9
$USERR3
 40
0.0
  9
$USERR4
 40
0.0
  9
$USERR5
 40
0.0
  9
$WORLDVIEW
 70
     1
  9
$SHADEDGE
 70
     3
  9
$SHADEDIF
 70
    70
  9
$TILEMODE
 70
     1
  9
$MAXACTVP
 70
    16
  9
$PINSBASE
 10
0.0
 20
0.0
 30
0.0
  9
$PLIMCHECK
 70
     0
  9
$PEXTMIN
 10
0.0
 20
0.0
 30
0.0
  9
$PEXTMAX
 10
420.0
 20
297.0
 30
0.0
  9
$PLIMMIN
 10
0.0
 20
0.0
  9
$PLIMMAX
 10
420.0
 20
297.0
  9
$UNITMODE
 70
     0
  9
$VISRETAIN
 70
     0
  9
$PLINEGEN
 70
     0
  9
$PSLTSCALE
 70
     1
  9
$TREEDEPTH
 70
  3020
  9
$PICKSTYLE
 70
     1
  9
$CMLSTYLE
  2
STANDARD
  9
$CMLJUST
 70
     0
  9
$CMLSCALE
 40
1.0
  9
$SAVEIMAGES
 70
     1
  0
ENDSEC
  0
SECTION
  2
CLASSES
  0
CLASS
  1
ACDBDICTIONARYWDFLT
  2
AcDbDictionaryWithDefault
  3
AutoCAD 2000
 90
    32768
280
     0
281
     0
  0
CLASS
  1
ACDBPLACEHOLDER
  2
AcDbPlaceHolder
  3
AutoCAD 2000
 90
    32768
280
     0
281
     0
  0
CLASS
  1
LAYOUT
  2
AcDbLayout
  3
AutoCAD 2000
 90
    32768
280
     0
281
     0
  0
CLASS
  1
LONG_TRANSACTION
  2
AcDbLongTransaction
  3
AutoCAD 2000
 90
    32768
280
     0
281
     0
  0
CLASS
  1
LWPOLYLINE
  2
AcDbPolyline
  3
AutoCAD 2000
 90
    32768
280
     0
281
     1
  0
CLASS
  1
HATCH
  2
AcDbHatch
  3
AutoCAD 2000
 90
    32768
280
     0
281
     1
  0
CLASS
  1
XRECORD
  2
AcDbXrecord
  3
AutoCAD 2000
 90
    32768
280
     0
281
     0
  0
CLASS
  1
LONG_TRANSACTION
  2
AcDbLongTransaction
  3
AutoCAD 2000
 90
    32768
280
     0
281
     0
  0
CLASS
  1
LWPOLYLINE
  2
AcDbPolyline
  3
AutoCAD 2000
 90
    32768
280
     0
281
     1
  0
CLASS
  1
HATCH
  2
AcDbHatch
  3
AutoCAD 2000
 90
    32768
280
     0
281
     1
  0
CLASS
  1
XRECORD
  2
AcDbXrecord
  3
AutoCAD 2000
 90
    32768
280
     0
281
     0
  0
CLASS
  1
LONG_TRANSACTION
  2
AcDbLongTransaction
  3
AutoCAD 2000
 90
    32768
280
     0
281
     0
  0
CLASS
  1
LWPOLYLINE
  2
AcDbPolyline
  3
AutoCAD 2000
 90
    32768
280
     0
281
     1
  0
CLASS
  1
HATCH
  2
AcDbHatch
  3
AutoCAD 2000
 90
    32768
280
     0
281
     1
  0
CLASS
  1
XRECORD
  2
AcDbXrecord
  3
AutoCAD 2000
 90
    32768
280
     0
281
     0
  0
ENDSEC
  0
SECTION
  2
TABLES
  0
TABLE
  2
VPORT
  5
8
330
0
100
AcDbSymbolTable
 70
     3
  0
VPORT
  5
A60
330
8
100
AcDbSymbolTableRecord
100
AcDbViewportTableRecord
  2
*ACTIVE
 70
     0
 10
0.0
 20
0.0
 11
1.0
 21
1.0
 12
420.0
 22
297.0
 13
0.0
 23
0.0
 14
5.0
 24
5.0
 15
0.0
 25
0.0
 16
0.0
 26
0.0
 36
1.0
 17
0.0
 27
0.0
 37
0.0
 40
600.6245353159852
 41
2.169459962756052
 42
50.0
 43
0.0
 44
0.0
 50
0.0
 51
0.0
 71
     0
 72
   100
 73
     1
 74
     0
 75
     0
 76
     0
 77
     0
 78
     0
  0
ENDTAB
  0
TABLE
  2
LTYPE
  5
5
330
0
100
AcDbSymbolTable
 70
     2
  0
LTYPE
  5
14
330
5
100
AcDbSymbolTableRecord
100
AcDbLinetypeTableRecord
  2
BYBLOCK
 70
     0
  3

 72
    65
 73
     0
 40
0.0
  0
LTYPE
  5
15
330
5
100
AcDbSymbolTableRecord
100
AcDbLinetypeTableRecord
  2
BYLAYER
 70
     0
  3

 72
    65
 73
     0
 40
0.0
  0
LTYPE
  5
16
330
5
100
AcDbSymbolTableRecord
100
AcDbLinetypeTableRecord
  2
CONTINUOUS
 70
     0
  3
Solid line
 72
    65
 73
     0
 40
0.0
  0
LTYPE
  5
135
330
5
100
AcDbSymbolTableRecord
100
AcDbLinetypeTableRecord
  2
CENTER
 70
     0
  3
____ _ ____ _ ____ _ ____ _ ____ _ ____ _ ____ 
 72
    65
 73
     4
 40
2.0
 49
1.25
 74
     0
 49
-0.25
 74
     0
 49
0.25
 74
     0
 49
-0.25
 74
     0
  0
ENDTAB
  0
TABLE
  2
LAYER
  5
2
330
0
100
AcDbSymbolTable
 70
     7
  0
LAYER
  5
F
330
2
100
AcDbSymbolTableRecord
100
AcDbLayerTableRecord
  2
0
 70
     0
 62
     7
  6
CONTINUOUS
  0
LAYER
  5
62
330
2
100
AcDbSymbolTableRecord
100
AcDbLayerTableRecord
  2
VIEWPORT
 70
     0
 62
     7
  6
CONTINUOUS
  0
LAYER
  5
65
330
2
100
AcDbSymbolTableRecord
100
AcDbLayerTableRecord
  2
ZUWAKU
 70
     0
 62
     7
  6
CONTINUOUS
  0
LAYER
  5
1D2
330
2
100
AcDbSymbolTableRecord
100
AcDbLayerTableRecord
  2
SEIHIN
 70
     0
 62
     3
  6
CONTINUOUS
  0
LAYER
  5
1D3
330
2
100
AcDbSymbolTableRecord
100
AcDbLayerTableRecord
  2
SUNPOU
 70
     0
 62
     4
  6
CONTINUOUS
  0
LAYER
  5
1D4
330
2
100
AcDbSymbolTableRecord
100
AcDbLayerTableRecord
  2
CENTER_L
 70
     0
 62
     1
  6
CENTER
  0
LAYER
  5
1D5
330
2
100
AcDbSymbolTableRecord
100
AcDbLayerTableRecord
  2
DEFPOINTS
 70
     0
 62
     7
  6
CONTINUOUS
  0
ENDTAB
  0
TABLE
  2
STYLE
  5
3
330
0
100
AcDbSymbolTable
 70
     1
  0
STYLE
  5
10
330
3
100
AcDbSymbolTableRecord
100
AcDbTextStyleTableRecord
  2
STANDARD
 70
     0
 40
0.0
 41
1.0
 50
0.0
 71
     0
 42
5.0
  3
TXT
  4
bigfont.shx
  0
ENDTAB
  0
TABLE
  2
VIEW
  5
6
330
0
100
AcDbSymbolTable
 70
     0
  0
ENDTAB
  0
TABLE
  2
UCS
  5
7
330
0
100
AcDbSymbolTable
 70
     0
  0
ENDTAB
  0
TABLE
  2
APPID
  5
9
330
0
100
AcDbSymbolTable
 70
     1
  0
APPID
  5
11
330
9
100
AcDbSymbolTableRecord
100
AcDbRegAppTableRecord
  2
ACAD
 70
     0
  0
ENDTAB
  0
TABLE
  2
DIMSTYLE
  5
A
330
0
100
AcDbSymbolTable
 70
     1
  0
DIMSTYLE
105
1D
102
{ACAD_REACTORS
330
289
330
288
330
287
330
28B
330
28A
330
293
330
292
330
28C
330
2C8
330
32D
330
663
330
69A
330
837
330
844
330
851
330
658
330
657
330
62A
330
644
330
640
330
629
330
651
330
964
330
971
330
97E
330
98B
330
998
330
9A5
330
8AD
330
8AC
330
89E
330
89D
330
8C0
330
8BF
330
8BE
102
}
330
A
100
AcDbSymbolTableRecord
100
AcDbDimStyleTableRecord
  2
STANDARD
 70
     0
  3

  4

  5

  6

  7

 40
1.0
 41
0.18
 42
0.0625
 43
0.38
 44
0.18
 45
0.0
 46
0.0
 47
0.0
 48
0.0
140
0.18
141
0.09
142
0.0
143
25.4
144
1.0
145
0.0
146
1.0
147
0.09
 71
     0
 72
     0
 73
     1
 74
     1
 75
     0
 76
     0
 77
     0
 78
     0
170
     0
171
     2
172
     0
173
     0
174
     0
175
     0
176
     0
177
     0
178
     0
270
     2
271
     4
272
     4
273
     2
274
     2
340
10
275
     0
280
     0
281
     0
282
     0
283
     1
284
     0
285
     0
286
     0
287
     3
288
     0
  0
ENDTAB
  0
TABLE
  2
BLOCK_RECORD
  5
1
330
0
100
AcDbSymbolTable
 70
    46
  0
BLOCK_RECORD
  5
1A
102
{ACAD_XDICTIONARY
360
4E6
102
}
330
1
100
AcDbSymbolTableRecord
100
AcDbBlockTableRecord
  2
*MODEL_SPACE
  0
BLOCK_RECORD
  5
17
102
{ACAD_XDICTIONARY
360
4E4
102
}
330
1
100
AcDbSymbolTableRecord
100
AcDbBlockTableRecord
  2
*PAPER_SPACE
  0
BLOCK_RECORD
  5
6D
330
1
100
AcDbSymbolTableRecord
100
AcDbBlockTableRecord
  2
_OPEN
  0
BLOCK_RECORD
  5
334
330
1
100
AcDbSymbolTableRecord
100
AcDbBlockTableRecord
  2
*D1
  0
BLOCK_RECORD
  5
340
330
1
100
AcDbSymbolTableRecord
100
AcDbBlockTableRecord
  2
*D2
  0
BLOCK_RECORD
  5
34E
330
1
100
AcDbSymbolTableRecord
100
AcDbBlockTableRecord
  2
*D3
  0
BLOCK_RECORD
  5
35A
330
1
100
AcDbSymbolTableRecord
100
AcDbBlockTableRecord
  2
*D4
  0
BLOCK_RECORD
  5
366
330
1
100
AcDbSymbolTableRecord
100
AcDbBlockTableRecord
  2
*D5
  0
BLOCK_RECORD
  5
372
330
1
100
AcDbSymbolTableRecord
100
AcDbBlockTableRecord
  2
*D6
  0
BLOCK_RECORD
  5
37E
330
1
100
AcDbSymbolTableRecord
100
AcDbBlockTableRecord
  2
*D7
  0
BLOCK_RECORD
  5
38A
330
1
100
AcDbSymbolTableRecord
100
AcDbBlockTableRecord
  2
*D8
  0
BLOCK_RECORD
  5
396
330
1
100
AcDbSymbolTableRecord
100
AcDbBlockTableRecord
  2
*D9
  0
BLOCK_RECORD
  5
3A2
330
1
100
AcDbSymbolTableRecord
100
AcDbBlockTableRecord
  2
*D10
  0
BLOCK_RECORD
  5
528
330
1
100
AcDbSymbolTableRecord
100
AcDbBlockTableRecord
  2
*D11
  0
BLOCK_RECORD
  5
534
330
1
100
AcDbSymbolTableRecord
100
AcDbBlockTableRecord
  2
*D12
  0
BLOCK_RECORD
  5
540
330
1
100
AcDbSymbolTableRecord
100
AcDbBlockTableRecord
  2
*D13
  0
BLOCK_RECORD
  5
54C
330
1
100
AcDbSymbolTableRecord
100
AcDbBlockTableRecord
  2
*D14
  0
BLOCK_RECORD
  5
558
330
1
100
AcDbSymbolTableRecord
100
AcDbBlockTableRecord
  2
*D15
  0
BLOCK_RECORD
  5
564
330
1
100
AcDbSymbolTableRecord
100
AcDbBlockTableRecord
  2
*D16
  0
BLOCK_RECORD
  5
570
330
1
100
AcDbSymbolTableRecord
100
AcDbBlockTableRecord
  2
*D17
  0
BLOCK_RECORD
  5
57C
330
1
100
AcDbSymbolTableRecord
100
AcDbBlockTableRecord
  2
*D18
  0
BLOCK_RECORD
  5
588
330
1
100
AcDbSymbolTableRecord
100
AcDbBlockTableRecord
  2
*D19
  0
BLOCK_RECORD
  5
6B4
330
1
100
AcDbSymbolTableRecord
100
AcDbBlockTableRecord
  2
*D21
  0
BLOCK_RECORD
  5
6C0
330
1
100
AcDbSymbolTableRecord
100
AcDbBlockTableRecord
  2
*D22
  0
BLOCK_RECORD
  5
6CC
330
1
100
AcDbSymbolTableRecord
100
AcDbBlockTableRecord
  2
*D23
  0
BLOCK_RECORD
  5
6D8
330
1
100
AcDbSymbolTableRecord
100
AcDbBlockTableRecord
  2
*D24
  0
BLOCK_RECORD
  5
6E4
330
1
100
AcDbSymbolTableRecord
100
AcDbBlockTableRecord
  2
*D25
  0
BLOCK_RECORD
  5
6F0
330
1
100
AcDbSymbolTableRecord
100
AcDbBlockTableRecord
  2
*D26
  0
BLOCK_RECORD
  5
6FC
330
1
100
AcDbSymbolTableRecord
100
AcDbBlockTableRecord
  2
*D27
  0
BLOCK_RECORD
  5
708
330
1
100
AcDbSymbolTableRecord
100
AcDbBlockTableRecord
  2
*D28
  0
BLOCK_RECORD
  5
714
330
1
100
AcDbSymbolTableRecord
100
AcDbBlockTableRecord
  2
*D29
  0
BLOCK_RECORD
  5
838
330
1
100
AcDbSymbolTableRecord
100
AcDbBlockTableRecord
  2
*D30
  0
BLOCK_RECORD
  5
845
330
1
100
AcDbSymbolTableRecord
100
AcDbBlockTableRecord
  2
*D31
  0
BLOCK_RECORD
  5
852
330
1
100
AcDbSymbolTableRecord
100
AcDbBlockTableRecord
  2
*D32
  0
BLOCK_RECORD
  5
8D0
330
1
100
AcDbSymbolTableRecord
100
AcDbBlockTableRecord
  2
*D33
  0
BLOCK_RECORD
  5
8DC
330
1
100
AcDbSymbolTableRecord
100
AcDbBlockTableRecord
  2
*D34
  0
BLOCK_RECORD
  5
8E8
330
1
100
AcDbSymbolTableRecord
100
AcDbBlockTableRecord
  2
*D35
  0
BLOCK_RECORD
  5
8F4
330
1
100
AcDbSymbolTableRecord
100
AcDbBlockTableRecord
  2
*D36
  0
BLOCK_RECORD
  5
900
330
1
100
AcDbSymbolTableRecord
100
AcDbBlockTableRecord
  2
*D37
  0
BLOCK_RECORD
  5
90C
330
1
100
AcDbSymbolTableRecord
100
AcDbBlockTableRecord
  2
*D38
  0
BLOCK_RECORD
  5
918
330
1
100
AcDbSymbolTableRecord
100
AcDbBlockTableRecord
  2
*D39
  0
BLOCK_RECORD
  5
965
330
1
100
AcDbSymbolTableRecord
100
AcDbBlockTableRecord
  2
*D40
  0
BLOCK_RECORD
  5
972
330
1
100
AcDbSymbolTableRecord
100
AcDbBlockTableRecord
  2
*D41
  0
BLOCK_RECORD
  5
97F
330
1
100
AcDbSymbolTableRecord
100
AcDbBlockTableRecord
  2
*D42
  0
BLOCK_RECORD
  5
98C
330
1
100
AcDbSymbolTableRecord
100
AcDbBlockTableRecord
  2
*D43
  0
BLOCK_RECORD
  5
999
330
1
100
AcDbSymbolTableRecord
100
AcDbBlockTableRecord
  2
*D44
  0
BLOCK_RECORD
  5
9A6
330
1
100
AcDbSymbolTableRecord
100
AcDbBlockTableRecord
  2
*D45
  0
ENDTAB
  0
ENDSEC
  0
SECTION
  2
BLOCKS
  0
BLOCK
  5
1B
330
1A
100
AcDbEntity
  8
0
100
AcDbBlockBegin
  2
*MODEL_SPACE
 70
     0
 10
0.0
 20
0.0
 30
0.0
  3
*MODEL_SPACE
  1

  0
ENDBLK
  5
1C
330
1A
100
AcDbEntity
  8
0
100
AcDbBlockEnd
  0
BLOCK
  5
18
330
17
100
AcDbEntity
 67
     1
  8
0
100
AcDbBlockBegin
  2
*PAPER_SPACE
 70
     0
 10
0.0
 20
0.0
 30
0.0
  3
*PAPER_SPACE
  1

  0
ENDBLK
  5
19
330
17
100
AcDbEntity
 67
     1
  8
0
100
AcDbBlockEnd
  0
BLOCK
  5
6E
330
6D
100
AcDbEntity
  8
0
100
AcDbBlockBegin
  2
_OPEN
 70
     0
 10
0.0
 20
0.0
 30
0.0
  3
_OPEN
  1

  0
LINE
  5
6F
330
6D
100
AcDbEntity
  8
0
  6
BYBLOCK
 62
     0
100
AcDbLine
 10
-1.0
 20
0.1666666666666666
 30
0.0
 11
0.0
 21
0.0
 31
0.0
  0
LINE
  5
70
330
6D
100
AcDbEntity
  8
0
  6
BYBLOCK
 62
     0
100
AcDbLine
 10
0.0
 20
0.0
 30
0.0
 11
-1.0
 21
-0.1666666666666666
 31
0.0
  0
LINE
  5
71
330
6D
100
AcDbEntity
  8
0
  6
BYBLOCK
 62
     0
100
AcDbLine
 10
0.0
 20
0.0
 30
0.0
 11
-1.0
 21
0.0
 31
0.0
  0
ENDBLK
  5
72
330
6D
100
AcDbEntity
  8
0
100
AcDbBlockEnd
  0
BLOCK
  5
3AE
330
334
100
AcDbEntity
  8
0
100
AcDbBlockBegin
  2
*D1
 70
     1
 10
0.0
 20
0.0
 30
0.0
  3
*D1
  1

  0
LINE
  5
3AF
330
334
100
AcDbEntity
  8
0
  6
BYBLOCK
 62
     4
100
AcDbLine
 10
370.6568746582754
 20
320.3158811387814
 30
0.0
 11
422.276182188148
 21
320.3158811387814
 31
0.0
  0
LINE
  5
3B0
330
334
100
AcDbEntity
  8
0
  6
BYBLOCK
 62
     4
100
AcDbLine
 10
369.6568746582754
 20
260.3158442891715
 30
0.0
 11
422.276182188148
 21
260.3158442891715
 31
0.0
  0
LINE
  5
3B1
330
334
100
AcDbEntity
  8
0
  6
BYBLOCK
 62
     4
100
AcDbLine
 10
419.276182188148
 20
313.3158811387815
 30
0.0
 11
419.276182188148
 21
267.3158442891715
 31
0.0
  0
INSERT
  5
3B2
330
334
100
AcDbEntity
  8
0
  6
BYBLOCK
 62
     4
100
AcDbBlockReference
  2
_OPEN
 10
419.276182188148
 20
320.3158811387814
 30
0.0
 41
7.0
 42
7.0
 43
7.0
 50
90.0
  0
INSERT
  5
3B3
330
334
100
AcDbEntity
  8
0
  6
BYBLOCK
 62
     4
100
AcDbBlockReference
  2
_OPEN
 10
419.276182188148
 20
260.3158442891715
 30
0.0
 41
7.0
 42
7.0
 43
7.0
 50
270.0
  0
MTEXT
  5
3B4
330
334
100
AcDbEntity
  8
0
  6
BYBLOCK
 62
     4
100
AcDbMText
 10
414.276182188148
 20
290.3158627139765
 30
0.0
 40
6.0
 41
0.0
 71
     5
 72
     1
  1
\A1;60
 11
0.0
 21
1.0
 31
0.0
1001
ACAD
1000
MTEXTBEGIN
1070
    73
1070
     1
1070
    44
1040
1.0
1070
    74
1070
     0
1000
MTEXTEND
1000
MTEXTBEGIN
1070
    73
1070
     1
1070
    44
1040
1.0
1070
    74
1070
     0
1000
MTEXTEND
1000
MTEXTBEGIN
1070
    73
1070
     1
1070
    44
1040
1.0
1070
    74
1070
     0
1000
MTEXTEND
  0
POINT
  5
3B5
330
334
100
AcDbEntity
  8
DEFPOINTS
  6
BYBLOCK
 62
     0
100
AcDbPoint
 10
364.6568746582754
 20
320.3158811387814
 30
0.0
  0
POINT
  5
3B6
330
334
100
AcDbEntity
  8
DEFPOINTS
  6
BYBLOCK
 62
     0
100
AcDbPoint
 10
363.6568746582754
 20
260.3158442891715
 30
0.0
  0
POINT
  5
3B7
330
334
100
AcDbEntity
  8
DEFPOINTS
  6
BYBLOCK
 62
     0
100
AcDbPoint
 10
419.276182188148
 20
260.3158442891715
 30
0.0
  0
ENDBLK
  5
3B8
330
334
100
AcDbEntity
  8
0
100
AcDbBlockEnd
  0
BLOCK
  5
3B9
330
340
100
AcDbEntity
  8
0
100
AcDbBlockBegin
  2
*D2
 70
     1
 10
0.0
 20
0.0
 30
0.0
  3
*D2
  1

  0
LINE
  5
3BA
330
340
100
AcDbEntity
  8
0
  6
BYBLOCK
 62
     4
100
AcDbLine
 10
291.1568146582753
 20
340.3158811387815
 30
0.0
 11
422.276182188148
 21
340.3158811387815
 31
0.0
  0
LINE
  5
3BB
330
340
100
AcDbEntity
  8
0
  6
BYBLOCK
 62
     4
100
AcDbLine
 10
370.6568746582754
 20
320.3158811387814
 30
0.0
 11
422.276182188148
 21
320.3158811387814
 31
0.0
  0
LINE
  5
3BC
330
340
100
AcDbEntity
  8
0
  6
BYBLOCK
 62
     4
100
AcDbLine
 10
419.276182188148
 20
347.3158811387814
 30
0.0
 11
419.276182188148
 21
354.3158811387815
 31
0.0
  0
LINE
  5
3BD
330
340
100
AcDbEntity
  8
0
  6
BYBLOCK
 62
     4
100
AcDbLine
 10
419.276182188148
 20
313.3158811387815
 30
0.0
 11
419.276182188148
 21
306.3158811387815
 31
0.0
  0
LINE
  5
3BE
330
340
100
AcDbEntity
  8
0
  6
BYBLOCK
 62
     4
100
AcDbLine
 10
419.276182188148
 20
340.3158811387815
 30
0.0
 11
419.276182188148
 21
320.3158811387814
 31
0.0
  0
INSERT
  5
3BF
330
340
100
AcDbEntity
  8
0
  6
BYBLOCK
 62
     4
100
AcDbBlockReference
  2
_OPEN
 10
419.276182188148
 20
340.3158811387815
 30
0.0
 41
7.0
 42
7.0
 43
7.0
 50
270.0
  0
INSERT
  5
3C0
330
340
100
AcDbEntity
  8
0
  6
BYBLOCK
 62
     4
100
AcDbBlockReference
  2
_OPEN
 10
419.276182188148
 20
320.3158811387814
 30
0.0
 41
7.0
 42
7.0
 43
7.0
 50
90.0
  0
MTEXT
  5
3C1
330
340
100
AcDbEntity
  8
0
  6
BYBLOCK
 62
     4
100
AcDbMText
 10
414.276182188148
 20
330.3158811387814
 30
0.0
 40
6.0
 41
0.0
 71
     5
 72
     1
  1
\A1;20
 11
0.0
 21
1.0
 31
0.0
1001
ACAD
1000
MTEXTBEGIN
1070
    73
1070
     1
1070
    44
1040
1.0
1070
    74
1070
     0
1000
MTEXTEND
1000
MTEXTBEGIN
1070
    73
1070
     1
1070
    44
1040
1.0
1070
    74
1070
     0
1000
MTEXTEND
1000
MTEXTBEGIN
1070
    73
1070
     1
1070
    44
1040
1.0
1070
    74
1070
     0
1000
MTEXTEND
  0
POINT
  5
3C2
330
340
100
AcDbEntity
  8
DEFPOINTS
  6
BYBLOCK
 62
     0
100
AcDbPoint
 10
285.1568146582753
 20
340.3158811387815
 30
0.0
  0
POINT
  5
3C3
330
340
100
AcDbEntity
  8
DEFPOINTS
  6
BYBLOCK
 62
     0
100
AcDbPoint
 10
364.6568746582754
 20
320.3158811387814
 30
0.0
  0
POINT
  5
3C4
330
340
100
AcDbEntity
  8
DEFPOINTS
  6
BYBLOCK
 62
     0
100
AcDbPoint
 10
419.276182188148
 20
320.3158811387814
 30
0.0
  0
ENDBLK
  5
3C5
330
340
100
AcDbEntity
  8
0
100
AcDbBlockEnd
  0
BLOCK
  5
3C6
330
34E
100
AcDbEntity
  8
0
100
AcDbBlockBegin
  2
*D3
 70
     1
 10
0.0
 20
0.0
 30
0.0
  3
*D3
  1

  0
LINE
  5
3C7
330
34E
100
AcDbEntity
  8
0
  6
BYBLOCK
 62
     4
100
AcDbLine
 10
370.6568746582754
 20
320.3158811387814
 30
0.0
 11
403.8952315429745
 21
320.3158811387814
 31
0.0
  0
LINE
  5
3C8
330
34E
100
AcDbEntity
  8
0
  6
BYBLOCK
 62
     4
100
AcDbLine
 10
370.6568746582754
 20
280.3158811387815
 30
0.0
 11
403.8952315429745
 21
280.3158811387815
 31
0.0
  0
LINE
  5
3C9
330
34E
100
AcDbEntity
  8
0
  6
BYBLOCK
 62
     4
100
AcDbLine
 10
400.8952315429745
 20
313.3158811387815
 30
0.0
 11
400.8952315429745
 21
287.3158811387814
 31
0.0
  0
INSERT
  5
3CA
330
34E
100
AcDbEntity
  8
0
  6
BYBLOCK
 62
     4
100
AcDbBlockReference
  2
_OPEN
 10
400.8952315429745
 20
320.3158811387814
 30
0.0
 41
7.0
 42
7.0
 43
7.0
 50
90.0
  0
INSERT
  5
3CB
330
34E
100
AcDbEntity
  8
0
  6
BYBLOCK
 62
     4
100
AcDbBlockReference
  2
_OPEN
 10
400.8952315429745
 20
280.3158811387815
 30
0.0
 41
7.0
 42
7.0
 43
7.0
 50
270.0
  0
MTEXT
  5
3CC
330
34E
100
AcDbEntity
  8
0
  6
BYBLOCK
 62
     4
100
AcDbMText
 10
395.8952315429745
 20
300.3158811387815
 30
0.0
 40
6.0
 41
0.0
 71
     5
 72
     1
  1
\A1;40
 11
0.0
 21
1.0
 31
0.0
1001
ACAD
1000
MTEXTBEGIN
1070
    73
1070
     1
1070
    44
1040
1.0
1070
    74
1070
     0
1000
MTEXTEND
1000
MTEXTBEGIN
1070
    73
1070
     1
1070
    44
1040
1.0
1070
    74
1070
     0
1000
MTEXTEND
1000
MTEXTBEGIN
1070
    73
1070
     1
1070
    44
1040
1.0
1070
    74
1070
     0
1000
MTEXTEND
  0
POINT
  5
3CD
330
34E
100
AcDbEntity
  8
DEFPOINTS
  6
BYBLOCK
 62
     0
100
AcDbPoint
 10
364.6568746582754
 20
320.3158811387814
 30
0.0
  0
POINT
  5
3CE
330
34E
100
AcDbEntity
  8
DEFPOINTS
  6
BYBLOCK
 62
     0
100
AcDbPoint
 10
364.6568746582754
 20
280.3158811387815
 30
0.0
  0
POINT
  5
3CF
330
34E
100
AcDbEntity
  8
DEFPOINTS
  6
BYBLOCK
 62
     0
100
AcDbPoint
 10
400.8952315429745
 20
280.3158811387815
 30
0.0
  0
ENDBLK
  5
3D0
330
34E
100
AcDbEntity
  8
0
100
AcDbBlockEnd
  0
BLOCK
  5
3D1
330
35A
100
AcDbEntity
  8
0
100
AcDbBlockBegin
  2
*D4
 70
     1
 10
0.0
 20
0.0
 30
0.0
  3
*D4
  1

  0
LINE
  5
3D2
330
35A
100
AcDbEntity
  8
0
  6
BYBLOCK
 62
     4
100
AcDbLine
 10
203.6568746582753
 20
340.3158811387815
 30
0.0
 11
178.7408346080636
 21
340.3158811387815
 31
0.0
  0
LINE
  5
3D3
330
35A
100
AcDbEntity
  8
0
  6
BYBLOCK
 62
     4
100
AcDbLine
 10
205.807484182085
 20
220.3158811387814
 30
0.0
 11
178.7408346080636
 21
220.3158811387814
 31
0.0
  0
LINE
  5
3D4
330
35A
100
AcDbEntity
  8
0
  6
BYBLOCK
 62
     4
100
AcDbLine
 10
181.7408346080636
 20
333.3158811387814
 30
0.0
 11
181.7408346080636
 21
227.3158811387815
 31
0.0
  0
INSERT
  5
3D5
330
35A
100
AcDbEntity
  8
0
  6
BYBLOCK
 62
     4
100
AcDbBlockReference
  2
_OPEN
 10
181.7408346080636
 20
340.3158811387815
 30
0.0
 41
7.0
 42
7.0
 43
7.0
 50
90.0
  0
INSERT
  5
3D6
330
35A
100
AcDbEntity
  8
0
  6
BYBLOCK
 62
     4
100
AcDbBlockReference
  2
_OPEN
 10
181.7408346080636
 20
220.3158811387814
 30
0.0
 41
7.0
 42
7.0
 43
7.0
 50
270.0
  0
MTEXT
  5
3D7
330
35A
100
AcDbEntity
  8
0
  6
BYBLOCK
 62
     4
100
AcDbMText
 10
176.7408346080636
 20
280.3158811387815
 30
0.0
 40
6.0
 41
0.0
 71
     5
 72
     1
  1
\A1;120
 11
0.0
 21
1.0
 31
0.0
1001
ACAD
1000
MTEXTBEGIN
1070
    73
1070
     1
1070
    44
1040
1.0
1070
    74
1070
     0
1000
MTEXTEND
1000
MTEXTBEGIN
1070
    73
1070
     1
1070
    44
1040
1.0
1070
    74
1070
     0
1000
MTEXTEND
1000
MTEXTBEGIN
1070
    73
1070
     1
1070
    44
1040
1.0
1070
    74
1070
     0
1000
MTEXTEND
  0
POINT
  5
3D8
330
35A
100
AcDbEntity
  8
DEFPOINTS
  6
BYBLOCK
 62
     0
100
AcDbPoint
 10
209.6568746582753
 20
340.3158811387815
 30
0.0
  0
POINT
  5
3D9
330
35A
100
AcDbEntity
  8
DEFPOINTS
  6
BYBLOCK
 62
     0
100
AcDbPoint
 10
211.807484182085
 20
220.3158811387814
 30
0.0
  0
POINT
  5
3DA
330
35A
100
AcDbEntity
  8
DEFPOINTS
  6
BYBLOCK
 62
     0
100
AcDbPoint
 10
181.7408346080636
 20
220.3158811387814
 30
0.0
  0
ENDBLK
  5
3DB
330
35A
100
AcDbEntity
  8
0
100
AcDbBlockEnd
  0
BLOCK
  5
3DC
330
366
100
AcDbEntity
  8
0
100
AcDbBlockBegin
  2
*D5
 70
     1
 10
0.0
 20
0.0
 30
0.0
  3
*D5
  1

  0
LINE
  5
3DD
330
366
100
AcDbEntity
  8
0
  6
BYBLOCK
 62
     4
100
AcDbLine
 10
203.6568746582753
 20
340.3158811387815
 30
0.0
 11
158.3566184808349
 21
340.3158811387815
 31
0.0
  0
LINE
  5
3DE
330
366
100
AcDbEntity
  8
0
  6
BYBLOCK
 62
     4
100
AcDbLine
 10
215.5565746582754
 20
165.3158811387815
 30
0.0
 11
158.3566184808349
 21
165.3158811387815
 31
0.0
  0
LINE
  5
3DF
330
366
100
AcDbEntity
  8
0
  6
BYBLOCK
 62
     4
100
AcDbLine
 10
161.3566184808349
 20
333.3158811387814
 30
0.0
 11
161.3566184808349
 21
172.3158811387814
 31
0.0
  0
INSERT
  5
3E0
330
366
100
AcDbEntity
  8
0
  6
BYBLOCK
 62
     4
100
AcDbBlockReference
  2
_OPEN
 10
161.3566184808349
 20
340.3158811387815
 30
0.0
 41
7.0
 42
7.0
 43
7.0
 50
90.0
  0
INSERT
  5
3E1
330
366
100
AcDbEntity
  8
0
  6
BYBLOCK
 62
     4
100
AcDbBlockReference
  2
_OPEN
 10
161.3566184808349
 20
165.3158811387815
 30
0.0
 41
7.0
 42
7.0
 43
7.0
 50
270.0
  0
MTEXT
  5
3E2
330
366
100
AcDbEntity
  8
0
  6
BYBLOCK
 62
     4
100
AcDbMText
 10
156.3566184808349
 20
252.0473390268402
 30
0.0
 40
6.0
 41
0.0
 71
     5
 72
     1
  1
\A1;175
 11
0.0
 21
1.0
 31
0.0
1001
ACAD
1000
MTEXTBEGIN
1070
    73
1070
     1
1070
    44
1040
1.0
1070
    74
1070
     0
1000
MTEXTEND
1000
MTEXTBEGIN
1070
    73
1070
     1
1070
    44
1040
1.0
1070
    74
1070
     0
1000
MTEXTEND
1000
MTEXTBEGIN
1070
    73
1070
     1
1070
    44
1040
1.0
1070
    74
1070
     0
1000
MTEXTEND
  0
POINT
  5
3E3
330
366
100
AcDbEntity
  8
DEFPOINTS
  6
BYBLOCK
 62
     0
100
AcDbPoint
 10
209.6568746582753
 20
340.3158811387815
 30
0.0
  0
POINT
  5
3E4
330
366
100
AcDbEntity
  8
DEFPOINTS
  6
BYBLOCK
 62
     0
100
AcDbPoint
 10
221.5565746582754
 20
165.3158811387815
 30
0.0
  0
POINT
  5
3E5
330
366
100
AcDbEntity
  8
DEFPOINTS
  6
BYBLOCK
 62
     0
100
AcDbPoint
 10
161.3566184808349
 20
165.3158811387815
 30
0.0
  0
ENDBLK
  5
3E6
330
366
100
AcDbEntity
  8
0
100
AcDbBlockEnd
  0
BLOCK
  5
3E7
330
372
100
AcDbEntity
  8
0
100
AcDbBlockBegin
  2
*D6
 70
     1
 10
0.0
 20
0.0
 30
0.0
  3
*D6
  1

  0
LINE
  5
3E8
330
372
100
AcDbEntity
  8
0
  6
BYBLOCK
 62
     4
100
AcDbLine
 10
364.6568746582754
 20
326.3158811387814
 30
0.0
 11
364.6568746582754
 21
387.9433081590817
 31
0.0
  0
LINE
  5
3E9
330
372
100
AcDbEntity
  8
0
  6
BYBLOCK
 62
     4
100
AcDbLine
 10
209.6568746582753
 20
346.3158811387815
 30
0.0
 11
209.6568746582753
 21
387.9433081590817
 31
0.0
  0
LINE
  5
3EA
330
372
100
AcDbEntity
  8
0
  6
BYBLOCK
 62
     4
100
AcDbLine
 10
357.6568746582754
 20
384.9433081590817
 30
0.0
 11
216.6568746582753
 21
384.9433081590817
 31
0.0
  0
INSERT
  5
3EB
330
372
100
AcDbEntity
  8
0
  6
BYBLOCK
 62
     4
100
AcDbBlockReference
  2
_OPEN
 10
364.6568746582754
 20
384.9433081590817
 30
0.0
 41
7.0
 42
7.0
 43
7.0
  0
INSERT
  5
3EC
330
372
100
AcDbEntity
  8
0
  6
BYBLOCK
 62
     4
100
AcDbBlockReference
  2
_OPEN
 10
209.6568746582753
 20
384.9433081590817
 30
0.0
 41
7.0
 42
7.0
 43
7.0
 50
180.0
  0
MTEXT
  5
3ED
330
372
100
AcDbEntity
  8
0
  6
BYBLOCK
 62
     4
100
AcDbMText
 10
287.1568746582754
 20
389.9433081590817
 30
0.0
 40
6.0
 41
0.0
 71
     5
 72
     1
  1
\A1;155
1001
ACAD
1000
MTEXTBEGIN
1070
    73
1070
     1
1070
    44
1040
1.0
1070
    74
1070
     0
1000
MTEXTEND
1000
MTEXTBEGIN
1070
    73
1070
     1
1070
    44
1040
1.0
1070
    74
1070
     0
1000
MTEXTEND
1000
MTEXTBEGIN
1070
    73
1070
     1
1070
    44
1040
1.0
1070
    74
1070
     0
1000
MTEXTEND
  0
POINT
  5
3EE
330
372
100
AcDbEntity
  8
DEFPOINTS
  6
BYBLOCK
 62
     0
100
AcDbPoint
 10
364.6568746582754
 20
320.3158811387814
 30
0.0
  0
POINT
  5
3EF
330
372
100
AcDbEntity
  8
DEFPOINTS
  6
BYBLOCK
 62
     0
100
AcDbPoint
 10
209.6568746582753
 20
340.3158811387815
 30
0.0
  0
POINT
  5
3F0
330
372
100
AcDbEntity
  8
DEFPOINTS
  6
BYBLOCK
 62
     0
100
AcDbPoint
 10
209.6568746582753
 20
384.9433081590817
 30
0.0
  0
ENDBLK
  5
3F1
330
372
100
AcDbEntity
  8
0
100
AcDbBlockEnd
  0
BLOCK
  5
455
330
37E
100
AcDbEntity
  8
0
100
AcDbBlockBegin
  2
*D7
 70
     1
 10
0.0
 20
0.0
 30
0.0
  3
*D7
  1

  0
LINE
  5
456
330
37E
100
AcDbEntity
  8
0
  6
BYBLOCK
 62
     4
100
AcDbLine
 10
268.2002850346095
 20
137.7183932239621
 30
0.0
 11
268.2002850346095
 21
108.6343792246106
 31
0.0
  0
LINE
  5
457
330
37E
100
AcDbEntity
  8
0
  6
BYBLOCK
 62
     4
100
AcDbLine
 10
324.9002850346095
 20
137.7183932239621
 30
0.0
 11
324.9002850346095
 21
108.6343792246106
 31
0.0
  0
LINE
  5
458
330
37E
100
AcDbEntity
  8
0
  6
BYBLOCK
 62
     4
100
AcDbLine
 10
275.2002850346095
 20
111.6343792246105
 30
0.0
 11
317.9002850346094
 21
111.6343792246105
 31
0.0
  0
INSERT
  5
459
330
37E
100
AcDbEntity
  8
0
  6
BYBLOCK
 62
     4
100
AcDbBlockReference
  2
_OPEN
 10
268.2002850346095
 20
111.6343792246105
 30
0.0
 41
7.0
 42
7.0
 43
7.0
 50
180.0
  0
INSERT
  5
45A
330
37E
100
AcDbEntity
  8
0
  6
BYBLOCK
 62
     4
100
AcDbBlockReference
  2
_OPEN
 10
324.9002850346095
 20
111.6343792246105
 30
0.0
 41
7.0
 42
7.0
 43
7.0
  0
MTEXT
  5
45B
330
37E
100
AcDbEntity
  8
0
  6
BYBLOCK
 62
     4
100
AcDbMText
 10
296.5502850346095
 20
116.6343792246105
 30
0.0
 40
6.0
 41
0.0
 71
     5
 72
     1
  1
\A1;φ57
1001
ACAD
1000
MTEXTBEGIN
1070
    73
1070
     1
1070
    44
1040
1.0
1070
    74
1070
     0
1000
MTEXTEND
1000
MTEXTBEGIN
1070
    73
1070
     1
1070
    44
1040
1.0
1070
    74
1070
     0
1000
MTEXTEND
1000
MTEXTBEGIN
1070
    73
1070
     1
1070
    44
1040
1.0
1070
    74
1070
     0
1000
MTEXTEND
  0
POINT
  5
45C
330
37E
100
AcDbEntity
  8
DEFPOINTS
  6
BYBLOCK
 62
     0
100
AcDbPoint
 10
268.2002850346095
 20
143.7183932239621
 30
0.0
  0
POINT
  5
45D
330
37E
100
AcDbEntity
  8
DEFPOINTS
  6
BYBLOCK
 62
     0
100
AcDbPoint
 10
324.9002850346095
 20
143.7183932239621
 30
0.0
  0
POINT
  5
45E
330
37E
100
AcDbEntity
  8
DEFPOINTS
  6
BYBLOCK
 62
     0
100
AcDbPoint
 10
324.9002850346095
 20
111.6343792246105
 30
0.0
  0
ENDBLK
  5
45F
330
37E
100
AcDbEntity
  8
0
100
AcDbBlockEnd
  0
BLOCK
  5
476
330
38A
100
AcDbEntity
  8
0
100
AcDbBlockBegin
  2
*D8
 70
     1
 10
0.0
 20
0.0
 30
0.0
  3
*D8
  1

  0
LINE
  5
477
330
38A
100
AcDbEntity
  8
0
  6
BYBLOCK
 62
     4
100
AcDbLine
 10
261.2003850346096
 20
162.7183932239621
 30
0.0
 11
261.2003850346096
 21
89.43215289909096
 31
0.0
  0
LINE
  5
478
330
38A
100
AcDbEntity
  8
0
  6
BYBLOCK
 62
     4
100
AcDbLine
 10
331.9002850346096
 20
162.7183932239621
 30
0.0
 11
331.9002850346096
 21
89.43215289909096
 31
0.0
  0
LINE
  5
479
330
38A
100
AcDbEntity
  8
0
  6
BYBLOCK
 62
     4
100
AcDbLine
 10
268.2003850346096
 20
92.43215289909095
 30
0.0
 11
324.9002850346096
 21
92.43215289909095
 31
0.0
  0
INSERT
  5
47A
330
38A
100
AcDbEntity
  8
0
  6
BYBLOCK
 62
     4
100
AcDbBlockReference
  2
_OPEN
 10
261.2003850346096
 20
92.43215289909095
 30
0.0
 41
7.0
 42
7.0
 43
7.0
 50
180.0
  0
INSERT
  5
47B
330
38A
100
AcDbEntity
  8
0
  6
BYBLOCK
 62
     4
100
AcDbBlockReference
  2
_OPEN
 10
331.9002850346096
 20
92.43215289909095
 30
0.0
 41
7.0
 42
7.0
 43
7.0
  0
MTEXT
  5
47C
330
38A
100
AcDbEntity
  8
0
  6
BYBLOCK
 62
     4
100
AcDbMText
 10
296.5503350346096
 20
97.43215289909095
 30
0.0
 40
6.0
 41
0.0
 71
     5
 72
     1
  1
\A1;φ71
1001
ACAD
1000
MTEXTBEGIN
1070
    73
1070
     1
1070
    44
1040
1.0
1070
    74
1070
     0
1000
MTEXTEND
1000
MTEXTBEGIN
1070
    73
1070
     1
1070
    44
1040
1.0
1070
    74
1070
     0
1000
MTEXTEND
1000
MTEXTBEGIN
1070
    73
1070
     1
1070
    44
1040
1.0
1070
    74
1070
     0
1000
MTEXTEND
  0
POINT
  5
47D
330
38A
100
AcDbEntity
  8
DEFPOINTS
  6
BYBLOCK
 62
     0
100
AcDbPoint
 10
261.2003850346096
 20
168.7183932239621
 30
0.0
  0
POINT
  5
47E
330
38A
100
AcDbEntity
  8
DEFPOINTS
  6
BYBLOCK
 62
     0
100
AcDbPoint
 10
331.9002850346096
 20
168.7183932239621
 30
0.0
  0
POINT
  5
47F
330
38A
100
AcDbEntity
  8
DEFPOINTS
  6
BYBLOCK
 62
     0
100
AcDbPoint
 10
331.9002850346096
 20
92.43215289909095
 30
0.0
  0
ENDBLK
  5
480
330
38A
100
AcDbEntity
  8
0
100
AcDbBlockEnd
  0
BLOCK
  5
408
330
396
100
AcDbEntity
  8
0
100
AcDbBlockBegin
  2
*D9
 70
     1
 10
0.0
 20
0.0
 30
0.0
  3
*D9
  1

  0
LINE
  5
409
330
396
100
AcDbEntity
  8
0
  6
BYBLOCK
 62
     4
100
AcDbLine
 10
249.9068729231618
 20
353.3158811387814
 30
0.0
 11
249.9068729231618
 21
371.4634588801769
 31
0.0
  0
LINE
  5
40A
330
396
100
AcDbEntity
  8
0
  6
BYBLOCK
 62
     4
100
AcDbLine
 10
324.4068746582754
 20
333.3158811387814
 30
0.0
 11
324.4068746582754
 21
371.4634588801769
 31
0.0
  0
LINE
  5
40B
330
396
100
AcDbEntity
  8
0
  6
BYBLOCK
 62
     4
100
AcDbLine
 10
256.9068729231618
 20
368.4634588801769
 30
0.0
 11
317.4068746582754
 21
368.4634588801769
 31
0.0
  0
INSERT
  5
40C
330
396
100
AcDbEntity
  8
0
  6
BYBLOCK
 62
     4
100
AcDbBlockReference
  2
_OPEN
 10
249.9068729231618
 20
368.4634588801769
 30
0.0
 41
7.0
 42
7.0
 43
7.0
 50
180.0
  0
INSERT
  5
40D
330
396
100
AcDbEntity
  8
0
  6
BYBLOCK
 62
     4
100
AcDbBlockReference
  2
_OPEN
 10
324.4068746582754
 20
368.4634588801769
 30
0.0
 41
7.0
 42
7.0
 43
7.0
  0
MTEXT
  5
40E
330
396
100
AcDbEntity
  8
0
  6
BYBLOCK
 62
     4
100
AcDbMText
 10
287.1568737907186
 20
373.4634588801769
 30
0.0
 40
6.0
 41
0.0
 71
     5
 72
     1
  1
\A1;75
1001
ACAD
1000
MTEXTBEGIN
1070
    73
1070
     1
1070
    44
1040
1.0
1070
    74
1070
     0
1000
MTEXTEND
1000
MTEXTBEGIN
1070
    73
1070
     1
1070
    44
1040
1.0
1070
    74
1070
     0
1000
MTEXTEND
1000
MTEXTBEGIN
1070
    73
1070
     1
1070
    44
1040
1.0
1070
    74
1070
     0
1000
MTEXTEND
  0
POINT
  5
40F
330
396
100
AcDbEntity
  8
DEFPOINTS
  6
BYBLOCK
 62
     0
100
AcDbPoint
 10
249.9068729231618
 20
347.3158811387814
 30
0.0
  0
POINT
  5
410
330
396
100
AcDbEntity
  8
DEFPOINTS
  6
BYBLOCK
 62
     0
100
AcDbPoint
 10
324.4068746582754
 20
327.3158811387815
 30
0.0
  0
POINT
  5
411
330
396
100
AcDbEntity
  8
DEFPOINTS
  6
BYBLOCK
 62
     0
100
AcDbPoint
 10
324.4068746582754
 20
368.4634588801769
 30
0.0
  0
ENDBLK
  5
412
330
396
100
AcDbEntity
  8
0
100
AcDbBlockEnd
  0
BLOCK
  5
413
330
3A2
100
AcDbEntity
  8
0
100
AcDbBlockBegin
  2
*D10
 70
     1
 10
0.0
 20
0.0
 30
0.0
  3
*D10
  1

  0
LINE
  5
414
330
3A2
100
AcDbEntity
  8
0
  6
BYBLOCK
 62
     4
100
AcDbLine
 10
590.1569746582755
 20
346.3156811387813
 30
0.0
 11
590.1569746582755
 21
371.4634588801769
 31
0.0
  0
LINE
  5
415
330
3A2
100
AcDbEntity
  8
0
  6
BYBLOCK
 62
     4
100
AcDbLine
 10
509.6647989185448
 20
345.5171316786308
 30
0.0
 11
509.6647989185448
 21
371.4634588801769
 31
0.0
  0
LINE
  5
416
330
3A2
100
AcDbEntity
  8
0
  6
BYBLOCK
 62
     4
100
AcDbLine
 10
583.1569746582755
 20
368.4634588801769
 30
0.0
 11
516.6647989185447
 21
368.4634588801769
 31
0.0
  0
INSERT
  5
417
330
3A2
100
AcDbEntity
  8
0
  6
BYBLOCK
 62
     4
100
AcDbBlockReference
  2
_OPEN
 10
590.1569746582755
 20
368.4634588801769
 30
0.0
 41
7.0
 42
7.0
 43
7.0
  0
INSERT
  5
418
330
3A2
100
AcDbEntity
  8
0
  6
BYBLOCK
 62
     4
100
AcDbBlockReference
  2
_OPEN
 10
509.6647989185448
 20
368.4634588801769
 30
0.0
 41
7.0
 42
7.0
 43
7.0
 50
180.0
  0
MTEXT
  5
419
330
3A2
100
AcDbEntity
  8
0
  6
BYBLOCK
 62
     4
100
AcDbMText
 10
549.9108867884102
 20
373.4634588801769
 30
0.0
 40
6.0
 41
0.0
 71
     5
 72
     1
  1
\A1;80
1001
ACAD
1000
MTEXTBEGIN
1070
    73
1070
     1
1070
    44
1040
1.0
1070
    74
1070
     0
1000
MTEXTEND
1000
MTEXTBEGIN
1070
    73
1070
     1
1070
    44
1040
1.0
1070
    74
1070
     0
1000
MTEXTEND
1000
MTEXTBEGIN
1070
    73
1070
     1
1070
    44
1040
1.0
1070
    74
1070
     0
1000
MTEXTEND
  0
POINT
  5
41A
330
3A2
100
AcDbEntity
  8
DEFPOINTS
  6
BYBLOCK
 62
     0
100
AcDbPoint
 10
590.1569746582755
 20
340.3156811387813
 30
0.0
  0
POINT
  5
41B
330
3A2
100
AcDbEntity
  8
DEFPOINTS
  6
BYBLOCK
 62
     0
100
AcDbPoint
 10
509.6647989185448
 20
339.5171316786308
 30
0.0
  0
POINT
  5
41C
330
3A2
100
AcDbEntity
  8
DEFPOINTS
  6
BYBLOCK
 62
     0
100
AcDbPoint
 10
509.6647989185448
 20
368.4634588801769
 30
0.0
  0
ENDBLK
  5
41D
330
3A2
100
AcDbEntity
  8
0
100
AcDbBlockEnd
  0
BLOCK
  5
532
330
528
100
AcDbEntity
  8
0
100
AcDbBlockBegin
  2
*D11
 70
     1
 10
0.0
 20
0.0
 30
0.0
  3
*D11
  1

  0
LINE
  5
529
330
528
100
AcDbEntity
  8
0
  6
BYBLOCK
 62
     4
100
AcDbLine
 10
167.1273418499791
 20
160.2184018054257
 30
0.0
 11
188.6175774971995
 21
160.2184018054257
 31
0.0
  0
LINE
  5
52A
330
528
100
AcDbEntity
  8
0
  6
BYBLOCK
 62
     4
100
AcDbLine
 10
167.1273418499791
 20
89.95840180542584
 30
0.0
 11
188.6175774971995
 21
89.95840180542584
 31
0.0
  0
LINE
  5
52B
330
528
100
AcDbEntity
  8
0
  6
BYBLOCK
 62
     4
100
AcDbLine
 10
187.1175774971995
 20
157.2184018054257
 30
0.0
 11
187.1175774971995
 21
92.95840180542585
 31
0.0
  0
INSERT
  5
52C
330
528
100
AcDbEntity
  8
0
  6
BYBLOCK
 62
     4
100
AcDbBlockReference
  2
_OPEN
 10
187.1175774971995
 20
160.2184018054257
 30
0.0
 41
3.0
 42
3.0
 43
3.0
 50
90.0
  0
INSERT
  5
52D
330
528
100
AcDbEntity
  8
0
  6
BYBLOCK
 62
     4
100
AcDbBlockReference
  2
_OPEN
 10
187.1175774971995
 20
89.95840180542584
 30
0.0
 41
3.0
 42
3.0
 43
3.0
 50
270.0
  0
MTEXT
  5
52E
330
528
100
AcDbEntity
  8
0
  6
BYBLOCK
 62
     4
100
AcDbMText
 10
184.6175774971996
 20
125.0884018054257
 30
0.0
 40
3.0
 41
0.0
 71
     5
 72
     1
  1
\A1;φ70
 11
0.0
 21
1.0
 31
0.0
1001
ACAD
1000
MTEXTBEGIN
1070
    73
1070
     1
1070
    44
1040
1.0
1070
    74
1070
     0
1000
MTEXTEND
1000
MTEXTBEGIN
1070
    73
1070
     1
1070
    44
1040
1.0
1070
    74
1070
     0
1000
MTEXTEND
1000
MTEXTBEGIN
1070
    73
1070
     1
1070
    44
1040
1.0
1070
    74
1070
     0
1000
MTEXTEND
  0
POINT
  5
52F
330
528
100
AcDbEntity
  8
DEFPOINTS
  6
BYBLOCK
 62
     0
100
AcDbPoint
 10
164.1273418499791
 20
160.2184018054257
 30
0.0
  0
POINT
  5
530
330
528
100
AcDbEntity
  8
DEFPOINTS
  6
BYBLOCK
 62
     0
100
AcDbPoint
 10
164.1273418499791
 20
89.95840180542584
 30
0.0
  0
POINT
  5
531
330
528
100
AcDbEntity
  8
DEFPOINTS
  6
BYBLOCK
 62
     0
100
AcDbPoint
 10
187.1175774971995
 20
89.95840180542584
 30
0.0
  0
ENDBLK
  5
533
330
528
100
AcDbEntity
  8
0
100
AcDbBlockEnd
  0
BLOCK
  5
53E
330
534
100
AcDbEntity
  8
0
100
AcDbBlockBegin
  2
*D12
 70
     1
 10
0.0
 20
0.0
 30
0.0
  3
*D12
  1

  0
LINE
  5
535
330
534
100
AcDbEntity
  8
0
  6
BYBLOCK
 62
     4
100
AcDbLine
 10
127.6645418499789
 20
205.2514018054257
 30
0.0
 11
127.6645418499789
 21
224.2293051655156
 31
0.0
  0
LINE
  5
536
330
534
100
AcDbEntity
  8
0
  6
BYBLOCK
 62
     4
100
AcDbLine
 10
50.26454184997902
 20
189.6049018054257
 30
0.0
 11
50.26454184997902
 21
224.2293051655156
 31
0.0
  0
LINE
  5
537
330
534
100
AcDbEntity
  8
0
  6
BYBLOCK
 62
     4
100
AcDbLine
 10
124.6645418499789
 20
222.7293051655156
 30
0.0
 11
53.26454184997903
 21
222.7293051655156
 31
0.0
  0
INSERT
  5
538
330
534
100
AcDbEntity
  8
0
  6
BYBLOCK
 62
     4
100
AcDbBlockReference
  2
_OPEN
 10
127.6645418499789
 20
222.7293051655156
 30
0.0
 41
3.0
 42
3.0
 43
3.0
  0
INSERT
  5
539
330
534
100
AcDbEntity
  8
0
  6
BYBLOCK
 62
     4
100
AcDbBlockReference
  2
_OPEN
 10
50.26454184997902
 20
222.7293051655156
 30
0.0
 41
3.0
 42
3.0
 43
3.0
 50
180.0
  0
MTEXT
  5
53A
330
534
100
AcDbEntity
  8
0
  6
BYBLOCK
 62
     4
100
AcDbMText
 10
88.96454184997899
 20
225.2293051655156
 30
0.0
 40
3.0
 41
0.0
 71
     5
 72
     1
  1
\A1;φ77
1001
ACAD
1000
MTEXTBEGIN
1070
    73
1070
     1
1070
    44
1040
1.0
1070
    74
1070
     0
1000
MTEXTEND
1000
MTEXTBEGIN
1070
    73
1070
     1
1070
    44
1040
1.0
1070
    74
1070
     0
1000
MTEXTEND
1000
MTEXTBEGIN
1070
    73
1070
     1
1070
    44
1040
1.0
1070
    74
1070
     0
1000
MTEXTEND
  0
POINT
  5
53B
330
534
100
AcDbEntity
  8
DEFPOINTS
  6
BYBLOCK
 62
     0
100
AcDbPoint
 10
127.6645418499789
 20
202.2514018054257
 30
0.0
  0
POINT
  5
53C
330
534
100
AcDbEntity
  8
DEFPOINTS
  6
BYBLOCK
 62
     0
100
AcDbPoint
 10
50.26454184997902
 20
186.6049018054257
 30
0.0
  0
POINT
  5
53D
330
534
100
AcDbEntity
  8
DEFPOINTS
  6
BYBLOCK
 62
     0
100
AcDbPoint
 10
50.26454184997902
 20
222.7293051655156
 30
0.0
  0
ENDBLK
  5
53F
330
534
100
AcDbEntity
  8
0
100
AcDbBlockEnd
  0
BLOCK
  5
54A
330
540
100
AcDbEntity
  8
0
100
AcDbBlockBegin
  2
*D13
 70
     1
 10
0.0
 20
0.0
 30
0.0
  3
*D13
  1

  0
LINE
  5
541
330
540
100
AcDbEntity
  8
0
  6
BYBLOCK
 62
     4
100
AcDbLine
 10
88.96454184997905
 20
144.5730018054257
 30
0.0
 11
88.96454184997905
 21
60.34945246966151
 31
0.0
  0
LINE
  5
542
330
540
100
AcDbEntity
  8
0
  6
BYBLOCK
 62
     4
100
AcDbLine
 10
164.1273418499791
 20
86.95840180542585
 30
0.0
 11
164.1273418499791
 21
60.34945246966151
 31
0.0
  0
LINE
  5
543
330
540
100
AcDbEntity
  8
0
  6
BYBLOCK
 62
     4
100
AcDbLine
 10
91.96454184997904
 20
61.84945246966151
 30
0.0
 11
161.127341849979
 21
61.84945246966151
 31
0.0
  0
INSERT
  5
544
330
540
100
AcDbEntity
  8
0
  6
BYBLOCK
 62
     4
100
AcDbBlockReference
  2
_OPEN
 10
88.96454184997905
 20
61.84945246966151
 30
0.0
 41
3.0
 42
3.0
 43
3.0
 50
180.0
  0
INSERT
  5
545
330
540
100
AcDbEntity
  8
0
  6
BYBLOCK
 62
     4
100
AcDbBlockReference
  2
_OPEN
 10
164.1273418499791
 20
61.84945246966151
 30
0.0
 41
3.0
 42
3.0
 43
3.0
  0
MTEXT
  5
546
330
540
100
AcDbEntity
  8
0
  6
BYBLOCK
 62
     4
100
AcDbMText
 10
126.545941849979
 20
64.34945246966151
 30
0.0
 40
3.0
 41
0.0
 71
     5
 72
     1
  1
\A1;75
1001
ACAD
1000
MTEXTBEGIN
1070
    73
1070
     1
1070
    44
1040
1.0
1070
    74
1070
     0
1000
MTEXTEND
1000
MTEXTBEGIN
1070
    73
1070
     1
1070
    44
1040
1.0
1070
    74
1070
     0
1000
MTEXTEND
1000
MTEXTBEGIN
1070
    73
1070
     1
1070
    44
1040
1.0
1070
    74
1070
     0
1000
MTEXTEND
  0
POINT
  5
547
330
540
100
AcDbEntity
  8
DEFPOINTS
  6
BYBLOCK
 62
     0
100
AcDbPoint
 10
88.96454184997905
 20
147.5730018054257
 30
0.0
  0
POINT
  5
548
330
540
100
AcDbEntity
  8
DEFPOINTS
  6
BYBLOCK
 62
     0
100
AcDbPoint
 10
164.1273418499791
 20
89.95840180542584
 30
0.0
  0
POINT
  5
549
330
540
100
AcDbEntity
  8
DEFPOINTS
  6
BYBLOCK
 62
     0
100
AcDbPoint
 10
164.1273418499791
 20
61.84945246966151
 30
0.0
  0
ENDBLK
  5
54B
330
540
100
AcDbEntity
  8
0
100
AcDbBlockEnd
  0
BLOCK
  5
556
330
54C
100
AcDbEntity
  8
0
100
AcDbBlockBegin
  2
*D14
 70
     1
 10
0.0
 20
0.0
 30
0.0
  3
*D14
  1

  0
LINE
  5
54D
330
54C
100
AcDbEntity
  8
0
  6
BYBLOCK
 62
     4
100
AcDbLine
 10
359.9293852313897
 20
219.2410603521034
 30
0.0
 11
359.9293852313897
 21
234.046670941435
 31
0.0
  0
LINE
  5
54E
330
54C
100
AcDbEntity
  8
0
  6
BYBLOCK
 62
     4
100
AcDbLine
 10
373.0108000394959
 20
178.4304161506051
 30
0.0
 11
373.0108000394959
 21
234.046670941435
 31
0.0
  0
LINE
  5
54F
330
54C
100
AcDbEntity
  8
0
  6
BYBLOCK
 62
     4
100
AcDbLine
 10
362.9293852313898
 20
232.546670941435
 30
0.0
 11
370.0108000394959
 21
232.546670941435
 31
0.0
  0
INSERT
  5
550
330
54C
100
AcDbEntity
  8
0
  6
BYBLOCK
 62
     4
100
AcDbBlockReference
  2
_OPEN
 10
359.9293852313897
 20
232.546670941435
 30
0.0
 41
3.0
 42
3.0
 43
3.0
 50
180.0
  0
INSERT
  5
551
330
54C
100
AcDbEntity
  8
0
  6
BYBLOCK
 62
     4
100
AcDbBlockReference
  2
_OPEN
 10
373.0108000394959
 20
232.546670941435
 30
0.0
 41
3.0
 42
3.0
 43
3.0
  0
MTEXT
  5
552
330
54C
100
AcDbEntity
  8
0
  6
BYBLOCK
 62
     4
100
AcDbMText
 10
366.4700926354429
 20
235.046670941435
 30
0.0
 40
3.0
 41
0.0
 71
     5
 72
     1
  1
\A1;26
1001
ACAD
1000
MTEXTBEGIN
1070
    73
1070
     1
1070
    44
1040
1.0
1070
    74
1070
     0
1000
MTEXTEND
1000
MTEXTBEGIN
1070
    73
1070
     1
1070
    44
1040
1.0
1070
    74
1070
     0
1000
MTEXTEND
1000
MTEXTBEGIN
1070
    73
1070
     1
1070
    44
1040
1.0
1070
    74
1070
     0
1000
MTEXTEND
  0
POINT
  5
553
330
54C
100
AcDbEntity
  8
DEFPOINTS
  6
BYBLOCK
 62
     0
100
AcDbPoint
 10
359.9293852313897
 20
216.2410603521034
 30
0.0
  0
POINT
  5
554
330
54C
100
AcDbEntity
  8
DEFPOINTS
  6
BYBLOCK
 62
     0
100
AcDbPoint
 10
373.0108000394959
 20
175.4304161506051
 30
0.0
  0
POINT
  5
555
330
54C
100
AcDbEntity
  8
DEFPOINTS
  6
BYBLOCK
 62
     0
100
AcDbPoint
 10
373.0108000394959
 20
232.546670941435
 30
0.0
  0
ENDBLK
  5
557
330
54C
100
AcDbEntity
  8
0
100
AcDbBlockEnd
  0
BLOCK
  5
562
330
558
100
AcDbEntity
  8
0
100
AcDbBlockBegin
  2
*D15
 70
     1
 10
0.0
 20
0.0
 30
0.0
  3
*D15
  1

  0
LINE
  5
559
330
558
100
AcDbEntity
  8
0
  6
BYBLOCK
 62
     4
100
AcDbLine
 10
88.96454184997905
 20
144.5730018054257
 30
0.0
 11
88.96454184997905
 21
69.3200813681168
 31
0.0
  0
LINE
  5
55A
330
558
100
AcDbEntity
  8
0
  6
BYBLOCK
 62
     4
100
AcDbLine
 10
134.127341849979
 20
84.95840180542584
 30
0.0
 11
134.127341849979
 21
69.3200813681168
 31
0.0
  0
LINE
  5
55B
330
558
100
AcDbEntity
  8
0
  6
BYBLOCK
 62
     4
100
AcDbLine
 10
91.96454184997904
 20
70.8200813681168
 30
0.0
 11
131.127341849979
 21
70.8200813681168
 31
0.0
  0
INSERT
  5
55C
330
558
100
AcDbEntity
  8
0
  6
BYBLOCK
 62
     4
100
AcDbBlockReference
  2
_OPEN
 10
88.96454184997905
 20
70.8200813681168
 30
0.0
 41
3.0
 42
3.0
 43
3.0
 50
180.0
  0
INSERT
  5
55D
330
558
100
AcDbEntity
  8
0
  6
BYBLOCK
 62
     4
100
AcDbBlockReference
  2
_OPEN
 10
134.127341849979
 20
70.8200813681168
 30
0.0
 41
3.0
 42
3.0
 43
3.0
  0
MTEXT
  5
55E
330
558
100
AcDbEntity
  8
0
  6
BYBLOCK
 62
     4
100
AcDbMText
 10
111.545941849979
 20
73.3200813681168
 30
0.0
 40
3.0
 41
0.0
 71
     5
 72
     1
  1
\A1;45
1001
ACAD
1000
MTEXTBEGIN
1070
    73
1070
     1
1070
    44
1040
1.0
1070
    74
1070
     0
1000
MTEXTEND
1000
MTEXTBEGIN
1070
    73
1070
     1
1070
    44
1040
1.0
1070
    74
1070
     0
1000
MTEXTEND
1000
MTEXTBEGIN
1070
    73
1070
     1
1070
    44
1040
1.0
1070
    74
1070
     0
1000
MTEXTEND
  0
POINT
  5
55F
330
558
100
AcDbEntity
  8
DEFPOINTS
  6
BYBLOCK
 62
     0
100
AcDbPoint
 10
88.96454184997905
 20
147.5730018054257
 30
0.0
  0
POINT
  5
560
330
558
100
AcDbEntity
  8
DEFPOINTS
  6
BYBLOCK
 62
     0
100
AcDbPoint
 10
134.127341849979
 20
87.95840180542585
 30
0.0
  0
POINT
  5
561
330
558
100
AcDbEntity
  8
DEFPOINTS
  6
BYBLOCK
 62
     0
100
AcDbPoint
 10
134.127341849979
 20
70.8200813681168
 30
0.0
  0
ENDBLK
  5
563
330
558
100
AcDbEntity
  8
0
100
AcDbBlockEnd
  0
BLOCK
  5
56E
330
564
100
AcDbEntity
  8
0
100
AcDbBlockBegin
  2
*D16
 70
     1
 10
0.0
 20
0.0
 30
0.0
  3
*D16
  1

  0
LINE
  5
565
330
564
100
AcDbEntity
  8
0
  6
BYBLOCK
 62
     4
100
AcDbLine
 10
337.5793852313897
 20
210.6932103521033
 30
0.0
 11
326.3581233709067
 21
210.6932103521033
 31
0.0
  0
LINE
  5
566
330
564
100
AcDbEntity
  8
0
  6
BYBLOCK
 62
     4
100
AcDbLine
 10
352.4457245174725
 20
147.611713836009
 30
0.0
 11
326.3581233709067
 21
147.611713836009
 31
0.0
  0
LINE
  5
567
330
564
100
AcDbEntity
  8
0
  6
BYBLOCK
 62
     4
100
AcDbLine
 10
327.8581233709067
 20
207.6932103521033
 30
0.0
 11
327.8581233709067
 21
150.611713836009
 31
0.0
  0
INSERT
  5
568
330
564
100
AcDbEntity
  8
0
  6
BYBLOCK
 62
     4
100
AcDbBlockReference
  2
_OPEN
 10
327.8581233709067
 20
210.6932103521033
 30
0.0
 41
3.0
 42
3.0
 43
3.0
 50
90.0
  0
INSERT
  5
569
330
564
100
AcDbEntity
  8
0
  6
BYBLOCK
 62
     4
100
AcDbBlockReference
  2
_OPEN
 10
327.8581233709067
 20
147.611713836009
 30
0.0
 41
3.0
 42
3.0
 43
3.0
 50
270.0
  0
MTEXT
  5
56A
330
564
100
AcDbEntity
  8
0
  6
BYBLOCK
 62
     4
100
AcDbMText
 10
325.3581233709066
 20
179.1524620940562
 30
0.0
 40
3.0
 41
0.0
 71
     5
 72
     1
  1
\A1;126
 11
0.0
 21
1.0
 31
0.0
1001
ACAD
1000
MTEXTBEGIN
1070
    73
1070
     1
1070
    44
1040
1.0
1070
    74
1070
     0
1000
MTEXTEND
1000
MTEXTBEGIN
1070
    73
1070
     1
1070
    44
1040
1.0
1070
    74
1070
     0
1000
MTEXTEND
1000
MTEXTBEGIN
1070
    73
1070
     1
1070
    44
1040
1.0
1070
    74
1070
     0
1000
MTEXTEND
  0
POINT
  5
56B
330
564
100
AcDbEntity
  8
DEFPOINTS
  6
BYBLOCK
 62
     0
100
AcDbPoint
 10
340.5793852313897
 20
210.6932103521033
 30
0.0
  0
POINT
  5
56C
330
564
100
AcDbEntity
  8
DEFPOINTS
  6
BYBLOCK
 62
     0
100
AcDbPoint
 10
355.4457245174725
 20
147.611713836009
 30
0.0
  0
POINT
  5
56D
330
564
100
AcDbEntity
  8
DEFPOINTS
  6
BYBLOCK
 62
     0
100
AcDbPoint
 10
327.8581233709067
 20
147.611713836009
 30
0.0
  0
ENDBLK
  5
56F
330
564
100
AcDbEntity
  8
0
100
AcDbBlockEnd
  0
BLOCK
  5
57A
330
570
100
AcDbEntity
  8
0
100
AcDbBlockBegin
  2
*D17
 70
     1
 10
0.0
 20
0.0
 30
0.0
  3
*D17
  1

  0
LINE
  5
571
330
570
100
AcDbEntity
  8
0
  6
BYBLOCK
 62
     4
100
AcDbLine
 10
130.6645418499789
 20
202.2514018054257
 30
0.0
 11
147.7563859163476
 21
202.2514018054257
 31
0.0
  0
LINE
  5
572
330
570
100
AcDbEntity
  8
0
  6
BYBLOCK
 62
     4
100
AcDbLine
 10
130.6645418499789
 20
177.2514018054257
 30
0.0
 11
147.7563859163476
 21
177.2514018054257
 31
0.0
  0
LINE
  5
573
330
570
100
AcDbEntity
  8
0
  6
BYBLOCK
 62
     4
100
AcDbLine
 10
146.2563859163476
 20
199.2514018054257
 30
0.0
 11
146.2563859163476
 21
180.2514018054257
 31
0.0
  0
INSERT
  5
574
330
570
100
AcDbEntity
  8
0
  6
BYBLOCK
 62
     4
100
AcDbBlockReference
  2
_OPEN
 10
146.2563859163476
 20
202.2514018054257
 30
0.0
 41
3.0
 42
3.0
 43
3.0
 50
90.0
  0
INSERT
  5
575
330
570
100
AcDbEntity
  8
0
  6
BYBLOCK
 62
     4
100
AcDbBlockReference
  2
_OPEN
 10
146.2563859163476
 20
177.2514018054257
 30
0.0
 41
3.0
 42
3.0
 43
3.0
 50
270.0
  0
MTEXT
  5
576
330
570
100
AcDbEntity
  8
0
  6
BYBLOCK
 62
     4
100
AcDbMText
 10
143.7563859163476
 20
189.7514018054257
 30
0.0
 40
3.0
 41
0.0
 71
     5
 72
     1
  1
\A1;※25
 11
0.0
 21
1.0
 31
0.0
1001
ACAD
1000
MTEXTBEGIN
1070
    73
1070
     1
1070
    44
1040
1.0
1070
    74
1070
     0
1000
MTEXTEND
1000
MTEXTBEGIN
1070
    73
1070
     1
1070
    44
1040
1.0
1070
    74
1070
     0
1000
MTEXTEND
1000
MTEXTBEGIN
1070
    73
1070
     1
1070
    44
1040
1.0
1070
    74
1070
     0
1000
MTEXTEND
  0
POINT
  5
577
330
570
100
AcDbEntity
  8
DEFPOINTS
  6
BYBLOCK
 62
     0
100
AcDbPoint
 10
127.6645418499789
 20
202.2514018054257
 30
0.0
  0
POINT
  5
578
330
570
100
AcDbEntity
  8
DEFPOINTS
  6
BYBLOCK
 62
     0
100
AcDbPoint
 10
127.6645418499789
 20
177.2514018054257
 30
0.0
  0
POINT
  5
579
330
570
100
AcDbEntity
  8
DEFPOINTS
  6
BYBLOCK
 62
     0
100
AcDbPoint
 10
146.2563859163476
 20
177.2514018054257
 30
0.0
  0
ENDBLK
  5
57B
330
570
100
AcDbEntity
  8
0
100
AcDbBlockEnd
  0
BLOCK
  5
586
330
57C
100
AcDbEntity
  8
0
100
AcDbBlockBegin
  2
*D18
 70
     1
 10
0.0
 20
0.0
 30
0.0
  3
*D18
  1

  0
LINE
  5
57D
330
57C
100
AcDbEntity
  8
0
  6
BYBLOCK
 62
     4
100
AcDbLine
 10
130.6645418499789
 20
202.2514018054257
 30
0.0
 11
159.7318672890016
 21
202.2514018054257
 31
0.0
  0
LINE
  5
57E
330
57C
100
AcDbEntity
  8
0
  6
BYBLOCK
 62
     4
100
AcDbLine
 10
130.6645418499789
 20
175.2514018054257
 30
0.0
 11
159.7318672890016
 21
175.2514018054257
 31
0.0
  0
LINE
  5
57F
330
57C
100
AcDbEntity
  8
0
  6
BYBLOCK
 62
     4
100
AcDbLine
 10
158.2318672890016
 20
199.2514018054257
 30
0.0
 11
158.2318672890016
 21
178.2514018054257
 31
0.0
  0
INSERT
  5
580
330
57C
100
AcDbEntity
  8
0
  6
BYBLOCK
 62
     4
100
AcDbBlockReference
  2
_OPEN
 10
158.2318672890016
 20
202.2514018054257
 30
0.0
 41
3.0
 42
3.0
 43
3.0
 50
90.0
  0
INSERT
  5
581
330
57C
100
AcDbEntity
  8
0
  6
BYBLOCK
 62
     4
100
AcDbBlockReference
  2
_OPEN
 10
158.2318672890016
 20
175.2514018054257
 30
0.0
 41
3.0
 42
3.0
 43
3.0
 50
270.0
  0
MTEXT
  5
582
330
57C
100
AcDbEntity
  8
0
  6
BYBLOCK
 62
     4
100
AcDbMText
 10
155.7318672890016
 20
188.7514018054257
 30
0.0
 40
3.0
 41
0.0
 71
     5
 72
     1
  1
\A1;27
 11
0.0
 21
1.0
 31
0.0
1001
ACAD
1000
MTEXTBEGIN
1070
    73
1070
     1
1070
    44
1040
1.0
1070
    74
1070
     0
1000
MTEXTEND
1000
MTEXTBEGIN
1070
    73
1070
     1
1070
    44
1040
1.0
1070
    74
1070
     0
1000
MTEXTEND
1000
MTEXTBEGIN
1070
    73
1070
     1
1070
    44
1040
1.0
1070
    74
1070
     0
1000
MTEXTEND
  0
POINT
  5
583
330
57C
100
AcDbEntity
  8
DEFPOINTS
  6
BYBLOCK
 62
     0
100
AcDbPoint
 10
127.6645418499789
 20
202.2514018054257
 30
0.0
  0
POINT
  5
584
330
57C
100
AcDbEntity
  8
DEFPOINTS
  6
BYBLOCK
 62
     0
100
AcDbPoint
 10
127.6645418499789
 20
175.2514018054257
 30
0.0
  0
POINT
  5
585
330
57C
100
AcDbEntity
  8
DEFPOINTS
  6
BYBLOCK
 62
     0
100
AcDbPoint
 10
158.2318672890016
 20
175.2514018054257
 30
0.0
  0
ENDBLK
  5
587
330
57C
100
AcDbEntity
  8
0
100
AcDbBlockEnd
  0
BLOCK
  5
592
330
588
100
AcDbEntity
  8
0
100
AcDbBlockBegin
  2
*D19
 70
     1
 10
0.0
 20
0.0
 30
0.0
  3
*D19
  1

  0
LINE
  5
589
330
588
100
AcDbEntity
  8
0
  6
BYBLOCK
 62
     4
100
AcDbLine
 10
47.26454184997902
 20
202.2514018054257
 30
0.0
 11
33.98318060428619
 21
202.2514018054257
 31
0.0
  0
LINE
  5
58A
330
588
100
AcDbEntity
  8
0
  6
BYBLOCK
 62
     4
100
AcDbLine
 10
105.4899418499789
 20
125.0884018054257
 30
0.0
 11
33.98318060428619
 21
125.0884018054257
 31
0.0
  0
LINE
  5
58B
330
588
100
AcDbEntity
  8
0
  6
BYBLOCK
 62
     4
100
AcDbLine
 10
35.48318060428619
 20
199.2514018054257
 30
0.0
 11
35.48318060428619
 21
128.0884018054257
 31
0.0
  0
INSERT
  5
58C
330
588
100
AcDbEntity
  8
0
  6
BYBLOCK
 62
     4
100
AcDbBlockReference
  2
_OPEN
 10
35.48318060428619
 20
202.2514018054257
 30
0.0
 41
3.0
 42
3.0
 43
3.0
 50
90.0
  0
INSERT
  5
58D
330
588
100
AcDbEntity
  8
0
  6
BYBLOCK
 62
     4
100
AcDbBlockReference
  2
_OPEN
 10
35.48318060428619
 20
125.0884018054257
 30
0.0
 41
3.0
 42
3.0
 43
3.0
 50
270.0
  0
MTEXT
  5
58E
330
588
100
AcDbEntity
  8
0
  6
BYBLOCK
 62
     4
100
AcDbMText
 10
32.98318060428619
 20
163.6699018054257
 30
0.0
 40
3.0
 41
0.0
 71
     5
 72
     1
  1
\A1;77
 11
0.0
 21
1.0
 31
0.0
1001
ACAD
1000
MTEXTBEGIN
1070
    73
1070
     1
1070
    44
1040
1.0
1070
    74
1070
     0
1000
MTEXTEND
1000
MTEXTBEGIN
1070
    73
1070
     1
1070
    44
1040
1.0
1070
    74
1070
     0
1000
MTEXTEND
1000
MTEXTBEGIN
1070
    73
1070
     1
1070
    44
1040
1.0
1070
    74
1070
     0
1000
MTEXTEND
  0
POINT
  5
58F
330
588
100
AcDbEntity
  8
DEFPOINTS
  6
BYBLOCK
 62
     0
100
AcDbPoint
 10
50.26454184997902
 20
202.2514018054257
 30
0.0
  0
POINT
  5
590
330
588
100
AcDbEntity
  8
DEFPOINTS
  6
BYBLOCK
 62
     0
100
AcDbPoint
 10
108.4899418499789
 20
125.0884018054257
 30
0.0
  0
POINT
  5
591
330
588
100
AcDbEntity
  8
DEFPOINTS
  6
BYBLOCK
 62
     0
100
AcDbPoint
 10
35.48318060428619
 20
125.0884018054257
 30
0.0
  0
ENDBLK
  5
593
330
588
100
AcDbEntity
  8
0
100
AcDbBlockEnd
  0
BLOCK
  5
6BE
330
6B4
100
AcDbEntity
  8
0
100
AcDbBlockBegin
  2
*D21
 70
     1
 10
0.0
 20
0.0
 30
0.0
  3
*D21
  1

  0
LINE
  5
7E6
330
6B4
100
AcDbEntity
  8
SUNPOU
  6
CONTINUOUS
 62
     4
100
AcDbLine
 10
194.380740326281
 20
368.2636379046415
 30
0.0
 11
181.0993790805883
 21
368.2636379046415
 31
0.0
  0
LINE
  5
7E7
330
6B4
100
AcDbEntity
  8
SUNPOU
  6
CONTINUOUS
 62
     4
100
AcDbLine
 10
252.6061403262811
 20
291.1006379046415
 30
0.0
 11
181.0993790805882
 21
291.1006379046415
 31
0.0
  0
LINE
  5
7E8
330
6B4
100
AcDbEntity
  8
SUNPOU
  6
CONTINUOUS
 62
     4
100
AcDbLine
 10
182.5993790805883
 20
365.2636379046415
 30
0.0
 11
182.5993790805882
 21
294.1006379046415
 31
0.0
  0
INSERT
  5
7E9
330
6B4
100
AcDbEntity
  8
SUNPOU
  6
CONTINUOUS
 62
     4
100
AcDbBlockReference
  2
_OPEN
 10
182.5993790805883
 20
368.2636379046415
 30
0.0
 41
3.0
 42
3.0
 43
3.0
 50
90.0
  0
INSERT
  5
7EA
330
6B4
100
AcDbEntity
  8
SUNPOU
  6
CONTINUOUS
 62
     4
100
AcDbBlockReference
  2
_OPEN
 10
182.5993790805882
 20
291.1006379046415
 30
0.0
 41
3.0
 42
3.0
 43
3.0
 50
270.0
  0
MTEXT
  5
7EB
330
6B4
100
AcDbEntity
  8
SUNPOU
  6
CONTINUOUS
 62
     4
100
AcDbMText
 10
180.0993790805882
 20
329.6821379046416
 30
0.0
 40
3.0
 41
0.0
 71
     5
 72
     1
  1
\A1;77
 11
0.0000000000000001
 21
1.0
 31
0.0
1001
ACAD
1000
MTEXTBEGIN
1070
    73
1070
     1
1070
    44
1040
1.0
1070
    74
1070
     0
1000
MTEXTEND
  0
POINT
  5
7EC
330
6B4
100
AcDbEntity
  8
DEFPOINTS
  6
CONTINUOUS
 62
     0
100
AcDbPoint
 10
197.380740326281
 20
368.2636379046415
 30
0.0
  0
POINT
  5
7ED
330
6B4
100
AcDbEntity
  8
DEFPOINTS
  6
CONTINUOUS
 62
     0
100
AcDbPoint
 10
255.606140326281
 20
291.1006379046415
 30
0.0
  0
POINT
  5
7EE
330
6B4
100
AcDbEntity
  8
DEFPOINTS
  6
CONTINUOUS
 62
     0
100
AcDbPoint
 10
182.5993790805882
 20
291.1006379046415
 30
0.0
  0
ENDBLK
  5
6BF
330
6B4
100
AcDbEntity
  8
0
100
AcDbBlockEnd
  0
BLOCK
  5
6CA
330
6C0
100
AcDbEntity
  8
0
100
AcDbBlockBegin
  2
*D22
 70
     1
 10
0.0
 20
0.0
 30
0.0
  3
*D22
  1

  0
LINE
  5
7EF
330
6C0
100
AcDbEntity
  8
SUNPOU
  6
CONTINUOUS
 62
     4
100
AcDbLine
 10
314.2435403262811
 20
326.2306379046415
 30
0.0
 11
335.7337759735016
 21
326.2306379046415
 31
0.0
  0
LINE
  5
7F0
330
6C0
100
AcDbEntity
  8
SUNPOU
  6
CONTINUOUS
 62
     4
100
AcDbLine
 10
314.2435403262811
 20
255.9706379046416
 30
0.0
 11
335.7337759735016
 21
255.9706379046416
 31
0.0
  0
LINE
  5
7F1
330
6C0
100
AcDbEntity
  8
SUNPOU
  6
CONTINUOUS
 62
     4
100
AcDbLine
 10
334.2337759735016
 20
323.2306379046415
 30
0.0
 11
334.2337759735016
 21
258.9706379046416
 31
0.0
  0
INSERT
  5
7F2
330
6C0
100
AcDbEntity
  8
SUNPOU
  6
CONTINUOUS
 62
     4
100
AcDbBlockReference
  2
_OPEN
 10
334.2337759735016
 20
326.2306379046415
 30
0.0
 41
3.0
 42
3.0
 43
3.0
 50
90.0
  0
INSERT
  5
7F3
330
6C0
100
AcDbEntity
  8
SUNPOU
  6
CONTINUOUS
 62
     4
100
AcDbBlockReference
  2
_OPEN
 10
334.2337759735016
 20
255.9706379046416
 30
0.0
 41
3.0
 42
3.0
 43
3.0
 50
270.0
  0
MTEXT
  5
7F4
330
6C0
100
AcDbEntity
  8
SUNPOU
  6
CONTINUOUS
 62
     4
100
AcDbMText
 10
331.7337759735016
 20
291.1006379046416
 30
0.0
 40
3.0
 41
0.0
 71
     5
 72
     1
  1
\A1;φ70
 11
0.0000000000000001
 21
1.0
 31
0.0
1001
ACAD
1000
MTEXTBEGIN
1070
    73
1070
     1
1070
    44
1040
1.0
1070
    74
1070
     0
1000
MTEXTEND
  0
POINT
  5
7F5
330
6C0
100
AcDbEntity
  8
DEFPOINTS
  6
CONTINUOUS
 62
     0
100
AcDbPoint
 10
311.2435403262811
 20
326.2306379046415
 30
0.0
  0
POINT
  5
7F6
330
6C0
100
AcDbEntity
  8
DEFPOINTS
  6
CONTINUOUS
 62
     0
100
AcDbPoint
 10
311.2435403262811
 20
255.9706379046416
 30
0.0
  0
POINT
  5
7F7
330
6C0
100
AcDbEntity
  8
DEFPOINTS
  6
CONTINUOUS
 62
     0
100
AcDbPoint
 10
334.2337759735016
 20
255.9706379046416
 30
0.0
  0
ENDBLK
  5
6CB
330
6C0
100
AcDbEntity
  8
0
100
AcDbBlockEnd
  0
BLOCK
  5
6D6
330
6CC
100
AcDbEntity
  8
0
100
AcDbBlockBegin
  2
*D23
 70
     1
 10
0.0
 20
0.0
 30
0.0
  3
*D23
  1

  0
LINE
  5
7F8
330
6CC
100
AcDbEntity
  8
SUNPOU
  6
CONTINUOUS
 62
     4
100
AcDbLine
 10
236.0807403262811
 20
310.5852379046415
 30
0.0
 11
236.0807403262811
 21
226.3616885688772
 31
0.0
  0
LINE
  5
7F9
330
6CC
100
AcDbEntity
  8
SUNPOU
  6
CONTINUOUS
 62
     4
100
AcDbLine
 10
311.2435403262811
 20
252.9706379046416
 30
0.0
 11
311.2435403262811
 21
226.3616885688772
 31
0.0
  0
LINE
  5
7FA
330
6CC
100
AcDbEntity
  8
SUNPOU
  6
CONTINUOUS
 62
     4
100
AcDbLine
 10
239.0807403262811
 20
227.8616885688772
 30
0.0
 11
308.2435403262811
 21
227.8616885688772
 31
0.0
  0
INSERT
  5
7FB
330
6CC
100
AcDbEntity
  8
SUNPOU
  6
CONTINUOUS
 62
     4
100
AcDbBlockReference
  2
_OPEN
 10
236.0807403262811
 20
227.8616885688772
 30
0.0
 41
3.0
 42
3.0
 43
3.0
 50
180.0
  0
INSERT
  5
7FC
330
6CC
100
AcDbEntity
  8
SUNPOU
  6
CONTINUOUS
 62
     4
100
AcDbBlockReference
  2
_OPEN
 10
311.2435403262811
 20
227.8616885688772
 30
0.0
 41
3.0
 42
3.0
 43
3.0
  0
MTEXT
  5
7FD
330
6CC
100
AcDbEntity
  8
SUNPOU
  6
CONTINUOUS
 62
     4
100
AcDbMText
 10
273.6621403262811
 20
230.3616885688772
 30
0.0
 40
3.0
 41
0.0
 71
     5
 72
     1
  1
\A1;75
1001
ACAD
1000
MTEXTBEGIN
1070
    73
1070
     1
1070
    44
1040
1.0
1070
    74
1070
     0
1000
MTEXTEND
  0
POINT
  5
7FE
330
6CC
100
AcDbEntity
  8
DEFPOINTS
  6
CONTINUOUS
 62
     0
100
AcDbPoint
 10
236.0807403262811
 20
313.5852379046415
 30
0.0
  0
POINT
  5
7FF
330
6CC
100
AcDbEntity
  8
DEFPOINTS
  6
CONTINUOUS
 62
     0
100
AcDbPoint
 10
311.2435403262811
 20
255.9706379046416
 30
0.0
  0
POINT
  5
800
330
6CC
100
AcDbEntity
  8
DEFPOINTS
  6
CONTINUOUS
 62
     0
100
AcDbPoint
 10
311.2435403262811
 20
227.8616885688772
 30
0.0
  0
ENDBLK
  5
6D7
330
6CC
100
AcDbEntity
  8
0
100
AcDbBlockEnd
  0
BLOCK
  5
6E2
330
6D8
100
AcDbEntity
  8
0
100
AcDbBlockBegin
  2
*D24
 70
     1
 10
0.0
 20
0.0
 30
0.0
  3
*D24
  1

  0
LINE
  5
801
330
6D8
100
AcDbEntity
  8
SUNPOU
  6
CONTINUOUS
 62
     4
100
AcDbLine
 10
236.0807403262811
 20
310.5852379046415
 30
0.0
 11
236.0807403262811
 21
235.3323174673326
 31
0.0
  0
LINE
  5
802
330
6D8
100
AcDbEntity
  8
SUNPOU
  6
CONTINUOUS
 62
     4
100
AcDbLine
 10
281.2435403262811
 20
250.9706379046416
 30
0.0
 11
281.2435403262811
 21
235.3323174673326
 31
0.0
  0
LINE
  5
803
330
6D8
100
AcDbEntity
  8
SUNPOU
  6
CONTINUOUS
 62
     4
100
AcDbLine
 10
239.0807403262811
 20
236.8323174673325
 30
0.0
 11
278.2435403262811
 21
236.8323174673325
 31
0.0
  0
INSERT
  5
804
330
6D8
100
AcDbEntity
  8
SUNPOU
  6
CONTINUOUS
 62
     4
100
AcDbBlockReference
  2
_OPEN
 10
236.0807403262811
 20
236.8323174673325
 30
0.0
 41
3.0
 42
3.0
 43
3.0
 50
180.0
  0
INSERT
  5
805
330
6D8
100
AcDbEntity
  8
SUNPOU
  6
CONTINUOUS
 62
     4
100
AcDbBlockReference
  2
_OPEN
 10
281.2435403262811
 20
236.8323174673325
 30
0.0
 41
3.0
 42
3.0
 43
3.0
  0
MTEXT
  5
806
330
6D8
100
AcDbEntity
  8
SUNPOU
  6
CONTINUOUS
 62
     4
100
AcDbMText
 10
258.6621403262811
 20
239.3323174673326
 30
0.0
 40
3.0
 41
0.0
 71
     5
 72
     1
  1
\A1;45
1001
ACAD
1000
MTEXTBEGIN
1070
    73
1070
     1
1070
    44
1040
1.0
1070
    74
1070
     0
1000
MTEXTEND
  0
POINT
  5
807
330
6D8
100
AcDbEntity
  8
DEFPOINTS
  6
CONTINUOUS
 62
     0
100
AcDbPoint
 10
236.0807403262811
 20
313.5852379046415
 30
0.0
  0
POINT
  5
808
330
6D8
100
AcDbEntity
  8
DEFPOINTS
  6
CONTINUOUS
 62
     0
100
AcDbPoint
 10
281.2435403262811
 20
253.9706379046416
 30
0.0
  0
POINT
  5
809
330
6D8
100
AcDbEntity
  8
DEFPOINTS
  6
CONTINUOUS
 62
     0
100
AcDbPoint
 10
281.2435403262811
 20
236.8323174673325
 30
0.0
  0
ENDBLK
  5
6E3
330
6D8
100
AcDbEntity
  8
0
100
AcDbBlockEnd
  0
BLOCK
  5
6EE
330
6E4
100
AcDbEntity
  8
0
100
AcDbBlockBegin
  2
*D25
 70
     1
 10
0.0
 20
0.0
 30
0.0
  3
*D25
  1

  0
LINE
  5
81C
330
6E4
100
AcDbEntity
  8
SUNPOU
  6
CONTINUOUS
 62
     4
100
AcDbLine
 10
274.780740326281
 20
371.2636379046415
 30
0.0
 11
274.780740326281
 21
390.2415412647314
 31
0.0
  0
LINE
  5
81D
330
6E4
100
AcDbEntity
  8
SUNPOU
  6
CONTINUOUS
 62
     4
100
AcDbLine
 10
197.380740326281
 20
355.6171379046414
 30
0.0
 11
197.380740326281
 21
390.2415412647314
 31
0.0
  0
LINE
  5
81E
330
6E4
100
AcDbEntity
  8
SUNPOU
  6
CONTINUOUS
 62
     4
100
AcDbLine
 10
271.780740326281
 20
388.7415412647314
 30
0.0
 11
200.380740326281
 21
388.7415412647314
 31
0.0
  0
INSERT
  5
81F
330
6E4
100
AcDbEntity
  8
SUNPOU
  6
CONTINUOUS
 62
     4
100
AcDbBlockReference
  2
_OPEN
 10
274.780740326281
 20
388.7415412647314
 30
0.0
 41
3.0
 42
3.0
 43
3.0
  0
INSERT
  5
820
330
6E4
100
AcDbEntity
  8
SUNPOU
  6
CONTINUOUS
 62
     4
100
AcDbBlockReference
  2
_OPEN
 10
197.380740326281
 20
388.7415412647314
 30
0.0
 41
3.0
 42
3.0
 43
3.0
 50
180.0
  0
MTEXT
  5
821
330
6E4
100
AcDbEntity
  8
SUNPOU
  6
CONTINUOUS
 62
     4
100
AcDbMText
 10
236.080740326281
 20
391.2415412647313
 30
0.0
 40
3.0
 41
0.0
 71
     5
 72
     1
  1
\A1;φ77
1001
ACAD
1000
MTEXTBEGIN
1070
    73
1070
     1
1070
    44
1040
1.0
1070
    74
1070
     0
1000
MTEXTEND
  0
POINT
  5
822
330
6E4
100
AcDbEntity
  8
DEFPOINTS
  6
CONTINUOUS
 62
     0
100
AcDbPoint
 10
274.780740326281
 20
368.2636379046415
 30
0.0
  0
POINT
  5
823
330
6E4
100
AcDbEntity
  8
DEFPOINTS
  6
CONTINUOUS
 62
     0
100
AcDbPoint
 10
197.380740326281
 20
352.6171379046414
 30
0.0
  0
POINT
  5
824
330
6E4
100
AcDbEntity
  8
DEFPOINTS
  6
CONTINUOUS
 62
     0
100
AcDbPoint
 10
197.380740326281
 20
388.7415412647314
 30
0.0
  0
ENDBLK
  5
6EF
330
6E4
100
AcDbEntity
  8
0
100
AcDbBlockEnd
  0
BLOCK
  5
6FA
330
6F0
100
AcDbEntity
  8
0
100
AcDbBlockBegin
  2
*D26
 70
     1
 10
0.0
 20
0.0
 30
0.0
  3
*D26
  1

  0
LINE
  5
80A
330
6F0
100
AcDbEntity
  8
SUNPOU
  6
CONTINUOUS
 62
     4
100
AcDbLine
 10
277.780740326281
 20
368.2636379046415
 30
0.0
 11
306.8480657653037
 21
368.2636379046415
 31
0.0
  0
LINE
  5
80B
330
6F0
100
AcDbEntity
  8
SUNPOU
  6
CONTINUOUS
 62
     4
100
AcDbLine
 10
277.780740326281
 20
341.2636379046415
 30
0.0
 11
306.8480657653037
 21
341.2636379046415
 31
0.0
  0
LINE
  5
80C
330
6F0
100
AcDbEntity
  8
SUNPOU
  6
CONTINUOUS
 62
     4
100
AcDbLine
 10
305.3480657653037
 20
365.2636379046415
 30
0.0
 11
305.3480657653037
 21
344.2636379046415
 31
0.0
  0
INSERT
  5
80D
330
6F0
100
AcDbEntity
  8
SUNPOU
  6
CONTINUOUS
 62
     4
100
AcDbBlockReference
  2
_OPEN
 10
305.3480657653037
 20
368.2636379046415
 30
0.0
 41
3.0
 42
3.0
 43
3.0
 50
90.0
  0
INSERT
  5
80E
330
6F0
100
AcDbEntity
  8
SUNPOU
  6
CONTINUOUS
 62
     4
100
AcDbBlockReference
  2
_OPEN
 10
305.3480657653037
 20
341.2636379046415
 30
0.0
 41
3.0
 42
3.0
 43
3.0
 50
270.0
  0
MTEXT
  5
80F
330
6F0
100
AcDbEntity
  8
SUNPOU
  6
CONTINUOUS
 62
     4
100
AcDbMText
 10
302.8480657653037
 20
354.7636379046416
 30
0.0
 40
3.0
 41
0.0
 71
     5
 72
     1
  1
\A1;27
 11
0.0000000000000001
 21
1.0
 31
0.0
1001
ACAD
1000
MTEXTBEGIN
1070
    73
1070
     1
1070
    44
1040
1.0
1070
    74
1070
     0
1000
MTEXTEND
  0
POINT
  5
810
330
6F0
100
AcDbEntity
  8
DEFPOINTS
  6
CONTINUOUS
 62
     0
100
AcDbPoint
 10
274.780740326281
 20
368.2636379046415
 30
0.0
  0
POINT
  5
811
330
6F0
100
AcDbEntity
  8
DEFPOINTS
  6
CONTINUOUS
 62
     0
100
AcDbPoint
 10
274.780740326281
 20
341.2636379046415
 30
0.0
  0
POINT
  5
812
330
6F0
100
AcDbEntity
  8
DEFPOINTS
  6
CONTINUOUS
 62
     0
100
AcDbPoint
 10
305.3480657653037
 20
341.2636379046415
 30
0.0
  0
ENDBLK
  5
6FB
330
6F0
100
AcDbEntity
  8
0
100
AcDbBlockEnd
  0
BLOCK
  5
706
330
6FC
100
AcDbEntity
  8
0
100
AcDbBlockBegin
  2
*D27
 70
     1
 10
0.0
 20
0.0
 30
0.0
  3
*D27
  1

  0
LINE
  5
813
330
6FC
100
AcDbEntity
  8
SUNPOU
  6
CONTINUOUS
 62
     4
100
AcDbLine
 10
277.780740326281
 20
368.2636379046415
 30
0.0
 11
294.8725843926497
 21
368.2636379046415
 31
0.0
  0
LINE
  5
814
330
6FC
100
AcDbEntity
  8
SUNPOU
  6
CONTINUOUS
 62
     4
100
AcDbLine
 10
277.780740326281
 20
343.2636379046415
 30
0.0
 11
294.8725843926497
 21
343.2636379046415
 31
0.0
  0
LINE
  5
815
330
6FC
100
AcDbEntity
  8
SUNPOU
  6
CONTINUOUS
 62
     4
100
AcDbLine
 10
293.3725843926497
 20
365.2636379046415
 30
0.0
 11
293.3725843926497
 21
346.2636379046415
 31
0.0
  0
INSERT
  5
816
330
6FC
100
AcDbEntity
  8
SUNPOU
  6
CONTINUOUS
 62
     4
100
AcDbBlockReference
  2
_OPEN
 10
293.3725843926497
 20
368.2636379046415
 30
0.0
 41
3.0
 42
3.0
 43
3.0
 50
90.0
  0
INSERT
  5
817
330
6FC
100
AcDbEntity
  8
SUNPOU
  6
CONTINUOUS
 62
     4
100
AcDbBlockReference
  2
_OPEN
 10
293.3725843926497
 20
343.2636379046415
 30
0.0
 41
3.0
 42
3.0
 43
3.0
 50
270.0
  0
MTEXT
  5
818
330
6FC
100
AcDbEntity
  8
SUNPOU
  6
CONTINUOUS
 62
     4
100
AcDbMText
 10
290.8725843926496
 20
355.7636379046416
 30
0.0
 40
3.0
 41
0.0
 71
     5
 72
     1
  1
\A1;※25
 11
0.0000000000000001
 21
1.0
 31
0.0
1001
ACAD
1000
MTEXTBEGIN
1070
    73
1070
     1
1070
    44
1040
1.0
1070
    74
1070
     0
1000
MTEXTEND
  0
POINT
  5
819
330
6FC
100
AcDbEntity
  8
DEFPOINTS
  6
CONTINUOUS
 62
     0
100
AcDbPoint
 10
274.780740326281
 20
368.2636379046415
 30
0.0
  0
POINT
  5
81A
330
6FC
100
AcDbEntity
  8
DEFPOINTS
  6
CONTINUOUS
 62
     0
100
AcDbPoint
 10
274.780740326281
 20
343.2636379046415
 30
0.0
  0
POINT
  5
81B
330
6FC
100
AcDbEntity
  8
DEFPOINTS
  6
CONTINUOUS
 62
     0
100
AcDbPoint
 10
293.3725843926497
 20
343.2636379046415
 30
0.0
  0
ENDBLK
  5
707
330
6FC
100
AcDbEntity
  8
0
100
AcDbBlockEnd
  0
BLOCK
  5
712
330
708
100
AcDbEntity
  8
0
100
AcDbBlockBegin
  2
*D28
 70
     1
 10
0.0
 20
0.0
 30
0.0
  3
*D28
  1

  0
LINE
  5
825
330
708
100
AcDbEntity
  8
SUNPOU
  6
CONTINUOUS
 62
     4
100
AcDbLine
 10
556.7146922901997
 20
368.0349514115868
 30
0.0
 11
532.7721685692337
 21
368.0349514115868
 31
0.0
  0
LINE
  5
826
330
708
100
AcDbEntity
  8
SUNPOU
  6
CONTINUOUS
 62
     4
100
AcDbLine
 10
586.4473708623649
 20
241.8719583793981
 30
0.0
 11
532.7721685692336
 21
241.8719583793981
 31
0.0
  0
LINE
  5
827
330
708
100
AcDbEntity
  8
SUNPOU
  6
CONTINUOUS
 62
     4
100
AcDbLine
 10
534.2721685692337
 20
365.0349514115867
 30
0.0
 11
534.2721685692335
 21
244.8719583793982
 31
0.0
  0
INSERT
  5
828
330
708
100
AcDbEntity
  8
SUNPOU
  6
CONTINUOUS
 62
     4
100
AcDbBlockReference
  2
_OPEN
 10
534.2721685692337
 20
368.0349514115868
 30
0.0
 41
3.0
 42
3.0
 43
3.0
 50
90.0
  0
INSERT
  5
829
330
708
100
AcDbEntity
  8
SUNPOU
  6
CONTINUOUS
 62
     4
100
AcDbBlockReference
  2
_OPEN
 10
534.2721685692335
 20
241.8719583793981
 30
0.0
 41
3.0
 42
3.0
 43
3.0
 50
270.0
  0
MTEXT
  5
82A
330
708
100
AcDbEntity
  8
SUNPOU
  6
CONTINUOUS
 62
     4
100
AcDbMText
 10
531.7721685692336
 20
304.9534548954925
 30
0.0
 40
3.0
 41
0.0
 71
     5
 72
     1
  1
\A1;126
 11
0.0000000000000001
 21
1.0
 31
0.0
1001
ACAD
1000
MTEXTBEGIN
1070
    73
1070
     1
1070
    44
1040
1.0
1070
    74
1070
     0
1000
MTEXTEND
  0
POINT
  5
82B
330
708
100
AcDbEntity
  8
DEFPOINTS
  6
CONTINUOUS
 62
     0
100
AcDbPoint
 10
559.7146922901997
 20
368.0349514115868
 30
0.0
  0
POINT
  5
82C
330
708
100
AcDbEntity
  8
DEFPOINTS
  6
CONTINUOUS
 62
     0
100
AcDbPoint
 10
589.447370862365
 20
241.8719583793981
 30
0.0
  0
POINT
  5
82D
330
708
100
AcDbEntity
  8
DEFPOINTS
  6
CONTINUOUS
 62
     0
100
AcDbPoint
 10
534.2721685692335
 20
241.8719583793981
 30
0.0
  0
ENDBLK
  5
713
330
708
100
AcDbEntity
  8
0
100
AcDbBlockEnd
  0
BLOCK
  5
71E
330
714
100
AcDbEntity
  8
0
100
AcDbBlockBegin
  2
*D29
 70
     1
 10
0.0
 20
0.0
 30
0.0
  3
*D29
  1

  0
LINE
  5
82E
330
714
100
AcDbEntity
  8
SUNPOU
  6
CONTINUOUS
 62
     4
100
AcDbLine
 10
598.4146922901995
 20
382.1306514115868
 30
0.0
 11
598.4146922901995
 21
413.2418725902502
 31
0.0
  0
LINE
  5
82F
330
714
100
AcDbEntity
  8
SUNPOU
  6
CONTINUOUS
 62
     4
100
AcDbLine
 10
624.5775219064121
 20
300.5093630085903
 30
0.0
 11
624.5775219064121
 21
413.2418725902502
 31
0.0
  0
LINE
  5
830
330
714
100
AcDbEntity
  8
SUNPOU
  6
CONTINUOUS
 62
     4
100
AcDbLine
 10
601.4146922901995
 20
411.7418725902501
 30
0.0
 11
621.5775219064121
 21
411.7418725902501
 31
0.0
  0
INSERT
  5
831
330
714
100
AcDbEntity
  8
SUNPOU
  6
CONTINUOUS
 62
     4
100
AcDbBlockReference
  2
_OPEN
 10
598.4146922901995
 20
411.7418725902501
 30
0.0
 41
3.0
 42
3.0
 43
3.0
 50
180.0
  0
INSERT
  5
832
330
714
100
AcDbEntity
  8
SUNPOU
  6
CONTINUOUS
 62
     4
100
AcDbBlockReference
  2
_OPEN
 10
624.5775219064121
 20
411.7418725902501
 30
0.0
 41
3.0
 42
3.0
 43
3.0
  0
MTEXT
  5
833
330
714
100
AcDbEntity
  8
SUNPOU
  6
CONTINUOUS
 62
     4
100
AcDbMText
 10
611.4961070983058
 20
414.2418725902501
 30
0.0
 40
3.0
 41
0.0
 71
     5
 72
     1
  1
\A1;26
1001
ACAD
1000
MTEXTBEGIN
1070
    73
1070
     1
1070
    44
1040
1.0
1070
    74
1070
     0
1000
MTEXTEND
  0
POINT
  5
834
330
714
100
AcDbEntity
  8
DEFPOINTS
  6
CONTINUOUS
 62
     0
100
AcDbPoint
 10
598.4146922901995
 20
379.1306514115869
 30
0.0
  0
POINT
  5
835
330
714
100
AcDbEntity
  8
DEFPOINTS
  6
CONTINUOUS
 62
     0
100
AcDbPoint
 10
624.5775219064121
 20
297.5093630085903
 30
0.0
  0
POINT
  5
836
330
714
100
AcDbEntity
  8
DEFPOINTS
  6
CONTINUOUS
 62
     0
100
AcDbPoint
 10
624.5775219064121
 20
411.7418725902501
 30
0.0
  0
ENDBLK
  5
71F
330
714
100
AcDbEntity
  8
0
100
AcDbBlockEnd
  0
BLOCK
  5
842
330
838
100
AcDbEntity
  8
0
100
AcDbBlockBegin
  2
*D30
 70
     1
 10
0.0
 20
0.0
 30
0.0
  3
*D30
  1

  0
LINE
  5
A63
330
838
100
AcDbEntity
  8
SUNPOU
100
AcDbLine
 10
614.0600046069498
 20
385.1306514115869
 30
0.0
 11
614.0600046069498
 21
416.8394057376001
 31
0.0
  0
LINE
  5
A64
330
838
100
AcDbEntity
  8
SUNPOU
100
AcDbLine
 10
640.2228342231624
 20
303.5093630085903
 30
0.0
 11
640.2228342231624
 21
416.8394057376001
 31
0.0
  0
LINE
  5
A65
330
838
100
AcDbEntity
  8
SUNPOU
100
AcDbLine
 10
621.0600046069498
 20
413.8394057376001
 30
0.0
 11
633.2228342231624
 21
413.8394057376001
 31
0.0
  0
INSERT
  5
A66
330
838
100
AcDbEntity
  8
SUNPOU
100
AcDbBlockReference
  2
_OPEN
 10
614.0600046069498
 20
413.8394057376001
 30
0.0
 41
7.0
 42
7.0
 43
7.0
 50
180.0
  0
INSERT
  5
A67
330
838
100
AcDbEntity
  8
SUNPOU
100
AcDbBlockReference
  2
_OPEN
 10
640.2228342231624
 20
413.8394057376001
 30
0.0
 41
7.0
 42
7.0
 43
7.0
  0
MTEXT
  5
A68
330
838
100
AcDbEntity
  8
SUNPOU
100
AcDbMText
 10
627.1414194150561
 20
418.8394057376001
 30
0.0
 40
6.0
 41
0.0
 71
     5
 72
     1
  1
\A1;26
  0
POINT
  5
A69
330
838
100
AcDbEntity
  8
DEFPOINTS
 62
     0
100
AcDbPoint
 10
614.0600046069498
 20
379.1306514115869
 30
0.0
  0
POINT
  5
A6A
330
838
100
AcDbEntity
  8
DEFPOINTS
 62
     0
100
AcDbPoint
 10
640.2228342231624
 20
297.5093630085903
 30
0.0
  0
POINT
  5
A6B
330
838
100
AcDbEntity
  8
DEFPOINTS
 62
     0
100
AcDbPoint
 10
640.2228342231624
 20
413.8394057376001
 30
0.0
  0
ENDBLK
  5
843
330
838
100
AcDbEntity
  8
0
100
AcDbBlockEnd
  0
BLOCK
  5
84F
330
845
100
AcDbEntity
  8
0
100
AcDbBlockBegin
  2
*D31
 70
     1
 10
0.0
 20
0.0
 30
0.0
  3
*D31
  1

  0
LINE
  5
A6C
330
845
100
AcDbEntity
  8
SUNPOU
100
AcDbLine
 10
569.36000460695
 20
368.0349514115868
 30
0.0
 11
542.1178267257987
 21
368.0349514115868
 31
0.0
  0
LINE
  5
A6D
330
845
100
AcDbEntity
  8
SUNPOU
100
AcDbLine
 10
597.0927646231197
 20
271.8720638088692
 30
0.0
 11
542.1178267257987
 21
271.8720638088692
 31
0.0
  0
LINE
  5
A6E
330
845
100
AcDbEntity
  8
SUNPOU
100
AcDbLine
 10
545.1178267257987
 20
361.0349514115867
 30
0.0
 11
545.1178267257987
 21
278.8720638088692
 31
0.0
  0
INSERT
  5
A6F
330
845
100
AcDbEntity
  8
SUNPOU
100
AcDbBlockReference
  2
_OPEN
 10
545.1178267257987
 20
368.0349514115868
 30
0.0
 41
7.0
 42
7.0
 43
7.0
 50
90.0
  0
INSERT
  5
A70
330
845
100
AcDbEntity
  8
SUNPOU
100
AcDbBlockReference
  2
_OPEN
 10
545.1178267257987
 20
271.8720638088692
 30
0.0
 41
7.0
 42
7.0
 43
7.0
 50
270.0
  0
MTEXT
  5
A71
330
845
100
AcDbEntity
  8
SUNPOU
100
AcDbMText
 10
540.1178267257986
 20
319.953507610228
 30
0.0
 40
6.0
 41
0.0
 71
     5
 72
     1
  1
\A1;96
 11
0.0000000000000001
 21
1.0
 31
0.0
  0
POINT
  5
A72
330
845
100
AcDbEntity
  8
DEFPOINTS
 62
     0
100
AcDbPoint
 10
575.36000460695
 20
368.0349514115868
 30
0.0
  0
POINT
  5
A73
330
845
100
AcDbEntity
  8
DEFPOINTS
 62
     0
100
AcDbPoint
 10
603.0927646231198
 20
271.8720638088692
 30
0.0
  0
POINT
  5
A74
330
845
100
AcDbEntity
  8
DEFPOINTS
 62
     0
100
AcDbPoint
 10
545.1178267257987
 20
271.8720638088692
 30
0.0
  0
ENDBLK
  5
850
330
845
100
AcDbEntity
  8
0
100
AcDbBlockEnd
  0
BLOCK
  5
85C
330
852
100
AcDbEntity
  8
0
100
AcDbBlockBegin
  2
*D32
 70
     1
 10
0.0
 20
0.0
 30
0.0
  3
*D32
  1

  0
LINE
  5
A75
330
852
100
AcDbEntity
  8
SUNPOU
100
AcDbLine
 10
569.36000460695
 20
368.0349514115868
 30
0.0
 11
524.596825244602
 21
368.0349514115868
 31
0.0
  0
LINE
  5
A76
330
852
100
AcDbEntity
  8
SUNPOU
100
AcDbLine
 10
599.0926831791153
 20
241.8719583793981
 30
0.0
 11
524.5968252446018
 21
241.8719583793981
 31
0.0
  0
LINE
  5
A77
330
852
100
AcDbEntity
  8
SUNPOU
100
AcDbLine
 10
527.5968252446019
 20
361.0349514115867
 30
0.0
 11
527.5968252446018
 21
248.8719583793982
 31
0.0
  0
INSERT
  5
A78
330
852
100
AcDbEntity
  8
SUNPOU
100
AcDbBlockReference
  2
_OPEN
 10
527.5968252446019
 20
368.0349514115868
 30
0.0
 41
7.0
 42
7.0
 43
7.0
 50
90.0
  0
INSERT
  5
A79
330
852
100
AcDbEntity
  8
SUNPOU
100
AcDbBlockReference
  2
_OPEN
 10
527.5968252446018
 20
241.8719583793981
 30
0.0
 41
7.0
 42
7.0
 43
7.0
 50
270.0
  0
MTEXT
  5
A7A
330
852
100
AcDbEntity
  8
SUNPOU
100
AcDbMText
 10
522.5968252446018
 20
304.9534548954925
 30
0.0
 40
6.0
 41
0.0
 71
     5
 72
     1
  1
\A1;126
 11
0.0000000000000001
 21
1.0
 31
0.0
  0
POINT
  5
A7B
330
852
100
AcDbEntity
  8
DEFPOINTS
 62
     0
100
AcDbPoint
 10
575.36000460695
 20
368.0349514115868
 30
0.0
  0
POINT
  5
A7C
330
852
100
AcDbEntity
  8
DEFPOINTS
 62
     0
100
AcDbPoint
 10
605.0926831791152
 20
241.8719583793981
 30
0.0
  0
POINT
  5
A7D
330
852
100
AcDbEntity
  8
DEFPOINTS
 62
     0
100
AcDbPoint
 10
527.5968252446018
 20
241.8719583793981
 30
0.0
  0
ENDBLK
  5
85D
330
852
100
AcDbEntity
  8
0
100
AcDbBlockEnd
  0
BLOCK
  5
8DA
330
8D0
100
AcDbEntity
  8
0
100
AcDbBlockBegin
  2
*D33
 70
     1
 10
0.0
 20
0.0
 30
0.0
  3
*D33
  1

  0
LINE
  5
924
330
8D0
100
AcDbEntity
  8
SUNPOU
  6
CONTINUOUS
 62
     4
100
AcDbLine
 10
-25.7711327449349
 20
368.2636379046415
 30
0.0
 11
-39.05249399062766
 21
368.2636379046415
 31
0.0
  0
LINE
  5
925
330
8D0
100
AcDbEntity
  8
SUNPOU
  6
CONTINUOUS
 62
     4
100
AcDbLine
 10
32.45426725506513
 20
291.1006379046415
 30
0.0
 11
-39.05249399062768
 21
291.1006379046415
 31
0.0
  0
LINE
  5
926
330
8D0
100
AcDbEntity
  8
SUNPOU
  6
CONTINUOUS
 62
     4
100
AcDbLine
 10
-37.55249399062766
 20
365.2636379046415
 30
0.0
 11
-37.55249399062768
 21
294.1006379046415
 31
0.0
  0
INSERT
  5
927
330
8D0
100
AcDbEntity
  8
SUNPOU
  6
CONTINUOUS
 62
     4
100
AcDbBlockReference
  2
_OPEN
 10
-37.55249399062766
 20
368.2636379046415
 30
0.0
 41
3.0
 42
3.0
 43
3.0
 50
90.0
  0
INSERT
  5
928
330
8D0
100
AcDbEntity
  8
SUNPOU
  6
CONTINUOUS
 62
     4
100
AcDbBlockReference
  2
_OPEN
 10
-37.55249399062768
 20
291.1006379046415
 30
0.0
 41
3.0
 42
3.0
 43
3.0
 50
270.0
  0
MTEXT
  5
929
330
8D0
100
AcDbEntity
  8
SUNPOU
  6
CONTINUOUS
 62
     4
100
AcDbMText
 10
-40.05249399062772
 20
329.6821379046415
 30
0.0
 40
3.0
 41
0.0
 71
     5
 72
     1
  1
\A1;77
 11
0.0000000000000001
 21
1.0
 31
0.0
1001
ACAD
1000
MTEXTBEGIN
1070
    73
1070
     1
1070
    44
1040
1.0
1070
    74
1070
     0
1000
MTEXTEND
  0
POINT
  5
92A
330
8D0
100
AcDbEntity
  8
DEFPOINTS
  6
CONTINUOUS
 62
     0
100
AcDbPoint
 10
-22.7711327449349
 20
368.2636379046415
 30
0.0
  0
POINT
  5
92B
330
8D0
100
AcDbEntity
  8
DEFPOINTS
  6
CONTINUOUS
 62
     0
100
AcDbPoint
 10
35.45426725506513
 20
291.1006379046415
 30
0.0
  0
POINT
  5
92C
330
8D0
100
AcDbEntity
  8
DEFPOINTS
  6
CONTINUOUS
 62
     0
100
AcDbPoint
 10
-37.55249399062768
 20
291.1006379046415
 30
0.0
  0
ENDBLK
  5
8DB
330
8D0
100
AcDbEntity
  8
0
100
AcDbBlockEnd
  0
BLOCK
  5
8E6
330
8DC
100
AcDbEntity
  8
0
100
AcDbBlockBegin
  2
*D34
 70
     1
 10
0.0
 20
0.0
 30
0.0
  3
*D34
  1

  0
LINE
  5
92D
330
8DC
100
AcDbEntity
  8
SUNPOU
  6
CONTINUOUS
 62
     4
100
AcDbLine
 10
94.09166725506521
 20
326.2306379046415
 30
0.0
 11
115.5819029022857
 21
326.2306379046415
 31
0.0
  0
LINE
  5
92E
330
8DC
100
AcDbEntity
  8
SUNPOU
  6
CONTINUOUS
 62
     4
100
AcDbLine
 10
94.09166725506521
 20
255.9706379046416
 30
0.0
 11
115.5819029022857
 21
255.9706379046416
 31
0.0
  0
LINE
  5
92F
330
8DC
100
AcDbEntity
  8
SUNPOU
  6
CONTINUOUS
 62
     4
100
AcDbLine
 10
114.0819029022857
 20
323.2306379046415
 30
0.0
 11
114.0819029022857
 21
258.9706379046416
 31
0.0
  0
INSERT
  5
930
330
8DC
100
AcDbEntity
  8
SUNPOU
  6
CONTINUOUS
 62
     4
100
AcDbBlockReference
  2
_OPEN
 10
114.0819029022857
 20
326.2306379046415
 30
0.0
 41
3.0
 42
3.0
 43
3.0
 50
90.0
  0
INSERT
  5
931
330
8DC
100
AcDbEntity
  8
SUNPOU
  6
CONTINUOUS
 62
     4
100
AcDbBlockReference
  2
_OPEN
 10
114.0819029022857
 20
255.9706379046416
 30
0.0
 41
3.0
 42
3.0
 43
3.0
 50
270.0
  0
MTEXT
  5
932
330
8DC
100
AcDbEntity
  8
SUNPOU
  6
CONTINUOUS
 62
     4
100
AcDbMText
 10
111.5819029022856
 20
291.1006379046416
 30
0.0
 40
3.0
 41
0.0
 71
     5
 72
     1
  1
\A1;φ70
 11
0.0000000000000001
 21
1.0
 31
0.0
1001
ACAD
1000
MTEXTBEGIN
1070
    73
1070
     1
1070
    44
1040
1.0
1070
    74
1070
     0
1000
MTEXTEND
  0
POINT
  5
933
330
8DC
100
AcDbEntity
  8
DEFPOINTS
  6
CONTINUOUS
 62
     0
100
AcDbPoint
 10
91.0916672550652
 20
326.2306379046415
 30
0.0
  0
POINT
  5
934
330
8DC
100
AcDbEntity
  8
DEFPOINTS
  6
CONTINUOUS
 62
     0
100
AcDbPoint
 10
91.0916672550652
 20
255.9706379046416
 30
0.0
  0
POINT
  5
935
330
8DC
100
AcDbEntity
  8
DEFPOINTS
  6
CONTINUOUS
 62
     0
100
AcDbPoint
 10
114.0819029022857
 20
255.9706379046416
 30
0.0
  0
ENDBLK
  5
8E7
330
8DC
100
AcDbEntity
  8
0
100
AcDbBlockEnd
  0
BLOCK
  5
8F2
330
8E8
100
AcDbEntity
  8
0
100
AcDbBlockBegin
  2
*D35
 70
     1
 10
0.0
 20
0.0
 30
0.0
  3
*D35
  1

  0
LINE
  5
936
330
8E8
100
AcDbEntity
  8
SUNPOU
  6
CONTINUOUS
 62
     4
100
AcDbLine
 10
15.92886725506514
 20
310.5852379046415
 30
0.0
 11
15.92886725506513
 21
226.3616885688772
 31
0.0
  0
LINE
  5
937
330
8E8
100
AcDbEntity
  8
SUNPOU
  6
CONTINUOUS
 62
     4
100
AcDbLine
 10
91.0916672550652
 20
252.9706379046416
 30
0.0
 11
91.0916672550652
 21
226.3616885688772
 31
0.0
  0
LINE
  5
938
330
8E8
100
AcDbEntity
  8
SUNPOU
  6
CONTINUOUS
 62
     4
100
AcDbLine
 10
18.92886725506513
 20
227.8616885688772
 30
0.0
 11
88.0916672550652
 21
227.8616885688772
 31
0.0
  0
INSERT
  5
939
330
8E8
100
AcDbEntity
  8
SUNPOU
  6
CONTINUOUS
 62
     4
100
AcDbBlockReference
  2
_OPEN
 10
15.92886725506513
 20
227.8616885688772
 30
0.0
 41
3.0
 42
3.0
 43
3.0
 50
180.0
  0
INSERT
  5
93A
330
8E8
100
AcDbEntity
  8
SUNPOU
  6
CONTINUOUS
 62
     4
100
AcDbBlockReference
  2
_OPEN
 10
91.0916672550652
 20
227.8616885688772
 30
0.0
 41
3.0
 42
3.0
 43
3.0
  0
MTEXT
  5
93B
330
8E8
100
AcDbEntity
  8
SUNPOU
  6
CONTINUOUS
 62
     4
100
AcDbMText
 10
53.51026725506518
 20
230.3616885688772
 30
0.0
 40
3.0
 41
0.0
 71
     5
 72
     1
  1
\A1;75
1001
ACAD
1000
MTEXTBEGIN
1070
    73
1070
     1
1070
    44
1040
1.0
1070
    74
1070
     0
1000
MTEXTEND
  0
POINT
  5
93C
330
8E8
100
AcDbEntity
  8
DEFPOINTS
  6
CONTINUOUS
 62
     0
100
AcDbPoint
 10
15.92886725506514
 20
313.5852379046415
 30
0.0
  0
POINT
  5
93D
330
8E8
100
AcDbEntity
  8
DEFPOINTS
  6
CONTINUOUS
 62
     0
100
AcDbPoint
 10
91.0916672550652
 20
255.9706379046416
 30
0.0
  0
POINT
  5
93E
330
8E8
100
AcDbEntity
  8
DEFPOINTS
  6
CONTINUOUS
 62
     0
100
AcDbPoint
 10
91.0916672550652
 20
227.8616885688772
 30
0.0
  0
ENDBLK
  5
8F3
330
8E8
100
AcDbEntity
  8
0
100
AcDbBlockEnd
  0
BLOCK
  5
8FE
330
8F4
100
AcDbEntity
  8
0
100
AcDbBlockBegin
  2
*D36
 70
     1
 10
0.0
 20
0.0
 30
0.0
  3
*D36
  1

  0
LINE
  5
93F
330
8F4
100
AcDbEntity
  8
SUNPOU
  6
CONTINUOUS
 62
     4
100
AcDbLine
 10
15.92886725506514
 20
310.5852379046415
 30
0.0
 11
15.92886725506513
 21
235.3323174673326
 31
0.0
  0
LINE
  5
940
330
8F4
100
AcDbEntity
  8
SUNPOU
  6
CONTINUOUS
 62
     4
100
AcDbLine
 10
61.0916672550652
 20
250.9706379046416
 30
0.0
 11
61.0916672550652
 21
235.3323174673326
 31
0.0
  0
LINE
  5
941
330
8F4
100
AcDbEntity
  8
SUNPOU
  6
CONTINUOUS
 62
     4
100
AcDbLine
 10
18.92886725506513
 20
236.8323174673325
 30
0.0
 11
58.0916672550652
 21
236.8323174673325
 31
0.0
  0
INSERT
  5
942
330
8F4
100
AcDbEntity
  8
SUNPOU
  6
CONTINUOUS
 62
     4
100
AcDbBlockReference
  2
_OPEN
 10
15.92886725506513
 20
236.8323174673325
 30
0.0
 41
3.0
 42
3.0
 43
3.0
 50
180.0
  0
INSERT
  5
943
330
8F4
100
AcDbEntity
  8
SUNPOU
  6
CONTINUOUS
 62
     4
100
AcDbBlockReference
  2
_OPEN
 10
61.0916672550652
 20
236.8323174673325
 30
0.0
 41
3.0
 42
3.0
 43
3.0
  0
MTEXT
  5
944
330
8F4
100
AcDbEntity
  8
SUNPOU
  6
CONTINUOUS
 62
     4
100
AcDbMText
 10
38.51026725506517
 20
239.3323174673326
 30
0.0
 40
3.0
 41
0.0
 71
     5
 72
     1
  1
\A1;45
1001
ACAD
1000
MTEXTBEGIN
1070
    73
1070
     1
1070
    44
1040
1.0
1070
    74
1070
     0
1000
MTEXTEND
  0
POINT
  5
945
330
8F4
100
AcDbEntity
  8
DEFPOINTS
  6
CONTINUOUS
 62
     0
100
AcDbPoint
 10
15.92886725506514
 20
313.5852379046415
 30
0.0
  0
POINT
  5
946
330
8F4
100
AcDbEntity
  8
DEFPOINTS
  6
CONTINUOUS
 62
     0
100
AcDbPoint
 10
61.0916672550652
 20
253.9706379046416
 30
0.0
  0
POINT
  5
947
330
8F4
100
AcDbEntity
  8
DEFPOINTS
  6
CONTINUOUS
 62
     0
100
AcDbPoint
 10
61.0916672550652
 20
236.8323174673325
 30
0.0
  0
ENDBLK
  5
8FF
330
8F4
100
AcDbEntity
  8
0
100
AcDbBlockEnd
  0
BLOCK
  5
90A
330
900
100
AcDbEntity
  8
0
100
AcDbBlockBegin
  2
*D37
 70
     1
 10
0.0
 20
0.0
 30
0.0
  3
*D37
  1

  0
LINE
  5
948
330
900
100
AcDbEntity
  8
SUNPOU
  6
CONTINUOUS
 62
     4
100
AcDbLine
 10
54.62886725506507
 20
371.2636379046415
 30
0.0
 11
54.62886725506507
 21
390.2415412647314
 31
0.0
  0
LINE
  5
949
330
900
100
AcDbEntity
  8
SUNPOU
  6
CONTINUOUS
 62
     4
100
AcDbLine
 10
-22.7711327449349
 20
355.6171379046414
 30
0.0
 11
-22.7711327449349
 21
390.2415412647314
 31
0.0
  0
LINE
  5
94A
330
900
100
AcDbEntity
  8
SUNPOU
  6
CONTINUOUS
 62
     4
100
AcDbLine
 10
51.62886725506507
 20
388.7415412647314
 30
0.0
 11
-19.7711327449349
 21
388.7415412647314
 31
0.0
  0
INSERT
  5
94B
330
900
100
AcDbEntity
  8
SUNPOU
  6
CONTINUOUS
 62
     4
100
AcDbBlockReference
  2
_OPEN
 10
54.62886725506507
 20
388.7415412647314
 30
0.0
 41
3.0
 42
3.0
 43
3.0
  0
INSERT
  5
94C
330
900
100
AcDbEntity
  8
SUNPOU
  6
CONTINUOUS
 62
     4
100
AcDbBlockReference
  2
_OPEN
 10
-22.7711327449349
 20
388.7415412647314
 30
0.0
 41
3.0
 42
3.0
 43
3.0
 50
180.0
  0
MTEXT
  5
94D
330
900
100
AcDbEntity
  8
SUNPOU
  6
CONTINUOUS
 62
     4
100
AcDbMText
 10
15.92886725506508
 20
391.2415412647313
 30
0.0
 40
3.0
 41
0.0
 71
     5
 72
     1
  1
\A1;φ77
1001
ACAD
1000
MTEXTBEGIN
1070
    73
1070
     1
1070
    44
1040
1.0
1070
    74
1070
     0
1000
MTEXTEND
  0
POINT
  5
94E
330
900
100
AcDbEntity
  8
DEFPOINTS
  6
CONTINUOUS
 62
     0
100
AcDbPoint
 10
54.62886725506507
 20
368.2636379046415
 30
0.0
  0
POINT
  5
94F
330
900
100
AcDbEntity
  8
DEFPOINTS
  6
CONTINUOUS
 62
     0
100
AcDbPoint
 10
-22.7711327449349
 20
352.6171379046414
 30
0.0
  0
POINT
  5
950
330
900
100
AcDbEntity
  8
DEFPOINTS
  6
CONTINUOUS
 62
     0
100
AcDbPoint
 10
-22.7711327449349
 20
388.7415412647314
 30
0.0
  0
ENDBLK
  5
90B
330
900
100
AcDbEntity
  8
0
100
AcDbBlockEnd
  0
BLOCK
  5
916
330
90C
100
AcDbEntity
  8
0
100
AcDbBlockBegin
  2
*D38
 70
     1
 10
0.0
 20
0.0
 30
0.0
  3
*D38
  1

  0
LINE
  5
951
330
90C
100
AcDbEntity
  8
SUNPOU
  6
CONTINUOUS
 62
     4
100
AcDbLine
 10
57.62886725506508
 20
368.2636379046415
 30
0.0
 11
86.69619269408782
 21
368.2636379046415
 31
0.0
  0
LINE
  5
952
330
90C
100
AcDbEntity
  8
SUNPOU
  6
CONTINUOUS
 62
     4
100
AcDbLine
 10
57.62886725506508
 20
341.2636379046415
 30
0.0
 11
86.69619269408782
 21
341.2636379046415
 31
0.0
  0
LINE
  5
953
330
90C
100
AcDbEntity
  8
SUNPOU
  6
CONTINUOUS
 62
     4
100
AcDbLine
 10
85.19619269408783
 20
365.2636379046415
 30
0.0
 11
85.19619269408782
 21
344.2636379046415
 31
0.0
  0
INSERT
  5
954
330
90C
100
AcDbEntity
  8
SUNPOU
  6
CONTINUOUS
 62
     4
100
AcDbBlockReference
  2
_OPEN
 10
85.19619269408783
 20
368.2636379046415
 30
0.0
 41
3.0
 42
3.0
 43
3.0
 50
90.0
  0
INSERT
  5
955
330
90C
100
AcDbEntity
  8
SUNPOU
  6
CONTINUOUS
 62
     4
100
AcDbBlockReference
  2
_OPEN
 10
85.19619269408782
 20
341.2636379046415
 30
0.0
 41
3.0
 42
3.0
 43
3.0
 50
270.0
  0
MTEXT
  5
956
330
90C
100
AcDbEntity
  8
SUNPOU
  6
CONTINUOUS
 62
     4
100
AcDbMText
 10
82.69619269408776
 20
354.7636379046415
 30
0.0
 40
3.0
 41
0.0
 71
     5
 72
     1
  1
\A1;27
 11
0.0000000000000001
 21
1.0
 31
0.0
1001
ACAD
1000
MTEXTBEGIN
1070
    73
1070
     1
1070
    44
1040
1.0
1070
    74
1070
     0
1000
MTEXTEND
  0
POINT
  5
957
330
90C
100
AcDbEntity
  8
DEFPOINTS
  6
CONTINUOUS
 62
     0
100
AcDbPoint
 10
54.62886725506507
 20
368.2636379046415
 30
0.0
  0
POINT
  5
958
330
90C
100
AcDbEntity
  8
DEFPOINTS
  6
CONTINUOUS
 62
     0
100
AcDbPoint
 10
54.62886725506507
 20
341.2636379046415
 30
0.0
  0
POINT
  5
959
330
90C
100
AcDbEntity
  8
DEFPOINTS
  6
CONTINUOUS
 62
     0
100
AcDbPoint
 10
85.19619269408782
 20
341.2636379046415
 30
0.0
  0
ENDBLK
  5
917
330
90C
100
AcDbEntity
  8
0
100
AcDbBlockEnd
  0
BLOCK
  5
922
330
918
100
AcDbEntity
  8
0
100
AcDbBlockBegin
  2
*D39
 70
     1
 10
0.0
 20
0.0
 30
0.0
  3
*D39
  1

  0
LINE
  5
95A
330
918
100
AcDbEntity
  8
SUNPOU
  6
CONTINUOUS
 62
     4
100
AcDbLine
 10
57.62886725506508
 20
368.2636379046415
 30
0.0
 11
74.7207113214338
 21
368.2636379046415
 31
0.0
  0
LINE
  5
95B
330
918
100
AcDbEntity
  8
SUNPOU
  6
CONTINUOUS
 62
     4
100
AcDbLine
 10
57.62886725506508
 20
343.2636379046415
 30
0.0
 11
74.72071132143378
 21
343.2636379046415
 31
0.0
  0
LINE
  5
95C
330
918
100
AcDbEntity
  8
SUNPOU
  6
CONTINUOUS
 62
     4
100
AcDbLine
 10
73.2207113214338
 20
365.2636379046415
 30
0.0
 11
73.22071132143378
 21
346.2636379046415
 31
0.0
  0
INSERT
  5
95D
330
918
100
AcDbEntity
  8
SUNPOU
  6
CONTINUOUS
 62
     4
100
AcDbBlockReference
  2
_OPEN
 10
73.2207113214338
 20
368.2636379046415
 30
0.0
 41
3.0
 42
3.0
 43
3.0
 50
90.0
  0
INSERT
  5
95E
330
918
100
AcDbEntity
  8
SUNPOU
  6
CONTINUOUS
 62
     4
100
AcDbBlockReference
  2
_OPEN
 10
73.22071132143378
 20
343.2636379046415
 30
0.0
 41
3.0
 42
3.0
 43
3.0
 50
270.0
  0
MTEXT
  5
95F
330
918
100
AcDbEntity
  8
SUNPOU
  6
CONTINUOUS
 62
     4
100
AcDbMText
 10
70.72071132143374
 20
355.7636379046415
 30
0.0
 40
3.0
 41
0.0
 71
     5
 72
     1
  1
\A1;※25
 11
0.0000000000000001
 21
1.0
 31
0.0
1001
ACAD
1000
MTEXTBEGIN
1070
    73
1070
     1
1070
    44
1040
1.0
1070
    74
1070
     0
1000
MTEXTEND
  0
POINT
  5
960
330
918
100
AcDbEntity
  8
DEFPOINTS
  6
CONTINUOUS
 62
     0
100
AcDbPoint
 10
54.62886725506507
 20
368.2636379046415
 30
0.0
  0
POINT
  5
961
330
918
100
AcDbEntity
  8
DEFPOINTS
  6
CONTINUOUS
 62
     0
100
AcDbPoint
 10
54.62886725506507
 20
343.2636379046415
 30
0.0
  0
POINT
  5
962
330
918
100
AcDbEntity
  8
DEFPOINTS
  6
CONTINUOUS
 62
     0
100
AcDbPoint
 10
73.22071132143378
 20
343.2636379046415
 30
0.0
  0
ENDBLK
  5
923
330
918
100
AcDbEntity
  8
0
100
AcDbBlockEnd
  0
BLOCK
  5
96F
330
965
100
AcDbEntity
  8
0
100
AcDbBlockBegin
  2
*D40
 70
     1
 10
0.0
 20
0.0
 30
0.0
  3
*D40
  1

  0
LINE
  5
A7E
330
965
100
AcDbEntity
  8
SUNPOU
100
AcDbLine
 10
280.780740326281
 20
368.2636379046415
 30
0.0
 11
309.1778710205549
 21
368.2636379046415
 31
0.0
  0
LINE
  5
A7F
330
965
100
AcDbEntity
  8
SUNPOU
100
AcDbLine
 10
280.780740326281
 20
343.2636379046415
 30
0.0
 11
309.1778710205549
 21
343.2636379046415
 31
0.0
  0
LINE
  5
A80
330
965
100
AcDbEntity
  8
SUNPOU
100
AcDbLine
 10
306.1778710205548
 20
361.2636379046415
 30
0.0
 11
306.1778710205548
 21
350.2636379046415
 31
0.0
  0
INSERT
  5
A81
330
965
100
AcDbEntity
  8
SUNPOU
100
AcDbBlockReference
  2
_OPEN
 10
306.1778710205548
 20
368.2636379046415
 30
0.0
 41
7.0
 42
7.0
 43
7.0
 50
90.0
  0
INSERT
  5
A82
330
965
100
AcDbEntity
  8
SUNPOU
100
AcDbBlockReference
  2
_OPEN
 10
306.1778710205548
 20
343.2636379046415
 30
0.0
 41
7.0
 42
7.0
 43
7.0
 50
270.0
  0
MTEXT
  5
A83
330
965
100
AcDbEntity
  8
SUNPOU
100
AcDbMText
 10
301.1778710205548
 20
355.7636379046416
 30
0.0
 40
6.0
 41
0.0
 71
     5
 72
     1
  1
\A1;\U+203B25
 11
0.0000000000000001
 21
1.0
 31
0.0
  0
POINT
  5
A84
330
965
100
AcDbEntity
  8
DEFPOINTS
 62
     0
100
AcDbPoint
 10
274.780740326281
 20
368.2636379046415
 30
0.0
  0
POINT
  5
A85
330
965
100
AcDbEntity
  8
DEFPOINTS
 62
     0
100
AcDbPoint
 10
274.780740326281
 20
343.2636379046415
 30
0.0
  0
POINT
  5
A86
330
965
100
AcDbEntity
  8
DEFPOINTS
 62
     0
100
AcDbPoint
 10
306.1778710205548
 20
343.2636379046415
 30
0.0
  0
ENDBLK
  5
970
330
965
100
AcDbEntity
  8
0
100
AcDbBlockEnd
  0
BLOCK
  5
97C
330
972
100
AcDbEntity
  8
0
100
AcDbBlockBegin
  2
*D41
 70
     1
 10
0.0
 20
0.0
 30
0.0
  3
*D41
  1

  0
LINE
  5
A87
330
972
100
AcDbEntity
  8
SUNPOU
100
AcDbLine
 10
280.780740326281
 20
368.2636379046415
 30
0.0
 11
332.7787774801727
 21
368.2636379046415
 31
0.0
  0
LINE
  5
A88
330
972
100
AcDbEntity
  8
SUNPOU
100
AcDbLine
 10
280.780740326281
 20
341.2636379046415
 30
0.0
 11
332.7787774801727
 21
341.2636379046415
 31
0.0
  0
LINE
  5
A89
330
972
100
AcDbEntity
  8
SUNPOU
100
AcDbLine
 10
329.7787774801727
 20
361.2636379046415
 30
0.0
 11
329.7787774801727
 21
348.2636379046415
 31
0.0
  0
INSERT
  5
A8A
330
972
100
AcDbEntity
  8
SUNPOU
100
AcDbBlockReference
  2
_OPEN
 10
329.7787774801727
 20
368.2636379046415
 30
0.0
 41
7.0
 42
7.0
 43
7.0
 50
90.0
  0
INSERT
  5
A8B
330
972
100
AcDbEntity
  8
SUNPOU
100
AcDbBlockReference
  2
_OPEN
 10
329.7787774801727
 20
341.2636379046415
 30
0.0
 41
7.0
 42
7.0
 43
7.0
 50
270.0
  0
MTEXT
  5
A8C
330
972
100
AcDbEntity
  8
SUNPOU
100
AcDbMText
 10
324.7787774801726
 20
354.7636379046416
 30
0.0
 40
6.0
 41
0.0
 71
     5
 72
     1
  1
\A1;27
 11
0.0000000000000001
 21
1.0
 31
0.0
  0
POINT
  5
A8D
330
972
100
AcDbEntity
  8
DEFPOINTS
 62
     0
100
AcDbPoint
 10
274.780740326281
 20
368.2636379046415
 30
0.0
  0
POINT
  5
A8E
330
972
100
AcDbEntity
  8
DEFPOINTS
 62
     0
100
AcDbPoint
 10
274.780740326281
 20
341.2636379046415
 30
0.0
  0
POINT
  5
A8F
330
972
100
AcDbEntity
  8
DEFPOINTS
 62
     0
100
AcDbPoint
 10
329.7787774801727
 20
341.2636379046415
 30
0.0
  0
ENDBLK
  5
97D
330
972
100
AcDbEntity
  8
0
100
AcDbBlockEnd
  0
BLOCK
  5
989
330
97F
100
AcDbEntity
  8
0
100
AcDbBlockBegin
  2
*D42
 70
     1
 10
0.0
 20
0.0
 30
0.0
  3
*D42
  1

  0
LINE
  5
A90
330
97F
100
AcDbEntity
  8
SUNPOU
100
AcDbLine
 10
274.780740326281
 20
374.2636379046415
 30
0.0
 11
274.780740326281
 21
414.919940792086
 31
0.0
  0
LINE
  5
A91
330
97F
100
AcDbEntity
  8
SUNPOU
100
AcDbLine
 10
197.380740326281
 20
374.2636379046415
 30
0.0
 11
197.380740326281
 21
414.919940792086
 31
0.0
  0
LINE
  5
A92
330
97F
100
AcDbEntity
  8
SUNPOU
100
AcDbLine
 10
267.780740326281
 20
411.9199407920859
 30
0.0
 11
204.380740326281
 21
411.9199407920859
 31
0.0
  0
INSERT
  5
A93
330
97F
100
AcDbEntity
  8
SUNPOU
100
AcDbBlockReference
  2
_OPEN
 10
274.780740326281
 20
411.9199407920859
 30
0.0
 41
7.0
 42
7.0
 43
7.0
  0
INSERT
  5
A94
330
97F
100
AcDbEntity
  8
SUNPOU
100
AcDbBlockReference
  2
_OPEN
 10
197.380740326281
 20
411.9199407920859
 30
0.0
 41
7.0
 42
7.0
 43
7.0
 50
180.0
  0
MTEXT
  5
A95
330
97F
100
AcDbEntity
  8
SUNPOU
100
AcDbMText
 10
236.080740326281
 20
416.9199407920859
 30
0.0
 40
6.0
 41
0.0
 71
     5
 72
     1
  1
\A1;φ77
  0
POINT
  5
A96
330
97F
100
AcDbEntity
  8
DEFPOINTS
 62
     0
100
AcDbPoint
 10
274.780740326281
 20
368.2636379046415
 30
0.0
  0
POINT
  5
A97
330
97F
100
AcDbEntity
  8
DEFPOINTS
 62
     0
100
AcDbPoint
 10
197.380740326281
 20
368.2636379046415
 30
0.0
  0
POINT
  5
A98
330
97F
100
AcDbEntity
  8
DEFPOINTS
 62
     0
100
AcDbPoint
 10
197.380740326281
 20
411.9199407920859
 30
0.0
  0
ENDBLK
  5
98A
330
97F
100
AcDbEntity
  8
0
100
AcDbBlockEnd
  0
BLOCK
  5
996
330
98C
100
AcDbEntity
  8
0
100
AcDbBlockBegin
  2
*D43
 70
     1
 10
0.0
 20
0.0
 30
0.0
  3
*D43
  1

  0
LINE
  5
A99
330
98C
100
AcDbEntity
  8
SUNPOU
100
AcDbLine
 10
191.380740326281
 20
368.2637379046416
 30
0.0
 11
146.1805415308299
 21
368.2637379046416
 31
0.0
  0
LINE
  5
A9A
330
98C
100
AcDbEntity
  8
SUNPOU
100
AcDbLine
 10
249.606140326281
 20
291.1006379046415
 30
0.0
 11
146.1805415308299
 21
291.1006379046415
 31
0.0
  0
LINE
  5
A9B
330
98C
100
AcDbEntity
  8
SUNPOU
100
AcDbLine
 10
149.1805415308299
 20
361.2637379046416
 30
0.0
 11
149.1805415308299
 21
298.1006379046415
 31
0.0
  0
INSERT
  5
A9C
330
98C
100
AcDbEntity
  8
SUNPOU
100
AcDbBlockReference
  2
_OPEN
 10
149.1805415308299
 20
368.2637379046416
 30
0.0
 41
7.0
 42
7.0
 43
7.0
 50
90.0
  0
INSERT
  5
A9D
330
98C
100
AcDbEntity
  8
SUNPOU
100
AcDbBlockReference
  2
_OPEN
 10
149.1805415308299
 20
291.1006379046415
 30
0.0
 41
7.0
 42
7.0
 43
7.0
 50
270.0
  0
MTEXT
  5
A9E
330
98C
100
AcDbEntity
  8
SUNPOU
100
AcDbMText
 10
144.1805415308299
 20
329.6821879046416
 30
0.0
 40
6.0
 41
0.0
 71
     5
 72
     1
  1
\A1;77
 11
0.0000000000000001
 21
1.0
 31
0.0
  0
POINT
  5
A9F
330
98C
100
AcDbEntity
  8
DEFPOINTS
 62
     0
100
AcDbPoint
 10
197.380740326281
 20
368.2637379046416
 30
0.0
  0
POINT
  5
AA0
330
98C
100
AcDbEntity
  8
DEFPOINTS
 62
     0
100
AcDbPoint
 10
255.606140326281
 20
291.1006379046415
 30
0.0
  0
POINT
  5
AA1
330
98C
100
AcDbEntity
  8
DEFPOINTS
 62
     0
100
AcDbPoint
 10
149.1805415308299
 20
291.1006379046415
 30
0.0
  0
ENDBLK
  5
997
330
98C
100
AcDbEntity
  8
0
100
AcDbBlockEnd
  0
BLOCK
  5
9A3
330
999
100
AcDbEntity
  8
0
100
AcDbBlockBegin
  2
*D44
 70
     1
 10
0.0
 20
0.0
 30
0.0
  3
*D44
  1

  0
LINE
  5
AA2
330
999
100
AcDbEntity
  8
SUNPOU
100
AcDbLine
 10
236.0807403262811
 20
307.5852379046415
 30
0.0
 11
236.0807403262811
 21
215.1763817199064
 31
0.0
  0
LINE
  5
AA3
330
999
100
AcDbEntity
  8
SUNPOU
100
AcDbLine
 10
281.2435403262811
 20
247.9706379046416
 30
0.0
 11
281.2435403262811
 21
215.1763817199064
 31
0.0
  0
LINE
  5
AA4
330
999
100
AcDbEntity
  8
SUNPOU
100
AcDbLine
 10
243.080740326281
 20
218.1763817199064
 30
0.0
 11
274.2435403262811
 21
218.1763817199064
 31
0.0
  0
INSERT
  5
AA5
330
999
100
AcDbEntity
  8
SUNPOU
100
AcDbBlockReference
  2
_OPEN
 10
236.0807403262811
 20
218.1763817199064
 30
0.0
 41
7.0
 42
7.0
 43
7.0
 50
180.0
  0
INSERT
  5
AA6
330
999
100
AcDbEntity
  8
SUNPOU
100
AcDbBlockReference
  2
_OPEN
 10
281.2435403262811
 20
218.1763817199064
 30
0.0
 41
7.0
 42
7.0
 43
7.0
  0
MTEXT
  5
AA7
330
999
100
AcDbEntity
  8
SUNPOU
100
AcDbMText
 10
258.6621403262811
 20
223.1763817199064
 30
0.0
 40
6.0
 41
0.0
 71
     5
 72
     1
  1
\A1;45
  0
POINT
  5
AA8
330
999
100
AcDbEntity
  8
DEFPOINTS
 62
     0
100
AcDbPoint
 10
236.0807403262811
 20
313.5852379046415
 30
0.0
  0
POINT
  5
AA9
330
999
100
AcDbEntity
  8
DEFPOINTS
 62
     0
100
AcDbPoint
 10
281.2435403262811
 20
253.9706379046416
 30
0.0
  0
POINT
  5
AAA
330
999
100
AcDbEntity
  8
DEFPOINTS
 62
     0
100
AcDbPoint
 10
281.2435403262811
 20
218.1763817199064
 30
0.0
  0
ENDBLK
  5
9A4
330
999
100
AcDbEntity
  8
0
100
AcDbBlockEnd
  0
BLOCK
  5
9B0
330
9A6
100
AcDbEntity
  8
0
100
AcDbBlockBegin
  2
*D45
 70
     1
 10
0.0
 20
0.0
 30
0.0
  3
*D45
  1

  0
LINE
  5
AAB
330
9A6
100
AcDbEntity
  8
SUNPOU
100
AcDbLine
 10
236.0807403262811
 20
307.5852379046415
 30
0.0
 11
236.0807403262811
 21
193.6493194484314
 31
0.0
  0
LINE
  5
AAC
330
9A6
100
AcDbEntity
  8
SUNPOU
100
AcDbLine
 10
311.2435403262811
 20
249.9706379046416
 30
0.0
 11
311.2435403262811
 21
193.6493194484314
 31
0.0
  0
LINE
  5
AAD
330
9A6
100
AcDbEntity
  8
SUNPOU
100
AcDbLine
 10
243.080740326281
 20
196.6493194484314
 30
0.0
 11
304.2435403262811
 21
196.6493194484314
 31
0.0
  0
INSERT
  5
AAE
330
9A6
100
AcDbEntity
  8
SUNPOU
100
AcDbBlockReference
  2
_OPEN
 10
236.0807403262811
 20
196.6493194484314
 30
0.0
 41
7.0
 42
7.0
 43
7.0
 50
180.0
  0
INSERT
  5
AAF
330
9A6
100
AcDbEntity
  8
SUNPOU
100
AcDbBlockReference
  2
_OPEN
 10
311.2435403262811
 20
196.6493194484314
 30
0.0
 41
7.0
 42
7.0
 43
7.0
  0
MTEXT
  5
AB0
330
9A6
100
AcDbEntity
  8
SUNPOU
100
AcDbMText
 10
273.6621403262811
 20
201.6493194484314
 30
0.0
 40
6.0
 41
0.0
 71
     5
 72
     1
  1
\A1;75
  0
POINT
  5
AB1
330
9A6
100
AcDbEntity
  8
DEFPOINTS
 62
     0
100
AcDbPoint
 10
236.0807403262811
 20
313.5852379046415
 30
0.0
  0
POINT
  5
AB2
330
9A6
100
AcDbEntity
  8
DEFPOINTS
 62
     0
100
AcDbPoint
 10
311.2435403262811
 20
255.9706379046416
 30
0.0
  0
POINT
  5
AB3
330
9A6
100
AcDbEntity
  8
DEFPOINTS
 62
     0
100
AcDbPoint
 10
311.2435403262811
 20
196.6493194484314
 30
0.0
  0
ENDBLK
  5
9B1
330
9A6
100
AcDbEntity
  8
0
100
AcDbBlockEnd
  0
ENDSEC
  0
SECTION
  2
ENTITIES
  0
TEXT
  5
11A
330
1A
100
AcDbEntity
  8
ZUWAKU
 62
     7
 48
10.0
100
AcDbText
 10
795.5579444309237
 20
4.974918402528146
 30
0.0
 40
8.0
  1
A1
100
AcDbText
  0
LINE
  5
11B
330
1A
100
AcDbEntity
  8
ZUWAKU
 62
     7
 48
10.0
100
AcDbLine
 10
10.05047808566086
 20
25.78258628282265
 30
0.0
 11
806.0504780856609
 21
25.78258628282253
 31
0.0
  0
LINE
  5
11C
330
1A
100
AcDbEntity
  8
ZUWAKU
  6
CONTINUOUS
 62
     7
100
AcDbLine
 10
806.0504780856609
 20
563.7825862828226
 30
0.0
 11
10.05047808566086
 21
563.7825862828226
 31
0.0
  0
LINE
  5
11D
330
1A
100
AcDbEntity
  8
ZUWAKU
  6
CONTINUOUS
 62
     7
100
AcDbLine
 10
806.0504780856609
 20
13.78258628282265
 30
0.0
 11
10.05047808566086
 21
13.78258628282265
 31
0.0
  0
LINE
  5
11E
330
1A
100
AcDbEntity
  8
ZUWAKU
  6
CONTINUOUS
 62
     7
100
AcDbLine
 10
10.05047808566086
 20
563.7825862828226
 30
0.0
 11
10.05047808566086
 21
13.78258628282265
 31
0.0
  0
LINE
  5
11F
330
1A
100
AcDbEntity
  8
ZUWAKU
 62
     7
 48
10.0
100
AcDbLine
 10
44.55797523147839
 20
13.78258628282265
 30
0.0
 11
44.5579752314784
 21
25.78258628282265
 31
0.0
  0
TEXT
  5
120
330
1A
100
AcDbEntity
  8
ZUWAKU
 62
     7
100
AcDbText
 10
16.05676551180931
 20
15.52294263804401
 30
0.0
 40
8.0
  1
品 種
100
AcDbText
  0
LINE
  5
121
330
1A
100
AcDbEntity
  8
ZUWAKU
 62
     7
 48
10.0
100
AcDbLine
 10
276.1028387068254
 20
13.78258628282265
 30
0.0
 11
276.1028387068254
 21
25.78258628282261
 31
0.0
  0
LINE
  5
122
330
1A
100
AcDbEntity
  8
ZUWAKU
 62
     7
 48
10.0
100
AcDbLine
 10
209.5138526425484
 20
13.78258628282265
 30
0.0
 11
209.5138526425485
 21
25.78258628282263
 31
0.0
  0
TEXT
  5
124
330
1A
100
AcDbEntity
  8
ZUWAKU
 62
     7
100
AcDbText
 10
215.4560837190756
 20
16.18358115302453
 30
0.0
 40
8.0
  1
品名・ｻ ｲ ｽﾞ
100
AcDbText
  0
TEXT
  5
125
330
1A
100
AcDbEntity
  8
ZUWAKU
 62
     7
100
AcDbText
 10
50.3519382305086
 20
16.10306189639755
 30
0.0
 40
8.0
  1
丸トップ　たてとい
100
AcDbText
  0
LINE
  5
126
330
1A
100
AcDbEntity
  8
ZUWAKU
 62
     7
 48
10.0
100
AcDbLine
 10
768.7231079932794
 20
13.78258628282237
 30
0.0
 11
768.7231079932794
 21
25.78258628282254
 31
0.0
  0
LINE
  5
127
330
1A
100
AcDbEntity
  8
ZUWAKU
 62
     7
 48
10.0
100
AcDbLine
 10
733.8119002376948
 20
13.78258628282242
 30
0.0
 11
733.8119002376946
 21
25.78258628282254
 31
0.0
  0
TEXT
  5
128
330
1A
100
AcDbEntity
  8
ZUWAKU
 62
     7
100
AcDbText
 10
739.6955629973526
 20
15.24227755810852
 30
0.0
 40
8.0
  1
尺 度
100
AcDbText
  0
TEXT
  5
129
330
1A
100
AcDbEntity
  8
ZUWAKU
 62
     7
100
AcDbText
 10
779.7374630323229
 20
15.55488920081529
 30
0.0
 40
8.0
  1
1/2
100
AcDbText
  0
TEXT
  5
12B
330
1A
100
AcDbEntity
  8
ZUWAKU
 62
     7
100
AcDbText
 10
620.3363288383084
 20
15.6519090944263
 30
0.0
 40
8.0
  1
品 番
100
AcDbText
  0
LINE
  5
12C
330
1A
100
AcDbEntity
  8
ZUWAKU
 62
     7
 48
10.0
100
AcDbLine
 10
614.3351028194128
 20
13.78258628282232
 30
0.0
 11
614.3351028194128
 21
25.78258628282256
 31
0.0
  0
LINE
  5
12D
330
1A
100
AcDbEntity
  8
ZUWAKU
 62
     7
 48
10.0
100
AcDbLine
 10
648.7607587371021
 20
13.78258628282232
 30
0.0
 11
648.7607587371021
 21
25.78258628282255
 31
0.0
  0
TEXT
  5
12E
330
1A
100
AcDbEntity
  8
ZUWAKU
 62
     7
 48
10.0
100
AcDbText
 10
646.2758615931216
 20
4.949376903717848
 30
0.0
 40
8.0
  1
積水化学工業株式会社  建材
100
AcDbText
  0
LINE
  5
12F
330
1A
100
AcDbEntity
  8
ZUWAKU
  6
CONTINUOUS
 62
     7
100
AcDbLine
 10
806.0504780856609
 20
563.7825862828226
 30
0.0
 11
806.0504780856609
 21
13.78258628282265
 31
0.0
  0
POINT
  5
2A8
330
1A
100
AcDbEntity
  8
SUNPOU
  6
CONTINUOUS
 62
     4
100
AcDbPoint
 10
278.2565746582753
 20
165.3158811387815
 30
0.0
  0
POINT
  5
2AA
330
1A
100
AcDbEntity
  8
SUNPOU
  6
CONTINUOUS
 62
     4
100
AcDbPoint
 10
279.0315746582754
 20
185.3158811387815
 30
0.0
  0
POINT
  5
2AD
330
1A
100
AcDbEntity
  8
SUNPOU
  6
CONTINUOUS
 62
     4
100
AcDbPoint
 10
285.2565746582754
 20
190.3158811387815
 30
0.0
  0
POINT
  5
2AF
330
1A
100
AcDbEntity
  8
SUNPOU
  6
CONTINUOUS
 62
     4
100
AcDbPoint
 10
287.9066746582754
 20
210.3158811387814
 30
0.0
  0
POINT
  5
2B6
330
1A
100
AcDbEntity
  8
SUNPOU
  6
CONTINUOUS
 62
     4
100
AcDbPoint
 10
323.4480157108922
 20
185.3158811387815
 30
0.0
  0
POINT
  5
2B8
330
1A
100
AcDbEntity
  8
SUNPOU
  6
CONTINUOUS
 62
     4
100
AcDbPoint
 10
323.4480157108922
 20
190.3158811387815
 30
0.0
  0
LINE
  5
626
330
1A
100
AcDbEntity
  8
CENTER_L
  6
CENTER
 62
     1
 48
5.0
100
AcDbLine
 10
367.3556526430315
 20
291.1006379046415
 30
0.0
 11
461.9803526430314
 21
291.1006379046415
 31
0.0
  0
LINE
  5
62B
330
1A
100
AcDbEntity
  8
SEIHIN
  6
CONTINUOUS
 62
     3
100
AcDbLine
 10
311.2435403262811
 20
255.9706379046416
 30
0.0
 11
311.2436403262812
 21
326.2306379046415
 31
0.0
  0
LINE
  5
62C
330
1A
100
AcDbEntity
  8
SEIHIN
  6
CONTINUOUS
 62
     3
100
AcDbLine
 10
289.7435403262811
 20
327.0006379046416
 30
0.0
 11
289.7435403262811
 21
291.1006379046415
 31
0.0
  0
LINE
  5
62D
330
1A
100
AcDbEntity
  8
SEIHIN
  6
CONTINUOUS
 62
     3
100
AcDbLine
 10
281.2435403262811
 20
253.9706379046416
 30
0.0
 11
281.2435403262811
 21
328.2306379046416
 31
0.0
  0
LINE
  5
62E
330
1A
100
AcDbEntity
  8
SEIHIN
  6
CONTINUOUS
 62
     3
100
AcDbLine
 10
292.743540326281
 20
326.2306379046415
 30
0.0
 11
289.7435403262811
 21
291.1006379046415
 31
0.0
  0
LINE
  5
62F
330
1A
100
AcDbEntity
  8
SEIHIN
  6
CONTINUOUS
 62
     3
100
AcDbLine
 10
307.243540326281
 20
326.2306379046415
 30
0.0
 11
310.243540326281
 21
291.1006379046415
 31
0.0
  0
LINE
  5
630
330
1A
100
AcDbEntity
  8
SEIHIN
  6
CONTINUOUS
 62
     3
100
AcDbLine
 10
283.7435403262811
 20
326.2305379046415
 30
0.0
 11
286.743540326281
 21
291.1006379046415
 31
0.0
  0
LINE
  5
631
330
1A
100
AcDbEntity
  8
SEIHIN
  6
CONTINUOUS
 62
     3
100
AcDbLine
 10
307.243540326281
 20
291.1006379046415
 30
0.0
 11
307.2436403262812
 21
326.2306379046415
 31
0.0
  0
LINE
  5
632
330
1A
100
AcDbEntity
  8
SEIHIN
  6
CONTINUOUS
 62
     3
100
AcDbLine
 10
286.743540326281
 20
327.0006379046416
 30
0.0
 11
286.743540326281
 21
291.1006379046415
 31
0.0
  0
LINE
  5
633
330
1A
100
AcDbEntity
  8
SEIHIN
  6
CONTINUOUS
 62
     3
100
AcDbLine
 10
304.2436403262812
 20
291.1006379046415
 30
0.0
 11
304.2436403262812
 21
326.2306379046415
 31
0.0
  0
LINE
  5
634
330
1A
100
AcDbEntity
  8
SEIHIN
  6
CONTINUOUS
 62
     3
100
AcDbLine
 10
304.2436403262812
 20
326.2306379046415
 30
0.0
 11
301.2436403262812
 21
291.1006379046415
 31
0.0
  0
LINE
  5
635
330
1A
100
AcDbEntity
  8
SEIHIN
  6
CONTINUOUS
 62
     3
100
AcDbLine
 10
274.780740326281
 20
331.7930379046415
 30
0.0
 11
221.4799403262811
 21
278.4924379046416
 31
0.0
  0
LINE
  5
636
330
1A
100
AcDbEntity
  8
CENTER_L
  6
CENTER
 62
     1
 48
5.0
100
AcDbLine
 10
266.515340326281
 20
286.8288379046416
 30
0.0
 11
229.6801403262811
 21
323.6641379046416
 31
0.0
  0
LINE
  5
637
330
1A
100
AcDbEntity
  8
CENTER_L
  6
CENTER
 62
     1
 48
5.0
100
AcDbLine
 10
236.0807403262811
 20
379.3593379046416
 30
0.0
 11
236.0807403262811
 21
313.5852379046415
 31
0.0
  0
ARC
  5
638
330
1A
100
AcDbEntity
  8
SEIHIN
  6
CONTINUOUS
 62
     3
100
AcDbCircle
 10
280.380740326281
 20
336.9706379046416
 30
0.0
 40
83.00000000006024
100
AcDbArc
 50
179.9999309689399
 51
269.9999309689431
  0
TEXT
  5
63C
330
1A
100
AcDbEntity
  8
ZUWAKU
 62
     7
100
AcDbText
 10
282.3131429914078
 20
15.64241700452384
 30
0.0
 40
8.0
  1
自在エルボ　ＵＴ７５
100
AcDbText
  0
LINE
  5
641
330
1A
100
AcDbEntity
  8
SEIHIN
  6
CONTINUOUS
 62
     3
100
AcDbLine
 10
289.7435403262811
 20
255.2006379046416
 30
0.0
 11
292.743540326281
 21
255.9706379046416
 31
0.0
  0
LINE
  5
642
330
1A
100
AcDbEntity
  8
SEIHIN
  6
CONTINUOUS
 62
     3
100
AcDbLine
 10
292.743540326281
 20
255.9706379046416
 30
0.0
 11
289.7435403262811
 21
291.1006379046415
 31
0.0
  0
LINE
  5
643
330
1A
100
AcDbEntity
  8
CENTER_L
  6
CENTER
 62
     1
 48
5.0
100
AcDbLine
 10
320.1764403262811
 20
291.1006379046415
 30
0.0
 11
255.606140326281
 21
291.1006379046415
 31
0.0
  0
LINE
  5
645
330
1A
100
AcDbEntity
  8
SEIHIN
  6
CONTINUOUS
 62
     3
100
AcDbLine
 10
289.7435403262811
 20
255.2006379046416
 30
0.0
 11
289.7435403262811
 21
291.1006379046415
 31
0.0
  0
LINE
  5
646
330
1A
100
AcDbEntity
  8
SEIHIN
  6
CONTINUOUS
 62
     3
100
AcDbLine
 10
286.743540326281
 20
255.2006379046416
 30
0.0
 11
286.743540326281
 21
291.1006379046415
 31
0.0
  0
LINE
  5
647
330
1A
100
AcDbEntity
  8
SEIHIN
  6
CONTINUOUS
 62
     3
100
AcDbLine
 10
283.7435403262811
 20
255.9706379046416
 30
0.0
 11
286.743540326281
 21
291.1005379046416
 31
0.0
  0
LINE
  5
648
330
1A
100
AcDbEntity
  8
SEIHIN
  6
CONTINUOUS
 62
     3
100
AcDbLine
 10
283.7435403262811
 20
255.9706379046416
 30
0.0
 11
281.2435403262811
 21
255.9706379046416
 31
0.0
  0
LINE
  5
649
330
1A
100
AcDbEntity
  8
SEIHIN
  6
CONTINUOUS
 62
     3
100
AcDbLine
 10
281.2435403262811
 20
253.9706379046416
 30
0.0
 11
280.380740326281
 21
253.9706379046416
 31
0.0
  0
LINE
  5
64A
330
1A
100
AcDbEntity
  8
SEIHIN
  6
CONTINUOUS
 62
     3
100
AcDbLine
 10
289.7435403262811
 20
255.2006379046416
 30
0.0
 11
286.743540326281
 21
255.2006379046416
 31
0.0
  0
LINE
  5
64B
330
1A
100
AcDbEntity
  8
SEIHIN
  6
CONTINUOUS
 62
     3
100
AcDbLine
 10
286.743540326281
 20
255.2006379046416
 30
0.0
 11
283.7435403262811
 21
255.9706379046416
 31
0.0
  0
LINE
  5
64C
330
1A
100
AcDbEntity
  8
SEIHIN
  6
CONTINUOUS
 62
     3
100
AcDbLine
 10
304.2436403262812
 20
255.9706379046416
 30
0.0
 11
301.2436403262812
 21
291.1006379046415
 31
0.0
  0
LINE
  5
64D
330
1A
100
AcDbEntity
  8
SEIHIN
  6
CONTINUOUS
 62
     3
100
AcDbLine
 10
304.2436403262812
 20
291.1006379046415
 30
0.0
 11
304.2436403262812
 21
255.9706379046416
 31
0.0
  0
LINE
  5
64E
330
1A
100
AcDbEntity
  8
SEIHIN
  6
CONTINUOUS
 62
     3
100
AcDbLine
 10
307.243540326281
 20
291.1006379046415
 30
0.0
 11
307.2436403262812
 21
255.9706379046416
 31
0.0
  0
LINE
  5
64F
330
1A
100
AcDbEntity
  8
SEIHIN
  6
CONTINUOUS
 62
     3
100
AcDbLine
 10
307.243540326281
 20
255.9706379046416
 30
0.0
 11
310.243540326281
 21
291.1006379046415
 31
0.0
  0
LINE
  5
650
330
1A
100
AcDbEntity
  8
SEIHIN
  6
CONTINUOUS
 62
     3
100
AcDbLine
 10
311.2435403262811
 20
255.9706379046416
 30
0.0
 11
292.743540326281
 21
255.9706379046416
 31
0.0
  0
LINE
  5
652
330
1A
100
AcDbEntity
  8
SEIHIN
  6
CONTINUOUS
 62
     3
100
AcDbLine
 10
197.380740326281
 20
341.2636379046415
 30
0.0
 11
274.780740326281
 21
341.2636379046415
 31
0.0
  0
LINE
  5
653
330
1A
100
AcDbEntity
  8
SEIHIN
  6
CONTINUOUS
 62
     3
100
AcDbLine
 10
197.380740326281
 20
368.2636379046415
 30
0.0
 11
274.780740326281
 21
368.2636379046415
 31
0.0
  0
LINE
  5
654
330
1A
100
AcDbEntity
  8
SEIHIN
  6
CONTINUOUS
 62
     3
100
AcDbLine
 10
197.380740326281
 20
368.2636379046415
 30
0.0
 11
197.380740326281
 21
336.9706379046415
 31
0.0
  0
LINE
  5
655
330
1A
100
AcDbEntity
  8
SEIHIN
  6
CONTINUOUS
 62
     3
100
AcDbLine
 10
197.380740326281
 20
368.2637379046416
 30
0.0
 11
195.6807403262812
 21
363.2636379046416
 31
0.0
  0
LINE
  5
656
330
1A
100
AcDbEntity
  8
SEIHIN
  6
CONTINUOUS
 62
     3
100
AcDbLine
 10
195.6807403262812
 20
363.2636379046416
 30
0.0
 11
197.380740326281
 21
363.2636379046416
 31
0.0
  0
LINE
  5
659
330
1A
100
AcDbEntity
  8
SEIHIN
  6
CONTINUOUS
 62
     3
100
AcDbLine
 10
289.7435403262811
 20
327.0006379046416
 30
0.0
 11
292.743540326281
 21
326.2306379046415
 31
0.0
  0
LINE
  5
65A
330
1A
100
AcDbEntity
  8
SEIHIN
  6
CONTINUOUS
 62
     3
100
AcDbLine
 10
274.780740326281
 20
368.2636379046415
 30
0.0
 11
274.780740326281
 21
331.7930379046415
 31
0.0
  0
LINE
  5
65B
330
1A
100
AcDbEntity
  8
SEIHIN
  6
CONTINUOUS
 62
     3
100
AcDbLine
 10
274.8592403262811
 20
331.8715379046416
 30
0.0
 11
278.500140326281
 21
328.2306379046416
 31
0.0
  0
LINE
  5
65C
330
1A
100
AcDbEntity
  8
SEIHIN
  6
CONTINUOUS
 62
     3
100
AcDbLine
 10
283.7435403262811
 20
326.2306379046415
 30
0.0
 11
281.2435403262811
 21
326.2306379046415
 31
0.0
  0
LINE
  5
65D
330
1A
100
AcDbEntity
  8
SEIHIN
  6
CONTINUOUS
 62
     3
100
AcDbLine
 10
281.2435403262811
 20
328.2306379046416
 30
0.0
 11
278.500140326281
 21
328.2306379046416
 31
0.0
  0
LINE
  5
65E
330
1A
100
AcDbEntity
  8
SEIHIN
  6
CONTINUOUS
 62
     3
100
AcDbLine
 10
289.7435403262811
 20
327.0006379046416
 30
0.0
 11
286.743540326281
 21
327.0006379046416
 31
0.0
  0
LINE
  5
65F
330
1A
100
AcDbEntity
  8
SEIHIN
  6
CONTINUOUS
 62
     3
100
AcDbLine
 10
286.743540326281
 20
327.0006379046416
 30
0.0
 11
283.7435403262811
 21
326.2305379046415
 31
0.0
  0
LINE
  5
660
330
1A
100
AcDbEntity
  8
SEIHIN
  6
CONTINUOUS
 62
     3
100
AcDbLine
 10
276.4807403262811
 20
363.2636379046416
 30
0.0
 11
274.780740326281
 21
363.2636379046416
 31
0.0
  0
LINE
  5
661
330
1A
100
AcDbEntity
  8
SEIHIN
  6
CONTINUOUS
 62
     3
100
AcDbLine
 10
274.780740326281
 20
368.2636379046415
 30
0.0
 11
276.4807403262811
 21
363.2636379046416
 31
0.0
  0
LINE
  5
662
330
1A
100
AcDbEntity
  8
SEIHIN
  6
CONTINUOUS
 62
     3
100
AcDbLine
 10
311.2435403262811
 20
326.2306379046415
 30
0.0
 11
292.743540326281
 21
326.2306379046415
 31
0.0
  0
LINE
  5
664
330
1A
100
AcDbEntity
  8
CENTER_L
  6
CENTER
 62
     1
 48
5.0
100
AcDbLine
 10
640.2226589283023
 20
232.939063008828
 30
0.0
 11
640.2228342231624
 21
297.5093630085903
 31
0.0
  0
LINE
  5
665
330
1A
100
AcDbEntity
  8
SEIHIN
  6
CONTINUOUS
 62
     3
100
AcDbLine
 10
675.3527334027589
 20
260.3718676381241
 30
0.0
 11
640.2227415472611
 21
263.3719630087159
 31
0.0
  0
LINE
  5
666
330
1A
100
AcDbEntity
  8
SEIHIN
  6
CONTINUOUS
 62
     3
100
AcDbLine
 10
676.1227415471284
 20
263.3718655477241
 30
0.0
 11
675.3527334027589
 21
260.3718676381241
 31
0.0
  0
LINE
  5
667
330
1A
100
AcDbEntity
  8
SEIHIN
  6
CONTINUOUS
 62
     3
100
AcDbLine
 10
604.3227415473929
 20
263.3720604697078
 30
0.0
 11
605.092733403018
 21
260.37205837933
 31
0.0
  0
LINE
  5
668
330
1A
100
AcDbEntity
  8
SEIHIN
  6
CONTINUOUS
 62
     3
100
AcDbLine
 10
605.092733403018
 20
260.37205837933
 30
0.0
 11
640.2227415472611
 21
263.3719630087159
 31
0.0
  0
ARC
  5
669
330
1A
100
AcDbEntity
  8
SEIHIN
  6
CONTINUOUS
 62
     3
100
AcDbCircle
 10
416.7459526430313
 20
291.1006379047126
 30
0.0
 40
35.13000000007108
100
AcDbArc
 50
270.0
 51
89.99983690355625
  0
LINE
  5
66A
330
1A
100
AcDbEntity
  8
SEIHIN
  6
CONTINUOUS
 62
     3
100
AcDbLine
 10
454.4260526430313
 20
341.2637379046416
 30
0.0
 11
452.8560526430312
 21
291.1006379046415
 31
0.0
  0
LINE
  5
66B
330
1A
100
AcDbEntity
  8
SEIHIN
  6
CONTINUOUS
 62
     3
100
AcDbLine
 10
377.0259526430316
 20
341.2637379046416
 30
0.0
 11
378.5959526430315
 21
291.1006379046415
 31
0.0
  0
ARC
  5
66C
330
1A
100
AcDbEntity
  8
SEIHIN
  6
CONTINUOUS
 62
     3
100
AcDbCircle
 10
415.7260000098033
 20
294.6630383906497
 30
0.0
 40
37.12998858055629
100
AcDbArc
 50
357.8500922564418
 51
181.0918194922055
  0
ARC
  5
66D
330
1A
100
AcDbEntity
  8
SEIHIN
  6
CONTINUOUS
 62
     3
100
AcDbCircle
 10
414.7060526430314
 20
291.1006379045704
 30
0.0
 40
35.13000000007108
100
AcDbArc
 50
90.0
 51
269.9998369035627
  0
ARC
  5
66E
330
1A
100
AcDbEntity
  8
SEIHIN
  6
CONTINUOUS
 62
     3
100
AcDbCircle
 10
415.7260526647005
 20
291.1005879046415
 30
0.0
 40
37.12999997836443
100
AcDbArc
 50
0.0000771556423763
 51
359.9999228443576
  0
ARC
  5
66F
330
1A
100
AcDbEntity
  8
SEIHIN
  6
CONTINUOUS
 62
     3
100
AcDbCircle
 10
415.7260526678933
 20
291.1005879046415
 30
0.0
 40
33.52999997517537
100
AcDbArc
 50
0.0000854395760712
 51
359.9999145604239
  0
ARC
  5
670
330
1A
100
AcDbEntity
  8
SEIHIN
  6
CONTINUOUS
 62
     3
100
AcDbCircle
 10
415.7260526672614
 20
291.1005879046415
 30
0.0
 40
35.12999997580557
100
AcDbArc
 50
0.0000815482202411
 51
359.9999184517797
  0
LINE
  5
671
330
1A
100
AcDbEntity
  8
CENTER_L
  6
CENTER
 62
     1
 48
5.0
100
AcDbLine
 10
415.7260526430313
 20
244.0075379046415
 30
0.0
 11
415.7260526430313
 21
376.8972379046416
 31
0.0
  0
TEXT
  5
672
330
1A
100
AcDbEntity
  8
SUNPOU
  6
CONTINUOUS
 62
     4
100
AcDbText
 10
603.308581356066
 20
49.10428653708788
 30
0.0
 40
8.0
  1
※　たてといの差込み寸法を示す。
100
AcDbText
  0
TEXT
  5
673
330
1A
100
AcDbEntity
  8
ZUWAKU
 62
     7
100
AcDbText
 10
654.2531733678779
 20
15.90287984531516
 30
0.0
 40
8.0
  1
ＧＨ３２
100
AcDbText
  0
ARC
  5
677
330
1A
100
AcDbEntity
  8
SEIHIN
  6
CONTINUOUS
 62
     3
100
AcDbCircle
 10
415.7260203053611
 20
313.4366379047031
 30
0.0
 40
33.53001669413826
100
AcDbArc
 50
199.4555034437667
 51
340.5443153290808
  0
ARC
  5
678
330
1A
100
AcDbEntity
  8
SEIHIN
  6
CONTINUOUS
 62
     3
100
AcDbCircle
 10
415.7260345506697
 20
290.0806379033196
 30
0.0
 40
35.13002041316975
100
AcDbArc
 50
223.8237229368497
 51
316.1742424881525
  0
LINE
  5
67D
330
1A
100
AcDbEntity
  8
SEIHIN
  6
CONTINUOUS
 62
     3
100
AcDbLine
 10
675.3526940382912
 20
245.8718676381777
 30
0.0
 11
640.222685894048
 21
242.8719630087917
 31
0.0
  0
LINE
  5
67E
330
1A
100
AcDbEntity
  8
SEIHIN
  6
CONTINUOUS
 62
     3
100
AcDbLine
 10
640.2226940384207
 20
245.8719630087806
 30
0.0
 11
675.3526940380197
 21
245.8717676381775
 31
0.0
  0
LINE
  5
67F
330
1A
100
AcDbEntity
  8
SEIHIN
  6
CONTINUOUS
 62
     3
100
AcDbLine
 10
640.2227021825219
 20
248.8718630087694
 30
0.0
 11
675.3527021823924
 21
248.8717676381664
 31
0.0
  0
LINE
  5
680
330
1A
100
AcDbEntity
  8
SEIHIN
  6
CONTINUOUS
 62
     3
100
AcDbLine
 10
675.3527021823924
 20
248.8717676381664
 30
0.0
 11
640.2227103268947
 21
251.8718630087584
 31
0.0
  0
LINE
  5
681
330
1A
100
AcDbEntity
  8
SEIHIN
  6
CONTINUOUS
 62
     3
100
AcDbLine
 10
675.3526831791277
 20
241.8718676381922
 30
0.0
 11
605.0926831791152
 21
241.8719583793981
 31
0.0
  0
LINE
  5
682
330
1A
100
AcDbEntity
  8
SEIHIN
  6
CONTINUOUS
 62
     3
100
AcDbLine
 10
605.0927021826514
 20
248.8719583793723
 30
0.0
 11
640.2227103268947
 21
251.8718630087584
 31
0.0
  0
LINE
  5
683
330
1A
100
AcDbEntity
  8
SEIHIN
  6
CONTINUOUS
 62
     3
100
AcDbLine
 10
640.2227021825219
 20
248.8718630087694
 30
0.0
 11
605.0927021826514
 21
248.8719583793723
 31
0.0
  0
LINE
  5
684
330
1A
100
AcDbEntity
  8
SEIHIN
  6
CONTINUOUS
 62
     3
100
AcDbLine
 10
640.2226940384207
 20
245.8719630087806
 30
0.0
 11
605.0926940382787
 21
245.8719583793834
 31
0.0
  0
LINE
  5
685
330
1A
100
AcDbEntity
  8
SEIHIN
  6
CONTINUOUS
 62
     3
100
AcDbLine
 10
605.0926940385502
 20
245.8720583793835
 30
0.0
 11
640.222685894048
 21
242.8719630087917
 31
0.0
  0
LINE
  5
686
330
1A
100
AcDbEntity
  8
SEIHIN
  6
CONTINUOUS
 62
     3
100
AcDbLine
 10
605.0926831793872
 20
241.8720583793981
 30
0.0
 11
605.092733403018
 21
260.37205837933
 31
0.0
  0
LINE
  5
687
330
1A
100
AcDbEntity
  8
SEIHIN
  6
CONTINUOUS
 62
     3
100
AcDbLine
 10
675.3526831791277
 20
241.8718676381922
 30
0.0
 11
675.3527334027589
 21
260.3718676381241
 31
0.0
  0
ARC
  5
688
330
1A
100
AcDbEntity
  8
SEIHIN
  6
CONTINUOUS
 62
     3
100
AcDbCircle
 10
658.36000460695
 20
336.7419514115869
 30
0.0
 40
83.00000000006024
100
AcDbArc
 50
179.9999309689399
 51
224.7937186461477
  0
LINE
  5
689
330
1A
100
AcDbEntity
  8
SEIHIN
  6
CONTINUOUS
 62
     3
100
AcDbLine
 10
575.36000460695
 20
368.0349514115868
 30
0.0
 11
652.7600046069501
 21
368.0349514115868
 31
0.0
  0
LINE
  5
68A
330
1A
100
AcDbEntity
  8
SEIHIN
  6
CONTINUOUS
 62
     3
100
AcDbLine
 10
575.36000460695
 20
341.0349514115868
 30
0.0
 11
652.7600046069501
 21
341.0349514115868
 31
0.0
  0
LINE
  5
68B
330
1A
100
AcDbEntity
  8
SEIHIN
  6
CONTINUOUS
 62
     3
100
AcDbLine
 10
415.7256526430312
 20
341.2636379046415
 30
0.0
 11
454.4260526430313
 21
341.2637379046416
 31
0.0
  0
LINE
  5
68C
330
1A
100
AcDbEntity
  8
SEIHIN
  6
CONTINUOUS
 62
     3
100
AcDbLine
 10
415.7260526430313
 20
368.2636379046415
 30
0.0
 11
454.4259526430314
 21
368.2637379046416
 31
0.0
  0
ARC
  5
68D
330
1A
100
AcDbEntity
  8
SEIHIN
  6
CONTINUOUS
 62
     3
100
AcDbCircle
 10
415.7259385698137
 20
292.1206379044434
 30
0.0
 40
35.12995116663256
100
AcDbArc
 50
43.82541378181431
 51
136.1761686654069
  0
LINE
  5
68E
330
1A
100
AcDbEntity
  8
SEIHIN
  6
CONTINUOUS
 62
     3
100
AcDbLine
 10
377.0260526430315
 20
368.2637379046416
 30
0.0
 11
377.0259526430316
 21
341.2637379046416
 31
0.0
  0
LINE
  5
68F
330
1A
100
AcDbEntity
  8
SEIHIN
  6
CONTINUOUS
 62
     3
100
AcDbLine
 10
415.7263526430315
 20
341.2636379046415
 30
0.0
 11
377.0259526430316
 21
341.2637379046416
 31
0.0
  0
LINE
  5
690
330
1A
100
AcDbEntity
  8
SEIHIN
  6
CONTINUOUS
 62
     3
100
AcDbLine
 10
415.7260526430313
 20
368.2636379046415
 30
0.0
 11
377.0260526430315
 21
368.2637379046416
 31
0.0
  0
LINE
  5
691
330
1A
100
AcDbEntity
  8
SEIHIN
  6
CONTINUOUS
 62
     3
100
AcDbLine
 10
411.2259526430314
 20
363.2636379046416
 30
0.0
 11
415.7259526430314
 21
363.2636379046416
 31
0.0
  0
LINE
  5
692
330
1A
100
AcDbEntity
  8
SEIHIN
  6
CONTINUOUS
 62
     3
100
AcDbLine
 10
414.7259526430314
 20
368.2636379046415
 30
0.0
 11
411.2259526430314
 21
363.2636379046416
 31
0.0
  0
LINE
  5
693
330
1A
100
AcDbEntity
  8
SEIHIN
  6
CONTINUOUS
 62
     3
100
AcDbLine
 10
416.7260526430314
 20
368.2636379046415
 30
0.0
 11
420.2260526430313
 21
363.2636379046416
 31
0.0
  0
LINE
  5
694
330
1A
100
AcDbEntity
  8
SEIHIN
  6
CONTINUOUS
 62
     3
100
AcDbLine
 10
420.2260526430313
 20
363.2636379046416
 30
0.0
 11
415.7260526430313
 21
363.2636379046416
 31
0.0
  0
LINE
  5
695
330
1A
100
AcDbEntity
  8
SEIHIN
  6
CONTINUOUS
 62
     3
100
AcDbLine
 10
575.36000460695
 20
368.0349514115868
 30
0.0
 11
575.36000460695
 21
336.7419514115868
 31
0.0
  0
LINE
  5
696
330
1A
100
AcDbEntity
  8
SEIHIN
  6
CONTINUOUS
 62
     3
100
AcDbLine
 10
454.4259526430314
 20
368.2637379046416
 30
0.0
 11
454.4260526430313
 21
341.2637379046416
 31
0.0
  0
LINE
  5
697
330
1A
100
AcDbEntity
  8
SEIHIN
  6
CONTINUOUS
 62
     3
100
AcDbLine
 10
575.36000460695
 20
368.0350514115868
 30
0.0
 11
573.6600046069502
 21
363.0349514115869
 31
0.0
  0
LINE
  5
698
330
1A
100
AcDbEntity
  8
SEIHIN
  6
CONTINUOUS
 62
     3
100
AcDbLine
 10
573.6600046069502
 20
363.0349514115869
 30
0.0
 11
575.36000460695
 21
363.0349514115869
 31
0.0
  0
LINE
  5
69B
330
1A
100
AcDbEntity
  8
SEIHIN
  6
CONTINUOUS
 62
     3
100
AcDbLine
 10
652.7600046069501
 20
368.0349514115868
 30
0.0
 11
652.7600046069501
 21
331.5643514115868
 31
0.0
  0
LINE
  5
69C
330
1A
100
AcDbEntity
  8
CENTER_L
  6
CENTER
 62
     1
 48
5.0
100
AcDbLine
 10
614.0600046069498
 20
379.1306514115869
 30
0.0
 11
614.0600046069498
 21
313.3565514115868
 31
0.0
  0
LINE
  5
69D
330
1A
100
AcDbEntity
  8
SEIHIN
  6
CONTINUOUS
 62
     3
100
AcDbLine
 10
675.3527578358767
 20
269.3718676380908
 30
0.0
 11
640.2228496916336
 21
266.3719630084335
 31
0.0
  0
LINE
  5
69E
330
1A
100
AcDbEntity
  8
SEIHIN
  6
CONTINUOUS
 62
     3
100
AcDbLine
 10
676.1227496915012
 20
266.3718655477132
 30
0.0
 11
640.2227496916334
 21
266.371963008705
 31
0.0
  0
LINE
  5
69F
330
1A
100
AcDbEntity
  8
SEIHIN
  6
CONTINUOUS
 62
     3
100
AcDbLine
 10
676.1227415471284
 20
263.3718655477241
 30
0.0
 11
640.2227415472611
 21
263.3719630087159
 31
0.0
  0
LINE
  5
6A0
330
1A
100
AcDbEntity
  8
CENTER_L
  6
CENTER
 62
     1
 48
5.0
100
AcDbLine
 10
644.4946046069503
 20
286.6001514115869
 30
0.0
 11
607.6594046069499
 21
323.435451411587
 31
0.0
  0
LINE
  5
6A1
330
1A
100
AcDbEntity
  8
SEIHIN
  6
CONTINUOUS
 62
     3
100
AcDbLine
 10
599.5303821682832
 20
278.3348734800166
 30
0.0
 11
652.8311268686116
 21
331.6355287798383
 31
0.0
  0
LINE
  5
6A2
330
1A
100
AcDbEntity
  8
SEIHIN
  6
CONTINUOUS
 62
     3
100
AcDbLine
 10
677.3527646228463
 20
271.8718622085
 30
0.0
 11
603.0927646231198
 21
271.8720638088692
 31
0.0
  0
LINE
  5
6A3
330
1A
100
AcDbEntity
  8
CENTER_L
  6
CENTER
 62
     1
 48
5.0
100
AcDbLine
 10
644.4946046069503
 20
286.6001514115869
 30
0.0
 11
607.6594046069499
 21
323.4354514115868
 31
0.0
  0
LINE
  5
6A4
330
1A
100
AcDbEntity
  8
SEIHIN
  6
CONTINUOUS
 62
     3
100
AcDbLine
 10
652.7600046069501
 20
331.5643514115868
 30
0.0
 11
599.4592046069501
 21
278.2637514115868
 31
0.0
  0
LINE
  5
6A5
330
1A
100
AcDbEntity
  8
SEIHIN
  6
CONTINUOUS
 62
     3
100
AcDbLine
 10
604.3227496917657
 20
266.3720604696969
 30
0.0
 11
640.2227496916334
 21
266.371963008705
 31
0.0
  0
LINE
  5
6A6
330
1A
100
AcDbEntity
  8
SEIHIN
  6
CONTINUOUS
 62
     3
100
AcDbLine
 10
605.0928578361358
 20
269.3720583790252
 30
0.0
 11
640.2227496916334
 21
266.371963008705
 31
0.0
  0
LINE
  5
6A7
330
1A
100
AcDbEntity
  8
SEIHIN
  6
CONTINUOUS
 62
     3
100
AcDbLine
 10
604.3227415473929
 20
263.3720604697078
 30
0.0
 11
640.2227415472611
 21
263.3719630087159
 31
0.0
  0
LINE
  5
6A8
330
1A
100
AcDbEntity
  8
SEIHIN
  6
CONTINUOUS
 62
     3
100
AcDbLine
 10
603.0927646231198
 20
271.8720638088692
 30
0.0
 11
603.0927720708773
 21
274.6154638088593
 31
0.0
  0
LINE
  5
6A9
330
1A
100
AcDbEntity
  8
SEIHIN
  6
CONTINUOUS
 62
     3
100
AcDbLine
 10
604.3227415473929
 20
263.3720604697078
 30
0.0
 11
604.3227496917657
 21
266.3720604696969
 31
0.0
  0
LINE
  5
6AA
330
1A
100
AcDbEntity
  8
SEIHIN
  6
CONTINUOUS
 62
     3
100
AcDbLine
 10
604.3227496917657
 20
266.3720604696969
 30
0.0
 11
605.0928578361358
 21
269.3720583790252
 31
0.0
  0
LINE
  5
6AB
330
1A
100
AcDbEntity
  8
SEIHIN
  6
CONTINUOUS
 62
     3
100
AcDbLine
 10
605.0927578361356
 20
269.3720583792967
 30
0.0
 11
605.0927646231125
 21
271.8720583792875
 31
0.0
  0
LINE
  5
6AC
330
1A
100
AcDbEntity
  8
SEIHIN
  6
CONTINUOUS
 62
     3
100
AcDbLine
 10
599.4518819551727
 20
278.256373693128
 30
0.0
 11
603.0927720708773
 21
274.6154638088593
 31
0.0
  0
ARC
  5
6AD
330
1A
100
AcDbEntity
  8
SEIHIN
  6
CONTINUOUS
 62
     3
100
AcDbCircle
 10
594.3527669654736
 20
272.7348875361383
 30
0.0
 40
83.00000000006024
100
AcDbArc
 50
359.9999134850011
 51
45.20612580779562
  0
LINE
  5
6AE
330
1A
100
AcDbEntity
  8
SEIHIN
  6
CONTINUOUS
 62
     3
100
AcDbLine
 10
676.1227415471284
 20
263.3718655477241
 30
0.0
 11
676.1227496915012
 21
266.3718655477132
 31
0.0
  0
LINE
  5
6AF
330
1A
100
AcDbEntity
  8
SEIHIN
  6
CONTINUOUS
 62
     3
100
AcDbLine
 10
676.1227496915012
 20
266.3718655477132
 30
0.0
 11
675.3527578358767
 21
269.3718676380908
 31
0.0
  0
LINE
  5
6B0
330
1A
100
AcDbEntity
  8
SEIHIN
  6
CONTINUOUS
 62
     3
100
AcDbLine
 10
675.3527578358767
 20
269.3718676380908
 30
0.0
 11
675.3527646228535
 21
271.8718676380816
 31
0.0
  0
LINE
  5
6B1
330
1A
100
AcDbEntity
  8
SEIHIN
  6
CONTINUOUS
 62
     3
100
AcDbLine
 10
677.3527646228463
 20
271.8718622085
 30
0.0
 11
677.352766965168
 21
272.7346622084969
 31
0.0
  0
LINE
  5
6B2
330
1A
100
AcDbEntity
  8
SEIHIN
  6
CONTINUOUS
 62
     3
100
AcDbLine
 10
652.7600046069501
 20
368.0349514115868
 30
0.0
 11
654.4600046069504
 21
363.0349514115869
 31
0.0
  0
LINE
  5
6B3
330
1A
100
AcDbEntity
  8
SEIHIN
  6
CONTINUOUS
 62
     3
100
AcDbLine
 10
654.4600046069504
 20
363.0349514115869
 30
0.0
 11
652.7600046069501
 21
363.0349514115869
 31
0.0
  0
DIMENSION
  5
837
330
1A
100
AcDbEntity
  8
SUNPOU
100
AcDbDimension
  2
*D30
 10
640.2228342231624
 20
413.8394057376001
 30
0.0
 11
627.1414194150561
 21
418.8394057376001
 31
0.0
 70
    32
  3
STANDARD
100
AcDbAlignedDimension
 13
614.0600046069498
 23
379.1306514115869
 33
0.0
 14
640.2228342231624
 24
297.5093630085903
 34
0.0
100
AcDbRotatedDimension
1001
ACAD
1000
DSTYLE
1002
{
1070
    41
1040
7.0
1070
    42
1040
6.0
1070
    43
1040
14.0
1070
    44
1040
3.0
1070
    73
1070
     0
1070
    74
1070
     0
1070
    77
1070
     3
1070
   140
1040
6.0
1070
   141
1040
150.0
1070
   147
1040
2.0
1070
   172
1070
     1
1070
   173
1070
     1
1070
   176
1070
   256
1070
   177
1070
   256
1070
   178
1070
   256
1070
   271
1070
     0
1070
   272
1070
     0
1070
   341
1005
6D
1070
     6
1000
OPEN
1070
     7
1000
OPEN
1070
   371
1070
    -1
1070
   372
1070
    -1
1002
}
  0
DIMENSION
  5
844
330
1A
100
AcDbEntity
  8
SUNPOU
100
AcDbDimension
  2
*D31
 10
545.1178267257987
 20
271.8720638088692
 30
0.0
 11
540.1178267257986
 21
319.953507610228
 31
0.0
 70
    32
  3
STANDARD
100
AcDbAlignedDimension
 13
575.36000460695
 23
368.0349514115868
 33
0.0
 14
603.0927646231198
 24
271.8720638088692
 34
0.0
 50
90.0
100
AcDbRotatedDimension
1001
ACAD
1000
DSTYLE
1002
{
1070
    41
1040
7.0
1070
    42
1040
6.0
1070
    43
1040
14.0
1070
    44
1040
3.0
1070
    73
1070
     0
1070
    74
1070
     0
1070
    77
1070
     3
1070
   140
1040
6.0
1070
   141
1040
150.0
1070
   147
1040
2.0
1070
   172
1070
     1
1070
   173
1070
     1
1070
   176
1070
   256
1070
   177
1070
   256
1070
   178
1070
   256
1070
   271
1070
     0
1070
   272
1070
     0
1070
   341
1005
6D
1070
     6
1000
OPEN
1070
     7
1000
OPEN
1070
   371
1070
    -1
1070
   372
1070
    -1
1002
}
  0
DIMENSION
  5
851
330
1A
100
AcDbEntity
  8
SUNPOU
100
AcDbDimension
  2
*D32
 10
527.5968252446018
 20
241.8719583793981
 30
0.0
 11
522.5968252446018
 21
304.9534548954925
 31
0.0
 70
    32
  3
STANDARD
100
AcDbAlignedDimension
 13
575.36000460695
 23
368.0349514115868
 33
0.0
 14
605.0926831791152
 24
241.8719583793981
 34
0.0
 50
90.0
100
AcDbRotatedDimension
1001
ACAD
1000
DSTYLE
1002
{
1070
    41
1040
7.0
1070
    42
1040
6.0
1070
    43
1040
14.0
1070
    44
1040
3.0
1070
    73
1070
     0
1070
    74
1070
     0
1070
    77
1070
     3
1070
   140
1040
6.0
1070
   141
1040
150.0
1070
   147
1040
2.0
1070
   172
1070
     1
1070
   173
1070
     1
1070
   176
1070
   256
1070
   177
1070
   256
1070
   178
1070
   256
1070
   271
1070
     0
1070
   272
1070
     0
1070
   341
1005
6D
1070
     6
1000
OPEN
1070
     7
1000
OPEN
1070
   371
1070
    -1
1070
   372
1070
    -1
1002
}
  0
DIMENSION
  5
964
330
1A
100
AcDbEntity
  8
SUNPOU
100
AcDbDimension
  2
*D40
 10
306.1778710205548
 20
343.2636379046415
 30
0.0
 11
301.1778710205548
 21
355.7636379046416
 31
0.0
 70
    32
  1
\U+203B<>
  3
STANDARD
100
AcDbAlignedDimension
 13
274.780740326281
 23
368.2636379046415
 33
0.0
 14
274.780740326281
 24
343.2636379046415
 34
0.0
 50
90.0
100
AcDbRotatedDimension
1001
ACAD
1000
DSTYLE
1002
{
1070
    41
1040
7.0
1070
    42
1040
6.0
1070
    43
1040
14.0
1070
    44
1040
3.0
1070
    73
1070
     0
1070
    74
1070
     0
1070
    77
1070
     3
1070
   140
1040
6.0
1070
   141
1040
150.0
1070
   147
1040
2.0
1070
   172
1070
     1
1070
   173
1070
     1
1070
   176
1070
   256
1070
   177
1070
   256
1070
   178
1070
   256
1070
   271
1070
     0
1070
   272
1070
     0
1070
   341
1005
6D
1070
     6
1000
OPEN
1070
     7
1000
OPEN
1070
   371
1070
    -1
1070
   372
1070
    -1
1002
}
  0
DIMENSION
  5
971
330
1A
100
AcDbEntity
  8
SUNPOU
100
AcDbDimension
  2
*D41
 10
329.7787774801727
 20
341.2636379046415
 30
0.0
 11
324.7787774801726
 21
354.7636379046416
 31
0.0
 70
    32
  3
STANDARD
100
AcDbAlignedDimension
 13
274.780740326281
 23
368.2636379046415
 33
0.0
 14
274.780740326281
 24
341.2636379046415
 34
0.0
 50
90.0
100
AcDbRotatedDimension
1001
ACAD
1000
DSTYLE
1002
{
1070
    41
1040
7.0
1070
    42
1040
6.0
1070
    43
1040
14.0
1070
    44
1040
3.0
1070
    73
1070
     0
1070
    74
1070
     0
1070
    77
1070
     3
1070
   140
1040
6.0
1070
   141
1040
150.0
1070
   147
1040
2.0
1070
   172
1070
     1
1070
   173
1070
     1
1070
   176
1070
   256
1070
   177
1070
   256
1070
   178
1070
   256
1070
   271
1070
     0
1070
   272
1070
     0
1070
   341
1005
6D
1070
     6
1000
OPEN
1070
     7
1000
OPEN
1070
   371
1070
    -1
1070
   372
1070
    -1
1002
}
  0
DIMENSION
  5
97E
330
1A
100
AcDbEntity
  8
SUNPOU
100
AcDbDimension
  2
*D42
 10
197.380740326281
 20
411.9199407920859
 30
0.0
 11
236.080740326281
 21
416.9199407920859
 31
0.0
 70
    32
  1
φ<>
  3
STANDARD
100
AcDbAlignedDimension
 13
274.780740326281
 23
368.2636379046415
 33
0.0
 14
197.380740326281
 24
368.2636379046415
 34
0.0
100
AcDbRotatedDimension
1001
ACAD
1000
DSTYLE
1002
{
1070
    41
1040
7.0
1070
    42
1040
6.0
1070
    43
1040
14.0
1070
    44
1040
3.0
1070
    73
1070
     0
1070
    74
1070
     0
1070
    77
1070
     3
1070
   140
1040
6.0
1070
   141
1040
150.0
1070
   147
1040
2.0
1070
   172
1070
     1
1070
   173
1070
     1
1070
   176
1070
   256
1070
   177
1070
   256
1070
   178
1070
   256
1070
   271
1070
     0
1070
   272
1070
     0
1070
   341
1005
6D
1070
     6
1000
OPEN
1070
     7
1000
OPEN
1070
   371
1070
    -1
1070
   372
1070
    -1
1002
}
  0
DIMENSION
  5
98B
330
1A
100
AcDbEntity
  8
SUNPOU
100
AcDbDimension
  2
*D43
 10
149.1805415308299
 20
291.1006379046415
 30
0.0
 11
144.1805415308299
 21
329.6821879046416
 31
0.0
 70
    32
  3
STANDARD
100
AcDbAlignedDimension
 13
197.380740326281
 23
368.2637379046416
 33
0.0
 14
255.606140326281
 24
291.1006379046415
 34
0.0
 50
90.0
100
AcDbRotatedDimension
1001
ACAD
1000
DSTYLE
1002
{
1070
    41
1040
7.0
1070
    42
1040
6.0
1070
    43
1040
14.0
1070
    44
1040
3.0
1070
    73
1070
     0
1070
    74
1070
     0
1070
    77
1070
     3
1070
   140
1040
6.0
1070
   141
1040
150.0
1070
   147
1040
2.0
1070
   172
1070
     1
1070
   173
1070
     1
1070
   176
1070
   256
1070
   177
1070
   256
1070
   178
1070
   256
1070
   271
1070
     0
1070
   272
1070
     0
1070
   341
1005
6D
1070
     6
1000
OPEN
1070
     7
1000
OPEN
1070
   371
1070
    -1
1070
   372
1070
    -1
1002
}
  0
DIMENSION
  5
998
330
1A
100
AcDbEntity
  8
SUNPOU
100
AcDbDimension
  2
*D44
 10
281.2435403262811
 20
218.1763817199064
 30
0.0
 11
258.6621403262811
 21
223.1763817199064
 31
0.0
 70
    32
  3
STANDARD
100
AcDbAlignedDimension
 13
236.0807403262811
 23
313.5852379046415
 33
0.0
 14
281.2435403262811
 24
253.9706379046416
 34
0.0
100
AcDbRotatedDimension
1001
ACAD
1000
DSTYLE
1002
{
1070
    41
1040
7.0
1070
    42
1040
6.0
1070
    43
1040
14.0
1070
    44
1040
3.0
1070
    73
1070
     0
1070
    74
1070
     0
1070
    77
1070
     3
1070
   140
1040
6.0
1070
   141
1040
150.0
1070
   147
1040
2.0
1070
   172
1070
     1
1070
   173
1070
     1
1070
   176
1070
   256
1070
   177
1070
   256
1070
   178
1070
   256
1070
   271
1070
     0
1070
   272
1070
     0
1070
   341
1005
6D
1070
     6
1000
OPEN
1070
     7
1000
OPEN
1070
   371
1070
    -1
1070
   372
1070
    -1
1002
}
  0
DIMENSION
  5
9A5
330
1A
100
AcDbEntity
  8
SUNPOU
100
AcDbDimension
  2
*D45
 10
311.2435403262811
 20
196.6493194484314
 30
0.0
 11
273.6621403262811
 21
201.6493194484314
 31
0.0
 70
    32
  3
STANDARD
100
AcDbAlignedDimension
 13
236.0807403262811
 23
313.5852379046415
 33
0.0
 14
311.2435403262811
 24
255.9706379046416
 34
0.0
100
AcDbRotatedDimension
1001
ACAD
1000
DSTYLE
1002
{
1070
    41
1040
7.0
1070
    42
1040
6.0
1070
    43
1040
14.0
1070
    44
1040
3.0
1070
    73
1070
     0
1070
    74
1070
     0
1070
    77
1070
     3
1070
   140
1040
6.0
1070
   141
1040
150.0
1070
   147
1040
2.0
1070
   172
1070
     1
1070
   173
1070
     1
1070
   176
1070
   256
1070
   177
1070
   256
1070
   178
1070
   256
1070
   271
1070
     0
1070
   272
1070
     0
1070
   341
1005
6D
1070
     6
1000
OPEN
1070
     7
1000
OPEN
1070
   371
1070
    -1
1070
   372
1070
    -1
1002
}
  0
VIEWPORT
  5
22
330
17
100
AcDbEntity
 67
     1
  8
0
100
AcDbViewport
 10
313.6808219178082
 20
148.5
 30
0.0
 40
627.3616438356165
 41
297.0
 68
     2
 69
     1
1001
ACAD
1000
MVIEW
1002
{
1070
    16
1010
0.0
1020
0.0
1030
0.0
1010
0.0
1020
0.0
1030
1.0
1040
0.0
1040
297.0
1040
313.6808219178082
1040
148.5
1040
50.0
1040
0.0
1040
0.0
1070
     0
1070
   100
1070
     1
1070
     0
1070
     0
1070
     0
1070
     0
1070
     0
1040
0.0
1040
0.0
1040
0.0
1040
1.0
1040
1.0
1040
10.0
1040
10.0
1070
     0
1002
{
1002
}
1002
}
  0
VIEWPORT
  5
64
330
17
100
AcDbEntity
 67
     1
  8
VIEWPORT
100
AcDbViewport
 10
210.0
 20
148.5
 30
0.0
 40
420.0
 41
297.0
 68
     1
 69
     2
1001
ACAD
1000
MVIEW
1002
{
1070
    16
1010
0.0
1020
0.0
1030
0.0
1010
0.0
1020
0.0
1030
1.0
1040
0.0
1040
605.8799999999998
1040
420.0
1040
297.0
1040
50.0
1040
0.0
1040
0.0
1070
     0
1070
   100
1070
     1
1070
     0
1070
     0
1070
     0
1070
     0
1070
     0
1040
0.0
1040
0.0
1040
0.0
1040
10.0
1040
10.0
1040
0.0
1040
0.0
1070
     0
1002
{
1002
}
1002
}
  0
ENDSEC
  0
SECTION
  2
OBJECTS
  0
DICTIONARY
  5
C
330
0
100
AcDbDictionary
  3
ACAD_GROUP
350
D
  3
ACAD_LAYOUT
350
485
  3
ACAD_MLINESTYLE
350
E
  3
ACAD_PLOTSETTINGS
350
486
1001
ACAD
1000
TREAT_AS_HARD
1070
     0
  0
DICTIONARY
  5
4E6
330
1A
100
AcDbDictionary
  3
ACAD_LAYOUTSELFREF
350
A62
1001
ACAD
1000
TREAT_AS_HARD
1070
     1
  0
DICTIONARY
  5
4E4
330
17
100
AcDbDictionary
  3
ACAD_LAYOUTSELFREF
350
A61
1001
ACAD
1000
TREAT_AS_HARD
1070
     1
  0
DICTIONARY
  5
D
102
{ACAD_REACTORS
330
C
102
}
330
C
100
AcDbDictionary
1001
ACAD
1000
TREAT_AS_HARD
1070
     0
  0
DICTIONARY
  5
485
102
{ACAD_REACTORS
330
C
102
}
330
C
100
AcDbDictionary
1001
ACAD
1000
TREAT_AS_HARD
1070
     0
  0
DICTIONARY
  5
E
102
{ACAD_REACTORS
330
C
102
}
330
C
100
AcDbDictionary
  3
STANDARD
350
13
1001
ACAD
1000
TREAT_AS_HARD
1070
     0
  0
DICTIONARY
  5
486
102
{ACAD_REACTORS
330
C
102
}
330
C
100
AcDbDictionary
1001
ACAD
1000
TREAT_AS_HARD
1070
     0
  0
XRECORD
  5
A62
102
{ACAD_REACTORS
330
4E6
102
}
330
4E6
100
AcDbXrecord
340
1A
  0
XRECORD
  5
A61
102
{ACAD_REACTORS
330
4E4
102
}
330
4E4
100
AcDbXrecord
340
17
  0
MLINESTYLE
  5
13
102
{ACAD_REACTORS
330
E
102
}
330
E
100
AcDbMlineStyle
  2
STANDARD
 70
     0
  3

 62
     0
 51
90.0
 52
90.0
 71
     2
 49
0.5
 62
   256
  6
BYLAYER
 49
-0.5
 62
   256
  6
BYLAYER
  0
ENDSEC
  0
EOF
