  0
SECTION
  2
HEADER
  9
$ACADVER
  1
AC1012
  9
$DWGCODEPAGE
  3
dos932
  9
$INSBASE
 10
0.0
 20
0.0
 30
0.0
  9
$EXTMIN
 10
10.05047808566086
 20
4.949376903717846
 30
0.0
  9
$EXTMAX
 10
806.2246110975902
 20
563.7825862828226
 30
0.0
  9
$LIMMIN
 10
0.0
 20
0.0
  9
$LIMMAX
 10
840.0
 20
594.0
  9
$ORTHOMODE
 70
     0
  9
$REGENMODE
 70
     1
  9
$FILLMODE
 70
     1
  9
$QTEXTMODE
 70
     0
  9
$MIRRTEXT
 70
     1
  9
$DRAGMODE
 70
     2
  9
$LTSCALE
 40
2.0
  9
$OSMODE
 70
    37
  9
$ATTMODE
 70
     1
  9
$TEXTSIZE
 40
5.0
  9
$TRACEWID
 40
1.0
  9
$TEXTSTYLE
  7
STANDARD
  9
$CLAYER
  8
ZUWAKU
  9
$CELTYPE
  6
BYLAYER
  9
$CECOLOR
 62
   256
  9
$CELTSCALE
 40
1.0
  9
$DELOBJ
 70
     1
  9
$DISPSILH
 70
     0
  9
$DIMSCALE
 40
1.0
  9
$DIMASZ
 40
7.0
  9
$DIMEXO
 40
6.0
  9
$DIMDLI
 40
14.0
  9
$DIMRND
 40
0.0
  9
$DIMDLE
 40
0.0
  9
$DIMEXE
 40
3.0
  9
$DIMTP
 40
0.0
  9
$DIMTM
 40
0.0
  9
$DIMTXT
 40
6.0
  9
$DIMCEN
 40
150.0
  9
$DIMTSZ
 40
0.0
  9
$DIMTOL
 70
     0
  9
$DIMLIM
 70
     0
  9
$DIMTIH
 70
     0
  9
$DIMTOH
 70
     0
  9
$DIMSE1
 70
     0
  9
$DIMSE2
 70
     0
  9
$DIMTAD
 70
     3
  9
$DIMZIN
 70
     0
  9
$DIMBLK
  1

  9
$DIMASO
 70
     1
  9
$DIMSHO
 70
     1
  9
$DIMPOST
  1

  9
$DIMAPOST
  1

  9
$DIMALT
 70
     0
  9
$DIMALTD
 70
     2
  9
$DIMALTF
 40
25.4
  9
$DIMLFAC
 40
1.0
  9
$DIMTOFL
 70
     1
  9
$DIMTVP
 40
0.0
  9
$DIMTIX
 70
     0
  9
$DIMSOXD
 70
     0
  9
$DIMSAH
 70
     1
  9
$DIMBLK1
  1
OPEN
  9
$DIMBLK2
  1
OPEN
  9
$DIMSTYLE
  2
STANDARD
  9
$DIMCLRD
 70
   256
  9
$DIMCLRE
 70
   256
  9
$DIMCLRT
 70
   256
  9
$DIMTFAC
 40
1.0
  9
$DIMGAP
 40
2.0
  9
$DIMJUST
 70
     0
  9
$DIMSD1
 70
     0
  9
$DIMSD2
 70
     0
  9
$DIMTOLJ
 70
     1
  9
$DIMTZIN
 70
     0
  9
$DIMALTZ
 70
     0
  9
$DIMALTTZ
 70
     0
  9
$DIMFIT
 70
     3
  9
$DIMUPT
 70
     0
  9
$DIMUNIT
 70
     2
  9
$DIMDEC
 70
     0
  9
$DIMTDEC
 70
     0
  9
$DIMALTU
 70
     2
  9
$DIMALTTD
 70
     2
  9
$DIMTXSTY
  7
STANDARD
  9
$DIMAUNIT
 70
     0
  9
$LUNITS
 70
     2
  9
$LUPREC
 70
     4
  9
$SKETCHINC
 40
1.0
  9
$FILLETRAD
 40
20.0
  9
$AUNITS
 70
     0
  9
$AUPREC
 70
     0
  9
$MENU
  1
.
  9
$ELEVATION
 40
0.0
  9
$PELEVATION
 40
0.0
  9
$THICKNESS
 40
0.0
  9
$LIMCHECK
 70
     0
  9
$BLIPMODE
 70
     0
  9
$CHAMFERA
 40
20.0
  9
$CHAMFERB
 40
20.0
  9
$CHAMFERC
 40
40.0
  9
$CHAMFERD
 40
0.0
  9
$SKPOLY
 70
     0
  9
$TDCREATE
 40
2451074.898570254
  9
$TDUPDATE
 40
2452395.840477037
  9
$TDINDWG
 40
0.0164310532
  9
$TDUSRTIMER
 40
0.0164310532
  9
$USRTIMER
 70
     1
  9
$ANGBASE
 50
0.0
  9
$ANGDIR
 70
     0
  9
$PDMODE
 70
     0
  9
$PDSIZE
 40
0.0
  9
$PLINEWID
 40
0.0
  9
$COORDS
 70
     1
  9
$SPLFRAME
 70
     0
  9
$SPLINETYPE
 70
     6
  9
$SPLINESEGS
 70
     8
  9
$ATTDIA
 70
     0
  9
$ATTREQ
 70
     1
  9
$HANDLING
 70
 10241
  9
$HANDSEED
  5
9C9
  9
$SURFTAB1
 70
     6
  9
$SURFTAB2
 70
     6
  9
$SURFTYPE
 70
     6
  9
$SURFU
 70
     6
  9
$SURFV
 70
     6
  9
$UCSNAME
  2

  9
$UCSORG
 10
0.0
 20
0.0
 30
0.0
  9
$UCSXDIR
 10
1.0
 20
0.0
 30
0.0
  9
$UCSYDIR
 10
0.0
 20
1.0
 30
0.0
  9
$PUCSNAME
  2

  9
$PUCSORG
 10
0.0
 20
0.0
 30
0.0
  9
$PUCSXDIR
 10
1.0
 20
0.0
 30
0.0
  9
$PUCSYDIR
 10
0.0
 20
1.0
 30
0.0
  9
$USERI1
 70
     0
  9
$USERI2
 70
     0
  9
$USERI3
 70
     0
  9
$USERI4
 70
     0
  9
$USERI5
 70
     0
  9
$USERR1
 40
0.0
  9
$USERR2
 40
0.0
  9
$USERR3
 40
0.0
  9
$USERR4
 40
0.0
  9
$USERR5
 40
0.0
  9
$WORLDVIEW
 70
     1
  9
$SHADEDGE
 70
     3
  9
$SHADEDIF
 70
    70
  9
$TILEMODE
 70
     1
  9
$MAXACTVP
 70
    16
  9
$PINSBASE
 10
0.0
 20
0.0
 30
0.0
  9
$PLIMCHECK
 70
     0
  9
$PEXTMIN
 10
0.0
 20
0.0
 30
0.0
  9
$PEXTMAX
 10
420.0
 20
297.0
 30
0.0
  9
$PLIMMIN
 10
0.0
 20
0.0
  9
$PLIMMAX
 10
420.0
 20
297.0
  9
$UNITMODE
 70
     0
  9
$VISRETAIN
 70
     0
  9
$PLINEGEN
 70
     0
  9
$PSLTSCALE
 70
     1
  9
$TREEDEPTH
 70
  3020
  9
$PICKSTYLE
 70
     1
  9
$CMLSTYLE
  2
STANDARD
  9
$CMLJUST
 70
     0
  9
$CMLSCALE
 40
1.0
  9
$SAVEIMAGES
 70
     1
  0
ENDSEC
  0
SECTION
  2
CLASSES
  0
CLASS
  1
ACDBDICTIONARYWDFLT
  2
AcDbDictionaryWithDefault
  3
AutoCAD 2000
 90
    32768
280
     0
281
     0
  0
CLASS
  1
ACDBPLACEHOLDER
  2
AcDbPlaceHolder
  3
AutoCAD 2000
 90
    32768
280
     0
281
     0
  0
CLASS
  1
LAYOUT
  2
AcDbLayout
  3
AutoCAD 2000
 90
    32768
280
     0
281
     0
  0
CLASS
  1
LONG_TRANSACTION
  2
AcDbLongTransaction
  3
AutoCAD 2000
 90
    32768
280
     0
281
     0
  0
CLASS
  1
LWPOLYLINE
  2
AcDbPolyline
  3
AutoCAD 2000
 90
    32768
280
     0
281
     1
  0
CLASS
  1
HATCH
  2
AcDbHatch
  3
AutoCAD 2000
 90
    32768
280
     0
281
     1
  0
CLASS
  1
XRECORD
  2
AcDbXrecord
  3
AutoCAD 2000
 90
    32768
280
     0
281
     0
  0
CLASS
  1
LONG_TRANSACTION
  2
AcDbLongTransaction
  3
AutoCAD 2000
 90
    32768
280
     0
281
     0
  0
CLASS
  1
LWPOLYLINE
  2
AcDbPolyline
  3
AutoCAD 2000
 90
    32768
280
     0
281
     1
  0
CLASS
  1
HATCH
  2
AcDbHatch
  3
AutoCAD 2000
 90
    32768
280
     0
281
     1
  0
CLASS
  1
XRECORD
  2
AcDbXrecord
  3
AutoCAD 2000
 90
    32768
280
     0
281
     0
  0
CLASS
  1
LONG_TRANSACTION
  2
AcDbLongTransaction
  3
AutoCAD 2000
 90
    32768
280
     0
281
     0
  0
CLASS
  1
LWPOLYLINE
  2
AcDbPolyline
  3
AutoCAD 2000
 90
    32768
280
     0
281
     1
  0
CLASS
  1
HATCH
  2
AcDbHatch
  3
AutoCAD 2000
 90
    32768
280
     0
281
     1
  0
CLASS
  1
XRECORD
  2
AcDbXrecord
  3
AutoCAD 2000
 90
    32768
280
     0
281
     0
  0
ENDSEC
  0
SECTION
  2
TABLES
  0
TABLE
  2
VPORT
  5
8
330
0
100
AcDbSymbolTable
 70
     2
  0
VPORT
  5
9C6
330
8
100
AcDbSymbolTableRecord
100
AcDbViewportTableRecord
  2
*ACTIVE
 70
     0
 10
0.0
 20
0.0
 11
1.0
 21
1.0
 12
545.2590102239132
 22
290.3841675270229
 13
0.0
 23
0.0
 14
5.0
 24
5.0
 15
0.0
 25
0.0
 16
0.0
 26
0.0
 36
1.0
 17
0.0
 27
0.0
 37
0.0
 40
598.4335399417703
 41
2.169459962756052
 42
50.0
 43
0.0
 44
0.0
 50
0.0
 51
0.0
 71
     0
 72
   100
 73
     1
 74
     0
 75
     0
 76
     0
 77
     0
 78
     0
  0
ENDTAB
  0
TABLE
  2
LTYPE
  5
5
330
0
100
AcDbSymbolTable
 70
     2
  0
LTYPE
  5
14
330
5
100
AcDbSymbolTableRecord
100
AcDbLinetypeTableRecord
  2
BYBLOCK
 70
     0
  3

 72
    65
 73
     0
 40
0.0
  0
LTYPE
  5
15
330
5
100
AcDbSymbolTableRecord
100
AcDbLinetypeTableRecord
  2
BYLAYER
 70
     0
  3

 72
    65
 73
     0
 40
0.0
  0
LTYPE
  5
16
330
5
100
AcDbSymbolTableRecord
100
AcDbLinetypeTableRecord
  2
CONTINUOUS
 70
     0
  3
Solid line
 72
    65
 73
     0
 40
0.0
  0
LTYPE
  5
135
330
5
100
AcDbSymbolTableRecord
100
AcDbLinetypeTableRecord
  2
CENTER
 70
     0
  3
____ _ ____ _ ____ _ ____ _ ____ _ ____ _ ____ 
 72
    65
 73
     4
 40
2.0
 49
1.25
 74
     0
 49
-0.25
 74
     0
 49
0.25
 74
     0
 49
-0.25
 74
     0
  0
ENDTAB
  0
TABLE
  2
LAYER
  5
2
330
0
100
AcDbSymbolTable
 70
     7
  0
LAYER
  5
F
330
2
100
AcDbSymbolTableRecord
100
AcDbLayerTableRecord
  2
0
 70
     0
 62
     7
  6
CONTINUOUS
  0
LAYER
  5
62
330
2
100
AcDbSymbolTableRecord
100
AcDbLayerTableRecord
  2
VIEWPORT
 70
     0
 62
     7
  6
CONTINUOUS
  0
LAYER
  5
65
330
2
100
AcDbSymbolTableRecord
100
AcDbLayerTableRecord
  2
ZUWAKU
 70
     0
 62
     7
  6
CONTINUOUS
  0
LAYER
  5
147
330
2
100
AcDbSymbolTableRecord
100
AcDbLayerTableRecord
  2
SEIHIN
 70
     0
 62
     3
  6
CONTINUOUS
  0
LAYER
  5
148
330
2
100
AcDbSymbolTableRecord
100
AcDbLayerTableRecord
  2
SUNPOU
 70
     0
 62
     4
  6
CONTINUOUS
  0
LAYER
  5
149
330
2
100
AcDbSymbolTableRecord
100
AcDbLayerTableRecord
  2
CENTER_L
 70
     0
 62
     1
  6
CENTER
  0
LAYER
  5
7C0
330
2
100
AcDbSymbolTableRecord
100
AcDbLayerTableRecord
  2
DEFPOINTS
 70
     0
 62
     7
  6
CONTINUOUS
  0
ENDTAB
  0
TABLE
  2
STYLE
  5
3
330
0
100
AcDbSymbolTable
 70
     1
  0
STYLE
  5
10
330
3
100
AcDbSymbolTableRecord
100
AcDbTextStyleTableRecord
  2
STANDARD
 70
     0
 40
0.0
 41
1.0
 50
0.0
 71
     0
 42
5.0
  3
TXT
  4
bigfont.shx
  0
ENDTAB
  0
TABLE
  2
VIEW
  5
6
330
0
100
AcDbSymbolTable
 70
     0
  0
ENDTAB
  0
TABLE
  2
UCS
  5
7
330
0
100
AcDbSymbolTable
 70
     0
  0
ENDTAB
  0
TABLE
  2
APPID
  5
9
330
0
100
AcDbSymbolTable
 70
     1
  0
APPID
  5
11
330
9
100
AcDbSymbolTableRecord
100
AcDbRegAppTableRecord
  2
ACAD
 70
     0
  0
ENDTAB
  0
TABLE
  2
DIMSTYLE
  5
A
330
0
100
AcDbSymbolTable
 70
     1
  0
DIMSTYLE
105
1D
102
{ACAD_REACTORS
330
7C5
330
7D2
330
7DF
330
7EC
330
7F9
330
806
330
813
330
820
330
92A
102
}
330
A
100
AcDbSymbolTableRecord
100
AcDbDimStyleTableRecord
  2
STANDARD
 70
     0
  3

  4

  5

  6

  7

 40
1.0
 41
0.18
 42
0.0625
 43
0.38
 44
0.18
 45
0.0
 46
0.0
 47
0.0
 48
0.0
140
0.18
141
0.09
142
0.0
143
25.4
144
1.0
145
0.0
146
1.0
147
0.09
 71
     0
 72
     0
 73
     1
 74
     1
 75
     0
 76
     0
 77
     0
 78
     0
170
     0
171
     2
172
     0
173
     0
174
     0
175
     0
176
     0
177
     0
178
     0
270
     2
271
     4
272
     4
273
     2
274
     2
340
10
275
     0
280
     0
281
     0
282
     0
283
     1
284
     0
285
     0
286
     0
287
     3
288
     0
  0
ENDTAB
  0
TABLE
  2
BLOCK_RECORD
  5
1
330
0
100
AcDbSymbolTable
 70
    10
  0
BLOCK_RECORD
  5
1A
102
{ACAD_XDICTIONARY
360
984
102
}
330
1
100
AcDbSymbolTableRecord
100
AcDbBlockTableRecord
  2
*MODEL_SPACE
  0
BLOCK_RECORD
  5
17
102
{ACAD_XDICTIONARY
360
982
102
}
330
1
100
AcDbSymbolTableRecord
100
AcDbBlockTableRecord
  2
*PAPER_SPACE
  0
BLOCK_RECORD
  5
6D
330
1
100
AcDbSymbolTableRecord
100
AcDbBlockTableRecord
  2
_OPEN
  0
BLOCK_RECORD
  5
7B8
330
1
100
AcDbSymbolTableRecord
100
AcDbBlockTableRecord
  2
*D1
  0
BLOCK_RECORD
  5
7C6
330
1
100
AcDbSymbolTableRecord
100
AcDbBlockTableRecord
  2
*D2
  0
BLOCK_RECORD
  5
7D3
330
1
100
AcDbSymbolTableRecord
100
AcDbBlockTableRecord
  2
*D3
  0
BLOCK_RECORD
  5
7E0
330
1
100
AcDbSymbolTableRecord
100
AcDbBlockTableRecord
  2
*D4
  0
BLOCK_RECORD
  5
7ED
330
1
100
AcDbSymbolTableRecord
100
AcDbBlockTableRecord
  2
*D5
  0
BLOCK_RECORD
  5
7FA
330
1
100
AcDbSymbolTableRecord
100
AcDbBlockTableRecord
  2
*D6
  0
BLOCK_RECORD
  5
807
330
1
100
AcDbSymbolTableRecord
100
AcDbBlockTableRecord
  2
*D7
  0
BLOCK_RECORD
  5
814
330
1
100
AcDbSymbolTableRecord
100
AcDbBlockTableRecord
  2
*D8
  0
BLOCK_RECORD
  5
91E
330
1
100
AcDbSymbolTableRecord
100
AcDbBlockTableRecord
  2
*D9
  0
ENDTAB
  0
ENDSEC
  0
SECTION
  2
BLOCKS
  0
BLOCK
  5
1B
330
1A
100
AcDbEntity
  8
0
100
AcDbBlockBegin
  2
*MODEL_SPACE
 70
     0
 10
0.0
 20
0.0
 30
0.0
  3
*MODEL_SPACE
  1

  0
ENDBLK
  5
1C
330
1A
100
AcDbEntity
  8
0
100
AcDbBlockEnd
  0
BLOCK
  5
18
330
17
100
AcDbEntity
 67
     1
  8
0
100
AcDbBlockBegin
  2
*PAPER_SPACE
 70
     0
 10
0.0
 20
0.0
 30
0.0
  3
*PAPER_SPACE
  1

  0
ENDBLK
  5
19
330
17
100
AcDbEntity
 67
     1
  8
0
100
AcDbBlockEnd
  0
BLOCK
  5
6E
330
6D
100
AcDbEntity
  8
0
100
AcDbBlockBegin
  2
_OPEN
 70
     0
 10
0.0
 20
0.0
 30
0.0
  3
_OPEN
  1

  0
LINE
  5
6F
330
6D
100
AcDbEntity
  8
0
  6
BYBLOCK
 62
     0
100
AcDbLine
 10
-1.0
 20
0.1666666666666666
 30
0.0
 11
0.0
 21
0.0
 31
0.0
  0
LINE
  5
70
330
6D
100
AcDbEntity
  8
0
  6
BYBLOCK
 62
     0
100
AcDbLine
 10
0.0
 20
0.0
 30
0.0
 11
-1.0
 21
-0.1666666666666666
 31
0.0
  0
LINE
  5
71
330
6D
100
AcDbEntity
  8
0
  6
BYBLOCK
 62
     0
100
AcDbLine
 10
0.0
 20
0.0
 30
0.0
 11
-1.0
 21
0.0
 31
0.0
  0
ENDBLK
  5
72
330
6D
100
AcDbEntity
  8
0
100
AcDbBlockEnd
  0
BLOCK
  5
7B9
330
7B8
100
AcDbEntity
  8
0
100
AcDbBlockBegin
  2
*D1
 70
     1
 10
0.0
 20
0.0
 30
0.0
  3
*D1
  1

  0
LINE
  5
7BA
330
7B8
100
AcDbEntity
  8
0
  6
BYBLOCK
 62
     4
100
AcDbLine
 10
361.3428154183509
 20
405.6713727594356
 30
0.0
 11
405.8900448965696
 21
405.6713727594356
 31
0.0
  0
LINE
  5
7BB
330
7B8
100
AcDbEntity
  8
0
  6
BYBLOCK
 62
     4
100
AcDbLine
 10
324.3426154183508
 20
261.6711727594357
 30
0.0
 11
405.8900448965696
 21
261.6711727594357
 31
0.0
  0
LINE
  5
7BC
330
7B8
100
AcDbEntity
  8
0
  6
BYBLOCK
 62
     4
100
AcDbLine
 10
402.8900448965696
 20
398.6713727594356
 30
0.0
 11
402.8900448965696
 21
268.6711727594357
 31
0.0
  0
INSERT
  5
7BD
330
7B8
100
AcDbEntity
  8
0
  6
BYBLOCK
 62
     4
100
AcDbBlockReference
  2
_OPEN
 10
402.8900448965696
 20
405.6713727594356
 30
0.0
 41
7.0
 42
7.0
 43
7.0
 50
90.0
  0
INSERT
  5
7BE
330
7B8
100
AcDbEntity
  8
0
  6
BYBLOCK
 62
     4
100
AcDbBlockReference
  2
_OPEN
 10
402.8900448965696
 20
261.6711727594357
 30
0.0
 41
7.0
 42
7.0
 43
7.0
 50
270.0
  0
MTEXT
  5
7BF
330
7B8
100
AcDbEntity
  8
0
  6
BYBLOCK
 62
     4
100
AcDbMText
 10
397.8900448965696
 20
333.6712727594357
 30
0.0
 40
6.0
 41
0.0
 71
     5
 72
     1
  1
\A1;144
 11
0.0
 21
1.0
 31
0.0
1001
ACAD
1000
MTEXTBEGIN
1070
    73
1070
     1
1070
    44
1040
1.0
1070
    74
1070
     0
1000
MTEXTEND
1000
MTEXTBEGIN
1070
    73
1070
     1
1070
    44
1040
1.0
1070
    74
1070
     0
1000
MTEXTEND
1000
MTEXTBEGIN
1070
    73
1070
     1
1070
    44
1040
1.0
1070
    74
1070
     0
1000
MTEXTEND
  0
POINT
  5
7C1
330
7B8
100
AcDbEntity
  8
DEFPOINTS
  6
BYBLOCK
 62
     0
100
AcDbPoint
 10
355.342815418351
 20
405.6713727594356
 30
0.0
  0
POINT
  5
7C2
330
7B8
100
AcDbEntity
  8
DEFPOINTS
  6
BYBLOCK
 62
     0
100
AcDbPoint
 10
318.3426154183508
 20
261.6711727594357
 30
0.0
  0
POINT
  5
7C3
330
7B8
100
AcDbEntity
  8
DEFPOINTS
  6
BYBLOCK
 62
     0
100
AcDbPoint
 10
402.8900448965696
 20
261.6711727594357
 30
0.0
  0
ENDBLK
  5
7C4
330
7B8
100
AcDbEntity
  8
0
100
AcDbBlockEnd
  0
BLOCK
  5
891
330
7C6
100
AcDbEntity
  8
0
100
AcDbBlockBegin
  2
*D2
 70
     1
 10
0.0
 20
0.0
 30
0.0
  3
*D2
  1

  0
LINE
  5
892
330
7C6
100
AcDbEntity
  8
0
  6
BYBLOCK
 62
     4
100
AcDbLine
 10
324.3426154183508
 20
261.6711727594357
 30
0.0
 11
405.3067115632362
 21
261.6711727594357
 31
0.0
  0
LINE
  5
893
330
7C6
100
AcDbEntity
  8
0
  6
BYBLOCK
 62
     4
100
AcDbLine
 10
315.342515418351
 20
231.6712727594357
 30
0.0
 11
405.3067115632362
 21
231.6712727594357
 31
0.0
  0
LINE
  5
894
330
7C6
100
AcDbEntity
  8
0
  6
BYBLOCK
 62
     4
100
AcDbLine
 10
402.3067115632362
 20
268.6711727594357
 30
0.0
 11
402.3067115632362
 21
275.6711727594357
 31
0.0
  0
LINE
  5
895
330
7C6
100
AcDbEntity
  8
0
  6
BYBLOCK
 62
     4
100
AcDbLine
 10
402.3067115632362
 20
224.6712727594357
 30
0.0
 11
402.3067115632362
 21
217.6712727594356
 31
0.0
  0
LINE
  5
896
330
7C6
100
AcDbEntity
  8
0
  6
BYBLOCK
 62
     4
100
AcDbLine
 10
402.3067115632362
 20
261.6711727594357
 30
0.0
 11
402.3067115632362
 21
231.6712727594357
 31
0.0
  0
INSERT
  5
897
330
7C6
100
AcDbEntity
  8
0
  6
BYBLOCK
 62
     4
100
AcDbBlockReference
  2
_OPEN
 10
402.3067115632362
 20
261.6711727594357
 30
0.0
 41
7.0
 42
7.0
 43
7.0
 50
270.0
  0
INSERT
  5
898
330
7C6
100
AcDbEntity
  8
0
  6
BYBLOCK
 62
     4
100
AcDbBlockReference
  2
_OPEN
 10
402.3067115632362
 20
231.6712727594357
 30
0.0
 41
7.0
 42
7.0
 43
7.0
 50
90.0
  0
MTEXT
  5
899
330
7C6
100
AcDbEntity
  8
0
  6
BYBLOCK
 62
     4
100
AcDbMText
 10
397.3067115632362
 20
246.6712227594357
 30
0.0
 40
6.0
 41
0.0
 71
     5
 72
     1
  1
\A1;※a 30
 11
0.0
 21
1.0
 31
0.0
1001
ACAD
1000
MTEXTBEGIN
1070
    73
1070
     1
1070
    44
1040
1.0
1070
    74
1070
     0
1000
MTEXTEND
1000
MTEXTBEGIN
1070
    73
1070
     1
1070
    44
1040
1.0
1070
    74
1070
     0
1000
MTEXTEND
1000
MTEXTBEGIN
1070
    73
1070
     1
1070
    44
1040
1.0
1070
    74
1070
     0
1000
MTEXTEND
  0
POINT
  5
89A
330
7C6
100
AcDbEntity
  8
DEFPOINTS
  6
BYBLOCK
 62
     0
100
AcDbPoint
 10
318.3426154183508
 20
261.6711727594357
 30
0.0
  0
POINT
  5
89B
330
7C6
100
AcDbEntity
  8
DEFPOINTS
  6
BYBLOCK
 62
     0
100
AcDbPoint
 10
309.342515418351
 20
231.6712727594357
 30
0.0
  0
POINT
  5
89C
330
7C6
100
AcDbEntity
  8
DEFPOINTS
  6
BYBLOCK
 62
     0
100
AcDbPoint
 10
402.3067115632362
 20
231.6712727594357
 30
0.0
  0
ENDBLK
  5
89D
330
7C6
100
AcDbEntity
  8
0
100
AcDbBlockEnd
  0
BLOCK
  5
8CC
330
7D3
100
AcDbEntity
  8
0
100
AcDbBlockBegin
  2
*D3
 70
     1
 10
0.0
 20
0.0
 30
0.0
  3
*D3
  1

  0
LINE
  5
8CD
330
7D3
100
AcDbEntity
  8
0
  6
BYBLOCK
 62
     4
100
AcDbLine
 10
315.342515418351
 20
231.6712727594357
 30
0.0
 11
405.3067115632362
 21
231.6712727594357
 31
0.0
  0
LINE
  5
8CE
330
7D3
100
AcDbEntity
  8
0
  6
BYBLOCK
 62
     4
100
AcDbLine
 10
309.242415418351
 20
201.6712727594358
 30
0.0
 11
405.3067115632362
 21
201.6712727594358
 31
0.0
  0
LINE
  5
8CF
330
7D3
100
AcDbEntity
  8
0
  6
BYBLOCK
 62
     4
100
AcDbLine
 10
402.3067115632362
 20
238.6712727594356
 30
0.0
 11
402.3067115632362
 21
245.6712727594357
 31
0.0
  0
LINE
  5
8D0
330
7D3
100
AcDbEntity
  8
0
  6
BYBLOCK
 62
     4
100
AcDbLine
 10
402.3067115632362
 20
194.6712727594358
 30
0.0
 11
402.3067115632362
 21
187.6712727594357
 31
0.0
  0
LINE
  5
8D1
330
7D3
100
AcDbEntity
  8
0
  6
BYBLOCK
 62
     4
100
AcDbLine
 10
402.3067115632362
 20
231.6712727594357
 30
0.0
 11
402.3067115632362
 21
201.6712727594358
 31
0.0
  0
INSERT
  5
8D2
330
7D3
100
AcDbEntity
  8
0
  6
BYBLOCK
 62
     4
100
AcDbBlockReference
  2
_OPEN
 10
402.3067115632362
 20
231.6712727594357
 30
0.0
 41
7.0
 42
7.0
 43
7.0
 50
270.0
  0
INSERT
  5
8D3
330
7D3
100
AcDbEntity
  8
0
  6
BYBLOCK
 62
     4
100
AcDbBlockReference
  2
_OPEN
 10
402.3067115632362
 20
201.6712727594358
 30
0.0
 41
7.0
 42
7.0
 43
7.0
 50
90.0
  0
MTEXT
  5
8D4
330
7D3
100
AcDbEntity
  8
0
  6
BYBLOCK
 62
     4
100
AcDbMText
 10
397.3067115632362
 20
216.6712727594357
 30
0.0
 40
6.0
 41
0.0
 71
     5
 72
     1
  1
\A1;※b 30
 11
0.0
 21
1.0
 31
0.0
1001
ACAD
1000
MTEXTBEGIN
1070
    73
1070
     1
1070
    44
1040
1.0
1070
    74
1070
     0
1000
MTEXTEND
1000
MTEXTBEGIN
1070
    73
1070
     1
1070
    44
1040
1.0
1070
    74
1070
     0
1000
MTEXTEND
1000
MTEXTBEGIN
1070
    73
1070
     1
1070
    44
1040
1.0
1070
    74
1070
     0
1000
MTEXTEND
  0
POINT
  5
8D5
330
7D3
100
AcDbEntity
  8
DEFPOINTS
  6
BYBLOCK
 62
     0
100
AcDbPoint
 10
309.342515418351
 20
231.6712727594357
 30
0.0
  0
POINT
  5
8D6
330
7D3
100
AcDbEntity
  8
DEFPOINTS
  6
BYBLOCK
 62
     0
100
AcDbPoint
 10
303.242415418351
 20
201.6712727594358
 30
0.0
  0
POINT
  5
8D7
330
7D3
100
AcDbEntity
  8
DEFPOINTS
  6
BYBLOCK
 62
     0
100
AcDbPoint
 10
402.3067115632362
 20
201.6712727594358
 30
0.0
  0
ENDBLK
  5
8D8
330
7D3
100
AcDbEntity
  8
0
100
AcDbBlockEnd
  0
BLOCK
  5
8EF
330
7E0
100
AcDbEntity
  8
0
100
AcDbBlockBegin
  2
*D4
 70
     1
 10
0.0
 20
0.0
 30
0.0
  3
*D4
  1

  0
LINE
  5
8F0
330
7E0
100
AcDbEntity
  8
0
  6
BYBLOCK
 62
     4
100
AcDbLine
 10
303.742415418351
 20
196.1712727594357
 30
0.0
 11
303.742415418351
 21
166.0151898648775
 31
0.0
  0
LINE
  5
8F1
330
7E0
100
AcDbEntity
  8
0
  6
BYBLOCK
 62
     4
100
AcDbLine
 10
246.942515418351
 20
196.1713727594357
 30
0.0
 11
246.942515418351
 21
166.0151898648775
 31
0.0
  0
LINE
  5
8F2
330
7E0
100
AcDbEntity
  8
0
  6
BYBLOCK
 62
     4
100
AcDbLine
 10
296.742415418351
 20
169.0151898648775
 30
0.0
 11
253.942515418351
 21
169.0151898648775
 31
0.0
  0
INSERT
  5
8F3
330
7E0
100
AcDbEntity
  8
0
  6
BYBLOCK
 62
     4
100
AcDbBlockReference
  2
_OPEN
 10
303.742415418351
 20
169.0151898648775
 30
0.0
 41
7.0
 42
7.0
 43
7.0
  0
INSERT
  5
8F4
330
7E0
100
AcDbEntity
  8
0
  6
BYBLOCK
 62
     4
100
AcDbBlockReference
  2
_OPEN
 10
246.942515418351
 20
169.0151898648775
 30
0.0
 41
7.0
 42
7.0
 43
7.0
 50
180.0
  0
MTEXT
  5
8F5
330
7E0
100
AcDbEntity
  8
0
  6
BYBLOCK
 62
     4
100
AcDbMText
 10
275.342465418351
 20
174.0151898648775
 30
0.0
 40
6.0
 41
0.0
 71
     5
 72
     1
  1
\A1;φ 57
1001
ACAD
1000
MTEXTBEGIN
1070
    73
1070
     1
1070
    44
1040
1.0
1070
    74
1070
     0
1000
MTEXTEND
1000
MTEXTBEGIN
1070
    73
1070
     1
1070
    44
1040
1.0
1070
    74
1070
     0
1000
MTEXTEND
1000
MTEXTBEGIN
1070
    73
1070
     1
1070
    44
1040
1.0
1070
    74
1070
     0
1000
MTEXTEND
  0
POINT
  5
8F6
330
7E0
100
AcDbEntity
  8
DEFPOINTS
  6
BYBLOCK
 62
     0
100
AcDbPoint
 10
303.742415418351
 20
202.1712727594357
 30
0.0
  0
POINT
  5
8F7
330
7E0
100
AcDbEntity
  8
DEFPOINTS
  6
BYBLOCK
 62
     0
100
AcDbPoint
 10
246.942515418351
 20
202.1713727594358
 30
0.0
  0
POINT
  5
8F8
330
7E0
100
AcDbEntity
  8
DEFPOINTS
  6
BYBLOCK
 62
     0
100
AcDbPoint
 10
246.942515418351
 20
169.0151898648775
 30
0.0
  0
ENDBLK
  5
8F9
330
7E0
100
AcDbEntity
  8
0
100
AcDbBlockEnd
  0
BLOCK
  5
910
330
7ED
100
AcDbEntity
  8
0
100
AcDbBlockBegin
  2
*D5
 70
     1
 10
0.0
 20
0.0
 30
0.0
  3
*D5
  1

  0
LINE
  5
911
330
7ED
100
AcDbEntity
  8
0
  6
BYBLOCK
 62
     4
100
AcDbLine
 10
310.792515418351
 20
228.6712727594358
 30
0.0
 11
310.792515418351
 21
146.4845536997593
 31
0.0
  0
LINE
  5
912
330
7ED
100
AcDbEntity
  8
0
  6
BYBLOCK
 62
     4
100
AcDbLine
 10
239.892515418351
 20
228.6713727594357
 30
0.0
 11
239.892515418351
 21
146.4845536997593
 31
0.0
  0
LINE
  5
913
330
7ED
100
AcDbEntity
  8
0
  6
BYBLOCK
 62
     4
100
AcDbLine
 10
303.7925154183509
 20
149.4845536997593
 30
0.0
 11
246.892515418351
 21
149.4845536997593
 31
0.0
  0
INSERT
  5
914
330
7ED
100
AcDbEntity
  8
0
  6
BYBLOCK
 62
     4
100
AcDbBlockReference
  2
_OPEN
 10
310.792515418351
 20
149.4845536997593
 30
0.0
 41
7.0
 42
7.0
 43
7.0
  0
INSERT
  5
915
330
7ED
100
AcDbEntity
  8
0
  6
BYBLOCK
 62
     4
100
AcDbBlockReference
  2
_OPEN
 10
239.892515418351
 20
149.4845536997593
 30
0.0
 41
7.0
 42
7.0
 43
7.0
 50
180.0
  0
MTEXT
  5
916
330
7ED
100
AcDbEntity
  8
0
  6
BYBLOCK
 62
     4
100
AcDbMText
 10
275.3425154183509
 20
154.4845536997593
 30
0.0
 40
6.0
 41
0.0
 71
     5
 72
     1
  1
\A1;φ 71
1001
ACAD
1000
MTEXTBEGIN
1070
    73
1070
     1
1070
    44
1040
1.0
1070
    74
1070
     0
1000
MTEXTEND
1000
MTEXTBEGIN
1070
    73
1070
     1
1070
    44
1040
1.0
1070
    74
1070
     0
1000
MTEXTEND
1000
MTEXTBEGIN
1070
    73
1070
     1
1070
    44
1040
1.0
1070
    74
1070
     0
1000
MTEXTEND
  0
POINT
  5
917
330
7ED
100
AcDbEntity
  8
DEFPOINTS
  6
BYBLOCK
 62
     0
100
AcDbPoint
 10
310.792515418351
 20
234.6712727594357
 30
0.0
  0
POINT
  5
918
330
7ED
100
AcDbEntity
  8
DEFPOINTS
  6
BYBLOCK
 62
     0
100
AcDbPoint
 10
239.892515418351
 20
234.6713727594357
 30
0.0
  0
POINT
  5
919
330
7ED
100
AcDbEntity
  8
DEFPOINTS
  6
BYBLOCK
 62
     0
100
AcDbPoint
 10
239.892515418351
 20
149.4845536997593
 30
0.0
  0
ENDBLK
  5
91A
330
7ED
100
AcDbEntity
  8
0
100
AcDbBlockEnd
  0
BLOCK
  5
7FB
330
7FA
100
AcDbEntity
  8
0
100
AcDbBlockBegin
  2
*D6
 70
     1
 10
0.0
 20
0.0
 30
0.0
  3
*D6
  1

  0
LINE
  5
7FC
330
7FA
100
AcDbEntity
  8
0
  6
BYBLOCK
 62
     4
100
AcDbLine
 10
195.342715418351
 20
411.6715727594356
 30
0.0
 11
195.342715418351
 21
450.2003574313771
 31
0.0
  0
LINE
  5
7FD
330
7FA
100
AcDbEntity
  8
0
  6
BYBLOCK
 62
     4
100
AcDbLine
 10
355.342815418351
 20
411.6713727594357
 30
0.0
 11
355.342815418351
 21
450.2003574313771
 31
0.0
  0
LINE
  5
7FE
330
7FA
100
AcDbEntity
  8
0
  6
BYBLOCK
 62
     4
100
AcDbLine
 10
202.342715418351
 20
447.2003574313771
 30
0.0
 11
348.3428154183509
 21
447.2003574313771
 31
0.0
  0
INSERT
  5
7FF
330
7FA
100
AcDbEntity
  8
0
  6
BYBLOCK
 62
     4
100
AcDbBlockReference
  2
_OPEN
 10
195.342715418351
 20
447.2003574313771
 30
0.0
 41
7.0
 42
7.0
 43
7.0
 50
180.0
  0
INSERT
  5
800
330
7FA
100
AcDbEntity
  8
0
  6
BYBLOCK
 62
     4
100
AcDbBlockReference
  2
_OPEN
 10
355.342815418351
 20
447.2003574313771
 30
0.0
 41
7.0
 42
7.0
 43
7.0
  0
MTEXT
  5
801
330
7FA
100
AcDbEntity
  8
0
  6
BYBLOCK
 62
     4
100
AcDbMText
 10
275.342765418351
 20
452.2003574313771
 30
0.0
 40
6.0
 41
0.0
 71
     5
 72
     1
  1
\A1;160
1001
ACAD
1000
MTEXTBEGIN
1070
    73
1070
     1
1070
    44
1040
1.0
1070
    74
1070
     0
1000
MTEXTEND
1000
MTEXTBEGIN
1070
    73
1070
     1
1070
    44
1040
1.0
1070
    74
1070
     0
1000
MTEXTEND
1000
MTEXTBEGIN
1070
    73
1070
     1
1070
    44
1040
1.0
1070
    74
1070
     0
1000
MTEXTEND
  0
POINT
  5
802
330
7FA
100
AcDbEntity
  8
DEFPOINTS
  6
BYBLOCK
 62
     0
100
AcDbPoint
 10
195.342715418351
 20
405.6715727594356
 30
0.0
  0
POINT
  5
803
330
7FA
100
AcDbEntity
  8
DEFPOINTS
  6
BYBLOCK
 62
     0
100
AcDbPoint
 10
355.342815418351
 20
405.6713727594356
 30
0.0
  0
POINT
  5
804
330
7FA
100
AcDbEntity
  8
DEFPOINTS
  6
BYBLOCK
 62
     0
100
AcDbPoint
 10
355.342815418351
 20
447.2003574313771
 30
0.0
  0
ENDBLK
  5
805
330
7FA
100
AcDbEntity
  8
0
100
AcDbBlockEnd
  0
BLOCK
  5
808
330
807
100
AcDbEntity
  8
0
100
AcDbBlockBegin
  2
*D7
 70
     1
 10
0.0
 20
0.0
 30
0.0
  3
*D7
  1

  0
LINE
  5
809
330
807
100
AcDbEntity
  8
0
  6
BYBLOCK
 62
     4
100
AcDbLine
 10
631.4702646632081
 20
411.6714727594358
 30
0.0
 11
631.4702646632081
 21
450.2003574313771
 31
0.0
  0
LINE
  5
80A
330
807
100
AcDbEntity
  8
0
  6
BYBLOCK
 62
     4
100
AcDbLine
 10
503.4701646632081
 20
411.6715727594356
 30
0.0
 11
503.4701646632081
 21
450.2003574313771
 31
0.0
  0
LINE
  5
80B
330
807
100
AcDbEntity
  8
0
  6
BYBLOCK
 62
     4
100
AcDbLine
 10
624.4702646632081
 20
447.2003574313771
 30
0.0
 11
510.470164663208
 21
447.2003574313771
 31
0.0
  0
INSERT
  5
80C
330
807
100
AcDbEntity
  8
0
  6
BYBLOCK
 62
     4
100
AcDbBlockReference
  2
_OPEN
 10
631.4702646632081
 20
447.2003574313771
 30
0.0
 41
7.0
 42
7.0
 43
7.0
  0
INSERT
  5
80D
330
807
100
AcDbEntity
  8
0
  6
BYBLOCK
 62
     4
100
AcDbBlockReference
  2
_OPEN
 10
503.4701646632081
 20
447.2003574313771
 30
0.0
 41
7.0
 42
7.0
 43
7.0
 50
180.0
  0
MTEXT
  5
80E
330
807
100
AcDbEntity
  8
0
  6
BYBLOCK
 62
     4
100
AcDbMText
 10
567.4702146632081
 20
452.2003574313771
 30
0.0
 40
6.0
 41
0.0
 71
     5
 72
     1
  1
\A1;128
1001
ACAD
1000
MTEXTBEGIN
1070
    73
1070
     1
1070
    44
1040
1.0
1070
    74
1070
     0
1000
MTEXTEND
1000
MTEXTBEGIN
1070
    73
1070
     1
1070
    44
1040
1.0
1070
    74
1070
     0
1000
MTEXTEND
1000
MTEXTBEGIN
1070
    73
1070
     1
1070
    44
1040
1.0
1070
    74
1070
     0
1000
MTEXTEND
  0
POINT
  5
80F
330
807
100
AcDbEntity
  8
DEFPOINTS
  6
BYBLOCK
 62
     0
100
AcDbPoint
 10
631.4702646632081
 20
405.6714727594358
 30
0.0
  0
POINT
  5
810
330
807
100
AcDbEntity
  8
DEFPOINTS
  6
BYBLOCK
 62
     0
100
AcDbPoint
 10
503.4701646632081
 20
405.6715727594356
 30
0.0
  0
POINT
  5
811
330
807
100
AcDbEntity
  8
DEFPOINTS
  6
BYBLOCK
 62
     0
100
AcDbPoint
 10
503.4701646632081
 20
447.2003574313771
 30
0.0
  0
ENDBLK
  5
812
330
807
100
AcDbEntity
  8
0
100
AcDbBlockEnd
  0
BLOCK
  5
815
330
814
100
AcDbEntity
  8
0
100
AcDbBlockBegin
  2
*D8
 70
     1
 10
0.0
 20
0.0
 30
0.0
  3
*D8
  1

  0
LINE
  5
816
330
814
100
AcDbEntity
  8
0
  6
BYBLOCK
 62
     4
100
AcDbLine
 10
629.4999646632081
 20
271.6404727594357
 30
0.0
 11
629.4999646632081
 21
166.0151898648775
 31
0.0
  0
LINE
  5
817
330
814
100
AcDbEntity
  8
0
  6
BYBLOCK
 62
     4
100
AcDbLine
 10
579.4701646632081
 20
188.6705727611829
 30
0.0
 11
579.4701646632081
 21
166.0151898648775
 31
0.0
  0
LINE
  5
818
330
814
100
AcDbEntity
  8
0
  6
BYBLOCK
 62
     4
100
AcDbLine
 10
622.4999646632081
 20
169.0151898648775
 30
0.0
 11
586.4701646632081
 21
169.0151898648775
 31
0.0
  0
INSERT
  5
819
330
814
100
AcDbEntity
  8
0
  6
BYBLOCK
 62
     4
100
AcDbBlockReference
  2
_OPEN
 10
629.4999646632081
 20
169.0151898648775
 30
0.0
 41
7.0
 42
7.0
 43
7.0
  0
INSERT
  5
81A
330
814
100
AcDbEntity
  8
0
  6
BYBLOCK
 62
     4
100
AcDbBlockReference
  2
_OPEN
 10
579.4701646632081
 20
169.0151898648775
 30
0.0
 41
7.0
 42
7.0
 43
7.0
 50
180.0
  0
MTEXT
  5
81B
330
814
100
AcDbEntity
  8
0
  6
BYBLOCK
 62
     4
100
AcDbMText
 10
604.4850646632081
 20
174.0151898648775
 30
0.0
 40
6.0
 41
0.0
 71
     5
 72
     1
  1
\A1;50
1001
ACAD
1000
MTEXTBEGIN
1070
    73
1070
     1
1070
    44
1040
1.0
1070
    74
1070
     0
1000
MTEXTEND
1000
MTEXTBEGIN
1070
    73
1070
     1
1070
    44
1040
1.0
1070
    74
1070
     0
1000
MTEXTEND
1000
MTEXTBEGIN
1070
    73
1070
     1
1070
    44
1040
1.0
1070
    74
1070
     0
1000
MTEXTEND
  0
POINT
  5
81C
330
814
100
AcDbEntity
  8
DEFPOINTS
  6
BYBLOCK
 62
     0
100
AcDbPoint
 10
629.4999646632081
 20
277.6404727594357
 30
0.0
  0
POINT
  5
81D
330
814
100
AcDbEntity
  8
DEFPOINTS
  6
BYBLOCK
 62
     0
100
AcDbPoint
 10
579.4701646632081
 20
194.6705727611829
 30
0.0
  0
POINT
  5
81E
330
814
100
AcDbEntity
  8
DEFPOINTS
  6
BYBLOCK
 62
     0
100
AcDbPoint
 10
579.4701646632081
 20
169.0151898648775
 30
0.0
  0
ENDBLK
  5
81F
330
814
100
AcDbEntity
  8
0
100
AcDbBlockEnd
  0
BLOCK
  5
91F
330
91E
100
AcDbEntity
  8
0
100
AcDbBlockBegin
  2
*D9
 70
     1
 10
0.0
 20
0.0
 30
0.0
  3
*D9
  1

  0
LINE
  5
920
330
91E
100
AcDbEntity
  8
0
  6
BYBLOCK
 62
     4
100
AcDbLine
 10
361.3428154183509
 20
405.6713727594356
 30
0.0
 11
425.5192051495469
 21
405.6713727594356
 31
0.0
  0
LINE
  5
921
330
91E
100
AcDbEntity
  8
0
  6
BYBLOCK
 62
     4
100
AcDbLine
 10
309.242415418351
 20
201.6712727594358
 30
0.0
 11
425.5192051495469
 21
201.6712727594358
 31
0.0
  0
LINE
  5
922
330
91E
100
AcDbEntity
  8
0
  6
BYBLOCK
 62
     4
100
AcDbLine
 10
422.5192051495469
 20
398.6713727594356
 30
0.0
 11
422.5192051495469
 21
208.6712727594357
 31
0.0
  0
INSERT
  5
923
330
91E
100
AcDbEntity
  8
0
  6
BYBLOCK
 62
     4
100
AcDbBlockReference
  2
_OPEN
 10
422.5192051495469
 20
405.6713727594356
 30
0.0
 41
7.0
 42
7.0
 43
7.0
 50
90.0
  0
INSERT
  5
924
330
91E
100
AcDbEntity
  8
0
  6
BYBLOCK
 62
     4
100
AcDbBlockReference
  2
_OPEN
 10
422.5192051495469
 20
201.6712727594358
 30
0.0
 41
7.0
 42
7.0
 43
7.0
 50
270.0
  0
MTEXT
  5
925
330
91E
100
AcDbEntity
  8
0
  6
BYBLOCK
 62
     4
100
AcDbMText
 10
417.5192051495469
 20
303.6713227594357
 30
0.0
 40
6.0
 41
0.0
 71
     5
 72
     1
  1
\A1;204
 11
0.0
 21
1.0
 31
0.0
1001
ACAD
1000
MTEXTBEGIN
1070
    73
1070
     1
1070
    44
1040
1.0
1070
    74
1070
     0
1000
MTEXTEND
1000
MTEXTBEGIN
1070
    73
1070
     1
1070
    44
1040
1.0
1070
    74
1070
     0
1000
MTEXTEND
1000
MTEXTBEGIN
1070
    73
1070
     1
1070
    44
1040
1.0
1070
    74
1070
     0
1000
MTEXTEND
  0
POINT
  5
926
330
91E
100
AcDbEntity
  8
DEFPOINTS
  6
BYBLOCK
 62
     0
100
AcDbPoint
 10
355.342815418351
 20
405.6713727594356
 30
0.0
  0
POINT
  5
927
330
91E
100
AcDbEntity
  8
DEFPOINTS
  6
BYBLOCK
 62
     0
100
AcDbPoint
 10
303.242415418351
 20
201.6712727594358
 30
0.0
  0
POINT
  5
928
330
91E
100
AcDbEntity
  8
DEFPOINTS
  6
BYBLOCK
 62
     0
100
AcDbPoint
 10
422.5192051495469
 20
201.6712727594358
 30
0.0
  0
ENDBLK
  5
929
330
91E
100
AcDbEntity
  8
0
100
AcDbBlockEnd
  0
ENDSEC
  0
SECTION
  2
ENTITIES
  0
TEXT
  5
11A
330
1A
100
AcDbEntity
  8
ZUWAKU
 62
     7
 48
10.0
100
AcDbText
 10
795.5579444309237
 20
4.974918402528146
 30
0.0
 40
8.0
  1
A1
100
AcDbText
  0
LINE
  5
11B
330
1A
100
AcDbEntity
  8
ZUWAKU
 62
     7
 48
10.0
100
AcDbLine
 10
10.05047808566086
 20
25.78258628282265
 30
0.0
 11
806.0504780856609
 21
25.78258628282253
 31
0.0
  0
LINE
  5
11C
330
1A
100
AcDbEntity
  8
ZUWAKU
  6
CONTINUOUS
 62
     7
100
AcDbLine
 10
806.0504780856609
 20
563.7825862828226
 30
0.0
 11
10.05047808566086
 21
563.7825862828226
 31
0.0
  0
LINE
  5
11D
330
1A
100
AcDbEntity
  8
ZUWAKU
  6
CONTINUOUS
 62
     7
100
AcDbLine
 10
806.0504780856609
 20
13.78258628282265
 30
0.0
 11
10.05047808566086
 21
13.78258628282265
 31
0.0
  0
LINE
  5
11E
330
1A
100
AcDbEntity
  8
ZUWAKU
  6
CONTINUOUS
 62
     7
100
AcDbLine
 10
10.05047808566086
 20
563.7825862828226
 30
0.0
 11
10.05047808566086
 21
13.78258628282265
 31
0.0
  0
LINE
  5
11F
330
1A
100
AcDbEntity
  8
ZUWAKU
 62
     7
 48
10.0
100
AcDbLine
 10
44.55797523147839
 20
13.78258628282265
 30
0.0
 11
44.5579752314784
 21
25.78258628282265
 31
0.0
  0
TEXT
  5
120
330
1A
100
AcDbEntity
  8
ZUWAKU
 62
     7
100
AcDbText
 10
16.05676551180931
 20
15.52294263804401
 30
0.0
 40
8.0
  1
品 種
100
AcDbText
  0
LINE
  5
121
330
1A
100
AcDbEntity
  8
ZUWAKU
 62
     7
 48
10.0
100
AcDbLine
 10
276.1028387068254
 20
13.78258628282265
 30
0.0
 11
276.1028387068254
 21
25.78258628282261
 31
0.0
  0
LINE
  5
122
330
1A
100
AcDbEntity
  8
ZUWAKU
 62
     7
 48
10.0
100
AcDbLine
 10
209.5138526425484
 20
13.78258628282265
 30
0.0
 11
209.5138526425485
 21
25.78258628282263
 31
0.0
  0
TEXT
  5
124
330
1A
100
AcDbEntity
  8
ZUWAKU
 62
     7
100
AcDbText
 10
215.4560837190756
 20
16.18358115302453
 30
0.0
 40
8.0
  1
品名・ｻ ｲ ｽﾞ
100
AcDbText
  0
LINE
  5
126
330
1A
100
AcDbEntity
  8
ZUWAKU
 62
     7
 48
10.0
100
AcDbLine
 10
768.7231079932794
 20
13.78258628282237
 30
0.0
 11
768.7231079932794
 21
25.78258628282254
 31
0.0
  0
LINE
  5
127
330
1A
100
AcDbEntity
  8
ZUWAKU
 62
     7
 48
10.0
100
AcDbLine
 10
733.8119002376948
 20
13.78258628282242
 30
0.0
 11
733.8119002376946
 21
25.78258628282254
 31
0.0
  0
TEXT
  5
128
330
1A
100
AcDbEntity
  8
ZUWAKU
 62
     7
100
AcDbText
 10
739.6955629973526
 20
15.24227755810852
 30
0.0
 40
8.0
  1
尺 度
100
AcDbText
  0
TEXT
  5
129
330
1A
100
AcDbEntity
  8
ZUWAKU
 62
     7
100
AcDbText
 10
779.7374630323229
 20
15.55488920081529
 30
0.0
 40
8.0
  1
1/2
100
AcDbText
  0
TEXT
  5
12B
330
1A
100
AcDbEntity
  8
ZUWAKU
 62
     7
100
AcDbText
 10
620.3363288383084
 20
15.6519090944263
 30
0.0
 40
8.0
  1
品 番
100
AcDbText
  0
LINE
  5
12C
330
1A
100
AcDbEntity
  8
ZUWAKU
 62
     7
 48
10.0
100
AcDbLine
 10
614.3351028194128
 20
13.78258628282232
 30
0.0
 11
614.3351028194128
 21
25.78258628282256
 31
0.0
  0
LINE
  5
12D
330
1A
100
AcDbEntity
  8
ZUWAKU
 62
     7
 48
10.0
100
AcDbLine
 10
648.7607587371021
 20
13.78258628282232
 30
0.0
 11
648.7607587371021
 21
25.78258628282255
 31
0.0
  0
TEXT
  5
12E
330
1A
100
AcDbEntity
  8
ZUWAKU
 62
     7
 48
10.0
100
AcDbText
 10
646.2758615931216
 20
4.949376903717848
 30
0.0
 40
8.0
  1
積水化学工業株式会社  建材
100
AcDbText
  0
LINE
  5
12F
330
1A
100
AcDbEntity
  8
ZUWAKU
  6
CONTINUOUS
 62
     7
100
AcDbLine
 10
806.0504780856609
 20
563.7825862828226
 30
0.0
 11
806.0504780856609
 21
13.78258628282265
 31
0.0
  0
ARC
  5
48D
330
1A
100
AcDbEntity
  8
SEIHIN
  6
CONTINUOUS
 62
     3
 48
5.0
100
AcDbCircle
 10
39.04943567501834
 20
338.740104708342
 30
0.0
 40
299.999969860729
100
AcDbArc
 50
352.1322621823613
 51
357.8854140036988
  0
ARC
  5
48E
330
1A
100
AcDbEntity
  8
SEIHIN
  6
CONTINUOUS
 62
     3
 48
5.0
100
AcDbCircle
 10
42.05177489450863
 20
338.7399866598511
 30
0.0
 40
300.0000262441071
100
AcDbArc
 50
352.6027672111863
 51
357.8854369622665
  0
LINE
  5
48F
330
1A
100
AcDbEntity
  8
SEIHIN
  6
CONTINUOUS
 62
     3
 48
5.0
100
AcDbLine
 10
308.0597154183509
 20
323.1740727594356
 30
0.0
 11
308.0597154183509
 21
329.4702727594356
 31
0.0
  0
ARC
  5
490
330
1A
100
AcDbEntity
  8
SEIHIN
  6
CONTINUOUS
 62
     3
 48
5.0
100
AcDbCircle
 10
267.5525103249888
 20
327.6712352511525
 30
0.0
 40
46.7400050934039
100
AcDbArc
 50
344.5340394807947
 51
359.9999233951383
  0
ARC
  5
491
330
1A
100
AcDbEntity
  8
SEIHIN
  6
CONTINUOUS
 62
     3
 48
5.0
100
AcDbCircle
 10
264.8260355007145
 20
327.6714404472524
 30
0.0
 40
46.7399799184029
100
AcDbArc
 50
346.3414350013605
 51
359.9996718573231
  0
ARC
  5
492
330
1A
100
AcDbEntity
  8
SEIHIN
  6
CONTINUOUS
 62
     3
 48
5.0
100
AcDbCircle
 10
262.0994991587173
 20
327.6711172858071
 30
0.0
 40
46.74001625966663
100
AcDbArc
 50
348.0595859268046
 51
0.000068001790669
  0
LINE
  5
493
330
1A
100
AcDbEntity
  8
SEIHIN
  6
CONTINUOUS
 62
     3
 48
5.0
100
AcDbLine
 10
303.386315418351
 20
323.1740727594356
 30
0.0
 11
303.386315418351
 21
329.4702727594356
 31
0.0
  0
LINE
  5
494
330
1A
100
AcDbEntity
  8
SEIHIN
  6
CONTINUOUS
 62
     3
 48
5.0
100
AcDbLine
 10
295.596315418351
 20
324.9727727594356
 30
0.0
 11
301.049015418351
 21
321.8245727594356
 31
0.0
  0
LINE
  5
495
330
1A
100
AcDbEntity
  8
SEIHIN
  6
CONTINUOUS
 62
     3
 48
5.0
100
AcDbLine
 10
287.8063154183509
 20
323.1740727594356
 30
0.0
 11
287.8063154183509
 21
329.4703727594358
 31
0.0
  0
LINE
  5
496
330
1A
100
AcDbEntity
  8
SEIHIN
  6
CONTINUOUS
 62
     3
 48
5.0
100
AcDbLine
 10
283.1328154183509
 20
323.1740727594356
 30
0.0
 11
283.1328154183509
 21
329.4703727594358
 31
0.0
  0
LINE
  5
497
330
1A
100
AcDbEntity
  8
SEIHIN
  6
CONTINUOUS
 62
     3
 48
5.0
100
AcDbLine
 10
275.3425154183509
 20
324.9727727594356
 30
0.0
 11
269.8897154183509
 21
321.8247727594357
 31
0.0
  0
LINE
  5
498
330
1A
100
AcDbEntity
  8
SEIHIN
  6
CONTINUOUS
 62
     3
 48
5.0
100
AcDbLine
 10
262.8790154183509
 20
323.1740727594356
 30
0.0
 11
262.8790154183509
 21
329.4703727594358
 31
0.0
  0
LINE
  5
499
330
1A
100
AcDbEntity
  8
SEIHIN
  6
CONTINUOUS
 62
     3
 48
5.0
100
AcDbLine
 10
267.5525154183509
 20
323.1740727594356
 30
0.0
 11
267.5525154183509
 21
329.4703727594358
 31
0.0
  0
LINE
  5
49A
330
1A
100
AcDbEntity
  8
SEIHIN
  6
CONTINUOUS
 62
     3
 48
5.0
100
AcDbLine
 10
275.3428154183509
 20
324.9727727594356
 30
0.0
 11
280.795615418351
 21
321.8246727594356
 31
0.0
  0
LINE
  5
49B
330
1A
100
AcDbEntity
  8
SEIHIN
  6
CONTINUOUS
 62
     3
 48
5.0
100
AcDbLine
 10
290.143515418351
 20
321.8245727594356
 30
0.0
 11
295.596315418351
 21
324.9727727594356
 31
0.0
  0
LINE
  5
49C
330
1A
100
AcDbEntity
  8
SEIHIN
  6
CONTINUOUS
 62
     3
 48
5.0
100
AcDbLine
 10
295.596315418351
 20
324.9727727594356
 30
0.0
 11
290.143515418351
 21
321.8245727594356
 31
0.0
  0
LINE
  5
49D
330
1A
100
AcDbEntity
  8
SEIHIN
  6
CONTINUOUS
 62
     3
 48
5.0
100
AcDbLine
 10
260.541815418351
 20
321.8246727594356
 30
0.0
 11
255.089015418351
 21
324.9728727594358
 31
0.0
  0
LINE
  5
49E
330
1A
100
AcDbEntity
  8
SEIHIN
  6
CONTINUOUS
 62
     3
 48
5.0
100
AcDbLine
 10
255.089015418351
 20
324.9728727594358
 30
0.0
 11
260.541815418351
 21
321.8246727594356
 31
0.0
  0
LINE
  5
49F
330
1A
100
AcDbEntity
  8
SEIHIN
  6
CONTINUOUS
 62
     3
 48
5.0
100
AcDbLine
 10
247.299015418351
 20
323.1741727594358
 30
0.0
 11
247.299015418351
 21
329.4703727594358
 31
0.0
  0
LINE
  5
4A0
330
1A
100
AcDbEntity
  8
SEIHIN
  6
CONTINUOUS
 62
     3
 48
5.0
100
AcDbLine
 10
255.089015418351
 20
324.9728727594358
 30
0.0
 11
249.636215418351
 21
321.8247727594357
 31
0.0
  0
LINE
  5
4A1
330
1A
100
AcDbEntity
  8
SEIHIN
  6
CONTINUOUS
 62
     3
 48
5.0
100
AcDbLine
 10
242.625515418351
 20
323.1741727594358
 30
0.0
 11
242.6256154183509
 21
329.4703727594358
 31
0.0
  0
ARC
  5
4A2
330
1A
100
AcDbEntity
  8
SEIHIN
  6
CONTINUOUS
 62
     3
 48
5.0
100
AcDbCircle
 10
288.5858109881888
 20
327.6713151221108
 30
0.0
 40
46.73999556987335
100
AcDbArc
 50
179.9999293458329
 51
191.9404167255718
  0
ARC
  5
4A3
330
1A
100
AcDbEntity
  8
SEIHIN
  6
CONTINUOUS
 62
     3
 48
5.0
100
AcDbCircle
 10
285.8593321155751
 20
327.6711333334902
 30
0.0
 40
46.7400166978374
100
AcDbArc
 50
179.9997065021122
 51
193.6580404627606
  0
ARC
  5
4A4
330
1A
100
AcDbEntity
  8
SEIHIN
  6
CONTINUOUS
 62
     3
 48
5.0
100
AcDbCircle
 10
283.1328553671953
 20
327.6709785625025
 30
0.0
 40
46.74003995050662
100
AcDbArc
 50
179.9995167778934
 51
195.4654950263741
  0
ARC
  5
4A5
330
1A
100
AcDbEntity
  8
SEIHIN
  6
CONTINUOUS
 62
     3
 48
5.0
100
AcDbCircle
 10
511.6359651561449
 20
338.7386032148615
 30
0.0
 40
299.9999770304656
100
AcDbArc
 50
182.1142607629941
 51
187.86737101904
  0
ARC
  5
4A6
330
1A
100
AcDbEntity
  8
SEIHIN
  6
CONTINUOUS
 62
     3
 48
5.0
100
AcDbCircle
 10
508.6335095500212
 20
338.7392432976145
 30
0.0
 40
299.9999450770955
100
AcDbArc
 50
182.1143833183943
 51
187.3970338615328
  0
LINE
  5
4A7
330
1A
100
AcDbEntity
  8
CENTER_L
  6
CENTER
 62
     1
 48
5.0
100
AcDbLine
 10
275.3428154183509
 20
420.7414727594356
 30
0.0
 11
275.3424154183509
 21
196.2904727594358
 31
0.0
  0
ARC
  5
4A8
330
1A
100
AcDbEntity
  8
SEIHIN
  6
CONTINUOUS
 62
     3
 48
5.0
100
AcDbCircle
 10
36.04711576433283
 20
338.74028457872
 30
0.0
 40
299.9999963947863
100
AcDbArc
 50
348.1745181516338
 51
357.8853798146908
  0
ARC
  5
4A9
330
1A
100
AcDbEntity
  8
SEIHIN
  6
CONTINUOUS
 62
     3
 48
5.0
100
AcDbCircle
 10
38.04860471828323
 20
338.7397034373268
 30
0.0
 40
299.999985990511
100
AcDbArc
 50
348.1746311320918
 51
357.8854908067865
  0
ARC
  5
4AA
330
1A
100
AcDbEntity
  8
SEIHIN
  6
CONTINUOUS
 62
     3
 48
5.0
100
AcDbCircle
 10
28.04078298991203
 20
338.7394533431483
 30
0.0
 40
299.9999984765241
100
AcDbArc
 50
347.8642116323006
 51
357.8855386918474
  0
ARC
  5
4AB
330
1A
100
AcDbEntity
  8
SEIHIN
  6
CONTINUOUS
 62
     3
 48
5.0
100
AcDbCircle
 10
26.03930929465417
 20
338.7400686608611
 30
0.0
 40
299.9999948930474
100
AcDbArc
 50
348.2167239705286
 51
357.8854210694755
  0
ARC
  5
4AC
330
1A
100
AcDbEntity
  8
SEIHIN
  6
CONTINUOUS
 62
     3
 48
5.0
100
AcDbCircle
 10
524.6460244282088
 20
338.7390988330648
 30
0.0
 40
299.9999546152305
100
AcDbArc
 50
182.1143556416414
 51
191.7830494040967
  0
ARC
  5
4AD
330
1A
100
AcDbEntity
  8
SEIHIN
  6
CONTINUOUS
 62
     3
 48
5.0
100
AcDbCircle
 10
512.636767887855
 20
338.7387435593262
 30
0.0
 40
299.9999849379982
100
AcDbArc
 50
182.1142875293194
 51
191.8251425863718
  0
ARC
  5
4AE
330
1A
100
AcDbEntity
  8
SEIHIN
  6
CONTINUOUS
 62
     3
 48
5.0
100
AcDbCircle
 10
514.6381977270052
 20
338.7393174744577
 30
0.0
 40
299.9999359988616
100
AcDbArc
 50
182.1143975587946
 51
191.8252565296651
  0
ARC
  5
4AF
330
1A
100
AcDbEntity
  8
SEIHIN
  6
CONTINUOUS
 62
     3
 48
5.0
100
AcDbCircle
 10
522.6444701573639
 20
338.7395348460285
 30
0.0
 40
300.0000163998688
100
AcDbArc
 50
182.1144385350664
 51
192.1357840181699
  0
TEXT
  5
4B2
330
1A
100
AcDbEntity
  8
ZUWAKU
 62
     7
100
AcDbText
 10
50.3519382305086
 20
16.10306189639755
 30
0.0
 40
8.0
  1
丸トップ　たてとい
100
AcDbText
  0
TEXT
  5
4B4
330
1A
100
AcDbEntity
  8
ZUWAKU
 62
     7
100
AcDbText
 10
282.3131429914078
 20
15.64241700452384
 30
0.0
 40
8.0
  1
寄せマス　ＵＴ７５・ＵＴ６０
100
AcDbText
  0
LINE
  5
4B8
330
1A
100
AcDbEntity
  8
SEIHIN
  6
CONTINUOUS
 62
     3
 48
5.0
100
AcDbLine
 10
247.299015418351
 20
323.1741727594358
 30
0.0
 11
252.7523154183509
 21
320.0255727594358
 31
0.0
  0
LINE
  5
4B9
330
1A
100
AcDbEntity
  8
SEIHIN
  6
CONTINUOUS
 62
     3
 48
5.0
100
AcDbLine
 10
252.7523154183509
 20
320.0256727594356
 30
0.0
 11
247.299015418351
 21
323.1741727594358
 31
0.0
  0
LINE
  5
4BA
330
1A
100
AcDbEntity
  8
SEIHIN
  6
CONTINUOUS
 62
     3
 48
5.0
100
AcDbLine
 10
252.7523154183509
 20
317.3274727594358
 30
0.0
 11
247.299015418351
 21
314.1789727594357
 31
0.0
  0
LINE
  5
4BB
330
1A
100
AcDbEntity
  8
SEIHIN
  6
CONTINUOUS
 62
     3
 48
5.0
100
AcDbLine
 10
255.089015418351
 20
313.2794727594356
 30
0.0
 11
250.014815418351
 21
310.3498727594358
 31
0.0
  0
ARC
  5
4BC
330
1A
100
AcDbEntity
  8
SEIHIN
  6
CONTINUOUS
 62
     3
 48
5.0
100
AcDbCircle
 10
258.0263467988477
 20
309.9460378310322
 30
0.0
 40
7.789984220664844
100
AcDbArc
 50
192.0326080894736
 51
261.0088662299443
  0
ARC
  5
4BD
330
1A
100
AcDbEntity
  8
SEIHIN
  6
CONTINUOUS
 62
     3
 48
5.0
100
AcDbCircle
 10
256.6467170883242
 20
308.2130711531707
 30
0.0
 40
8.569000278620743
100
AcDbArc
 50
190.2139900767284
 51
262.0139946682129
  0
ARC
  5
4BE
330
1A
100
AcDbEntity
  8
SEIHIN
  6
CONTINUOUS
 62
     3
 48
5.0
100
AcDbCircle
 10
252.7649577451573
 20
320.0963384476705
 30
0.0
 40
10.12706568832319
100
AcDbArc
 50
191.9406059421637
 51
269.99976052813
  0
LINE
  5
4BF
330
1A
100
AcDbEntity
  8
SEIHIN
  6
CONTINUOUS
 62
     3
 48
5.0
100
AcDbLine
 10
275.342315418351
 20
261.6713727594358
 30
0.0
 11
232.342615418351
 21
261.6714727594356
 31
0.0
  0
LINE
  5
4C0
330
1A
100
AcDbEntity
  8
SEIHIN
  6
CONTINUOUS
 62
     3
 48
5.0
100
AcDbLine
 10
275.3424154183509
 20
273.1713727594358
 30
0.0
 11
227.342615418351
 21
273.1714727594357
 31
0.0
  0
LINE
  5
4C1
330
1A
100
AcDbEntity
  8
SEIHIN
  6
CONTINUOUS
 62
     3
 48
5.0
100
AcDbLine
 10
275.342215418351
 20
231.6713727594357
 30
0.0
 11
241.342515418351
 21
231.6714727594358
 31
0.0
  0
LINE
  5
4C2
330
1A
100
AcDbEntity
  8
SEIHIN
  6
CONTINUOUS
 62
     3
 48
5.0
100
AcDbLine
 10
275.342215418351
 20
234.6713727594357
 30
0.0
 11
239.892515418351
 21
234.6714727594357
 31
0.0
  0
LINE
  5
4C3
330
1A
100
AcDbEntity
  8
SEIHIN
  6
CONTINUOUS
 62
     3
 48
5.0
100
AcDbLine
 10
275.3424154183509
 20
275.6713727594357
 30
0.0
 11
220.9609154183509
 21
275.6715727594357
 31
0.0
  0
LINE
  5
4C4
330
1A
100
AcDbEntity
  8
SEIHIN
  6
CONTINUOUS
 62
     3
 48
5.0
100
AcDbLine
 10
275.3421154183509
 20
202.1713727594358
 30
0.0
 11
246.942515418351
 21
202.1714727594357
 31
0.0
  0
LINE
  5
4C5
330
1A
100
AcDbEntity
  8
SEIHIN
  6
CONTINUOUS
 62
     3
 48
5.0
100
AcDbLine
 10
247.442515418351
 20
201.6713727594357
 30
0.0
 11
275.3421154183509
 21
201.6713727594357
 31
0.0
  0
LINE
  5
4C9
330
1A
100
AcDbEntity
  8
SEIHIN
  6
CONTINUOUS
 62
     3
 48
5.0
100
AcDbLine
 10
246.942515418351
 20
202.1713727594358
 30
0.0
 11
246.942515418351
 21
231.6713727594357
 31
0.0
  0
LINE
  5
4D3
330
1A
100
AcDbEntity
  8
SEIHIN
  6
CONTINUOUS
 62
     3
 48
5.0
100
AcDbLine
 10
246.942515418351
 20
202.1713727594358
 30
0.0
 11
247.442515418351
 21
201.6713727594357
 31
0.0
  0
ARC
  5
4D4
330
1A
100
AcDbEntity
  8
SEIHIN
  6
CONTINUOUS
 62
     3
 48
5.0
100
AcDbCircle
 10
220.9609424625883
 20
277.6715507916943
 30
0.0
 40
1.999978032441515
100
AcDbArc
 50
191.8260609065595
 51
269.9992252311592
  0
ARC
  5
4D5
330
1A
100
AcDbEntity
  8
SEIHIN
  6
CONTINUOUS
 62
     3
 48
5.0
100
AcDbCircle
 10
222.9624822151462
 20
277.6715997303219
 30
0.0
 40
2.000026971161901
100
AcDbArc
 50
191.8271997287601
 51
270.0009511889235
  0
ARC
  5
4D6
330
1A
100
AcDbEntity
  8
SEIHIN
  6
CONTINUOUS
 62
     3
 48
5.0
100
AcDbCircle
 10
229.4991178910074
 20
277.1714758010963
 30
0.0
 40
1.500003041662575
100
AcDbArc
 50
269.9999055516729
 51
11.78252890642516
  0
LINE
  5
4D7
330
1A
100
AcDbEntity
  8
SEIHIN
  6
CONTINUOUS
 62
     3
 48
5.0
100
AcDbLine
 10
239.892515418351
 20
234.6713727594357
 30
0.0
 11
239.892515418351
 21
261.6713727594358
 31
0.0
  0
LINE
  5
4D8
330
1A
100
AcDbEntity
  8
SEIHIN
  6
CONTINUOUS
 62
     3
 48
5.0
100
AcDbLine
 10
241.342515418351
 20
231.6713727594357
 30
0.0
 11
241.342515418351
 21
234.6713727594357
 31
0.0
  0
ARC
  5
4D9
330
1A
100
AcDbEntity
  8
SEIHIN
  6
CONTINUOUS
 62
     3
 48
5.0
100
AcDbCircle
 10
214.3690473697643
 20
260.6939992682375
 30
0.0
 40
18.0000225731765
100
AcDbArc
 50
3.112603318704631
 51
43.88332564661233
  0
LINE
  5
4DA
330
1A
100
AcDbEntity
  8
SEIHIN
  6
CONTINUOUS
 62
     3
 48
5.0
100
AcDbLine
 10
227.3425154183509
 20
273.1716727594357
 30
0.0
 11
227.3425154183509
 21
275.6713727594357
 31
0.0
  0
LINE
  5
4DB
330
1A
100
AcDbEntity
  8
SEIHIN
  6
CONTINUOUS
 62
     3
 48
5.0
100
AcDbLine
 10
214.4596154183509
 20
297.6750727594356
 30
0.0
 11
215.4604154183509
 21
297.6750727594356
 31
0.0
  0
LINE
  5
4DC
330
1A
100
AcDbEntity
  8
SEIHIN
  6
CONTINUOUS
 62
     3
 48
5.0
100
AcDbLine
 10
211.1301154183509
 20
300.1166727594358
 30
0.0
 11
214.4596154183509
 21
297.6750727594356
 31
0.0
  0
LINE
  5
4DD
330
1A
100
AcDbEntity
  8
SEIHIN
  6
CONTINUOUS
 62
     3
 48
5.0
100
AcDbLine
 10
209.980415418351
 20
310.3445727594356
 30
0.0
 11
213.1249154183509
 21
308.8860727594358
 31
0.0
  0
LINE
  5
4DE
330
1A
100
AcDbEntity
  8
SEIHIN
  6
CONTINUOUS
 62
     3
 48
5.0
100
AcDbLine
 10
213.1249154183509
 20
308.8860727594358
 30
0.0
 11
214.1257154183509
 21
308.8860727594358
 31
0.0
  0
LINE
  5
4DF
330
1A
100
AcDbEntity
  8
SEIHIN
  6
CONTINUOUS
 62
     3
 48
5.0
100
AcDbLine
 10
247.299015418351
 20
311.4807727594357
 30
0.0
 11
247.299015418351
 21
317.7770727594356
 31
0.0
  0
ARC
  5
4E0
330
1A
100
AcDbEntity
  8
SEIHIN
  6
CONTINUOUS
 62
     3
 48
5.0
100
AcDbCircle
 10
251.0385974146128
 20
319.2098877752483
 30
0.0
 40
10.90598352030482
100
AcDbArc
 50
193.6581613509688
 51
266.6832147607509
  0
ARC
  5
4E1
330
1A
100
AcDbEntity
  8
SEIHIN
  6
CONTINUOUS
 62
     3
 48
5.0
100
AcDbCircle
 10
249.3471089202822
 20
318.3234782217516
 30
0.0
 40
11.68502183523956
100
AcDbArc
 50
195.4660081197822
 51
264.4328357195647
  0
LINE
  5
4E2
330
1A
100
AcDbEntity
  8
SEIHIN
  6
CONTINUOUS
 62
     3
 48
5.0
100
AcDbLine
 10
248.077715418351
 20
306.6384727594356
 30
0.0
 11
248.156515418351
 21
306.6992727594358
 31
0.0
  0
LINE
  5
4E3
330
1A
100
AcDbEntity
  8
SEIHIN
  6
CONTINUOUS
 62
     3
 48
5.0
100
AcDbLine
 10
242.625515418351
 20
323.1741727594358
 30
0.0
 11
242.093315418351
 21
322.8668727594357
 31
0.0
  0
LINE
  5
4E4
330
1A
100
AcDbEntity
  8
SEIHIN
  6
CONTINUOUS
 62
     3
 48
5.0
100
AcDbLine
 10
244.962315418351
 20
319.1261727594357
 30
0.0
 11
242.874415418351
 21
317.9206727594356
 31
0.0
  0
LINE
  5
4E5
330
1A
100
AcDbEntity
  8
SEIHIN
  6
CONTINUOUS
 62
     3
 48
5.0
100
AcDbLine
 10
250.4150154183509
 20
315.9779727594356
 30
0.0
 11
244.962315418351
 21
319.1261727594357
 31
0.0
  0
LINE
  5
4E6
330
1A
100
AcDbEntity
  8
SEIHIN
  6
CONTINUOUS
 62
     3
 48
5.0
100
AcDbLine
 10
244.962315418351
 20
319.1261727594357
 30
0.0
 11
250.4150154183509
 21
315.9779727594356
 31
0.0
  0
LINE
  5
4EA
330
1A
100
AcDbEntity
  8
SEIHIN
  6
CONTINUOUS
 62
     3
 48
5.0
100
AcDbLine
 10
303.742415418351
 20
202.1712727594357
 30
0.0
 11
303.7425154183509
 21
231.6712727594357
 31
0.0
  0
LINE
  5
4F6
330
1A
100
AcDbEntity
  8
SEIHIN
  6
CONTINUOUS
 62
     3
 48
5.0
100
AcDbLine
 10
303.242415418351
 20
201.6712727594358
 30
0.0
 11
275.342715418351
 21
201.6713727594357
 31
0.0
  0
LINE
  5
4F7
330
1A
100
AcDbEntity
  8
SEIHIN
  6
CONTINUOUS
 62
     3
 48
5.0
100
AcDbLine
 10
275.342715418351
 20
202.1713727594358
 30
0.0
 11
303.742415418351
 21
202.1713727594358
 31
0.0
  0
LINE
  5
4F8
330
1A
100
AcDbEntity
  8
SEIHIN
  6
CONTINUOUS
 62
     3
 48
5.0
100
AcDbLine
 10
303.742415418351
 20
202.1712727594357
 30
0.0
 11
303.242415418351
 21
201.6712727594358
 31
0.0
  0
LINE
  5
4FE
330
1A
100
AcDbEntity
  8
SEIHIN
  6
CONTINUOUS
 62
     3
 48
5.0
100
AcDbLine
 10
275.342715418351
 20
273.1713727594358
 30
0.0
 11
323.3424154183508
 21
273.1713727594358
 31
0.0
  0
LINE
  5
4FF
330
1A
100
AcDbEntity
  8
SEIHIN
  6
CONTINUOUS
 62
     3
 48
5.0
100
AcDbLine
 10
275.342715418351
 20
261.6713727594358
 30
0.0
 11
318.3424154183508
 21
261.6713727594358
 31
0.0
  0
LINE
  5
500
330
1A
100
AcDbEntity
  8
SEIHIN
  6
CONTINUOUS
 62
     3
 48
5.0
100
AcDbLine
 10
275.3428154183509
 20
275.6713727594357
 30
0.0
 11
329.7242154183508
 21
275.6713727594357
 31
0.0
  0
LINE
  5
503
330
1A
100
AcDbEntity
  8
SEIHIN
  6
CONTINUOUS
 62
     3
 48
5.0
100
AcDbLine
 10
275.342715418351
 20
231.6713727594357
 30
0.0
 11
309.342515418351
 21
231.6713727594357
 31
0.0
  0
LINE
  5
504
330
1A
100
AcDbEntity
  8
SEIHIN
  6
CONTINUOUS
 62
     3
 48
5.0
100
AcDbLine
 10
275.342715418351
 20
234.6713727594357
 30
0.0
 11
310.792415418351
 21
234.6713727594357
 31
0.0
  0
LINE
  5
505
330
1A
100
AcDbEntity
  8
SEIHIN
  6
CONTINUOUS
 62
     3
 48
5.0
100
AcDbLine
 10
310.792515418351
 20
234.6712727594357
 30
0.0
 11
310.792615418351
 21
261.6712727594357
 31
0.0
  0
LINE
  5
506
330
1A
100
AcDbEntity
  8
SEIHIN
  6
CONTINUOUS
 62
     3
 48
5.0
100
AcDbLine
 10
309.342515418351
 20
231.6712727594357
 30
0.0
 11
309.342515418351
 21
234.6712727594357
 31
0.0
  0
LINE
  5
507
330
1A
100
AcDbEntity
  8
SEIHIN
  6
CONTINUOUS
 62
     3
 48
5.0
100
AcDbLine
 10
280.0168154183511
 20
315.9779727594356
 30
0.0
 11
285.469515418351
 21
319.1260727594356
 31
0.0
  0
LINE
  5
508
330
1A
100
AcDbEntity
  8
SEIHIN
  6
CONTINUOUS
 62
     3
 48
5.0
100
AcDbLine
 10
285.469515418351
 20
319.1260727594356
 30
0.0
 11
280.0168154183511
 21
315.9779727594356
 31
0.0
  0
LINE
  5
509
330
1A
100
AcDbEntity
  8
SEIHIN
  6
CONTINUOUS
 62
     3
 48
5.0
100
AcDbLine
 10
280.0168154183511
 20
304.2845727594356
 30
0.0
 11
285.469515418351
 21
307.4327727594358
 31
0.0
  0
LINE
  5
50A
330
1A
100
AcDbEntity
  8
SEIHIN
  6
CONTINUOUS
 62
     3
 48
5.0
100
AcDbLine
 10
285.469515418351
 20
307.4327727594358
 30
0.0
 11
280.0168154183511
 21
304.2845727594356
 31
0.0
  0
ARC
  5
50B
330
1A
100
AcDbEntity
  8
SEIHIN
  6
CONTINUOUS
 62
     3
 48
5.0
100
AcDbCircle
 10
306.0513079237314
 20
222.5824427442168
 30
0.0
 40
77.90003822371996
100
AcDbArc
 50
97.98566746912698
 51
113.2163274913957
  0
ARC
  5
50C
330
1A
100
AcDbEntity
  8
SEIHIN
  6
CONTINUOUS
 62
     3
 48
5.0
100
AcDbCircle
 10
306.0516196704938
 20
225.3090317294997
 30
0.0
 40
77.89998743449091
100
AcDbArc
 50
98.99185441047842
 51
113.2165930093318
  0
ARC
  5
50D
330
1A
100
AcDbEntity
  8
SEIHIN
  6
CONTINUOUS
 62
     3
 48
5.0
100
AcDbCircle
 10
306.0511232549666
 20
228.0353855638791
 30
0.0
 40
77.89997855677187
100
AcDbArc
 50
100.0186856385647
 51
113.2161184920291
  0
ARC
  5
50E
330
1A
100
AcDbEntity
  8
SEIHIN
  6
CONTINUOUS
 62
     3
 48
5.0
100
AcDbCircle
 10
244.6336162329466
 20
228.0355725163198
 30
0.0
 40
77.89996101398276
100
AcDbArc
 50
66.78356277274621
 51
79.98101978581482
  0
ARC
  5
50F
330
1A
100
AcDbEntity
  8
SEIHIN
  6
CONTINUOUS
 62
     3
 48
5.0
100
AcDbCircle
 10
244.6334111662084
 20
225.3091317294999
 30
0.0
 40
77.89998743449074
100
AcDbArc
 50
66.78340699066833
 51
81.00814558952173
  0
ARC
  5
510
330
1A
100
AcDbEntity
  8
SEIHIN
  6
CONTINUOUS
 62
     3
 48
5.0
100
AcDbCircle
 10
244.6333889439562
 20
222.5826359968813
 30
0.0
 40
77.89999227287116
100
AcDbArc
 50
66.78339073237703
 51
82.01407974861382
  0
LINE
  5
511
330
1A
100
AcDbEntity
  8
SEIHIN
  6
CONTINUOUS
 62
     3
 48
5.0
100
AcDbLine
 10
270.6685154183511
 20
315.9779727594356
 30
0.0
 11
265.2158154183509
 21
319.1261727594357
 31
0.0
  0
LINE
  5
512
330
1A
100
AcDbEntity
  8
SEIHIN
  6
CONTINUOUS
 62
     3
 48
5.0
100
AcDbLine
 10
265.2158154183509
 20
319.1261727594357
 30
0.0
 11
270.6685154183511
 21
315.9779727594356
 31
0.0
  0
LINE
  5
513
330
1A
100
AcDbEntity
  8
SEIHIN
  6
CONTINUOUS
 62
     3
 48
5.0
100
AcDbLine
 10
270.668415418351
 20
304.2846727594358
 30
0.0
 11
265.215715418351
 21
307.4327727594358
 31
0.0
  0
LINE
  5
514
330
1A
100
AcDbEntity
  8
SEIHIN
  6
CONTINUOUS
 62
     3
 48
5.0
100
AcDbLine
 10
265.215715418351
 20
307.4327727594358
 30
0.0
 11
270.668415418351
 21
304.2846727594358
 31
0.0
  0
LINE
  5
515
330
1A
100
AcDbEntity
  8
SEIHIN
  6
CONTINUOUS
 62
     3
 48
5.0
100
AcDbLine
 10
262.8790154183509
 20
311.4806727594356
 30
0.0
 11
262.8790154183509
 21
317.7770727594356
 31
0.0
  0
LINE
  5
516
330
1A
100
AcDbEntity
  8
SEIHIN
  6
CONTINUOUS
 62
     3
 48
5.0
100
AcDbLine
 10
260.5417154183509
 20
310.1312727594357
 30
0.0
 11
255.089015418351
 21
313.2794727594356
 31
0.0
  0
LINE
  5
517
330
1A
100
AcDbEntity
  8
SEIHIN
  6
CONTINUOUS
 62
     3
 48
5.0
100
AcDbLine
 10
255.089015418351
 20
313.2794727594356
 30
0.0
 11
260.5417154183509
 21
310.1312727594357
 31
0.0
  0
LINE
  5
518
330
1A
100
AcDbEntity
  8
SEIHIN
  6
CONTINUOUS
 62
     3
 48
5.0
100
AcDbLine
 10
257.425715418351
 20
305.6339727594356
 30
0.0
 11
259.324315418351
 21
304.5378727594357
 31
0.0
  0
LINE
  5
519
330
1A
100
AcDbEntity
  8
SEIHIN
  6
CONTINUOUS
 62
     3
 48
5.0
100
AcDbLine
 10
262.8790154183509
 20
311.4806727594356
 30
0.0
 11
257.425715418351
 21
308.3322727594357
 31
0.0
  0
LINE
  5
51A
330
1A
100
AcDbEntity
  8
SEIHIN
  6
CONTINUOUS
 62
     3
 48
5.0
100
AcDbLine
 10
252.752215418351
 20
309.4427727594358
 30
0.0
 11
252.7523154183509
 21
311.9303727594356
 31
0.0
  0
LINE
  5
51B
330
1A
100
AcDbEntity
  8
SEIHIN
  6
CONTINUOUS
 62
     3
 48
5.0
100
AcDbLine
 10
257.425715418351
 20
305.6339727594356
 30
0.0
 11
257.4258154183509
 21
311.9302727594358
 31
0.0
  0
ARC
  5
51C
330
1A
100
AcDbEntity
  8
SEIHIN
  6
CONTINUOUS
 62
     3
 48
5.0
100
AcDbCircle
 10
259.406218362513
 20
311.6516700069408
 30
0.0
 40
7.011008064109293
100
AcDbArc
 50
193.8726952959593
 51
259.9812936126135
  0
LINE
  5
51D
330
1A
100
AcDbEntity
  8
SEIHIN
  6
CONTINUOUS
 62
     3
 48
5.0
100
AcDbLine
 10
265.215715418351
 20
307.4327727594358
 30
0.0
 11
259.762915418351
 21
304.2846727594358
 31
0.0
  0
LINE
  5
51E
330
1A
100
AcDbEntity
  8
SEIHIN
  6
CONTINUOUS
 62
     3
 48
5.0
100
AcDbLine
 10
262.8790154183509
 20
323.1740727594356
 30
0.0
 11
257.4258154183509
 21
320.0256727594356
 31
0.0
  0
LINE
  5
51F
330
1A
100
AcDbEntity
  8
SEIHIN
  6
CONTINUOUS
 62
     3
 48
5.0
100
AcDbLine
 10
257.4258154183509
 20
317.3273727594356
 30
0.0
 11
262.8790154183509
 21
314.1788727594358
 31
0.0
  0
LINE
  5
520
330
1A
100
AcDbEntity
  8
SEIHIN
  6
CONTINUOUS
 62
     3
 48
5.0
100
AcDbLine
 10
262.8790154183509
 20
314.1789727594357
 30
0.0
 11
257.4258154183509
 21
317.3273727594356
 31
0.0
  0
LINE
  5
521
330
1A
100
AcDbEntity
  8
SEIHIN
  6
CONTINUOUS
 62
     3
 48
5.0
100
AcDbLine
 10
252.7523154183509
 20
317.3274727594358
 30
0.0
 11
252.7523154183509
 21
323.6237727594356
 31
0.0
  0
LINE
  5
522
330
1A
100
AcDbEntity
  8
SEIHIN
  6
CONTINUOUS
 62
     3
 48
5.0
100
AcDbLine
 10
257.4258154183509
 20
317.3273727594356
 30
0.0
 11
257.4258154183509
 21
323.6237727594356
 31
0.0
  0
LINE
  5
523
330
1A
100
AcDbEntity
  8
SEIHIN
  6
CONTINUOUS
 62
     3
 48
5.0
100
AcDbLine
 10
265.2158154183509
 20
319.1261727594357
 30
0.0
 11
259.762915418351
 21
315.9779727594356
 31
0.0
  0
LINE
  5
524
330
1A
100
AcDbEntity
  8
SEIHIN
  6
CONTINUOUS
 62
     3
 48
5.0
100
AcDbLine
 10
283.1328154183509
 20
311.4806727594356
 30
0.0
 11
283.1328154183509
 21
317.7769727594358
 31
0.0
  0
LINE
  5
525
330
1A
100
AcDbEntity
  8
SEIHIN
  6
CONTINUOUS
 62
     3
 48
5.0
100
AcDbLine
 10
275.3425154183509
 20
313.2794727594356
 30
0.0
 11
269.8897154183509
 21
310.1312727594357
 31
0.0
  0
LINE
  5
526
330
1A
100
AcDbEntity
  8
SEIHIN
  6
CONTINUOUS
 62
     3
 48
5.0
100
AcDbLine
 10
267.5525154183509
 20
311.4806727594356
 30
0.0
 11
267.5525154183509
 21
317.7770727594356
 31
0.0
  0
LINE
  5
527
330
1A
100
AcDbEntity
  8
SEIHIN
  6
CONTINUOUS
 62
     3
 48
5.0
100
AcDbLine
 10
275.3428154183509
 20
313.2794727594356
 30
0.0
 11
280.795615418351
 21
310.1312727594357
 31
0.0
  0
LINE
  5
528
330
1A
100
AcDbEntity
  8
SEIHIN
  6
CONTINUOUS
 62
     3
 48
5.0
100
AcDbLine
 10
275.3428154183509
 20
301.5860727594358
 30
0.0
 11
277.321015418351
 21
300.4438727594358
 31
0.0
  0
LINE
  5
529
330
1A
100
AcDbEntity
  8
SEIHIN
  6
CONTINUOUS
 62
     3
 48
5.0
100
AcDbLine
 10
275.3424154183509
 20
301.5860727594358
 30
0.0
 11
273.364215418351
 21
300.4439727594357
 31
0.0
  0
LINE
  5
52A
330
1A
100
AcDbEntity
  8
SEIHIN
  6
CONTINUOUS
 62
     3
 48
5.0
100
AcDbLine
 10
273.005715418351
 20
305.6339727594356
 30
0.0
 11
267.5525154183509
 21
302.4855727594356
 31
0.0
  0
LINE
  5
52B
330
1A
100
AcDbEntity
  8
SEIHIN
  6
CONTINUOUS
 62
     3
 48
5.0
100
AcDbLine
 10
267.5525154183509
 20
311.4806727594356
 30
0.0
 11
273.005715418351
 21
308.3322727594357
 31
0.0
  0
LINE
  5
52C
330
1A
100
AcDbEntity
  8
SEIHIN
  6
CONTINUOUS
 62
     3
 48
5.0
100
AcDbLine
 10
273.005715418351
 20
308.3322727594357
 30
0.0
 11
267.5525154183509
 21
311.4807727594357
 31
0.0
  0
LINE
  5
52D
330
1A
100
AcDbEntity
  8
SEIHIN
  6
CONTINUOUS
 62
     3
 48
5.0
100
AcDbLine
 10
273.005715418351
 20
305.6339727594356
 30
0.0
 11
273.005815418351
 21
311.9303727594356
 31
0.0
  0
LINE
  5
52E
330
1A
100
AcDbEntity
  8
SEIHIN
  6
CONTINUOUS
 62
     3
 48
5.0
100
AcDbLine
 10
277.6795154183509
 20
305.6339727594356
 30
0.0
 11
283.1328154183509
 21
302.4855727594356
 31
0.0
  0
LINE
  5
52F
330
1A
100
AcDbEntity
  8
SEIHIN
  6
CONTINUOUS
 62
     3
 48
5.0
100
AcDbLine
 10
283.1328154183509
 20
311.4806727594356
 30
0.0
 11
277.6795154183509
 21
308.3321727594358
 31
0.0
  0
LINE
  5
530
330
1A
100
AcDbEntity
  8
SEIHIN
  6
CONTINUOUS
 62
     3
 48
5.0
100
AcDbLine
 10
277.6795154183509
 20
308.3322727594357
 30
0.0
 11
283.1328154183509
 21
311.4806727594356
 31
0.0
  0
LINE
  5
531
330
1A
100
AcDbEntity
  8
SEIHIN
  6
CONTINUOUS
 62
     3
 48
5.0
100
AcDbLine
 10
277.6795154183509
 20
305.6339727594356
 30
0.0
 11
277.6795154183509
 21
311.9302727594358
 31
0.0
  0
LINE
  5
532
330
1A
100
AcDbEntity
  8
SEIHIN
  6
CONTINUOUS
 62
     3
 48
5.0
100
AcDbLine
 10
267.5525154183509
 20
323.1740727594356
 30
0.0
 11
273.005815418351
 21
320.0256727594356
 31
0.0
  0
LINE
  5
533
330
1A
100
AcDbEntity
  8
SEIHIN
  6
CONTINUOUS
 62
     3
 48
5.0
100
AcDbLine
 10
273.005815418351
 20
320.0256727594356
 30
0.0
 11
267.5525154183509
 21
323.1740727594356
 31
0.0
  0
LINE
  5
534
330
1A
100
AcDbEntity
  8
SEIHIN
  6
CONTINUOUS
 62
     3
 48
5.0
100
AcDbLine
 10
273.005815418351
 20
317.3274727594358
 30
0.0
 11
267.5525154183509
 21
314.1789727594357
 31
0.0
  0
LINE
  5
535
330
1A
100
AcDbEntity
  8
SEIHIN
  6
CONTINUOUS
 62
     3
 48
5.0
100
AcDbLine
 10
273.005815418351
 20
317.3274727594358
 30
0.0
 11
273.005815418351
 21
323.6237727594356
 31
0.0
  0
LINE
  5
536
330
1A
100
AcDbEntity
  8
SEIHIN
  6
CONTINUOUS
 62
     3
 48
5.0
100
AcDbLine
 10
283.1328154183509
 20
323.1740727594356
 30
0.0
 11
277.6795154183509
 21
320.0255727594358
 31
0.0
  0
LINE
  5
537
330
1A
100
AcDbEntity
  8
SEIHIN
  6
CONTINUOUS
 62
     3
 48
5.0
100
AcDbLine
 10
277.6795154183509
 20
320.0256727594356
 30
0.0
 11
283.1328154183509
 21
323.1740727594356
 31
0.0
  0
LINE
  5
538
330
1A
100
AcDbEntity
  8
SEIHIN
  6
CONTINUOUS
 62
     3
 48
5.0
100
AcDbLine
 10
277.6795154183509
 20
317.3273727594356
 30
0.0
 11
283.1328154183509
 21
314.1788727594358
 31
0.0
  0
LINE
  5
539
330
1A
100
AcDbEntity
  8
SEIHIN
  6
CONTINUOUS
 62
     3
 48
5.0
100
AcDbLine
 10
277.6795154183509
 20
317.3273727594356
 30
0.0
 11
277.6795154183509
 21
323.6236727594357
 31
0.0
  0
ARC
  5
53A
330
1A
100
AcDbEntity
  8
SEIHIN
  6
CONTINUOUS
 62
     3
 48
5.0
100
AcDbCircle
 10
294.0385137483777
 20
308.2129711531705
 30
0.0
 40
8.569000278620672
100
AcDbArc
 50
277.9860053317884
 51
349.7860099232724
  0
LINE
  5
53B
330
1A
100
AcDbEntity
  8
SEIHIN
  6
CONTINUOUS
 62
     3
 48
5.0
100
AcDbLine
 10
303.386315418351
 20
323.1740727594356
 30
0.0
 11
297.933015418351
 21
320.0255727594358
 31
0.0
  0
LINE
  5
53C
330
1A
100
AcDbEntity
  8
SEIHIN
  6
CONTINUOUS
 62
     3
 48
5.0
100
AcDbLine
 10
297.933015418351
 20
320.0255727594358
 30
0.0
 11
303.386315418351
 21
323.1740727594356
 31
0.0
  0
LINE
  5
53D
330
1A
100
AcDbEntity
  8
SEIHIN
  6
CONTINUOUS
 62
     3
 48
5.0
100
AcDbLine
 10
300.270315418351
 20
315.9779727594356
 30
0.0
 11
305.723015418351
 21
319.1260727594356
 31
0.0
  0
LINE
  5
53E
330
1A
100
AcDbEntity
  8
SEIHIN
  6
CONTINUOUS
 62
     3
 48
5.0
100
AcDbLine
 10
305.723015418351
 20
319.1260727594356
 30
0.0
 11
300.270315418351
 21
315.9779727594356
 31
0.0
  0
LINE
  5
53F
330
1A
100
AcDbEntity
  8
SEIHIN
  6
CONTINUOUS
 62
     3
 48
5.0
100
AcDbLine
 10
297.933015418351
 20
317.3272727594357
 30
0.0
 11
303.386315418351
 21
314.1788727594358
 31
0.0
  0
LINE
  5
540
330
1A
100
AcDbEntity
  8
SEIHIN
  6
CONTINUOUS
 62
     3
 48
5.0
100
AcDbLine
 10
295.596315418351
 20
313.2793727594356
 30
0.0
 11
300.670515418351
 21
310.3497727594356
 31
0.0
  0
ARC
  5
541
330
1A
100
AcDbEntity
  8
SEIHIN
  6
CONTINUOUS
 62
     3
 48
5.0
100
AcDbCircle
 10
292.6588341088875
 20
309.9459904833373
 30
0.0
 40
7.790044029094957
100
AcDbArc
 50
278.9914359640771
 51
347.9670897165044
  0
ARC
  5
542
330
1A
100
AcDbEntity
  8
SEIHIN
  6
CONTINUOUS
 62
     3
 48
5.0
100
AcDbCircle
 10
297.9203220098579
 20
320.0961781028219
 30
0.0
 40
10.12700534338827
100
AcDbArc
 50
269.999962707087
 51
348.0596708226197
  0
ARC
  5
543
330
1A
100
AcDbEntity
  8
SEIHIN
  6
CONTINUOUS
 62
     3
 48
5.0
100
AcDbCircle
 10
299.6467371555756
 20
319.2097908889518
 30
0.0
 40
10.90598062762968
100
AcDbArc
 50
273.3162402303208
 51
346.3418181219306
  0
LINE
  5
544
330
1A
100
AcDbEntity
  8
SEIHIN
  6
CONTINUOUS
 62
     3
 48
5.0
100
AcDbLine
 10
287.8063154183509
 20
311.4806727594356
 30
0.0
 11
287.8063154183509
 21
317.7769727594358
 31
0.0
  0
LINE
  5
545
330
1A
100
AcDbEntity
  8
SEIHIN
  6
CONTINUOUS
 62
     3
 48
5.0
100
AcDbLine
 10
290.143515418351
 20
310.1312727594357
 30
0.0
 11
295.596315418351
 21
313.2793727594356
 31
0.0
  0
LINE
  5
546
330
1A
100
AcDbEntity
  8
SEIHIN
  6
CONTINUOUS
 62
     3
 48
5.0
100
AcDbLine
 10
295.596315418351
 20
313.2793727594356
 30
0.0
 11
290.143515418351
 21
310.1312727594357
 31
0.0
  0
LINE
  5
547
330
1A
100
AcDbEntity
  8
SEIHIN
  6
CONTINUOUS
 62
     3
 48
5.0
100
AcDbLine
 10
293.2595154183508
 20
305.6339727594356
 30
0.0
 11
291.3609154183509
 21
304.5377727594356
 31
0.0
  0
LINE
  5
548
330
1A
100
AcDbEntity
  8
SEIHIN
  6
CONTINUOUS
 62
     3
 48
5.0
100
AcDbLine
 10
287.8063154183509
 20
311.4806727594356
 30
0.0
 11
293.2595154183508
 21
308.3321727594358
 31
0.0
  0
LINE
  5
549
330
1A
100
AcDbEntity
  8
SEIHIN
  6
CONTINUOUS
 62
     3
 48
5.0
100
AcDbLine
 10
285.469515418351
 20
307.4327727594358
 30
0.0
 11
290.9223154183509
 21
304.2845727594356
 31
0.0
  0
LINE
  5
54A
330
1A
100
AcDbEntity
  8
SEIHIN
  6
CONTINUOUS
 62
     3
 48
5.0
100
AcDbLine
 10
297.933015418351
 20
309.4426727594358
 30
0.0
 11
297.933015418351
 21
311.9302727594358
 31
0.0
  0
LINE
  5
54B
330
1A
100
AcDbEntity
  8
SEIHIN
  6
CONTINUOUS
 62
     3
 48
5.0
100
AcDbLine
 10
293.2595154183508
 20
305.6339727594356
 30
0.0
 11
293.2595154183508
 21
311.9302727594358
 31
0.0
  0
ARC
  5
54C
330
1A
100
AcDbEntity
  8
SEIHIN
  6
CONTINUOUS
 62
     3
 48
5.0
100
AcDbCircle
 10
291.2790168801912
 20
311.6516741261094
 30
0.0
 40
7.011028751545925
100
AcDbArc
 50
280.0194698349891
 51
346.1264700040767
  0
LINE
  5
54D
330
1A
100
AcDbEntity
  8
SEIHIN
  6
CONTINUOUS
 62
     3
 48
5.0
100
AcDbLine
 10
287.8063154183509
 20
323.1740727594356
 30
0.0
 11
293.2595154183508
 21
320.0255727594358
 31
0.0
  0
LINE
  5
54E
330
1A
100
AcDbEntity
  8
SEIHIN
  6
CONTINUOUS
 62
     3
 48
5.0
100
AcDbLine
 10
293.2595154183508
 20
317.3272727594357
 30
0.0
 11
287.8063154183509
 21
314.1788727594358
 31
0.0
  0
LINE
  5
54F
330
1A
100
AcDbEntity
  8
SEIHIN
  6
CONTINUOUS
 62
     3
 48
5.0
100
AcDbLine
 10
287.8063154183509
 20
314.1788727594358
 30
0.0
 11
293.2595154183508
 21
317.3272727594357
 31
0.0
  0
LINE
  5
550
330
1A
100
AcDbEntity
  8
SEIHIN
  6
CONTINUOUS
 62
     3
 48
5.0
100
AcDbLine
 10
285.469515418351
 20
319.1260727594356
 30
0.0
 11
290.9223154183509
 21
315.9779727594356
 31
0.0
  0
LINE
  5
551
330
1A
100
AcDbEntity
  8
SEIHIN
  6
CONTINUOUS
 62
     3
 48
5.0
100
AcDbLine
 10
297.933015418351
 20
317.3272727594357
 30
0.0
 11
297.933015418351
 21
323.6236727594357
 31
0.0
  0
LINE
  5
552
330
1A
100
AcDbEntity
  8
SEIHIN
  6
CONTINUOUS
 62
     3
 48
5.0
100
AcDbLine
 10
293.2595154183508
 20
317.3272727594357
 30
0.0
 11
293.2595154183508
 21
323.6236727594357
 31
0.0
  0
LINE
  5
553
330
1A
100
AcDbEntity
  8
SEIHIN
  6
CONTINUOUS
 62
     3
 48
5.0
100
AcDbLine
 10
303.386315418351
 20
311.4805727594356
 30
0.0
 11
303.386315418351
 21
317.7769727594358
 31
0.0
  0
ARC
  5
554
330
1A
100
AcDbEntity
  8
SEIHIN
  6
CONTINUOUS
 62
     3
 48
5.0
100
AcDbCircle
 10
301.338212576601
 20
318.3232703706477
 30
0.0
 40
11.68490569795088
100
AcDbArc
 50
275.5667731378758
 51
344.5343830227755
  0
LINE
  5
555
330
1A
100
AcDbEntity
  8
SEIHIN
  6
CONTINUOUS
 62
     3
 48
5.0
100
AcDbLine
 10
302.6075154183509
 20
306.6383727594358
 30
0.0
 11
302.5287154183509
 21
306.6991727594356
 31
0.0
  0
LINE
  5
556
330
1A
100
AcDbEntity
  8
SEIHIN
  6
CONTINUOUS
 62
     3
 48
5.0
100
AcDbLine
 10
308.0597154183509
 20
323.1740727594356
 30
0.0
 11
308.5919154183508
 21
322.8666727594356
 31
0.0
  0
LINE
  5
557
330
1A
100
AcDbEntity
  8
SEIHIN
  6
CONTINUOUS
 62
     3
 48
5.0
100
AcDbLine
 10
305.723015418351
 20
319.1260727594356
 30
0.0
 11
307.8109154183509
 21
317.9205727594358
 31
0.0
  0
ARC
  5
55A
330
1A
100
AcDbEntity
  8
SEIHIN
  6
CONTINUOUS
 62
     3
 48
5.0
100
AcDbCircle
 10
327.7226360068916
 20
277.6713894842959
 30
0.0
 40
2.000016724966141
100
AcDbArc
 50
269.999410186687
 51
348.1759655797806
  0
ARC
  5
55B
330
1A
100
AcDbEntity
  8
SEIHIN
  6
CONTINUOUS
 62
     3
 48
5.0
100
AcDbCircle
 10
329.7241757617125
 20
277.6713405451669
 30
0.0
 40
1.999967786124401
100
AcDbArc
 50
270.0011360973022
 51
348.1771044860423
  0
ARC
  5
55C
330
1A
100
AcDbEntity
  8
SEIHIN
  6
CONTINUOUS
 62
     3
 48
5.0
100
AcDbCircle
 10
321.1860129456945
 20
277.1713758010962
 30
0.0
 40
1.500003041662631
100
AcDbArc
 50
168.2174710935751
 51
270.000094448327
  0
ARC
  5
561
330
1A
100
AcDbEntity
  8
SEIHIN
  6
CONTINUOUS
 62
     3
 48
5.0
100
AcDbCircle
 10
336.3160437209661
 20
260.6940378585284
 30
0.0
 40
17.99996993230324
100
AcDbArc
 50
136.1171252622728
 51
176.8881481490572
  0
LINE
  5
562
330
1A
100
AcDbEntity
  8
SEIHIN
  6
CONTINUOUS
 62
     3
 48
5.0
100
AcDbLine
 10
323.342615418351
 20
273.1715727594357
 30
0.0
 11
323.342615418351
 21
275.6711727594358
 31
0.0
  0
LINE
  5
56F
330
1A
100
AcDbEntity
  8
SEIHIN
  6
CONTINUOUS
 62
     3
 48
5.0
100
AcDbLine
 10
336.225515418351
 20
297.6748727594358
 30
0.0
 11
335.2248154183509
 21
297.6748727594358
 31
0.0
  0
LINE
  5
570
330
1A
100
AcDbEntity
  8
SEIHIN
  6
CONTINUOUS
 62
     3
 48
5.0
100
AcDbLine
 10
339.555115418351
 20
300.1164727594357
 30
0.0
 11
336.225515418351
 21
297.6748727594358
 31
0.0
  0
LINE
  5
571
330
1A
100
AcDbEntity
  8
SEIHIN
  6
CONTINUOUS
 62
     3
 48
5.0
100
AcDbLine
 10
337.5603154183509
 20
308.8858727594358
 30
0.0
 11
336.5595154183509
 21
308.8858727594358
 31
0.0
  0
LINE
  5
572
330
1A
100
AcDbEntity
  8
SEIHIN
  6
CONTINUOUS
 62
     3
 48
5.0
100
AcDbLine
 10
340.704915418351
 20
310.3443727594356
 30
0.0
 11
337.5603154183509
 21
308.8858727594358
 31
0.0
  0
LINE
  5
573
330
1A
100
AcDbEntity
  8
SEIHIN
  6
CONTINUOUS
 62
     3
 48
5.0
100
AcDbLine
 10
252.7524154183509
 20
343.4124727594357
 30
0.0
 11
250.014815418351
 21
344.9930727594357
 31
0.0
  0
LINE
  5
574
330
1A
100
AcDbEntity
  8
SEIHIN
  6
CONTINUOUS
 62
     3
 48
5.0
100
AcDbLine
 10
250.014715418351
 20
344.9929727594358
 30
0.0
 11
252.7524154183509
 21
343.4124727594357
 31
0.0
  0
LINE
  5
575
330
1A
100
AcDbEntity
  8
SEIHIN
  6
CONTINUOUS
 62
     3
 48
5.0
100
AcDbLine
 10
252.7523154183509
 20
340.7141727594356
 30
0.0
 11
247.299015418351
 21
337.5657727594356
 31
0.0
  0
LINE
  5
576
330
1A
100
AcDbEntity
  8
SEIHIN
  6
CONTINUOUS
 62
     3
 48
5.0
100
AcDbLine
 10
247.299015418351
 20
334.8674727594356
 30
0.0
 11
252.7523154183509
 21
331.7190727594358
 31
0.0
  0
LINE
  5
577
330
1A
100
AcDbEntity
  8
SEIHIN
  6
CONTINUOUS
 62
     3
 48
5.0
100
AcDbLine
 10
252.7523154183509
 20
331.7190727594358
 30
0.0
 11
247.299015418351
 21
334.8674727594356
 31
0.0
  0
LINE
  5
578
330
1A
100
AcDbEntity
  8
SEIHIN
  6
CONTINUOUS
 62
     3
 48
5.0
100
AcDbLine
 10
255.089015418351
 20
336.6661727594358
 30
0.0
 11
249.636315418351
 21
333.5180727594356
 31
0.0
  0
ARC
  5
579
330
1A
100
AcDbEntity
  8
SEIHIN
  6
CONTINUOUS
 62
     3
 48
5.0
100
AcDbCircle
 10
252.7649960654301
 20
335.2465570712009
 30
0.0
 40
10.12701568825322
100
AcDbArc
 50
89.99989050666854
 51
168.059045092635
  0
ARC
  5
57A
330
1A
100
AcDbEntity
  8
SEIHIN
  6
CONTINUOUS
 62
     3
 48
5.0
100
AcDbCircle
 10
258.0266100852036
 20
345.3967677020439
 30
0.0
 40
7.790033605833746
100
AcDbArc
 50
98.99154756061111
 51
167.9679206537114
  0
ARC
  5
57B
330
1A
100
AcDbEntity
  8
SEIHIN
  6
CONTINUOUS
 62
     3
 48
5.0
100
AcDbCircle
 10
256.6469170883241
 20
347.1297743657008
 30
0.0
 40
8.569000278620556
100
AcDbArc
 50
97.98600533178705
 51
169.7860099232713
  0
LINE
  5
57C
330
1A
100
AcDbEntity
  8
SEIHIN
  6
CONTINUOUS
 62
     3
 48
5.0
100
AcDbLine
 10
252.7523154183509
 20
329.0208727594357
 30
0.0
 11
247.299015418351
 21
325.8723727594357
 31
0.0
  0
LINE
  5
57D
330
1A
100
AcDbEntity
  8
SEIHIN
  6
CONTINUOUS
 62
     3
 48
5.0
100
AcDbLine
 10
275.342715418351
 20
375.6713727594356
 30
0.0
 11
205.342715418351
 21
375.6715727594356
 31
0.0
  0
LINE
  5
57E
330
1A
100
AcDbEntity
  8
SEIHIN
  6
CONTINUOUS
 62
     3
 48
5.0
100
AcDbLine
 10
229.0073154183509
 20
369.6715727594356
 30
0.0
 11
275.342615418351
 21
369.6712727594357
 31
0.0
  0
LINE
  5
57F
330
1A
100
AcDbEntity
  8
SEIHIN
  6
CONTINUOUS
 62
     3
 48
5.0
100
AcDbLine
 10
229.094815418351
 20
371.6714727594358
 30
0.0
 11
275.342615418351
 21
371.6713727594356
 31
0.0
  0
LINE
  5
580
330
1A
100
AcDbEntity
  8
SEIHIN
  6
CONTINUOUS
 62
     3
 48
5.0
100
AcDbLine
 10
275.342715418351
 20
405.6713727594356
 30
0.0
 11
195.342715418351
 21
405.6715727594356
 31
0.0
  0
LINE
  5
581
330
1A
100
AcDbEntity
  8
SEIHIN
  6
CONTINUOUS
 62
     3
 48
5.0
100
AcDbLine
 10
275.342715418351
 20
400.6713727594357
 30
0.0
 11
195.342715418351
 21
400.6715727594357
 31
0.0
  0
ARC
  5
584
330
1A
100
AcDbEntity
  8
SEIHIN
  6
CONTINUOUS
 62
     3
 48
5.0
100
AcDbCircle
 10
229.007284918081
 20
363.6715511924299
 30
0.0
 40
6.000021567083281
100
AcDbArc
 50
89.99970874492417
 51
160.5286337377752
  0
ARC
  5
585
330
1A
100
AcDbEntity
  8
SEIHIN
  6
CONTINUOUS
 62
     3
 48
5.0
100
AcDbCircle
 10
229.0947946011298
 20
363.6715566344681
 30
0.0
 40
8.00001612499463
100
AcDbArc
 50
89.99985090793613
 51
165.5223983587675
  0
LINE
  5
586
330
1A
100
AcDbEntity
  8
SEIHIN
  6
CONTINUOUS
 62
     3
 48
5.0
100
AcDbLine
 10
205.342715418351
 20
375.6715727594356
 30
0.0
 11
205.982415418351
 21
369.2735727594357
 31
0.0
  0
LINE
  5
587
330
1A
100
AcDbEntity
  8
SEIHIN
  6
CONTINUOUS
 62
     3
 48
5.0
100
AcDbLine
 10
223.350415418351
 20
365.6715727594356
 30
0.0
 11
209.962515418351
 21
365.6715727594356
 31
0.0
  0
LINE
  5
588
330
1A
100
AcDbEntity
  8
SEIHIN
  6
CONTINUOUS
 62
     3
 48
5.0
100
AcDbLine
 10
213.342615418351
 20
365.6715727594356
 30
0.0
 11
214.8425154183509
 21
327.6715727594356
 31
0.0
  0
LINE
  5
589
330
1A
100
AcDbEntity
  8
SEIHIN
  6
CONTINUOUS
 62
     3
 48
5.0
100
AcDbLine
 10
211.3442154183509
 20
365.5927727594356
 30
0.0
 11
212.841015418351
 21
327.6715727594356
 31
0.0
  0
LINE
  5
58A
330
1A
100
AcDbEntity
  8
SEIHIN
  6
CONTINUOUS
 62
     3
 48
5.0
100
AcDbLine
 10
207.750215418351
 20
355.2269727594357
 30
0.0
 11
208.8378154183509
 21
327.6715727594356
 31
0.0
  0
LINE
  5
58B
330
1A
100
AcDbEntity
  8
SEIHIN
  6
CONTINUOUS
 62
     3
 48
5.0
100
AcDbLine
 10
210.656115418351
 20
357.6685727594356
 30
0.0
 11
211.840215418351
 21
327.6715727594356
 31
0.0
  0
LINE
  5
58C
330
1A
100
AcDbEntity
  8
SEIHIN
  6
CONTINUOUS
 62
     3
 48
5.0
100
AcDbLine
 10
211.098715418351
 20
346.4575727594356
 30
0.0
 11
208.1539154183509
 21
344.9991727594357
 31
0.0
  0
LINE
  5
58D
330
1A
100
AcDbEntity
  8
SEIHIN
  6
CONTINUOUS
 62
     3
 48
5.0
100
AcDbLine
 10
211.098715418351
 20
346.4575727594356
 30
0.0
 11
212.099515418351
 21
346.4575727594356
 31
0.0
  0
LINE
  5
58E
330
1A
100
AcDbEntity
  8
SEIHIN
  6
CONTINUOUS
 62
     3
 48
5.0
100
AcDbLine
 10
210.656115418351
 20
357.6685727594356
 30
0.0
 11
207.750215418351
 21
355.2269727594357
 31
0.0
  0
LINE
  5
58F
330
1A
100
AcDbEntity
  8
SEIHIN
  6
CONTINUOUS
 62
     3
 48
5.0
100
AcDbLine
 10
210.656115418351
 20
357.6685727594356
 30
0.0
 11
211.656915418351
 21
357.6685727594356
 31
0.0
  0
ARC
  5
590
330
1A
100
AcDbEntity
  8
SEIHIN
  6
CONTINUOUS
 62
     3
 48
5.0
100
AcDbCircle
 10
209.9625430424531
 20
369.6715477599045
 30
0.0
 40
3.999975000564208
100
AcDbArc
 50
185.7100549185505
 51
269.9996043114115
  0
ARC
  5
591
330
1A
100
AcDbEntity
  8
SEIHIN
  6
CONTINUOUS
 62
     3
 48
5.0
100
AcDbCircle
 10
249.3471675159505
 20
337.0194165525133
 30
0.0
 40
11.68496879549385
100
AcDbArc
 50
95.56698564733967
 51
164.5341705133141
  0
ARC
  5
592
330
1A
100
AcDbEntity
  8
SEIHIN
  6
CONTINUOUS
 62
     3
 48
5.0
100
AcDbCircle
 10
251.0385974146128
 20
336.1330577436229
 30
0.0
 40
10.90598352030481
100
AcDbArc
 50
93.316785239249
 51
166.3418386490311
  0
LINE
  5
593
330
1A
100
AcDbEntity
  8
SEIHIN
  6
CONTINUOUS
 62
     3
 48
5.0
100
AcDbLine
 10
222.848715418351
 20
327.6715727594356
 30
0.0
 11
221.3488154183509
 21
365.6715727594356
 31
0.0
  0
LINE
  5
594
330
1A
100
AcDbEntity
  8
SEIHIN
  6
CONTINUOUS
 62
     3
 48
5.0
100
AcDbLine
 10
224.850315418351
 20
327.6715727594356
 30
0.0
 11
223.350415418351
 21
365.6715727594356
 31
0.0
  0
LINE
  5
595
330
1A
100
AcDbEntity
  8
SEIHIN
  6
CONTINUOUS
 62
     3
 48
5.0
100
AcDbLine
 10
247.299015418351
 20
334.8674727594356
 30
0.0
 11
247.299015418351
 21
341.1638727594356
 31
0.0
  0
ARC
  5
596
330
1A
100
AcDbEntity
  8
SEIHIN
  6
CONTINUOUS
 62
     3
 48
5.0
100
AcDbCircle
 10
288.5858316777061
 20
327.6715282320029
 30
0.0
 40
46.74001625961373
100
AcDbArc
 50
168.0595859254608
 51
180.0001905844852
  0
ARC
  5
597
330
1A
100
AcDbEntity
  8
SEIHIN
  6
CONTINUOUS
 62
     3
 48
5.0
100
AcDbCircle
 10
285.8592953364001
 20
327.6712050735416
 30
0.0
 40
46.73997991834998
100
AcDbArc
 50
166.34143500377
 51
179.999794443771
  0
ARC
  5
598
330
1A
100
AcDbEntity
  8
SEIHIN
  6
CONTINUOUS
 62
     3
 48
5.0
100
AcDbCircle
 10
283.1328071784055
 20
327.6713120782771
 30
0.0
 40
46.73999176009398
100
AcDbArc
 50
164.5340372613595
 51
179.9999256145722
  0
LINE
  5
599
330
1A
100
AcDbEntity
  8
SEIHIN
  6
CONTINUOUS
 62
     3
 48
5.0
100
AcDbLine
 10
244.962315418351
 20
330.8195727594356
 30
0.0
 11
241.865615418351
 21
329.0316727594358
 31
0.0
  0
LINE
  5
59A
330
1A
100
AcDbEntity
  8
SEIHIN
  6
CONTINUOUS
 62
     3
 48
5.0
100
AcDbLine
 10
242.6256154183509
 20
334.8674727594356
 30
0.0
 11
242.3813154183509
 21
334.7264727594357
 31
0.0
  0
LINE
  5
59B
330
1A
100
AcDbEntity
  8
SEIHIN
  6
CONTINUOUS
 62
     3
 48
5.0
100
AcDbLine
 10
250.4150154183509
 20
327.6713727594356
 30
0.0
 11
244.962315418351
 21
330.8195727594356
 31
0.0
  0
LINE
  5
59C
330
1A
100
AcDbEntity
  8
SEIHIN
  6
CONTINUOUS
 62
     3
 48
5.0
100
AcDbLine
 10
244.962315418351
 20
330.8195727594356
 30
0.0
 11
250.4150154183509
 21
327.6713727594356
 31
0.0
  0
LINE
  5
59D
330
1A
100
AcDbEntity
  8
SEIHIN
  6
CONTINUOUS
 62
     3
 48
5.0
100
AcDbLine
 10
245.438615418351
 20
342.2379727594358
 30
0.0
 11
250.4150154183509
 21
339.3647727594358
 31
0.0
  0
LINE
  5
59E
330
1A
100
AcDbEntity
  8
SEIHIN
  6
CONTINUOUS
 62
     3
 48
5.0
100
AcDbLine
 10
250.4150154183509
 20
339.3647727594358
 30
0.0
 11
245.438615418351
 21
342.2379727594358
 31
0.0
  0
LINE
  5
59F
330
1A
100
AcDbEntity
  8
SEIHIN
  6
CONTINUOUS
 62
     3
 48
5.0
100
AcDbLine
 10
248.077815418351
 20
348.7044727594358
 30
0.0
 11
248.156715418351
 21
348.6436727594356
 31
0.0
  0
LINE
  5
5A0
330
1A
100
AcDbEntity
  8
SEIHIN
  6
CONTINUOUS
 62
     3
 48
5.0
100
AcDbLine
 10
196.842715418351
 20
400.6715727594357
 30
0.0
 11
197.6083154183509
 21
387.9109727594358
 31
0.0
  0
ARC
  5
5A1
330
1A
100
AcDbEntity
  8
SEIHIN
  6
CONTINUOUS
 62
     3
 48
5.0
100
AcDbCircle
 10
212.5814102594781
 20
388.8093809231703
 30
0.0
 40
15.00002354498334
100
AcDbArc
 50
183.4337160497734
 51
241.1460301584888
  0
LINE
  5
5A2
330
1A
100
AcDbEntity
  8
SEIHIN
  6
CONTINUOUS
 62
     3
 48
5.0
100
AcDbLine
 10
195.342715418351
 20
405.6715727594356
 30
0.0
 11
195.342715418351
 21
400.6715727594357
 31
0.0
  0
LINE
  5
5A6
330
1A
100
AcDbEntity
  8
SEIHIN
  6
CONTINUOUS
 62
     3
 48
5.0
100
AcDbLine
 10
275.3428154183509
 20
405.6713727594356
 30
0.0
 11
355.342815418351
 21
405.6713727594356
 31
0.0
  0
LINE
  5
5A7
330
1A
100
AcDbEntity
  8
SEIHIN
  6
CONTINUOUS
 62
     3
 48
5.0
100
AcDbLine
 10
275.3428154183509
 20
400.6713727594357
 30
0.0
 11
355.342815418351
 21
400.6713727594357
 31
0.0
  0
LINE
  5
5A8
330
1A
100
AcDbEntity
  8
SEIHIN
  6
CONTINUOUS
 62
     3
 48
5.0
100
AcDbLine
 10
275.3428154183509
 20
375.6713727594356
 30
0.0
 11
345.342815418351
 21
375.6713727594356
 31
0.0
  0
LINE
  5
5A9
330
1A
100
AcDbEntity
  8
SEIHIN
  6
CONTINUOUS
 62
     3
 48
5.0
100
AcDbLine
 10
321.590615418351
 20
371.6713727594356
 30
0.0
 11
275.3428154183509
 21
371.6713727594356
 31
0.0
  0
LINE
  5
5AA
330
1A
100
AcDbEntity
  8
SEIHIN
  6
CONTINUOUS
 62
     3
 48
5.0
100
AcDbLine
 10
321.678115418351
 20
369.6713727594356
 30
0.0
 11
275.3428154183509
 21
369.6713727594356
 31
0.0
  0
LINE
  5
5AB
330
1A
100
AcDbEntity
  8
SEIHIN
  6
CONTINUOUS
 62
     3
 48
5.0
100
AcDbLine
 10
280.0168154183511
 20
339.3646727594356
 30
0.0
 11
285.469515418351
 21
342.5128727594358
 31
0.0
  0
LINE
  5
5AC
330
1A
100
AcDbEntity
  8
SEIHIN
  6
CONTINUOUS
 62
     3
 48
5.0
100
AcDbLine
 10
285.469515418351
 20
342.5128727594358
 30
0.0
 11
280.0168154183511
 21
339.3646727594356
 31
0.0
  0
ARC
  5
5AD
330
1A
100
AcDbEntity
  8
SEIHIN
  6
CONTINUOUS
 62
     3
 48
5.0
100
AcDbCircle
 10
306.0514058723815
 20
432.760275424933
 30
0.0
 40
77.90003863956066
100
AcDbArc
 50
246.7834341881257
 51
262.014185556104
  0
ARC
  5
5AE
330
1A
100
AcDbEntity
  8
SEIHIN
  6
CONTINUOUS
 62
     3
 48
5.0
100
AcDbCircle
 10
306.0513744204766
 20
430.0337845960984
 30
0.0
 40
77.90003466948374
100
AcDbArc
 50
246.7834581069459
 51
261.0082592481511
  0
ARC
  5
5AF
330
1A
100
AcDbEntity
  8
SEIHIN
  6
CONTINUOUS
 62
     3
 48
5.0
100
AcDbCircle
 10
306.0511584265119
 20
427.3073494590375
 30
0.0
 40
77.90000913385731
100
AcDbArc
 50
246.7836229132371
 51
259.9811426863796
  0
LINE
  5
5B0
330
1A
100
AcDbEntity
  8
SEIHIN
  6
CONTINUOUS
 62
     3
 48
5.0
100
AcDbLine
 10
280.0168154183511
 20
327.6713727594356
 30
0.0
 11
285.469515418351
 21
330.8194727594356
 31
0.0
  0
LINE
  5
5B1
330
1A
100
AcDbEntity
  8
SEIHIN
  6
CONTINUOUS
 62
     3
 48
5.0
100
AcDbLine
 10
285.469515418351
 20
330.8194727594356
 30
0.0
 11
280.0168154183511
 21
327.6713727594356
 31
0.0
  0
LINE
  5
5B2
330
1A
100
AcDbEntity
  8
SEIHIN
  6
CONTINUOUS
 62
     3
 48
5.0
100
AcDbLine
 10
283.1328154183509
 20
346.5607727594356
 30
0.0
 11
283.1328154183509
 21
352.8571727594357
 31
0.0
  0
LINE
  5
5B3
330
1A
100
AcDbEntity
  8
SEIHIN
  6
CONTINUOUS
 62
     3
 48
5.0
100
AcDbLine
 10
277.6795154183509
 20
340.7141727594356
 30
0.0
 11
277.6795154183509
 21
347.0104727594358
 31
0.0
  0
LINE
  5
5B4
330
1A
100
AcDbEntity
  8
SEIHIN
  6
CONTINUOUS
 62
     3
 48
5.0
100
AcDbLine
 10
275.342615418351
 20
348.3595727594358
 30
0.0
 11
269.889815418351
 21
345.2114727594358
 31
0.0
  0
LINE
  5
5B5
330
1A
100
AcDbEntity
  8
SEIHIN
  6
CONTINUOUS
 62
     3
 48
5.0
100
AcDbLine
 10
267.552615418351
 20
346.5608727594358
 30
0.0
 11
267.552615418351
 21
352.8571727594357
 31
0.0
  0
LINE
  5
5B6
330
1A
100
AcDbEntity
  8
SEIHIN
  6
CONTINUOUS
 62
     3
 48
5.0
100
AcDbLine
 10
262.8791154183509
 20
346.5608727594358
 30
0.0
 11
262.8791154183509
 21
351.5740727594357
 31
0.0
  0
LINE
  5
5B7
330
1A
100
AcDbEntity
  8
SEIHIN
  6
CONTINUOUS
 62
     3
 48
5.0
100
AcDbLine
 10
273.005815418351
 20
340.7141727594356
 30
0.0
 11
273.0059154183509
 21
347.0104727594358
 31
0.0
  0
LINE
  5
5B8
330
1A
100
AcDbEntity
  8
SEIHIN
  6
CONTINUOUS
 62
     3
 48
5.0
100
AcDbLine
 10
275.3428154183509
 20
348.3595727594358
 30
0.0
 11
280.795615418351
 21
345.2113727594357
 31
0.0
  0
LINE
  5
5B9
330
1A
100
AcDbEntity
  8
SEIHIN
  6
CONTINUOUS
 62
     3
 48
5.0
100
AcDbLine
 10
260.541915418351
 20
345.2114727594358
 30
0.0
 11
255.0891154183509
 21
348.3595727594358
 31
0.0
  0
LINE
  5
5BA
330
1A
100
AcDbEntity
  8
SEIHIN
  6
CONTINUOUS
 62
     3
 48
5.0
100
AcDbLine
 10
255.0891154183509
 20
348.3595727594358
 30
0.0
 11
260.541915418351
 21
345.2114727594358
 31
0.0
  0
ARC
  5
5BB
330
1A
100
AcDbEntity
  8
SEIHIN
  6
CONTINUOUS
 62
     3
 48
5.0
100
AcDbCircle
 10
259.4063183625129
 20
343.6911755119304
 30
0.0
 40
7.011008064109379
100
AcDbArc
 50
100.0187063873857
 51
166.12730470404
  0
LINE
  5
5BC
330
1A
100
AcDbEntity
  8
SEIHIN
  6
CONTINUOUS
 62
     3
 48
5.0
100
AcDbLine
 10
257.4258154183509
 20
340.7141727594356
 30
0.0
 11
257.4258154183509
 21
347.0104727594358
 31
0.0
  0
LINE
  5
5BD
330
1A
100
AcDbEntity
  8
SEIHIN
  6
CONTINUOUS
 62
     3
 48
5.0
100
AcDbLine
 10
270.6685154183511
 20
339.3647727594358
 30
0.0
 11
265.215915418351
 21
342.5128727594358
 31
0.0
  0
LINE
  5
5BE
330
1A
100
AcDbEntity
  8
SEIHIN
  6
CONTINUOUS
 62
     3
 48
5.0
100
AcDbLine
 10
265.215915418351
 20
342.5128727594358
 30
0.0
 11
270.6685154183511
 21
339.3647727594358
 31
0.0
  0
LINE
  5
5BF
330
1A
100
AcDbEntity
  8
SEIHIN
  6
CONTINUOUS
 62
     3
 48
5.0
100
AcDbLine
 10
270.6685154183511
 20
327.6713727594356
 30
0.0
 11
265.2158154183509
 21
330.8195727594356
 31
0.0
  0
LINE
  5
5C0
330
1A
100
AcDbEntity
  8
SEIHIN
  6
CONTINUOUS
 62
     3
 48
5.0
100
AcDbLine
 10
265.2158154183509
 20
330.8195727594356
 30
0.0
 11
270.6685154183511
 21
327.6713727594356
 31
0.0
  0
LINE
  5
5C1
330
1A
100
AcDbEntity
  8
SEIHIN
  6
CONTINUOUS
 62
     3
 48
5.0
100
AcDbLine
 10
262.8790154183509
 20
334.8674727594356
 30
0.0
 11
262.8790154183509
 21
341.1636727594356
 31
0.0
  0
LINE
  5
5C2
330
1A
100
AcDbEntity
  8
SEIHIN
  6
CONTINUOUS
 62
     3
 48
5.0
100
AcDbLine
 10
260.541815418351
 20
333.5180727594356
 30
0.0
 11
255.089015418351
 21
336.6661727594358
 31
0.0
  0
LINE
  5
5C3
330
1A
100
AcDbEntity
  8
SEIHIN
  6
CONTINUOUS
 62
     3
 48
5.0
100
AcDbLine
 10
255.089015418351
 20
336.6661727594358
 30
0.0
 11
260.541815418351
 21
333.5180727594356
 31
0.0
  0
LINE
  5
5C4
330
1A
100
AcDbEntity
  8
SEIHIN
  6
CONTINUOUS
 62
     3
 48
5.0
100
AcDbLine
 10
252.7523154183509
 20
329.0208727594357
 30
0.0
 11
252.7523154183509
 21
335.3171727594357
 31
0.0
  0
LINE
  5
5C5
330
1A
100
AcDbEntity
  8
SEIHIN
  6
CONTINUOUS
 62
     3
 48
5.0
100
AcDbLine
 10
257.4258154183509
 20
329.0207727594356
 30
0.0
 11
257.4258154183509
 21
335.3170727594356
 31
0.0
  0
LINE
  5
5C6
330
1A
100
AcDbEntity
  8
SEIHIN
  6
CONTINUOUS
 62
     3
 48
5.0
100
AcDbLine
 10
262.8790154183509
 20
334.8674727594356
 30
0.0
 11
257.4258154183509
 21
331.7189727594358
 31
0.0
  0
LINE
  5
5C7
330
1A
100
AcDbEntity
  8
SEIHIN
  6
CONTINUOUS
 62
     3
 48
5.0
100
AcDbLine
 10
257.4258154183509
 20
329.0207727594356
 30
0.0
 11
262.8790154183509
 21
325.8722727594358
 31
0.0
  0
LINE
  5
5C8
330
1A
100
AcDbEntity
  8
SEIHIN
  6
CONTINUOUS
 62
     3
 48
5.0
100
AcDbLine
 10
262.8790154183509
 20
325.8723727594357
 30
0.0
 11
257.4258154183509
 21
329.0207727594356
 31
0.0
  0
LINE
  5
5C9
330
1A
100
AcDbEntity
  8
SEIHIN
  6
CONTINUOUS
 62
     3
 48
5.0
100
AcDbLine
 10
265.2158154183509
 20
330.8195727594356
 30
0.0
 11
259.7630154183509
 21
327.6713727594356
 31
0.0
  0
LINE
  5
5CA
330
1A
100
AcDbEntity
  8
SEIHIN
  6
CONTINUOUS
 62
     3
 48
5.0
100
AcDbLine
 10
262.8791154183509
 20
346.5608727594358
 30
0.0
 11
257.4258154183509
 21
343.4123727594358
 31
0.0
  0
LINE
  5
5CB
330
1A
100
AcDbEntity
  8
SEIHIN
  6
CONTINUOUS
 62
     3
 48
5.0
100
AcDbLine
 10
257.4258154183509
 20
340.7141727594356
 30
0.0
 11
262.8790154183509
 21
337.5656727594358
 31
0.0
  0
LINE
  5
5CC
330
1A
100
AcDbEntity
  8
SEIHIN
  6
CONTINUOUS
 62
     3
 48
5.0
100
AcDbLine
 10
262.8790154183509
 20
337.5657727594356
 30
0.0
 11
257.4258154183509
 21
340.7141727594356
 31
0.0
  0
LINE
  5
5CD
330
1A
100
AcDbEntity
  8
SEIHIN
  6
CONTINUOUS
 62
     3
 48
5.0
100
AcDbLine
 10
252.7523154183509
 20
340.7141727594356
 30
0.0
 11
252.7524154183509
 21
345.9001727594358
 31
0.0
  0
LINE
  5
5CE
330
1A
100
AcDbEntity
  8
SEIHIN
  6
CONTINUOUS
 62
     3
 48
5.0
100
AcDbLine
 10
265.215915418351
 20
342.5128727594358
 30
0.0
 11
259.7630154183509
 21
339.3647727594358
 31
0.0
  0
LINE
  5
5CF
330
1A
100
AcDbEntity
  8
SEIHIN
  6
CONTINUOUS
 62
     3
 48
5.0
100
AcDbLine
 10
283.1328154183509
 20
334.8673727594357
 30
0.0
 11
283.1328154183509
 21
341.1636727594356
 31
0.0
  0
LINE
  5
5D0
330
1A
100
AcDbEntity
  8
SEIHIN
  6
CONTINUOUS
 62
     3
 48
5.0
100
AcDbLine
 10
275.3425154183509
 20
336.6661727594358
 30
0.0
 11
269.889815418351
 21
333.5180727594356
 31
0.0
  0
LINE
  5
5D1
330
1A
100
AcDbEntity
  8
SEIHIN
  6
CONTINUOUS
 62
     3
 48
5.0
100
AcDbLine
 10
267.5525154183509
 20
334.8674727594356
 30
0.0
 11
267.5525154183509
 21
341.1636727594356
 31
0.0
  0
LINE
  5
5D2
330
1A
100
AcDbEntity
  8
SEIHIN
  6
CONTINUOUS
 62
     3
 48
5.0
100
AcDbLine
 10
275.3428154183509
 20
336.6661727594358
 30
0.0
 11
280.795615418351
 21
333.5180727594356
 31
0.0
  0
LINE
  5
5D3
330
1A
100
AcDbEntity
  8
SEIHIN
  6
CONTINUOUS
 62
     3
 48
5.0
100
AcDbLine
 10
277.6795154183509
 20
329.0207727594356
 30
0.0
 11
277.6795154183509
 21
335.3170727594356
 31
0.0
  0
LINE
  5
5D4
330
1A
100
AcDbEntity
  8
SEIHIN
  6
CONTINUOUS
 62
     3
 48
5.0
100
AcDbLine
 10
273.005815418351
 20
329.0207727594356
 30
0.0
 11
273.005815418351
 21
335.3171727594357
 31
0.0
  0
LINE
  5
5D5
330
1A
100
AcDbEntity
  8
SEIHIN
  6
CONTINUOUS
 62
     3
 48
5.0
100
AcDbLine
 10
273.005815418351
 20
331.7190727594358
 30
0.0
 11
267.5525154183509
 21
334.8674727594356
 31
0.0
  0
LINE
  5
5D6
330
1A
100
AcDbEntity
  8
SEIHIN
  6
CONTINUOUS
 62
     3
 48
5.0
100
AcDbLine
 10
267.5525154183509
 20
334.8674727594356
 30
0.0
 11
273.005815418351
 21
331.7189727594358
 31
0.0
  0
LINE
  5
5D7
330
1A
100
AcDbEntity
  8
SEIHIN
  6
CONTINUOUS
 62
     3
 48
5.0
100
AcDbLine
 10
273.005815418351
 20
329.0207727594356
 30
0.0
 11
267.5525154183509
 21
325.8723727594357
 31
0.0
  0
LINE
  5
5D8
330
1A
100
AcDbEntity
  8
SEIHIN
  6
CONTINUOUS
 62
     3
 48
5.0
100
AcDbLine
 10
277.6795154183509
 20
331.7189727594358
 30
0.0
 11
283.1328154183509
 21
334.8673727594357
 31
0.0
  0
LINE
  5
5D9
330
1A
100
AcDbEntity
  8
SEIHIN
  6
CONTINUOUS
 62
     3
 48
5.0
100
AcDbLine
 10
283.1328154183509
 20
334.8673727594357
 30
0.0
 11
277.6795154183509
 21
331.7189727594358
 31
0.0
  0
LINE
  5
5DA
330
1A
100
AcDbEntity
  8
SEIHIN
  6
CONTINUOUS
 62
     3
 48
5.0
100
AcDbLine
 10
277.6795154183509
 20
329.0207727594356
 30
0.0
 11
283.1328154183509
 21
325.8722727594358
 31
0.0
  0
LINE
  5
5DB
330
1A
100
AcDbEntity
  8
SEIHIN
  6
CONTINUOUS
 62
     3
 48
5.0
100
AcDbLine
 10
273.0059154183509
 20
343.4124727594357
 30
0.0
 11
267.552615418351
 21
346.5608727594358
 31
0.0
  0
LINE
  5
5DC
330
1A
100
AcDbEntity
  8
SEIHIN
  6
CONTINUOUS
 62
     3
 48
5.0
100
AcDbLine
 10
267.552615418351
 20
346.5608727594358
 30
0.0
 11
273.0059154183509
 21
343.4123727594358
 31
0.0
  0
LINE
  5
5DD
330
1A
100
AcDbEntity
  8
SEIHIN
  6
CONTINUOUS
 62
     3
 48
5.0
100
AcDbLine
 10
273.005815418351
 20
340.7141727594356
 30
0.0
 11
267.5525154183509
 21
337.5656727594358
 31
0.0
  0
LINE
  5
5DE
330
1A
100
AcDbEntity
  8
SEIHIN
  6
CONTINUOUS
 62
     3
 48
5.0
100
AcDbLine
 10
277.6795154183509
 20
343.4123727594358
 30
0.0
 11
283.1328154183509
 21
346.5608727594358
 31
0.0
  0
LINE
  5
5DF
330
1A
100
AcDbEntity
  8
SEIHIN
  6
CONTINUOUS
 62
     3
 48
5.0
100
AcDbLine
 10
283.1328154183509
 20
346.5607727594356
 30
0.0
 11
277.6795154183509
 21
343.4123727594358
 31
0.0
  0
LINE
  5
5E0
330
1A
100
AcDbEntity
  8
SEIHIN
  6
CONTINUOUS
 62
     3
 48
5.0
100
AcDbLine
 10
277.6795154183509
 20
340.7141727594356
 30
0.0
 11
283.1328154183509
 21
337.5656727594358
 31
0.0
  0
ARC
  5
5E1
330
1A
100
AcDbEntity
  8
SEIHIN
  6
CONTINUOUS
 62
     3
 48
5.0
100
AcDbCircle
 10
244.6340970075882
 20
427.3073374200034
 30
0.0
 40
77.90002779380042
100
AcDbArc
 50
280.0189858960912
 51
293.2164315453489
  0
ARC
  5
5E2
330
1A
100
AcDbEntity
  8
SEIHIN
  6
CONTINUOUS
 62
     3
 48
5.0
100
AcDbCircle
 10
244.6342754225885
 20
430.033890083289
 30
0.0
 40
77.90000586058257
100
AcDbArc
 50
278.9915810205152
 51
293.2162956774833
  0
ARC
  5
5E3
330
1A
100
AcDbEntity
  8
SEIHIN
  6
CONTINUOUS
 62
     3
 48
5.0
100
AcDbCircle
 10
244.6342301457007
 20
432.7603768716652
 30
0.0
 40
77.90001156710598
100
AcDbArc
 50
277.9856648477825
 51
293.2163301127409
  0
LINE
  5
5E4
330
1A
100
AcDbEntity
  8
SEIHIN
  6
CONTINUOUS
 62
     3
 48
5.0
100
AcDbLine
 10
255.0891154183509
 20
348.3595727594358
 30
0.0
 11
253.473415418351
 21
347.4267727594356
 31
0.0
  0
LINE
  5
5E5
330
1A
100
AcDbEntity
  8
SEIHIN
  6
CONTINUOUS
 62
     3
 48
5.0
100
AcDbLine
 10
259.9789154183509
 20
350.9335727594357
 30
0.0
 11
262.8791154183509
 21
349.2589727594356
 31
0.0
  0
LINE
  5
5E6
330
1A
100
AcDbEntity
  8
SEIHIN
  6
CONTINUOUS
 62
     3
 48
5.0
100
AcDbLine
 10
262.8791154183509
 20
349.2590727594357
 30
0.0
 11
259.9789154183509
 21
350.9335727594357
 31
0.0
  0
LINE
  5
5E7
330
1A
100
AcDbEntity
  8
SEIHIN
  6
CONTINUOUS
 62
     3
 48
5.0
100
AcDbLine
 10
273.0059154183509
 20
352.4075727594358
 30
0.0
 11
267.552615418351
 21
349.2590727594357
 31
0.0
  0
LINE
  5
5E8
330
1A
100
AcDbEntity
  8
SEIHIN
  6
CONTINUOUS
 62
     3
 48
5.0
100
AcDbLine
 10
273.0059154183509
 20
352.4075727594358
 30
0.0
 11
273.0059154183509
 21
354.7576727594358
 31
0.0
  0
LINE
  5
5E9
330
1A
100
AcDbEntity
  8
SEIHIN
  6
CONTINUOUS
 62
     3
 48
5.0
100
AcDbLine
 10
277.6795154183509
 20
352.4075727594358
 30
0.0
 11
283.1328154183509
 21
349.2590727594357
 31
0.0
  0
LINE
  5
5EA
330
1A
100
AcDbEntity
  8
SEIHIN
  6
CONTINUOUS
 62
     3
 48
5.0
100
AcDbLine
 10
277.6795154183509
 20
352.4075727594358
 30
0.0
 11
277.6795154183509
 21
354.7575727594357
 31
0.0
  0
ARC
  5
5EB
330
1A
100
AcDbEntity
  8
SEIHIN
  6
CONTINUOUS
 62
     3
 48
5.0
100
AcDbCircle
 10
291.2790168801913
 20
343.6910713927618
 30
0.0
 40
7.011028751545891
100
AcDbArc
 50
13.87352999592411
 51
79.98053016501121
  0
LINE
  5
5EC
330
1A
100
AcDbEntity
  8
SEIHIN
  6
CONTINUOUS
 62
     3
 48
5.0
100
AcDbLine
 10
293.2595154183508
 20
340.7140727594358
 30
0.0
 11
293.2595154183508
 21
347.0103727594356
 31
0.0
  0
ARC
  5
5ED
330
1A
100
AcDbEntity
  8
SEIHIN
  6
CONTINUOUS
 62
     3
 48
5.0
100
AcDbCircle
 10
301.338212576601
 20
337.0193751482237
 30
0.0
 40
11.68490569795088
100
AcDbArc
 50
15.46561697722444
 51
84.43322686212411
  0
ARC
  5
5EE
330
1A
100
AcDbEntity
  8
SEIHIN
  6
CONTINUOUS
 62
     3
 48
5.0
100
AcDbCircle
 10
299.6466842342542
 20
336.1328987679269
 30
0.0
 40
10.90604524314292
100
AcDbArc
 50
13.65840140444044
 51
86.68297470727857
  0
ARC
  5
5EF
330
1A
100
AcDbEntity
  8
SEIHIN
  6
CONTINUOUS
 62
     3
 48
5.0
100
AcDbCircle
 10
297.9203347710077
 20
335.2464570712566
 30
0.0
 40
10.12701568850025
100
AcDbArc
 50
11.94095490674785
 51
89.99954372022939
  0
LINE
  5
5F0
330
1A
100
AcDbEntity
  8
SEIHIN
  6
CONTINUOUS
 62
     3
 48
5.0
100
AcDbLine
 10
287.8063154183509
 20
346.5607727594356
 30
0.0
 11
287.8063154183509
 21
351.5739727594356
 31
0.0
  0
LINE
  5
5F1
330
1A
100
AcDbEntity
  8
SEIHIN
  6
CONTINUOUS
 62
     3
 48
5.0
100
AcDbLine
 10
290.143515418351
 20
345.2113727594357
 30
0.0
 11
295.596315418351
 21
348.3595727594358
 31
0.0
  0
LINE
  5
5F2
330
1A
100
AcDbEntity
  8
SEIHIN
  6
CONTINUOUS
 62
     3
 48
5.0
100
AcDbLine
 10
295.596315418351
 20
348.3595727594358
 30
0.0
 11
290.143515418351
 21
345.2113727594357
 31
0.0
  0
LINE
  5
5F3
330
1A
100
AcDbEntity
  8
SEIHIN
  6
CONTINUOUS
 62
     3
 48
5.0
100
AcDbLine
 10
297.933015418351
 20
343.4123727594358
 30
0.0
 11
300.670615418351
 21
344.9928727594356
 31
0.0
  0
LINE
  5
5F4
330
1A
100
AcDbEntity
  8
SEIHIN
  6
CONTINUOUS
 62
     3
 48
5.0
100
AcDbLine
 10
300.670615418351
 20
344.9928727594356
 30
0.0
 11
297.933015418351
 21
343.4123727594358
 31
0.0
  0
LINE
  5
5F5
330
1A
100
AcDbEntity
  8
SEIHIN
  6
CONTINUOUS
 62
     3
 48
5.0
100
AcDbLine
 10
297.933015418351
 20
340.7140727594358
 30
0.0
 11
303.386315418351
 21
337.5656727594358
 31
0.0
  0
LINE
  5
5F6
330
1A
100
AcDbEntity
  8
SEIHIN
  6
CONTINUOUS
 62
     3
 48
5.0
100
AcDbLine
 10
295.596315418351
 20
336.6661727594358
 30
0.0
 11
301.049015418351
 21
333.5179727594358
 31
0.0
  0
LINE
  5
5F7
330
1A
100
AcDbEntity
  8
SEIHIN
  6
CONTINUOUS
 62
     3
 48
5.0
100
AcDbLine
 10
303.386315418351
 20
334.8673727594357
 30
0.0
 11
297.933015418351
 21
331.7188727594356
 31
0.0
  0
LINE
  5
5F8
330
1A
100
AcDbEntity
  8
SEIHIN
  6
CONTINUOUS
 62
     3
 48
5.0
100
AcDbLine
 10
297.933015418351
 20
331.7189727594358
 30
0.0
 11
303.386315418351
 21
334.8673727594357
 31
0.0
  0
LINE
  5
5F9
330
1A
100
AcDbEntity
  8
SEIHIN
  6
CONTINUOUS
 62
     3
 48
5.0
100
AcDbLine
 10
305.2468154183508
 20
342.2378727594357
 30
0.0
 11
300.270315418351
 21
339.3646727594356
 31
0.0
  0
LINE
  5
5FA
330
1A
100
AcDbEntity
  8
SEIHIN
  6
CONTINUOUS
 62
     3
 48
5.0
100
AcDbLine
 10
300.270315418351
 20
339.3646727594356
 30
0.0
 11
305.2468154183508
 21
342.2378727594357
 31
0.0
  0
LINE
  5
5FB
330
1A
100
AcDbEntity
  8
SEIHIN
  6
CONTINUOUS
 62
     3
 48
5.0
100
AcDbLine
 10
300.270315418351
 20
327.6712727594357
 30
0.0
 11
305.723015418351
 21
330.8193727594357
 31
0.0
  0
LINE
  5
5FC
330
1A
100
AcDbEntity
  8
SEIHIN
  6
CONTINUOUS
 62
     3
 48
5.0
100
AcDbLine
 10
305.723015418351
 20
330.8193727594357
 30
0.0
 11
300.270315418351
 21
327.6712727594357
 31
0.0
  0
LINE
  5
5FD
330
1A
100
AcDbEntity
  8
SEIHIN
  6
CONTINUOUS
 62
     3
 48
5.0
100
AcDbLine
 10
297.933015418351
 20
329.0206727594356
 30
0.0
 11
303.386315418351
 21
325.8722727594358
 31
0.0
  0
LINE
  5
5FE
330
1A
100
AcDbEntity
  8
SEIHIN
  6
CONTINUOUS
 62
     3
 48
5.0
100
AcDbLine
 10
287.8063154183509
 20
334.8673727594357
 30
0.0
 11
287.8063154183509
 21
341.1636727594356
 31
0.0
  0
LINE
  5
5FF
330
1A
100
AcDbEntity
  8
SEIHIN
  6
CONTINUOUS
 62
     3
 48
5.0
100
AcDbLine
 10
290.143515418351
 20
333.5180727594356
 30
0.0
 11
295.596315418351
 21
336.6661727594358
 31
0.0
  0
LINE
  5
600
330
1A
100
AcDbEntity
  8
SEIHIN
  6
CONTINUOUS
 62
     3
 48
5.0
100
AcDbLine
 10
295.596315418351
 20
336.6661727594358
 30
0.0
 11
290.143515418351
 21
333.5179727594358
 31
0.0
  0
LINE
  5
601
330
1A
100
AcDbEntity
  8
SEIHIN
  6
CONTINUOUS
 62
     3
 48
5.0
100
AcDbLine
 10
297.933015418351
 20
329.0206727594356
 30
0.0
 11
297.933015418351
 21
335.3170727594356
 31
0.0
  0
LINE
  5
602
330
1A
100
AcDbEntity
  8
SEIHIN
  6
CONTINUOUS
 62
     3
 48
5.0
100
AcDbLine
 10
293.2595154183508
 20
329.0206727594356
 30
0.0
 11
293.2595154183508
 21
335.3170727594356
 31
0.0
  0
LINE
  5
603
330
1A
100
AcDbEntity
  8
SEIHIN
  6
CONTINUOUS
 62
     3
 48
5.0
100
AcDbLine
 10
287.8063154183509
 20
334.8673727594357
 30
0.0
 11
293.2595154183508
 21
331.7189727594358
 31
0.0
  0
LINE
  5
604
330
1A
100
AcDbEntity
  8
SEIHIN
  6
CONTINUOUS
 62
     3
 48
5.0
100
AcDbLine
 10
293.2595154183508
 20
329.0206727594356
 30
0.0
 11
287.8063154183509
 21
325.8722727594358
 31
0.0
  0
LINE
  5
605
330
1A
100
AcDbEntity
  8
SEIHIN
  6
CONTINUOUS
 62
     3
 48
5.0
100
AcDbLine
 10
287.8063154183509
 20
325.8722727594358
 30
0.0
 11
293.2595154183508
 21
329.0207727594356
 31
0.0
  0
LINE
  5
606
330
1A
100
AcDbEntity
  8
SEIHIN
  6
CONTINUOUS
 62
     3
 48
5.0
100
AcDbLine
 10
285.469515418351
 20
330.8194727594356
 30
0.0
 11
290.9223154183509
 21
327.6712727594357
 31
0.0
  0
LINE
  5
607
330
1A
100
AcDbEntity
  8
SEIHIN
  6
CONTINUOUS
 62
     3
 48
5.0
100
AcDbLine
 10
287.8063154183509
 20
346.5607727594356
 30
0.0
 11
293.2595154183508
 21
343.4123727594358
 31
0.0
  0
LINE
  5
608
330
1A
100
AcDbEntity
  8
SEIHIN
  6
CONTINUOUS
 62
     3
 48
5.0
100
AcDbLine
 10
293.2595154183508
 20
340.7140727594358
 30
0.0
 11
287.8063154183509
 21
337.5656727594358
 31
0.0
  0
LINE
  5
609
330
1A
100
AcDbEntity
  8
SEIHIN
  6
CONTINUOUS
 62
     3
 48
5.0
100
AcDbLine
 10
287.8063154183509
 20
337.5656727594358
 30
0.0
 11
293.2595154183508
 21
340.7141727594356
 31
0.0
  0
LINE
  5
60A
330
1A
100
AcDbEntity
  8
SEIHIN
  6
CONTINUOUS
 62
     3
 48
5.0
100
AcDbLine
 10
285.469515418351
 20
342.5128727594358
 30
0.0
 11
290.9223154183509
 21
339.3646727594356
 31
0.0
  0
LINE
  5
60B
330
1A
100
AcDbEntity
  8
SEIHIN
  6
CONTINUOUS
 62
     3
 48
5.0
100
AcDbLine
 10
297.933015418351
 20
340.7140727594358
 30
0.0
 11
297.933015418351
 21
345.8999727594356
 31
0.0
  0
LINE
  5
60C
330
1A
100
AcDbEntity
  8
SEIHIN
  6
CONTINUOUS
 62
     3
 48
5.0
100
AcDbLine
 10
303.386315418351
 20
334.8673727594357
 30
0.0
 11
303.386315418351
 21
341.1636727594356
 31
0.0
  0
ARC
  5
60D
330
1A
100
AcDbEntity
  8
SEIHIN
  6
CONTINUOUS
 62
     3
 48
5.0
100
AcDbCircle
 10
267.5524754688232
 20
327.6716669590376
 30
0.0
 40
46.74003995045358
100
AcDbArc
 50
359.9996393585552
 51
15.46549502299779
  0
ARC
  5
60E
330
1A
100
AcDbEntity
  8
SEIHIN
  6
CONTINUOUS
 62
     3
 48
5.0
100
AcDbCircle
 10
264.8259987207743
 20
327.6715121870556
 30
0.0
 40
46.74001669778459
100
AcDbArc
 50
359.9998290840539
 51
13.65804046066416
  0
ARC
  5
60F
330
1A
100
AcDbEntity
  8
SEIHIN
  6
CONTINUOUS
 62
     3
 48
5.0
100
AcDbCircle
 10
262.0995095038241
 20
327.6714293149344
 30
0.0
 40
46.7400059145612
100
AcDbArc
 50
359.9999306719944
 51
11.94041539941005
  0
LINE
  5
610
330
1A
100
AcDbEntity
  8
SEIHIN
  6
CONTINUOUS
 62
     3
 48
5.0
100
AcDbLine
 10
305.723015418351
 20
330.8193727594357
 30
0.0
 11
308.8197154183508
 21
329.0315727594357
 31
0.0
  0
LINE
  5
611
330
1A
100
AcDbEntity
  8
SEIHIN
  6
CONTINUOUS
 62
     3
 48
5.0
100
AcDbLine
 10
308.0597154183509
 20
334.8673727594357
 30
0.0
 11
308.304015418351
 21
334.7262727594358
 31
0.0
  0
ARC
  5
612
330
1A
100
AcDbEntity
  8
SEIHIN
  6
CONTINUOUS
 62
     3
 48
5.0
100
AcDbCircle
 10
294.0385137483778
 20
347.1297743657008
 30
0.0
 40
8.569000278620542
100
AcDbArc
 50
10.21399007672844
 51
82.01399466821245
  0
ARC
  5
613
330
1A
100
AcDbEntity
  8
SEIHIN
  6
CONTINUOUS
 62
     3
 48
5.0
100
AcDbCircle
 10
292.6588207514983
 20
345.3966677020439
 30
0.0
 40
7.790033605833693
100
AcDbArc
 50
12.03207934628861
 51
81.00845243938882
  0
LINE
  5
614
330
1A
100
AcDbEntity
  8
SEIHIN
  6
CONTINUOUS
 62
     3
 48
5.0
100
AcDbLine
 10
290.7065154183509
 20
350.9334727594357
 30
0.0
 11
287.8063154183509
 21
349.2589727594356
 31
0.0
  0
LINE
  5
615
330
1A
100
AcDbEntity
  8
SEIHIN
  6
CONTINUOUS
 62
     3
 48
5.0
100
AcDbLine
 10
287.8063154183509
 20
349.2590727594357
 30
0.0
 11
290.706415418351
 21
350.9334727594357
 31
0.0
  0
LINE
  5
616
330
1A
100
AcDbEntity
  8
SEIHIN
  6
CONTINUOUS
 62
     3
 48
5.0
100
AcDbLine
 10
295.596315418351
 20
348.3595727594358
 30
0.0
 11
297.2119154183508
 21
347.4266727594358
 31
0.0
  0
LINE
  5
617
330
1A
100
AcDbEntity
  8
SEIHIN
  6
CONTINUOUS
 62
     3
 48
5.0
100
AcDbLine
 10
302.6075154183509
 20
348.7043727594356
 30
0.0
 11
302.5287154183509
 21
348.6435727594358
 31
0.0
  0
ARC
  5
618
330
1A
100
AcDbEntity
  8
SEIHIN
  6
CONTINUOUS
 62
     3
 48
5.0
100
AcDbCircle
 10
321.6781459186209
 20
363.6713511924298
 30
0.0
 40
6.000021567083334
100
AcDbArc
 50
19.47136626222514
 51
90.00029125507628
  0
ARC
  5
619
330
1A
100
AcDbEntity
  8
SEIHIN
  6
CONTINUOUS
 62
     3
 48
5.0
100
AcDbCircle
 10
321.5905737355132
 20
363.6714050467535
 30
0.0
 40
7.999967712790685
100
AcDbArc
 50
14.47733306666229
 51
89.99970146745916
  0
LINE
  5
61A
330
1A
100
AcDbEntity
  8
SEIHIN
  6
CONTINUOUS
 62
     3
 48
5.0
100
AcDbLine
 10
345.342815418351
 20
375.6713727594356
 30
0.0
 11
344.703015418351
 21
369.2733727594358
 31
0.0
  0
LINE
  5
61E
330
1A
100
AcDbEntity
  8
SEIHIN
  6
CONTINUOUS
 62
     3
 48
5.0
100
AcDbLine
 10
337.3428154183508
 20
365.6713727594356
 30
0.0
 11
335.8428154183509
 21
327.6713727594356
 31
0.0
  0
LINE
  5
61F
330
1A
100
AcDbEntity
  8
SEIHIN
  6
CONTINUOUS
 62
     3
 48
5.0
100
AcDbLine
 10
339.3412154183509
 20
365.5924727594357
 30
0.0
 11
337.844315418351
 21
327.6713727594356
 31
0.0
  0
LINE
  5
620
330
1A
100
AcDbEntity
  8
SEIHIN
  6
CONTINUOUS
 62
     3
 48
5.0
100
AcDbLine
 10
340.0292154183509
 20
357.6683727594357
 30
0.0
 11
338.8451154183508
 21
327.6713727594356
 31
0.0
  0
LINE
  5
621
330
1A
100
AcDbEntity
  8
SEIHIN
  6
CONTINUOUS
 62
     3
 48
5.0
100
AcDbLine
 10
342.935215418351
 20
355.2267727594358
 30
0.0
 11
341.847515418351
 21
327.6713727594356
 31
0.0
  0
LINE
  5
622
330
1A
100
AcDbEntity
  8
SEIHIN
  6
CONTINUOUS
 62
     3
 48
5.0
100
AcDbLine
 10
327.8365154183508
 20
327.6713727594356
 30
0.0
 11
329.3365154183508
 21
365.6713727594356
 31
0.0
  0
LINE
  5
623
330
1A
100
AcDbEntity
  8
SEIHIN
  6
CONTINUOUS
 62
     3
 48
5.0
100
AcDbLine
 10
325.835015418351
 20
327.6713727594356
 30
0.0
 11
327.335015418351
 21
365.6713727594356
 31
0.0
  0
LINE
  5
624
330
1A
100
AcDbEntity
  8
SEIHIN
  6
CONTINUOUS
 62
     3
 48
5.0
100
AcDbLine
 10
339.5867154183509
 20
346.4573727594356
 30
0.0
 11
342.531515418351
 21
344.9988727594358
 31
0.0
  0
LINE
  5
625
330
1A
100
AcDbEntity
  8
SEIHIN
  6
CONTINUOUS
 62
     3
 48
5.0
100
AcDbLine
 10
339.5867154183509
 20
346.4573727594356
 30
0.0
 11
338.585915418351
 21
346.4573727594356
 31
0.0
  0
LINE
  5
626
330
1A
100
AcDbEntity
  8
SEIHIN
  6
CONTINUOUS
 62
     3
 48
5.0
100
AcDbLine
 10
327.335015418351
 20
365.6713727594356
 30
0.0
 11
340.7228154183508
 21
365.6713727594356
 31
0.0
  0
LINE
  5
627
330
1A
100
AcDbEntity
  8
SEIHIN
  6
CONTINUOUS
 62
     3
 48
5.0
100
AcDbLine
 10
340.0292154183509
 20
357.6683727594357
 30
0.0
 11
342.935215418351
 21
355.2267727594358
 31
0.0
  0
LINE
  5
628
330
1A
100
AcDbEntity
  8
SEIHIN
  6
CONTINUOUS
 62
     3
 48
5.0
100
AcDbLine
 10
340.0292154183509
 20
357.6683727594357
 30
0.0
 11
339.028415418351
 21
357.6683727594357
 31
0.0
  0
ARC
  5
629
330
1A
100
AcDbEntity
  8
SEIHIN
  6
CONTINUOUS
 62
     3
 48
5.0
100
AcDbCircle
 10
340.7228427692495
 20
369.6713975117826
 30
0.0
 40
4.000024752440467
100
AcDbArc
 50
269.9996082296599
 51
354.2893001457902
  0
ARC
  5
62E
330
1A
100
AcDbEntity
  8
SEIHIN
  6
CONTINUOUS
 62
     3
 48
5.0
100
AcDbCircle
 10
338.1040920398554
 20
388.8091357640465
 30
0.0
 40
14.99994950594916
100
AcDbArc
 50
298.853814004547
 51
356.5664397871918
  0
LINE
  5
62F
330
1A
100
AcDbEntity
  8
SEIHIN
  6
CONTINUOUS
 62
     3
 48
5.0
100
AcDbLine
 10
353.842815418351
 20
400.6713727594357
 30
0.0
 11
353.0771154183509
 21
387.9107727594358
 31
0.0
  0
LINE
  5
632
330
1A
100
AcDbEntity
  8
SEIHIN
  6
CONTINUOUS
 62
     3
 48
5.0
100
AcDbLine
 10
355.342815418351
 20
405.6713727594356
 30
0.0
 11
355.342815418351
 21
400.6713727594357
 31
0.0
  0
ARC
  5
638
330
1A
100
AcDbEntity
  8
SEIHIN
  6
CONTINUOUS
 62
     3
 48
5.0
100
AcDbCircle
 10
568.994094171378
 20
327.6714900618762
 30
0.0
 40
41.85567049303281
100
AcDbArc
 50
344.5336986377865
 51
359.9995656480841
  0
LINE
  5
639
330
1A
100
AcDbEntity
  8
SEIHIN
  6
CONTINUOUS
 62
     3
 48
5.0
100
AcDbLine
 10
605.2682646632081
 20
323.6439727594356
 30
0.0
 11
605.7448646632082
 21
323.3687727594357
 31
0.0
  0
LINE
  5
63A
330
1A
100
AcDbEntity
  8
SEIHIN
  6
CONTINUOUS
 62
     3
 48
5.0
100
AcDbLine
 10
594.107264663208
 20
325.2547727594357
 30
0.0
 11
598.9902646632083
 21
322.4355727594357
 31
0.0
  0
LINE
  5
63B
330
1A
100
AcDbEntity
  8
SEIHIN
  6
CONTINUOUS
 62
     3
 48
5.0
100
AcDbLine
 10
601.0831646632082
 20
323.6439727594356
 30
0.0
 11
596.1997646632083
 21
320.8244727594358
 31
0.0
  0
LINE
  5
63C
330
1A
100
AcDbEntity
  8
SEIHIN
  6
CONTINUOUS
 62
     3
 48
5.0
100
AcDbLine
 10
596.1997646632083
 20
320.8246727594356
 30
0.0
 11
601.0831646632082
 21
323.6439727594356
 31
0.0
  0
LINE
  5
63D
330
1A
100
AcDbEntity
  8
SEIHIN
  6
CONTINUOUS
 62
     3
 48
5.0
100
AcDbLine
 10
596.199864663208
 20
318.4082727594358
 30
0.0
 11
596.1997646632083
 21
324.0466727594358
 31
0.0
  0
ARC
  5
63E
330
1A
100
AcDbEntity
  8
SEIHIN
  6
CONTINUOUS
 62
     3
 48
5.0
100
AcDbCircle
 10
564.1109341007506
 20
327.6709805290299
 30
0.0
 40
41.8556305625589
100
AcDbArc
 50
348.0597049003392
 51
0.0001262533361068
  0
ARC
  5
63F
330
1A
100
AcDbEntity
  8
SEIHIN
  6
CONTINUOUS
 62
     3
 48
5.0
100
AcDbCircle
 10
566.5524913402309
 20
327.6714955114648
 30
0.0
 40
41.85567332422149
100
AcDbArc
 50
346.3412755950442
 51
359.9995581882306
  0
LINE
  5
640
330
1A
100
AcDbEntity
  8
SEIHIN
  6
CONTINUOUS
 62
     3
 48
5.0
100
AcDbLine
 10
587.1312646632081
 20
323.6439727594356
 30
0.0
 11
592.0146646632081
 21
320.8246727594356
 31
0.0
  0
LINE
  5
641
330
1A
100
AcDbEntity
  8
SEIHIN
  6
CONTINUOUS
 62
     3
 48
5.0
100
AcDbLine
 10
582.9462646632079
 20
323.6439727594356
 30
0.0
 11
578.0627646632082
 21
320.8244727594358
 31
0.0
  0
LINE
  5
642
330
1A
100
AcDbEntity
  8
SEIHIN
  6
CONTINUOUS
 62
     3
 48
5.0
100
AcDbLine
 10
578.0627646632082
 20
320.8246727594356
 30
0.0
 11
582.9462646632079
 21
323.6440727594356
 31
0.0
  0
LINE
  5
643
330
1A
100
AcDbEntity
  8
SEIHIN
  6
CONTINUOUS
 62
     3
 48
5.0
100
AcDbLine
 10
592.0148646632083
 20
318.4082727594358
 30
0.0
 11
592.0146646632081
 21
324.0466727594358
 31
0.0
  0
LINE
  5
644
330
1A
100
AcDbEntity
  8
SEIHIN
  6
CONTINUOUS
 62
     3
 48
5.0
100
AcDbLine
 10
578.0629646632083
 20
318.4082727594358
 30
0.0
 11
578.0627646632082
 21
324.0466727594358
 31
0.0
  0
LINE
  5
645
330
1A
100
AcDbEntity
  8
SEIHIN
  6
CONTINUOUS
 62
     3
 48
5.0
100
AcDbLine
 10
575.9700646632081
 20
325.2547727594357
 30
0.0
 11
571.0870646632081
 21
322.4356727594358
 31
0.0
  0
LINE
  5
646
330
1A
100
AcDbEntity
  8
SEIHIN
  6
CONTINUOUS
 62
     3
 48
5.0
100
AcDbLine
 10
573.8775646632082
 20
320.8246727594356
 30
0.0
 11
568.994064663208
 21
323.6440727594356
 31
0.0
  0
LINE
  5
647
330
1A
100
AcDbEntity
  8
SEIHIN
  6
CONTINUOUS
 62
     3
 48
5.0
100
AcDbLine
 10
568.994064663208
 20
323.6439727594356
 30
0.0
 11
573.8775646632082
 21
320.8245727594357
 31
0.0
  0
LINE
  5
648
330
1A
100
AcDbEntity
  8
SEIHIN
  6
CONTINUOUS
 62
     3
 48
5.0
100
AcDbLine
 10
573.8774646632079
 20
318.4082727594358
 30
0.0
 11
573.8775646632082
 21
324.0466727594358
 31
0.0
  0
LINE
  5
649
330
1A
100
AcDbEntity
  8
SEIHIN
  6
CONTINUOUS
 62
     3
 48
5.0
100
AcDbLine
 10
575.9702646632081
 20
325.2547727594357
 30
0.0
 11
580.8531646632082
 21
322.4355727594357
 31
0.0
  0
LINE
  5
64A
330
1A
100
AcDbEntity
  8
SEIHIN
  6
CONTINUOUS
 62
     3
 48
5.0
100
AcDbLine
 10
589.2242646632082
 20
322.4355727594357
 30
0.0
 11
594.107264663208
 21
325.2547727594357
 31
0.0
  0
LINE
  5
64B
330
1A
100
AcDbEntity
  8
SEIHIN
  6
CONTINUOUS
 62
     3
 48
5.0
100
AcDbLine
 10
594.107264663208
 20
325.2547727594357
 30
0.0
 11
589.2242646632082
 21
322.4355727594357
 31
0.0
  0
LINE
  5
64C
330
1A
100
AcDbEntity
  8
SEIHIN
  6
CONTINUOUS
 62
     3
 48
5.0
100
AcDbLine
 10
546.6720646632081
 20
323.6440727594356
 30
0.0
 11
546.1954646632082
 21
323.3688727594358
 31
0.0
  0
LINE
  5
64D
330
1A
100
AcDbEntity
  8
SEIHIN
  6
CONTINUOUS
 62
     3
 48
5.0
100
AcDbLine
 10
550.8571646632081
 20
323.6440727594356
 30
0.0
 11
555.7405646632083
 21
320.8245727594357
 31
0.0
  0
LINE
  5
64E
330
1A
100
AcDbEntity
  8
SEIHIN
  6
CONTINUOUS
 62
     3
 48
5.0
100
AcDbLine
 10
555.7405646632083
 20
320.8246727594356
 30
0.0
 11
550.8571646632081
 21
323.6440727594356
 31
0.0
  0
LINE
  5
64F
330
1A
100
AcDbEntity
  8
SEIHIN
  6
CONTINUOUS
 62
     3
 48
5.0
100
AcDbLine
 10
557.8330646632082
 20
325.2548727594356
 30
0.0
 11
552.9500646632081
 21
322.4356727594358
 31
0.0
  0
LINE
  5
650
330
1A
100
AcDbEntity
  8
SEIHIN
  6
CONTINUOUS
 62
     3
 48
5.0
100
AcDbLine
 10
555.740464663208
 20
318.4082727594358
 30
0.0
 11
555.7405646632083
 21
324.0466727594358
 31
0.0
  0
LINE
  5
651
330
1A
100
AcDbEntity
  8
SEIHIN
  6
CONTINUOUS
 62
     3
 48
5.0
100
AcDbLine
 10
559.9254646632082
 20
318.4082727594358
 30
0.0
 11
559.9256646632081
 21
324.0466727594358
 31
0.0
  0
ARC
  5
652
330
1A
100
AcDbEntity
  8
SEIHIN
  6
CONTINUOUS
 62
     3
 48
5.0
100
AcDbCircle
 10
585.3877761801823
 20
327.6711765912647
 30
0.0
 40
41.85561151708484
100
AcDbArc
 50
179.999868356234
 51
193.6581548202904
  0
ARC
  5
653
330
1A
100
AcDbEntity
  8
SEIHIN
  6
CONTINUOUS
 62
     3
 48
5.0
100
AcDbCircle
 10
582.9462700118222
 20
327.6712333706813
 30
0.0
 40
41.85570534863257
100
AcDbArc
 50
179.9999460812003
 51
195.4657815447683
  0
ARC
  5
654
330
1A
100
AcDbEntity
  8
SEIHIN
  6
CONTINUOUS
 62
     3
 48
5.0
100
AcDbCircle
 10
587.8293745348243
 20
327.6711783652567
 30
0.0
 40
41.85560987172268
100
AcDbArc
 50
179.999870784631
 51
191.9402980616932
  0
ARC
  5
655
330
1A
100
AcDbEntity
  8
SEIHIN
  6
CONTINUOUS
 62
     3
 48
5.0
100
AcDbCircle
 10
819.7634293371384
 20
338.7395515011586
 30
0.0
 40
300.0000269425223
100
AcDbArc
 50
182.1144416437892
 51
188.5430752210008
  0
ARC
  5
656
330
1A
100
AcDbEntity
  8
SEIHIN
  6
CONTINUOUS
 62
     3
 48
5.0
100
AcDbCircle
 10
816.7610488787184
 20
338.7393508291971
 30
0.0
 40
299.9999391350383
100
AcDbArc
 50
182.1144039113083
 51
188.0168288413933
  0
LINE
  5
657
330
1A
100
AcDbEntity
  8
SEIHIN
  6
CONTINUOUS
 62
     3
 48
5.0
100
AcDbLine
 10
557.8330646632082
 20
325.2548727594356
 30
0.0
 11
562.716064663208
 21
322.4355727594357
 31
0.0
  0
LINE
  5
658
330
1A
100
AcDbEntity
  8
SEIHIN
  6
CONTINUOUS
 62
     3
 48
5.0
100
AcDbLine
 10
562.716064663208
 20
322.4355727594357
 30
0.0
 11
557.8330646632082
 21
325.2548727594356
 31
0.0
  0
LINE
  5
659
330
1A
100
AcDbEntity
  8
SEIHIN
  6
CONTINUOUS
 62
     3
 48
5.0
100
AcDbLine
 10
564.8089646632081
 20
323.6439727594356
 30
0.0
 11
559.9256646632081
 21
320.8246727594356
 31
0.0
  0
LINE
  5
65A
330
1A
100
AcDbEntity
  8
SEIHIN
  6
CONTINUOUS
 62
     3
 48
5.0
100
AcDbLine
 10
620.8090646632081
 20
363.6282727594356
 30
0.0
 11
619.4789646632082
 21
277.1943727594357
 31
0.0
  0
LINE
  5
65B
330
1A
100
AcDbEntity
  8
SEIHIN
  6
CONTINUOUS
 62
     3
 48
5.0
100
AcDbLine
 10
621.3547646632082
 20
275.7942727594357
 30
0.0
 11
622.7060646632081
 21
363.6063727594357
 31
0.0
  0
LINE
  5
65C
330
1A
100
AcDbEntity
  8
SEIHIN
  6
CONTINUOUS
 62
     3
 48
5.0
100
AcDbLine
 10
631.4702646632081
 20
405.6714727594358
 30
0.0
 11
629.4999646632081
 21
277.6404727594357
 31
0.0
  0
ARC
  5
65D
330
1A
100
AcDbEntity
  8
SEIHIN
  6
CONTINUOUS
 62
     3
 48
5.0
100
AcDbCircle
 10
832.7736292805127
 20
338.7385425700983
 30
0.0
 40
299.9999933517602
100
AcDbArc
 50
182.114268169334
 51
191.782939335588
  0
ARC
  5
65E
330
1A
100
AcDbEntity
  8
SEIHIN
  6
CONTINUOUS
 62
     3
 48
5.0
100
AcDbCircle
 10
820.7641616614839
 20
338.7391973134732
 30
0.0
 40
299.9999462451876
100
AcDbArc
 50
182.1143745218489
 51
191.8252521859913
  0
ARC
  5
65F
330
1A
100
AcDbEntity
  8
SEIHIN
  6
CONTINUOUS
 62
     3
 48
5.0
100
AcDbCircle
 10
822.7657616614839
 20
338.7391973134732
 30
0.0
 40
299.9999462451876
100
AcDbArc
 50
182.1143745218489
 51
191.8252521859913
  0
ARC
  5
660
330
1A
100
AcDbEntity
  8
SEIHIN
  6
CONTINUOUS
 62
     3
 48
5.0
100
AcDbCircle
 10
830.7720194022211
 20
338.7395348460301
 30
0.0
 40
300.000016399869
100
AcDbArc
 50
182.1144385350667
 51
192.1357840181702
  0
TEXT
  5
664
330
1A
100
AcDbEntity
  8
ZUWAKU
 62
     7
100
AcDbText
 10
654.2531733678779
 20
15.90287984531518
 30
0.0
 40
8.0
  1
ＧＨ４２
100
AcDbText
  0
LINE
  5
668
330
1A
100
AcDbEntity
  8
SEIHIN
  6
CONTINUOUS
 62
     3
 48
5.0
100
AcDbLine
 10
566.9015646632081
 20
320.0190727594358
 30
0.0
 11
562.0184646632081
 21
317.1998727594356
 31
0.0
  0
LINE
  5
669
330
1A
100
AcDbEntity
  8
SEIHIN
  6
CONTINUOUS
 62
     3
 48
5.0
100
AcDbLine
 10
566.901464663208
 20
309.5476727594357
 30
0.0
 11
562.0184646632081
 21
306.7284727594358
 31
0.0
  0
LINE
  5
66A
330
1A
100
AcDbEntity
  8
SEIHIN
  6
CONTINUOUS
 62
     3
 48
5.0
100
AcDbLine
 10
559.9254646632082
 20
318.4082727594358
 30
0.0
 11
564.8088646632081
 21
315.5888727594356
 31
0.0
  0
LINE
  5
66B
330
1A
100
AcDbEntity
  8
SEIHIN
  6
CONTINUOUS
 62
     3
 48
5.0
100
AcDbLine
 10
564.8088646632081
 20
315.5888727594356
 30
0.0
 11
559.9254646632082
 21
318.4082727594358
 31
0.0
  0
LINE
  5
66C
330
1A
100
AcDbEntity
  8
SEIHIN
  6
CONTINUOUS
 62
     3
 48
5.0
100
AcDbLine
 10
564.8088646632081
 20
313.1725727594357
 30
0.0
 11
559.9254646632082
 21
310.3531727594356
 31
0.0
  0
ARC
  5
66D
330
1A
100
AcDbEntity
  8
SEIHIN
  6
CONTINUOUS
 62
     3
 48
5.0
100
AcDbCircle
 10
548.4704602834956
 20
238.4474143765404
 30
0.0
 40
69.75945052396558
100
AcDbArc
 50
66.78370590812656
 51
79.98114852663769
  0
ARC
  5
66E
330
1A
100
AcDbEntity
  8
SEIHIN
  6
CONTINUOUS
 62
     3
 48
5.0
100
AcDbCircle
 10
548.4702646000835
 20
236.0058727776606
 30
0.0
 40
69.75947399131531
100
AcDbArc
 50
66.78353929284384
 51
81.00830391964459
  0
ARC
  5
66F
330
1A
100
AcDbEntity
  8
SEIHIN
  6
CONTINUOUS
 62
     3
 48
5.0
100
AcDbCircle
 10
548.4705763276988
 20
233.5642857345409
 30
0.0
 40
69.75943110172339
100
AcDbArc
 50
66.78380277467046
 51
82.01447122106545
  0
LINE
  5
670
330
1A
100
AcDbEntity
  8
SEIHIN
  6
CONTINUOUS
 62
     3
 48
5.0
100
AcDbLine
 10
579.4701646632081
 20
231.6705727594357
 30
0.0
 11
545.4703646632081
 21
231.6706727594357
 31
0.0
  0
LINE
  5
671
330
1A
100
AcDbEntity
  8
SEIHIN
  6
CONTINUOUS
 62
     3
 48
5.0
100
AcDbLine
 10
579.4701646632081
 20
234.6705727594358
 30
0.0
 11
544.0203646632083
 21
234.6706727594358
 31
0.0
  0
LINE
  5
672
330
1A
100
AcDbEntity
  8
SEIHIN
  6
CONTINUOUS
 62
     3
 48
5.0
100
AcDbLine
 10
551.5703646632082
 20
201.6705727594358
 30
0.0
 11
579.4700646632081
 21
201.6705727594358
 31
0.0
  0
LINE
  5
673
330
1A
100
AcDbEntity
  8
SEIHIN
  6
CONTINUOUS
 62
     3
 48
5.0
100
AcDbLine
 10
529.0884646632082
 20
275.6715727594357
 30
0.0
 11
579.4705646632082
 21
275.6712727594357
 31
0.0
  0
LINE
  5
674
330
1A
100
AcDbEntity
  8
SEIHIN
  6
CONTINUOUS
 62
     3
 48
5.0
100
AcDbLine
 10
579.4700646632081
 20
202.1705727594357
 30
0.0
 11
551.0703646632082
 21
202.1705727594357
 31
0.0
  0
LINE
  5
675
330
1A
100
AcDbEntity
  8
SEIHIN
  6
CONTINUOUS
 62
     3
 48
5.0
100
AcDbLine
 10
579.4702646632081
 20
273.1705727594357
 30
0.0
 11
531.4704646632082
 21
273.1706727594357
 31
0.0
  0
LINE
  5
676
330
1A
100
AcDbEntity
  8
SEIHIN
  6
CONTINUOUS
 62
     3
 48
5.0
100
AcDbLine
 10
579.4701646632081
 20
261.6705727594358
 30
0.0
 11
536.4704646632083
 21
261.6706727594357
 31
0.0
  0
LINE
  5
678
330
1A
100
AcDbEntity
  8
SEIHIN
  6
CONTINUOUS
 62
     3
 48
5.0
100
AcDbLine
 10
551.0703646632082
 20
202.1705727594357
 30
0.0
 11
551.0703646632082
 21
231.6705727594357
 31
0.0
  0
LINE
  5
689
330
1A
100
AcDbEntity
  8
SEIHIN
  6
CONTINUOUS
 62
     3
 48
5.0
100
AcDbLine
 10
551.0703646632082
 20
202.1705727594357
 30
0.0
 11
551.5703646632082
 21
201.6705727594358
 31
0.0
  0
ARC
  5
68F
330
1A
100
AcDbEntity
  8
SEIHIN
  6
CONTINUOUS
 62
     3
 48
5.0
100
AcDbCircle
 10
537.6266671358644
 20
277.1715758010961
 30
0.0
 40
1.500003041662487
100
AcDbArc
 50
269.9999055516773
 51
11.78252890642937
  0
ARC
  5
690
330
1A
100
AcDbEntity
  8
SEIHIN
  6
CONTINUOUS
 62
     3
 48
5.0
100
AcDbCircle
 10
529.0884314600034
 20
277.6715997303219
 30
0.0
 40
2.000026971161851
100
AcDbArc
 50
191.8271997287594
 51
270.0009511889231
  0
ARC
  5
691
330
1A
100
AcDbEntity
  8
SEIHIN
  6
CONTINUOUS
 62
     3
 48
5.0
100
AcDbCircle
 10
531.0900314600032
 20
277.671599730322
 30
0.0
 40
2.000026971161922
100
AcDbArc
 50
191.8271997287611
 51
270.0009511889248
  0
LINE
  5
692
330
1A
100
AcDbEntity
  8
SEIHIN
  6
CONTINUOUS
 62
     3
 48
5.0
100
AcDbLine
 10
544.0203646632083
 20
234.6705727594358
 30
0.0
 11
544.0203646632083
 21
261.6705727594358
 31
0.0
  0
LINE
  5
693
330
1A
100
AcDbEntity
  8
SEIHIN
  6
CONTINUOUS
 62
     3
 48
5.0
100
AcDbLine
 10
545.4703646632081
 20
231.6705727594357
 30
0.0
 11
545.4703646632081
 21
234.6705727594358
 31
0.0
  0
ARC
  5
694
330
1A
100
AcDbEntity
  8
SEIHIN
  6
CONTINUOUS
 62
     3
 48
5.0
100
AcDbCircle
 10
518.4968966146215
 20
260.6931992682376
 30
0.0
 40
18.00002257317637
100
AcDbArc
 50
3.112603318704466
 51
43.88332564661208
  0
LINE
  5
695
330
1A
100
AcDbEntity
  8
SEIHIN
  6
CONTINUOUS
 62
     3
 48
5.0
100
AcDbLine
 10
531.470364663208
 20
273.1708727594358
 30
0.0
 11
531.470364663208
 21
275.6705727594357
 31
0.0
  0
LINE
  5
696
330
1A
100
AcDbEntity
  8
SEIHIN
  6
CONTINUOUS
 62
     3
 48
5.0
100
AcDbLine
 10
524.0926646632081
 20
294.1743727594358
 30
0.0
 11
523.0918646632081
 21
294.1743727594358
 31
0.0
  0
LINE
  5
697
330
1A
100
AcDbEntity
  8
SEIHIN
  6
CONTINUOUS
 62
     3
 48
5.0
100
AcDbLine
 10
519.6927646632079
 20
296.9009727594357
 30
0.0
 11
523.0918646632081
 21
294.1743727594358
 31
0.0
  0
LINE
  5
698
330
1A
100
AcDbEntity
  8
SEIHIN
  6
CONTINUOUS
 62
     3
 48
5.0
100
AcDbLine
 10
518.3069646632081
 20
308.3222727594358
 30
0.0
 11
521.4797646632082
 21
306.6936727594358
 31
0.0
  0
LINE
  5
699
330
1A
100
AcDbEntity
  8
SEIHIN
  6
CONTINUOUS
 62
     3
 48
5.0
100
AcDbLine
 10
522.480564663208
 20
306.6936727594358
 30
0.0
 11
521.4797646632082
 21
306.6936727594358
 31
0.0
  0
LINE
  5
69A
330
1A
100
AcDbEntity
  8
SEIHIN
  6
CONTINUOUS
 62
     3
 48
5.0
100
AcDbLine
 10
548.7645646632081
 20
320.0190727594358
 30
0.0
 11
546.894764663208
 21
318.9396727594356
 31
0.0
  0
ARC
  5
69B
330
1A
100
AcDbEntity
  8
SEIHIN
  6
CONTINUOUS
 62
     3
 48
5.0
100
AcDbCircle
 10
554.2059185098098
 20
320.0940278496847
 30
0.0
 40
9.766315073323864
100
AcDbArc
 50
193.6578500061966
 51
266.6831614387742
  0
ARC
  5
69C
330
1A
100
AcDbEntity
  8
SEIHIN
  6
CONTINUOUS
 62
     3
 48
5.0
100
AcDbCircle
 10
555.7518497597505
 20
320.8878848408094
 30
0.0
 40
9.068712081386037
100
AcDbArc
 50
191.9407171762437
 51
270.0000941594808
  0
ARC
  5
69D
330
1A
100
AcDbEntity
  8
SEIHIN
  6
CONTINUOUS
 62
     3
 48
5.0
100
AcDbCircle
 10
552.6911893424389
 20
319.3002520140666
 30
0.0
 40
10.46393516634024
100
AcDbArc
 50
195.4659903167069
 51
264.4328803844332
  0
LINE
  5
69E
330
1A
100
AcDbEntity
  8
SEIHIN
  6
CONTINUOUS
 62
     3
 48
5.0
100
AcDbLine
 10
555.740464663208
 20
311.3476727594356
 30
0.0
 11
555.740464663208
 21
313.5752727594358
 31
0.0
  0
LINE
  5
69F
330
1A
100
AcDbEntity
  8
SEIHIN
  6
CONTINUOUS
 62
     3
 48
5.0
100
AcDbLine
 10
559.9254646632082
 20
307.9369727594356
 30
0.0
 11
559.9254646632082
 21
313.5752727594358
 31
0.0
  0
LINE
  5
6A0
330
1A
100
AcDbEntity
  8
SEIHIN
  6
CONTINUOUS
 62
     3
 48
5.0
100
AcDbLine
 10
562.715864663208
 20
311.9641727594356
 30
0.0
 11
557.832964663208
 21
314.7833727594356
 31
0.0
  0
LINE
  5
6A1
330
1A
100
AcDbEntity
  8
SEIHIN
  6
CONTINUOUS
 62
     3
 48
5.0
100
AcDbLine
 10
557.832964663208
 20
314.7833727594356
 30
0.0
 11
562.715864663208
 21
311.9641727594356
 31
0.0
  0
ARC
  5
6A2
330
1A
100
AcDbEntity
  8
SEIHIN
  6
CONTINUOUS
 62
     3
 48
5.0
100
AcDbCircle
 10
561.6990141010444
 20
313.3257200308306
 30
0.0
 40
6.27838642621985
100
AcDbArc
 50
193.8727644225085
 51
259.9812893722051
  0
ARC
  5
6A3
330
1A
100
AcDbEntity
  8
SEIHIN
  6
CONTINUOUS
 62
     3
 48
5.0
100
AcDbCircle
 10
560.4634498386647
 20
311.7982868175275
 30
0.0
 40
6.975942339938525
100
AcDbArc
 50
192.0321961357144
 51
261.0082543603194
  0
ARC
  5
6A4
330
1A
100
AcDbEntity
  8
SEIHIN
  6
CONTINUOUS
 62
     3
 48
5.0
100
AcDbCircle
 10
559.2279227643928
 20
310.2464130605457
 30
0.0
 40
7.67355284018134
100
AcDbArc
 50
190.2134375104363
 51
262.014280900497
  0
LINE
  5
6A5
330
1A
100
AcDbEntity
  8
SEIHIN
  6
CONTINUOUS
 62
     3
 48
5.0
100
AcDbLine
 10
551.5543646632079
 20
308.8363727594357
 30
0.0
 11
551.6249646632082
 21
308.8908727594358
 31
0.0
  0
LINE
  5
6A6
330
1A
100
AcDbEntity
  8
SEIHIN
  6
CONTINUOUS
 62
     3
 48
5.0
100
AcDbLine
 10
559.9254646632082
 20
307.9369727594356
 30
0.0
 11
561.6257646632079
 21
306.9552727594356
 31
0.0
  0
LINE
  5
6A7
330
1A
100
AcDbEntity
  8
SEIHIN
  6
CONTINUOUS
 62
     3
 48
5.0
100
AcDbLine
 10
557.832964663208
 20
314.7833727594356
 30
0.0
 11
553.2889646632079
 21
312.1598727594356
 31
0.0
  0
LINE
  5
6A8
330
1A
100
AcDbEntity
  8
SEIHIN
  6
CONTINUOUS
 62
     3
 48
5.0
100
AcDbLine
 10
550.857064663208
 20
313.1725727594357
 30
0.0
 11
550.857064663208
 21
318.8109727594357
 31
0.0
  0
LINE
  5
6A9
330
1A
100
AcDbEntity
  8
SEIHIN
  6
CONTINUOUS
 62
     3
 48
5.0
100
AcDbLine
 10
555.740464663208
 20
318.4082727594358
 30
0.0
 11
550.857064663208
 21
315.5888727594356
 31
0.0
  0
LINE
  5
6AA
330
1A
100
AcDbEntity
  8
SEIHIN
  6
CONTINUOUS
 62
     3
 48
5.0
100
AcDbLine
 10
553.647364663208
 20
317.1999727594358
 30
0.0
 11
548.7645646632081
 21
320.0190727594358
 31
0.0
  0
LINE
  5
6AB
330
1A
100
AcDbEntity
  8
SEIHIN
  6
CONTINUOUS
 62
     3
 48
5.0
100
AcDbLine
 10
548.7645646632081
 20
320.0190727594358
 30
0.0
 11
553.647364663208
 21
317.1999727594358
 31
0.0
  0
LINE
  5
6AC
330
1A
100
AcDbEntity
  8
SEIHIN
  6
CONTINUOUS
 62
     3
 48
5.0
100
AcDbLine
 10
607.8702646632081
 20
202.1704727594357
 30
0.0
 11
607.8703646632082
 21
231.6704727594358
 31
0.0
  0
LINE
  5
6AD
330
1A
100
AcDbEntity
  8
CENTER_L
  6
CENTER
 62
     1
 48
5.0
100
AcDbLine
 10
579.4701646632081
 20
281.5633727594358
 30
0.0
 11
579.4701646632081
 21
194.6705727611829
 31
0.0
  0
LINE
  5
6B9
330
1A
100
AcDbEntity
  8
SEIHIN
  6
CONTINUOUS
 62
     3
 48
5.0
100
AcDbLine
 10
607.3702646632082
 20
201.6704727594357
 30
0.0
 11
579.470664663208
 21
201.6705727594358
 31
0.0
  0
LINE
  5
6BA
330
1A
100
AcDbEntity
  8
SEIHIN
  6
CONTINUOUS
 62
     3
 48
5.0
100
AcDbLine
 10
579.470664663208
 20
202.1705727594357
 30
0.0
 11
607.8702646632081
 21
202.1704727594357
 31
0.0
  0
LINE
  5
6BB
330
1A
100
AcDbEntity
  8
SEIHIN
  6
CONTINUOUS
 62
     3
 48
5.0
100
AcDbLine
 10
607.8702646632081
 20
202.1704727594357
 30
0.0
 11
607.3702646632082
 21
201.6704727594357
 31
0.0
  0
ARC
  5
6BC
330
1A
100
AcDbEntity
  8
SEIHIN
  6
CONTINUOUS
 62
     3
 48
5.0
100
AcDbCircle
 10
627.5002319873919
 20
277.671140581418
 30
0.0
 40
1.99996782224917
100
AcDbArc
 50
270.0009361082416
 51
359.1213830466082
  0
LINE
  5
6BD
330
1A
100
AcDbEntity
  8
SEIHIN
  6
CONTINUOUS
 62
     3
 48
5.0
100
AcDbLine
 10
579.470664663208
 20
261.6705727594358
 30
0.0
 11
622.4703646632083
 21
261.6705727594358
 31
0.0
  0
LINE
  5
6BE
330
1A
100
AcDbEntity
  8
SEIHIN
  6
CONTINUOUS
 62
     3
 48
5.0
100
AcDbLine
 10
579.470664663208
 20
231.6705727594357
 30
0.0
 11
613.4703646632083
 21
231.6705727594357
 31
0.0
  0
LINE
  5
6BF
330
1A
100
AcDbEntity
  8
SEIHIN
  6
CONTINUOUS
 62
     3
 48
5.0
100
AcDbLine
 10
579.470664663208
 20
234.6705727594358
 30
0.0
 11
614.9203646632081
 21
234.6704727594357
 31
0.0
  0
LINE
  5
6C0
330
1A
100
AcDbEntity
  8
SEIHIN
  6
CONTINUOUS
 62
     3
 48
5.0
100
AcDbLine
 10
627.5002646632083
 20
275.6711727594358
 30
0.0
 11
579.4698646632084
 21
275.6712727594357
 31
0.0
  0
LINE
  5
6C1
330
1A
100
AcDbEntity
  8
SEIHIN
  6
CONTINUOUS
 62
     3
 48
5.0
100
AcDbLine
 10
579.4705646632082
 20
273.1705727594357
 30
0.0
 11
627.4703646632083
 21
273.1704727594358
 31
0.0
  0
LINE
  5
6C2
330
1A
100
AcDbEntity
  8
SEIHIN
  6
CONTINUOUS
 62
     3
 48
5.0
100
AcDbLine
 10
614.9203646632081
 20
234.6703727594357
 30
0.0
 11
614.9204646632081
 21
261.6704727594357
 31
0.0
  0
LINE
  5
6C3
330
1A
100
AcDbEntity
  8
SEIHIN
  6
CONTINUOUS
 62
     3
 48
5.0
100
AcDbLine
 10
613.4703646632083
 20
231.6704727594358
 30
0.0
 11
613.4703646632083
 21
234.6703727594357
 31
0.0
  0
ARC
  5
6C4
330
1A
100
AcDbEntity
  8
SEIHIN
  6
CONTINUOUS
 62
     3
 48
5.0
100
AcDbCircle
 10
640.4438486090493
 20
260.693035833599
 30
0.0
 40
17.99993660908926
100
AcDbArc
 50
136.1165726696698
 51
176.887498365011
  0
ARC
  5
6C5
330
1A
100
AcDbEntity
  8
SEIHIN
  6
CONTINUOUS
 62
     3
 48
5.0
100
AcDbCircle
 10
620.9787755526124
 20
277.1711617010209
 30
0.0
 40
1.499988941624631
100
AcDbArc
 50
179.1171811558918
 51
269.9995840523334
  0
LINE
  5
6C6
330
1A
100
AcDbEntity
  8
SEIHIN
  6
CONTINUOUS
 62
     3
 48
5.0
100
AcDbLine
 10
627.4704646632082
 20
273.1706727594357
 30
0.0
 11
627.4704646632082
 21
275.6703727594357
 31
0.0
  0
LINE
  5
6C7
330
1A
100
AcDbEntity
  8
SEIHIN
  6
CONTINUOUS
 62
     3
 48
5.0
100
AcDbLine
 10
594.107264663208
 20
314.7833727594356
 30
0.0
 11
598.6511646632079
 21
312.1597727594358
 31
0.0
  0
LINE
  5
6C8
330
1A
100
AcDbEntity
  8
SEIHIN
  6
CONTINUOUS
 62
     3
 48
5.0
100
AcDbLine
 10
596.199864663208
 20
318.4082727594358
 30
0.0
 11
601.0831646632082
 21
315.5887727594357
 31
0.0
  0
ARC
  5
6C9
330
1A
100
AcDbEntity
  8
SEIHIN
  6
CONTINUOUS
 62
     3
 48
5.0
100
AcDbCircle
 10
596.1884795666658
 20
320.8877848408095
 30
0.0
 40
9.06871208138595
100
AcDbArc
 50
269.9999058405184
 51
348.0592828237556
  0
ARC
  5
6CA
330
1A
100
AcDbEntity
  8
SEIHIN
  6
CONTINUOUS
 62
     3
 48
5.0
100
AcDbCircle
 10
592.7122655157461
 20
310.2463735794414
 30
0.0
 40
7.673505551897378
100
AcDbArc
 50
277.985324132844
 51
349.7860397209021
  0
ARC
  5
6CB
330
1A
100
AcDbEntity
  8
SEIHIN
  6
CONTINUOUS
 62
     3
 48
5.0
100
AcDbCircle
 10
590.241166271104
 20
313.325674262655
 30
0.0
 40
6.278349872777391
100
AcDbArc
 50
280.0192232316555
 51
346.126643405282
  0
ARC
  5
6CC
330
1A
100
AcDbEntity
  8
SEIHIN
  6
CONTINUOUS
 62
     3
 48
5.0
100
AcDbCircle
 10
591.4767895016045
 20
311.7982963133157
 30
0.0
 40
6.975934525597226
100
AcDbArc
 50
278.9908409722599
 51
347.9677104401397
  0
ARC
  5
6CD
330
1A
100
AcDbEntity
  8
SEIHIN
  6
CONTINUOUS
 62
     3
 48
5.0
100
AcDbCircle
 10
603.4699176705357
 20
236.0058169344211
 30
0.0
 40
69.75945428122682
100
AcDbArc
 50
98.99182582312146
 51
113.2165149675314
  0
ARC
  5
6CE
330
1A
100
AcDbEntity
  8
SEIHIN
  6
CONTINUOUS
 62
     3
 48
5.0
100
AcDbCircle
 10
603.4694529987177
 20
233.5641857345414
 30
0.0
 40
69.75943110172301
100
AcDbArc
 50
97.98552877893511
 51
113.21619722533
  0
LINE
  5
6CF
330
1A
100
AcDbEntity
  8
SEIHIN
  6
CONTINUOUS
 62
     3
 48
5.0
100
AcDbLine
 10
582.9461646632082
 20
313.1724727594356
 30
0.0
 11
578.0627646632082
 21
310.3530727594358
 31
0.0
  0
LINE
  5
6D0
330
1A
100
AcDbEntity
  8
SEIHIN
  6
CONTINUOUS
 62
     3
 48
5.0
100
AcDbLine
 10
578.0627646632082
 20
310.3530727594358
 30
0.0
 11
582.9461646632082
 21
313.1725727594357
 31
0.0
  0
LINE
  5
6D1
330
1A
100
AcDbEntity
  8
SEIHIN
  6
CONTINUOUS
 62
     3
 48
5.0
100
AcDbLine
 10
578.0629646632083
 20
318.4082727594358
 30
0.0
 11
582.9461646632082
 21
315.5888727594356
 31
0.0
  0
LINE
  5
6D2
330
1A
100
AcDbEntity
  8
SEIHIN
  6
CONTINUOUS
 62
     3
 48
5.0
100
AcDbLine
 10
580.1558646632081
 20
317.1998727594356
 30
0.0
 11
585.0387646632082
 21
320.0190727594358
 31
0.0
  0
LINE
  5
6D3
330
1A
100
AcDbEntity
  8
SEIHIN
  6
CONTINUOUS
 62
     3
 48
5.0
100
AcDbLine
 10
585.0387646632082
 20
320.0190727594358
 30
0.0
 11
580.1558646632081
 21
317.1997727594358
 31
0.0
  0
LINE
  5
6D4
330
1A
100
AcDbEntity
  8
SEIHIN
  6
CONTINUOUS
 62
     3
 48
5.0
100
AcDbLine
 10
575.9702646632081
 20
314.7833727594356
 30
0.0
 11
580.8531646632082
 21
311.9641727594356
 31
0.0
  0
LINE
  5
6D5
330
1A
100
AcDbEntity
  8
SEIHIN
  6
CONTINUOUS
 62
     3
 48
5.0
100
AcDbLine
 10
578.0627646632082
 20
307.9368727594356
 30
0.0
 11
582.9461646632082
 21
305.1173727594356
 31
0.0
  0
ARC
  5
6D6
330
1A
100
AcDbEntity
  8
SEIHIN
  6
CONTINUOUS
 62
     3
 48
5.0
100
AcDbCircle
 10
603.4700714375688
 20
238.4474643157779
 30
0.0
 40
69.75947135292665
100
AcDbArc
 50
100.0191840693377
 51
113.2166463753644
  0
LINE
  5
6D7
330
1A
100
AcDbEntity
  8
SEIHIN
  6
CONTINUOUS
 62
     3
 48
5.0
100
AcDbLine
 10
580.1558646632081
 20
306.7283727594357
 30
0.0
 11
585.0387646632082
 21
309.5476727594357
 31
0.0
  0
LINE
  5
6D8
330
1A
100
AcDbEntity
  8
SEIHIN
  6
CONTINUOUS
 62
     3
 48
5.0
100
AcDbLine
 10
585.0387646632082
 20
309.5476727594357
 30
0.0
 11
580.1558646632081
 21
306.7283727594357
 31
0.0
  0
LINE
  5
6D9
330
1A
100
AcDbEntity
  8
SEIHIN
  6
CONTINUOUS
 62
     3
 48
5.0
100
AcDbLine
 10
575.9699646632082
 20
314.7833727594356
 30
0.0
 11
571.0869646632079
 21
311.9641727594356
 31
0.0
  0
LINE
  5
6DA
330
1A
100
AcDbEntity
  8
SEIHIN
  6
CONTINUOUS
 62
     3
 48
5.0
100
AcDbLine
 10
568.9939646632081
 20
313.1725727594357
 30
0.0
 11
573.8774646632079
 21
310.3530727594358
 31
0.0
  0
LINE
  5
6DB
330
1A
100
AcDbEntity
  8
SEIHIN
  6
CONTINUOUS
 62
     3
 48
5.0
100
AcDbLine
 10
573.8774646632079
 20
310.3531727594356
 30
0.0
 11
568.9939646632081
 21
313.1726727594356
 31
0.0
  0
LINE
  5
6DC
330
1A
100
AcDbEntity
  8
SEIHIN
  6
CONTINUOUS
 62
     3
 48
5.0
100
AcDbLine
 10
573.8774646632079
 20
307.9368727594356
 30
0.0
 11
573.8774646632079
 21
313.5752727594358
 31
0.0
  0
LINE
  5
6DD
330
1A
100
AcDbEntity
  8
SEIHIN
  6
CONTINUOUS
 62
     3
 48
5.0
100
AcDbLine
 10
578.0627646632082
 20
307.9368727594356
 30
0.0
 11
578.0627646632082
 21
313.5752727594358
 31
0.0
  0
LINE
  5
6DE
330
1A
100
AcDbEntity
  8
SEIHIN
  6
CONTINUOUS
 62
     3
 48
5.0
100
AcDbLine
 10
573.8774646632079
 20
307.9368727594356
 30
0.0
 11
568.9939646632081
 21
305.1174727594357
 31
0.0
  0
LINE
  5
6DF
330
1A
100
AcDbEntity
  8
SEIHIN
  6
CONTINUOUS
 62
     3
 48
5.0
100
AcDbLine
 10
571.7843646632082
 20
306.7284727594358
 30
0.0
 11
566.901464663208
 21
309.5476727594357
 31
0.0
  0
LINE
  5
6E0
330
1A
100
AcDbEntity
  8
SEIHIN
  6
CONTINUOUS
 62
     3
 48
5.0
100
AcDbLine
 10
566.901464663208
 20
309.5476727594357
 30
0.0
 11
571.7843646632082
 21
306.7284727594358
 31
0.0
  0
LINE
  5
6E1
330
1A
100
AcDbEntity
  8
SEIHIN
  6
CONTINUOUS
 62
     3
 48
5.0
100
AcDbLine
 10
575.9699646632082
 20
304.3119727594356
 30
0.0
 11
574.1984646632081
 21
303.2891727594358
 31
0.0
  0
LINE
  5
6E2
330
1A
100
AcDbEntity
  8
SEIHIN
  6
CONTINUOUS
 62
     3
 48
5.0
100
AcDbLine
 10
575.9702646632081
 20
304.3119727594356
 30
0.0
 11
577.7417646632081
 21
303.2890727594357
 31
0.0
  0
LINE
  5
6E3
330
1A
100
AcDbEntity
  8
SEIHIN
  6
CONTINUOUS
 62
     3
 48
5.0
100
AcDbLine
 10
573.8774646632079
 20
318.4082727594358
 30
0.0
 11
568.9939646632081
 21
315.5888727594356
 31
0.0
  0
LINE
  5
6E4
330
1A
100
AcDbEntity
  8
SEIHIN
  6
CONTINUOUS
 62
     3
 48
5.0
100
AcDbLine
 10
564.8088646632081
 20
313.1725727594357
 30
0.0
 11
564.8088646632081
 21
318.8109727594357
 31
0.0
  0
LINE
  5
6E5
330
1A
100
AcDbEntity
  8
SEIHIN
  6
CONTINUOUS
 62
     3
 48
5.0
100
AcDbLine
 10
568.9939646632081
 20
313.1725727594357
 30
0.0
 11
568.9939646632081
 21
318.8109727594357
 31
0.0
  0
LINE
  5
6E6
330
1A
100
AcDbEntity
  8
SEIHIN
  6
CONTINUOUS
 62
     3
 48
5.0
100
AcDbLine
 10
566.9015646632081
 20
320.0190727594358
 30
0.0
 11
571.7843646632082
 21
317.1998727594356
 31
0.0
  0
LINE
  5
6E7
330
1A
100
AcDbEntity
  8
SEIHIN
  6
CONTINUOUS
 62
     3
 48
5.0
100
AcDbLine
 10
571.7843646632082
 20
317.1998727594356
 30
0.0
 11
566.9015646632081
 21
320.0190727594358
 31
0.0
  0
LINE
  5
6E8
330
1A
100
AcDbEntity
  8
SEIHIN
  6
CONTINUOUS
 62
     3
 48
5.0
100
AcDbLine
 10
596.1997646632083
 20
311.3475727594358
 30
0.0
 11
596.1997646632083
 21
313.5752727594358
 31
0.0
  0
LINE
  5
6E9
330
1A
100
AcDbEntity
  8
SEIHIN
  6
CONTINUOUS
 62
     3
 48
5.0
100
AcDbLine
 10
587.1312646632081
 20
313.1724727594356
 30
0.0
 11
592.0146646632081
 21
310.3530727594358
 31
0.0
  0
LINE
  5
6EA
330
1A
100
AcDbEntity
  8
SEIHIN
  6
CONTINUOUS
 62
     3
 48
5.0
100
AcDbLine
 10
592.0146646632081
 20
307.9368727594356
 30
0.0
 11
592.0146646632081
 21
313.5752727594358
 31
0.0
  0
LINE
  5
6EB
330
1A
100
AcDbEntity
  8
SEIHIN
  6
CONTINUOUS
 62
     3
 48
5.0
100
AcDbLine
 10
589.2242646632082
 20
311.9641727594356
 30
0.0
 11
594.107264663208
 21
314.7833727594356
 31
0.0
  0
LINE
  5
6EC
330
1A
100
AcDbEntity
  8
SEIHIN
  6
CONTINUOUS
 62
     3
 48
5.0
100
AcDbLine
 10
594.107264663208
 20
314.7833727594356
 30
0.0
 11
589.2242646632082
 21
311.9641727594356
 31
0.0
  0
LINE
  5
6ED
330
1A
100
AcDbEntity
  8
SEIHIN
  6
CONTINUOUS
 62
     3
 48
5.0
100
AcDbLine
 10
585.0387646632082
 20
309.5476727594357
 30
0.0
 11
589.9217646632082
 21
306.7283727594357
 31
0.0
  0
LINE
  5
6EE
330
1A
100
AcDbEntity
  8
SEIHIN
  6
CONTINUOUS
 62
     3
 48
5.0
100
AcDbLine
 10
592.0146646632081
 20
307.9368727594356
 30
0.0
 11
590.3144646632081
 21
306.9552727594356
 31
0.0
  0
LINE
  5
6EF
330
1A
100
AcDbEntity
  8
SEIHIN
  6
CONTINUOUS
 62
     3
 48
5.0
100
AcDbLine
 10
592.0148646632083
 20
318.4082727594358
 30
0.0
 11
587.1312646632081
 21
315.5888727594356
 31
0.0
  0
LINE
  5
6F0
330
1A
100
AcDbEntity
  8
SEIHIN
  6
CONTINUOUS
 62
     3
 48
5.0
100
AcDbLine
 10
587.1312646632081
 20
315.5888727594356
 30
0.0
 11
592.0148646632083
 21
318.4082727594358
 31
0.0
  0
LINE
  5
6F1
330
1A
100
AcDbEntity
  8
SEIHIN
  6
CONTINUOUS
 62
     3
 48
5.0
100
AcDbLine
 10
585.0387646632082
 20
320.0190727594358
 30
0.0
 11
589.9217646632082
 21
317.1997727594358
 31
0.0
  0
LINE
  5
6F2
330
1A
100
AcDbEntity
  8
SEIHIN
  6
CONTINUOUS
 62
     3
 48
5.0
100
AcDbLine
 10
587.1312646632081
 20
313.1724727594356
 30
0.0
 11
587.1313646632081
 21
318.8108727594358
 31
0.0
  0
LINE
  5
6F3
330
1A
100
AcDbEntity
  8
SEIHIN
  6
CONTINUOUS
 62
     3
 48
5.0
100
AcDbLine
 10
582.9461646632082
 20
313.1724727594356
 30
0.0
 11
582.9462646632079
 21
318.8108727594358
 31
0.0
  0
ARC
  5
6F4
330
1A
100
AcDbEntity
  8
SEIHIN
  6
CONTINUOUS
 62
     3
 48
5.0
100
AcDbCircle
 10
597.7344752427409
 20
320.0939815831026
 30
0.0
 40
9.766265156909177
100
AcDbArc
 50
273.3164769297384
 51
346.3417544224327
  0
ARC
  5
6F5
330
1A
100
AcDbEntity
  8
SEIHIN
  6
CONTINUOUS
 62
     3
 48
5.0
100
AcDbCircle
 10
599.2491465416986
 20
319.3001575266364
 30
0.0
 40
10.46393031610037
100
AcDbArc
 50
275.5665359771922
 51
344.5339710167236
  0
LINE
  5
6F6
330
1A
100
AcDbEntity
  8
SEIHIN
  6
CONTINUOUS
 62
     3
 48
5.0
100
AcDbLine
 10
600.3858646632082
 20
308.8362727594358
 30
0.0
 11
600.3152646632081
 21
308.8907727594356
 31
0.0
  0
LINE
  5
6F7
330
1A
100
AcDbEntity
  8
SEIHIN
  6
CONTINUOUS
 62
     3
 48
5.0
100
AcDbLine
 10
601.0831646632082
 20
313.1724727594356
 30
0.0
 11
601.0832646632081
 21
318.8108727594358
 31
0.0
  0
LINE
  5
6F8
330
1A
100
AcDbEntity
  8
SEIHIN
  6
CONTINUOUS
 62
     3
 48
5.0
100
AcDbLine
 10
598.2927646632081
 20
317.1998727594356
 30
0.0
 11
603.1756646632081
 21
320.0190727594358
 31
0.0
  0
LINE
  5
6F9
330
1A
100
AcDbEntity
  8
SEIHIN
  6
CONTINUOUS
 62
     3
 48
5.0
100
AcDbLine
 10
603.1756646632081
 20
320.0190727594358
 30
0.0
 11
598.2927646632081
 21
317.1998727594356
 31
0.0
  0
LINE
  5
6FA
330
1A
100
AcDbEntity
  8
SEIHIN
  6
CONTINUOUS
 62
     3
 48
5.0
100
AcDbLine
 10
603.1756646632081
 20
320.0190727594358
 30
0.0
 11
605.0455646632083
 21
318.9394727594357
 31
0.0
  0
LINE
  5
6FB
330
1A
100
AcDbEntity
  8
SEIHIN
  6
CONTINUOUS
 62
     3
 48
5.0
100
AcDbLine
 10
564.8089646632081
 20
347.0031727594358
 30
0.0
 11
562.2119646632081
 21
348.5025727594357
 31
0.0
  0
LINE
  5
6FC
330
1A
100
AcDbEntity
  8
SEIHIN
  6
CONTINUOUS
 62
     3
 48
5.0
100
AcDbLine
 10
562.2118646632081
 20
348.5025727594357
 30
0.0
 11
564.8089646632081
 21
347.0031727594358
 31
0.0
  0
LINE
  5
6FD
330
1A
100
AcDbEntity
  8
SEIHIN
  6
CONTINUOUS
 62
     3
 48
5.0
100
AcDbLine
 10
566.9015646632081
 20
340.9619727594358
 30
0.0
 11
562.0185646632083
 21
338.1427727594356
 31
0.0
  0
LINE
  5
6FE
330
1A
100
AcDbEntity
  8
SEIHIN
  6
CONTINUOUS
 62
     3
 48
5.0
100
AcDbLine
 10
566.9015646632081
 20
330.4904727594358
 30
0.0
 11
562.0185646632083
 21
327.6712727594357
 31
0.0
  0
LINE
  5
700
330
1A
100
AcDbEntity
  8
SEIHIN
  6
CONTINUOUS
 62
     3
 48
5.0
100
AcDbLine
 10
575.9701646632081
 20
375.6713727594356
 30
0.0
 11
513.4700646632081
 21
375.6715727594356
 31
0.0
  0
LINE
  5
701
330
1A
100
AcDbEntity
  8
SEIHIN
  6
CONTINUOUS
 62
     3
 48
5.0
100
AcDbLine
 10
537.2222646632082
 20
371.6714727594358
 30
0.0
 11
575.9701646632081
 21
371.6714727594358
 31
0.0
  0
LINE
  5
702
330
1A
100
AcDbEntity
  8
SEIHIN
  6
CONTINUOUS
 62
     3
 48
5.0
100
AcDbLine
 10
537.134764663208
 20
369.6714727594358
 30
0.0
 11
575.9701646632081
 21
369.6713727594356
 31
0.0
  0
LINE
  5
703
330
1A
100
AcDbEntity
  8
SEIHIN
  6
CONTINUOUS
 62
     3
 48
5.0
100
AcDbLine
 10
564.8089646632081
 20
334.1154727594358
 30
0.0
 11
559.9256646632081
 21
331.2960727594356
 31
0.0
  0
LINE
  5
704
330
1A
100
AcDbEntity
  8
SEIHIN
  6
CONTINUOUS
 62
     3
 48
5.0
100
AcDbLine
 10
564.8089646632081
 20
344.5868727594356
 30
0.0
 11
559.9256646632081
 21
341.7674727594357
 31
0.0
  0
LINE
  5
705
330
1A
100
AcDbEntity
  8
SEIHIN
  6
CONTINUOUS
 62
     3
 48
5.0
100
AcDbLine
 10
564.8089646632081
 20
326.0602727594356
 30
0.0
 11
559.9256646632081
 21
328.8797727594358
 31
0.0
  0
LINE
  5
706
330
1A
100
AcDbEntity
  8
SEIHIN
  6
CONTINUOUS
 62
     3
 48
5.0
100
AcDbLine
 10
559.9256646632081
 20
328.8797727594358
 30
0.0
 11
564.8089646632081
 21
326.0602727594356
 31
0.0
  0
LINE
  5
707
330
1A
100
AcDbEntity
  8
SEIHIN
  6
CONTINUOUS
 62
     3
 48
5.0
100
AcDbLine
 10
564.8089646632081
 20
336.5317727594358
 30
0.0
 11
559.9256646632081
 21
339.3511727594356
 31
0.0
  0
LINE
  5
708
330
1A
100
AcDbEntity
  8
SEIHIN
  6
CONTINUOUS
 62
     3
 48
5.0
100
AcDbLine
 10
559.9256646632081
 20
339.3511727594356
 30
0.0
 11
564.8089646632081
 21
336.5317727594358
 31
0.0
  0
LINE
  5
709
330
1A
100
AcDbEntity
  8
SEIHIN
  6
CONTINUOUS
 62
     3
 48
5.0
100
AcDbLine
 10
575.9702646632081
 20
405.6713727594356
 30
0.0
 11
503.4701646632081
 21
405.6715727594356
 31
0.0
  0
LINE
  5
70A
330
1A
100
AcDbEntity
  8
SEIHIN
  6
CONTINUOUS
 62
     3
 48
5.0
100
AcDbLine
 10
575.9702646632081
 20
400.6713727594357
 30
0.0
 11
503.4701646632081
 21
400.6715727594357
 31
0.0
  0
ARC
  5
70B
330
1A
100
AcDbEntity
  8
SEIHIN
  6
CONTINUOUS
 62
     3
 48
5.0
100
AcDbCircle
 10
548.4705799882078
 20
419.3369194420417
 30
0.0
 40
69.75941894210965
100
AcDbArc
 50
278.9916904387583
 51
293.2164663487538
  0
ARC
  5
70C
330
1A
100
AcDbEntity
  8
SEIHIN
  6
CONTINUOUS
 62
     3
 48
5.0
100
AcDbCircle
 10
548.470776640836
 20
416.8953763341246
 30
0.0
 40
69.7593937058312
100
AcDbArc
 50
280.0188460748993
 51
293.2162994903378
  0
ARC
  5
70D
330
1A
100
AcDbEntity
  8
SEIHIN
  6
CONTINUOUS
 62
     3
 48
5.0
100
AcDbCircle
 10
548.4705309210506
 20
421.7785074932143
 30
0.0
 40
69.75942730346122
100
AcDbArc
 50
277.985815688709
 51
293.2165072545483
  0
ARC
  5
714
330
1A
100
AcDbEntity
  8
SEIHIN
  6
CONTINUOUS
 62
     3
 48
5.0
100
AcDbCircle
 10
537.1347341629382
 20
363.67145119243
 30
0.0
 40
6.000021567083296
100
AcDbArc
 50
89.99970874492559
 51
160.5286337377768
  0
ARC
  5
715
330
1A
100
AcDbEntity
  8
SEIHIN
  6
CONTINUOUS
 62
     3
 48
5.0
100
AcDbCircle
 10
537.2223063460459
 20
363.6715050467535
 30
0.0
 40
7.999967712790869
100
AcDbArc
 50
90.00029853254099
 51
165.5226669333379
  0
LINE
  5
716
330
1A
100
AcDbEntity
  8
SEIHIN
  6
CONTINUOUS
 62
     3
 48
5.0
100
AcDbLine
 10
513.4700646632081
 20
375.6715727594356
 30
0.0
 11
514.1099646632083
 21
369.2735727594357
 31
0.0
  0
LINE
  5
717
330
1A
100
AcDbEntity
  8
SEIHIN
  6
CONTINUOUS
 62
     3
 48
5.0
100
AcDbLine
 10
531.4778646632082
 20
365.6715727594356
 30
0.0
 11
518.0900646632083
 21
365.6715727594356
 31
0.0
  0
LINE
  5
718
330
1A
100
AcDbEntity
  8
SEIHIN
  6
CONTINUOUS
 62
     3
 48
5.0
100
AcDbLine
 10
530.9762646632079
 20
327.6715727594356
 30
0.0
 11
529.4762646632082
 21
365.6715727594356
 31
0.0
  0
LINE
  5
719
330
1A
100
AcDbEntity
  8
SEIHIN
  6
CONTINUOUS
 62
     3
 48
5.0
100
AcDbLine
 10
519.4716646632082
 20
365.5927727594356
 30
0.0
 11
520.9684646632081
 21
327.6715727594356
 31
0.0
  0
LINE
  5
71A
330
1A
100
AcDbEntity
  8
SEIHIN
  6
CONTINUOUS
 62
     3
 48
5.0
100
AcDbLine
 10
518.6454646632082
 20
361.1687727594357
 30
0.0
 11
519.9676646632081
 21
327.6715727594356
 31
0.0
  0
LINE
  5
71B
330
1A
100
AcDbEntity
  8
SEIHIN
  6
CONTINUOUS
 62
     3
 48
5.0
100
AcDbLine
 10
521.4700646632081
 20
365.6715727594356
 30
0.0
 11
522.9700646632081
 21
327.6715727594356
 31
0.0
  0
LINE
  5
71C
330
1A
100
AcDbEntity
  8
SEIHIN
  6
CONTINUOUS
 62
     3
 48
5.0
100
AcDbLine
 10
515.750764663208
 20
358.4421727594356
 30
0.0
 11
516.9653646632082
 21
327.6715727594356
 31
0.0
  0
ARC
  5
71D
330
1A
100
AcDbEntity
  8
SEIHIN
  6
CONTINUOUS
 62
     3
 48
5.0
100
AcDbCircle
 10
518.0900373123097
 20
369.6715975117825
 30
0.0
 40
4.000024752440359
100
AcDbArc
 50
185.7106998542085
 51
270.000391770339
  0
LINE
  5
71E
330
1A
100
AcDbEntity
  8
SEIHIN
  6
CONTINUOUS
 62
     3
 48
5.0
100
AcDbLine
 10
519.1396646632081
 20
348.6493727594356
 30
0.0
 11
516.2015646632083
 21
347.0208727594358
 31
0.0
  0
LINE
  5
71F
330
1A
100
AcDbEntity
  8
SEIHIN
  6
CONTINUOUS
 62
     3
 48
5.0
100
AcDbLine
 10
520.1404646632081
 20
348.6493727594356
 30
0.0
 11
519.1396646632081
 21
348.6493727594356
 31
0.0
  0
LINE
  5
720
330
1A
100
AcDbEntity
  8
SEIHIN
  6
CONTINUOUS
 62
     3
 48
5.0
100
AcDbLine
 10
518.6454646632082
 20
361.1687727594357
 30
0.0
 11
515.750764663208
 21
358.4421727594356
 31
0.0
  0
LINE
  5
721
330
1A
100
AcDbEntity
  8
SEIHIN
  6
CONTINUOUS
 62
     3
 48
5.0
100
AcDbLine
 10
519.6462646632083
 20
361.1687727594357
 30
0.0
 11
518.6454646632082
 21
361.1687727594357
 31
0.0
  0
ARC
  5
722
330
1A
100
AcDbEntity
  8
SEIHIN
  6
CONTINUOUS
 62
     3
 48
5.0
100
AcDbCircle
 10
561.6991639875327
 20
342.0169721277471
 30
0.0
 40
6.278447651689188
100
AcDbArc
 50
100.0190742237285
 51
166.1268719815577
  0
ARC
  5
723
330
1A
100
AcDbEntity
  8
SEIHIN
  6
CONTINUOUS
 62
     3
 48
5.0
100
AcDbCircle
 10
560.4635498386649
 20
343.5444587013435
 30
0.0
 40
6.975942339938876
100
AcDbArc
 50
98.99174563967875
 51
167.9678038642834
  0
ARC
  5
724
330
1A
100
AcDbEntity
  8
SEIHIN
  6
CONTINUOUS
 62
     3
 48
5.0
100
AcDbCircle
 10
552.6911400868029
 20
336.0425521002895
 30
0.0
 40
10.46387206895087
100
AcDbArc
 50
95.56688231013595
 51
164.5342469887245
  0
ARC
  5
725
330
1A
100
AcDbEntity
  8
SEIHIN
  6
CONTINUOUS
 62
     3
 48
5.0
100
AcDbCircle
 10
559.2280118667011
 20
345.0963219768418
 30
0.0
 40
7.673561706057649
100
AcDbArc
 50
97.98562764675658
 51
169.7857362069917
  0
LINE
  5
726
330
1A
100
AcDbEntity
  8
SEIHIN
  6
CONTINUOUS
 62
     3
 48
5.0
100
AcDbLine
 10
532.977864663208
 20
327.6715727594356
 30
0.0
 11
531.4778646632082
 21
365.6715727594356
 31
0.0
  0
ARC
  5
727
330
1A
100
AcDbEntity
  8
SEIHIN
  6
CONTINUOUS
 62
     3
 48
5.0
100
AcDbCircle
 10
555.7518497597505
 20
334.4549606780619
 30
0.0
 40
9.068712081386021
100
AcDbArc
 50
89.999905840519
 51
168.059282823756
  0
ARC
  5
728
330
1A
100
AcDbEntity
  8
SEIHIN
  6
CONTINUOUS
 62
     3
 48
5.0
100
AcDbCircle
 10
554.2058540836751
 20
335.248763935769
 30
0.0
 40
9.766265156908866
100
AcDbArc
 50
93.31647692973874
 51
166.3417544224327
  0
LINE
  5
729
330
1A
100
AcDbEntity
  8
SEIHIN
  6
CONTINUOUS
 62
     3
 48
5.0
100
AcDbLine
 10
548.7645646632081
 20
330.4905727594357
 30
0.0
 11
545.9914646632082
 21
328.8894727594358
 31
0.0
  0
ARC
  5
72A
330
1A
100
AcDbEntity
  8
SEIHIN
  6
CONTINUOUS
 62
     3
 48
5.0
100
AcDbCircle
 10
587.8293848800117
 20
327.6714660717526
 30
0.0
 40
41.85562021690747
100
AcDbArc
 50
168.0597034192899
 51
180.0001277343857
  0
ARC
  5
72B
330
1A
100
AcDbEntity
  8
SEIHIN
  6
CONTINUOUS
 62
     3
 48
5.0
100
AcDbCircle
 10
585.3877879871827
 20
327.6714675136435
 30
0.0
 40
41.85562332408192
100
AcDbArc
 50
166.3418471153081
 51
180.0001297081674
  0
ARC
  5
72C
330
1A
100
AcDbEntity
  8
SEIHIN
  6
CONTINUOUS
 62
     3
 48
5.0
100
AcDbCircle
 10
582.9462833453328
 20
327.6714103376404
 30
0.0
 40
41.85571868214149
100
AcDbArc
 50
164.534220933688
 51
180.0000514403431
  0
LINE
  5
72D
330
1A
100
AcDbEntity
  8
SEIHIN
  6
CONTINUOUS
 62
     3
 48
5.0
100
AcDbLine
 10
546.6720646632081
 20
334.1154727594358
 30
0.0
 11
546.4532646632083
 21
333.9891727594358
 31
0.0
  0
LINE
  5
72E
330
1A
100
AcDbEntity
  8
SEIHIN
  6
CONTINUOUS
 62
     3
 48
5.0
100
AcDbLine
 10
546.6720646632081
 20
323.6440727594356
 30
0.0
 11
546.6720646632081
 21
329.2823727594358
 31
0.0
  0
LINE
  5
72F
330
1A
100
AcDbEntity
  8
SEIHIN
  6
CONTINUOUS
 62
     3
 48
5.0
100
AcDbLine
 10
550.8571646632081
 20
334.1154727594358
 30
0.0
 11
550.8571646632081
 21
339.7538727594358
 31
0.0
  0
LINE
  5
730
330
1A
100
AcDbEntity
  8
SEIHIN
  6
CONTINUOUS
 62
     3
 48
5.0
100
AcDbLine
 10
557.8330646632082
 20
335.7262727594356
 30
0.0
 11
552.9500646632081
 21
332.9070727594356
 31
0.0
  0
LINE
  5
731
330
1A
100
AcDbEntity
  8
SEIHIN
  6
CONTINUOUS
 62
     3
 48
5.0
100
AcDbLine
 10
557.8330646632082
 20
335.7262727594356
 30
0.0
 11
562.716064663208
 21
332.9070727594356
 31
0.0
  0
LINE
  5
732
330
1A
100
AcDbEntity
  8
SEIHIN
  6
CONTINUOUS
 62
     3
 48
5.0
100
AcDbLine
 10
562.716064663208
 20
332.9070727594356
 30
0.0
 11
557.8330646632082
 21
335.7262727594356
 31
0.0
  0
LINE
  5
733
330
1A
100
AcDbEntity
  8
SEIHIN
  6
CONTINUOUS
 62
     3
 48
5.0
100
AcDbLine
 10
550.8571646632081
 20
334.1154727594358
 30
0.0
 11
555.7405646632083
 21
331.2959727594358
 31
0.0
  0
LINE
  5
734
330
1A
100
AcDbEntity
  8
SEIHIN
  6
CONTINUOUS
 62
     3
 48
5.0
100
AcDbLine
 10
555.7405646632083
 20
331.2960727594356
 30
0.0
 11
550.8571646632081
 21
334.1154727594358
 31
0.0
  0
LINE
  5
735
330
1A
100
AcDbEntity
  8
SEIHIN
  6
CONTINUOUS
 62
     3
 48
5.0
100
AcDbLine
 10
550.8571646632081
 20
323.6440727594356
 30
0.0
 11
550.8571646632081
 21
329.2823727594358
 31
0.0
  0
LINE
  5
736
330
1A
100
AcDbEntity
  8
SEIHIN
  6
CONTINUOUS
 62
     3
 48
5.0
100
AcDbLine
 10
553.6474646632079
 20
327.6713727594356
 30
0.0
 11
548.7645646632081
 21
330.4905727594357
 31
0.0
  0
LINE
  5
737
330
1A
100
AcDbEntity
  8
SEIHIN
  6
CONTINUOUS
 62
     3
 48
5.0
100
AcDbLine
 10
548.7645646632081
 20
330.4905727594357
 30
0.0
 11
553.6474646632079
 21
327.6713727594356
 31
0.0
  0
LINE
  5
738
330
1A
100
AcDbEntity
  8
SEIHIN
  6
CONTINUOUS
 62
     3
 48
5.0
100
AcDbLine
 10
555.7405646632083
 20
328.8797727594358
 30
0.0
 11
550.8571646632081
 21
326.0602727594356
 31
0.0
  0
LINE
  5
739
330
1A
100
AcDbEntity
  8
SEIHIN
  6
CONTINUOUS
 62
     3
 48
5.0
100
AcDbLine
 10
555.7405646632083
 20
328.8797727594358
 30
0.0
 11
555.7405646632083
 21
334.5180727594357
 31
0.0
  0
LINE
  5
73A
330
1A
100
AcDbEntity
  8
SEIHIN
  6
CONTINUOUS
 62
     3
 48
5.0
100
AcDbLine
 10
559.9256646632081
 20
328.8797727594358
 30
0.0
 11
559.9256646632081
 21
334.5180727594357
 31
0.0
  0
LINE
  5
73B
330
1A
100
AcDbEntity
  8
SEIHIN
  6
CONTINUOUS
 62
     3
 48
5.0
100
AcDbLine
 10
551.5544646632081
 20
346.5064727594356
 30
0.0
 11
551.6250646632081
 21
346.4519727594358
 31
0.0
  0
LINE
  5
73C
330
1A
100
AcDbEntity
  8
SEIHIN
  6
CONTINUOUS
 62
     3
 48
5.0
100
AcDbLine
 10
549.1910646632081
 20
340.7156727594358
 30
0.0
 11
553.6474646632079
 21
338.1427727594356
 31
0.0
  0
LINE
  5
73D
330
1A
100
AcDbEntity
  8
SEIHIN
  6
CONTINUOUS
 62
     3
 48
5.0
100
AcDbLine
 10
553.6474646632079
 20
338.1427727594356
 30
0.0
 11
549.1910646632081
 21
340.7156727594358
 31
0.0
  0
LINE
  5
73E
330
1A
100
AcDbEntity
  8
SEIHIN
  6
CONTINUOUS
 62
     3
 48
5.0
100
AcDbLine
 10
555.7405646632083
 20
339.3511727594356
 30
0.0
 11
550.8571646632081
 21
336.5317727594358
 31
0.0
  0
LINE
  5
73F
330
1A
100
AcDbEntity
  8
SEIHIN
  6
CONTINUOUS
 62
     3
 48
5.0
100
AcDbLine
 10
555.7405646632083
 20
341.7674727594357
 30
0.0
 11
553.2890646632081
 21
343.1827727594358
 31
0.0
  0
LINE
  5
740
330
1A
100
AcDbEntity
  8
SEIHIN
  6
CONTINUOUS
 62
     3
 48
5.0
100
AcDbLine
 10
553.2889646632079
 20
343.1827727594358
 30
0.0
 11
555.7405646632083
 21
341.7674727594357
 31
0.0
  0
LINE
  5
741
330
1A
100
AcDbEntity
  8
SEIHIN
  6
CONTINUOUS
 62
     3
 48
5.0
100
AcDbLine
 10
555.7405646632083
 20
339.3511727594356
 30
0.0
 11
555.7405646632083
 21
343.9951727594356
 31
0.0
  0
LINE
  5
742
330
1A
100
AcDbEntity
  8
SEIHIN
  6
CONTINUOUS
 62
     3
 48
5.0
100
AcDbLine
 10
557.8330646632082
 20
346.1976727594358
 30
0.0
 11
556.3862646632083
 21
345.3623727594357
 31
0.0
  0
LINE
  5
743
330
1A
100
AcDbEntity
  8
SEIHIN
  6
CONTINUOUS
 62
     3
 48
5.0
100
AcDbLine
 10
559.9256646632081
 20
339.3511727594356
 30
0.0
 11
559.9256646632081
 21
344.9894727594356
 31
0.0
  0
LINE
  5
744
330
1A
100
AcDbEntity
  8
SEIHIN
  6
CONTINUOUS
 62
     3
 48
5.0
100
AcDbLine
 10
557.8330646632082
 20
346.1976727594358
 30
0.0
 11
562.716064663208
 21
343.3784727594357
 31
0.0
  0
LINE
  5
745
330
1A
100
AcDbEntity
  8
SEIHIN
  6
CONTINUOUS
 62
     3
 48
5.0
100
AcDbLine
 10
562.716064663208
 20
343.3784727594357
 30
0.0
 11
557.8330646632082
 21
346.1976727594358
 31
0.0
  0
LINE
  5
746
330
1A
100
AcDbEntity
  8
SEIHIN
  6
CONTINUOUS
 62
     3
 48
5.0
100
AcDbLine
 10
504.970164663208
 20
400.6715727594357
 30
0.0
 11
505.7358646632082
 21
387.9110727594357
 31
0.0
  0
ARC
  5
747
330
1A
100
AcDbEntity
  8
SEIHIN
  6
CONTINUOUS
 62
     3
 48
5.0
100
AcDbCircle
 10
520.7089410538778
 20
388.8093101210183
 30
0.0
 40
15.00000088720145
100
AcDbArc
 50
183.4334503120511
 51
241.1456268229797
  0
LINE
  5
748
330
1A
100
AcDbEntity
  8
SEIHIN
  6
CONTINUOUS
 62
     3
 48
5.0
100
AcDbLine
 10
503.4701646632081
 20
405.6715727594356
 30
0.0
 11
503.4701646632081
 21
400.6715727594357
 31
0.0
  0
LINE
  5
74C
330
1A
100
AcDbEntity
  8
SEIHIN
  6
CONTINUOUS
 62
     3
 48
5.0
100
AcDbLine
 10
575.9701646632081
 20
375.6713727594356
 30
0.0
 11
631.0085646632081
 21
375.6713727594356
 31
0.0
  0
LINE
  5
74D
330
1A
100
AcDbEntity
  8
SEIHIN
  6
CONTINUOUS
 62
     3
 48
5.0
100
AcDbLine
 10
575.9702646632081
 20
400.6713727594357
 30
0.0
 11
631.3932646632081
 21
400.6714727594355
 31
0.0
  0
LINE
  5
74E
330
1A
100
AcDbEntity
  8
SEIHIN
  6
CONTINUOUS
 62
     3
 48
5.0
100
AcDbLine
 10
575.9702646632081
 20
405.6713727594356
 30
0.0
 11
631.4702646632081
 21
405.6714727594358
 31
0.0
  0
LINE
  5
74F
330
1A
100
AcDbEntity
  8
SEIHIN
  6
CONTINUOUS
 62
     3
 48
5.0
100
AcDbLine
 10
620.462464663208
 20
365.6713727594356
 30
0.0
 11
630.854764663208
 21
365.6713727594356
 31
0.0
  0
ARC
  5
750
330
1A
100
AcDbEntity
  8
SEIHIN
  6
CONTINUOUS
 62
     3
 48
5.0
100
AcDbCircle
 10
614.8055422269576
 20
363.6713953574374
 30
0.0
 40
5.999977402040103
100
AcDbArc
 50
359.5882044259447
 51
89.99978574878218
  0
ARC
  5
751
330
1A
100
AcDbEntity
  8
SEIHIN
  6
CONTINUOUS
 62
     3
 48
5.0
100
AcDbCircle
 10
614.7180972423984
 20
363.6713399132258
 30
0.0
 40
8.000032846493894
100
AcDbArc
 50
359.5332713951672
 51
89.99951713600145
  0
LINE
  5
752
330
1A
100
AcDbEntity
  8
SEIHIN
  6
CONTINUOUS
 62
     3
 48
5.0
100
AcDbLine
 10
594.107264663208
 20
335.7261727594356
 30
0.0
 11
598.9902646632083
 21
332.9069727594358
 31
0.0
  0
LINE
  5
753
330
1A
100
AcDbEntity
  8
SEIHIN
  6
CONTINUOUS
 62
     3
 48
5.0
100
AcDbLine
 10
596.1997646632083
 20
339.3510727594356
 30
0.0
 11
601.0831646632082
 21
336.5315727594357
 31
0.0
  0
LINE
  5
754
330
1A
100
AcDbEntity
  8
SEIHIN
  6
CONTINUOUS
 62
     3
 48
5.0
100
AcDbLine
 10
601.0831646632082
 20
334.1153727594356
 30
0.0
 11
596.1997646632083
 21
331.2959727594358
 31
0.0
  0
LINE
  5
755
330
1A
100
AcDbEntity
  8
SEIHIN
  6
CONTINUOUS
 62
     3
 48
5.0
100
AcDbLine
 10
596.1997646632083
 20
331.2960727594356
 30
0.0
 11
601.0831646632082
 21
334.1153727594356
 31
0.0
  0
LINE
  5
756
330
1A
100
AcDbEntity
  8
SEIHIN
  6
CONTINUOUS
 62
     3
 48
5.0
100
AcDbLine
 10
596.1997646632083
 20
341.7674727594357
 30
0.0
 11
598.6512646632081
 21
343.1827727594358
 31
0.0
  0
LINE
  5
757
330
1A
100
AcDbEntity
  8
SEIHIN
  6
CONTINUOUS
 62
     3
 48
5.0
100
AcDbLine
 10
598.6513646632081
 20
343.1827727594358
 30
0.0
 11
596.1997646632083
 21
341.7674727594357
 31
0.0
  0
ARC
  5
758
330
1A
100
AcDbEntity
  8
SEIHIN
  6
CONTINUOUS
 62
     3
 48
5.0
100
AcDbCircle
 10
596.1884795666658
 20
334.454960678062
 30
0.0
 40
9.068712081385983
100
AcDbArc
 50
11.94071717624391
 51
90.00009415948118
  0
ARC
  5
759
330
1A
100
AcDbEntity
  8
SEIHIN
  6
CONTINUOUS
 62
     3
 48
5.0
100
AcDbCircle
 10
592.7122655157461
 20
345.0963719394301
 30
0.0
 40
7.673505551897352
100
AcDbArc
 50
10.21396027909779
 51
82.01467586715599
  0
LINE
  5
75A
330
1A
100
AcDbEntity
  8
SEIHIN
  6
CONTINUOUS
 62
     3
 48
5.0
100
AcDbLine
 10
614.8055646632083
 20
369.6713727594356
 30
0.0
 11
575.9701646632081
 21
369.6713727594356
 31
0.0
  0
ARC
  5
75B
330
1A
100
AcDbEntity
  8
SEIHIN
  6
CONTINUOUS
 62
     3
 48
5.0
100
AcDbCircle
 10
590.2412152253718
 20
342.0169254880407
 30
0.0
 40
6.278386426219809
100
AcDbArc
 50
13.87276442250807
 51
79.98128937220535
  0
ARC
  5
75C
330
1A
100
AcDbEntity
  8
SEIHIN
  6
CONTINUOUS
 62
     3
 48
5.0
100
AcDbCircle
 10
591.4767895016045
 20
343.5444492055556
 30
0.0
 40
6.97593452559728
100
AcDbArc
 50
12.03228955985986
 51
81.00915902773959
  0
LINE
  5
75D
330
1A
100
AcDbEntity
  8
SEIHIN
  6
CONTINUOUS
 62
     3
 48
5.0
100
AcDbLine
 10
596.1997646632083
 20
328.8796727594357
 30
0.0
 11
601.0831646632082
 21
326.0601727594356
 31
0.0
  0
LINE
  5
75E
330
1A
100
AcDbEntity
  8
SEIHIN
  6
CONTINUOUS
 62
     3
 48
5.0
100
AcDbLine
 10
587.1312646632081
 20
344.5867727594357
 30
0.0
 11
587.1312646632081
 21
349.0761727594356
 31
0.0
  0
LINE
  5
75F
330
1A
100
AcDbEntity
  8
SEIHIN
  6
CONTINUOUS
 62
     3
 48
5.0
100
AcDbLine
 10
582.9462646632079
 20
344.5867727594357
 30
0.0
 11
582.9462646632079
 21
350.2252727594356
 31
0.0
  0
LINE
  5
760
330
1A
100
AcDbEntity
  8
SEIHIN
  6
CONTINUOUS
 62
     3
 48
5.0
100
AcDbLine
 10
568.994064663208
 20
344.5868727594356
 30
0.0
 11
568.994164663208
 21
350.2252727594356
 31
0.0
  0
LINE
  5
761
330
1A
100
AcDbEntity
  8
SEIHIN
  6
CONTINUOUS
 62
     3
 48
5.0
100
AcDbLine
 10
564.8089646632081
 20
344.5868727594356
 30
0.0
 11
564.8090646632081
 21
349.0761727594356
 31
0.0
  0
LINE
  5
762
330
1A
100
AcDbEntity
  8
SEIHIN
  6
CONTINUOUS
 62
     3
 48
5.0
100
AcDbLine
 10
578.0627646632082
 20
331.2959727594358
 30
0.0
 11
582.9462646632079
 21
334.1154727594358
 31
0.0
  0
LINE
  5
763
330
1A
100
AcDbEntity
  8
SEIHIN
  6
CONTINUOUS
 62
     3
 48
5.0
100
AcDbLine
 10
582.9462646632079
 20
334.1154727594358
 30
0.0
 11
578.0627646632082
 21
331.2958727594357
 31
0.0
  0
LINE
  5
764
330
1A
100
AcDbEntity
  8
SEIHIN
  6
CONTINUOUS
 62
     3
 48
5.0
100
AcDbLine
 10
578.0627646632082
 20
339.3510727594356
 30
0.0
 11
582.9462646632079
 21
336.5316727594358
 31
0.0
  0
LINE
  5
765
330
1A
100
AcDbEntity
  8
SEIHIN
  6
CONTINUOUS
 62
     3
 48
5.0
100
AcDbLine
 10
580.1558646632081
 20
338.1427727594356
 30
0.0
 11
585.0387646632082
 21
340.9618727594356
 31
0.0
  0
LINE
  5
766
330
1A
100
AcDbEntity
  8
SEIHIN
  6
CONTINUOUS
 62
     3
 48
5.0
100
AcDbLine
 10
585.0387646632082
 20
340.9618727594356
 30
0.0
 11
580.1558646632081
 21
338.1427727594356
 31
0.0
  0
LINE
  5
767
330
1A
100
AcDbEntity
  8
SEIHIN
  6
CONTINUOUS
 62
     3
 48
5.0
100
AcDbLine
 10
578.0627646632082
 20
341.7674727594357
 30
0.0
 11
582.9462646632079
 21
344.5869727594358
 31
0.0
  0
LINE
  5
768
330
1A
100
AcDbEntity
  8
SEIHIN
  6
CONTINUOUS
 62
     3
 48
5.0
100
AcDbLine
 10
582.9462646632079
 20
344.5867727594357
 30
0.0
 11
578.0627646632082
 21
341.7673727594356
 31
0.0
  0
LINE
  5
769
330
1A
100
AcDbEntity
  8
SEIHIN
  6
CONTINUOUS
 62
     3
 48
5.0
100
AcDbLine
 10
575.9702646632081
 20
335.7262727594356
 30
0.0
 11
580.8531646632082
 21
332.9069727594358
 31
0.0
  0
LINE
  5
76A
330
1A
100
AcDbEntity
  8
SEIHIN
  6
CONTINUOUS
 62
     3
 48
5.0
100
AcDbLine
 10
575.9702646632081
 20
346.1976727594358
 30
0.0
 11
580.8531646632082
 21
343.3784727594357
 31
0.0
  0
LINE
  5
76B
330
1A
100
AcDbEntity
  8
SEIHIN
  6
CONTINUOUS
 62
     3
 48
5.0
100
AcDbLine
 10
578.0627646632082
 20
328.8796727594357
 30
0.0
 11
582.9462646632079
 21
326.0601727594356
 31
0.0
  0
LINE
  5
76C
330
1A
100
AcDbEntity
  8
SEIHIN
  6
CONTINUOUS
 62
     3
 48
5.0
100
AcDbLine
 10
580.1558646632081
 20
327.6713727594356
 30
0.0
 11
585.0387646632082
 21
330.4904727594358
 31
0.0
  0
LINE
  5
76D
330
1A
100
AcDbEntity
  8
SEIHIN
  6
CONTINUOUS
 62
     3
 48
5.0
100
AcDbLine
 10
585.0387646632082
 20
330.4904727594358
 30
0.0
 11
580.1558646632081
 21
327.6713727594356
 31
0.0
  0
LINE
  5
76E
330
1A
100
AcDbEntity
  8
SEIHIN
  6
CONTINUOUS
 62
     3
 48
5.0
100
AcDbLine
 10
575.9700646632081
 20
335.7262727594356
 30
0.0
 11
571.0870646632081
 21
332.9070727594356
 31
0.0
  0
LINE
  5
76F
330
1A
100
AcDbEntity
  8
SEIHIN
  6
CONTINUOUS
 62
     3
 48
5.0
100
AcDbLine
 10
564.8089646632081
 20
334.1154727594358
 30
0.0
 11
564.8089646632081
 21
339.7537727594356
 31
0.0
  0
LINE
  5
770
330
1A
100
AcDbEntity
  8
SEIHIN
  6
CONTINUOUS
 62
     3
 48
5.0
100
AcDbLine
 10
568.994064663208
 20
334.1154727594358
 30
0.0
 11
568.994064663208
 21
339.7537727594356
 31
0.0
  0
LINE
  5
771
330
1A
100
AcDbEntity
  8
SEIHIN
  6
CONTINUOUS
 62
     3
 48
5.0
100
AcDbLine
 10
568.994064663208
 20
334.1154727594358
 30
0.0
 11
573.8775646632082
 21
331.2959727594358
 31
0.0
  0
LINE
  5
772
330
1A
100
AcDbEntity
  8
SEIHIN
  6
CONTINUOUS
 62
     3
 48
5.0
100
AcDbLine
 10
573.8775646632082
 20
331.2960727594356
 30
0.0
 11
568.994064663208
 21
334.1154727594358
 31
0.0
  0
LINE
  5
773
330
1A
100
AcDbEntity
  8
SEIHIN
  6
CONTINUOUS
 62
     3
 48
5.0
100
AcDbLine
 10
573.8775646632082
 20
328.8796727594357
 30
0.0
 11
568.994064663208
 21
326.0602727594356
 31
0.0
  0
LINE
  5
774
330
1A
100
AcDbEntity
  8
SEIHIN
  6
CONTINUOUS
 62
     3
 48
5.0
100
AcDbLine
 10
568.994064663208
 20
323.6439727594356
 30
0.0
 11
568.994064663208
 21
329.2823727594358
 31
0.0
  0
LINE
  5
775
330
1A
100
AcDbEntity
  8
SEIHIN
  6
CONTINUOUS
 62
     3
 48
5.0
100
AcDbLine
 10
564.8089646632081
 20
323.6439727594356
 30
0.0
 11
564.8089646632081
 21
329.2823727594358
 31
0.0
  0
LINE
  5
776
330
1A
100
AcDbEntity
  8
SEIHIN
  6
CONTINUOUS
 62
     3
 48
5.0
100
AcDbLine
 10
566.9015646632081
 20
330.4904727594358
 30
0.0
 11
571.7844646632081
 21
327.6713727594356
 31
0.0
  0
LINE
  5
777
330
1A
100
AcDbEntity
  8
SEIHIN
  6
CONTINUOUS
 62
     3
 48
5.0
100
AcDbLine
 10
571.7844646632081
 20
327.6713727594356
 30
0.0
 11
566.9015646632081
 21
330.4904727594358
 31
0.0
  0
LINE
  5
778
330
1A
100
AcDbEntity
  8
SEIHIN
  6
CONTINUOUS
 62
     3
 48
5.0
100
AcDbLine
 10
573.8775646632082
 20
328.8796727594357
 30
0.0
 11
573.8775646632082
 21
334.5180727594357
 31
0.0
  0
LINE
  5
779
330
1A
100
AcDbEntity
  8
SEIHIN
  6
CONTINUOUS
 62
     3
 48
5.0
100
AcDbLine
 10
578.0627646632082
 20
328.8796727594357
 30
0.0
 11
578.0627646632082
 21
334.5180727594357
 31
0.0
  0
LINE
  5
77A
330
1A
100
AcDbEntity
  8
SEIHIN
  6
CONTINUOUS
 62
     3
 48
5.0
100
AcDbLine
 10
575.9700646632081
 20
346.1976727594358
 30
0.0
 11
571.0870646632081
 21
343.3784727594357
 31
0.0
  0
LINE
  5
77B
330
1A
100
AcDbEntity
  8
SEIHIN
  6
CONTINUOUS
 62
     3
 48
5.0
100
AcDbLine
 10
573.8775646632082
 20
339.3511727594356
 30
0.0
 11
568.994064663208
 21
336.5317727594358
 31
0.0
  0
LINE
  5
77C
330
1A
100
AcDbEntity
  8
SEIHIN
  6
CONTINUOUS
 62
     3
 48
5.0
100
AcDbLine
 10
568.994064663208
 20
344.5868727594356
 30
0.0
 11
573.8775646632082
 21
341.7673727594356
 31
0.0
  0
LINE
  5
77D
330
1A
100
AcDbEntity
  8
SEIHIN
  6
CONTINUOUS
 62
     3
 48
5.0
100
AcDbLine
 10
573.8775646632082
 20
341.7674727594357
 30
0.0
 11
568.994064663208
 21
344.5869727594358
 31
0.0
  0
LINE
  5
77E
330
1A
100
AcDbEntity
  8
SEIHIN
  6
CONTINUOUS
 62
     3
 48
5.0
100
AcDbLine
 10
566.9015646632081
 20
340.9619727594358
 30
0.0
 11
571.7844646632081
 21
338.1427727594356
 31
0.0
  0
LINE
  5
77F
330
1A
100
AcDbEntity
  8
SEIHIN
  6
CONTINUOUS
 62
     3
 48
5.0
100
AcDbLine
 10
571.7844646632081
 20
338.1427727594356
 30
0.0
 11
566.9015646632081
 21
340.9619727594358
 31
0.0
  0
LINE
  5
780
330
1A
100
AcDbEntity
  8
SEIHIN
  6
CONTINUOUS
 62
     3
 48
5.0
100
AcDbLine
 10
578.0627646632082
 20
339.3510727594356
 30
0.0
 11
578.0627646632082
 21
344.9894727594356
 31
0.0
  0
LINE
  5
781
330
1A
100
AcDbEntity
  8
SEIHIN
  6
CONTINUOUS
 62
     3
 48
5.0
100
AcDbLine
 10
573.8775646632082
 20
339.3511727594356
 30
0.0
 11
573.8775646632082
 21
344.9894727594356
 31
0.0
  0
LINE
  5
782
330
1A
100
AcDbEntity
  8
SEIHIN
  6
CONTINUOUS
 62
     3
 48
5.0
100
AcDbLine
 10
587.1312646632081
 20
334.1154727594358
 30
0.0
 11
587.1312646632081
 21
339.7536727594358
 31
0.0
  0
LINE
  5
783
330
1A
100
AcDbEntity
  8
SEIHIN
  6
CONTINUOUS
 62
     3
 48
5.0
100
AcDbLine
 10
582.9462646632079
 20
334.1154727594358
 30
0.0
 11
582.9462646632079
 21
339.7536727594358
 31
0.0
  0
LINE
  5
784
330
1A
100
AcDbEntity
  8
SEIHIN
  6
CONTINUOUS
 62
     3
 48
5.0
100
AcDbLine
 10
589.2242646632082
 20
332.9069727594358
 30
0.0
 11
594.107264663208
 21
335.7261727594356
 31
0.0
  0
LINE
  5
785
330
1A
100
AcDbEntity
  8
SEIHIN
  6
CONTINUOUS
 62
     3
 48
5.0
100
AcDbLine
 10
594.107264663208
 20
335.7261727594356
 30
0.0
 11
589.2242646632082
 21
332.9069727594358
 31
0.0
  0
LINE
  5
786
330
1A
100
AcDbEntity
  8
SEIHIN
  6
CONTINUOUS
 62
     3
 48
5.0
100
AcDbLine
 10
587.1312646632081
 20
334.1154727594358
 30
0.0
 11
592.0146646632081
 21
331.2960727594356
 31
0.0
  0
LINE
  5
787
330
1A
100
AcDbEntity
  8
SEIHIN
  6
CONTINUOUS
 62
     3
 48
5.0
100
AcDbLine
 10
585.0387646632082
 20
330.4904727594358
 30
0.0
 11
589.9217646632082
 21
327.6711727594358
 31
0.0
  0
LINE
  5
788
330
1A
100
AcDbEntity
  8
SEIHIN
  6
CONTINUOUS
 62
     3
 48
5.0
100
AcDbLine
 10
592.0146646632081
 20
328.8796727594357
 30
0.0
 11
587.1312646632081
 21
326.0601727594356
 31
0.0
  0
LINE
  5
789
330
1A
100
AcDbEntity
  8
SEIHIN
  6
CONTINUOUS
 62
     3
 48
5.0
100
AcDbLine
 10
587.1312646632081
 20
326.0601727594356
 30
0.0
 11
592.0146646632081
 21
328.8796727594357
 31
0.0
  0
LINE
  5
78A
330
1A
100
AcDbEntity
  8
SEIHIN
  6
CONTINUOUS
 62
     3
 48
5.0
100
AcDbLine
 10
587.1312646632081
 20
323.6439727594356
 30
0.0
 11
587.1312646632081
 21
329.2822727594357
 31
0.0
  0
LINE
  5
78B
330
1A
100
AcDbEntity
  8
SEIHIN
  6
CONTINUOUS
 62
     3
 48
5.0
100
AcDbLine
 10
582.9462646632079
 20
323.6439727594356
 30
0.0
 11
582.9462646632079
 21
329.2822727594357
 31
0.0
  0
LINE
  5
78C
330
1A
100
AcDbEntity
  8
SEIHIN
  6
CONTINUOUS
 62
     3
 48
5.0
100
AcDbLine
 10
596.1997646632083
 20
328.8796727594357
 30
0.0
 11
596.1997646632083
 21
334.5180727594357
 31
0.0
  0
LINE
  5
78D
330
1A
100
AcDbEntity
  8
SEIHIN
  6
CONTINUOUS
 62
     3
 48
5.0
100
AcDbLine
 10
592.0146646632081
 20
328.8796727594357
 30
0.0
 11
592.0146646632081
 21
334.5180727594357
 31
0.0
  0
LINE
  5
78E
330
1A
100
AcDbEntity
  8
SEIHIN
  6
CONTINUOUS
 62
     3
 48
5.0
100
AcDbLine
 10
585.0387646632082
 20
340.9618727594356
 30
0.0
 11
589.9217646632082
 21
338.1427727594356
 31
0.0
  0
LINE
  5
78F
330
1A
100
AcDbEntity
  8
SEIHIN
  6
CONTINUOUS
 62
     3
 48
5.0
100
AcDbLine
 10
592.0146646632081
 20
339.3510727594356
 30
0.0
 11
587.1312646632081
 21
336.5316727594358
 31
0.0
  0
LINE
  5
790
330
1A
100
AcDbEntity
  8
SEIHIN
  6
CONTINUOUS
 62
     3
 48
5.0
100
AcDbLine
 10
587.1312646632081
 20
336.5316727594358
 30
0.0
 11
592.0146646632081
 21
339.3511727594356
 31
0.0
  0
LINE
  5
791
330
1A
100
AcDbEntity
  8
SEIHIN
  6
CONTINUOUS
 62
     3
 48
5.0
100
AcDbLine
 10
587.1312646632081
 20
344.5867727594357
 30
0.0
 11
592.0146646632081
 21
341.7674727594357
 31
0.0
  0
LINE
  5
792
330
1A
100
AcDbEntity
  8
SEIHIN
  6
CONTINUOUS
 62
     3
 48
5.0
100
AcDbLine
 10
594.107264663208
 20
346.1976727594358
 30
0.0
 11
595.554064663208
 21
345.3622727594356
 31
0.0
  0
LINE
  5
793
330
1A
100
AcDbEntity
  8
SEIHIN
  6
CONTINUOUS
 62
     3
 48
5.0
100
AcDbLine
 10
596.1997646632083
 20
339.3510727594356
 30
0.0
 11
596.1997646632083
 21
343.9951727594356
 31
0.0
  0
LINE
  5
794
330
1A
100
AcDbEntity
  8
SEIHIN
  6
CONTINUOUS
 62
     3
 48
5.0
100
AcDbLine
 10
592.0146646632081
 20
339.3510727594356
 30
0.0
 11
592.0146646632081
 21
344.9894727594356
 31
0.0
  0
LINE
  5
795
330
1A
100
AcDbEntity
  8
SEIHIN
  6
CONTINUOUS
 62
     3
 48
5.0
100
AcDbLine
 10
589.2242646632082
 20
343.3784727594357
 30
0.0
 11
594.107264663208
 21
346.1976727594358
 31
0.0
  0
LINE
  5
796
330
1A
100
AcDbEntity
  8
SEIHIN
  6
CONTINUOUS
 62
     3
 48
5.0
100
AcDbLine
 10
594.107264663208
 20
346.1976727594358
 30
0.0
 11
589.2242646632082
 21
343.3784727594357
 31
0.0
  0
LINE
  5
797
330
1A
100
AcDbEntity
  8
SEIHIN
  6
CONTINUOUS
 62
     3
 48
5.0
100
AcDbLine
 10
578.0627646632082
 20
349.8225727594357
 30
0.0
 11
582.9462646632079
 21
347.0030727594356
 31
0.0
  0
ARC
  5
798
330
1A
100
AcDbEntity
  8
SEIHIN
  6
CONTINUOUS
 62
     3
 48
5.0
100
AcDbCircle
 10
603.4695046878123
 20
416.8953801943884
 30
0.0
 40
69.75947023499696
100
AcDbArc
 50
246.7837703666343
 51
259.9812884674508
  0
ARC
  5
799
330
1A
100
AcDbEntity
  8
SEIHIN
  6
CONTINUOUS
 62
     3
 48
5.0
100
AcDbCircle
 10
603.4697724205045
 20
419.3368993911737
 30
0.0
 40
69.75950151630924
100
AcDbArc
 50
246.783542113679
 51
261.0083010988089
  0
ARC
  5
79A
330
1A
100
AcDbEntity
  8
SEIHIN
  6
CONTINUOUS
 62
     3
 48
5.0
100
AcDbCircle
 10
603.4698201036595
 20
421.7784852016905
 30
0.0
 40
69.75950727285902
100
AcDbArc
 50
246.7835015271406
 51
262.0141755296027
  0
LINE
  5
79B
330
1A
100
AcDbEntity
  8
SEIHIN
  6
CONTINUOUS
 62
     3
 48
5.0
100
AcDbLine
 10
573.8776646632081
 20
349.8225727594357
 30
0.0
 11
568.994064663208
 21
347.0031727594358
 31
0.0
  0
LINE
  5
79C
330
1A
100
AcDbEntity
  8
SEIHIN
  6
CONTINUOUS
 62
     3
 48
5.0
100
AcDbLine
 10
578.0627646632082
 20
349.8225727594357
 30
0.0
 11
578.0627646632082
 21
351.9270727594358
 31
0.0
  0
LINE
  5
79D
330
1A
100
AcDbEntity
  8
SEIHIN
  6
CONTINUOUS
 62
     3
 48
5.0
100
AcDbLine
 10
573.8776646632081
 20
349.8225727594357
 30
0.0
 11
573.8776646632081
 21
351.9271727594357
 31
0.0
  0
LINE
  5
79E
330
1A
100
AcDbEntity
  8
SEIHIN
  6
CONTINUOUS
 62
     3
 48
5.0
100
AcDbLine
 10
589.7283646632081
 20
348.5025727594357
 30
0.0
 11
587.1312646632081
 21
347.0030727594356
 31
0.0
  0
LINE
  5
79F
330
1A
100
AcDbEntity
  8
SEIHIN
  6
CONTINUOUS
 62
     3
 48
5.0
100
AcDbLine
 10
587.1312646632081
 20
347.0030727594356
 30
0.0
 11
589.7283646632081
 21
348.5025727594357
 31
0.0
  0
ARC
  5
7A0
330
1A
100
AcDbEntity
  8
SEIHIN
  6
CONTINUOUS
 62
     3
 48
5.0
100
AcDbCircle
 10
599.2491892396133
 20
336.0424521002895
 30
0.0
 40
10.46387206895099
100
AcDbArc
 50
15.46575301127456
 51
84.43311768986253
  0
LINE
  5
7A1
330
1A
100
AcDbEntity
  8
SEIHIN
  6
CONTINUOUS
 62
     3
 48
5.0
100
AcDbLine
 10
601.0831646632082
 20
334.1153727594356
 30
0.0
 11
601.0831646632082
 21
339.7537727594356
 31
0.0
  0
ARC
  5
7A2
330
1A
100
AcDbEntity
  8
SEIHIN
  6
CONTINUOUS
 62
     3
 48
5.0
100
AcDbCircle
 10
564.1109444468072
 20
327.6715660701396
 30
0.0
 40
41.85562021684733
100
AcDbArc
 50
359.9997353787276
 51
11.94029658298401
  0
ARC
  5
7A3
330
1A
100
AcDbEntity
  8
SEIHIN
  6
CONTINUOUS
 62
     3
 48
5.0
100
AcDbCircle
 10
566.5524545601656
 20
327.6714571212992
 30
0.0
 40
41.85571010312754
100
AcDbArc
 50
359.9998845180568
 51
13.65813865846489
  0
ARC
  5
7A4
330
1A
100
AcDbEntity
  8
SEIHIN
  6
CONTINUOUS
 62
     3
 48
5.0
100
AcDbCircle
 10
568.9941075040717
 20
327.6710572675533
 30
0.0
 40
41.85565716032531
100
AcDbArc
 50
0.0004318735997288
 51
15.46630384052958
  0
LINE
  5
7A5
330
1A
100
AcDbEntity
  8
SEIHIN
  6
CONTINUOUS
 62
     3
 48
5.0
100
AcDbLine
 10
603.1756646632081
 20
330.4904727594358
 30
0.0
 11
605.948864663208
 21
328.8893727594356
 31
0.0
  0
LINE
  5
7A6
330
1A
100
AcDbEntity
  8
SEIHIN
  6
CONTINUOUS
 62
     3
 48
5.0
100
AcDbLine
 10
601.0831646632082
 20
323.6439727594356
 30
0.0
 11
601.0831646632082
 21
329.2822727594357
 31
0.0
  0
LINE
  5
7A7
330
1A
100
AcDbEntity
  8
SEIHIN
  6
CONTINUOUS
 62
     3
 48
5.0
100
AcDbLine
 10
598.2927646632081
 20
327.6712727594357
 30
0.0
 11
603.1756646632081
 21
330.4904727594358
 31
0.0
  0
LINE
  5
7A8
330
1A
100
AcDbEntity
  8
SEIHIN
  6
CONTINUOUS
 62
     3
 48
5.0
100
AcDbLine
 10
603.1756646632081
 20
330.4904727594358
 30
0.0
 11
598.2927646632081
 21
327.6712727594357
 31
0.0
  0
LINE
  5
7A9
330
1A
100
AcDbEntity
  8
SEIHIN
  6
CONTINUOUS
 62
     3
 48
5.0
100
AcDbLine
 10
605.2682646632081
 20
334.1153727594356
 30
0.0
 11
605.487064663208
 21
333.9891727594358
 31
0.0
  0
LINE
  5
7AA
330
1A
100
AcDbEntity
  8
SEIHIN
  6
CONTINUOUS
 62
     3
 48
5.0
100
AcDbLine
 10
605.2682646632081
 20
323.6439727594356
 30
0.0
 11
605.2682646632081
 21
329.2822727594357
 31
0.0
  0
ARC
  5
7AB
330
1A
100
AcDbEntity
  8
SEIHIN
  6
CONTINUOUS
 62
     3
 48
5.0
100
AcDbCircle
 10
597.7344108166064
 20
335.2487176691864
 30
0.0
 40
9.766315073323951
100
AcDbArc
 50
13.65785000619807
 51
86.68316143877616
  0
LINE
  5
7AC
330
1A
100
AcDbEntity
  8
SEIHIN
  6
CONTINUOUS
 62
     3
 48
5.0
100
AcDbLine
 10
600.3858646632082
 20
346.5063727594358
 30
0.0
 11
600.3152646632081
 21
346.4518727594356
 31
0.0
  0
LINE
  5
7AD
330
1A
100
AcDbEntity
  8
SEIHIN
  6
CONTINUOUS
 62
     3
 48
5.0
100
AcDbLine
 10
602.7492646632081
 20
340.7155727594358
 30
0.0
 11
598.2927646632081
 21
338.1426727594358
 31
0.0
  0
LINE
  5
7AE
330
1A
100
AcDbEntity
  8
SEIHIN
  6
CONTINUOUS
 62
     3
 48
5.0
100
AcDbLine
 10
598.2927646632081
 20
338.1426727594358
 30
0.0
 11
602.7492646632081
 21
340.7155727594358
 31
0.0
  0
LINE
  5
7AF
330
1A
100
AcDbEntity
  8
SEIHIN
  6
CONTINUOUS
 62
     3
 48
5.0
100
AcDbLine
 10
614.7180646632082
 20
371.6713727594356
 30
0.0
 11
575.9701646632081
 21
371.6714727594358
 31
0.0
  0
DIMENSION
  5
7C5
330
1A
100
AcDbEntity
  8
SUNPOU
  6
CONTINUOUS
 62
     4
 48
5.0
100
AcDbDimension
  2
*D1
 10
402.8900448965696
 20
261.6711727594357
 30
0.0
 11
397.8900448965696
 21
333.6712727594357
 31
0.0
 70
    32
  3
STANDARD
100
AcDbAlignedDimension
 13
355.342815418351
 23
405.6713727594356
 33
0.0
 14
318.3426154183508
 24
261.6711727594357
 34
0.0
 50
90.0
100
AcDbRotatedDimension
1001
ACAD
1000
DSTYLE
1002
{
1070
   140
1040
6.0
1070
    74
1070
     0
1070
   172
1070
     1
1070
    73
1070
     0
1070
   272
1070
     2
1070
    77
1070
     3
1070
   173
1070
     1
1070
   147
1040
2.0
1070
    42
1040
6.0
1070
    44
1040
3.0
1070
    43
1040
14.0
1070
   271
1070
     0
1070
   178
1070
     4
1070
   177
1070
     4
1070
   176
1070
     4
1070
   141
1040
150.0
1070
     7
1000
_OPEN
1070
     6
1000
_OPEN
1070
    41
1040
7.0
1002
}
  0
DIMENSION
  5
7D2
330
1A
100
AcDbEntity
  8
SUNPOU
  6
CONTINUOUS
 62
     4
 48
5.0
100
AcDbDimension
  2
*D2
 10
402.3067115632362
 20
231.6712727594357
 30
0.0
 11
397.3067115632362
 21
246.6712227594357
 31
0.0
 70
    32
  1
※a <>
  3
STANDARD
100
AcDbAlignedDimension
 13
318.3426154183508
 23
261.6711727594357
 33
0.0
 14
309.342515418351
 24
231.6712727594357
 34
0.0
 50
90.0
100
AcDbRotatedDimension
1001
ACAD
1000
DSTYLE
1002
{
1070
   140
1040
6.0
1070
    74
1070
     0
1070
   172
1070
     1
1070
    73
1070
     0
1070
   272
1070
     2
1070
    77
1070
     3
1070
   173
1070
     1
1070
   147
1040
2.0
1070
    42
1040
6.0
1070
    44
1040
3.0
1070
    43
1040
14.0
1070
   271
1070
     0
1070
   178
1070
     4
1070
   177
1070
     4
1070
   176
1070
     4
1070
   141
1040
150.0
1070
     7
1000
_OPEN
1070
     6
1000
_OPEN
1070
    41
1040
7.0
1002
}
  0
DIMENSION
  5
7DF
330
1A
100
AcDbEntity
  8
SUNPOU
  6
CONTINUOUS
 62
     4
 48
5.0
100
AcDbDimension
  2
*D3
 10
402.3067115632362
 20
201.6712727594358
 30
0.0
 11
397.3067115632362
 21
216.6712727594357
 31
0.0
 70
    32
  1
※b <>
  3
STANDARD
100
AcDbAlignedDimension
 13
309.342515418351
 23
231.6712727594357
 33
0.0
 14
303.242415418351
 24
201.6712727594358
 34
0.0
 50
90.0
100
AcDbRotatedDimension
1001
ACAD
1000
DSTYLE
1002
{
1070
   140
1040
6.0
1070
    74
1070
     0
1070
   172
1070
     1
1070
    73
1070
     0
1070
   272
1070
     2
1070
    77
1070
     3
1070
   173
1070
     1
1070
   147
1040
2.0
1070
    42
1040
6.0
1070
    44
1040
3.0
1070
    43
1040
14.0
1070
   271
1070
     0
1070
   178
1070
     4
1070
   177
1070
     4
1070
   176
1070
     4
1070
   141
1040
150.0
1070
     7
1000
_OPEN
1070
     6
1000
_OPEN
1070
    41
1040
7.0
1002
}
  0
DIMENSION
  5
7EC
330
1A
100
AcDbEntity
  8
SUNPOU
  6
CONTINUOUS
 62
     4
 48
5.0
100
AcDbDimension
  2
*D4
 10
246.942515418351
 20
169.0151898648775
 30
0.0
 11
275.342465418351
 21
174.0151898648775
 31
0.0
 70
    32
  1
φ <>
  3
STANDARD
100
AcDbAlignedDimension
 13
303.742415418351
 23
202.1712727594357
 33
0.0
 14
246.942515418351
 24
202.1713727594358
 34
0.0
100
AcDbRotatedDimension
1001
ACAD
1000
DSTYLE
1002
{
1070
   140
1040
6.0
1070
    74
1070
     0
1070
   172
1070
     1
1070
    73
1070
     0
1070
   272
1070
     2
1070
    77
1070
     3
1070
   173
1070
     1
1070
   147
1040
2.0
1070
    42
1040
6.0
1070
    44
1040
3.0
1070
    43
1040
14.0
1070
   271
1070
     0
1070
   178
1070
     4
1070
   177
1070
     4
1070
   176
1070
     4
1070
   141
1040
150.0
1070
     7
1000
_OPEN
1070
     6
1000
_OPEN
1070
    41
1040
7.0
1002
}
  0
DIMENSION
  5
7F9
330
1A
100
AcDbEntity
  8
SUNPOU
  6
CONTINUOUS
 62
     4
 48
5.0
100
AcDbDimension
  2
*D5
 10
239.892515418351
 20
149.4845536997593
 30
0.0
 11
275.3425154183509
 21
154.4845536997593
 31
0.0
 70
    32
  1
φ <>
  3
STANDARD
100
AcDbAlignedDimension
 13
310.792515418351
 23
234.6712727594357
 33
0.0
 14
239.892515418351
 24
234.6713727594357
 34
0.0
100
AcDbRotatedDimension
1001
ACAD
1000
DSTYLE
1002
{
1070
   140
1040
6.0
1070
    74
1070
     0
1070
   172
1070
     1
1070
    73
1070
     0
1070
   272
1070
     2
1070
    77
1070
     3
1070
   173
1070
     1
1070
   147
1040
2.0
1070
    42
1040
6.0
1070
    44
1040
3.0
1070
    43
1040
14.0
1070
   271
1070
     0
1070
   178
1070
     4
1070
   177
1070
     4
1070
   176
1070
     4
1070
   141
1040
150.0
1070
     7
1000
_OPEN
1070
     6
1000
_OPEN
1070
    41
1040
7.0
1002
}
  0
DIMENSION
  5
806
330
1A
100
AcDbEntity
  8
SUNPOU
  6
CONTINUOUS
 62
     4
 48
5.0
100
AcDbDimension
  2
*D6
 10
355.342815418351
 20
447.2003574313771
 30
0.0
 11
275.342765418351
 21
452.2003574313771
 31
0.0
 70
    32
  3
STANDARD
100
AcDbAlignedDimension
 13
195.342715418351
 23
405.6715727594356
 33
0.0
 14
355.342815418351
 24
405.6713727594356
 34
0.0
100
AcDbRotatedDimension
1001
ACAD
1000
DSTYLE
1002
{
1070
   140
1040
6.0
1070
    74
1070
     0
1070
   172
1070
     1
1070
    73
1070
     0
1070
   272
1070
     2
1070
    77
1070
     3
1070
   173
1070
     1
1070
   147
1040
2.0
1070
    42
1040
6.0
1070
    44
1040
3.0
1070
    43
1040
14.0
1070
   271
1070
     0
1070
   178
1070
     4
1070
   177
1070
     4
1070
   176
1070
     4
1070
   141
1040
150.0
1070
     7
1000
_OPEN
1070
     6
1000
_OPEN
1070
    41
1040
7.0
1002
}
  0
DIMENSION
  5
813
330
1A
100
AcDbEntity
  8
SUNPOU
  6
CONTINUOUS
 62
     4
 48
5.0
100
AcDbDimension
  2
*D7
 10
503.4701646632081
 20
447.2003574313771
 30
0.0
 11
567.4702146632081
 21
452.2003574313771
 31
0.0
 70
    32
  3
STANDARD
100
AcDbAlignedDimension
 13
631.4702646632081
 23
405.6714727594358
 33
0.0
 14
503.4701646632081
 24
405.6715727594356
 34
0.0
100
AcDbRotatedDimension
1001
ACAD
1000
DSTYLE
1002
{
1070
   140
1040
6.0
1070
    74
1070
     0
1070
   172
1070
     1
1070
    73
1070
     0
1070
   272
1070
     2
1070
    77
1070
     3
1070
   173
1070
     1
1070
   147
1040
2.0
1070
    42
1040
6.0
1070
    44
1040
3.0
1070
    43
1040
14.0
1070
   271
1070
     0
1070
   178
1070
     4
1070
   177
1070
     4
1070
   176
1070
     4
1070
   141
1040
150.0
1070
     7
1000
_OPEN
1070
     6
1000
_OPEN
1070
    41
1040
7.0
1002
}
  0
DIMENSION
  5
820
330
1A
100
AcDbEntity
  8
SUNPOU
  6
CONTINUOUS
 62
     4
 48
5.0
100
AcDbDimension
  2
*D8
 10
579.4701646632081
 20
169.0151898648775
 30
0.0
 11
604.4850646632081
 21
174.0151898648775
 31
0.0
 70
    32
  3
STANDARD
100
AcDbAlignedDimension
 13
629.4999646632081
 23
277.6404727594357
 33
0.0
 14
579.4701646632081
 24
194.6705727611829
 34
0.0
100
AcDbRotatedDimension
1001
ACAD
1000
DSTYLE
1002
{
1070
   140
1040
6.0
1070
    74
1070
     0
1070
   172
1070
     1
1070
    73
1070
     0
1070
   272
1070
     2
1070
    77
1070
     3
1070
   173
1070
     1
1070
   147
1040
2.0
1070
    42
1040
6.0
1070
    44
1040
3.0
1070
    43
1040
14.0
1070
   271
1070
     0
1070
   178
1070
     4
1070
   177
1070
     4
1070
   176
1070
     4
1070
   141
1040
150.0
1070
     7
1000
_OPEN
1070
     6
1000
_OPEN
1070
    41
1040
7.0
1002
}
  0
TEXT
  5
91B
330
1A
100
AcDbEntity
  8
SUNPOU
  6
CONTINUOUS
 62
     4
 48
5.0
100
AcDbText
 10
578.0638250947517
 20
62.69843006011559
 30
0.0
 40
8.0
  1
※a　ＵＴ７５たてといの差込み寸法を示す。
100
AcDbText
  0
TEXT
  5
91C
330
1A
100
AcDbEntity
  8
SUNPOU
  6
CONTINUOUS
 62
     4
 48
5.0
100
AcDbText
 10
578.0638250947517
 20
50.84355732074723
 30
0.0
 40
8.0
  1
※b　ＵＴ６０たてといの差込み寸法を示す。
100
AcDbText
  0
DIMENSION
  5
92A
330
1A
100
AcDbEntity
  8
SUNPOU
  6
CONTINUOUS
 62
     4
 48
5.0
100
AcDbDimension
  2
*D9
 10
422.5192051495469
 20
201.6712727594358
 30
0.0
 11
417.5192051495469
 21
303.6713227594357
 31
0.0
 70
    32
  3
STANDARD
100
AcDbAlignedDimension
 13
355.342815418351
 23
405.6713727594356
 33
0.0
 14
303.242415418351
 24
201.6712727594358
 34
0.0
 50
90.0
100
AcDbRotatedDimension
1001
ACAD
1000
DSTYLE
1002
{
1070
   140
1040
6.0
1070
    74
1070
     0
1070
   172
1070
     1
1070
    73
1070
     0
1070
   272
1070
     2
1070
    77
1070
     3
1070
   173
1070
     1
1070
   147
1040
2.0
1070
    42
1040
6.0
1070
    44
1040
3.0
1070
    43
1040
14.0
1070
   271
1070
     0
1070
   178
1070
     4
1070
   177
1070
     4
1070
   176
1070
     4
1070
   141
1040
150.0
1070
     7
1000
_OPEN
1070
     6
1000
_OPEN
1070
    41
1040
7.0
1002
}
  0
LINE
  5
934
330
1A
100
AcDbEntity
  8
SEIHIN
  6
CONTINUOUS
 62
     3
 48
5.0
100
AcDbLine
 10
283.1305244780077
 20
352.8556472457655
 30
0.0
 11
280.0171154183511
 21
351.0580727594356
 31
0.0
  0
LINE
  5
935
330
1A
100
AcDbEntity
  8
SEIHIN
  6
CONTINUOUS
 62
     3
 48
5.0
100
AcDbLine
 10
267.5552928270328
 20
352.8557886618912
 30
0.0
 11
270.6688154183511
 21
351.0581727594358
 31
0.0
  0
LINE
  5
936
330
1A
100
AcDbEntity
  8
SEIHIN
  6
CONTINUOUS
 62
     3
 48
5.0
100
AcDbLine
 10
287.806215418351
 20
303.7686675288047
 30
0.0
 11
287.806215418351
 21
306.0835727594358
 31
0.0
  0
LINE
  5
937
330
1A
100
AcDbEntity
  8
SEIHIN
  6
CONTINUOUS
 62
     3
 48
5.0
100
AcDbLine
 10
283.1327154183511
 20
302.487741076516
 30
0.0
 11
283.1327154183511
 21
306.0835727594358
 31
0.0
  0
LINE
  5
938
330
1A
100
AcDbEntity
  8
SEIHIN
  6
CONTINUOUS
 62
     3
 48
5.0
100
AcDbLine
 10
267.5524154183511
 20
302.4877892051406
 30
0.0
 11
267.5524154183511
 21
306.0836727594356
 31
0.0
  0
LINE
  5
939
330
1A
100
AcDbEntity
  8
SEIHIN
  6
CONTINUOUS
 62
     3
 48
5.0
100
AcDbLine
 10
262.8789154183511
 20
303.7687421556205
 30
0.0
 11
262.8789154183511
 21
306.0836727594356
 31
0.0
  0
LINE
  5
93A
330
1A
100
AcDbEntity
  8
SEIHIN
  6
CONTINUOUS
 62
     3
 48
5.0
100
AcDbLine
 10
582.9440151550854
 20
350.2238872839297
 30
0.0
 11
580.1558646632081
 21
348.6141727594358
 31
0.0
  0
LINE
  5
93B
330
1A
100
AcDbEntity
  8
SEIHIN
  6
CONTINUOUS
 62
     3
 48
5.0
100
AcDbLine
 10
571.7844646632081
 20
348.6141727594358
 30
0.0
 11
568.9962758874197
 21
350.223966487897
 31
0.0
  0
LINE
  5
93C
330
1A
100
AcDbEntity
  8
SEIHIN
  6
CONTINUOUS
 62
     3
 48
5.0
100
AcDbLine
 10
587.1312278985219
 20
306.2665326907294
 30
0.0
 11
587.1312646632081
 21
308.3394727594358
 31
0.0
  0
LINE
  5
93D
330
1A
100
AcDbEntity
  8
SEIHIN
  6
CONTINUOUS
 62
     3
 48
5.0
100
AcDbLine
 10
582.9461075540158
 20
305.1194280632663
 30
0.0
 11
582.946164663208
 21
308.3394727594358
 31
0.0
  0
LINE
  5
93E
330
1A
100
AcDbEntity
  8
SEIHIN
  6
CONTINUOUS
 62
     3
 48
5.0
100
AcDbLine
 10
568.9938646632082
 20
305.1195285628506
 30
0.0
 11
568.993864663208
 21
308.3395727594357
 31
0.0
  0
LINE
  5
93F
330
1A
100
AcDbEntity
  8
SEIHIN
  6
CONTINUOUS
 62
     3
 48
5.0
100
AcDbLine
 10
564.8087646632082
 20
306.2665912176188
 30
0.0
 11
564.8087646632082
 21
308.3395727594357
 31
0.0
  0
VIEWPORT
  5
22
330
17
100
AcDbEntity
 67
     1
  8
0
100
AcDbViewport
 10
313.6808219178082
 20
148.5
 30
0.0
 40
627.3616438356165
 41
297.0
 68
     2
 69
     1
1001
ACAD
1000
MVIEW
1002
{
1070
    16
1010
0.0
1020
0.0
1030
0.0
1010
0.0
1020
0.0
1030
1.0
1040
0.0
1040
297.0
1040
313.6808219178082
1040
148.5
1040
50.0
1040
0.0
1040
0.0
1070
     0
1070
   100
1070
     1
1070
     0
1070
     0
1070
     0
1070
     0
1070
     0
1040
0.0
1040
0.0
1040
0.0
1040
1.0
1040
1.0
1040
10.0
1040
10.0
1070
     0
1002
{
1002
}
1002
}
  0
VIEWPORT
  5
64
330
17
100
AcDbEntity
 67
     1
  8
VIEWPORT
100
AcDbViewport
 10
210.0
 20
148.5
 30
0.0
 40
420.0
 41
297.0
 68
     1
 69
     2
1001
ACAD
1000
MVIEW
1002
{
1070
    16
1010
0.0
1020
0.0
1030
0.0
1010
0.0
1020
0.0
1030
1.0
1040
0.0
1040
605.8799999999998
1040
420.0
1040
297.0
1040
50.0
1040
0.0
1040
0.0
1070
     0
1070
   100
1070
     1
1070
     0
1070
     0
1070
     0
1070
     0
1070
     0
1040
0.0
1040
0.0
1040
0.0
1040
10.0
1040
10.0
1040
0.0
1040
0.0
1070
     0
1002
{
1002
}
1002
}
  0
ENDSEC
  0
SECTION
  2
OBJECTS
  0
DICTIONARY
  5
C
330
0
100
AcDbDictionary
  3
ACAD_GROUP
350
D
  3
ACAD_LAYOUT
350
955
  3
ACAD_MLINESTYLE
350
E
  3
ACAD_PLOTSETTINGS
350
956
1001
ACAD
1000
TREAT_AS_HARD
1070
     0
  0
DICTIONARY
  5
984
330
1A
100
AcDbDictionary
  3
ACAD_LAYOUTSELFREF
350
9C8
1001
ACAD
1000
TREAT_AS_HARD
1070
     1
  0
DICTIONARY
  5
982
330
17
100
AcDbDictionary
  3
ACAD_LAYOUTSELFREF
350
9C7
1001
ACAD
1000
TREAT_AS_HARD
1070
     1
  0
DICTIONARY
  5
D
102
{ACAD_REACTORS
330
C
102
}
330
C
100
AcDbDictionary
1001
ACAD
1000
TREAT_AS_HARD
1070
     0
  0
DICTIONARY
  5
955
102
{ACAD_REACTORS
330
C
102
}
330
C
100
AcDbDictionary
1001
ACAD
1000
TREAT_AS_HARD
1070
     0
  0
DICTIONARY
  5
E
102
{ACAD_REACTORS
330
C
102
}
330
C
100
AcDbDictionary
  3
STANDARD
350
13
1001
ACAD
1000
TREAT_AS_HARD
1070
     0
  0
DICTIONARY
  5
956
102
{ACAD_REACTORS
330
C
102
}
330
C
100
AcDbDictionary
1001
ACAD
1000
TREAT_AS_HARD
1070
     0
  0
XRECORD
  5
9C8
102
{ACAD_REACTORS
330
984
102
}
330
984
100
AcDbXrecord
340
1A
  0
XRECORD
  5
9C7
102
{ACAD_REACTORS
330
982
102
}
330
982
100
AcDbXrecord
340
17
  0
MLINESTYLE
  5
13
102
{ACAD_REACTORS
330
E
102
}
330
E
100
AcDbMlineStyle
  2
STANDARD
 70
     0
  3

 62
     0
 51
90.0
 52
90.0
 71
     2
 49
0.5
 62
   256
  6
BYLAYER
 49
-0.5
 62
   256
  6
BYLAYER
  0
ENDSEC
  0
EOF
