  0
SECTION
  2
HEADER
  9
$ACADVER
  1
AC1015
  9
$ACADMAINTVER
 70
     6
  9
$DWGCODEPAGE
  3
ANSI_932
  9
$INSBASE
 10
0.0
 20
0.0
 30
0.0
  9
$EXTMIN
 10
0.0000000135560185
 20
-0.0000001317113174
 30
0.0
  9
$EXTMAX
 10
1595.200000013556
 20
1103.199999868289
 30
0.0
  9
$LIMMIN
 10
0.0
 20
0.0
  9
$LIMMAX
 10
1682.0
 20
1188.0
  9
$ORTHOMODE
 70
     1
  9
$REGENMODE
 70
     1
  9
$FILLMODE
 70
     1
  9
$QTEXTMODE
 70
     0
  9
$MIRRTEXT
 70
     1
  9
$LTSCALE
 40
5.657142857142857
  9
$ATTMODE
 70
     1
  9
$TEXTSIZE
 40
19.8
  9
$TRACEWID
 40
0.05
  9
$TEXTSTYLE
  7
ｽﾀｲﾙ1
  9
$CLAYER
  8
SUNPOU
  9
$CELTYPE
  6
BYLAYER
  9
$CECOLOR
 62
   256
  9
$CELTSCALE
 40
1.0
  9
$DISPSILH
 70
     0
  9
$DIMSCALE
 40
1.0
  9
$DIMASZ
 40
14.0
  9
$DIMEXO
 40
12.0
  9
$DIMDLI
 40
28.0
  9
$DIMRND
 40
0.0
  9
$DIMDLE
 40
0.0
  9
$DIMEXE
 40
6.0
  9
$DIMTP
 40
0.0
  9
$DIMTM
 40
0.0
  9
$DIMTXT
 40
12.0
  9
$DIMCEN
 40
150.0
  9
$DIMTSZ
 40
0.0
  9
$DIMTOL
 70
     0
  9
$DIMLIM
 70
     0
  9
$DIMTIH
 70
     0
  9
$DIMTOH
 70
     0
  9
$DIMSE1
 70
     0
  9
$DIMSE2
 70
     0
  9
$DIMTAD
 70
     3
  9
$DIMZIN
 70
     0
  9
$DIMBLK
  1

  9
$DIMASO
 70
     1
  9
$DIMSHO
 70
     1
  9
$DIMPOST
  1

  9
$DIMAPOST
  1

  9
$DIMALT
 70
     0
  9
$DIMALTD
 70
     2
  9
$DIMALTF
 40
0.03937
  9
$DIMLFAC
 40
1.0
  9
$DIMTOFL
 70
     1
  9
$DIMTVP
 40
0.0
  9
$DIMTIX
 70
     0
  9
$DIMSOXD
 70
     0
  9
$DIMSAH
 70
     1
  9
$DIMBLK1
  1
OPEN
  9
$DIMBLK2
  1
OPEN
  9
$DIMSTYLE
  2
STANDARD
  9
$DIMCLRD
 70
   256
  9
$DIMCLRE
 70
   256
  9
$DIMCLRT
 70
   256
  9
$DIMTFAC
 40
1.0
  9
$DIMGAP
 40
4.0
  9
$DIMJUST
 70
     0
  9
$DIMSD1
 70
     0
  9
$DIMSD2
 70
     0
  9
$DIMTOLJ
 70
     1
  9
$DIMTZIN
 70
     0
  9
$DIMALTZ
 70
     0
  9
$DIMALTTZ
 70
     0
  9
$DIMUPT
 70
     0
  9
$DIMDEC
 70
     0
  9
$DIMTDEC
 70
     0
  9
$DIMALTU
 70
     2
  9
$DIMALTTD
 70
     2
  9
$DIMTXSTY
  7
STANDARD
  9
$DIMAUNIT
 70
     0
  9
$DIMADEC
 70
     0
  9
$DIMALTRND
 40
0.0
  9
$DIMAZIN
 70
     0
  9
$DIMDSEP
 70
    46
  9
$DIMATFIT
 70
     3
  9
$DIMFRAC
 70
     0
  9
$DIMLDRBLK
  1
OPEN
  9
$DIMLUNIT
 70
     2
  9
$DIMLWD
 70
    -1
  9
$DIMLWE
 70
    -1
  9
$DIMTMOVE
 70
     0
  9
$LUNITS
 70
     2
  9
$LUPREC
 70
     4
  9
$SKETCHINC
 40
0.1
  9
$FILLETRAD
 40
20.0
  9
$AUNITS
 70
     0
  9
$AUPREC
 70
     0
  9
$MENU
  1
acad
  9
$ELEVATION
 40
0.0
  9
$PELEVATION
 40
0.0
  9
$THICKNESS
 40
0.0
  9
$LIMCHECK
 70
     0
  9
$CHAMFERA
 40
56.57142857142858
  9
$CHAMFERB
 40
56.57142857142858
  9
$CHAMFERC
 40
113.1428571428571
  9
$CHAMFERD
 40
0.0
  9
$SKPOLY
 70
     0
  9
$TDCREATE
 40
2451019.669682407
  9
$TDUCREATE
 40
2451019.294682407
  9
$TDUPDATE
 40
2454876.600961273
  9
$TDUUPDATE
 40
2454876.225961273
  9
$TDINDWG
 40
0.1665966435
  9
$TDUSRTIMER
 40
0.1665966435
  9
$USRTIMER
 70
     1
  9
$ANGBASE
 50
0.0
  9
$ANGDIR
 70
     0
  9
$PDMODE
 70
     0
  9
$PDSIZE
 40
0.0
  9
$PLINEWID
 40
0.0
  9
$SPLFRAME
 70
     0
  9
$SPLINETYPE
 70
     6
  9
$SPLINESEGS
 70
     8
  9
$HANDSEED
  5
272C
  9
$SURFTAB1
 70
     6
  9
$SURFTAB2
 70
     6
  9
$SURFTYPE
 70
     6
  9
$SURFU
 70
     6
  9
$SURFV
 70
     6
  9
$UCSBASE
  2

  9
$UCSNAME
  2

  9
$UCSORG
 10
0.0
 20
0.0
 30
0.0
  9
$UCSXDIR
 10
1.0
 20
0.0
 30
0.0
  9
$UCSYDIR
 10
0.0
 20
1.0
 30
0.0
  9
$UCSORTHOREF
  2

  9
$UCSORTHOVIEW
 70
     0
  9
$UCSORGTOP
 10
0.0
 20
0.0
 30
0.0
  9
$UCSORGBOTTOM
 10
0.0
 20
0.0
 30
0.0
  9
$UCSORGLEFT
 10
0.0
 20
0.0
 30
0.0
  9
$UCSORGRIGHT
 10
0.0
 20
0.0
 30
0.0
  9
$UCSORGFRONT
 10
0.0
 20
0.0
 30
0.0
  9
$UCSORGBACK
 10
0.0
 20
0.0
 30
0.0
  9
$PUCSBASE
  2

  9
$PUCSNAME
  2

  9
$PUCSORG
 10
0.0
 20
0.0
 30
0.0
  9
$PUCSXDIR
 10
1.0
 20
0.0
 30
0.0
  9
$PUCSYDIR
 10
0.0
 20
1.0
 30
0.0
  9
$PUCSORTHOREF
  2

  9
$PUCSORTHOVIEW
 70
     0
  9
$PUCSORGTOP
 10
0.0
 20
0.0
 30
0.0
  9
$PUCSORGBOTTOM
 10
0.0
 20
0.0
 30
0.0
  9
$PUCSORGLEFT
 10
0.0
 20
0.0
 30
0.0
  9
$PUCSORGRIGHT
 10
0.0
 20
0.0
 30
0.0
  9
$PUCSORGFRONT
 10
0.0
 20
0.0
 30
0.0
  9
$PUCSORGBACK
 10
0.0
 20
0.0
 30
0.0
  9
$USERI1
 70
     0
  9
$USERI2
 70
     0
  9
$USERI3
 70
     0
  9
$USERI4
 70
     0
  9
$USERI5
 70
     0
  9
$USERR1
 40
0.0
  9
$USERR2
 40
0.0
  9
$USERR3
 40
0.0
  9
$USERR4
 40
0.0
  9
$USERR5
 40
0.0
  9
$WORLDVIEW
 70
     1
  9
$SHADEDGE
 70
     3
  9
$SHADEDIF
 70
    70
  9
$TILEMODE
 70
     1
  9
$MAXACTVP
 70
    16
  9
$PINSBASE
 10
0.0
 20
0.0
 30
0.0
  9
$PLIMCHECK
 70
     0
  9
$PEXTMIN
 10
0.0
 20
0.0
 30
0.0
  9
$PEXTMAX
 10
420.0
 20
297.0
 30
0.0
  9
$PLIMMIN
 10
0.0
 20
0.0
  9
$PLIMMAX
 10
420.0
 20
297.0
  9
$UNITMODE
 70
     0
  9
$VISRETAIN
 70
     0
  9
$PLINEGEN
 70
     0
  9
$PSLTSCALE
 70
     1
  9
$TREEDEPTH
 70
  3020
  9
$CMLSTYLE
  2
STANDARD
  9
$CMLJUST
 70
     0
  9
$CMLSCALE
 40
20.0
  9
$PROXYGRAPHICS
 70
     1
  9
$MEASUREMENT
 70
     1
  9
$CELWEIGHT
370
    -1
  9
$ENDCAPS
280
     0
  9
$JOINSTYLE
280
     0
  9
$LWDISPLAY
290
     0
  9
$INSUNITS
 70
     0
  9
$HYPERLINKBASE
  1

  9
$STYLESHEET
  1
systemprinter.ctb
  9
$XEDIT
290
     1
  9
$CEPSNTYPE
380
     0
  9
$PSTYLEMODE
290
     1
  9
$FINGERPRINTGUID
  2
{E1832D66-A93C-11D5-932D-0050DA99388B}
  9
$VERSIONGUID
  2
{E6A8DE68-D501-448F-8F34-C2A08726C8D8}
  9
$EXTNAMES
290
     1
  9
$PSVPSCALE
 40
0.0
  9
$OLESTARTUP
290
     0
  0
ENDSEC
  0
SECTION
  2
CLASSES
  0
CLASS
  1
ACDBDICTIONARYWDFLT
  2
AcDbDictionaryWithDefault
  3
AutoCAD 2000
 90
        0
280
     0
281
     0
  0
CLASS
  1
ACDBPLACEHOLDER
  2
AcDbPlaceHolder
  3
AutoCAD 2000
 90
        0
280
     0
281
     0
  0
CLASS
  1
LAYOUT
  2
AcDbLayout
  3
AutoCAD 2000
 90
        0
280
     0
281
     0
  0
CLASS
  1
LONG_TRANSACTION
  2
AcDbLongTransaction
  3
AutoCAD 2000
 90
    32768
280
     0
281
     0
  0
CLASS
  1
LWPOLYLINE
  2
AcDbPolyline
  3
AutoCAD 2000
 90
    32768
280
     0
281
     1
  0
CLASS
  1
HATCH
  2
AcDbHatch
  3
AutoCAD 2000
 90
    32768
280
     0
281
     1
  0
CLASS
  1
XRECORD
  2
AcDbXrecord
  3
AutoCAD 2000
 90
    32768
280
     0
281
     0
  0
CLASS
  1
LONG_TRANSACTION
  2
AcDbLongTransaction
  3
AutoCAD 2000
 90
    32768
280
     0
281
     0
  0
CLASS
  1
LWPOLYLINE
  2
AcDbPolyline
  3
AutoCAD 2000
 90
    32768
280
     0
281
     1
  0
CLASS
  1
HATCH
  2
AcDbHatch
  3
AutoCAD 2000
 90
    32768
280
     0
281
     1
  0
CLASS
  1
XRECORD
  2
AcDbXrecord
  3
AutoCAD 2000
 90
    32768
280
     0
281
     0
  0
CLASS
  1
LONG_TRANSACTION
  2
AcDbLongTransaction
  3
AutoCAD 2000
 90
    32768
280
     0
281
     0
  0
CLASS
  1
LWPOLYLINE
  2
AcDbPolyline
  3
AutoCAD 2000
 90
    32768
280
     0
281
     1
  0
CLASS
  1
HATCH
  2
AcDbHatch
  3
AutoCAD 2000
 90
    32768
280
     0
281
     1
  0
CLASS
  1
XRECORD
  2
AcDbXrecord
  3
AutoCAD 2000
 90
    32768
280
     0
281
     0
  0
CLASS
  1
LONG_TRANSACTION
  2
AcDbLongTransaction
  3
AutoCAD 2000
 90
    32768
280
     0
281
     0
  0
CLASS
  1
LWPOLYLINE
  2
AcDbPolyline
  3
AutoCAD 2000
 90
    32768
280
     0
281
     1
  0
CLASS
  1
HATCH
  2
AcDbHatch
  3
AutoCAD 2000
 90
    32768
280
     0
281
     1
  0
CLASS
  1
XRECORD
  2
AcDbXrecord
  3
AutoCAD 2000
 90
    32768
280
     0
281
     0
  0
CLASS
  1
LONG_TRANSACTION
  2
AcDbLongTransaction
  3
AutoCAD 2000
 90
    32768
280
     0
281
     0
  0
CLASS
  1
LWPOLYLINE
  2
AcDbPolyline
  3
AutoCAD 2000
 90
    32768
280
     0
281
     1
  0
CLASS
  1
HATCH
  2
AcDbHatch
  3
AutoCAD 2000
 90
    32768
280
     0
281
     1
  0
CLASS
  1
XRECORD
  2
AcDbXrecord
  3
AutoCAD 2000
 90
    32768
280
     0
281
     0
  0
ENDSEC
  0
SECTION
  2
TABLES
  0
TABLE
  2
VPORT
  5
8
330
0
100
AcDbSymbolTable
 70
     2
  0
VPORT
  5
272B
330
8
100
AcDbSymbolTableRecord
100
AcDbViewportTableRecord
  2
*Active
 70
     0
 10
0.0
 20
0.0
 11
1.0
 21
1.0
 12
840.9358465831628
 22
593.9546883120081
 13
0.0
 23
0.0
 14
10.0
 24
10.0
 15
10.0
 25
10.0
 16
0.0
 26
0.0
 36
1.0
 17
0.0
 27
0.0
 37
0.0
 40
1197.608038249489
 41
1.553475935828877
 42
50.0
 43
0.0
 44
0.0
 50
0.0
 51
0.0
 71
     0
 72
   100
 73
     1
 74
     0
 75
     0
 76
     0
 77
     0
 78
     0
281
     0
 65
     1
110
0.0
120
0.0
130
0.0
111
1.0
121
0.0
131
0.0
112
0.0
122
1.0
132
0.0
 79
     0
146
0.0
  0
ENDTAB
  0
TABLE
  2
LTYPE
  5
5
330
0
100
AcDbSymbolTable
 70
     3
  0
LTYPE
  5
13
330
5
100
AcDbSymbolTableRecord
100
AcDbLinetypeTableRecord
  2
BYBLOCK
 70
     0
  3

 72
    65
 73
     0
 40
0.0
  0
LTYPE
  5
14
330
5
100
AcDbSymbolTableRecord
100
AcDbLinetypeTableRecord
  2
BYLAYER
 70
     0
  3

 72
    65
 73
     0
 40
0.0
  0
LTYPE
  5
15
330
5
100
AcDbSymbolTableRecord
100
AcDbLinetypeTableRecord
  2
CONTINUOUS
 70
     0
  3
Solid line
 72
    65
 73
     0
 40
0.0
  0
LTYPE
  5
11C
330
5
100
AcDbSymbolTableRecord
100
AcDbLinetypeTableRecord
  2
CENTER
 70
     0
  3
____ _ ____ _ ____ _ ____ _ ____ _ ____ _ ____ 
 72
    65
 73
     4
 40
2.0
 49
1.25
 74
     0
 49
-0.25
 74
     0
 49
0.25
 74
     0
 49
-0.25
 74
     0
  0
LTYPE
  5
11E
330
5
100
AcDbSymbolTableRecord
100
AcDbLinetypeTableRecord
  2
PHANTOM
 70
     0
  3
______  __  __  ______  __  __  ______  __  __ 
 72
    65
 73
     6
 40
2.5
 49
1.25
 74
     0
 49
-0.25
 74
     0
 49
0.25
 74
     0
 49
-0.25
 74
     0
 49
0.25
 74
     0
 49
-0.25
 74
     0
  0
ENDTAB
  0
TABLE
  2
LAYER
  5
2
330
0
100
AcDbSymbolTable
 70
     9
  0
LAYER
  5
F
330
2
100
AcDbSymbolTableRecord
100
AcDbLayerTableRecord
  2
0
 70
     0
 62
     7
  6
CONTINUOUS
370
    -3
390
11D9
  0
LAYER
  5
23
330
2
100
AcDbSymbolTableRecord
100
AcDbLayerTableRecord
  2
VIEWPORT
 70
     0
 62
     7
  6
CONTINUOUS
370
    -3
390
11D9
  0
LAYER
  5
2D
330
2
100
AcDbSymbolTableRecord
100
AcDbLayerTableRecord
  2
ZUWAKU
 70
     0
 62
     7
  6
CONTINUOUS
370
    -3
390
11D9
  0
LAYER
  5
A6
330
2
100
AcDbSymbolTableRecord
100
AcDbLayerTableRecord
  2
DEFPOINTS
 70
     0
 62
     7
  6
CONTINUOUS
290
     0
370
    -3
390
11D9
  0
LAYER
  5
1F5
330
2
100
AcDbSymbolTableRecord
100
AcDbLayerTableRecord
  2
SEIHIN
 70
     0
 62
     3
  6
CONTINUOUS
370
    -3
390
11D9
  0
LAYER
  5
5FF
330
2
100
AcDbSymbolTableRecord
100
AcDbLayerTableRecord
  2
CENTER L
 70
     0
 62
     1
  6
CENTER
370
    -3
390
11D9
  0
LAYER
  5
600
330
2
100
AcDbSymbolTableRecord
100
AcDbLayerTableRecord
  2
SUNPOU
 70
     0
 62
     4
  6
CONTINUOUS
370
    -3
390
11D9
  0
LAYER
  5
CDA
330
2
100
AcDbSymbolTableRecord
100
AcDbLayerTableRecord
  2
NOKITOI
 70
     0
 62
     8
  6
PHANTOM
370
    -3
390
11D9
  0
LAYER
  5
14B3
330
2
100
AcDbSymbolTableRecord
100
AcDbLayerTableRecord
  2
moji
 70
     0
 62
     2
  6
CONTINUOUS
370
    -3
390
11D9
  0
ENDTAB
  0
TABLE
  2
STYLE
  5
3
330
0
100
AcDbSymbolTable
 70
     2
  0
STYLE
  5
10
330
3
100
AcDbSymbolTableRecord
100
AcDbTextStyleTableRecord
  2
STANDARD
 70
     0
 40
0.0
 41
1.0
 50
0.0
 71
     0
 42
19.8
  3
txt
  4
c:\PROGRAM FILES\AUTOCAD LT\ms\bigfont.shx
  0
STYLE
  5
14A8
330
3
100
AcDbSymbolTableRecord
100
AcDbTextStyleTableRecord
  2
ｽﾀｲﾙ1
 70
     0
 40
0.0
 41
1.0
 50
0.0
 71
     0
 42
19.8
  3
MS Gothic.ttf
  4

1001
ACAD
1000
MS Gothic
1071
    32817
  0
ENDTAB
  0
TABLE
  2
VIEW
  5
6
330
0
100
AcDbSymbolTable
 70
     0
  0
ENDTAB
  0
TABLE
  2
UCS
  5
7
330
0
100
AcDbSymbolTable
 70
     0
  0
ENDTAB
  0
TABLE
  2
APPID
  5
9
330
0
100
AcDbSymbolTable
 70
     1
  0
APPID
  5
11
330
9
100
AcDbSymbolTableRecord
100
AcDbRegAppTableRecord
  2
ACAD
 70
     0
  0
ENDTAB
  0
TABLE
  2
DIMSTYLE
  5
A
330
0
100
AcDbSymbolTable
 70
     1
100
AcDbDimStyleTable
 71
     0
  0
DIMSTYLE
105
1D
102
{ACAD_REACTORS
330
226B
330
226C
330
226D
330
2273
330
2274
330
2279
330
227A
330
22A9
330
22BE
330
22DA
330
22F6
102
}
330
A
100
AcDbSymbolTableRecord
100
AcDbDimStyleTableRecord
  2
STANDARD
 70
     0
340
10
  0
ENDTAB
  0
TABLE
  2
BLOCK_RECORD
  5
1
330
0
100
AcDbSymbolTable
 70
    13
  0
BLOCK_RECORD
  5
19
102
{ACAD_XDICTIONARY
360
13D5
102
}
330
1
100
AcDbSymbolTableRecord
100
AcDbBlockTableRecord
  2
*MODEL_SPACE
340
11DC
  0
BLOCK_RECORD
  5
16
102
{ACAD_XDICTIONARY
360
13D3
102
}
330
1
100
AcDbSymbolTableRecord
100
AcDbBlockTableRecord
  2
*PAPER_SPACE
340
11DD
  0
BLOCK_RECORD
  5
27
330
1
100
AcDbSymbolTableRecord
100
AcDbBlockTableRecord
  2
_OPEN
340
0
102
{BLKREFS
331
24D0
331
24D1
331
24AC
331
24AD
331
24A3
331
24A4
331
2472
331
2473
331
24BE
331
24BF
331
24DB
331
24DC
331
247B
331
247C
331
24EF
331
24F0
331
24C7
331
24C8
331
249A
331
249B
331
24E6
331
24E7
102
}
  0
BLOCK_RECORD
  5
2310
330
1
100
AcDbSymbolTableRecord
100
AcDbBlockTableRecord
  2
*D1
340
0
  0
BLOCK_RECORD
  5
231C
330
1
100
AcDbSymbolTableRecord
100
AcDbBlockTableRecord
  2
*D2
340
0
  0
BLOCK_RECORD
  5
2328
330
1
100
AcDbSymbolTableRecord
100
AcDbBlockTableRecord
  2
*D3
340
0
  0
BLOCK_RECORD
  5
2334
330
1
100
AcDbSymbolTableRecord
100
AcDbBlockTableRecord
  2
*D4
340
0
  0
BLOCK_RECORD
  5
2340
330
1
100
AcDbSymbolTableRecord
100
AcDbBlockTableRecord
  2
*D5
340
0
  0
BLOCK_RECORD
  5
234C
330
1
100
AcDbSymbolTableRecord
100
AcDbBlockTableRecord
  2
*D6
340
0
  0
BLOCK_RECORD
  5
235A
330
1
100
AcDbSymbolTableRecord
100
AcDbBlockTableRecord
  2
*D7
340
0
  0
BLOCK_RECORD
  5
2366
330
1
100
AcDbSymbolTableRecord
100
AcDbBlockTableRecord
  2
*D8
340
0
  0
BLOCK_RECORD
  5
2372
330
1
100
AcDbSymbolTableRecord
100
AcDbBlockTableRecord
  2
*D9
340
0
  0
BLOCK_RECORD
  5
237E
330
1
100
AcDbSymbolTableRecord
100
AcDbBlockTableRecord
  2
*D10
340
0
  0
BLOCK_RECORD
  5
238A
330
1
100
AcDbSymbolTableRecord
100
AcDbBlockTableRecord
  2
*D11
340
0
  0
BLOCK_RECORD
  5
2540
330
1
100
AcDbSymbolTableRecord
100
AcDbBlockTableRecord
  2
*X12
340
0
102
{BLKREFS
331
15D7
102
}
  0
ENDTAB
  0
ENDSEC
  0
SECTION
  2
BLOCKS
  0
BLOCK
  5
1A
330
19
100
AcDbEntity
  8
0
100
AcDbBlockBegin
  2
*MODEL_SPACE
 70
     0
 10
0.0
 20
0.0
 30
0.0
  3
*MODEL_SPACE
  1

  0
ENDBLK
  5
1B
330
19
100
AcDbEntity
  8
0
100
AcDbBlockEnd
  0
BLOCK
  5
17
330
16
100
AcDbEntity
 67
     1
  8
0
100
AcDbBlockBegin
  2
*PAPER_SPACE
 70
     0
 10
0.0
 20
0.0
 30
0.0
  3
*PAPER_SPACE
  1

  0
ENDBLK
  5
18
330
16
100
AcDbEntity
 67
     1
  8
0
100
AcDbBlockEnd
  0
BLOCK
  5
28
330
27
100
AcDbEntity
  8
0
100
AcDbBlockBegin
  2
_OPEN
 70
     0
 10
0.0
 20
0.0
 30
0.0
  3
_OPEN
  1

  0
LINE
  5
29
330
27
100
AcDbEntity
  8
0
  6
ByBlock
 62
     0
100
AcDbLine
 10
-1.0
 20
0.1666666666666666
 30
0.0
 11
0.0
 21
0.0
 31
0.0
  0
LINE
  5
2A
330
27
100
AcDbEntity
  8
0
  6
ByBlock
 62
     0
100
AcDbLine
 10
0.0
 20
0.0
 30
0.0
 11
-1.0
 21
-0.1666666666666666
 31
0.0
  0
LINE
  5
2B
330
27
100
AcDbEntity
  8
0
  6
ByBlock
 62
     0
100
AcDbLine
 10
0.0
 20
0.0
 30
0.0
 11
-1.0
 21
0.0
 31
0.0
  0
ENDBLK
  5
2C
330
27
100
AcDbEntity
  8
0
100
AcDbBlockEnd
  0
BLOCK
  5
231A
330
2310
100
AcDbEntity
  8
0
100
AcDbBlockBegin
  2
*D1
 70
     1
 10
0.0
 20
0.0
 30
0.0
  3
*D1
  1

  0
LINE
  5
24CD
330
2310
100
AcDbEntity
  8
SUNPOU
  6
Continuous
 62
     4
370
    -2
100
AcDbLine
 10
946.6088257733506
 20
436.4353106991826
 30
0.0
 11
946.6088257733506
 21
500.5532225521705
 31
0.0
  0
LINE
  5
24CE
330
2310
100
AcDbEntity
  8
SUNPOU
  6
Continuous
 62
     4
370
    -2
100
AcDbLine
 10
741.208725773351
 20
466.4353106991826
 30
0.0
 11
741.208725773351
 21
500.5532225521705
 31
0.0
  0
LINE
  5
24CF
330
2310
100
AcDbEntity
  8
SUNPOU
  6
Continuous
 62
     4
370
    -2
100
AcDbLine
 10
932.6088257733506
 20
494.5532225521706
 30
0.0
 11
755.208725773351
 21
494.5532225521706
 31
0.0
  0
INSERT
  5
24D0
330
2310
100
AcDbEntity
  8
SUNPOU
  6
Continuous
 62
     4
370
    -2
100
AcDbBlockReference
  2
_OPEN
 10
946.6088257733506
 20
494.5532225521706
 30
0.0
 41
14.0
 42
14.0
 43
14.0
  0
INSERT
  5
24D1
330
2310
100
AcDbEntity
  8
SUNPOU
  6
Continuous
 62
     4
370
    -2
100
AcDbBlockReference
  2
_OPEN
 10
741.208725773351
 20
494.5532225521706
 30
0.0
 41
14.0
 42
14.0
 43
14.0
 50
180.0
  0
MTEXT
  5
24D2
330
2310
100
AcDbEntity
  8
SUNPOU
  6
Continuous
 62
     4
100
AcDbMText
 10
843.9087757733508
 20
504.5532225521705
 30
0.0
 40
12.0
 41
0.0
 71
     5
 72
     5
  1
\A1;205
 73
     1
 44
1.0
1001
ACAD
1000
MTEXTBEGIN
1070
    73
1070
     1
1070
    44
1040
1.0
1070
    74
1070
     0
1000
MTEXTEND
1000
MTEXTBEGIN
1070
    73
1070
     1
1070
    44
1040
1.0
1070
    74
1070
     0
1000
MTEXTEND
  0
POINT
  5
24D3
330
2310
100
AcDbEntity
  8
DEFPOINTS
  6
Continuous
 62
     0
100
AcDbPoint
 10
946.6088257733506
 20
424.4353106991826
 30
0.0
  0
POINT
  5
24D4
330
2310
100
AcDbEntity
  8
DEFPOINTS
  6
Continuous
 62
     0
100
AcDbPoint
 10
741.208725773351
 20
454.4353106991827
 30
0.0
  0
POINT
  5
24D5
330
2310
100
AcDbEntity
  8
DEFPOINTS
  6
Continuous
 62
     0
100
AcDbPoint
 10
741.208725773351
 20
494.5532225521706
 30
0.0
  0
ENDBLK
  5
231B
330
2310
100
AcDbEntity
  8
0
100
AcDbBlockEnd
  0
BLOCK
  5
2326
330
231C
100
AcDbEntity
  8
0
100
AcDbBlockBegin
  2
*D2
 70
     1
 10
0.0
 20
0.0
 30
0.0
  3
*D2
  1

  0
LINE
  5
24A9
330
231C
100
AcDbEntity
  8
SUNPOU
  6
Continuous
 62
     4
370
    -2
100
AcDbLine
 10
946.6088257733506
 20
436.4353106991826
 30
0.0
 11
946.6088257733506
 21
526.8393992002643
 31
0.0
  0
LINE
  5
24AA
330
231C
100
AcDbEntity
  8
SUNPOU
  6
Continuous
 62
     4
370
    -2
100
AcDbLine
 10
677.7084257733508
 20
470.7337106991826
 30
0.0
 11
677.7084257733508
 21
526.8393992002643
 31
0.0
  0
LINE
  5
24AB
330
231C
100
AcDbEntity
  8
SUNPOU
  6
Continuous
 62
     4
370
    -2
100
AcDbLine
 10
932.6088257733506
 20
520.8393992002643
 30
0.0
 11
691.7084257733509
 21
520.8393992002643
 31
0.0
  0
INSERT
  5
24AC
330
231C
100
AcDbEntity
  8
SUNPOU
  6
Continuous
 62
     4
370
    -2
100
AcDbBlockReference
  2
_OPEN
 10
946.6088257733506
 20
520.8393992002643
 30
0.0
 41
14.0
 42
14.0
 43
14.0
  0
INSERT
  5
24AD
330
231C
100
AcDbEntity
  8
SUNPOU
  6
Continuous
 62
     4
370
    -2
100
AcDbBlockReference
  2
_OPEN
 10
677.7084257733508
 20
520.8393992002643
 30
0.0
 41
14.0
 42
14.0
 43
14.0
 50
180.0
  0
MTEXT
  5
24AE
330
231C
100
AcDbEntity
  8
SUNPOU
  6
Continuous
 62
     4
100
AcDbMText
 10
812.1586257733508
 20
530.8393992002643
 30
0.0
 40
12.0
 41
0.0
 71
     5
 72
     5
  1
\A1;269
 73
     1
 44
1.0
1001
ACAD
1000
MTEXTBEGIN
1070
    73
1070
     1
1070
    44
1040
1.0
1070
    74
1070
     0
1000
MTEXTEND
1000
MTEXTBEGIN
1070
    73
1070
     1
1070
    44
1040
1.0
1070
    74
1070
     0
1000
MTEXTEND
  0
POINT
  5
24AF
330
231C
100
AcDbEntity
  8
DEFPOINTS
  6
Continuous
 62
     0
100
AcDbPoint
 10
946.6088257733506
 20
424.4353106991826
 30
0.0
  0
POINT
  5
24B0
330
231C
100
AcDbEntity
  8
DEFPOINTS
  6
Continuous
 62
     0
100
AcDbPoint
 10
677.7084257733508
 20
458.7337106991826
 30
0.0
  0
POINT
  5
24B1
330
231C
100
AcDbEntity
  8
DEFPOINTS
  6
Continuous
 62
     0
100
AcDbPoint
 10
677.7084257733508
 20
520.8393992002643
 30
0.0
  0
ENDBLK
  5
2327
330
231C
100
AcDbEntity
  8
0
100
AcDbBlockEnd
  0
BLOCK
  5
2332
330
2328
100
AcDbEntity
  8
0
100
AcDbBlockBegin
  2
*D3
 70
     1
 10
0.0
 20
0.0
 30
0.0
  3
*D3
  1

  0
LINE
  5
24A0
330
2328
100
AcDbEntity
  8
SUNPOU
  6
Continuous
 62
     4
370
    -2
100
AcDbLine
 10
922.482626984374
 20
288.9352806991827
 30
0.0
 11
922.482626984374
 21
244.782845401985
 31
0.0
  0
LINE
  5
24A1
330
2328
100
AcDbEntity
  8
SUNPOU
  6
Continuous
 62
     4
370
    -2
100
AcDbLine
 10
768.9343245842126
 20
288.9352806991827
 30
0.0
 11
768.9343245842126
 21
244.782845401985
 31
0.0
  0
LINE
  5
24A2
330
2328
100
AcDbEntity
  8
SUNPOU
  6
Continuous
 62
     4
370
    -2
100
AcDbLine
 10
908.4826269843741
 20
250.782845401985
 30
0.0
 11
782.9343245842125
 21
250.782845401985
 31
0.0
  0
INSERT
  5
24A3
330
2328
100
AcDbEntity
  8
SUNPOU
  6
Continuous
 62
     4
370
    -2
100
AcDbBlockReference
  2
_OPEN
 10
922.482626984374
 20
250.782845401985
 30
0.0
 41
14.0
 42
14.0
 43
14.0
  0
INSERT
  5
24A4
330
2328
100
AcDbEntity
  8
SUNPOU
  6
Continuous
 62
     4
370
    -2
100
AcDbBlockReference
  2
_OPEN
 10
768.9343245842126
 20
250.782845401985
 30
0.0
 41
14.0
 42
14.0
 43
14.0
 50
180.0
  0
MTEXT
  5
24A5
330
2328
100
AcDbEntity
  8
SUNPOU
  6
Continuous
 62
     4
100
AcDbMText
 10
845.7084757842933
 20
260.782845401985
 30
0.0
 40
12.0
 41
0.0
 71
     5
 72
     5
  1
\A1;154
 73
     1
 44
1.0
1001
ACAD
1000
MTEXTBEGIN
1070
    73
1070
     1
1070
    44
1040
1.0
1070
    74
1070
     0
1000
MTEXTEND
1000
MTEXTBEGIN
1070
    73
1070
     1
1070
    44
1040
1.0
1070
    74
1070
     0
1000
MTEXTEND
  0
POINT
  5
24A6
330
2328
100
AcDbEntity
  8
DEFPOINTS
  6
Continuous
 62
     0
100
AcDbPoint
 10
922.482626984374
 20
300.9352806991827
 30
0.0
  0
POINT
  5
24A7
330
2328
100
AcDbEntity
  8
DEFPOINTS
  6
Continuous
 62
     0
100
AcDbPoint
 10
768.9343245842126
 20
300.9352806991827
 30
0.0
  0
POINT
  5
24A8
330
2328
100
AcDbEntity
  8
DEFPOINTS
  6
Continuous
 62
     0
100
AcDbPoint
 10
768.9343245842126
 20
250.782845401985
 30
0.0
  0
ENDBLK
  5
2333
330
2328
100
AcDbEntity
  8
0
100
AcDbBlockEnd
  0
BLOCK
  5
233E
330
2334
100
AcDbEntity
  8
0
100
AcDbBlockBegin
  2
*D4
 70
     1
 10
0.0
 20
0.0
 30
0.0
  3
*D4
  1

  0
LINE
  5
246F
330
2334
100
AcDbEntity
  8
SUNPOU
  6
Continuous
 62
     4
370
    -2
100
AcDbLine
 10
665.7083257733509
 20
908.8130106991828
 30
0.0
 11
584.6887708177974
 21
908.8130106991828
 31
0.0
  0
LINE
  5
2470
330
2334
100
AcDbEntity
  8
SUNPOU
  6
Continuous
 62
     4
370
    -2
100
AcDbLine
 10
729.208725773351
 20
639.9129106991827
 30
0.0
 11
584.6887708177973
 21
639.9129106991827
 31
0.0
  0
LINE
  5
2471
330
2334
100
AcDbEntity
  8
SUNPOU
  6
Continuous
 62
     4
370
    -2
100
AcDbLine
 10
590.6887708177975
 20
894.8130106991827
 30
0.0
 11
590.6887708177974
 21
653.9129106991826
 31
0.0
  0
INSERT
  5
2472
330
2334
100
AcDbEntity
  8
SUNPOU
  6
Continuous
 62
     4
370
    -2
100
AcDbBlockReference
  2
_OPEN
 10
590.6887708177975
 20
908.8130106991828
 30
0.0
 41
14.0
 42
14.0
 43
14.0
 50
90.0
  0
INSERT
  5
2473
330
2334
100
AcDbEntity
  8
SUNPOU
  6
Continuous
 62
     4
370
    -2
100
AcDbBlockReference
  2
_OPEN
 10
590.6887708177974
 20
639.9129106991827
 30
0.0
 41
14.0
 42
14.0
 43
14.0
 50
270.0
  0
MTEXT
  5
2474
330
2334
100
AcDbEntity
  8
SUNPOU
  6
Continuous
 62
     4
100
AcDbMText
 10
580.6887708177972
 20
774.3629606991828
 30
0.0
 40
12.0
 41
0.0
 71
     5
 72
     5
  1
\A1;269
 11
0.0000000000000001
 21
1.0
 31
0.0
 73
     1
 44
1.0
1001
ACAD
1000
MTEXTBEGIN
1070
    73
1070
     1
1070
    44
1040
1.0
1070
    74
1070
     0
1000
MTEXTEND
1000
MTEXTBEGIN
1070
    73
1070
     1
1070
    44
1040
1.0
1070
    74
1070
     0
1000
MTEXTEND
  0
POINT
  5
2475
330
2334
100
AcDbEntity
  8
DEFPOINTS
  6
Continuous
 62
     0
100
AcDbPoint
 10
677.7083257733509
 20
908.8130106991828
 30
0.0
  0
POINT
  5
2476
330
2334
100
AcDbEntity
  8
DEFPOINTS
  6
Continuous
 62
     0
100
AcDbPoint
 10
741.208725773351
 20
639.9129106991827
 30
0.0
  0
POINT
  5
2477
330
2334
100
AcDbEntity
  8
DEFPOINTS
  6
Continuous
 62
     0
100
AcDbPoint
 10
590.6887708177974
 20
639.9129106991827
 30
0.0
  0
ENDBLK
  5
233F
330
2334
100
AcDbEntity
  8
0
100
AcDbBlockEnd
  0
BLOCK
  5
234A
330
2340
100
AcDbEntity
  8
0
100
AcDbBlockBegin
  2
*D5
 70
     1
 10
0.0
 20
0.0
 30
0.0
  3
*D5
  1

  0
LINE
  5
24BB
330
2340
100
AcDbEntity
  8
SUNPOU
  6
Continuous
 62
     4
370
    -2
100
AcDbLine
 10
733.208725773351
 20
687.4129106991826
 30
0.0
 11
699.7752703297209
 21
687.4129106991826
 31
0.0
  0
LINE
  5
24BC
330
2340
100
AcDbEntity
  8
SUNPOU
  6
Continuous
 62
     4
370
    -2
100
AcDbLine
 10
729.208725773351
 20
639.9129106991827
 30
0.0
 11
699.7752703297209
 21
639.9129106991827
 31
0.0
  0
LINE
  5
24BD
330
2340
100
AcDbEntity
  8
SUNPOU
  6
Continuous
 62
     4
370
    -2
100
AcDbLine
 10
705.775270329721
 20
673.4129106991827
 30
0.0
 11
705.775270329721
 21
653.9129106991826
 31
0.0
  0
INSERT
  5
24BE
330
2340
100
AcDbEntity
  8
SUNPOU
  6
Continuous
 62
     4
370
    -2
100
AcDbBlockReference
  2
_OPEN
 10
705.775270329721
 20
687.4129106991826
 30
0.0
 41
14.0
 42
14.0
 43
14.0
 50
90.0
  0
INSERT
  5
24BF
330
2340
100
AcDbEntity
  8
SUNPOU
  6
Continuous
 62
     4
370
    -2
100
AcDbBlockReference
  2
_OPEN
 10
705.775270329721
 20
639.9129106991827
 30
0.0
 41
14.0
 42
14.0
 43
14.0
 50
270.0
  0
MTEXT
  5
24C0
330
2340
100
AcDbEntity
  8
SUNPOU
  6
Continuous
 62
     4
100
AcDbMText
 10
695.7752703297209
 20
663.6629106991827
 30
0.0
 40
12.0
 41
0.0
 71
     5
 72
     5
  1
\A1;48
 11
0.0000000000000001
 21
1.0
 31
0.0
 73
     1
 44
1.0
1001
ACAD
1000
MTEXTBEGIN
1070
    73
1070
     1
1070
    44
1040
1.0
1070
    74
1070
     0
1000
MTEXTEND
1000
MTEXTBEGIN
1070
    73
1070
     1
1070
    44
1040
1.0
1070
    74
1070
     0
1000
MTEXTEND
  0
POINT
  5
24C1
330
2340
100
AcDbEntity
  8
DEFPOINTS
  6
Continuous
 62
     0
100
AcDbPoint
 10
745.208725773351
 20
687.4129106991826
 30
0.0
  0
POINT
  5
24C2
330
2340
100
AcDbEntity
  8
DEFPOINTS
  6
Continuous
 62
     0
100
AcDbPoint
 10
741.208725773351
 20
639.9129106991827
 30
0.0
  0
POINT
  5
24C3
330
2340
100
AcDbEntity
  8
DEFPOINTS
  6
Continuous
 62
     0
100
AcDbPoint
 10
705.775270329721
 20
639.9129106991827
 30
0.0
  0
ENDBLK
  5
234B
330
2340
100
AcDbEntity
  8
0
100
AcDbBlockEnd
  0
BLOCK
  5
2358
330
234C
100
AcDbEntity
  8
0
100
AcDbBlockBegin
  2
*D6
 70
     1
 10
0.0
 20
0.0
 30
0.0
  3
*D6
  1

  0
LINE
  5
24D6
330
234C
100
AcDbEntity
  8
SUNPOU
  6
Continuous
 62
     4
370
    -2
100
AcDbLine
 10
665.7084257733508
 20
455.4353106991827
 30
0.0
 11
627.57733011866
 21
455.4353106991828
 31
0.0
  0
LINE
  5
24D7
330
234C
100
AcDbEntity
  8
SUNPOU
  6
Continuous
 62
     4
370
    -2
100
AcDbLine
 10
665.7084257733508
 20
430.9353106991827
 30
0.0
 11
627.57733011866
 21
430.9353106991828
 31
0.0
  0
LINE
  5
24D8
330
234C
100
AcDbEntity
  8
SUNPOU
  6
Continuous
 62
     4
370
    -2
100
AcDbLine
 10
633.57733011866
 20
469.4353106991828
 30
0.0
 11
633.57733011866
 21
483.4353106991827
 31
0.0
  0
LINE
  5
24D9
330
234C
100
AcDbEntity
  8
SUNPOU
  6
Continuous
 62
     4
370
    -2
100
AcDbLine
 10
633.57733011866
 20
416.9353106991827
 30
0.0
 11
633.57733011866
 21
374.9353106991828
 31
0.0
  0
LINE
  5
24DA
330
234C
100
AcDbEntity
  8
SUNPOU
  6
Continuous
 62
     4
370
    -2
100
AcDbLine
 10
633.57733011866
 20
455.4353106991828
 30
0.0
 11
633.57733011866
 21
430.9353106991828
 31
0.0
  0
INSERT
  5
24DB
330
234C
100
AcDbEntity
  8
SUNPOU
  6
Continuous
 62
     4
370
    -2
100
AcDbBlockReference
  2
_OPEN
 10
633.57733011866
 20
455.4353106991828
 30
0.0
 41
14.0
 42
14.0
 43
14.0
 50
270.0
  0
INSERT
  5
24DC
330
234C
100
AcDbEntity
  8
SUNPOU
  6
Continuous
 62
     4
370
    -2
100
AcDbBlockReference
  2
_OPEN
 10
633.57733011866
 20
430.9353106991828
 30
0.0
 41
14.0
 42
14.0
 43
14.0
 50
90.0
  0
MTEXT
  5
24DD
330
234C
100
AcDbEntity
  8
SUNPOU
  6
Continuous
 62
     4
100
AcDbMText
 10
623.5773301186599
 20
388.9353106991828
 30
0.0
 40
12.0
 41
0.0
 71
     5
 72
     5
  1
\A1;25
 11
0.0000000000000001
 21
1.0
 31
0.0
 73
     1
 44
1.0
1001
ACAD
1000
MTEXTBEGIN
1070
    73
1070
     1
1070
    44
1040
1.0
1070
    74
1070
     0
1000
MTEXTEND
1000
MTEXTBEGIN
1070
    73
1070
     1
1070
    44
1040
1.0
1070
    74
1070
     0
1000
MTEXTEND
  0
POINT
  5
24DE
330
234C
100
AcDbEntity
  8
DEFPOINTS
  6
Continuous
 62
     0
100
AcDbPoint
 10
677.7084257733508
 20
455.4353106991827
 30
0.0
  0
POINT
  5
24DF
330
234C
100
AcDbEntity
  8
DEFPOINTS
  6
Continuous
 62
     0
100
AcDbPoint
 10
677.7084257733508
 20
430.9353106991827
 30
0.0
  0
POINT
  5
24E0
330
234C
100
AcDbEntity
  8
DEFPOINTS
  6
Continuous
 62
     0
100
AcDbPoint
 10
633.57733011866
 20
430.9353106991828
 30
0.0
  0
ENDBLK
  5
2359
330
234C
100
AcDbEntity
  8
0
100
AcDbBlockEnd
  0
BLOCK
  5
2364
330
235A
100
AcDbEntity
  8
0
100
AcDbBlockBegin
  2
*D7
 70
     1
 10
0.0
 20
0.0
 30
0.0
  3
*D7
  1

  0
LINE
  5
2478
330
235A
100
AcDbEntity
  8
SUNPOU
  6
Continuous
 62
     4
370
    -2
100
AcDbLine
 10
665.7084257733508
 20
455.4353106991827
 30
0.0
 11
596.5076441282872
 21
455.4353106991828
 31
0.0
  0
LINE
  5
2479
330
235A
100
AcDbEntity
  8
SUNPOU
  6
Continuous
 62
     4
370
    -2
100
AcDbLine
 10
670.7084257733509
 20
300.9352806991827
 30
0.0
 11
596.5076441282872
 21
300.9352806991827
 31
0.0
  0
LINE
  5
247A
330
235A
100
AcDbEntity
  8
SUNPOU
  6
Continuous
 62
     4
370
    -2
100
AcDbLine
 10
602.5076441282871
 20
441.4353106991828
 30
0.0
 11
602.5076441282871
 21
314.9352806991827
 31
0.0
  0
INSERT
  5
247B
330
235A
100
AcDbEntity
  8
SUNPOU
  6
Continuous
 62
     4
370
    -2
100
AcDbBlockReference
  2
_OPEN
 10
602.5076441282871
 20
455.4353106991828
 30
0.0
 41
14.0
 42
14.0
 43
14.0
 50
90.0
  0
INSERT
  5
247C
330
235A
100
AcDbEntity
  8
SUNPOU
  6
Continuous
 62
     4
370
    -2
100
AcDbBlockReference
  2
_OPEN
 10
602.5076441282871
 20
300.9352806991827
 30
0.0
 41
14.0
 42
14.0
 43
14.0
 50
270.0
  0
MTEXT
  5
247D
330
235A
100
AcDbEntity
  8
SUNPOU
  6
Continuous
 62
     4
100
AcDbMText
 10
592.5076441282871
 20
378.1852956991828
 30
0.0
 40
12.0
 41
0.0
 71
     5
 72
     5
  1
\A1;155
 11
0.0000000000000001
 21
1.0
 31
0.0
 73
     1
 44
1.0
1001
ACAD
1000
MTEXTBEGIN
1070
    73
1070
     1
1070
    44
1040
1.0
1070
    74
1070
     0
1000
MTEXTEND
1000
MTEXTBEGIN
1070
    73
1070
     1
1070
    44
1040
1.0
1070
    74
1070
     0
1000
MTEXTEND
  0
POINT
  5
247E
330
235A
100
AcDbEntity
  8
DEFPOINTS
  6
Continuous
 62
     0
100
AcDbPoint
 10
677.7084257733508
 20
455.4353106991827
 30
0.0
  0
POINT
  5
247F
330
235A
100
AcDbEntity
  8
DEFPOINTS
  6
Continuous
 62
     0
100
AcDbPoint
 10
682.7084257733509
 20
300.9352806991827
 30
0.0
  0
POINT
  5
2480
330
235A
100
AcDbEntity
  8
DEFPOINTS
  6
Continuous
 62
     0
100
AcDbPoint
 10
602.5076441282871
 20
300.9352806991827
 30
0.0
  0
ENDBLK
  5
2365
330
235A
100
AcDbEntity
  8
0
100
AcDbBlockEnd
  0
BLOCK
  5
2370
330
2366
100
AcDbEntity
  8
0
100
AcDbBlockBegin
  2
*D8
 70
     1
 10
0.0
 20
0.0
 30
0.0
  3
*D8
  1

  0
LINE
  5
24EC
330
2366
100
AcDbEntity
  8
SUNPOU
  6
Continuous
 62
     4
370
    -2
100
AcDbLine
 10
665.7083257733509
 20
908.8130106991828
 30
0.0
 11
613.5634121027407
 21
908.8130106991828
 31
0.0
  0
LINE
  5
24ED
330
2366
100
AcDbEntity
  8
SUNPOU
  6
Continuous
 62
     4
370
    -2
100
AcDbLine
 10
665.7083257733509
 20
703.4131106991826
 30
0.0
 11
613.5634121027406
 21
703.4131106991826
 31
0.0
  0
LINE
  5
24EE
330
2366
100
AcDbEntity
  8
SUNPOU
  6
Continuous
 62
     4
370
    -2
100
AcDbLine
 10
619.5634121027406
 20
894.8130106991827
 30
0.0
 11
619.5634121027405
 21
717.4131106991826
 31
0.0
  0
INSERT
  5
24EF
330
2366
100
AcDbEntity
  8
SUNPOU
  6
Continuous
 62
     4
370
    -2
100
AcDbBlockReference
  2
_OPEN
 10
619.5634121027406
 20
908.8130106991828
 30
0.0
 41
14.0
 42
14.0
 43
14.0
 50
90.0
  0
INSERT
  5
24F0
330
2366
100
AcDbEntity
  8
SUNPOU
  6
Continuous
 62
     4
370
    -2
100
AcDbBlockReference
  2
_OPEN
 10
619.5634121027405
 20
703.4131106991826
 30
0.0
 41
14.0
 42
14.0
 43
14.0
 50
270.0
  0
MTEXT
  5
24F1
330
2366
100
AcDbEntity
  8
SUNPOU
  6
Continuous
 62
     4
100
AcDbMText
 10
609.5634121027404
 20
806.1130606991827
 30
0.0
 40
12.0
 41
0.0
 71
     5
 72
     5
  1
\A1;205
 11
0.0000000000000001
 21
1.0
 31
0.0
 73
     1
 44
1.0
1001
ACAD
1000
MTEXTBEGIN
1070
    73
1070
     1
1070
    44
1040
1.0
1070
    74
1070
     0
1000
MTEXTEND
1000
MTEXTBEGIN
1070
    73
1070
     1
1070
    44
1040
1.0
1070
    74
1070
     0
1000
MTEXTEND
  0
POINT
  5
24F2
330
2366
100
AcDbEntity
  8
DEFPOINTS
  6
Continuous
 62
     0
100
AcDbPoint
 10
677.7083257733509
 20
908.8130106991828
 30
0.0
  0
POINT
  5
24F3
330
2366
100
AcDbEntity
  8
DEFPOINTS
  6
Continuous
 62
     0
100
AcDbPoint
 10
677.7083257733509
 20
703.4131106991826
 30
0.0
  0
POINT
  5
24F4
330
2366
100
AcDbEntity
  8
DEFPOINTS
  6
Continuous
 62
     0
100
AcDbPoint
 10
619.5634121027405
 20
703.4131106991826
 30
0.0
  0
ENDBLK
  5
2371
330
2366
100
AcDbEntity
  8
0
100
AcDbBlockEnd
  0
BLOCK
  5
237C
330
2372
100
AcDbEntity
  8
0
100
AcDbBlockBegin
  2
*D9
 70
     1
 10
0.0
 20
0.0
 30
0.0
  3
*D9
  1

  0
LINE
  5
24C4
330
2372
100
AcDbEntity
  8
SUNPOU
  6
Continuous
 62
     4
370
    -2
100
AcDbLine
 10
743.2087257733508
 20
920.8130106991827
 30
0.0
 11
743.2087257733508
 21
953.4213209916261
 31
0.0
  0
LINE
  5
24C5
330
2372
100
AcDbEntity
  8
SUNPOU
  6
Continuous
 62
     4
370
    -2
100
AcDbLine
 10
677.7083257733509
 20
920.8130106991827
 30
0.0
 11
677.7083257733509
 21
953.4213209916261
 31
0.0
  0
LINE
  5
24C6
330
2372
100
AcDbEntity
  8
SUNPOU
  6
Continuous
 62
     4
370
    -2
100
AcDbLine
 10
729.2087257733507
 20
947.4213209916261
 30
0.0
 11
691.7083257733509
 21
947.4213209916261
 31
0.0
  0
INSERT
  5
24C7
330
2372
100
AcDbEntity
  8
SUNPOU
  6
Continuous
 62
     4
370
    -2
100
AcDbBlockReference
  2
_OPEN
 10
743.2087257733508
 20
947.4213209916261
 30
0.0
 41
14.0
 42
14.0
 43
14.0
  0
INSERT
  5
24C8
330
2372
100
AcDbEntity
  8
SUNPOU
  6
Continuous
 62
     4
370
    -2
100
AcDbBlockReference
  2
_OPEN
 10
677.7083257733509
 20
947.4213209916261
 30
0.0
 41
14.0
 42
14.0
 43
14.0
 50
180.0
  0
MTEXT
  5
24C9
330
2372
100
AcDbEntity
  8
SUNPOU
  6
Continuous
 62
     4
100
AcDbMText
 10
710.4585257733508
 20
957.421320991626
 30
0.0
 40
12.0
 41
0.0
 71
     5
 72
     5
  1
\A1;※66
 73
     1
 44
1.0
1001
ACAD
1000
MTEXTBEGIN
1070
    73
1070
     1
1070
    44
1040
1.0
1070
    74
1070
     0
1000
MTEXTEND
1000
MTEXTBEGIN
1070
    73
1070
     1
1070
    44
1040
1.0
1070
    74
1070
     0
1000
MTEXTEND
  0
POINT
  5
24CA
330
2372
100
AcDbEntity
  8
DEFPOINTS
  6
Continuous
 62
     0
100
AcDbPoint
 10
743.2087257733508
 20
908.8130106991826
 30
0.0
  0
POINT
  5
24CB
330
2372
100
AcDbEntity
  8
DEFPOINTS
  6
Continuous
 62
     0
100
AcDbPoint
 10
677.7083257733509
 20
908.8130106991828
 30
0.0
  0
POINT
  5
24CC
330
2372
100
AcDbEntity
  8
DEFPOINTS
  6
Continuous
 62
     0
100
AcDbPoint
 10
677.7083257733509
 20
947.4213209916261
 30
0.0
  0
ENDBLK
  5
237D
330
2372
100
AcDbEntity
  8
0
100
AcDbBlockEnd
  0
BLOCK
  5
2388
330
237E
100
AcDbEntity
  8
0
100
AcDbBlockBegin
  2
*D10
 70
     1
 10
0.0
 20
0.0
 30
0.0
  3
*D10
  1

  0
LINE
  5
2497
330
237E
100
AcDbEntity
  8
SUNPOU
  6
Continuous
 62
     4
370
    -2
100
AcDbLine
 10
957.6088257733506
 20
425.4353106991827
 30
0.0
 11
1027.47945547455
 21
425.4353106991827
 31
0.0
  0
LINE
  5
2498
330
237E
100
AcDbEntity
  8
SUNPOU
  6
Continuous
 62
     4
370
    -2
100
AcDbLine
 10
932.7084257733512
 20
300.9352806991827
 30
0.0
 11
1027.47945547455
 21
300.9352806991827
 31
0.0
  0
LINE
  5
2499
330
237E
100
AcDbEntity
  8
SUNPOU
  6
Continuous
 62
     4
370
    -2
100
AcDbLine
 10
1021.479455474551
 20
411.4353106991826
 30
0.0
 11
1021.479455474551
 21
314.9352806991827
 31
0.0
  0
INSERT
  5
249A
330
237E
100
AcDbEntity
  8
SUNPOU
  6
Continuous
 62
     4
370
    -2
100
AcDbBlockReference
  2
_OPEN
 10
1021.479455474551
 20
425.4353106991827
 30
0.0
 41
14.0
 42
14.0
 43
14.0
 50
90.0
  0
INSERT
  5
249B
330
237E
100
AcDbEntity
  8
SUNPOU
  6
Continuous
 62
     4
370
    -2
100
AcDbBlockReference
  2
_OPEN
 10
1021.479455474551
 20
300.9352806991827
 30
0.0
 41
14.0
 42
14.0
 43
14.0
 50
270.0
  0
MTEXT
  5
249C
330
237E
100
AcDbEntity
  8
SUNPOU
  6
Continuous
 62
     4
100
AcDbMText
 10
1011.47945547455
 20
363.1852956991828
 30
0.0
 40
12.0
 41
0.0
 71
     5
 72
     5
  1
\A1;125
 11
0.0000000000000001
 21
1.0
 31
0.0
 73
     1
 44
1.0
1001
ACAD
1000
MTEXTBEGIN
1070
    73
1070
     1
1070
    44
1040
1.0
1070
    74
1070
     0
1000
MTEXTEND
1000
MTEXTBEGIN
1070
    73
1070
     1
1070
    44
1040
1.0
1070
    74
1070
     0
1000
MTEXTEND
  0
POINT
  5
249D
330
237E
100
AcDbEntity
  8
DEFPOINTS
  6
Continuous
 62
     0
100
AcDbPoint
 10
945.6088257733506
 20
425.4353106991827
 30
0.0
  0
POINT
  5
249E
330
237E
100
AcDbEntity
  8
DEFPOINTS
  6
Continuous
 62
     0
100
AcDbPoint
 10
920.7084257733511
 20
300.9352806991827
 30
0.0
  0
POINT
  5
249F
330
237E
100
AcDbEntity
  8
DEFPOINTS
  6
Continuous
 62
     0
100
AcDbPoint
 10
1021.479455474551
 20
300.9352806991827
 30
0.0
  0
ENDBLK
  5
2389
330
237E
100
AcDbEntity
  8
0
100
AcDbBlockEnd
  0
BLOCK
  5
2396
330
238A
100
AcDbEntity
  8
0
100
AcDbBlockBegin
  2
*D11
 70
     1
 10
0.0
 20
0.0
 30
0.0
  3
*D11
  1

  0
LINE
  5
24E1
330
238A
100
AcDbEntity
  8
SUNPOU
  6
Continuous
 62
     4
370
    -2
100
AcDbLine
 10
957.6088257733506
 20
425.4353106991827
 30
0.0
 11
999.0094388443802
 21
425.4353106991827
 31
0.0
  0
LINE
  5
24E2
330
238A
100
AcDbEntity
  8
SUNPOU
  6
Continuous
 62
     4
370
    -2
100
AcDbLine
 10
956.6088257733506
 20
399.4353106991826
 30
0.0
 11
999.0094388443802
 21
399.4353106991826
 31
0.0
  0
LINE
  5
24E3
330
238A
100
AcDbEntity
  8
SUNPOU
  6
Continuous
 62
     4
370
    -2
100
AcDbLine
 10
993.0094388443801
 20
439.4353106991826
 30
0.0
 11
993.0094388443801
 21
453.4353106991826
 31
0.0
  0
LINE
  5
24E4
330
238A
100
AcDbEntity
  8
SUNPOU
  6
Continuous
 62
     4
370
    -2
100
AcDbLine
 10
993.0094388443801
 20
385.4353106991826
 30
0.0
 11
993.0094388443801
 21
343.4353106991826
 31
0.0
  0
LINE
  5
24E5
330
238A
100
AcDbEntity
  8
SUNPOU
  6
Continuous
 62
     4
370
    -2
100
AcDbLine
 10
993.0094388443801
 20
425.4353106991827
 30
0.0
 11
993.0094388443801
 21
399.4353106991826
 31
0.0
  0
INSERT
  5
24E6
330
238A
100
AcDbEntity
  8
SUNPOU
  6
Continuous
 62
     4
370
    -2
100
AcDbBlockReference
  2
_OPEN
 10
993.0094388443801
 20
425.4353106991827
 30
0.0
 41
14.0
 42
14.0
 43
14.0
 50
270.0
  0
INSERT
  5
24E7
330
238A
100
AcDbEntity
  8
SUNPOU
  6
Continuous
 62
     4
370
    -2
100
AcDbBlockReference
  2
_OPEN
 10
993.0094388443801
 20
399.4353106991826
 30
0.0
 41
14.0
 42
14.0
 43
14.0
 50
90.0
  0
MTEXT
  5
24E8
330
238A
100
AcDbEntity
  8
SUNPOU
  6
Continuous
 62
     4
100
AcDbMText
 10
983.00943884438
 20
357.4353106991828
 30
0.0
 40
12.0
 41
0.0
 71
     5
 72
     5
  1
\A1;26
 11
0.0000000000000001
 21
1.0
 31
0.0
 73
     1
 44
1.0
1001
ACAD
1000
MTEXTBEGIN
1070
    73
1070
     1
1070
    44
1040
1.0
1070
    74
1070
     0
1000
MTEXTEND
1000
MTEXTBEGIN
1070
    73
1070
     1
1070
    44
1040
1.0
1070
    74
1070
     0
1000
MTEXTEND
  0
POINT
  5
24E9
330
238A
100
AcDbEntity
  8
DEFPOINTS
  6
Continuous
 62
     0
100
AcDbPoint
 10
945.6088257733506
 20
425.4353106991827
 30
0.0
  0
POINT
  5
24EA
330
238A
100
AcDbEntity
  8
DEFPOINTS
  6
Continuous
 62
     0
100
AcDbPoint
 10
944.6088257733507
 20
399.4353106991826
 30
0.0
  0
POINT
  5
24EB
330
238A
100
AcDbEntity
  8
DEFPOINTS
  6
Continuous
 62
     0
100
AcDbPoint
 10
993.0094388443801
 20
399.4353106991826
 30
0.0
  0
ENDBLK
  5
2397
330
238A
100
AcDbEntity
  8
0
100
AcDbBlockEnd
  0
BLOCK
  5
26D4
330
2540
100
AcDbEntity
  8
0
100
AcDbBlockBegin
  2
*X12
 70
     1
 10
0.0
 20
0.0
 30
0.0
  3
*X12
  1

  0
LINE
  5
2541
330
2540
100
AcDbEntity
  8
0
 62
     0
100
AcDbLine
 10
138.0844243231183
 20
45.20833800885884
 30
0.0
 11
136.7927624636885
 21
46.4999998682888
 31
0.0
  0
LINE
  5
2542
330
2540
100
AcDbEntity
  8
0
 62
     0
100
AcDbLine
 10
138.0844243231183
 20
43.41228678464505
 30
0.0
 11
134.9967112394746
 21
46.4999998682888
 31
0.0
  0
LINE
  5
2543
330
2540
100
AcDbEntity
  8
0
 62
     0
100
AcDbLine
 10
138.0844243231182
 20
41.61623556043116
 30
0.0
 11
133.2421564310883
 21
46.45850345246105
 31
0.0
  0
LINE
  5
2544
330
2540
100
AcDbEntity
  8
0
 62
     0
100
AcDbLine
 10
138.0844243231183
 20
39.82018433621749
 30
0.0
 11
132.4844243231182
 21
45.42018433621751
 31
0.0
  0
LINE
  5
2545
330
2540
100
AcDbEntity
  8
0
 62
     0
100
AcDbLine
 10
138.0844243231183
 20
38.02413311200359
 30
0.0
 11
132.4844243231182
 21
43.62413311200373
 31
0.0
  0
LINE
  5
2546
330
2540
100
AcDbEntity
  8
0
 62
     0
100
AcDbLine
 10
138.0844243231182
 20
36.2280818877897
 30
0.0
 11
132.4844243231181
 21
41.82808188778984
 31
0.0
  0
LINE
  5
2547
330
2540
100
AcDbEntity
  8
0
 62
     0
100
AcDbLine
 10
128.2844243231181
 20
44.2320306635761
 30
0.0
 11
126.0164551184056
 21
46.4999998682888
 31
0.0
  0
LINE
  5
2548
330
2540
100
AcDbEntity
  8
0
 62
     0
100
AcDbLine
 10
138.0844243231183
 20
34.43203066357602
 30
0.0
 11
132.4844243231182
 21
40.03203066357616
 31
0.0
  0
LINE
  5
2549
330
2540
100
AcDbEntity
  8
0
 62
     0
100
AcDbLine
 10
128.2844243231181
 20
42.43597943936231
 30
0.0
 11
124.2204038941916
 21
46.49999986828868
 31
0.0
  0
LINE
  5
254A
330
2540
100
AcDbEntity
  8
0
 62
     0
100
AcDbLine
 10
138.0844243231182
 20
32.63597943936213
 30
0.0
 11
132.4844243231182
 21
38.23597943936226
 31
0.0
  0
LINE
  5
254B
330
2540
100
AcDbEntity
  8
0
 62
     0
100
AcDbLine
 10
128.2844243231181
 20
40.63992821514841
 30
0.0
 11
122.873402392844
 21
46.05095014542257
 31
0.0
  0
LINE
  5
254C
330
2540
100
AcDbEntity
  8
0
 62
     0
100
AcDbLine
 10
138.0844243231182
 20
30.83992821514835
 30
0.0
 11
132.4844243231181
 21
36.43992821514837
 31
0.0
  0
LINE
  5
254D
330
2540
100
AcDbEntity
  8
0
 62
     0
100
AcDbLine
 10
128.2844243231183
 20
38.8438769909344
 30
0.0
 11
122.684424323118
 21
44.44387699093465
 31
0.0
  0
LINE
  5
254E
330
2540
100
AcDbEntity
  8
0
 62
     0
100
AcDbLine
 10
138.0844243231183
 20
29.04387699093445
 30
0.0
 11
132.4844243231182
 21
34.64387699093459
 31
0.0
  0
LINE
  5
254F
330
2540
100
AcDbEntity
  8
0
 62
     0
100
AcDbLine
 10
128.2844243231182
 20
37.04782576672062
 30
0.0
 11
122.684424323118
 21
42.64782576672098
 31
0.0
  0
LINE
  5
2550
330
2540
100
AcDbEntity
  8
0
 62
     0
100
AcDbLine
 10
138.0844243231182
 20
27.24782576672066
 30
0.0
 11
132.4844243231181
 21
32.8478257667208
 31
0.0
  0
LINE
  5
2551
330
2540
100
AcDbEntity
  8
0
 62
     0
100
AcDbLine
 10
128.2844243231182
 20
35.25177454250683
 30
0.0
 11
122.684424323118
 21
40.85177454250708
 31
0.0
  0
LINE
  5
2552
330
2540
100
AcDbEntity
  8
0
 62
     0
100
AcDbLine
 10
138.0844243231182
 20
25.45177454250688
 30
0.0
 11
132.4844243231181
 21
31.05177454250702
 31
0.0
  0
LINE
  5
2553
330
2540
100
AcDbEntity
  8
0
 62
     0
100
AcDbLine
 10
128.2844243231181
 20
33.45572331829294
 30
0.0
 11
122.6844243231179
 21
39.05572331829318
 31
0.0
  0
LINE
  5
2554
330
2540
100
AcDbEntity
  8
0
 62
     0
100
AcDbLine
 10
138.0844243231181
 20
23.65572331829298
 30
0.0
 11
132.4844243231181
 21
29.25572331829312
 31
0.0
  0
LINE
  5
2555
330
2540
100
AcDbEntity
  8
0
 62
     0
100
AcDbLine
 10
128.2844243231182
 20
31.65967209407927
 30
0.0
 11
122.684424323118
 21
37.25967209407952
 31
0.0
  0
LINE
  5
2556
330
2540
100
AcDbEntity
  8
0
 62
     0
100
AcDbLine
 10
115.6844243231181
 20
44.2596720940794
 30
0.0
 11
113.4440965489086
 21
46.4999998682888
 31
0.0
  0
LINE
  5
2557
330
2540
100
AcDbEntity
  8
0
 62
     0
100
AcDbLine
 10
138.0844243231182
 20
21.85967209407931
 30
0.0
 11
132.4844243231181
 21
27.45967209407933
 31
0.0
  0
LINE
  5
2558
330
2540
100
AcDbEntity
  8
0
 62
     0
100
AcDbLine
 10
128.2844243231182
 20
29.86362086986537
 30
0.0
 11
122.6844243231179
 21
35.46362086986562
 31
0.0
  0
LINE
  5
2559
330
2540
100
AcDbEntity
  8
0
 62
     0
100
AcDbLine
 10
115.6844243231182
 20
42.46362086986539
 30
0.0
 11
111.6480453246948
 21
46.4999998682888
 31
0.0
  0
LINE
  5
255A
330
2540
100
AcDbEntity
  8
0
 62
     0
100
AcDbLine
 10
138.0844243231182
 20
20.06362086986541
 30
0.0
 11
132.4844243231181
 21
25.66362086986555
 31
0.0
  0
LINE
  5
255B
330
2540
100
AcDbEntity
  8
0
 62
     0
100
AcDbLine
 10
128.2844243231181
 20
28.06756964565158
 30
0.0
 11
122.684424323118
 21
33.66756964565161
 31
0.0
  0
LINE
  5
255C
330
2540
100
AcDbEntity
  8
0
 62
     0
100
AcDbLine
 10
115.6844243231181
 20
40.6675696456515
 30
0.0
 11
110.28489887647
 21
46.06709509229972
 31
0.0
  0
LINE
  5
255D
330
2540
100
AcDbEntity
  8
0
 62
     0
100
AcDbLine
 10
138.0844243231181
 20
18.26756964565163
 30
0.0
 11
132.4844243231179
 21
23.86756964565165
 31
0.0
  0
LINE
  5
255E
330
2540
100
AcDbEntity
  8
0
 62
     0
100
AcDbLine
 10
128.2844243231182
 20
26.27151842143769
 30
0.0
 11
122.6844243231181
 21
31.87151842143782
 31
0.0
  0
LINE
  5
255F
330
2540
100
AcDbEntity
  8
0
 62
     0
100
AcDbLine
 10
115.6844243231182
 20
38.87151842143771
 30
0.0
 11
110.0844243231181
 21
44.47151842143784
 31
0.0
  0
LINE
  5
2560
330
2540
100
AcDbEntity
  8
0
 62
     0
100
AcDbLine
 10
138.0844243231182
 20
16.47151842143773
 30
0.0
 11
132.4844243231181
 21
22.07151842143787
 31
0.0
  0
LINE
  5
2561
330
2540
100
AcDbEntity
  8
0
 62
     0
100
AcDbLine
 10
128.2844243231181
 20
24.47546719722391
 30
0.0
 11
122.6844243231181
 21
30.07546719722404
 31
0.0
  0
LINE
  5
2562
330
2540
100
AcDbEntity
  8
0
 62
     0
100
AcDbLine
 10
115.6844243231182
 20
37.07546719722393
 30
0.0
 11
110.0844243231182
 21
42.67546719722395
 31
0.0
  0
LINE
  5
2563
330
2540
100
AcDbEntity
  8
0
 62
     0
100
AcDbLine
 10
137.9404936133386
 20
14.81939790700357
 30
0.0
 11
132.4844243231181
 21
20.27546719722408
 31
0.0
  0
LINE
  5
2564
330
2540
100
AcDbEntity
  8
0
 62
     0
100
AcDbLine
 10
128.2844243231182
 20
22.67941597300989
 30
0.0
 11
122.684424323118
 21
28.27941597301014
 31
0.0
  0
LINE
  5
2565
330
2540
100
AcDbEntity
  8
0
 62
     0
100
AcDbLine
 10
115.6844243231181
 20
35.27941597301014
 30
0.0
 11
110.0844243231182
 21
40.87941597301005
 31
0.0
  0
LINE
  5
2566
330
2540
100
AcDbEntity
  8
0
 62
     0
100
AcDbLine
 10
136.6638404278396
 20
14.29999986828863
 30
0.0
 11
132.4844243231179
 21
18.4794159730103
 31
0.0
  0
LINE
  5
2567
330
2540
100
AcDbEntity
  8
0
 62
     0
100
AcDbLine
 10
115.6844243231181
 20
33.48336474879625
 30
0.0
 11
110.0844243231181
 21
39.08336474879615
 31
0.0
  0
LINE
  5
2568
330
2540
100
AcDbEntity
  8
0
 62
     0
100
AcDbLine
 10
128.2844243231182
 20
20.88336474879611
 30
0.0
 11
122.684424323118
 21
26.48336474879636
 31
0.0
  0
LINE
  5
2569
330
2540
100
AcDbEntity
  8
0
 62
     0
100
AcDbLine
 10
104.8344243231181
 20
44.33336474879626
 30
0.0
 11
102.6677892036254
 21
46.4999998682888
 31
0.0
  0
LINE
  5
256A
330
2540
100
AcDbEntity
  8
0
 62
     0
100
AcDbLine
 10
134.8677892036258
 20
14.29999986828841
 30
0.0
 11
132.4844243231179
 21
16.6833647487964
 31
0.0
  0
LINE
  5
256B
330
2540
100
AcDbEntity
  8
0
 62
     0
100
AcDbLine
 10
115.6844243231181
 20
31.68731352458246
 30
0.0
 11
110.0844243231182
 21
37.28731352458249
 31
0.0
  0
LINE
  5
256C
330
2540
100
AcDbEntity
  8
0
 62
     0
100
AcDbLine
 10
104.8344243231181
 20
42.53731352458248
 30
0.0
 11
100.8717379794118
 21
46.4999998682889
 31
0.0
  0
LINE
  5
256D
330
2540
100
AcDbEntity
  8
0
 62
     0
100
AcDbLine
 10
128.2325077218271
 20
19.1392301258736
 30
0.0
 11
122.684424323118
 21
24.68731352458258
 31
0.0
  0
LINE
  5
256E
330
2540
100
AcDbEntity
  8
0
 62
     0
100
AcDbLine
 10
115.6844243231182
 20
29.89126230036845
 30
0.0
 11
110.0844243231182
 21
35.49126230036859
 31
0.0
  0
LINE
  5
256F
330
2540
100
AcDbEntity
  8
0
 62
     0
100
AcDbLine
 10
104.4432632308904
 20
41.13242339259636
 30
0.0
 11
99.07568675519815
 21
46.49999986828868
 31
0.0
  0
LINE
  5
2570
330
2540
100
AcDbEntity
  8
0
 62
     0
100
AcDbLine
 10
127.8465371313126
 20
17.72914949217408
 30
0.0
 11
122.684424323118
 21
22.89126230036879
 31
0.0
  0
LINE
  5
2571
330
2540
100
AcDbEntity
  8
0
 62
     0
100
AcDbLine
 10
115.6844243231182
 20
28.09521107615466
 30
0.0
 11
110.0844243231181
 21
33.6952110761548
 31
0.0
  0
LINE
  5
2572
330
2540
100
AcDbEntity
  8
0
 62
     0
100
AcDbLine
 10
102.8796355309841
 20
40.89999986828866
 30
0.0
 11
97.27963553098414
 21
46.4999998682888
 31
0.0
  0
LINE
  5
2573
330
2540
100
AcDbEntity
  8
0
 62
     0
100
AcDbLine
 10
127.1964733794654
 20
16.58316201980733
 30
0.0
 11
122.541392844799
 21
21.23824255447391
 31
0.0
  0
LINE
  5
2574
330
2540
100
AcDbEntity
  8
0
 62
     0
100
AcDbLine
 10
115.6844243231183
 20
26.29915985194088
 30
0.0
 11
110.0844243231182
 21
31.89915985194102
 31
0.0
  0
LINE
  5
2575
330
2540
100
AcDbEntity
  8
0
 62
     0
100
AcDbLine
 10
101.0835843067704
 20
40.89999986828877
 30
0.0
 11
95.60845084841572
 21
46.37513332664354
 31
0.0
  0
LINE
  5
2576
330
2540
100
AcDbEntity
  8
0
 62
     0
100
AcDbLine
 10
126.3323897848154
 20
15.65119439024374
 30
0.0
 11
121.738221567864
 21
20.24536260719514
 31
0.0
  0
LINE
  5
2577
330
2540
100
AcDbEntity
  8
0
 62
     0
100
AcDbLine
 10
115.6844243231182
 20
24.5031086277271
 30
0.0
 11
110.0844243231181
 21
30.10310862772712
 31
0.0
  0
LINE
  5
2578
330
2540
100
AcDbEntity
  8
0
 62
     0
100
AcDbLine
 10
99.28753308255659
 20
40.89999986828877
 30
0.0
 11
94.27916999934893
 21
45.90836295149631
 31
0.0
  0
LINE
  5
2579
330
2540
100
AcDbEntity
  8
0
 62
     0
100
AcDbLine
 10
125.2600650949633
 20
14.92746785588201
 30
0.0
 11
120.2875330825565
 21
19.89999986828865
 31
0.0
  0
LINE
  5
257A
330
2540
100
AcDbEntity
  8
0
 62
     0
100
AcDbLine
 10
115.6844243231182
 20
22.7070574035132
 30
0.0
 11
110.0844243231182
 21
28.30705740351311
 31
0.0
  0
LINE
  5
257B
330
2540
100
AcDbEntity
  8
0
 62
     0
100
AcDbLine
 10
97.53506151437898
 20
40.85642021225237
 30
0.0
 11
93.19396812492858
 21
45.19751360170277
 31
0.0
  0
LINE
  5
257C
330
2540
100
AcDbEntity
  8
0
 62
     0
100
AcDbLine
 10
123.9472399751407
 20
14.44424175149072
 30
0.0
 11
118.4914818583428
 21
19.89999986828865
 31
0.0
  0
LINE
  5
257D
330
2540
100
AcDbEntity
  8
0
 62
     0
100
AcDbLine
 10
96.78442432311829
 20
39.81100617929917
 30
0.0
 11
92.31774400683946
 21
44.27768649557799
 31
0.0
  0
LINE
  5
257E
330
2540
100
AcDbEntity
  8
0
 62
     0
100
AcDbLine
 10
122.295430634129
 20
14.29999986828852
 30
0.0
 11
110.0844243231182
 21
26.51100617929933
 31
0.0
  0
LINE
  5
257F
330
2540
100
AcDbEntity
  8
0
 62
     0
100
AcDbLine
 10
96.7844243231184
 20
38.0149549550855
 30
0.0
 11
91.65420218213341
 21
43.14517709607048
 31
0.0
  0
LINE
  5
2580
330
2540
100
AcDbEntity
  8
0
 62
     0
100
AcDbLine
 10
120.4993794099152
 20
14.29999986828852
 30
0.0
 11
110.0844243231183
 21
24.71495495508554
 31
0.0
  0
LINE
  5
2581
330
2540
100
AcDbEntity
  8
0
 62
     0
100
AcDbLine
 10
97.19751288532586
 20
35.80581516866414
 30
0.0
 11
91.24984514340519
 21
41.75348291058469
 31
0.0
  0
LINE
  5
2582
330
2540
100
AcDbEntity
  8
0
 62
     0
100
AcDbLine
 10
118.7033281857012
 20
14.29999986828863
 30
0.0
 11
110.0844243231182
 21
22.91890373087176
 31
0.0
  0
LINE
  5
2583
330
2540
100
AcDbEntity
  8
0
 62
     0
100
AcDbLine
 10
105.6316317285009
 20
25.57564510127519
 30
0.0
 11
91.18442432311814
 21
40.02285250665784
 31
0.0
  0
LINE
  5
2584
330
2540
100
AcDbEntity
  8
0
 62
     0
100
AcDbLine
 10
86.98442432311798
 20
44.222852506658
 30
0.0
 11
84.70727696148742
 21
46.49999986828868
 31
0.0
  0
LINE
  5
2585
330
2540
100
AcDbEntity
  8
0
 62
     0
100
AcDbLine
 10
116.9072769614874
 20
14.29999986828863
 30
0.0
 11
110.0844243231182
 21
21.12285250665786
 31
0.0
  0
LINE
  5
2586
330
2540
100
AcDbEntity
  8
0
 62
     0
100
AcDbLine
 10
105.8844243231183
 20
23.52680128244412
 30
0.0
 11
91.18442432311827
 21
38.22680128244417
 31
0.0
  0
LINE
  5
2587
330
2540
100
AcDbEntity
  8
0
 62
     0
100
AcDbLine
 10
86.98442432311821
 20
42.4268012824441
 30
0.0
 11
82.91122573727353
 21
46.4999998682889
 31
0.0
  0
LINE
  5
2588
330
2540
100
AcDbEntity
  8
0
 62
     0
100
AcDbLine
 10
115.078329979784
 20
14.3328956257784
 30
0.0
 11
110.117320080608
 21
19.29390552495442
 31
0.0
  0
LINE
  5
2589
330
2540
100
AcDbEntity
  8
0
 62
     0
100
AcDbLine
 10
86.98442432311821
 20
40.63075005823032
 30
0.0
 11
81.56964454756758
 21
46.04552983378084
 31
0.0
  0
LINE
  5
258A
330
2540
100
AcDbEntity
  8
0
 62
     0
100
AcDbLine
 10
105.8844243231181
 20
21.73075005823022
 30
0.0
 11
91.23124565888293
 21
36.38392872246561
 31
0.0
  0
LINE
  5
258B
330
2540
100
AcDbEntity
  8
0
 62
     0
100
AcDbLine
 10
86.98442432311821
 20
38.83469883401642
 30
0.0
 11
81.38442432311819
 21
44.43469883401633
 31
0.0
  0
LINE
  5
258C
330
2540
100
AcDbEntity
  8
0
 62
     0
100
AcDbLine
 10
105.8844243231179
 20
19.93469883401655
 30
0.0
 11
91.86748449456297
 21
33.95163866257167
 31
0.0
  0
LINE
  5
258D
330
2540
100
AcDbEntity
  8
0
 62
     0
100
AcDbLine
 10
86.98442432311821
 20
37.03864760980263
 30
0.0
 11
81.38442432311832
 21
42.63864760980254
 31
0.0
  0
LINE
  5
258E
330
2540
100
AcDbEntity
  8
0
 62
     0
100
AcDbLine
 10
105.66730068794
 20
18.35577124498081
 30
0.0
 11
100.2760311098634
 21
23.74704082305743
 31
0.0
  0
LINE
  5
258F
330
2540
100
AcDbEntity
  8
0
 62
     0
100
AcDbLine
 10
86.98442432311821
 20
35.24259638558885
 30
0.0
 11
81.38442432311819
 21
40.84259638558876
 31
0.0
  0
LINE
  5
2590
330
2540
100
AcDbEntity
  8
0
 62
     0
100
AcDbLine
 10
76.80145052196417
 20
45.42557018674279
 30
0.0
 11
75.72702084041816
 21
46.4999998682889
 31
0.0
  0
LINE
  5
2591
330
2540
100
AcDbEntity
  8
0
 62
     0
100
AcDbLine
 10
105.1315492724169
 20
17.09547143629015
 30
0.0
 11
100.2844243231182
 21
21.94259638558878
 31
0.0
  0
LINE
  5
2592
330
2540
100
AcDbEntity
  8
0
 62
     0
100
AcDbLine
 10
86.98442432311811
 20
33.44654516137495
 30
0.0
 11
81.38442432311819
 21
39.04654516137497
 31
0.0
  0
LINE
  5
2593
330
2540
100
AcDbEntity
  8
0
 62
     0
100
AcDbLine
 10
76.40359519345896
 20
44.0273742910341
 30
0.0
 11
73.93096961620438
 21
46.4999998682888
 31
0.0
  0
LINE
  5
2594
330
2540
100
AcDbEntity
  8
0
 62
     0
100
AcDbLine
 10
104.3655756760663
 20
16.06539380842684
 30
0.0
 11
100.0898539573453
 21
20.34111552714784
 31
0.0
  0
LINE
  5
2595
330
2540
100
AcDbEntity
  8
0
 62
     0
100
AcDbLine
 10
86.98442432311811
 20
31.65049393716117
 30
0.0
 11
81.38442432311819
 21
37.25049393716108
 31
0.0
  0
LINE
  5
2596
330
2540
100
AcDbEntity
  8
0
 62
     0
100
AcDbLine
 10
75.97254289964758
 20
42.66237536063158
 30
0.0
 11
72.15411177270642
 21
46.48080648757286
 31
0.0
  0
LINE
  5
2597
330
2540
100
AcDbEntity
  8
0
 62
     0
100
AcDbLine
 10
103.392937745835
 20
15.24198051444409
 30
0.0
 11
98.73491839199061
 21
19.89999986828865
 31
0.0
  0
LINE
  5
2598
330
2540
100
AcDbEntity
  8
0
 62
     0
100
AcDbLine
 10
86.98442432311834
 20
29.85444271294727
 30
0.0
 11
81.38442432311819
 21
35.4544427129473
 31
0.0
  0
LINE
  5
2599
330
2540
100
AcDbEntity
  8
0
 62
     0
100
AcDbLine
 10
75.54149060583654
 20
41.29737643022906
 30
0.0
 11
71.28549060583646
 21
45.55337643022915
 31
0.0
  0
LINE
  5
259A
330
2540
100
AcDbEntity
  8
0
 62
     0
100
AcDbLine
 10
102.2007698489143
 20
14.63809718715117
 30
0.0
 11
96.93886716777683
 21
19.89999986828877
 31
0.0
  0
LINE
  5
259B
330
2540
100
AcDbEntity
  8
0
 62
     0
100
AcDbLine
 10
86.98442432311834
 20
28.05839148873337
 30
0.0
 11
81.38442432311819
 21
33.65839148873351
 31
0.0
  0
LINE
  5
259C
330
2540
100
AcDbEntity
  8
0
 62
     0
100
AcDbLine
 10
75.11043831202482
 20
39.93237749982688
 30
0.0
 11
70.85443831202486
 21
44.18837749982685
 31
0.0
  0
LINE
  5
259D
330
2540
100
AcDbEntity
  8
0
 62
     0
100
AcDbLine
 10
100.7254245456193
 20
14.31739126623233
 30
0.0
 11
95.14281594356305
 21
19.89999986828865
 31
0.0
  0
LINE
  5
259E
330
2540
100
AcDbEntity
  8
0
 62
     0
100
AcDbLine
 10
86.98442432311821
 20
26.26234026451959
 30
0.0
 11
81.38442432311808
 21
31.86234026451961
 31
0.0
  0
LINE
  5
259F
330
2540
100
AcDbEntity
  8
0
 62
     0
100
AcDbLine
 10
74.67938601821368
 20
38.56737856942413
 30
0.0
 11
70.42338601821348
 21
42.82337856942421
 31
0.0
  0
LINE
  5
25A0
330
2540
100
AcDbEntity
  8
0
 62
     0
100
AcDbLine
 10
98.94676471934928
 20
14.29999986828852
 30
0.0
 11
93.34676471934916
 21
19.89999986828865
 31
0.0
  0
LINE
  5
25A1
330
2540
100
AcDbEntity
  8
0
 62
     0
100
AcDbLine
 10
86.98442432311834
 20
24.46628904030581
 30
0.0
 11
81.38442432311819
 21
30.06628904030594
 31
0.0
  0
LINE
  5
25A2
330
2540
100
AcDbEntity
  8
0
 62
     0
100
AcDbLine
 10
74.24833372440253
 20
37.20237963902161
 30
0.0
 11
69.99233372440222
 21
41.45837963902181
 31
0.0
  0
LINE
  5
25A3
330
2540
100
AcDbEntity
  8
0
 62
     0
100
AcDbLine
 10
97.1507134951355
 20
14.29999986828863
 30
0.0
 11
92.28349010054273
 21
19.1672232628814
 31
0.0
  0
LINE
  5
25A4
330
2540
100
AcDbEntity
  8
0
 62
     0
100
AcDbLine
 10
73.81728143059103
 20
35.83738070861921
 30
0.0
 11
69.56128143059095
 21
40.09338070861929
 31
0.0
  0
LINE
  5
25A5
330
2540
100
AcDbEntity
  8
0
 62
     0
100
AcDbLine
 10
86.98442432311821
 20
22.67023781609191
 30
0.0
 11
81.38442432311819
 21
28.27023781609204
 31
0.0
  0
LINE
  5
25A6
330
2540
100
AcDbEntity
  8
0
 62
     0
100
AcDbLine
 10
65.28442432311817
 20
44.37023781609207
 30
0.0
 11
63.15466227092156
 21
46.49999986828857
 31
0.0
  0
LINE
  5
25A7
330
2540
100
AcDbEntity
  8
0
 62
     0
100
AcDbLine
 10
95.35466227092172
 20
14.29999986828852
 30
0.0
 11
92.23442432311822
 21
17.42023781609202
 31
0.0
  0
LINE
  5
25A8
330
2540
100
AcDbEntity
  8
0
 62
     0
100
AcDbLine
 10
73.38622913677966
 20
34.47238177821668
 30
0.0
 11
69.13022913677969
 21
38.72838177821666
 31
0.0
  0
LINE
  5
25A9
330
2540
100
AcDbEntity
  8
0
 62
     0
100
AcDbLine
 10
86.98442432311821
 20
20.87418659187812
 30
0.0
 11
81.38442432311808
 21
26.47418659187826
 31
0.0
  0
LINE
  5
25AA
330
2540
100
AcDbEntity
  8
0
 62
     0
100
AcDbLine
 10
65.28442432311817
 20
42.57418659187817
 30
0.0
 11
61.35861104670778
 21
46.49999986828857
 31
0.0
  0
LINE
  5
25AB
330
2540
100
AcDbEntity
  8
0
 62
     0
100
AcDbLine
 10
93.5586110467077
 20
14.29999986828863
 30
0.0
 11
92.23442432311811
 21
15.62418659187812
 31
0.0
  0
LINE
  5
25AC
330
2540
100
AcDbEntity
  8
0
 62
     0
100
AcDbLine
 10
72.95517684296829
 20
33.10738284781416
 30
0.0
 11
68.6991768429682
 21
37.36338284781425
 31
0.0
  0
LINE
  5
25AD
330
2540
100
AcDbEntity
  8
0
 62
     0
100
AcDbLine
 10
65.28442432311805
 20
40.77813536766427
 30
0.0
 11
59.93353446532285
 21
46.1290252254596
 31
0.0
  0
LINE
  5
25AE
330
2540
100
AcDbEntity
  8
0
 62
     0
100
AcDbLine
 10
86.98442432311821
 20
19.07813536766423
 30
0.0
 11
81.38442432311808
 21
24.67813536766437
 31
0.0
  0
LINE
  5
25AF
330
2540
100
AcDbEntity
  8
0
 62
     0
100
AcDbLine
 10
72.52412454915702
 20
31.74238391741175
 30
0.0
 11
68.26812454915705
 21
35.99838391741172
 31
0.0
  0
LINE
  5
25B0
330
2540
100
AcDbEntity
  8
0
 62
     0
100
AcDbLine
 10
65.28442432311817
 20
38.9820841434506
 30
0.0
 11
59.68442432311826
 21
44.58208414345051
 31
0.0
  0
LINE
  5
25B1
330
2540
100
AcDbEntity
  8
0
 62
     0
100
AcDbLine
 10
86.98442432311821
 20
17.28208414345056
 30
0.0
 11
81.38442432311808
 21
22.88208414345058
 31
0.0
  0
LINE
  5
25B2
330
2540
100
AcDbEntity
  8
0
 62
     0
100
AcDbLine
 10
72.11394753037325
 20
30.35650971198163
 30
0.0
 11
67.83707225534556
 21
34.63338498700932
 31
0.0
  0
LINE
  5
25B3
330
2540
100
AcDbEntity
  8
0
 62
     0
100
AcDbLine
 10
65.28442432311817
 20
37.1860329192367
 30
0.0
 11
59.68442432311815
 21
42.78603291923661
 31
0.0
  0
LINE
  5
25B4
330
2540
100
AcDbEntity
  8
0
 62
     0
100
AcDbLine
 10
86.98442432311834
 20
15.48603291923654
 30
0.0
 11
81.38442432311808
 21
21.08603291923679
 31
0.0
  0
LINE
  5
25B5
330
2540
100
AcDbEntity
  8
0
 62
     0
100
AcDbLine
 10
72.94289424924125
 20
27.73151176889973
 30
0.0
 11
67.25597726397632
 21
33.41842875416466
 31
0.0
  0
LINE
  5
25B6
330
2540
100
AcDbEntity
  8
0
 62
     0
100
AcDbLine
 10
65.28442432311829
 20
35.38998169502269
 30
0.0
 11
59.68442432311815
 21
40.98998169502283
 31
0.0
  0
LINE
  5
25B7
330
2540
100
AcDbEntity
  8
0
 62
     0
100
AcDbLine
 10
86.30633432845332
 20
14.36807168968755
 30
0.0
 11
81.38442432311819
 21
19.28998169502278
 31
0.0
  0
LINE
  5
25B8
330
2540
100
AcDbEntity
  8
0
 62
     0
100
AcDbLine
 10
73.77184096810935
 20
25.10651382581795
 30
0.0
 11
59.68442432311815
 21
39.19393047080905
 31
0.0
  0
LINE
  5
25B9
330
2540
100
AcDbEntity
  8
0
 62
     0
100
AcDbLine
 10
54.78442432311829
 20
44.09393047080903
 30
0.0
 11
52.37835492563852
 21
46.49999986828868
 31
0.0
  0
LINE
  5
25BA
330
2540
100
AcDbEntity
  8
0
 62
     0
100
AcDbLine
 10
84.57835492563868
 20
14.29999986828863
 30
0.0
 11
81.38442432311832
 21
17.493930470809
 31
0.0
  0
LINE
  5
25BB
330
2540
100
AcDbEntity
  8
0
 62
     0
100
AcDbLine
 10
74.60078768697712
 20
22.48151588273617
 30
0.0
 11
59.68442432311815
 21
37.39787924659526
 31
0.0
  0
LINE
  5
25BC
330
2540
100
AcDbEntity
  8
0
 62
     0
100
AcDbLine
 10
54.78442432311829
 20
42.29787924659513
 30
0.0
 11
50.58230370142474
 21
46.49999986828868
 31
0.0
  0
LINE
  5
25BD
330
2540
100
AcDbEntity
  8
0
 62
     0
100
AcDbLine
 10
82.78230370142466
 20
14.29999986828875
 30
0.0
 11
81.38442432311819
 21
15.69787924659522
 31
0.0
  0
LINE
  5
25BE
330
2540
100
AcDbEntity
  8
0
 62
     0
100
AcDbLine
 10
54.25061093233807
 20
41.03564141316144
 30
0.0
 11
48.85016749591523
 21
46.43608484958417
 31
0.0
  0
LINE
  5
25BF
330
2540
100
AcDbEntity
  8
0
 62
     0
100
AcDbLine
 10
75.42973440584501
 20
19.8565179396545
 30
0.0
 11
59.68442432311815
 21
35.60182802238136
 31
0.0
  0
LINE
  5
25C0
330
2540
100
AcDbEntity
  8
0
 62
     0
100
AcDbLine
 10
65.95944216780139
 20
27.53075895348433
 30
0.0
 11
59.68442432311838
 21
33.80577679816735
 31
0.0
  0
LINE
  5
25C1
330
2540
100
AcDbEntity
  8
0
 62
     0
100
AcDbLine
 10
52.59020125299707
 20
40.89999986828866
 30
0.0
 11
47.3740813567407
 21
46.11611976454503
 31
0.0
  0
LINE
  5
25C2
330
2540
100
AcDbEntity
  8
0
 62
     0
100
AcDbLine
 10
76.25868112471301
 20
17.23151999657273
 30
0.0
 11
68.07406574009724
 21
25.41613538118838
 31
0.0
  0
LINE
  5
25C3
330
2540
100
AcDbEntity
  8
0
 62
     0
100
AcDbLine
 10
65.28442432311829
 20
26.40972557395366
 30
0.0
 11
59.68442432311826
 21
32.00972557395369
 31
0.0
  0
LINE
  5
25C4
330
2540
100
AcDbEntity
  8
0
 62
     0
100
AcDbLine
 10
50.79415002878318
 20
40.89999986828866
 30
0.0
 11
46.09663852507924
 21
45.59751137199259
 31
0.0
  0
LINE
  5
25C5
330
2540
100
AcDbEntity
  8
0
 62
     0
100
AcDbLine
 10
76.72875884013421
 20
14.96539105693762
 30
0.0
 11
68.90301245896512
 21
22.79113743810682
 31
0.0
  0
LINE
  5
25C6
330
2540
100
AcDbEntity
  8
0
 62
     0
100
AcDbLine
 10
65.28442432311817
 20
24.61367434973988
 30
0.0
 11
59.68442432311826
 21
30.21367434973979
 31
0.0
  0
LINE
  5
25C7
330
2540
100
AcDbEntity
  8
0
 62
     0
100
AcDbLine
 10
49.10792302369611
 20
40.79017564916194
 30
0.0
 11
44.97914057441017
 21
44.91895809844788
 31
0.0
  0
LINE
  5
25C8
330
2540
100
AcDbEntity
  8
0
 62
     0
100
AcDbLine
 10
75.59809880456953
 20
14.29999986828852
 30
0.0
 11
69.731959177833
 21
20.16613949502505
 31
0.0
  0
LINE
  5
25C9
330
2540
100
AcDbEntity
  8
0
 62
     0
100
AcDbLine
 10
65.28442432311817
 20
22.81762312552598
 30
0.0
 11
59.68442432311815
 21
28.41762312552589
 31
0.0
  0
LINE
  5
25CA
330
2540
100
AcDbEntity
  8
0
 62
     0
100
AcDbLine
 10
47.96421063801813
 20
40.13783681062602
 30
0.0
 11
44.00383015718659
 21
44.09821729145756
 31
0.0
  0
LINE
  5
25CB
330
2540
100
AcDbEntity
  8
0
 62
     0
100
AcDbLine
 10
73.80204758035564
 20
14.29999986828852
 30
0.0
 11
70.56090589670112
 21
17.54114155194304
 31
0.0
  0
LINE
  5
25CC
330
2540
100
AcDbEntity
  8
0
 62
     0
100
AcDbLine
 10
55.45528258871366
 20
30.85071363571683
 30
0.0
 11
52.43513809054616
 21
33.87085813388432
 31
0.0
  0
LINE
  5
25CD
330
2540
100
AcDbEntity
  8
0
 62
     0
100
AcDbLine
 10
65.2844243231184
 20
21.02157190131208
 30
0.0
 11
59.68442432311826
 21
26.62157190131222
 31
0.0
  0
LINE
  5
25CE
330
2540
100
AcDbEntity
  8
0
 62
     0
100
AcDbLine
 10
47.25196749776023
 20
39.05402872667025
 30
0.0
 11
43.16509810516413
 21
43.14089811926635
 31
0.0
  0
LINE
  5
25CF
330
2540
100
AcDbEntity
  8
0
 62
     0
100
AcDbLine
 10
71.90533034773261
 20
14.40066587669787
 30
0.0
 11
71.40462200454999
 21
14.90137421988049
 31
0.0
  0
LINE
  5
25D0
330
2540
100
AcDbEntity
  8
0
 62
     0
100
AcDbLine
 10
55.28225526842982
 20
29.22768973178676
 30
0.0
 11
50.81211418661609
 21
33.69783081360049
 31
0.0
  0
LINE
  5
25D1
330
2540
100
AcDbEntity
  8
0
 62
     0
100
AcDbLine
 10
47.08442432311835
 20
37.42552067709823
 30
0.0
 11
42.4672200632408
 21
42.04272493697579
 31
0.0
  0
LINE
  5
25D2
330
2540
100
AcDbEntity
  8
0
 62
     0
100
AcDbLine
 10
65.28442432311829
 20
19.22552067709818
 30
0.0
 11
59.68442432311826
 21
24.82552067709832
 31
0.0
  0
LINE
  5
25D3
330
2540
100
AcDbEntity
  8
0
 62
     0
100
AcDbLine
 10
54.61854414983372
 20
28.09534962616885
 30
0.0
 11
49.67977408099819
 21
33.03411969500439
 31
0.0
  0
LINE
  5
25D4
330
2540
100
AcDbEntity
  8
0
 62
     0
100
AcDbLine
 10
47.08442432311835
 20
35.62946945288433
 30
0.0
 11
41.92606064882045
 21
40.78783312718224
 31
0.0
  0
LINE
  5
25D5
330
2540
100
AcDbEntity
  8
0
 62
     0
100
AcDbLine
 10
65.28442432311829
 20
17.4294694528844
 30
0.0
 11
59.68442432311815
 21
23.02946945288454
 31
0.0
  0
LINE
  5
25D6
330
2540
100
AcDbEntity
  8
0
 62
     0
100
AcDbLine
 10
47.08442432311835
 20
33.83341822867055
 30
0.0
 11
41.57663290296875
 21
39.34120964882026
 31
0.0
  0
LINE
  5
25D7
330
2540
100
AcDbEntity
  8
0
 62
     0
100
AcDbLine
 10
53.61487726556084
 20
27.30296528622818
 30
0.0
 11
48.88738974105752
 21
32.0304528107315
 31
0.0
  0
LINE
  5
25D8
330
2540
100
AcDbEntity
  8
0
 62
     0
100
AcDbLine
 10
36.23442432311822
 20
44.6834182286708
 30
0.0
 11
34.41784268350022
 21
46.4999998682888
 31
0.0
  0
LINE
  5
25D9
330
2540
100
AcDbEntity
  8
0
 62
     0
100
AcDbLine
 10
65.2844243231184
 20
15.63341822867062
 30
0.0
 11
59.68442432311826
 21
21.23341822867075
 31
0.0
  0
LINE
  5
25DA
330
2540
100
AcDbEntity
  8
0
 62
     0
100
AcDbLine
 10
47.08442432311835
 20
32.03736700445677
 30
0.0
 11
41.48442432311822
 21
37.6373670044569
 31
0.0
  0
LINE
  5
25DB
330
2540
100
AcDbEntity
  8
0
 62
     0
100
AcDbLine
 10
52.21423838070598
 20
26.90755294686914
 30
0.0
 11
48.49197740169848
 21
30.62981392587664
 31
0.0
  0
LINE
  5
25DC
330
2540
100
AcDbEntity
  8
0
 62
     0
100
AcDbLine
 10
36.2344243231181
 20
42.8873670044569
 30
0.0
 11
32.62179145928632
 21
46.49999986828868
 31
0.0
  0
LINE
  5
25DD
330
2540
100
AcDbEntity
  8
0
 62
     0
100
AcDbLine
 10
64.70861672057697
 20
14.41317460699815
 30
0.0
 11
59.68442432311815
 21
19.43736700445685
 31
0.0
  0
LINE
  5
25DE
330
2540
100
AcDbEntity
  8
0
 62
     0
100
AcDbLine
 10
47.08442432311835
 20
30.24131578024287
 30
0.0
 11
41.48442432311822
 21
35.84131578024301
 31
0.0
  0
LINE
  5
25DF
330
2540
100
AcDbEntity
  8
0
 62
     0
100
AcDbLine
 10
36.01635638257744
 20
41.30938372078378
 30
0.0
 11
30.82574023507231
 21
46.4999998682888
 31
0.0
  0
LINE
  5
25E0
330
2540
100
AcDbEntity
  8
0
 62
     0
100
AcDbLine
 10
63.02574023507259
 20
14.29999986828863
 30
0.0
 11
59.68442432311815
 21
17.64131578024307
 31
0.0
  0
LINE
  5
25E1
330
2540
100
AcDbEntity
  8
0
 62
     0
100
AcDbLine
 10
47.08442432311824
 20
28.44526455602908
 30
0.0
 11
41.4844243231181
 21
34.04526455602911
 31
0.0
  0
LINE
  5
25E2
330
2540
100
AcDbEntity
  8
0
 62
     0
100
AcDbLine
 10
34.62968901085867
 20
40.89999986828866
 30
0.0
 11
29.02968901085853
 21
46.4999998682888
 31
0.0
  0
LINE
  5
25E3
330
2540
100
AcDbEntity
  8
0
 62
     0
100
AcDbLine
 10
61.22968901085869
 20
14.29999986828852
 30
0.0
 11
59.68442432311815
 21
15.84526455602917
 31
0.0
  0
LINE
  5
25E4
330
2540
100
AcDbEntity
  8
0
 62
     0
100
AcDbLine
 10
47.08442432311847
 20
26.64921333181519
 30
0.0
 11
41.48442432311822
 21
32.24921333181544
 31
0.0
  0
LINE
  5
25E5
330
2540
100
AcDbEntity
  8
0
 62
     0
100
AcDbLine
 10
32.83363778664488
 20
40.89999986828877
 30
0.0
 11
27.30337924243519
 21
46.43025841249846
 31
0.0
  0
LINE
  5
25E6
330
2540
100
AcDbEntity
  8
0
 62
     0
100
AcDbLine
 10
54.77921942544435
 20
18.95441822948919
 30
0.0
 11
53.83884268431893
 21
19.89479497061472
 31
0.0
  0
LINE
  5
25E7
330
2540
100
AcDbEntity
  8
0
 62
     0
100
AcDbLine
 10
47.08442432311847
 20
24.85316210760129
 30
0.0
 11
41.48442432311822
 21
30.45316210760154
 31
0.0
  0
LINE
  5
25E8
330
2540
100
AcDbEntity
  8
0
 62
     0
100
AcDbLine
 10
31.03758656243098
 20
40.89999986828866
 30
0.0
 11
25.91710962547824
 21
46.02047680524151
 31
0.0
  0
LINE
  5
25E9
330
2540
100
AcDbEntity
  8
0
 62
     0
100
AcDbLine
 10
54.7844243231184
 20
17.15316210760136
 30
0.0
 11
52.0375865624311
 21
19.89999986828865
 31
0.0
  0
LINE
  5
25EA
330
2540
100
AcDbEntity
  8
0
 62
     0
100
AcDbLine
 10
47.08442432311835
 20
23.05711088338739
 30
0.0
 11
41.48442432311833
 21
28.65711088338753
 31
0.0
  0
LINE
  5
25EB
330
2540
100
AcDbEntity
  8
0
 62
     0
100
AcDbLine
 10
29.24153533821732
 20
40.89999986828843
 30
0.0
 11
24.78861630578376
 21
45.35291890072199
 31
0.0
  0
LINE
  5
25EC
330
2540
100
AcDbEntity
  8
0
 62
     0
100
AcDbLine
 10
54.78442432311829
 20
15.35711088338746
 30
0.0
 11
50.24153533821709
 21
19.89999986828877
 31
0.0
  0
LINE
  5
25ED
330
2540
100
AcDbEntity
  8
0
 62
     0
100
AcDbLine
 10
28.22094968298813
 20
40.12453429930405
 30
0.0
 11
23.87243068130226
 21
44.47305330098993
 31
0.0
  0
LINE
  5
25EE
330
2540
100
AcDbEntity
  8
0
 62
     0
100
AcDbLine
 10
54.00895875413358
 20
14.33652522815862
 30
0.0
 11
41.48442432311833
 21
26.86105965917386
 31
0.0
  0
LINE
  5
25EF
330
2540
100
AcDbEntity
  8
0
 62
     0
100
AcDbLine
 10
28.18442432311826
 20
38.36500843496003
 30
0.0
 11
23.16546827636409
 21
43.3839644817142
 31
0.0
  0
LINE
  5
25F0
330
2540
100
AcDbEntity
  8
0
 62
     0
100
AcDbLine
 10
52.24943288978977
 20
14.29999986828852
 30
0.0
 11
41.48442432311833
 21
25.06500843495996
 31
0.0
  0
LINE
  5
25F1
330
2540
100
AcDbEntity
  8
0
 62
     0
100
AcDbLine
 10
28.30869573938912
 20
36.44468579447516
 30
0.0
 11
22.70370807177664
 21
42.04967346208775
 31
0.0
  0
LINE
  5
25F2
330
2540
100
AcDbEntity
  8
0
 62
     0
100
AcDbLine
 10
50.45338166557576
 20
14.29999986828863
 30
0.0
 11
41.48442432311822
 21
23.26895721074606
 31
0.0
  0
LINE
  5
25F3
330
2540
100
AcDbEntity
  8
0
 62
     0
100
AcDbLine
 10
36.89317650556358
 20
26.06415380408702
 30
0.0
 11
22.58442432311835
 21
40.37290598653226
 31
0.0
  0
LINE
  5
25F4
330
2540
100
AcDbEntity
  8
0
 62
     0
100
AcDbLine
 10
48.55078626724867
 20
14.40654404240194
 30
0.0
 11
41.59096849723153
 21
21.36636181241908
 31
0.0
  0
LINE
  5
25F5
330
2540
100
AcDbEntity
  8
0
 62
     0
100
AcDbLine
 10
37.27696553373402
 20
23.8843135517028
 30
0.0
 11
22.58442432311813
 21
38.5768547623187
 31
0.0
  0
LINE
  5
25F6
330
2540
100
AcDbEntity
  8
0
 62
     0
100
AcDbLine
 10
45.80317044204548
 20
15.35810864339123
 30
0.0
 11
42.5425330982207
 21
18.61874598721612
 31
0.0
  0
LINE
  5
25F7
330
2540
100
AcDbEntity
  8
0
 62
     0
100
AcDbLine
 10
37.2844243231184
 20
22.08080353810453
 30
0.0
 11
22.59955321796291
 21
36.7656746432599
 31
0.0
  0
LINE
  5
25F8
330
2540
100
AcDbEntity
  8
0
 62
     0
100
AcDbLine
 10
37.28442432311817
 20
20.28475231389086
 30
0.0
 11
23.04613473461063
 21
34.52304190239829
 31
0.0
  0
LINE
  5
25F9
330
2540
100
AcDbEntity
  8
0
 62
     0
100
AcDbLine
 10
37.13938433085434
 20
18.63374108194102
 30
0.0
 11
31.61260104361622
 21
24.16052436917914
 31
0.0
  0
LINE
  5
25FA
330
2540
100
AcDbEntity
  8
0
 62
     0
100
AcDbLine
 10
36.65550845279665
 20
17.32156573578481
 30
0.0
 11
31.68442432311826
 21
22.2926498654632
 31
0.0
  0
LINE
  5
25FB
330
2540
100
AcDbEntity
  8
0
 62
     0
100
AcDbLine
 10
35.93126995803311
 20
16.24975300633446
 30
0.0
 11
31.6126262585168
 21
20.56839670585077
 31
0.0
  0
LINE
  5
25FC
330
2540
100
AcDbEntity
  8
0
 62
     0
100
AcDbLine
 10
34.99881721349936
 20
15.38615452665442
 30
0.0
 11
30.48497187186512
 21
19.89999986828877
 31
0.0
  0
LINE
  5
25FD
330
2540
100
AcDbEntity
  8
0
 62
     0
100
AcDbLine
 10
33.85228831803374
 20
14.73663219790626
 30
0.0
 11
28.68892064765123
 21
19.89999986828865
 31
0.0
  0
LINE
  5
25FE
330
2540
100
AcDbEntity
  8
0
 62
     0
100
AcDbLine
 10
32.44146313986187
 20
14.35140615186424
 30
0.0
 11
26.89286942343744
 21
19.89999986828865
 31
0.0
  0
LINE
  5
25FF
330
2540
100
AcDbEntity
  8
0
 62
     0
100
AcDbLine
 10
30.69681819922357
 20
14.29999986828863
 30
0.0
 11
25.09681819922354
 21
19.89999986828865
 31
0.0
  0
LINE
  5
2600
330
2540
100
AcDbEntity
  8
0
 62
     0
100
AcDbLine
 10
28.9007669750099
 20
14.29999986828852
 30
0.0
 11
23.79411918537414
 21
19.40664765792439
 31
0.0
  0
LINE
  5
2601
330
2540
100
AcDbEntity
  8
0
 62
     0
100
AcDbLine
 10
27.10471575079589
 20
14.29999986828863
 30
0.0
 11
23.63442432311831
 21
17.77029129596621
 31
0.0
  0
LINE
  5
2602
330
2540
100
AcDbEntity
  8
0
 62
     0
100
AcDbLine
 10
25.30866452658222
 20
14.29999986828852
 30
0.0
 11
23.63442432311831
 21
15.97424007175243
 31
0.0
  0
LINE
  5
2603
330
2540
100
AcDbEntity
  8
0
 62
     0
100
AcDbLine
 10
137.2677988924521
 20
14.32626342252365
 30
0.0
 11
138.0581607688836
 21
15.11662529895522
 31
0.0
  0
LINE
  5
2604
330
2540
100
AcDbEntity
  8
0
 62
     0
100
AcDbLine
 10
135.4454841140031
 20
14.29999986828841
 30
0.0
 11
138.0844243231185
 21
16.9389400774038
 31
0.0
  0
LINE
  5
2605
330
2540
100
AcDbEntity
  8
0
 62
     0
100
AcDbLine
 10
133.6494328897894
 20
14.29999986828841
 30
0.0
 11
138.0844243231185
 21
18.73499130161758
 31
0.0
  0
LINE
  5
2606
330
2540
100
AcDbEntity
  8
0
 62
     0
100
AcDbLine
 10
132.5468194496219
 20
14.99343765233482
 30
0.0
 11
138.0844243231184
 21
20.53104252583147
 31
0.0
  0
LINE
  5
2607
330
2540
100
AcDbEntity
  8
0
 62
     0
100
AcDbLine
 10
132.4844243231183
 20
16.72709375004512
 30
0.0
 11
138.0844243231184
 21
22.32709375004515
 31
0.0
  0
LINE
  5
2608
330
2540
100
AcDbEntity
  8
0
 62
     0
100
AcDbLine
 10
132.4844243231184
 20
18.52314497425891
 30
0.0
 11
138.0844243231184
 21
24.12314497425905
 31
0.0
  0
LINE
  5
2609
330
2540
100
AcDbEntity
  8
0
 62
     0
100
AcDbLine
 10
132.4844243231183
 20
20.3191961984728
 30
0.0
 11
138.0844243231184
 21
25.91919619847294
 31
0.0
  0
LINE
  5
260A
330
2540
100
AcDbEntity
  8
0
 62
     0
100
AcDbLine
 10
132.4844243231183
 20
22.11524742268659
 30
0.0
 11
138.0844243231184
 21
27.71524742268673
 31
0.0
  0
LINE
  5
260B
330
2540
100
AcDbEntity
  8
0
 62
     0
100
AcDbLine
 10
125.3375540472488
 20
14.96837714681714
 30
0.0
 11
127.6160470445899
 21
17.24687014415837
 31
0.0
  0
LINE
  5
260C
330
2540
100
AcDbEntity
  8
0
 62
     0
100
AcDbLine
 10
132.4844243231183
 20
23.91129864690037
 30
0.0
 11
138.0844243231184
 21
29.51129864690051
 31
0.0
  0
LINE
  5
260D
330
2540
100
AcDbEntity
  8
0
 62
     0
100
AcDbLine
 10
122.8764177142032
 20
14.30329203798533
 30
0.0
 11
128.2811321534219
 21
19.70800647720386
 31
0.0
  0
LINE
  5
260E
330
2540
100
AcDbEntity
  8
0
 62
     0
100
AcDbLine
 10
132.4844243231183
 20
25.70734987111427
 30
0.0
 11
138.0844243231184
 21
31.30734987111429
 31
0.0
  0
LINE
  5
260F
330
2540
100
AcDbEntity
  8
0
 62
     0
100
AcDbLine
 10
121.0770743202924
 20
14.29999986828841
 30
0.0
 11
128.2844243231185
 21
21.50734987111434
 31
0.0
  0
LINE
  5
2610
330
2540
100
AcDbEntity
  8
0
 62
     0
100
AcDbLine
 10
132.4844243231183
 20
27.50340109532805
 30
0.0
 11
138.0844243231183
 21
33.10340109532819
 31
0.0
  0
LINE
  5
2611
330
2540
100
AcDbEntity
  8
0
 62
     0
100
AcDbLine
 10
119.2810230960786
 20
14.29999986828841
 30
0.0
 11
128.2844243231183
 21
23.30340109532824
 31
0.0
  0
LINE
  5
2612
330
2540
100
AcDbEntity
  8
0
 62
     0
100
AcDbLine
 10
132.4844243231183
 20
29.29945231954184
 30
0.0
 11
138.0844243231184
 21
34.89945231954198
 31
0.0
  0
LINE
  5
2613
330
2540
100
AcDbEntity
  8
0
 62
     0
100
AcDbLine
 10
117.484971871865
 20
14.29999986828852
 30
0.0
 11
128.2844243231185
 21
25.09945231954202
 31
0.0
  0
LINE
  5
2614
330
2540
100
AcDbEntity
  8
0
 62
     0
100
AcDbLine
 10
122.4752419189562
 20
21.08632113959367
 30
0.0
 11
128.2844243231185
 21
26.8955035437558
 31
0.0
  0
LINE
  5
2615
330
2540
100
AcDbEntity
  8
0
 62
     0
100
AcDbLine
 10
132.4844243231183
 20
31.09550354375562
 30
0.0
 11
138.0844243231184
 21
36.69550354375576
 31
0.0
  0
LINE
  5
2616
330
2540
100
AcDbEntity
  8
0
 62
     0
100
AcDbLine
 10
115.6889206476509
 20
14.29999986828841
 30
0.0
 11
121.4981030518132
 21
20.10918227245054
 31
0.0
  0
LINE
  5
2617
330
2540
100
AcDbEntity
  8
0
 62
     0
100
AcDbLine
 10
122.6844243231182
 20
23.09155476796957
 30
0.0
 11
128.2844243231183
 21
28.6915547679697
 31
0.0
  0
LINE
  5
2618
330
2540
100
AcDbEntity
  8
0
 62
     0
100
AcDbLine
 10
132.4844243231182
 20
32.89155476796952
 30
0.0
 11
138.0844243231183
 21
38.49155476796966
 31
0.0
  0
LINE
  5
2619
330
2540
100
AcDbEntity
  8
0
 62
     0
100
AcDbLine
 10
114.1167689261916
 20
14.52389937104283
 30
0.0
 11
119.4928694234373
 21
19.89999986828854
 31
0.0
  0
LINE
  5
261A
330
2540
100
AcDbEntity
  8
0
 62
     0
100
AcDbLine
 10
122.6844243231183
 20
24.88760599218358
 30
0.0
 11
128.2844243231183
 21
30.48760599218349
 31
0.0
  0
LINE
  5
261B
330
2540
100
AcDbEntity
  8
0
 62
     0
100
AcDbLine
 10
132.4844243231182
 20
34.68760599218342
 30
0.0
 11
138.0844243231183
 21
40.28760599218344
 31
0.0
  0
LINE
  5
261C
330
2540
100
AcDbEntity
  8
0
 62
     0
100
AcDbLine
 10
112.8607951917713
 20
15.06397686083653
 30
0.0
 11
117.6985737705122
 21
19.90175543957741
 31
0.0
  0
LINE
  5
261D
330
2540
100
AcDbEntity
  8
0
 62
     0
100
AcDbLine
 10
122.6844243231185
 20
26.68365721639736
 30
0.0
 11
128.2844243231183
 21
32.28365721639727
 31
0.0
  0
LINE
  5
261E
330
2540
100
AcDbEntity
  8
0
 62
     0
100
AcDbLine
 10
132.4844243231183
 20
36.48365721639709
 30
0.0
 11
138.0844243231183
 21
42.08365721639722
 31
0.0
  0
LINE
  5
261F
330
2540
100
AcDbEntity
  8
0
 62
     0
100
AcDbLine
 10
111.8342754290412
 20
15.83350832231997
 30
0.0
 11
116.4116165930868
 21
20.41084948636569
 31
0.0
  0
LINE
  5
2620
330
2540
100
AcDbEntity
  8
0
 62
     0
100
AcDbLine
 10
122.6844243231185
 20
28.47970844061114
 30
0.0
 11
128.2844243231183
 21
34.07970844061117
 31
0.0
  0
LINE
  5
2621
330
2540
100
AcDbEntity
  8
0
 62
     0
100
AcDbLine
 10
132.4844243231182
 20
38.27970844061098
 30
0.0
 11
138.0844243231183
 21
43.87970844061112
 31
0.0
  0
LINE
  5
2622
330
2540
100
AcDbEntity
  8
0
 62
     0
100
AcDbLine
 10
111.0143470785909
 20
16.80963119608361
 30
0.0
 11
115.7371400362679
 21
21.53242415376075
 31
0.0
  0
LINE
  5
2623
330
2540
100
AcDbEntity
  8
0
 62
     0
100
AcDbLine
 10
122.6844243231183
 20
30.27575966482504
 30
0.0
 11
128.2844243231185
 21
35.87575966482518
 31
0.0
  0
LINE
  5
2624
330
2540
100
AcDbEntity
  8
0
 62
     0
100
AcDbLine
 10
132.4844243231182
 20
40.07575966482477
 30
0.0
 11
138.0641260160174
 21
45.6554613577241
 31
0.0
  0
LINE
  5
2625
330
2540
100
AcDbEntity
  8
0
 62
     0
100
AcDbLine
 10
110.4144973217229
 20
18.0058326634296
 30
0.0
 11
115.6844243231183
 21
23.27575966482493
 31
0.0
  0
LINE
  5
2626
330
2540
100
AcDbEntity
  8
0
 62
     0
100
AcDbLine
 10
122.6844243231185
 20
32.07181088903871
 30
0.0
 11
128.2844243231186
 21
37.67181088903885
 31
0.0
  0
LINE
  5
2627
330
2540
100
AcDbEntity
  8
0
 62
     0
100
AcDbLine
 10
132.4844243231182
 20
41.87181088903855
 30
0.0
 11
137.1098973258584
 21
46.4972838917788
 31
0.0
  0
LINE
  5
2628
330
2540
100
AcDbEntity
  8
0
 62
     0
100
AcDbLine
 10
110.09967025181
 20
19.48705681773037
 30
0.0
 11
115.6844243231183
 21
25.07181088903871
 31
0.0
  0
LINE
  5
2629
330
2540
100
AcDbEntity
  8
0
 62
     0
100
AcDbLine
 10
122.6844243231183
 20
33.86786211325261
 30
0.0
 11
128.2844243231185
 21
39.46786211325274
 31
0.0
  0
LINE
  5
262A
330
2540
100
AcDbEntity
  8
0
 62
     0
100
AcDbLine
 10
132.4844243231183
 20
43.66786211325257
 30
0.0
 11
135.3165620781543
 21
46.49999986828857
 31
0.0
  0
LINE
  5
262B
330
2540
100
AcDbEntity
  8
0
 62
     0
100
AcDbLine
 10
110.0844243231184
 20
21.26786211325259
 30
0.0
 11
115.6844243231184
 21
26.86786211325272
 31
0.0
  0
LINE
  5
262C
330
2540
100
AcDbEntity
  8
0
 62
     0
100
AcDbLine
 10
122.6844243231183
 20
35.66391333746651
 30
0.0
 11
128.2844243231185
 21
41.26391333746653
 31
0.0
  0
LINE
  5
262D
330
2540
100
AcDbEntity
  8
0
 62
     0
100
AcDbLine
 10
110.0844243231183
 20
23.06391333746649
 30
0.0
 11
115.6844243231184
 21
28.66391333746662
 31
0.0
  0
LINE
  5
262E
330
2540
100
AcDbEntity
  8
0
 62
     0
100
AcDbLine
 10
132.4845177526132
 20
45.46400676696134
 30
0.0
 11
133.5204174244457
 21
46.49990643879379
 31
0.0
  0
LINE
  5
262F
330
2540
100
AcDbEntity
  8
0
 62
     0
100
AcDbLine
 10
101.4413130616943
 20
14.42080207604237
 30
0.0
 11
105.7636221153646
 21
18.74311112971281
 31
0.0
  0
LINE
  5
2630
330
2540
100
AcDbEntity
  8
0
 62
     0
100
AcDbLine
 10
110.0844243231183
 20
24.85996456168027
 30
0.0
 11
115.6844243231184
 21
30.4599645616804
 31
0.0
  0
LINE
  5
2631
330
2540
100
AcDbEntity
  8
0
 62
     0
100
AcDbLine
 10
122.6844243231183
 20
37.45996456168029
 30
0.0
 11
128.2844243231183
 21
43.05996456168043
 31
0.0
  0
LINE
  5
2632
330
2540
100
AcDbEntity
  8
0
 62
     0
100
AcDbLine
 10
99.5244596297266
 20
14.29999986828863
 30
0.0
 11
105.8844243231183
 21
20.65996456168034
 31
0.0
  0
LINE
  5
2633
330
2540
100
AcDbEntity
  8
0
 62
     0
100
AcDbLine
 10
110.0844243231183
 20
26.65601578589405
 30
0.0
 11
115.6844243231184
 21
32.25601578589419
 31
0.0
  0
LINE
  5
2634
330
2540
100
AcDbEntity
  8
0
 62
     0
100
AcDbLine
 10
122.6844243231183
 20
39.25601578589407
 30
0.0
 11
128.2844243231185
 21
44.85601578589421
 31
0.0
  0
LINE
  5
2635
330
2540
100
AcDbEntity
  8
0
 62
     0
100
AcDbLine
 10
97.72840840551282
 20
14.29999986828852
 30
0.0
 11
105.8844243231184
 21
22.45601578589401
 31
0.0
  0
LINE
  5
2636
330
2540
100
AcDbEntity
  8
0
 62
     0
100
AcDbLine
 10
110.0844243231183
 20
28.45206701010795
 30
0.0
 11
115.6844243231184
 21
34.05206701010797
 31
0.0
  0
LINE
  5
2637
330
2540
100
AcDbEntity
  8
0
 62
     0
100
AcDbLine
 10
122.6844243231183
 20
41.05206701010786
 30
0.0
 11
127.8969494134502
 21
46.26459210043981
 31
0.0
  0
LINE
  5
2638
330
2540
100
AcDbEntity
  8
0
 62
     0
100
AcDbLine
 10
95.93235718129903
 20
14.29999986828863
 30
0.0
 11
105.8557871222924
 21
24.22342980928203
 31
0.0
  0
LINE
  5
2639
330
2540
100
AcDbEntity
  8
0
 62
     0
100
AcDbLine
 10
110.0844243231183
 20
30.24811823432173
 30
0.0
 11
115.6844243231183
 21
35.84811823432187
 31
0.0
  0
LINE
  5
263A
330
2540
100
AcDbEntity
  8
0
 62
     0
100
AcDbLine
 10
122.6844243231182
 20
42.84811823432176
 30
0.0
 11
126.3363059570851
 21
46.49999986828868
 31
0.0
  0
LINE
  5
263B
330
2540
100
AcDbEntity
  8
0
 62
     0
100
AcDbLine
 10
94.13630595708514
 20
14.29999986828863
 30
0.0
 11
105.5859623810349
 21
25.74965629223834
 31
0.0
  0
LINE
  5
263C
330
2540
100
AcDbEntity
  8
0
 62
     0
100
AcDbLine
 10
110.0844243231183
 20
32.04416945853552
 30
0.0
 11
115.6844243231184
 21
37.64416945853565
 31
0.0
  0
LINE
  5
263D
330
2540
100
AcDbEntity
  8
0
 62
     0
100
AcDbLine
 10
100.2844243231186
 20
22.24416945853568
 30
0.0
 11
105.1047874671978
 21
27.06453260261492
 31
0.0
  0
LINE
  5
263E
330
2540
100
AcDbEntity
  8
0
 62
     0
100
AcDbLine
 10
122.6844243231183
 20
44.64416945853554
 30
0.0
 11
124.5402547328715
 21
46.49999986828868
 31
0.0
  0
LINE
  5
263F
330
2540
100
AcDbEntity
  8
0
 62
     0
100
AcDbLine
 10
92.59676543913361
 20
14.55651057455077
 30
0.0
 11
97.94025473287138
 21
19.89999986828854
 31
0.0
  0
LINE
  5
2640
330
2540
100
AcDbEntity
  8
0
 62
     0
100
AcDbLine
 10
100.2446831728638
 20
24.00047953249475
 30
0.0
 11
104.4577888574767
 21
28.21358521710772
 31
0.0
  0
LINE
  5
2641
330
2540
100
AcDbEntity
  8
0
 62
     0
100
AcDbLine
 10
110.0844243231183
 20
33.8402206827493
 30
0.0
 11
115.6844243231183
 21
39.44022068274944
 31
0.0
  0
LINE
  5
2642
330
2540
100
AcDbEntity
  8
0
 62
     0
100
AcDbLine
 10
92.23442432311845
 20
15.99022068274939
 30
0.0
 11
96.14420350865749
 21
19.89999986828854
 31
0.0
  0
LINE
  5
2643
330
2540
100
AcDbEntity
  8
0
 62
     0
100
AcDbLine
 10
99.69591349858603
 20
25.24776108243099
 30
0.0
 11
103.6660466216211
 21
29.21789420546611
 31
0.0
  0
LINE
  5
2644
330
2540
100
AcDbEntity
  8
0
 62
     0
100
AcDbLine
 10
110.0844243231182
 20
35.6362719069632
 30
0.0
 11
115.6844243231183
 21
41.23627190696334
 31
0.0
  0
LINE
  5
2645
330
2540
100
AcDbEntity
  8
0
 62
     0
100
AcDbLine
 10
92.23442432311832
 20
17.78627190696329
 30
0.0
 11
94.34815228444369
 21
19.89999986828865
 31
0.0
  0
LINE
  5
2646
330
2540
100
AcDbEntity
  8
0
 62
     0
100
AcDbLine
 10
110.0844243231183
 20
37.43232313117698
 30
0.0
 11
115.6844243231184
 21
43.03232313117701
 31
0.0
  0
LINE
  5
2647
330
2540
100
AcDbEntity
  8
0
 62
     0
100
AcDbLine
 10
98.81336370435191
 20
26.16126251241041
 30
0.0
 11
102.7731616789965
 21
30.12106048705504
 31
0.0
  0
LINE
  5
2648
330
2540
100
AcDbEntity
  8
0
 62
     0
100
AcDbLine
 10
97.91533809224496
 20
27.05928812451736
 30
0.0
 11
101.8751360668895
 21
31.01908609916199
 31
0.0
  0
LINE
  5
2649
330
2540
100
AcDbEntity
  8
0
 62
     0
100
AcDbLine
 10
110.0844243231182
 20
39.22837435539077
 30
0.0
 11
115.6844243231183
 21
44.8283743553909
 31
0.0
  0
LINE
  5
264A
330
2540
100
AcDbEntity
  8
0
 62
     0
100
AcDbLine
 10
85.15604983601599
 20
14.29999986828852
 30
0.0
 11
86.98442432311834
 21
16.12837435539074
 31
0.0
  0
LINE
  5
264B
330
2540
100
AcDbEntity
  8
0
 62
     0
100
AcDbLine
 10
97.017312480138
 20
27.95731373662431
 30
0.0
 11
100.9771104547826
 21
31.91711171126894
 31
0.0
  0
LINE
  5
264C
330
2540
100
AcDbEntity
  8
0
 62
     0
100
AcDbLine
 10
110.0844243231182
 20
41.02442557960467
 30
0.0
 11
115.312062506921
 21
46.25206376340736
 31
0.0
  0
LINE
  5
264D
330
2540
100
AcDbEntity
  8
0
 62
     0
100
AcDbLine
 10
83.3599986118021
 20
14.29999986828852
 30
0.0
 11
86.98442432311844
 21
17.92442557960475
 31
0.0
  0
LINE
  5
264E
330
2540
100
AcDbEntity
  8
0
 62
     0
100
AcDbLine
 10
96.11928686803105
 20
28.85533934873126
 30
0.0
 11
100.0790848426756
 21
32.81513732337589
 31
0.0
  0
LINE
  5
264F
330
2540
100
AcDbEntity
  8
0
 62
     0
100
AcDbLine
 10
110.0844243231182
 20
42.82047680381845
 30
0.0
 11
113.7639473875884
 21
46.4999998682888
 31
0.0
  0
LINE
  5
2650
330
2540
100
AcDbEntity
  8
0
 62
     0
100
AcDbLine
 10
81.78716966331228
 20
14.52322214401249
 30
0.0
 11
86.98442432311834
 21
19.72047680381865
 31
0.0
  0
LINE
  5
2651
330
2540
100
AcDbEntity
  8
0
 62
     0
100
AcDbLine
 10
95.22126125592421
 20
29.7533649608381
 30
0.0
 11
99.18105923056884
 21
33.71316293548273
 31
0.0
  0
LINE
  5
2652
330
2540
100
AcDbEntity
  8
0
 62
     0
100
AcDbLine
 10
110.0844243231182
 20
44.61652802803223
 30
0.0
 11
111.9678961633748
 21
46.49999986828868
 31
0.0
  0
LINE
  5
2653
330
2540
100
AcDbEntity
  8
0
 62
     0
100
AcDbLine
 10
81.38442432311842
 20
15.91652802803241
 30
0.0
 11
86.98442432311844
 21
21.51652802803232
 31
0.0
  0
LINE
  5
2654
330
2540
100
AcDbEntity
  8
0
 62
     0
100
AcDbLine
 10
94.32323564381727
 20
30.65139057294504
 30
0.0
 11
98.2830336184619
 21
34.61118854758967
 31
0.0
  0
LINE
  5
2655
330
2540
100
AcDbEntity
  8
0
 62
     0
100
AcDbLine
 10
81.38442432311842
 20
17.71257925224631
 30
0.0
 11
86.98442432311834
 21
23.31257925224622
 31
0.0
  0
LINE
  5
2656
330
2540
100
AcDbEntity
  8
0
 62
     0
100
AcDbLine
 10
93.4292678417346
 20
31.55347399507638
 30
0.0
 11
97.39721490849866
 21
35.52142106184033
 31
0.0
  0
LINE
  5
2657
330
2540
100
AcDbEntity
  8
0
 62
     0
100
AcDbLine
 10
81.38442432311842
 20
19.50863047646009
 30
0.0
 11
86.98442432311834
 21
25.10863047646012
 31
0.0
  0
LINE
  5
2658
330
2540
100
AcDbEntity
  8
0
 62
     0
100
AcDbLine
 10
102.7757937149467
 20
40.89999986828854
 30
0.0
 11
104.8344243231184
 21
42.95863047646014
 31
0.0
  0
LINE
  5
2659
330
2540
100
AcDbEntity
  8
0
 62
     0
100
AcDbLine
 10
76.39911187369796
 20
14.52331802703963
 30
0.0
 11
76.578416596608
 21
14.70262274994979
 31
0.0
  0
LINE
  5
265A
330
2540
100
AcDbEntity
  8
0
 62
     0
100
AcDbLine
 10
92.63326348409066
 20
32.55352086164612
 30
0.0
 11
96.83253203892787
 21
36.75278941648332
 31
0.0
  0
LINE
  5
265B
330
2540
100
AcDbEntity
  8
0
 62
     0
100
AcDbLine
 10
81.38442432311842
 20
21.30468170067388
 30
0.0
 11
86.98442432311844
 21
26.90468170067379
 31
0.0
  0
LINE
  5
265C
330
2540
100
AcDbEntity
  8
0
 62
     0
100
AcDbLine
 10
100.9797424907332
 20
40.89999986828866
 30
0.0
 11
104.8344243231184
 21
44.75468170067393
 31
0.0
  0
LINE
  5
265D
330
2540
100
AcDbEntity
  8
0
 62
     0
100
AcDbLine
 10
74.37974249073306
 20
14.29999986828852
 30
0.0
 11
76.51130068334612
 21
16.43155806090158
 31
0.0
  0
LINE
  5
265E
330
2540
100
AcDbEntity
  8
0
 62
     0
100
AcDbLine
 10
91.98159495529727
 20
33.69790355706664
 30
0.0
 11
96.78442432311863
 21
38.50073292488798
 31
0.0
  0
LINE
  5
265F
330
2540
100
AcDbEntity
  8
0
 62
     0
100
AcDbLine
 10
81.38442432311842
 20
23.10073292488766
 30
0.0
 11
86.98442432311834
 21
28.70073292488768
 31
0.0
  0
LINE
  5
2660
330
2540
100
AcDbEntity
  8
0
 62
     0
100
AcDbLine
 10
99.18369126651919
 20
40.89999986828854
 30
0.0
 11
104.5010864595226
 21
46.21739506129199
 31
0.0
  0
LINE
  5
2661
330
2540
100
AcDbEntity
  8
0
 62
     0
100
AcDbLine
 10
72.58369126651905
 20
14.29999986828841
 30
0.0
 11
76.08024838953475
 21
17.7965569913041
 31
0.0
  0
LINE
  5
2662
330
2540
100
AcDbEntity
  8
0
 62
     0
100
AcDbLine
 10
81.38442432311832
 20
24.89678414910156
 30
0.0
 11
86.98442432311834
 21
30.49678414910147
 31
0.0
  0
LINE
  5
2663
330
2540
100
AcDbEntity
  8
0
 62
     0
100
AcDbLine
 10
91.49483082995709
 20
35.00719065594035
 30
0.0
 11
102.9876400423054
 21
46.49999986828868
 31
0.0
  0
LINE
  5
2664
330
2540
100
AcDbEntity
  8
0
 62
     0
100
AcDbLine
 10
71.39966264520911
 20
14.91202247119235
 30
0.0
 11
75.64919609572337
 21
19.16155592170662
 31
0.0
  0
LINE
  5
2665
330
2540
100
AcDbEntity
  8
0
 62
     0
100
AcDbLine
 10
81.38442432311832
 20
26.69283537331546
 30
0.0
 11
86.98442432311821
 21
32.29283537331537
 31
0.0
  0
LINE
  5
2666
330
2540
100
AcDbEntity
  8
0
 62
     0
100
AcDbLine
 10
91.21741711178572
 20
36.52582816198287
 30
0.0
 11
101.1915888180916
 21
46.49999986828868
 31
0.0
  0
LINE
  5
2667
330
2540
100
AcDbEntity
  8
0
 62
     0
100
AcDbLine
 10
70.96214380191191
 20
16.27055485210905
 30
0.0
 11
75.21814380191199
 21
20.52655485210914
 31
0.0
  0
LINE
  5
2668
330
2540
100
AcDbEntity
  8
0
 62
     0
100
AcDbLine
 10
81.38442432311842
 20
28.48888659752913
 30
0.0
 11
86.98442432311834
 21
34.08888659752915
 31
0.0
  0
LINE
  5
2669
330
2540
100
AcDbEntity
  8
0
 62
     0
100
AcDbLine
 10
91.18442432311837
 20
38.28888659752908
 30
0.0
 11
99.39553759387786
 21
46.49999986828868
 31
0.0
  0
LINE
  5
266A
330
2540
100
AcDbEntity
  8
0
 62
     0
100
AcDbLine
 10
70.53109150810064
 20
17.63555378251146
 30
0.0
 11
74.78709150810084
 21
21.89155378251155
 31
0.0
  0
LINE
  5
266B
330
2540
100
AcDbEntity
  8
0
 62
     0
100
AcDbLine
 10
81.38442432311832
 20
30.28493782174303
 30
0.0
 11
86.98442432311834
 21
35.88493782174293
 31
0.0
  0
LINE
  5
266C
330
2540
100
AcDbEntity
  8
0
 62
     0
100
AcDbLine
 10
91.1844243231185
 20
40.08493782174309
 30
0.0
 11
97.59948636966408
 21
46.49999986828868
 31
0.0
  0
LINE
  5
266D
330
2540
100
AcDbEntity
  8
0
 62
     0
100
AcDbLine
 10
70.10003921428915
 20
19.00055271291387
 30
0.0
 11
74.35603921428958
 21
23.2565527129143
 31
0.0
  0
LINE
  5
266E
330
2540
100
AcDbEntity
  8
0
 62
     0
100
AcDbLine
 10
81.38442432311832
 20
32.08098904595681
 30
0.0
 11
86.98442432311844
 21
37.68098904595694
 31
0.0
  0
LINE
  5
266F
330
2540
100
AcDbEntity
  8
0
 62
     0
100
AcDbLine
 10
69.66898692047789
 20
20.3655516433165
 30
0.0
 11
73.92498692047809
 21
24.62155164331659
 31
0.0
  0
LINE
  5
2670
330
2540
100
AcDbEntity
  8
0
 62
     0
100
AcDbLine
 10
91.29105766336079
 20
41.98762238619941
 30
0.0
 11
95.69680180520743
 21
46.39336652804604
 31
0.0
  0
LINE
  5
2671
330
2540
100
AcDbEntity
  8
0
 62
     0
100
AcDbLine
 10
63.6034351454499
 20
14.29999986828852
 30
0.0
 11
65.28442432311829
 21
15.9809890459569
 31
0.0
  0
LINE
  5
2672
330
2540
100
AcDbEntity
  8
0
 62
     0
100
AcDbLine
 10
69.23793462666674
 20
21.73055057371891
 30
0.0
 11
73.49393462666682
 21
25.98655057371911
 31
0.0
  0
LINE
  5
2673
330
2540
100
AcDbEntity
  8
0
 62
     0
100
AcDbLine
 10
81.38442432311832
 20
33.87704027017059
 30
0.0
 11
86.98442432311844
 21
39.47704027017073
 31
0.0
  0
LINE
  5
2674
330
2540
100
AcDbEntity
  8
0
 62
     0
100
AcDbLine
 10
61.80738392123624
 20
14.29999986828841
 30
0.0
 11
65.2844243231184
 21
17.77704027017068
 31
0.0
  0
LINE
  5
2675
330
2540
100
AcDbEntity
  8
0
 62
     0
100
AcDbLine
 10
68.80688233285536
 20
23.09554950412143
 30
0.0
 11
73.06288233285545
 21
27.35154950412163
 31
0.0
  0
LINE
  5
2676
330
2540
100
AcDbEntity
  8
0
 62
     0
100
AcDbLine
 10
81.38442432311832
 20
35.67309149438449
 30
0.0
 11
86.98442432311844
 21
41.27309149438452
 31
0.0
  0
LINE
  5
2677
330
2540
100
AcDbEntity
  8
0
 62
     0
100
AcDbLine
 10
60.17363219232493
 20
14.46229936359111
 30
0.0
 11
65.2844243231184
 21
19.57309149438447
 31
0.0
  0
LINE
  5
2678
330
2540
100
AcDbEntity
  8
0
 62
     0
100
AcDbLine
 10
68.37583003904398
 20
24.46054843452396
 30
0.0
 11
72.63183003904408
 21
28.71654843452415
 31
0.0
  0
LINE
  5
2679
330
2540
100
AcDbEntity
  8
0
 62
     0
100
AcDbLine
 10
81.38442432311832
 20
37.46914271859827
 30
0.0
 11
86.98442432311834
 21
43.06914271859841
 31
0.0
  0
LINE
  5
267A
330
2540
100
AcDbEntity
  8
0
 62
     0
100
AcDbLine
 10
59.68442432311838
 20
15.76914271859834
 30
0.0
 11
65.28442432311852
 21
21.36914271859848
 31
0.0
  0
LINE
  5
267B
330
2540
100
AcDbEntity
  8
0
 62
     0
100
AcDbLine
 10
67.94477774523272
 20
25.82554736492636
 30
0.0
 11
72.20077774523304
 21
30.08154736492667
 31
0.0
  0
LINE
  5
267C
330
2540
100
AcDbEntity
  8
0
 62
     0
100
AcDbLine
 10
81.38442432311832
 20
39.26519394281206
 30
0.0
 11
86.98442432311844
 21
44.86519394281219
 31
0.0
  0
LINE
  5
267D
330
2540
100
AcDbEntity
  8
0
 62
     0
100
AcDbLine
 10
59.68442432311838
 20
17.56519394281212
 30
0.0
 11
65.28442432311852
 21
23.16519394281226
 31
0.0
  0
LINE
  5
267E
330
2540
100
AcDbEntity
  8
0
 62
     0
100
AcDbLine
 10
67.47518017128925
 20
27.1520010151969
 30
0.0
 11
72.73576830715104
 21
32.41258915105868
 31
0.0
  0
LINE
  5
267F
330
2540
100
AcDbEntity
  8
0
 62
     0
100
AcDbLine
 10
81.38442432311842
 20
41.06124516702607
 30
0.0
 11
86.59187347812155
 21
46.26869432202909
 31
0.0
  0
LINE
  5
2680
330
2540
100
AcDbEntity
  8
0
 62
     0
100
AcDbLine
 10
59.68442432311838
 20
19.36124516702602
 30
0.0
 11
65.28442432311852
 21
24.96124516702605
 31
0.0
  0
LINE
  5
2681
330
2540
100
AcDbEntity
  8
0
 62
     0
100
AcDbLine
 10
66.10080943155447
 20
27.57368149967601
 30
0.0
 11
73.56471502601903
 21
35.03758709414057
 31
0.0
  0
LINE
  5
2682
330
2540
100
AcDbEntity
  8
0
 62
     0
100
AcDbLine
 10
59.68442432311838
 20
21.15729639123981
 30
0.0
 11
65.31074269173098
 21
26.78361475985241
 31
0.0
  0
LINE
  5
2683
330
2540
100
AcDbEntity
  8
0
 62
     0
100
AcDbLine
 10
81.38442432311842
 20
42.85729639123985
 30
0.0
 11
85.02712780016713
 21
46.49999986828868
 31
0.0
  0
LINE
  5
2684
330
2540
100
AcDbEntity
  8
0
 62
     0
100
AcDbLine
 10
52.82712780016709
 20
14.29999986828852
 30
0.0
 11
54.7844243231184
 21
16.25729639123994
 31
0.0
  0
LINE
  5
2685
330
2540
100
AcDbEntity
  8
0
 62
     0
100
AcDbLine
 10
59.68442432311826
 20
22.9533476154537
 30
0.0
 11
74.39366174488691
 21
37.66258503722236
 31
0.0
  0
LINE
  5
2686
330
2540
100
AcDbEntity
  8
0
 62
     0
100
AcDbLine
 10
81.38442432311832
 20
44.65334761545375
 30
0.0
 11
83.23107657595324
 21
46.49999986828868
 31
0.0
  0
LINE
  5
2687
330
2540
100
AcDbEntity
  8
0
 62
     0
100
AcDbLine
 10
51.0310765759532
 20
14.29999986828863
 30
0.0
 11
54.78442432311851
 21
18.05334761545395
 31
0.0
  0
LINE
  5
2688
330
2540
100
AcDbEntity
  8
0
 62
     0
100
AcDbLine
 10
59.68442432311838
 20
24.74939883966738
 30
0.0
 11
75.22260846375513
 21
40.28758298030425
 31
0.0
  0
LINE
  5
2689
330
2540
100
AcDbEntity
  8
0
 62
     0
100
AcDbLine
 10
49.25838660043962
 20
14.32336111698873
 30
0.0
 11
54.50175575590606
 21
19.56673027245506
 31
0.0
  0
LINE
  5
268A
330
2540
100
AcDbEntity
  8
0
 62
     0
100
AcDbLine
 10
59.68442432311826
 20
26.54545006388127
 30
0.0
 11
66.3389741275256
 21
33.19999986828861
 31
0.0
  0
LINE
  5
268B
330
2540
100
AcDbEntity
  8
0
 62
     0
100
AcDbLine
 10
67.86693979800702
 20
34.72796553877003
 30
0.0
 11
76.05155518262302
 21
42.91258092338603
 31
0.0
  0
LINE
  5
268C
330
2540
100
AcDbEntity
  8
0
 62
     0
100
AcDbLine
 10
47.72206556554567
 20
14.58309130630857
 30
0.0
 11
53.03897412752553
 21
19.89999986828854
 31
0.0
  0
LINE
  5
268D
330
2540
100
AcDbEntity
  8
0
 62
     0
100
AcDbLine
 10
59.68442432311826
 20
28.34150128809517
 30
0.0
 11
65.32040546453493
 21
33.97748242951172
 31
0.0
  0
LINE
  5
268E
330
2540
100
AcDbEntity
  8
0
 62
     0
100
AcDbLine
 10
68.6958865168749
 20
37.3529634818517
 30
0.0
 11
76.80169808622565
 21
45.45877505120256
 31
0.0
  0
LINE
  5
268F
330
2540
100
AcDbEntity
  8
0
 62
     0
100
AcDbLine
 10
46.39979705189285
 20
15.05687401686975
 30
0.0
 11
51.24292290331175
 21
19.89999986828854
 31
0.0
  0
LINE
  5
2690
330
2540
100
AcDbEntity
  8
0
 62
     0
100
AcDbLine
 10
59.68442432311838
 20
30.13755251230884
 30
0.0
 11
65.2844243231184
 21
35.73755251230898
 31
0.0
  0
LINE
  5
2691
330
2540
100
AcDbEntity
  8
0
 62
     0
100
AcDbLine
 10
69.52483323574313
 20
39.97796142493371
 30
0.0
 11
76.01367434108727
 21
46.46680253027784
 31
0.0
  0
LINE
  5
2692
330
2540
100
AcDbEntity
  8
0
 62
     0
100
AcDbLine
 10
45.24459048356425
 20
15.69771867275471
 30
0.0
 11
49.47671420054996
 21
19.92984238974054
 31
0.0
  0
LINE
  5
2693
330
2540
100
AcDbEntity
  8
0
 62
     0
100
AcDbLine
 10
59.68442432311826
 20
31.93360373652274
 30
0.0
 11
65.2844243231184
 21
37.53360373652288
 31
0.0
  0
LINE
  5
2694
330
2540
100
AcDbEntity
  8
0
 62
     0
100
AcDbLine
 10
70.35377995461101
 20
42.60295936801537
 30
0.0
 11
74.25082045488409
 21
46.49999986828857
 31
0.0
  0
LINE
  5
2695
330
2540
100
AcDbEntity
  8
0
 62
     0
100
AcDbLine
 10
44.23468055080014
 20
16.48385996420449
 30
0.0
 11
48.20808191851336
 21
20.45726133191771
 31
0.0
  0
LINE
  5
2696
330
2540
100
AcDbEntity
  8
0
 62
     0
100
AcDbLine
 10
59.68442432311826
 20
33.72965496073652
 30
0.0
 11
65.2844243231184
 21
39.32965496073666
 31
0.0
  0
LINE
  5
2697
330
2540
100
AcDbEntity
  8
0
 62
     0
100
AcDbLine
 10
53.00769258667128
 20
27.05292322428965
 30
0.0
 11
55.33150096711745
 21
29.37673160473582
 31
0.0
  0
LINE
  5
2698
330
2540
100
AcDbEntity
  8
0
 62
     0
100
AcDbLine
 10
71.18272667347878
 20
45.22795731109716
 30
0.0
 11
72.45476923067042
 21
46.4999998682888
 31
0.0
  0
LINE
  5
2699
330
2540
100
AcDbEntity
  8
0
 62
     0
100
AcDbLine
 10
43.36180640414045
 20
17.40703704175882
 30
0.0
 11
47.38758001596898
 21
21.43281065358735
 31
0.0
  0
LINE
  5
269A
330
2540
100
AcDbEntity
  8
0
 62
     0
100
AcDbLine
 10
51.15774690341163
 20
26.9990287652439
 30
0.0
 11
55.38539542616319
 21
31.22667728799536
 31
0.0
  0
LINE
  5
269B
330
2540
100
AcDbEntity
  8
0
 62
     0
100
AcDbLine
 10
59.68442432311838
 20
35.52570618495053
 30
0.0
 11
65.28442432311852
 21
41.12570618495067
 31
0.0
  0
LINE
  5
269C
330
2540
100
AcDbEntity
  8
0
 62
     0
100
AcDbLine
 10
42.62776795425452
 20
18.46904981608668
 30
0.0
 11
47.08442432311835
 21
22.92570618495062
 31
0.0
  0
LINE
  5
269D
330
2540
100
AcDbEntity
  8
0
 62
     0
100
AcDbLine
 10
49.92945376457123
 20
27.56678685061706
 30
0.0
 11
54.81763734078993
 21
32.45497042683587
 31
0.0
  0
LINE
  5
269E
330
2540
100
AcDbEntity
  8
0
 62
     0
100
AcDbLine
 10
59.68442432311838
 20
37.32175740916432
 30
0.0
 11
65.28442432311852
 21
42.92175740916445
 31
0.0
  0
LINE
  5
269F
330
2540
100
AcDbEntity
  8
0
 62
     0
100
AcDbLine
 10
42.04513293440505
 20
19.68246602045098
 30
0.0
 11
47.08442432311835
 21
24.72175740916429
 31
0.0
  0
LINE
  5
26A0
330
2540
100
AcDbEntity
  8
0
 62
     0
100
AcDbLine
 10
49.05353391059179
 20
28.48691822085163
 30
0.0
 11
53.89750597055547
 21
33.33089028081519
 31
0.0
  0
LINE
  5
26A1
330
2540
100
AcDbEntity
  8
0
 62
     0
100
AcDbLine
 10
59.68442432311838
 20
39.11780863337821
 30
0.0
 11
65.28442432311852
 21
44.71780863337824
 31
0.0
  0
LINE
  5
26A2
330
2540
100
AcDbEntity
  8
0
 62
     0
100
AcDbLine
 10
41.64285820605573
 20
21.07624251631557
 30
0.0
 11
47.08442432311835
 21
26.51780863337819
 31
0.0
  0
LINE
  5
26A3
330
2540
100
AcDbEntity
  8
0
 62
     0
100
AcDbLine
 10
48.54143244577506
 20
29.77086798024868
 30
0.0
 11
52.61355621115831
 21
33.84299174563205
 31
0.0
  0
LINE
  5
26A4
330
2540
100
AcDbEntity
  8
0
 62
     0
100
AcDbLine
 10
41.48442432311822
 20
22.71385985759195
 30
0.0
 11
47.08442432311835
 21
28.31385985759197
 31
0.0
  0
LINE
  5
26A5
330
2540
100
AcDbEntity
  8
0
 62
     0
100
AcDbLine
 10
59.68442432311838
 20
40.913859857592
 30
0.0
 11
64.96992410640814
 21
46.19935964088187
 31
0.0
  0
LINE
  5
26A6
330
2540
100
AcDbEntity
  8
0
 62
     0
100
AcDbLine
 10
33.31243080736703
 20
14.54186634184077
 30
0.0
 11
37.04255784956649
 21
18.27199338404023
 31
0.0
  0
LINE
  5
26A7
330
2540
100
AcDbEntity
  8
0
 62
     0
100
AcDbLine
 10
48.77825861273663
 20
31.80374537142404
 30
0.0
 11
50.58067881998306
 21
33.60616557867047
 31
0.0
  0
LINE
  5
26A8
330
2540
100
AcDbEntity
  8
0
 62
     0
100
AcDbLine
 10
41.48442432311822
 20
24.50991108180562
 30
0.0
 11
47.08442432311835
 21
30.10991108180576
 31
0.0
  0
LINE
  5
26A9
330
2540
100
AcDbEntity
  8
0
 62
     0
100
AcDbLine
 10
59.68442432311838
 20
42.70991108180578
 30
0.0
 11
63.47451310960116
 21
46.49999986828857
 31
0.0
  0
LINE
  5
26AA
330
2540
100
AcDbEntity
  8
0
 62
     0
100
AcDbLine
 10
31.27451310960111
 20
14.29999986828852
 30
0.0
 11
37.28442432311863
 21
20.30991108180592
 31
0.0
  0
LINE
  5
26AB
330
2540
100
AcDbEntity
  8
0
 62
     0
100
AcDbLine
 10
41.48442432311822
 20
26.30596230601952
 30
0.0
 11
47.08442432311835
 21
31.90596230601966
 31
0.0
  0
LINE
  5
26AC
330
2540
100
AcDbEntity
  8
0
 62
     0
100
AcDbLine
 10
59.68442432311838
 20
44.50596230601957
 30
0.0
 11
61.67846188538738
 21
46.49999986828868
 31
0.0
  0
LINE
  5
26AD
330
2540
100
AcDbEntity
  8
0
 62
     0
100
AcDbLine
 10
29.4784618853871
 20
14.29999986828841
 30
0.0
 11
37.28442432311851
 21
22.10596230601982
 31
0.0
  0
LINE
  5
26AE
330
2540
100
AcDbEntity
  8
0
 62
     0
100
AcDbLine
 10
41.48442432311822
 20
28.1020135302333
 30
0.0
 11
47.08442432311824
 21
33.70201353023344
 31
0.0
  0
LINE
  5
26AF
330
2540
100
AcDbEntity
  8
0
 62
     0
100
AcDbLine
 10
27.68241066117343
 20
14.29999986828863
 30
0.0
 11
37.27654561799602
 21
23.89413482511122
 31
0.0
  0
LINE
  5
26B0
330
2540
100
AcDbEntity
  8
0
 62
     0
100
AcDbLine
 10
41.48442432311822
 20
29.8980647544472
 30
0.0
 11
47.08442432311835
 21
35.49806475444734
 31
0.0
  0
LINE
  5
26B1
330
2540
100
AcDbEntity
  8
0
 62
     0
100
AcDbLine
 10
52.48635943695979
 20
40.89999986828877
 30
0.0
 11
54.78442432311863
 21
43.19806475444761
 31
0.0
  0
LINE
  5
26B2
330
2540
100
AcDbEntity
  8
0
 62
     0
100
AcDbLine
 10
25.88635943695953
 20
14.29999986828852
 30
0.0
 11
37.05722194535337
 21
25.47086237668236
 31
0.0
  0
LINE
  5
26B3
330
2540
100
AcDbEntity
  8
0
 62
     0
100
AcDbLine
 10
41.48442432311822
 20
31.69411597866099
 30
0.0
 11
47.08442432311835
 21
37.29411597866101
 31
0.0
  0
LINE
  5
26B4
330
2540
100
AcDbEntity
  8
0
 62
     0
100
AcDbLine
 10
31.68442432311838
 20
21.89411597866115
 30
0.0
 11
36.61254445726513
 21
26.8222361128079
 31
0.0
  0
LINE
  5
26B5
330
2540
100
AcDbEntity
  8
0
 62
     0
100
AcDbLine
 10
50.69030821274577
 20
40.89999986828854
 30
0.0
 11
54.78442432311863
 21
44.99411597866128
 31
0.0
  0
LINE
  5
26B6
330
2540
100
AcDbEntity
  8
0
 62
     0
100
AcDbLine
 10
24.20575996326567
 20
14.41545161880844
 30
0.0
 11
29.69030821274577
 21
19.89999986828854
 31
0.0
  0
LINE
  5
26B7
330
2540
100
AcDbEntity
  8
0
 62
     0
100
AcDbLine
 10
41.4844243231181
 20
33.49016720287477
 30
0.0
 11
47.41605373467769
 21
39.42179661443435
 31
0.0
  0
LINE
  5
26B8
330
2540
100
AcDbEntity
  8
0
 62
     0
100
AcDbLine
 10
31.68010613989986
 20
23.68584901965641
 30
0.0
 11
35.99568138792108
 21
28.00142426767775
 31
0.0
  0
LINE
  5
26B9
330
2540
100
AcDbEntity
  8
0
 62
     0
100
AcDbLine
 10
48.56262757697277
 20
40.56837045672944
 30
0.0
 11
54.3174894932788
 21
46.32323237303535
 31
0.0
  0
LINE
  5
26BA
330
2540
100
AcDbEntity
  8
0
 62
     0
100
AcDbLine
 10
23.63442432311842
 20
15.64016720287497
 30
0.0
 11
27.89425698853199
 21
19.89999986828854
 31
0.0
  0
LINE
  5
26BB
330
2540
100
AcDbEntity
  8
0
 62
     0
100
AcDbLine
 10
31.24090010089844
 20
25.04269420486901
 30
0.0
 11
35.23119745824328
 21
29.03299156221385
 31
0.0
  0
LINE
  5
26BC
330
2540
100
AcDbEntity
  8
0
 62
     0
100
AcDbLine
 10
41.4844243231181
 20
35.28621842708867
 30
0.0
 11
52.69820576431823
 21
46.4999998682888
 31
0.0
  0
LINE
  5
26BD
330
2540
100
AcDbEntity
  8
0
 62
     0
100
AcDbLine
 10
23.63442432311831
 20
17.43621842708887
 30
0.0
 11
26.09820576431809
 21
19.89999986828865
 31
0.0
  0
LINE
  5
26BE
330
2540
100
AcDbEntity
  8
0
 62
     0
100
AcDbLine
 10
30.38839044428903
 20
25.98623577247326
 30
0.0
 11
34.34818841893377
 21
29.946033747118
 31
0.0
  0
LINE
  5
26BF
330
2540
100
AcDbEntity
  8
0
 62
     0
100
AcDbLine
 10
41.48442432311822
 20
37.08226965130234
 30
0.0
 11
50.90215454010411
 21
46.49999986828833
 31
0.0
  0
LINE
  5
26C0
330
2540
100
AcDbEntity
  8
0
 62
     0
100
AcDbLine
 10
23.77232816715786
 20
19.3701734953421
 30
0.0
 11
24.16425069606509
 21
19.76209602424933
 31
0.0
  0
LINE
  5
26C1
330
2540
100
AcDbEntity
  8
0
 62
     0
100
AcDbLine
 10
41.52437455143138
 20
38.91827110382939
 30
0.0
 11
49.06615308757739
 21
46.46004963997552
 31
0.0
  0
LINE
  5
26C2
330
2540
100
AcDbEntity
  8
0
 62
     0
100
AcDbLine
 10
29.49036483218208
 20
26.88426138458021
 30
0.0
 11
33.45016280682682
 21
30.84405935922495
 31
0.0
  0
LINE
  5
26C3
330
2540
100
AcDbEntity
  8
0
 62
     0
100
AcDbLine
 10
42.12330141596294
 20
41.31324919257497
 30
0.0
 11
46.67117499883192
 21
45.86112277544396
 31
0.0
  0
LINE
  5
26C4
330
2540
100
AcDbEntity
  8
0
 62
     0
100
AcDbLine
 10
28.59233922007513
 20
27.78228699668716
 30
0.0
 11
32.55213719471987
 21
31.7420849713319
 31
0.0
  0
LINE
  5
26C5
330
2540
100
AcDbEntity
  8
0
 62
     0
100
AcDbLine
 10
27.69431360796829
 20
28.680312608794
 30
0.0
 11
31.65411158261292
 21
32.64011058343851
 31
0.0
  0
LINE
  5
26C6
330
2540
100
AcDbEntity
  8
0
 62
     0
100
AcDbLine
 10
26.79628799586135
 20
29.57833822090094
 30
0.0
 11
30.75608597050598
 21
33.53813619554546
 31
0.0
  0
LINE
  5
26C7
330
2540
100
AcDbEntity
  8
0
 62
     0
100
AcDbLine
 10
25.8982623837544
 20
30.47636383300789
 30
0.0
 11
29.85806035839903
 21
34.43616180765241
 31
0.0
  0
LINE
  5
26C8
330
2540
100
AcDbEntity
  8
0
 62
     0
100
AcDbLine
 10
34.52584719482127
 20
40.89999986828854
 30
0.0
 11
36.2344243231181
 21
42.6085769965855
 31
0.0
  0
LINE
  5
26C9
330
2540
100
AcDbEntity
  8
0
 62
     0
100
AcDbLine
 10
25.00040339970371
 20
31.3745560731711
 30
0.0
 11
28.96053468656862
 21
35.33468736003601
 31
0.0
  0
LINE
  5
26CA
330
2540
100
AcDbEntity
  8
0
 62
     0
100
AcDbLine
 10
32.72979597060748
 20
40.89999986828854
 30
0.0
 11
36.23442432311833
 21
44.40462822079939
 31
0.0
  0
LINE
  5
26CB
330
2540
100
AcDbEntity
  8
0
 62
     0
100
AcDbLine
 10
24.17746755060056
 20
32.34767144828151
 30
0.0
 11
28.30074092399275
 21
36.47094482167381
 31
0.0
  0
LINE
  5
26CC
330
2540
100
AcDbEntity
  8
0
 62
     0
100
AcDbLine
 10
30.93374474639358
 20
40.89999986828854
 30
0.0
 11
36.06130652359604
 21
46.027561645491
 31
0.0
  0
LINE
  5
26CD
330
2540
100
AcDbEntity
  8
0
 62
     0
100
AcDbLine
 10
23.49654633807563
 20
33.46280145997047
 30
0.0
 11
28.18442432311849
 21
38.15067944501334
 31
0.0
  0
LINE
  5
26CE
330
2540
100
AcDbEntity
  8
0
 62
     0
100
AcDbLine
 10
29.13276022383957
 20
40.89506656994831
 30
0.0
 11
34.73769352217994
 21
46.49999986828868
 31
0.0
  0
LINE
  5
26CF
330
2540
100
AcDbEntity
  8
0
 62
     0
100
AcDbLine
 10
22.97515974661143
 20
34.73746609272018
 30
0.0
 11
28.18935762145861
 21
39.95166396756747
 31
0.0
  0
LINE
  5
26D0
330
2540
100
AcDbEntity
  8
0
 62
     0
100
AcDbLine
 10
22.6515358221153
 20
36.20989339243783
 30
0.0
 11
32.94164229796615
 21
46.49999986828868
 31
0.0
  0
LINE
  5
26D1
330
2540
100
AcDbEntity
  8
0
 62
     0
100
AcDbLine
 10
22.58442432311846
 20
37.93883311765489
 30
0.0
 11
31.14559107375225
 21
46.49999986828868
 31
0.0
  0
LINE
  5
26D2
330
2540
100
AcDbEntity
  8
0
 62
     0
100
AcDbLine
 10
22.58442432311846
 20
39.73488434186867
 30
0.0
 11
29.34953984953847
 21
46.49999986828868
 31
0.0
  0
LINE
  5
26D3
330
2540
100
AcDbEntity
  8
0
 62
     0
100
AcDbLine
 10
22.62480834399491
 20
41.57131958695901
 30
0.0
 11
27.51310460444813
 21
46.45961584741224
 31
0.0
  0
ENDBLK
  5
26D5
330
2540
100
AcDbEntity
  8
0
100
AcDbBlockEnd
  0
ENDSEC
  0
SECTION
  2
ENTITIES
  0
TEXT
  5
70F
330
19
100
AcDbEntity
  8
SUNPOU
 62
     4
100
AcDbText
 10
1362.583581941548
 20
72.43470612666513
 30
0.0
 40
12.0
  1
※　のきといの差込み寸法を示す
100
AcDbText
  0
LINE
  5
15C9
330
19
100
AcDbEntity
  8
ZUWAKU
100
AcDbLine
 10
417.293202593692
 20
30.39999986828876
 30
0.0
 11
894.8487279555388
 21
30.39999986828874
 31
0.0
  0
LINE
  5
15CA
330
19
100
AcDbEntity
  8
ZUWAKU
100
AcDbLine
 10
417.293202593692
 20
31.19999986828875
 30
0.0
 11
894.8487279555388
 21
31.19999986828876
 31
0.0
  0
LINE
  5
15CB
330
19
100
AcDbEntity
  8
ZUWAKU
100
AcDbLine
 10
417.293202593692
 20
30.79999986828875
 30
0.0
 11
894.8487279555388
 21
30.79999986828875
 31
0.0
  0
LINE
  5
15CC
330
19
100
AcDbEntity
  8
ZUWAKU
100
AcDbLine
 10
0.0000000135560185
 20
61.59999986828871
 30
0.0
 11
1594.800000013555
 21
61.59999986828871
 31
0.0
  0
LINE
  5
15CD
330
19
100
AcDbEntity
  8
ZUWAKU
100
AcDbLine
 10
0.0000000135560185
 20
61.1999998682887
 30
0.0
 11
1594.800000013555
 21
61.1999998682887
 31
0.0
  0
LINE
  5
15CE
330
19
100
AcDbEntity
  8
ZUWAKU
100
AcDbLine
 10
0.0000000135560185
 20
60.7999998682887
 30
0.0
 11
1594.800000013555
 21
60.7999998682887
 31
0.0
  0
LINE
  5
15CF
330
19
100
AcDbEntity
  8
ZUWAKU
100
AcDbLine
 10
0.0000000135560185
 20
60.39999986828869
 30
0.0
 11
1594.800000013555
 21
60.39999986828869
 31
0.0
  0
LINE
  5
15D0
330
19
100
AcDbEntity
  8
ZUWAKU
100
AcDbLine
 10
0.0000000135560185
 20
59.99999986828868
 30
0.0
 11
1594.800000013555
 21
59.99999986828868
 31
0.0
  0
LWPOLYLINE
  5
15D1
330
19
100
AcDbEntity
  8
ZUWAKU
100
AcDbPolyline
 90
        4
 70
     1
 43
0.0
 10
0.4000000135558821
 20
1102.799999868289
 10
0.4000000135558821
 20
0.3999998682887735
 10
1594.800000013555
 20
0.3999998682888197
 10
1594.800000013556
 20
1102.799999868289
  0
LWPOLYLINE
  5
15D2
330
19
100
AcDbEntity
  8
ZUWAKU
100
AcDbPolyline
 90
        4
 70
     1
 43
0.0
 10
1.200000013555836
 20
1101.999999868288
 10
1.200000013555836
 20
1.199999868288728
 10
1594.000000013556
 20
1.19999986828882
 10
1594.000000013556
 20
1101.999999868288
  0
LWPOLYLINE
  5
15D3
330
19
100
AcDbEntity
  8
ZUWAKU
100
AcDbPolyline
 90
        4
 70
     1
 43
0.0
 10
0.0000000135560185
 20
1103.199999868288
 10
0.0000000135560185
 20
-0.0000001317113174
 10
1595.200000013556
 20
-0.0000001317111824
 10
1595.200000013556
 20
1103.199999868289
  0
LWPOLYLINE
  5
15D4
330
19
100
AcDbEntity
  8
ZUWAKU
100
AcDbPolyline
 90
        4
 70
     1
 43
0.0
 10
0.800000013555973
 20
1102.399999868288
 10
0.800000013555973
 20
0.7999998682888645
 10
1594.400000013556
 20
0.7999998682888183
 10
1594.400000013556
 20
1102.399999868288
  0
LWPOLYLINE
  5
15D5
330
19
100
AcDbEntity
  8
ZUWAKU
100
AcDbPolyline
 90
        4
 70
     1
 43
0.0
 10
1.600000013555927
 20
1101.599999868288
 10
1.600000013555927
 20
1.599999868288819
 10
1593.600000013555
 20
1.599999868288819
 10
1593.600000013555
 20
1101.599999868288
  0
TEXT
  5
15D6
330
19
100
AcDbEntity
  8
moji
100
AcDbText
 10
185.9155791898943
 20
25.4823561288382
 30
0.0
 40
12.0
  1
大型　のきとい
 41
0.9
  7
ｽﾀｲﾙ1
100
AcDbText
  0
INSERT
  5
15D7
330
19
100
AcDbEntity
  8
ZUWAKU
  6
Continuous
100
AcDbBlockReference
  2
*X12
 10
0.0
 20
0.0
 30
0.0
1001
ACAD
1000
HATCH
1002
{
1070
    19
1000
ANSI37
1040
0.4
1040
0.0
1000
R14_HATCH_DATA
1000
15D7
1011
1.0
1021
0.0
1031
0.0
1011
0.0
1021
1.0
1031
0.0
1011
0.0
1021
0.0
1031
1.0
1040
0.0
1010
0.0
1020
0.0
1030
1.0
1000
ANSI37
1070
     0
1070
     0
1071
        8
1071
        7
1070
     1
1070
     1
1071
       24
1040
29.00452533579573
1040
35.28969683025585
1040
-0.1989123673796348
1040
28.18442432311826
1040
37.26959581757795
1040
0.0
1040
28.18442432311826
1040
39.8499998682887
1040
-0.4142135623730912
1040
29.23442432311821
1040
40.89999986828869
1040
0.0
1040
35.18442432311803
1040
40.89999986828869
1040
0.4142135623731546
1040
36.23442432311822
1040
41.94999986828867
1040
0.0
1040
36.23442432311822
1040
45.44999986828869
1040
0.4142135623731586
1040
35.18442432311803
1040
46.49999986828869
1040
0.0
1040
28.18442432311826
1040
46.49999986828869
1040
0.4142135623730928
1040
22.58442432311835
1040
40.89999986828874
1040
0.0
1040
22.58442432311835
1040
37.2695958175782
1040
0.1989123673796619
1040
25.04472736115122
1040
31.32989885561099
1040
0.0
1040
30.86432331044056
1040
25.51030290632168
1040
-0.1989123673796613
1040
31.68442432311826
1040
23.5304039189993
1040
0.0
1040
31.68442432311826
1040
20.94999986828867
1040
-0.4142135623730911
1040
30.6344243231183
1040
19.89999986828868
1040
0.0
1040
24.68442432311849
1040
19.89999986828868
1040
0.4142135623731526
1040
23.63442432311831
1040
18.84999986828871
1040
0.0
1040
23.63442432311831
1040
15.34999986828867
1040
0.4142135623731526
1040
24.68442432311849
1040
14.29999986828869
1040
0.0
1040
31.68442432311826
1040
14.29999986828869
1040
0.4142135623731044
1040
37.2844243231184
1040
19.89999986828864
1040
0.0
1040
37.2844243231184
1040
23.53040391899919
1040
0.1989123673796604
1040
34.82412128508531
1040
29.47010088096627
1040
0.0
1071
        0
1071
        7
1070
     1
1070
     1
1071
       16
1040
47.08442432311835
1040
38.0999998682887
1040
-0.4142135623730935
1040
49.88442432311831
1040
40.89999986828869
1040
0.0
1040
53.73442432311822
1040
40.89999986828869
1040
0.4142135623731546
1040
54.7844243231184
1040
41.94999986828867
1040
0.0
1040
54.7844243231184
1040
45.44999986828869
1040
0.4142135623730951
1040
53.73442432311844
1040
46.49999986828869
1040
0.0
1040
49.88442432311808
1040
46.49999986828861
1040
0.4142135623730892
1040
41.48442432311822
1040
38.09999986828856
1040
0.0
1040
41.48442432311822
1040
22.69999986828874
1040
0.4142135623730969
1040
49.88442432311831
1040
14.29999986828869
1040
0.0
1040
53.73442432311822
1040
14.29999986828869
1040
0.4142135623731526
1040
54.7844243231184
1040
15.34999986828867
1040
0.0
1040
54.7844243231184
1040
18.84999986828871
1040
0.4142135623730891
1040
53.73442432311844
1040
19.89999986828868
1040
0.0
1040
49.88442432311831
1040
19.89999986828868
1040
-0.4142135623730928
1040
47.08442432311835
1040
22.69999986828866
1040
0.0
1071
        0
1071
        7
1070
     1
1070
     1
1071
        2
1040
48.48442432311822
1040
30.39999986828869
1040
1.0
1040
55.48442432311822
1040
30.39999986828869
1040
1.0
1071
        0
1071
        7
1070
     1
1070
     1
1071
       26
1040
74.62971728747425
1040
38.41009425541554
1040
0.0
1040
76.75299655374988
1040
45.13381193195472
1040
0.5069206636600134
1040
75.75173475535916
1040
46.49999986828869
1040
0.0
1040
72.35395599614071
1040
46.49999986828869
1040
0.3272098845218764
1040
71.35269419774999
1040
45.76618780462263
1040
0.0
1040
67.61615444848644
1040
33.93381193195485
1040
-0.3272098845219541
1040
66.61489265009549
1040
33.19999986828868
1040
0.0
1040
66.33442432311858
1040
33.19999986828868
1040
-0.4142135623731526
1040
65.2844243231184
1040
34.24999986828866
1040
0.0
1040
65.2844243231184
1040
45.44999986828869
1040
0.4142135623730951
1040
64.23442432311844
1040
46.49999986828869
1040
0.0
1040
60.73442432311821
1040
46.49999986828869
1040
0.4142135623730871
1040
59.68442432311826
1040
45.44999986828872
1040
0.0
1040
59.68442432311826
1040
15.34999986828867
1040
0.4142135623730891
1040
60.73442432311821
1040
14.29999986828869
1040
0.0
1040
64.23442432311822
1040
14.29999986828869
1040
0.4142135623731526
1040
65.2844243231184
1040
15.34999986828867
1040
0.0
1040
65.2844243231184
1040
26.54999986828871
1040
-0.4142135623731526
1040
66.33442432311858
1040
27.59999986828869
1040
0.0
1040
66.61489265009572
1040
27.59999986828869
1040
-0.3272098845218915
1040
67.61615444848644
1040
26.86618780462254
1040
0.0
1040
71.35269419774999
1040
15.03381193195483
1040
0.3272098845218902
1040
72.35395599614071
1040
14.29999986828869
1040
0.0
1040
75.75173475535916
1040
14.29999986828869
1040
0.5069206636600335
1040
76.75299655374988
1040
15.6661878046227
1040
0.0
1040
72.10021379680256
1040
30.39999986828896
1040
0.0
1071
        0
1071
        7
1070
     1
1070
     1
1071
        8
1040
86.98442432311821
1040
45.44999986828871
1040
0.4142135623731546
1040
85.93442432311803
1040
46.49999986828869
1040
0.0
1040
82.4344243231185
1040
46.49999986828869
1040
0.4142135623731507
1040
81.38442432311832
1040
45.44999986828872
1040
0.0
1040
81.38442432311832
1040
15.34999986828867
1040
0.4142135623731526
1040
82.4344243231185
1040
14.29999986828869
1040
0.0
1040
85.93442432311803
1040
14.29999986828869
1040
0.4142135623731526
1040
86.98442432311821
1040
15.34999986828867
1040
0.0
1071
        0
1071
        7
1070
     1
1070
     1
1071
       24
1040
96.7844243231184
1040
39.8499998682887
1040
-0.4142135623731546
1040
97.83442432311858
1040
40.89999986828869
1040
0.0
1040
103.7844243231184
1040
40.89999986828869
1040
0.4142135623730911
1040
104.8344243231183
1040
41.94999986828867
1040
0.0
1040
104.8344243231183
1040
45.44999986828869
1040
0.4142135623730952
1040
103.7844243231184
1040
46.49999986828869
1040
0.0
1040
96.7844243231184
1040
46.49999986828869
1040
0.4142135623731048
1040
91.18442432311827
1040
40.89999986828874
1040
0.0
1040
91.18442432311827
1040
37.2695958175782
1040
0.1989123673796613
1040
93.64472736115136
1040
31.3298988556111
1040
0.0
1040
99.46432331044071
1040
25.51030290632176
1040
-0.1989123673796402
1040
100.2844243231183
1040
23.53040391899962
1040
0.0
1040
100.2844243231183
1040
20.94999986828867
1040
-0.4142135623730911
1040
99.23442432311844
1040
19.89999986828868
1040
0.0
1040
93.2844243231184
1040
19.89999986828868
1040
0.4142135623731526
1040
92.23442432311822
1040
18.84999986828871
1040
0.0
1040
92.23442432311822
1040
15.34999986828867
1040
0.4142135623730891
1040
93.28442432311817
1040
14.29999986828869
1040
0.0
1040
100.2844243231183
1040
14.29999986828869
1040
0.4142135623730925
1040
105.8844243231183
1040
19.89999986828864
1040
0.0
1040
105.8844243231183
1040
23.53040391899919
1040
0.1989123673796675
1040
103.4241212850852
1040
29.4701008809665
1040
0.0
1040
97.60452533579609
1040
35.28969683025553
1040
-0.1989123673796652
1040
96.7844243231184
1040
37.26959581757786
1040
0.0
1071
        0
1071
        7
1070
     1
1070
     1
1071
       16
1040
115.6844243231182
1040
45.44999986828867
1040
0.414213562373103
1040
114.6344243231183
1040
46.49999986828869
1040
0.0
1040
111.1344243231183
1040
46.49999986828869
1040
0.4142135623730871
1040
110.0844243231183
1040
45.44999986828872
1040
0.0
1040
110.0844243231183
1040
19.89999986828864
1040
0.4142135623730926
1040
115.6844243231182
1040
14.29999986828869
1040
0.0
1040
122.6844243231182
1040
14.29999986828869
1040
0.4142135623731044
1040
128.2844243231183
1040
19.89999986828864
1040
0.0
1040
128.2844243231183
1040
45.44999986828869
1040
0.4142135623730951
1040
127.2344243231184
1040
46.49999986828869
1040
0.0
1040
123.7344243231182
1040
46.49999986828869
1040
0.4142135623730871
1040
122.6844243231182
1040
45.44999986828872
1040
0.0
1040
122.6844243231182
1040
21.99999986828863
1040
-0.414213562373088
1040
120.5844243231183
1040
19.89999986828868
1040
0.0
1040
117.7844243231183
1040
19.89999986828868
1040
-0.4142135623731197
1040
115.6844243231182
1040
21.99999986828863
1040
0.0
1071
        0
1071
        7
1070
     1
1070
     1
1071
        8
1040
138.0844243231183
1040
45.44999986828872
1040
0.4142135623730871
1040
137.0344243231184
1040
46.49999986828869
1040
0.0
1040
133.5344243231183
1040
46.49999986828869
1040
0.4142135623731507
1040
132.4844243231182
1040
45.44999986828872
1040
0.0
1040
132.4844243231182
1040
15.34999986828867
1040
0.4142135623730891
1040
133.5344243231181
1040
14.29999986828869
1040
0.0
1040
137.0344243231184
1040
14.29999986828869
1040
0.4142135623730891
1040
138.0844243231183
1040
15.34999986828867
1040
0.0
1071
        0
1070
     0
1070
     1
1040
0.0
1040
0.4
1070
     0
1070
     2
1040
0.7853981633974483
1040
-1801.884608655802
1040
-26.40000013171118
1040
-0.8980256121069151
1040
0.8980256121069153
1070
     0
1040
2.356194490192344
1040
-1801.884608655802
1040
-26.40000013171118
1040
-0.8980256121069153
1040
-0.8980256121069151
1070
     0
1040
0.057451373970553
1071
        8
1040
32.15970993960263
1040
30.33434716005979
1040
0.0
1040
44.80903002643436
1040
37.6881242331907
1040
0.0
1040
50.32873578487533
1040
31.02376316043012
1040
0.0
1040
61.82811997683029
1040
32.40259516117169
1040
0.0
1040
83.67694405146949
1040
33.32181969625492
1040
0.0
1040
93.79640180381512
1040
38.8371525011031
1040
0.0
1040
113.1153719583567
1040
37.45831569847871
1040
0.0
1040
135.6541592528014
1040
38.37754023356194
1040
0.0
1002
}
  0
LINE
  5
15D8
330
19
100
AcDbEntity
  8
ZUWAKU
100
AcDbLine
 10
49.88442432311831
 20
46.49999986828861
 30
0.0
 11
53.73442432311822
 21
46.49999986828869
 31
0.0
  0
LINE
  5
15D9
330
19
100
AcDbEntity
  8
ZUWAKU
100
AcDbLine
 10
53.73442432311822
 20
40.89999986828869
 30
0.0
 11
49.88442432311831
 21
40.89999986828869
 31
0.0
  0
LINE
  5
15DA
330
19
100
AcDbEntity
  8
ZUWAKU
100
AcDbLine
 10
49.88442432311831
 20
19.89999986828868
 30
0.0
 11
53.73442432311822
 21
19.89999986828868
 31
0.0
  0
LINE
  5
15DB
330
19
100
AcDbEntity
  8
ZUWAKU
100
AcDbLine
 10
53.73442432311822
 20
14.29999986828869
 30
0.0
 11
49.88442432311831
 21
14.29999986828869
 31
0.0
  0
CIRCLE
  5
15DC
330
19
100
AcDbEntity
  8
ZUWAKU
100
AcDbCircle
 10
51.98442432311821
 20
30.39999986828869
 30
0.0
 40
3.5
  0
ARC
  5
15DD
330
19
100
AcDbEntity
  8
ZUWAKU
100
AcDbCircle
 10
30.98442432311822
 20
37.26959581757809
 30
0.0
 40
2.799999999999999
100
AcDbArc
 50
180.0000000000016
 51
224.9999999999988
  0
LINE
  5
15DE
330
19
100
AcDbEntity
  8
ZUWAKU
100
AcDbLine
 10
47.08442432311835
 20
38.09999986828869
 30
0.0
 11
47.08442432311835
 21
22.6999998682887
 31
0.0
  0
LINE
  5
15DF
330
19
100
AcDbEntity
  8
ZUWAKU
100
AcDbLine
 10
41.48442432311822
 20
22.6999998682887
 30
0.0
 11
41.48442432311822
 21
38.0999998682886
 31
0.0
  0
ARC
  5
15E0
330
19
100
AcDbEntity
  8
ZUWAKU
100
AcDbCircle
 10
30.98442432311822
 20
37.26959581757809
 30
0.0
 40
8.399999999999998
100
AcDbArc
 50
180.0
 51
225.0
  0
ARC
  5
15E1
330
19
100
AcDbEntity
  8
ZUWAKU
100
AcDbCircle
 10
31.68442432311826
 20
19.89999986828868
 30
0.0
 40
5.599999999999999
100
AcDbArc
 50
270.0
 51
0.0
  0
ARC
  5
15E2
330
19
100
AcDbEntity
  8
ZUWAKU
100
AcDbCircle
 10
49.88442432311831
 20
22.6999998682887
 30
0.0
 40
8.399999999999998
100
AcDbArc
 50
180.0
 51
270.0
  0
ARC
  5
15E3
330
19
100
AcDbEntity
  8
ZUWAKU
100
AcDbCircle
 10
28.88442432311831
 20
23.53040391899929
 30
0.0
 40
8.399999999999998
100
AcDbArc
 50
0.0
 51
45.0
  0
LINE
  5
15E4
330
19
100
AcDbEntity
  8
ZUWAKU
100
AcDbLine
 10
34.82412128508531
 20
29.47010088096634
 30
0.0
 11
29.00452533579596
 21
35.28969683025569
 31
0.0
  0
LINE
  5
15E5
330
19
100
AcDbEntity
  8
ZUWAKU
100
AcDbLine
 10
31.68442432311826
 20
20.9499998682887
 30
0.0
 11
31.68442432311826
 21
23.53040391899938
 31
0.0
  0
ARC
  5
15E6
330
19
100
AcDbEntity
  8
ZUWAKU
100
AcDbCircle
 10
30.6344243231183
 20
20.9499998682887
 30
0.0
 40
1.049999999999999
100
AcDbArc
 50
270.0
 51
0.0
  0
ARC
  5
15E7
330
19
100
AcDbEntity
  8
ZUWAKU
100
AcDbCircle
 10
28.88442432311831
 20
23.53040391899938
 30
0.0
 40
2.799999999999999
100
AcDbArc
 50
0.0
 51
45.0
  0
LINE
  5
15E8
330
19
100
AcDbEntity
  8
ZUWAKU
100
AcDbLine
 10
23.63442432311831
 20
15.34999986828869
 30
0.0
 11
23.63442432311831
 21
18.84999986828869
 31
0.0
  0
ARC
  5
15E9
330
19
100
AcDbEntity
  8
ZUWAKU
100
AcDbCircle
 10
24.68442432311826
 20
15.34999986828869
 30
0.0
 40
1.049999999999999
100
AcDbArc
 50
180.0
 51
270.0
  0
ARC
  5
15EA
330
19
100
AcDbEntity
  8
ZUWAKU
100
AcDbCircle
 10
24.68442432311826
 20
18.84999986828869
 30
0.0
 40
1.049999999999999
100
AcDbArc
 50
90.0
 51
180.0
  0
LINE
  5
15EB
330
19
100
AcDbEntity
  8
ZUWAKU
100
AcDbLine
 10
24.68442432311826
 20
14.29999986828869
 30
0.0
 11
31.68442432311826
 21
14.29999986828869
 31
0.0
  0
LINE
  5
15EC
330
19
100
AcDbEntity
  8
ZUWAKU
100
AcDbLine
 10
24.68442432311826
 20
19.89999986828868
 30
0.0
 11
30.6344243231183
 21
19.89999986828868
 31
0.0
  0
LINE
  5
15ED
330
19
100
AcDbEntity
  8
ZUWAKU
100
AcDbLine
 10
25.04472736115122
 20
31.32989885561105
 30
0.0
 11
30.86432331044056
 21
25.51030290632172
 31
0.0
  0
LINE
  5
15EE
330
19
100
AcDbEntity
  8
ZUWAKU
100
AcDbLine
 10
37.2844243231184
 20
19.89999986828868
 30
0.0
 11
37.2844243231184
 21
23.53040391899938
 31
0.0
  0
ARC
  5
15EF
330
19
100
AcDbEntity
  8
ZUWAKU
100
AcDbCircle
 10
49.88442432311831
 20
22.6999998682887
 30
0.0
 40
2.799999999999999
100
AcDbArc
 50
180.0
 51
270.0
  0
ARC
  5
15F0
330
19
100
AcDbEntity
  8
ZUWAKU
100
AcDbCircle
 10
35.18442432311826
 20
45.44999986828869
 30
0.0
 40
1.049999999999999
100
AcDbArc
 50
0.0
 51
90.0
  0
ARC
  5
15F1
330
19
100
AcDbEntity
  8
ZUWAKU
100
AcDbCircle
 10
35.18442432311826
 20
41.94999986828868
 30
0.0
 40
1.049999999999999
100
AcDbArc
 50
270.0
 51
0.0
  0
LINE
  5
15F2
330
19
100
AcDbEntity
  8
ZUWAKU
100
AcDbLine
 10
28.18442432311826
 20
46.49999986828869
 30
0.0
 11
35.18442432311826
 21
46.49999986828869
 31
0.0
  0
ARC
  5
15F3
330
19
100
AcDbEntity
  8
ZUWAKU
100
AcDbCircle
 10
29.23442432311821
 20
39.84999986828869
 30
0.0
 40
1.049999999999999
100
AcDbArc
 50
90.0
 51
180.0
  0
LINE
  5
15F4
330
19
100
AcDbEntity
  8
ZUWAKU
100
AcDbLine
 10
28.18442432311826
 20
39.84999986828869
 30
0.0
 11
28.18442432311826
 21
37.269595817578
 31
0.0
  0
LINE
  5
15F5
330
19
100
AcDbEntity
  8
ZUWAKU
100
AcDbLine
 10
35.18442432311826
 20
40.89999986828869
 30
0.0
 11
29.23442432311821
 21
40.89999986828869
 31
0.0
  0
LINE
  5
15F6
330
19
100
AcDbEntity
  8
ZUWAKU
100
AcDbLine
 10
22.58442432311835
 20
40.89999986828869
 30
0.0
 11
22.58442432311835
 21
37.269595817578
 31
0.0
  0
ARC
  5
15F7
330
19
100
AcDbEntity
  8
ZUWAKU
100
AcDbCircle
 10
28.18442432311826
 20
40.89999986828869
 30
0.0
 40
5.599999999999999
100
AcDbArc
 50
90.0
 51
180.0
  0
LINE
  5
15F8
330
19
100
AcDbEntity
  8
ZUWAKU
100
AcDbLine
 10
36.23442432311822
 20
45.44999986828869
 30
0.0
 11
36.23442432311822
 21
41.94999986828868
 31
0.0
  0
ARC
  5
15F9
330
19
100
AcDbEntity
  8
ZUWAKU
100
AcDbCircle
 10
49.88442432311831
 20
38.09999986828869
 30
0.0
 40
2.799999999999999
100
AcDbArc
 50
90.0
 51
180.0
  0
ARC
  5
15FA
330
19
100
AcDbEntity
  8
ZUWAKU
100
AcDbCircle
 10
49.88442432311831
 20
38.0999998682886
 30
0.0
 40
8.399999999999998
100
AcDbArc
 50
90.0
 51
180.0
  0
LINE
  5
15FB
330
19
100
AcDbEntity
  8
ZUWAKU
100
AcDbLine
 10
158.6532591095324
 20
59.99999986828868
 30
0.0
 11
158.6532591095329
 21
1.599999868288819
 31
0.0
  0
LINE
  5
15FC
330
19
100
AcDbEntity
  8
ZUWAKU
100
AcDbLine
 10
159.0532591095325
 20
59.99999986828868
 30
0.0
 11
159.0532591095329
 21
1.599999868288819
 31
0.0
  0
LINE
  5
15FD
330
19
100
AcDbEntity
  8
ZUWAKU
100
AcDbLine
 10
158.2532591095327
 20
59.99999986828868
 30
0.0
 11
158.2532591095327
 21
1.599999868288819
 31
0.0
  0
LINE
  5
15FE
330
19
100
AcDbEntity
  8
ZUWAKU
100
AcDbLine
 10
128.2844243231183
 20
19.89999986828868
 30
0.0
 11
128.2844243231183
 21
45.44999986828869
 31
0.0
  0
LINE
  5
15FF
330
19
100
AcDbEntity
  8
ZUWAKU
100
AcDbLine
 10
122.6844243231182
 20
45.44999986828869
 30
0.0
 11
122.6844243231182
 21
21.99999986828868
 31
0.0
  0
LINE
  5
1600
330
19
100
AcDbEntity
  8
ZUWAKU
100
AcDbLine
 10
138.0844243231183
 20
15.34999986828869
 30
0.0
 11
138.0844243231183
 21
45.44999986828869
 31
0.0
  0
LINE
  5
1601
330
19
100
AcDbEntity
  8
ZUWAKU
100
AcDbLine
 10
132.4844243231182
 20
45.44999986828869
 30
0.0
 11
132.4844243231182
 21
15.34999986828869
 31
0.0
  0
ARC
  5
1602
330
19
100
AcDbEntity
  8
ZUWAKU
100
AcDbCircle
 10
99.58442432311835
 20
37.26959581757809
 30
0.0
 40
2.799999999999999
100
AcDbArc
 50
180.0000000000016
 51
224.9999999999988
  0
ARC
  5
1603
330
19
100
AcDbEntity
  8
ZUWAKU
100
AcDbCircle
 10
99.58442432311835
 20
37.26959581757809
 30
0.0
 40
8.399999999999998
100
AcDbArc
 50
180.0
 51
225.0
  0
LINE
  5
1604
330
19
100
AcDbEntity
  8
ZUWAKU
100
AcDbLine
 10
74.62971728747425
 20
38.41009425541554
 30
0.0
 11
72.10021379680256
 21
30.39999986828873
 31
0.0
  0
LINE
  5
1605
330
19
100
AcDbEntity
  8
ZUWAKU
100
AcDbLine
 10
81.38442432311832
 20
45.44999986828869
 30
0.0
 11
81.38442432311832
 21
15.34999986828869
 31
0.0
  0
LINE
  5
1606
330
19
100
AcDbEntity
  8
ZUWAKU
100
AcDbLine
 10
86.98442432311821
 20
15.34999986828869
 30
0.0
 11
86.98442432311821
 21
45.44999986828869
 31
0.0
  0
LINE
  5
1607
330
19
100
AcDbEntity
  8
ZUWAKU
100
AcDbLine
 10
110.0844243231183
 20
45.44999986828869
 30
0.0
 11
110.0844243231183
 21
19.89999986828868
 31
0.0
  0
LINE
  5
1608
330
19
100
AcDbEntity
  8
ZUWAKU
100
AcDbLine
 10
115.6844243231182
 20
21.99999986828868
 30
0.0
 11
115.6844243231182
 21
45.44999986828869
 31
0.0
  0
LINE
  5
1609
330
19
100
AcDbEntity
  8
ZUWAKU
100
AcDbLine
 10
65.2844243231184
 20
34.24999986828869
 30
0.0
 11
65.2844243231184
 21
45.44999986828869
 31
0.0
  0
LINE
  5
160A
330
19
100
AcDbEntity
  8
ZUWAKU
100
AcDbLine
 10
59.68442432311826
 20
45.44999986828869
 30
0.0
 11
59.68442432311826
 21
15.34999986828869
 31
0.0
  0
LINE
  5
160B
330
19
100
AcDbEntity
  8
ZUWAKU
100
AcDbLine
 10
71.35269419774999
 20
45.76618780462263
 30
0.0
 11
67.61615444848644
 21
33.93381193195475
 31
0.0
  0
LINE
  5
160C
330
19
100
AcDbEntity
  8
ZUWAKU
100
AcDbLine
 10
120.5844243231183
 20
19.89999986828868
 30
0.0
 11
117.7844243231183
 21
19.89999986828868
 31
0.0
  0
LINE
  5
160D
330
19
100
AcDbEntity
  8
ZUWAKU
100
AcDbLine
 10
115.6844243231182
 20
14.29999986828869
 30
0.0
 11
122.6844243231182
 21
14.29999986828869
 31
0.0
  0
LINE
  5
160E
330
19
100
AcDbEntity
  8
ZUWAKU
100
AcDbLine
 10
82.43442432311827
 20
14.29999986828869
 30
0.0
 11
85.93442432311826
 21
14.29999986828869
 31
0.0
  0
LINE
  5
160F
330
19
100
AcDbEntity
  8
ZUWAKU
100
AcDbLine
 10
71.35269419774999
 20
15.03381193195474
 30
0.0
 11
67.61615444848644
 21
26.86618780462262
 31
0.0
  0
ARC
  5
1610
330
19
100
AcDbEntity
  8
ZUWAKU
100
AcDbCircle
 10
66.61489265009572
 20
34.24999986828869
 30
0.0
 40
1.049999999999999
100
AcDbArc
 50
270.0
 51
342.4744316262769
  0
LINE
  5
1611
330
19
100
AcDbEntity
  8
ZUWAKU
100
AcDbLine
 10
66.61489265009572
 20
33.19999986828868
 30
0.0
 11
66.33442432311835
 21
33.19999986828868
 31
0.0
  0
LINE
  5
1612
330
19
100
AcDbEntity
  8
ZUWAKU
100
AcDbLine
 10
66.33442432311835
 20
27.59999986828869
 30
0.0
 11
66.61489265009572
 21
27.59999986828869
 31
0.0
  0
ARC
  5
1613
330
19
100
AcDbEntity
  8
ZUWAKU
100
AcDbCircle
 10
66.33442432311835
 20
34.24999986828869
 30
0.0
 40
1.049999999999999
100
AcDbArc
 50
180.0
 51
270.0
  0
LINE
  5
1614
330
19
100
AcDbEntity
  8
ZUWAKU
100
AcDbLine
 10
60.73442432311821
 20
14.29999986828869
 30
0.0
 11
64.23442432311822
 21
14.29999986828869
 31
0.0
  0
ARC
  5
1615
330
19
100
AcDbEntity
  8
ZUWAKU
100
AcDbCircle
 10
64.23442432311822
 20
15.34999986828869
 30
0.0
 40
1.049999999999999
100
AcDbArc
 50
270.0
 51
0.0
  0
LINE
  5
1616
330
19
100
AcDbEntity
  8
ZUWAKU
100
AcDbLine
 10
65.2844243231184
 20
15.34999986828869
 30
0.0
 11
65.2844243231184
 21
26.54999986828869
 31
0.0
  0
LINE
  5
1617
330
19
100
AcDbEntity
  8
ZUWAKU
100
AcDbLine
 10
54.7844243231184
 20
18.84999986828869
 30
0.0
 11
54.7844243231184
 21
15.34999986828869
 31
0.0
  0
ARC
  5
1618
330
19
100
AcDbEntity
  8
ZUWAKU
100
AcDbCircle
 10
53.73442432311822
 20
15.34999986828869
 30
0.0
 40
1.049999999999999
100
AcDbArc
 50
270.0
 51
0.0
  0
ARC
  5
1619
330
19
100
AcDbEntity
  8
ZUWAKU
100
AcDbCircle
 10
53.73442432311822
 20
18.84999986828869
 30
0.0
 40
1.049999999999999
100
AcDbArc
 50
0.0
 51
90.0
  0
ARC
  5
161A
330
19
100
AcDbEntity
  8
ZUWAKU
100
AcDbCircle
 10
60.73442432311821
 20
15.34999986828869
 30
0.0
 40
1.049999999999999
100
AcDbArc
 50
180.0
 51
270.0
  0
ARC
  5
161B
330
19
100
AcDbEntity
  8
ZUWAKU
100
AcDbCircle
 10
66.61489265009572
 20
26.54999986828869
 30
0.0
 40
1.049999999999999
100
AcDbArc
 50
17.52556837372303
 51
90.0
  0
ARC
  5
161C
330
19
100
AcDbEntity
  8
ZUWAKU
100
AcDbCircle
 10
66.33442432311835
 20
26.54999986828869
 30
0.0
 40
1.049999999999999
100
AcDbArc
 50
90.0
 51
180.0
  0
ARC
  5
161D
330
19
100
AcDbEntity
  8
ZUWAKU
100
AcDbCircle
 10
82.43442432311827
 20
15.34999986828869
 30
0.0
 40
1.049999999999999
100
AcDbArc
 50
180.0
 51
270.0
  0
LINE
  5
161E
330
19
100
AcDbEntity
  8
ZUWAKU
100
AcDbLine
 10
72.35395599614093
 20
14.29999986828869
 30
0.0
 11
75.75173475535894
 21
14.29999986828869
 31
0.0
  0
ARC
  5
161F
330
19
100
AcDbEntity
  8
ZUWAKU
100
AcDbCircle
 10
75.75173475535894
 20
15.34999986828869
 30
0.0
 40
1.049999999999999
100
AcDbArc
 50
270.0
 51
17.52556837372303
  0
LINE
  5
1620
330
19
100
AcDbEntity
  8
ZUWAKU
100
AcDbLine
 10
76.75299655374988
 20
15.66618780462263
 30
0.0
 11
72.10021379680256
 21
30.39999986828873
 31
0.0
  0
ARC
  5
1621
330
19
100
AcDbEntity
  8
ZUWAKU
100
AcDbCircle
 10
72.35395599614093
 20
15.34999986828869
 30
0.0
 40
1.049999999999999
100
AcDbArc
 50
197.525568373723
 51
270.0
  0
ARC
  5
1622
330
19
100
AcDbEntity
  8
ZUWAKU
100
AcDbCircle
 10
115.6844243231182
 20
19.89999986828868
 30
0.0
 40
5.599999999999999
100
AcDbArc
 50
180.0
 51
270.0
  0
ARC
  5
1623
330
19
100
AcDbEntity
  8
ZUWAKU
100
AcDbCircle
 10
100.2844243231183
 20
19.89999986828868
 30
0.0
 40
5.599999999999999
100
AcDbArc
 50
270.0
 51
0.0
  0
LINE
  5
1624
330
19
100
AcDbEntity
  8
ZUWAKU
100
AcDbLine
 10
103.4241212850854
 20
29.47010088096634
 30
0.0
 11
97.60452533579588
 21
35.28969683025569
 31
0.0
  0
LINE
  5
1625
330
19
100
AcDbEntity
  8
ZUWAKU
100
AcDbLine
 10
100.2844243231183
 20
20.9499998682887
 30
0.0
 11
100.2844243231183
 21
23.53040391899938
 31
0.0
  0
ARC
  5
1626
330
19
100
AcDbEntity
  8
ZUWAKU
100
AcDbCircle
 10
97.48442432311822
 20
23.53040391899938
 30
0.0
 40
2.799999999999999
100
AcDbArc
 50
0.0
 51
45.0
  0
ARC
  5
1627
330
19
100
AcDbEntity
  8
ZUWAKU
100
AcDbCircle
 10
99.23442432311823
 20
20.9499998682887
 30
0.0
 40
1.049999999999999
100
AcDbArc
 50
270.0
 51
0.0
  0
LINE
  5
1628
330
19
100
AcDbEntity
  8
ZUWAKU
100
AcDbLine
 10
92.23442432311822
 20
15.34999986828869
 30
0.0
 11
92.23442432311822
 21
18.84999986828869
 31
0.0
  0
ARC
  5
1629
330
19
100
AcDbEntity
  8
ZUWAKU
100
AcDbCircle
 10
93.2844243231184
 20
15.34999986828869
 30
0.0
 40
1.049999999999999
100
AcDbArc
 50
180.0
 51
270.0
  0
ARC
  5
162A
330
19
100
AcDbEntity
  8
ZUWAKU
100
AcDbCircle
 10
85.93442432311826
 20
15.34999986828869
 30
0.0
 40
1.049999999999999
100
AcDbArc
 50
270.0
 51
0.0
  0
ARC
  5
162B
330
19
100
AcDbEntity
  8
ZUWAKU
100
AcDbCircle
 10
93.2844243231184
 20
18.84999986828869
 30
0.0
 40
1.049999999999999
100
AcDbArc
 50
90.0
 51
180.0
  0
LINE
  5
162C
330
19
100
AcDbEntity
  8
ZUWAKU
100
AcDbLine
 10
93.2844243231184
 20
19.89999986828868
 30
0.0
 11
99.23442432311823
 21
19.89999986828868
 31
0.0
  0
LINE
  5
162D
330
19
100
AcDbEntity
  8
ZUWAKU
100
AcDbLine
 10
93.2844243231184
 20
14.29999986828869
 30
0.0
 11
100.2844243231183
 21
14.29999986828869
 31
0.0
  0
LINE
  5
162E
330
19
100
AcDbEntity
  8
ZUWAKU
100
AcDbLine
 10
93.64472736115136
 20
31.32989885561105
 30
0.0
 11
99.46432331044071
 21
25.51030290632172
 31
0.0
  0
LINE
  5
162F
330
19
100
AcDbEntity
  8
ZUWAKU
100
AcDbLine
 10
105.8844243231183
 20
19.89999986828868
 30
0.0
 11
105.8844243231183
 21
23.53040391899938
 31
0.0
  0
ARC
  5
1630
330
19
100
AcDbEntity
  8
ZUWAKU
100
AcDbCircle
 10
97.48442432311822
 20
23.53040391899929
 30
0.0
 40
8.399999999999998
100
AcDbArc
 50
0.0
 51
45.0
  0
ARC
  5
1631
330
19
100
AcDbEntity
  8
ZUWAKU
100
AcDbCircle
 10
117.7844243231183
 20
21.99999986828868
 30
0.0
 40
2.099999999999999
100
AcDbArc
 50
180.0
 51
270.0
  0
ARC
  5
1632
330
19
100
AcDbEntity
  8
ZUWAKU
100
AcDbCircle
 10
122.6844243231182
 20
19.89999986828868
 30
0.0
 40
5.599999999999999
100
AcDbArc
 50
270.0
 51
0.0
  0
LINE
  5
1633
330
19
100
AcDbEntity
  8
ZUWAKU
100
AcDbLine
 10
133.5344243231183
 20
14.29999986828869
 30
0.0
 11
137.0344243231184
 21
14.29999986828869
 31
0.0
  0
ARC
  5
1634
330
19
100
AcDbEntity
  8
ZUWAKU
100
AcDbCircle
 10
133.5344243231183
 20
15.34999986828869
 30
0.0
 40
1.049999999999999
100
AcDbArc
 50
180.0
 51
270.0
  0
ARC
  5
1635
330
19
100
AcDbEntity
  8
ZUWAKU
100
AcDbCircle
 10
120.5844243231183
 20
21.99999986828868
 30
0.0
 40
2.099999999999999
100
AcDbArc
 50
270.0
 51
0.0
  0
ARC
  5
1636
330
19
100
AcDbEntity
  8
ZUWAKU
100
AcDbCircle
 10
137.0344243231184
 20
15.34999986828869
 30
0.0
 40
1.049999999999999
100
AcDbArc
 50
270.0
 51
0.0
  0
LINE
  5
1637
330
19
100
AcDbEntity
  8
ZUWAKU
100
AcDbLine
 10
85.93442432311826
 20
46.49999986828869
 30
0.0
 11
82.43442432311827
 21
46.49999986828869
 31
0.0
  0
ARC
  5
1638
330
19
100
AcDbEntity
  8
ZUWAKU
100
AcDbCircle
 10
64.23442432311822
 20
45.44999986828869
 30
0.0
 40
1.049999999999999
100
AcDbArc
 50
0.0
 51
90.0
  0
LINE
  5
1639
330
19
100
AcDbEntity
  8
ZUWAKU
100
AcDbLine
 10
64.23442432311822
 20
46.49999986828869
 30
0.0
 11
60.73442432311821
 21
46.49999986828869
 31
0.0
  0
ARC
  5
163A
330
19
100
AcDbEntity
  8
ZUWAKU
100
AcDbCircle
 10
53.73442432311822
 20
45.44999986828869
 30
0.0
 40
1.049999999999999
100
AcDbArc
 50
0.0
 51
90.0
  0
ARC
  5
163B
330
19
100
AcDbEntity
  8
ZUWAKU
100
AcDbCircle
 10
60.73442432311821
 20
45.44999986828869
 30
0.0
 40
1.049999999999999
100
AcDbArc
 50
90.0
 51
180.0
  0
ARC
  5
163C
330
19
100
AcDbEntity
  8
ZUWAKU
100
AcDbCircle
 10
53.73442432311822
 20
41.94999986828868
 30
0.0
 40
1.049999999999999
100
AcDbArc
 50
270.0
 51
0.0
  0
LINE
  5
163D
330
19
100
AcDbEntity
  8
ZUWAKU
100
AcDbLine
 10
54.7844243231184
 20
45.44999986828869
 30
0.0
 11
54.7844243231184
 21
41.94999986828868
 31
0.0
  0
ARC
  5
163E
330
19
100
AcDbEntity
  8
ZUWAKU
100
AcDbCircle
 10
82.43442432311827
 20
45.44999986828869
 30
0.0
 40
1.049999999999999
100
AcDbArc
 50
90.0
 51
180.0
  0
LINE
  5
163F
330
19
100
AcDbEntity
  8
ZUWAKU
100
AcDbLine
 10
72.35395599614093
 20
46.49999986828869
 30
0.0
 11
75.75173475535894
 21
46.49999986828869
 31
0.0
  0
ARC
  5
1640
330
19
100
AcDbEntity
  8
ZUWAKU
100
AcDbCircle
 10
75.75173475535894
 20
45.44999986828869
 30
0.0
 40
1.049999999999999
100
AcDbArc
 50
342.4744316262769
 51
90.0
  0
LINE
  5
1641
330
19
100
AcDbEntity
  8
ZUWAKU
100
AcDbLine
 10
76.75299655374988
 20
45.13381193195475
 30
0.0
 11
74.62971728747425
 21
38.41009425541554
 31
0.0
  0
ARC
  5
1642
330
19
100
AcDbEntity
  8
ZUWAKU
100
AcDbCircle
 10
72.35395599614093
 20
45.44999986828869
 30
0.0
 40
1.049999999999999
100
AcDbArc
 50
90.0
 51
162.4744316262769
  0
LINE
  5
1643
330
19
100
AcDbEntity
  8
ZUWAKU
100
AcDbLine
 10
96.7844243231184
 20
46.49999986828869
 30
0.0
 11
103.7844243231184
 21
46.49999986828869
 31
0.0
  0
LINE
  5
1644
330
19
100
AcDbEntity
  8
ZUWAKU
100
AcDbLine
 10
103.7844243231184
 20
40.89999986828869
 30
0.0
 11
97.83442432311836
 21
40.89999986828869
 31
0.0
  0
ARC
  5
1645
330
19
100
AcDbEntity
  8
ZUWAKU
100
AcDbCircle
 10
97.83442432311836
 20
39.84999986828869
 30
0.0
 40
1.049999999999999
100
AcDbArc
 50
90.0
 51
180.0
  0
LINE
  5
1646
330
19
100
AcDbEntity
  8
ZUWAKU
100
AcDbLine
 10
96.7844243231184
 20
39.84999986828869
 30
0.0
 11
96.7844243231184
 21
37.269595817578
 31
0.0
  0
ARC
  5
1647
330
19
100
AcDbEntity
  8
ZUWAKU
100
AcDbCircle
 10
85.93442432311826
 20
45.44999986828869
 30
0.0
 40
1.049999999999999
100
AcDbArc
 50
0.0
 51
90.0
  0
LINE
  5
1648
330
19
100
AcDbEntity
  8
ZUWAKU
100
AcDbLine
 10
91.18442432311827
 20
40.89999986828869
 30
0.0
 11
91.18442432311827
 21
37.269595817578
 31
0.0
  0
ARC
  5
1649
330
19
100
AcDbEntity
  8
ZUWAKU
100
AcDbCircle
 10
96.7844243231184
 20
40.89999986828869
 30
0.0
 40
5.599999999999999
100
AcDbArc
 50
90.0
 51
180.0
  0
ARC
  5
164A
330
19
100
AcDbEntity
  8
ZUWAKU
100
AcDbCircle
 10
114.6344243231183
 20
45.44999986828869
 30
0.0
 40
1.049999999999999
100
AcDbArc
 50
0.0
 51
90.0
  0
ARC
  5
164B
330
19
100
AcDbEntity
  8
ZUWAKU
100
AcDbCircle
 10
111.1344243231183
 20
45.44999986828869
 30
0.0
 40
1.049999999999999
100
AcDbArc
 50
90.0
 51
180.0
  0
LINE
  5
164C
330
19
100
AcDbEntity
  8
ZUWAKU
100
AcDbLine
 10
114.6344243231183
 20
46.49999986828869
 30
0.0
 11
111.1344243231183
 21
46.49999986828869
 31
0.0
  0
ARC
  5
164D
330
19
100
AcDbEntity
  8
ZUWAKU
100
AcDbCircle
 10
103.7844243231184
 20
45.44999986828869
 30
0.0
 40
1.049999999999999
100
AcDbArc
 50
0.0
 51
90.0
  0
ARC
  5
164E
330
19
100
AcDbEntity
  8
ZUWAKU
100
AcDbCircle
 10
103.7844243231184
 20
41.94999986828868
 30
0.0
 40
1.049999999999999
100
AcDbArc
 50
270.0
 51
0.0
  0
LINE
  5
164F
330
19
100
AcDbEntity
  8
ZUWAKU
100
AcDbLine
 10
104.8344243231183
 20
45.44999986828869
 30
0.0
 11
104.8344243231183
 21
41.94999986828868
 31
0.0
  0
LINE
  5
1650
330
19
100
AcDbEntity
  8
ZUWAKU
100
AcDbLine
 10
137.0344243231184
 20
46.49999986828869
 30
0.0
 11
133.5344243231183
 21
46.49999986828869
 31
0.0
  0
ARC
  5
1651
330
19
100
AcDbEntity
  8
ZUWAKU
100
AcDbCircle
 10
133.5344243231183
 20
45.44999986828869
 30
0.0
 40
1.049999999999999
100
AcDbArc
 50
90.0
 51
180.0
  0
ARC
  5
1652
330
19
100
AcDbEntity
  8
ZUWAKU
100
AcDbCircle
 10
127.2344243231182
 20
45.44999986828869
 30
0.0
 40
1.049999999999999
100
AcDbArc
 50
0.0
 51
90.0
  0
LINE
  5
1653
330
19
100
AcDbEntity
  8
ZUWAKU
100
AcDbLine
 10
127.2344243231182
 20
46.49999986828869
 30
0.0
 11
123.7344243231182
 21
46.49999986828869
 31
0.0
  0
ARC
  5
1654
330
19
100
AcDbEntity
  8
ZUWAKU
100
AcDbCircle
 10
123.7344243231182
 20
45.44999986828869
 30
0.0
 40
1.049999999999999
100
AcDbArc
 50
90.0
 51
180.0
  0
ARC
  5
1655
330
19
100
AcDbEntity
  8
ZUWAKU
100
AcDbCircle
 10
137.0344243231184
 20
45.44999986828869
 30
0.0
 40
1.049999999999999
100
AcDbArc
 50
0.0
 51
90.0
  0
TEXT
  5
1656
330
19
100
AcDbEntity
  8
moji
100
AcDbText
 10
479.6544053752581
 20
36.00984198310345
 30
0.0
 40
11.19999999999999
  1
曲り（入）
 41
0.9
  7
ｽﾀｲﾙ1
100
AcDbText
  0
TEXT
  5
1657
330
19
100
AcDbEntity
  8
moji
100
AcDbText
 10
479.6544053752581
 20
6.409841983103525
 30
0.0
 40
11.19999999999999
  1
Ｖ３００
 41
0.9
  7
ｽﾀｲﾙ1
100
AcDbText
  0
LINE
  5
1658
330
19
100
AcDbEntity
  8
ZUWAKU
100
AcDbLine
 10
416.4932025936918
 20
59.99999986828868
 30
0.0
 11
416.4932025936918
 21
1.599999868288819
 31
0.0
  0
LINE
  5
1659
330
19
100
AcDbEntity
  8
ZUWAKU
100
AcDbLine
 10
417.2932025936916
 20
59.99999986828868
 30
0.0
 11
417.293202593692
 21
1.599999868288819
 31
0.0
  0
LINE
  5
165A
330
19
100
AcDbEntity
  8
ZUWAKU
100
AcDbLine
 10
416.8932025936915
 20
59.99999986828868
 30
0.0
 11
416.893202593692
 21
1.599999868288819
 31
0.0
  0
TEXT
  5
165B
330
19
100
AcDbEntity
  8
ZUWAKU
100
AcDbText
 10
419.448092638111
 20
19.31071294505992
 30
0.0
 40
8.0
  1
サイズ
 41
0.9
  7
ｽﾀｲﾙ1
100
AcDbText
  0
TEXT
  5
165C
330
19
100
AcDbEntity
  8
ZUWAKU
100
AcDbText
 10
419.4480926381106
 20
48.11071294505985
 30
0.0
 40
8.0
  1
品名
 41
0.9
  7
ｽﾀｲﾙ1
100
AcDbText
  0
LINE
  5
165D
330
19
100
AcDbEntity
  8
ZUWAKU
100
AcDbLine
 10
1297.634405033964
 20
30.39999986828874
 30
0.0
 11
1394.498021110638
 21
30.39999986828875
 31
0.0
  0
LINE
  5
165E
330
19
100
AcDbEntity
  8
ZUWAKU
100
AcDbLine
 10
1297.634405033964
 20
30.79999986828875
 30
0.0
 11
1394.498021110638
 21
30.79999986828875
 31
0.0
  0
LINE
  5
165F
330
19
100
AcDbEntity
  8
ZUWAKU
100
AcDbLine
 10
1297.634405033964
 20
31.19999986828875
 30
0.0
 11
1394.498021110638
 21
31.19999986828875
 31
0.0
  0
TEXT
  5
1660
330
19
100
AcDbEntity
  8
ZUWAKU
100
AcDbText
 10
1316.40787538816
 20
36.00984198310345
 30
0.0
 40
11.19999999999999
  1
　　．　　．　　
 41
0.9
  7
ｽﾀｲﾙ1
100
AcDbText
  0
LINE
  5
1661
330
19
100
AcDbEntity
  8
ZUWAKU
100
AcDbLine
 10
1010.398359009837
 20
30.39999986828876
 30
0.0
 11
1105.05391154578
 21
30.39999986828876
 31
0.0
  0
LINE
  5
1662
330
19
100
AcDbEntity
  8
ZUWAKU
100
AcDbLine
 10
1010.398359009837
 20
30.79999986828875
 30
0.0
 11
1105.05391154578
 21
30.79999986828875
 31
0.0
  0
LINE
  5
1663
330
19
100
AcDbEntity
  8
ZUWAKU
100
AcDbLine
 10
1010.398359009837
 20
31.19999986828875
 30
0.0
 11
1105.05391154578
 21
31.19999986828875
 31
0.0
  0
TEXT
  5
1664
330
19
100
AcDbEntity
  8
moji
100
AcDbText
 10
926.49286399556
 20
23.88523531160865
 30
0.0
 40
11.19999999999999
  1
ＧＨ７７
 41
0.9
  7
ｽﾀｲﾙ1
100
AcDbText
  0
LINE
  5
1665
330
19
100
AcDbEntity
  8
ZUWAKU
100
AcDbLine
 10
895.2487279555384
 20
59.99999986828868
 30
0.0
 11
895.248727955539
 21
1.599999868288819
 31
0.0
  0
LINE
  5
1666
330
19
100
AcDbEntity
  8
ZUWAKU
100
AcDbLine
 10
895.6487279555386
 20
59.99999986828868
 30
0.0
 11
895.6487279555389
 21
1.599999868288819
 31
0.0
  0
LINE
  5
1667
330
19
100
AcDbEntity
  8
ZUWAKU
100
AcDbLine
 10
894.8487279555388
 20
59.99999986828868
 30
0.0
 11
894.8487279555388
 21
1.599999868288819
 31
0.0
  0
TEXT
  5
1668
330
19
100
AcDbEntity
  8
moji
100
AcDbText
 10
1056.081815958181
 20
36.00984198310345
 30
0.0
 40
11.19999999999999
  1
Ａ３
 41
0.9
  7
ｽﾀｲﾙ1
100
AcDbText
  0
LINE
  5
1669
330
19
100
AcDbEntity
  8
ZUWAKU
100
AcDbLine
 10
1009.998359009837
 20
59.99999986828868
 30
0.0
 11
1009.998359009838
 21
1.599999868288819
 31
0.0
  0
LINE
  5
166A
330
19
100
AcDbEntity
  8
ZUWAKU
100
AcDbLine
 10
1010.398359009837
 20
59.99999986828868
 30
0.0
 11
1010.398359009838
 21
1.599999868288819
 31
0.0
  0
LINE
  5
166B
330
19
100
AcDbEntity
  8
ZUWAKU
100
AcDbLine
 10
1009.598359009838
 20
59.99999986828868
 30
0.0
 11
1009.598359009838
 21
1.599999868288819
 31
0.0
  0
TEXT
  5
166D
330
19
100
AcDbEntity
  8
ZUWAKU
100
AcDbText
 10
1013.353249054257
 20
19.31071294505992
 30
0.0
 40
8.0
  1
縮尺
 41
0.9
  7
ｽﾀｲﾙ1
100
AcDbText
  0
TEXT
  5
166E
330
19
100
AcDbEntity
  8
moji
100
AcDbText
 10
1056.081815958181
 20
6.409841983103525
 30
0.0
 40
11.19999999999999
  1
１/４
 41
0.9
  7
ｽﾀｲﾙ1
100
AcDbText
  0
TEXT
  5
166F
330
19
100
AcDbEntity
  8
ZUWAKU
100
AcDbText
 10
898.6036179999578
 20
48.11071294505985
 30
0.0
 40
8.0
  1
品番
 41
0.9
  7
ｽﾀｲﾙ1
100
AcDbText
  0
TEXT
  5
1670
330
19
100
AcDbEntity
  8
ZUWAKU
100
AcDbText
 10
1013.353249054257
 20
48.11071294505985
 30
0.0
 40
8.0
  1
用紙
 41
0.9
  7
ｽﾀｲﾙ1
100
AcDbText
  0
LINE
  5
1671
330
19
100
AcDbEntity
  8
ZUWAKU
100
AcDbLine
 10
1297.234405033965
 20
59.99999986828868
 30
0.0
 11
1297.234405033965
 21
1.599999868288819
 31
0.0
  0
LINE
  5
1672
330
19
100
AcDbEntity
  8
ZUWAKU
100
AcDbLine
 10
1297.634405033964
 20
59.99999986828868
 30
0.0
 11
1297.634405033965
 21
1.599999868288819
 31
0.0
  0
LINE
  5
1673
330
19
100
AcDbEntity
  8
ZUWAKU
100
AcDbLine
 10
1296.834405033965
 20
59.99999986828868
 30
0.0
 11
1296.834405033965
 21
1.599999868288819
 31
0.0
  0
LINE
  5
1674
330
19
100
AcDbEntity
  8
ZUWAKU
100
AcDbLine
 10
1105.45391154578
 20
59.99999986828868
 30
0.0
 11
1105.453911545781
 21
1.599999868288819
 31
0.0
  0
LINE
  5
1675
330
19
100
AcDbEntity
  8
ZUWAKU
100
AcDbLine
 10
1105.85391154578
 20
59.99999986828868
 30
0.0
 11
1105.853911545781
 21
1.599999868288819
 31
0.0
  0
LINE
  5
1676
330
19
100
AcDbEntity
  8
ZUWAKU
100
AcDbLine
 10
1105.05391154578
 20
59.99999986828868
 30
0.0
 11
1105.05391154578
 21
1.599999868288819
 31
0.0
  0
TEXT
  5
1677
330
19
100
AcDbEntity
  8
ZUWAKU
100
AcDbText
 10
1300.589295078384
 20
48.11071294505985
 30
0.0
 40
8.0
  1
DATE
 41
0.9
  7
ｽﾀｲﾙ1
100
AcDbText
  0
LINE
  5
1678
330
19
100
AcDbEntity
  8
ZUWAKU
100
AcDbLine
 10
1394.498021110638
 20
59.99999986828868
 30
0.0
 11
1394.498021110638
 21
1.599999868288819
 31
0.0
  0
LINE
  5
1679
330
19
100
AcDbEntity
  8
ZUWAKU
100
AcDbLine
 10
1394.898021110638
 20
59.99999986828868
 30
0.0
 11
1394.898021110638
 21
1.599999868288819
 31
0.0
  0
LINE
  5
167A
330
19
100
AcDbEntity
  8
ZUWAKU
100
AcDbLine
 10
1395.298021110638
 20
59.99999986828868
 30
0.0
 11
1395.298021110638
 21
1.599999868288819
 31
0.0
  0
LINE
  5
167B
330
19
100
AcDbEntity
  8
ZUWAKU
100
AcDbLine
 10
1395.698021110638
 20
59.99999986828868
 30
0.0
 11
1395.698021110638
 21
1.599999868288819
 31
0.0
  0
TEXT
  5
167C
330
19
100
AcDbEntity
  8
ZUWAKU
100
AcDbText
 10
1417.056168398043
 20
35.10767853966228
 30
0.0
 40
12.0
  1
積水化学工業株式会社
 41
0.9
  7
ｽﾀｲﾙ1
100
AcDbText
  0
TEXT
  5
167D
330
19
100
AcDbEntity
  8
ZUWAKU
100
AcDbText
 10
1417.056168398043
 20
13.29768049599681
 30
0.0
 40
12.0
  1
建材事業部
 41
0.9
  7
ｽﾀｲﾙ1
100
AcDbText
  0
LINE
  5
225C
330
19
100
AcDbEntity
  8
NOKITOI
 48
5.0
100
AcDbLine
 10
918.2288270863343
 20
303.8352806991828
 30
0.0
 11
773.1892095303999
 21
303.8352806991828
 31
0.0
  0
LINE
  5
225D
330
19
100
AcDbEntity
  8
NOKITOI
 48
5.0
100
AcDbLine
 10
772.0372257733509
 20
302.9352806991827
 30
0.0
 11
919.3800257733508
 21
302.9352806991827
 31
0.0
  0
LINE
  5
225E
330
19
100
AcDbEntity
  8
NOKITOI
 48
5.0
100
AcDbLine
 10
918.2288270863343
 20
304.7352806991828
 30
0.0
 11
773.1892095303999
 21
304.7352806991828
 31
0.0
  0
LINE
  5
225F
330
19
100
AcDbEntity
  8
SEIHIN
  6
Continuous
 62
     3
100
AcDbLine
 10
758.8759257733511
 20
401.4353106991827
 30
0.0
 11
943.6088257733507
 21
401.4353106991827
 31
0.0
  0
LINE
  5
2260
330
19
100
AcDbEntity
  8
SEIHIN
  6
Continuous
 62
     3
100
AcDbLine
 10
924.832925773351
 20
425.4353106991827
 30
0.0
 11
755.9929257733508
 21
425.4353106991827
 31
0.0
  0
LINE
  5
2261
330
19
100
AcDbEntity
  8
SEIHIN
  6
Continuous
 62
     3
100
AcDbLine
 10
946.6086257733511
 20
639.9129106991827
 30
0.0
 11
741.208725773351
 21
639.9129106991827
 31
0.0
  0
LINE
  5
2262
330
19
100
AcDbEntity
  8
SEIHIN
  6
Continuous
 62
     3
100
AcDbLine
 10
727.2083257733509
 20
906.8131106991826
 30
0.0
 11
942.6088257733507
 21
906.8133106991828
 31
0.0
  0
LINE
  5
2263
330
19
100
AcDbEntity
  8
SEIHIN
  6
Continuous
 62
     3
100
AcDbLine
 10
677.7083257733509
 20
908.8130106991828
 30
0.0
 11
946.6086257733511
 21
908.8130106991828
 31
0.0
  0
LINE
  5
2264
330
19
100
AcDbEntity
  8
SEIHIN
  6
Continuous
 62
     3
100
AcDbLine
 10
726.2083257733511
 20
894.4280106991827
 30
0.0
 11
930.2233257733508
 21
894.4280106991827
 31
0.0
  0
LINE
  5
2265
330
19
100
AcDbEntity
  8
SEIHIN
  6
Continuous
 62
     3
100
AcDbLine
 10
677.7084257733508
 20
883.0714106991825
 30
0.0
 11
918.8668257733509
 21
883.0714106991825
 31
0.0
  0
LINE
  5
2266
330
19
100
AcDbEntity
  8
SEIHIN
  6
Continuous
 62
     3
100
AcDbLine
 10
682.7084257733509
 20
300.9352806991827
 30
0.0
 11
845.7084257733511
 21
300.9352806991827
 31
0.0
  0
LINE
  5
2267
330
19
100
AcDbEntity
  8
SEIHIN
  6
Continuous
 62
     3
100
AcDbLine
 10
772.0391257733511
 20
302.9352806991827
 30
0.0
 11
845.7084257733511
 21
302.9352806991827
 31
0.0
  0
LINE
  5
2268
330
19
100
AcDbEntity
  8
CENTER L
  6
CENTER
 62
     1
 48
3.5
100
AcDbLine
 10
649.7083748971602
 20
807.9127973663775
 30
0.0
 11
855.3520257733506
 21
807.9130106991826
 31
0.0
  0
LINE
  5
2269
330
19
100
AcDbEntity
  8
CENTER L
  6
CENTER
 62
     1
 48
3.5
100
AcDbLine
 10
954.4692182840929
 20
916.6737932057438
 30
0.0
 11
733.061922272265
 21
695.2664971939163
 31
0.0
  0
LINE
  5
226A
330
19
100
AcDbEntity
  8
SUNPOU
  6
PHANTOM
 48
5.0
100
AcDbLine
 10
741.208725773351
 20
705.4132106991827
 30
0.0
 11
946.6086014147597
 21
705.4132106991826
 31
0.0
  0
DIMENSION
  5
226B
330
19
100
AcDbEntity
  8
SUNPOU
  6
Continuous
100
AcDbDimension
  2
*D1
 10
741.208725773351
 20
494.5532225521706
 30
0.0
 11
843.9087757733508
 21
504.5532225521705
 31
0.0
 70
    32
 71
     5
 42
-1.0
  3
STANDARD
100
AcDbAlignedDimension
 13
946.6088257733506
 23
424.4353106991826
 33
0.0
 14
741.208725773351
 24
454.4353106991827
 34
0.0
100
AcDbRotatedDimension
1001
ACAD
1000
DSTYLE
1002
{
1070
   140
1040
12.0
1070
    74
1070
     0
1070
   172
1070
     1
1070
    73
1070
     0
1070
   272
1070
     2
1070
    77
1070
     3
1070
   173
1070
     1
1070
   147
1040
4.0
1070
    42
1040
12.0
1070
    44
1040
6.0
1070
    43
1040
28.0
1070
   271
1070
     0
1070
   178
1070
     4
1070
   177
1070
     4
1070
   176
1070
     4
1070
   141
1040
150.0
1070
     7
1000
_OPEN
1070
     6
1000
_OPEN
1070
    41
1040
14.0
1070
   143
1040
0.03937
1002
}
  0
DIMENSION
  5
226C
330
19
100
AcDbEntity
  8
SUNPOU
  6
Continuous
100
AcDbDimension
  2
*D2
 10
677.7084257733508
 20
520.8393992002643
 30
0.0
 11
812.1586257733508
 21
530.8393992002643
 31
0.0
 70
    32
 71
     5
 42
-1.0
  3
STANDARD
100
AcDbAlignedDimension
 13
946.6088257733506
 23
424.4353106991826
 33
0.0
 14
677.7084257733508
 24
458.7337106991826
 34
0.0
100
AcDbRotatedDimension
1001
ACAD
1000
DSTYLE
1002
{
1070
   140
1040
12.0
1070
    74
1070
     0
1070
   172
1070
     1
1070
    73
1070
     0
1070
   272
1070
     2
1070
    77
1070
     3
1070
   173
1070
     1
1070
   147
1040
4.0
1070
    42
1040
12.0
1070
    44
1040
6.0
1070
    43
1040
28.0
1070
   271
1070
     0
1070
   178
1070
     4
1070
   177
1070
     4
1070
   176
1070
     4
1070
   141
1040
150.0
1070
     7
1000
_OPEN
1070
     6
1000
_OPEN
1070
    41
1040
14.0
1070
   143
1040
0.03937
1002
}
  0
DIMENSION
  5
226D
330
19
100
AcDbEntity
  8
SUNPOU
  6
Continuous
100
AcDbDimension
  2
*D3
 10
768.9343245842126
 20
250.782845401985
 30
0.0
 11
845.7084757842933
 21
260.782845401985
 31
0.0
 70
    32
 71
     5
 42
-1.0
  3
STANDARD
100
AcDbAlignedDimension
 13
922.482626984374
 23
300.9352806991827
 33
0.0
 14
768.9343245842126
 24
300.9352806991827
 34
0.0
100
AcDbRotatedDimension
1001
ACAD
1000
DSTYLE
1002
{
1070
   140
1040
12.0
1070
    74
1070
     0
1070
   172
1070
     1
1070
    73
1070
     0
1070
   272
1070
     2
1070
    77
1070
     3
1070
   173
1070
     1
1070
   147
1040
4.0
1070
    42
1040
12.0
1070
    44
1040
6.0
1070
    43
1040
28.0
1070
   271
1070
     0
1070
   178
1070
     4
1070
   177
1070
     4
1070
   176
1070
     4
1070
   141
1040
150.0
1070
     7
1000
_OPEN
1070
     6
1000
_OPEN
1070
    41
1040
14.0
1070
   143
1040
0.03937
1002
}
  0
LINE
  5
226E
330
19
100
AcDbEntity
  8
SEIHIN
  6
Continuous
 62
     3
100
AcDbLine
 10
763.708725773351
 20
639.9128106991828
 30
0.0
 11
763.708725773351
 21
688.4128106991827
 31
0.0
  0
LINE
  5
226F
330
19
100
AcDbEntity
  8
SEIHIN
  6
Continuous
 62
     3
100
AcDbLine
 10
761.7999257733508
 20
639.9128106991828
 30
0.0
 11
761.7999257733508
 21
687.4128106991827
 31
0.0
  0
LINE
  5
2270
330
19
100
AcDbEntity
  8
SEIHIN
  6
Continuous
 62
     3
100
AcDbLine
 10
760.4215257733508
 20
639.9128106991828
 30
0.0
 11
760.4215257733508
 21
687.4128106991827
 31
0.0
  0
LINE
  5
2271
330
19
100
AcDbEntity
  8
SEIHIN
  6
Continuous
 62
     3
100
AcDbLine
 10
741.2086257733508
 20
639.9128106991828
 30
0.0
 11
741.2086257733508
 21
698.4131106991827
 31
0.0
  0
LINE
  5
2272
330
19
100
AcDbEntity
  8
SEIHIN
  6
Continuous
 62
     3
100
AcDbLine
 10
770.5496257733509
 20
639.9128106991828
 30
0.0
 11
770.549525773351
 21
730.7540106991825
 31
0.0
  0
DIMENSION
  5
2273
330
19
100
AcDbEntity
  8
SUNPOU
  6
Continuous
100
AcDbDimension
  2
*D4
 10
590.6887708177974
 20
639.9129106991827
 30
0.0
 11
580.6887708177972
 21
774.3629606991828
 31
0.0
 70
    32
 71
     5
 42
-1.0
  3
STANDARD
100
AcDbAlignedDimension
 13
677.7083257733509
 23
908.8130106991828
 33
0.0
 14
741.208725773351
 24
639.9129106991827
 34
0.0
 50
90.0
100
AcDbRotatedDimension
1001
ACAD
1000
DSTYLE
1002
{
1070
   140
1040
12.0
1070
    74
1070
     0
1070
   172
1070
     1
1070
    73
1070
     0
1070
   272
1070
     2
1070
    77
1070
     3
1070
   173
1070
     1
1070
   147
1040
4.0
1070
    42
1040
12.0
1070
    44
1040
6.0
1070
    43
1040
28.0
1070
   271
1070
     0
1070
   178
1070
     4
1070
   177
1070
     4
1070
   176
1070
     4
1070
   141
1040
150.0
1070
     7
1000
_OPEN
1070
     6
1000
_OPEN
1070
    41
1040
14.0
1070
   143
1040
0.03937
1002
}
  0
DIMENSION
  5
2274
330
19
100
AcDbEntity
  8
SUNPOU
  6
Continuous
100
AcDbDimension
  2
*D5
 10
705.775270329721
 20
639.9129106991827
 30
0.0
 11
695.7752703297209
 21
663.6629106991827
 31
0.0
 70
    32
 71
     5
 42
-1.0
  3
STANDARD
100
AcDbAlignedDimension
 13
745.208725773351
 23
687.4129106991826
 33
0.0
 14
741.208725773351
 24
639.9129106991827
 34
0.0
 50
90.0
100
AcDbRotatedDimension
1001
ACAD
1000
DSTYLE
1002
{
1070
   140
1040
12.0
1070
    74
1070
     0
1070
   172
1070
     1
1070
    73
1070
     0
1070
   272
1070
     2
1070
    77
1070
     3
1070
   173
1070
     1
1070
   147
1040
4.0
1070
    42
1040
12.0
1070
    44
1040
6.0
1070
    43
1040
28.0
1070
   271
1070
     0
1070
   178
1070
     4
1070
   177
1070
     4
1070
   176
1070
     4
1070
   141
1040
150.0
1070
     7
1000
_OPEN
1070
     6
1000
_OPEN
1070
    41
1040
14.0
1070
   143
1040
0.03937
1002
}
  0
DIMENSION
  5
2279
330
19
100
AcDbEntity
  8
SUNPOU
  6
Continuous
100
AcDbDimension
  2
*D6
 10
633.57733011866
 20
430.9353106991828
 30
0.0
 11
623.5773301186599
 21
388.9353106991828
 31
0.0
 70
    32
 71
     5
 42
-1.0
  3
STANDARD
100
AcDbAlignedDimension
 13
677.7084257733508
 23
455.4353106991827
 33
0.0
 14
677.7084257733508
 24
430.9353106991827
 34
0.0
 50
90.0
100
AcDbRotatedDimension
1001
ACAD
1000
DSTYLE
1002
{
1070
   140
1040
12.0
1070
    74
1070
     0
1070
   172
1070
     1
1070
    73
1070
     0
1070
   272
1070
     2
1070
    77
1070
     3
1070
   173
1070
     1
1070
   147
1040
4.0
1070
    42
1040
12.0
1070
    44
1040
6.0
1070
    43
1040
28.0
1070
   271
1070
     0
1070
   178
1070
     4
1070
   177
1070
     4
1070
   176
1070
     4
1070
   141
1040
150.0
1070
     7
1000
_OPEN
1070
     6
1000
_OPEN
1070
    41
1040
14.0
1070
   143
1040
0.03937
1002
}
  0
DIMENSION
  5
227A
330
19
100
AcDbEntity
  8
SUNPOU
  6
Continuous
100
AcDbDimension
  2
*D7
 10
602.5076441282871
 20
300.9352806991827
 30
0.0
 11
592.5076441282871
 21
378.1852956991828
 31
0.0
 70
    32
 71
     5
 42
-1.0
  3
STANDARD
100
AcDbAlignedDimension
 13
677.7084257733508
 23
455.4353106991827
 33
0.0
 14
682.7084257733509
 24
300.9352806991827
 34
0.0
 50
90.0
100
AcDbRotatedDimension
1001
ACAD
1000
DSTYLE
1002
{
1070
   140
1040
12.0
1070
    74
1070
     0
1070
   172
1070
     1
1070
    73
1070
     0
1070
   272
1070
     2
1070
    77
1070
     3
1070
   173
1070
     1
1070
   147
1040
4.0
1070
    42
1040
12.0
1070
    44
1040
6.0
1070
    43
1040
28.0
1070
   271
1070
     0
1070
   178
1070
     4
1070
   177
1070
     4
1070
   176
1070
     4
1070
   141
1040
150.0
1070
     7
1000
_OPEN
1070
     6
1000
_OPEN
1070
    41
1040
14.0
1070
   143
1040
0.03937
1002
}
  0
LINE
  5
227B
330
19
100
AcDbEntity
  8
NOKITOI
 48
5.0
100
AcDbLine
 10
755.3985348937337
 20
436.4354806991827
 30
0.0
 11
771.3030744665377
 21
305.5061638711903
 31
0.0
  0
LINE
  5
227C
330
19
100
AcDbEntity
  8
NOKITOI
 48
5.0
100
AcDbLine
 10
754.6740257733506
 20
434.9354806991827
 30
0.0
 11
770.5482257733508
 21
304.2544806991827
 31
0.0
  0
LINE
  5
227D
330
19
100
AcDbEntity
  8
NOKITOI
 48
5.0
100
AcDbLine
 10
754.3008257733506
 20
452.9354806991827
 30
0.0
 11
772.1965068652096
 21
305.6146928949762
 31
0.0
  0
LINE
  5
227E
330
19
100
AcDbEntity
  8
SEIHIN
  6
Continuous
 62
     3
100
AcDbLine
 10
770.5497257733509
 20
304.2563706991827
 30
0.0
 11
755.4093257733509
 21
430.2931106991827
 31
0.0
  0
LINE
  5
227F
330
19
100
AcDbEntity
  8
SEIHIN
  6
Continuous
 62
     3
100
AcDbLine
 10
753.423625773351
 20
430.0545106991827
 30
0.0
 11
768.7227257733509
 21
302.6967406991827
 31
0.0
  0
LINE
  5
2280
330
19
100
AcDbEntity
  8
SEIHIN
  6
Continuous
 62
     3
100
AcDbLine
 10
677.7084257733508
 20
301.9352806991827
 30
0.0
 11
677.7084257733508
 21
458.7337106991826
 31
0.0
  0
LINE
  5
2281
330
19
100
AcDbEntity
  8
SEIHIN
  6
Continuous
 62
     3
100
AcDbLine
 10
682.708725773351
 20
430.9352106991828
 30
0.0
 11
682.7088257733508
 21
300.9352806991827
 31
0.0
  0
LINE
  5
2282
330
19
100
AcDbEntity
  8
SEIHIN
  6
Continuous
 62
     3
100
AcDbLine
 10
682.7084257733509
 20
300.9352806991827
 30
0.0
 11
677.7084257733508
 21
301.9352806991827
 31
0.0
  0
ARC
  5
2283
330
19
100
AcDbEntity
  8
NOKITOI
 48
5.0
100
AcDbCircle
 10
773.1892095303999
 20
305.7352806991827
 30
0.0
 40
1.9
100
AcDbArc
 50
186.9260276328728
 51
270.0
  0
ARC
  5
2284
330
19
100
AcDbEntity
  8
NOKITOI
 48
5.0
100
AcDbCircle
 10
773.1892095303999
 20
305.7352806991827
 30
0.0
 40
1.0
100
AcDbArc
 50
186.9260276328728
 51
270.0
  0
ARC
  5
2285
330
19
100
AcDbEntity
  8
NOKITOI
 48
5.0
100
AcDbCircle
 10
772.0372615861754
 20
304.4352489718448
 30
0.0
 40
1.499968273089708
100
AcDbArc
 50
186.9218100777322
 51
269.9986320219204
  0
ARC
  5
2286
330
19
100
AcDbEntity
  8
SEIHIN
  6
Continuous
 62
     3
100
AcDbCircle
 10
772.0391213997174
 20
304.4352845788562
 30
0.0
 40
1.50000387967979
100
AcDbArc
 50
186.8502979043718
 51
270.0001670600634
  0
ARC
  5
2287
330
19
100
AcDbEntity
  8
SEIHIN
  6
Continuous
 62
     3
100
AcDbCircle
 10
770.7084390445611
 20
302.9352689268134
 30
0.0
 40
1.999988227674712
100
AcDbArc
 50
186.8496749234741
 51
269.9996198055906
  0
ARC
  5
2288
330
19
100
AcDbEntity
  8
SEIHIN
  6
Continuous
 62
     3
100
AcDbCircle
 10
742.208725773351
 20
454.4353106991827
 30
0.0
 40
1.0
100
AcDbArc
 50
90.0
 51
180.0000000000048
  0
ARC
  5
2289
330
19
100
AcDbEntity
  8
SEIHIN
  6
Continuous
 62
     3
100
AcDbCircle
 10
743.208725773351
 20
432.9353106991828
 30
0.0
 40
1.999999999999943
100
AcDbArc
 50
179.9999999999983
 51
270.0
  0
LINE
  5
228A
330
19
100
AcDbEntity
  8
SEIHIN
  6
Continuous
 62
     3
100
AcDbLine
 10
752.4308257733507
 20
430.9353106991827
 30
0.0
 11
677.7084257733508
 21
430.9353106991827
 31
0.0
  0
LINE
  5
228B
330
19
100
AcDbEntity
  8
SEIHIN
  6
Continuous
 62
     3
100
AcDbLine
 10
677.7084257733508
 20
455.4353106991827
 30
0.0
 11
760.421625773351
 21
455.4353106991827
 31
0.0
  0
LINE
  5
228C
330
19
100
AcDbEntity
  8
SEIHIN
  6
Continuous
 62
     3
100
AcDbLine
 10
725.2084257733509
 20
458.7337106991826
 30
0.0
 11
677.708125773351
 21
458.7336106991826
 31
0.0
  0
LINE
  5
228D
330
19
100
AcDbEntity
  8
SEIHIN
  6
Continuous
 62
     3
100
AcDbLine
 10
741.208725773351
 20
432.9353106991828
 30
0.0
 11
741.208725773351
 21
454.4353106991827
 31
0.0
  0
LINE
  5
228E
330
19
100
AcDbEntity
  8
SEIHIN
  6
Continuous
 62
     3
100
AcDbLine
 10
725.2084257733509
 20
455.4353106991827
 30
0.0
 11
725.2084257733509
 21
458.7337106991826
 31
0.0
  0
LINE
  5
228F
330
19
100
AcDbEntity
  8
NOKITOI
 48
5.0
100
AcDbLine
 10
746.1007257733511
 20
436.7354806991828
 30
0.0
 11
746.1007257733511
 21
450.9354806991828
 31
0.0
  0
LINE
  5
2290
330
19
100
AcDbEntity
  8
NOKITOI
 48
5.0
100
AcDbLine
 10
754.4553551506626
 20
436.7354806991828
 30
0.0
 11
752.7061257733505
 21
451.1354806991826
 31
0.0
  0
LINE
  5
2291
330
19
100
AcDbEntity
  8
NOKITOI
 48
5.0
100
AcDbLine
 10
745.8007257733509
 20
436.4354806991827
 30
0.0
 11
745.8007257733509
 21
450.9354806991828
 31
0.0
  0
LINE
  5
2292
330
19
100
AcDbEntity
  8
NOKITOI
 48
5.0
100
AcDbLine
 10
744.3007257733508
 20
434.9354806991827
 30
0.0
 11
744.3008257733506
 21
450.9354806991828
 31
0.0
  0
LINE
  5
2293
330
19
100
AcDbEntity
  8
SEIHIN
  6
Continuous
 62
     3
100
AcDbLine
 10
743.2087257733508
 20
452.3445106991828
 30
0.0
 11
743.2087257733508
 21
433.9353106991827
 31
0.0
  0
LINE
  5
2294
330
19
100
AcDbEntity
  8
NOKITOI
 48
5.0
100
AcDbLine
 10
754.4553257733507
 20
436.7354806991828
 30
0.0
 11
746.1007257733511
 21
436.7354806991828
 31
0.0
  0
LINE
  5
2295
330
19
100
AcDbEntity
  8
NOKITOI
 48
5.0
100
AcDbLine
 10
755.3985348937337
 20
436.4354806991827
 30
0.0
 11
745.8007257733509
 21
436.4354806991827
 31
0.0
  0
LINE
  5
2296
330
19
100
AcDbEntity
  8
NOKITOI
 48
5.0
100
AcDbLine
 10
744.3007257733508
 20
434.9354806991827
 30
0.0
 11
754.6740257733506
 21
434.9354806991827
 31
0.0
  0
ARC
  5
2297
330
19
100
AcDbEntity
  8
SEIHIN
  6
Continuous
 62
     3
100
AcDbCircle
 10
752.4307931719997
 20
429.9353396175189
 30
0.0
 40
0.9999710821952692
100
AcDbArc
 50
6.850235553456005
 51
89.99813202615598
  0
ARC
  5
2298
330
19
100
AcDbEntity
  8
SEIHIN
  6
Continuous
 62
     3
100
AcDbCircle
 10
752.4307772125318
 20
429.9353537756345
 30
0.0
 40
2.999956923941242
100
AcDbArc
 50
6.849051932254849
 51
89.99907254335351
  0
ARC
  5
2299
330
19
100
AcDbEntity
  8
SEIHIN
  6
Continuous
 62
     3
100
AcDbCircle
 10
744.208725773351
 20
433.9353106991827
 30
0.0
 40
1.000000000000056
100
AcDbArc
 50
180.0000000000032
 51
270.0
  0
LINE
  5
229A
330
19
100
AcDbEntity
  8
SEIHIN
  6
Continuous
 62
     3
100
AcDbLine
 10
752.4308257733507
 20
432.9353106991828
 30
0.0
 11
744.208725773351
 21
432.9353106991828
 31
0.0
  0
ARC
  5
229B
330
19
100
AcDbEntity
  8
SEIHIN
  6
Continuous
 62
     3
100
AcDbCircle
 10
754.1647641550111
 20
460.4205405514997
 30
0.0
 40
10.00003547222852
100
AcDbArc
 50
273.1181984811855
 51
342.6311517938111
  0
ARC
  5
229C
330
19
100
AcDbEntity
  8
NOKITOI
 48
5.0
100
AcDbCircle
 10
746.3007757733505
 20
450.9354306991828
 30
0.0
 40
0.2000500062483002
100
AcDbArc
 50
89.98567963550119
 51
179.9856796354979
  0
ARC
  5
229D
330
19
100
AcDbEntity
  8
NOKITOI
 48
5.0
100
AcDbCircle
 10
746.3007757733505
 20
450.9354306991828
 30
0.0
 40
0.5000500062483003
100
AcDbArc
 50
89.98567963550119
 51
179.9856796354979
  0
LINE
  5
229E
330
19
100
AcDbEntity
  8
NOKITOI
 48
5.0
100
AcDbLine
 10
752.7061257733505
 20
451.1354806991826
 30
0.0
 11
746.3008257733506
 21
451.1354806991826
 31
0.0
  0
LINE
  5
229F
330
19
100
AcDbEntity
  8
NOKITOI
 48
5.0
100
AcDbLine
 10
752.7061257733505
 20
451.4354806991827
 30
0.0
 11
746.3008257733506
 21
451.4354806991827
 31
0.0
  0
LINE
  5
22A0
330
19
100
AcDbEntity
  8
NOKITOI
 48
5.0
100
AcDbLine
 10
754.3008257733506
 20
452.9354806991827
 30
0.0
 11
746.3008257733506
 21
452.9354806991827
 31
0.0
  0
ARC
  5
22A1
330
19
100
AcDbEntity
  8
NOKITOI
 48
5.0
100
AcDbCircle
 10
746.3008257733506
 20
450.9354806991828
 30
0.0
 40
2.0
100
AcDbArc
 50
90.0
 51
180.0
  0
LINE
  5
22A2
330
19
100
AcDbEntity
  8
SEIHIN
  6
Continuous
 62
     3
100
AcDbLine
 10
754.7087257733508
 20
450.4353106991827
 30
0.0
 11
754.7087257733508
 21
452.4353106991827
 31
0.0
  0
ARC
  5
22A3
330
19
100
AcDbEntity
  8
SEIHIN
  6
Continuous
 62
     3
100
AcDbCircle
 10
744.2087584172853
 20
452.3445406257476
 30
0.0
 40
1.000032644382117
100
AcDbArc
 50
85.02825149125097
 51
180.0017146098877
  0
LINE
  5
22A4
330
19
100
AcDbEntity
  8
SEIHIN
  6
Continuous
 62
     3
100
AcDbLine
 10
744.2953257733509
 20
453.3408106991827
 30
0.0
 11
754.7087257733508
 21
452.4353106991827
 31
0.0
  0
ARC
  5
22A5
330
19
100
AcDbEntity
  8
SEIHIN
  6
Continuous
 62
     3
100
AcDbCircle
 10
762.7544257733509
 20
457.7338106991827
 30
0.0
 40
0.9999908049577799
100
AcDbArc
 50
342.6323033193017
 51
162.6323033193056
  0
ARC
  5
22A6
330
19
100
AcDbEntity
  8
SEIHIN
  6
Continuous
 62
     3
100
AcDbCircle
 10
754.164748788956
 20
460.4205540627902
 30
0.0
 40
8.000072561686065
100
AcDbArc
 50
321.4534861429046
 51
342.6308044157906
  0
LINE
  5
22A7
330
19
100
AcDbEntity
  8
SEIHIN
  6
Continuous
 62
     3
100
AcDbLine
 10
677.7083257733509
 20
908.8130106991828
 30
0.0
 11
677.7084257733508
 21
703.4132106991827
 31
0.0
  0
LINE
  5
22A8
330
19
100
AcDbEntity
  8
SUNPOU
  6
PHANTOM
 48
5.0
100
AcDbLine
 10
743.2087257733508
 20
703.4132106991827
 30
0.0
 11
743.2087257733508
 21
908.8130106991826
 31
0.0
  0
DIMENSION
  5
22A9
330
19
100
AcDbEntity
  8
SUNPOU
  6
Continuous
100
AcDbDimension
  2
*D8
 10
619.5634121027405
 20
703.4131106991826
 30
0.0
 11
609.5634121027404
 21
806.1130606991827
 31
0.0
 70
    32
 71
     5
 42
-1.0
  3
STANDARD
100
AcDbAlignedDimension
 13
677.7083257733509
 23
908.8130106991828
 33
0.0
 14
677.7083257733509
 24
703.4131106991826
 34
0.0
 50
90.0
100
AcDbRotatedDimension
1001
ACAD
1000
DSTYLE
1002
{
1070
   140
1040
12.0
1070
    74
1070
     0
1070
   172
1070
     1
1070
    73
1070
     0
1070
   272
1070
     2
1070
    77
1070
     3
1070
   173
1070
     1
1070
   147
1040
4.0
1070
    42
1040
12.0
1070
    44
1040
6.0
1070
    43
1040
28.0
1070
   271
1070
     0
1070
   178
1070
     4
1070
   177
1070
     4
1070
   176
1070
     4
1070
   141
1040
150.0
1070
     7
1000
_OPEN
1070
     6
1000
_OPEN
1070
    41
1040
14.0
1070
   143
1040
0.03937
1002
}
  0
ARC
  5
22AA
330
19
100
AcDbEntity
  8
SEIHIN
  6
Continuous
 62
     3
100
AcDbCircle
 10
741.208725773351
 20
703.4132106991828
 30
0.0
 40
1.999999999999943
100
AcDbArc
 50
359.9999999999983
 51
90.0
  0
ARC
  5
22AB
330
19
100
AcDbEntity
  8
SEIHIN
  6
Continuous
 62
     3
100
AcDbCircle
 10
736.208625773351
 20
698.4131106991829
 30
0.0
 40
4.999999999999829
100
AcDbArc
 50
359.9999999999992
 51
90.0
  0
LINE
  5
22AC
330
19
100
AcDbEntity
  8
SEIHIN
  6
Continuous
 62
     3
100
AcDbLine
 10
726.2084257733508
 20
717.6136106991828
 30
0.0
 11
753.4092257733509
 21
717.6136106991828
 31
0.0
  0
LINE
  5
22AD
330
19
100
AcDbEntity
  8
SEIHIN
  6
Continuous
 62
     3
100
AcDbLine
 10
677.7083257733509
 20
732.7540106991826
 30
0.0
 11
768.5495257733509
 21
732.7540106991826
 31
0.0
  0
LINE
  5
22AE
330
19
100
AcDbEntity
  8
SEIHIN
  6
Continuous
 62
     3
100
AcDbLine
 10
677.7083257733509
 20
703.4131106991826
 30
0.0
 11
736.208625773351
 21
703.4131106991826
 31
0.0
  0
LINE
  5
22AF
330
19
100
AcDbEntity
  8
SEIHIN
  6
Continuous
 62
     3
100
AcDbLine
 10
677.7083257733509
 20
724.0044106991827
 30
0.0
 11
725.2083257733511
 21
724.0044106991827
 31
0.0
  0
LINE
  5
22B0
330
19
100
AcDbEntity
  8
SEIHIN
  6
Continuous
 62
     3
100
AcDbLine
 10
677.7083257733509
 20
722.6260106991826
 30
0.0
 11
725.2083257733511
 21
722.6260106991826
 31
0.0
  0
LINE
  5
22B1
330
19
100
AcDbEntity
  8
SEIHIN
  6
Continuous
 62
     3
100
AcDbLine
 10
677.7083257733509
 20
725.9131106991827
 30
0.0
 11
726.2083257733511
 21
725.9132106991826
 31
0.0
  0
ARC
  5
22B2
330
19
100
AcDbEntity
  8
SEIHIN
  6
Continuous
 62
     3
100
AcDbCircle
 10
727.2084257733508
 20
707.4132106991828
 30
0.0
 40
2.000000000000113
100
AcDbArc
 50
180.0000000000032
 51
270.0
  0
LINE
  5
22B3
330
19
100
AcDbEntity
  8
SEIHIN
  6
Continuous
 62
     3
100
AcDbLine
 10
726.2084257733508
 20
725.9132106991826
 30
0.0
 11
726.2084257733508
 21
705.6811106991826
 31
0.0
  0
LINE
  5
22B4
330
19
100
AcDbEntity
  8
SEIHIN
  6
Continuous
 62
     3
100
AcDbLine
 10
725.2084257733509
 20
725.9132106991826
 30
0.0
 11
725.2084257733509
 21
707.4132106991827
 31
0.0
  0
LINE
  5
22B5
330
19
100
AcDbEntity
  8
SEIHIN
  6
Continuous
 62
     3
100
AcDbLine
 10
727.2084257733511
 20
705.4132106991827
 30
0.0
 11
741.208725773351
 21
705.4132106991827
 31
0.0
  0
LINE
  5
22B6
330
19
100
AcDbEntity
  8
SEIHIN
  6
Continuous
 62
     3
100
AcDbLine
 10
755.4092257733509
 20
688.4129106991827
 30
0.0
 11
755.4092257733509
 21
715.6136106991827
 31
0.0
  0
LINE
  5
22B7
330
19
100
AcDbEntity
  8
SEIHIN
  6
Continuous
 62
     3
100
AcDbLine
 10
763.708725773351
 20
687.4129106991826
 30
0.0
 11
745.208725773351
 21
687.4129106991826
 31
0.0
  0
LINE
  5
22B8
330
19
100
AcDbEntity
  8
SEIHIN
  6
Continuous
 62
     3
100
AcDbLine
 10
763.708725773351
 20
688.4129106991827
 30
0.0
 11
743.4767257733508
 21
688.4129106991827
 31
0.0
  0
ARC
  5
22B9
330
19
100
AcDbEntity
  8
SEIHIN
  6
Continuous
 62
     3
100
AcDbCircle
 10
745.208725773351
 20
689.4129106991827
 30
0.0
 40
2.000000000000056
100
AcDbArc
 50
180.0000000000016
 51
270.0
  0
LINE
  5
22BA
330
19
100
AcDbEntity
  8
SEIHIN
  6
Continuous
 62
     3
100
AcDbLine
 10
743.2087257733508
 20
689.4129106991827
 30
0.0
 11
743.2087257733508
 21
703.4132106991827
 31
0.0
  0
LINE
  5
22BB
330
19
100
AcDbEntity
  8
SEIHIN
  6
Continuous
 62
     3
100
AcDbLine
 10
754.8234257733509
 20
717.0278106991826
 30
0.0
 11
769.9638257733509
 21
732.1682106991827
 31
0.0
  0
ARC
  5
22BC
330
19
100
AcDbEntity
  8
SEIHIN
  6
Continuous
 62
     3
100
AcDbCircle
 10
753.4092257733509
 20
715.6136106991827
 30
0.0
 40
2.0
100
AcDbArc
 50
0.0
 51
90.0
  0
ARC
  5
22BD
330
19
100
AcDbEntity
  8
SEIHIN
  6
Continuous
 62
     3
100
AcDbCircle
 10
768.5495257733509
 20
730.7540106991825
 30
0.0
 40
2.0
100
AcDbArc
 50
0.0
 51
90.0
  0
DIMENSION
  5
22BE
330
19
100
AcDbEntity
  8
SUNPOU
  6
Continuous
100
AcDbDimension
  2
*D9
 10
677.7083257733509
 20
947.4213209916261
 30
0.0
 11
710.4585257733508
 21
957.421320991626
 31
0.0
 70
    32
  1
※<>
 71
     5
 42
-1.0
  3
STANDARD
100
AcDbAlignedDimension
 13
743.2087257733508
 23
908.8130106991826
 33
0.0
 14
677.7083257733509
 24
908.8130106991828
 34
0.0
100
AcDbRotatedDimension
1001
ACAD
1000
DSTYLE
1002
{
1070
   140
1040
12.0
1070
    74
1070
     0
1070
   172
1070
     1
1070
    73
1070
     0
1070
   272
1070
     2
1070
    77
1070
     3
1070
   173
1070
     1
1070
   147
1040
4.0
1070
    42
1040
12.0
1070
    44
1040
6.0
1070
    43
1040
28.0
1070
   271
1070
     0
1070
   178
1070
     4
1070
   177
1070
     4
1070
   176
1070
     4
1070
   141
1040
150.0
1070
     7
1000
_OPEN
1070
     6
1000
_OPEN
1070
    41
1040
14.0
1070
   143
1040
0.03937
1002
}
  0
LINE
  5
22BF
330
19
100
AcDbEntity
  8
SEIHIN
  6
Continuous
 62
     3
100
AcDbLine
 10
726.2083257733511
 20
906.5452106991827
 30
0.0
 11
726.2084257733508
 21
886.3132106991827
 31
0.0
  0
LINE
  5
22C0
330
19
100
AcDbEntity
  8
SEIHIN
  6
Continuous
 62
     3
100
AcDbLine
 10
725.2083257733511
 20
904.8131106991828
 30
0.0
 11
725.2084257733509
 21
886.3132106991827
 31
0.0
  0
LINE
  5
22C1
330
19
100
AcDbEntity
  8
SEIHIN
  6
Continuous
 62
     3
100
AcDbLine
 10
677.7083257733509
 20
886.3131106991826
 30
0.0
 11
726.2084257733508
 21
886.3131106991826
 31
0.0
  0
LINE
  5
22C2
330
19
100
AcDbEntity
  8
SEIHIN
  6
Continuous
 62
     3
100
AcDbLine
 10
677.7083257733509
 20
888.2218106991826
 30
0.0
 11
725.2083257733511
 21
888.2219106991827
 31
0.0
  0
LINE
  5
22C3
330
19
100
AcDbEntity
  8
SEIHIN
  6
Continuous
 62
     3
100
AcDbLine
 10
677.7083257733509
 20
889.6003106991827
 30
0.0
 11
725.2083257733511
 21
889.6003106991827
 31
0.0
  0
ARC
  5
22C4
330
19
100
AcDbEntity
  8
SEIHIN
  6
Continuous
 62
     3
100
AcDbCircle
 10
727.2083257733509
 20
904.8131106991828
 30
0.0
 40
1.999999999999772
100
AcDbArc
 50
90.0
 51
180.0
  0
LINE
  5
22C5
330
19
100
AcDbEntity
  8
CENTER L
  6
CENTER
 62
     1
 48
3.5
100
AcDbLine
 10
845.7084257733507
 20
611.9129106991826
 30
0.0
 11
845.7084257733511
 21
818.8145106991827
 31
0.0
  0
LINE
  5
22C6
330
19
100
AcDbEntity
  8
SEIHIN
  6
Continuous
 62
     3
100
AcDbLine
 10
946.6086257733511
 20
639.9129106991827
 30
0.0
 11
946.6085257733508
 21
908.8131106991827
 31
0.0
  0
LINE
  5
22C7
330
19
100
AcDbEntity
  8
SEIHIN
  6
Continuous
 62
     3
100
AcDbLine
 10
926.0174257733508
 20
639.9129106991827
 30
0.0
 11
926.0174257733508
 21
687.4129106991826
 31
0.0
  0
LINE
  5
22C8
330
19
100
AcDbEntity
  8
SEIHIN
  6
Continuous
 62
     3
100
AcDbLine
 10
924.1086257733511
 20
639.9129106991827
 30
0.0
 11
924.1086257733511
 21
688.4129106991827
 31
0.0
  0
LINE
  5
22C9
330
19
100
AcDbEntity
  8
SEIHIN
  6
Continuous
 62
     3
100
AcDbLine
 10
927.3958257733509
 20
639.9129106991827
 30
0.0
 11
927.3958257733509
 21
687.4129106991826
 31
0.0
  0
LINE
  5
22CA
330
19
100
AcDbEntity
  8
SEIHIN
  6
Continuous
 62
     3
100
AcDbLine
 10
920.8669257733506
 20
639.9129106991827
 30
0.0
 11
920.8668257733508
 21
881.0714106991827
 31
0.0
  0
LINE
  5
22D1
330
19
100
AcDbEntity
  8
NOKITOI
 48
5.0
100
AcDbLine
 10
935.1064257733508
 20
421.1352806991826
 30
0.0
 11
941.5123257733505
 21
421.1352806991826
 31
0.0
  0
LINE
  5
22D2
330
19
100
AcDbEntity
  8
NOKITOI
 48
5.0
100
AcDbLine
 10
935.1064257733508
 20
421.4352806991827
 30
0.0
 11
941.5123257733505
 21
421.4352806991827
 31
0.0
  0
LINE
  5
22D3
330
19
100
AcDbEntity
  8
NOKITOI
 48
5.0
100
AcDbLine
 10
933.5123257733505
 20
422.9353806991826
 30
0.0
 11
941.5123257733505
 21
422.9353806991826
 31
0.0
  0
LINE
  5
22D4
330
19
100
AcDbEntity
  8
NOKITOI
 48
5.0
100
AcDbLine
 10
941.7123257733507
 20
406.7352806991827
 30
0.0
 11
933.3523257733506
 21
406.7352806991827
 31
0.0
  0
LINE
  5
22D5
330
19
100
AcDbEntity
  8
NOKITOI
 48
5.0
100
AcDbLine
 10
943.5123257733506
 20
404.9353806991828
 30
0.0
 11
933.1331257733507
 21
404.9353806991828
 31
0.0
  0
LINE
  5
22D6
330
19
100
AcDbEntity
  8
NOKITOI
 48
5.0
100
AcDbLine
 10
942.0123257733505
 20
406.4352806991828
 30
0.0
 11
932.4091061324773
 21
406.4352806991828
 31
0.0
  0
LINE
  5
22D7
330
19
100
AcDbEntity
  8
SEIHIN
  6
Continuous
 62
     3
100
AcDbLine
 10
945.6088257733506
 20
425.4353106991827
 30
0.0
 11
929.0186257733509
 21
425.4353106991827
 31
0.0
  0
LINE
  5
22D8
330
19
100
AcDbEntity
  8
SEIHIN
  6
Continuous
 62
     3
100
AcDbLine
 10
943.522225773351
 20
423.3408106991827
 30
0.0
 11
933.1088257733506
 21
422.4353106991827
 31
0.0
  0
LINE
  5
22D9
330
19
100
AcDbEntity
  8
SEIHIN
  6
Continuous
 62
     3
100
AcDbLine
 10
944.6088257733507
 20
399.4353106991826
 30
0.0
 11
935.2021257733511
 21
399.4353106991826
 31
0.0
  0
DIMENSION
  5
22DA
330
19
100
AcDbEntity
  8
SUNPOU
  6
Continuous
100
AcDbDimension
  2
*D10
 10
1021.479455474551
 20
300.9352806991827
 30
0.0
 11
1011.47945547455
 21
363.1852956991828
 31
0.0
 70
    32
 71
     5
 42
-1.0
  3
STANDARD
100
AcDbAlignedDimension
 13
945.6088257733506
 23
425.4353106991827
 33
0.0
 14
920.7084257733511
 24
300.9352806991827
 34
0.0
 50
90.0
100
AcDbRotatedDimension
1001
ACAD
1000
DSTYLE
1002
{
1070
   140
1040
12.0
1070
    74
1070
     0
1070
   172
1070
     1
1070
    73
1070
     0
1070
   272
1070
     2
1070
    77
1070
     3
1070
   173
1070
     1
1070
   147
1040
4.0
1070
    42
1040
12.0
1070
    44
1040
6.0
1070
    43
1040
28.0
1070
   271
1070
     0
1070
   178
1070
     4
1070
   177
1070
     4
1070
   176
1070
     4
1070
   141
1040
150.0
1070
     7
1000
_OPEN
1070
     6
1000
_OPEN
1070
    41
1040
14.0
1070
   143
1040
0.03937
1002
}
  0
LINE
  5
22DB
330
19
100
AcDbEntity
  8
NOKITOI
 48
5.0
100
AcDbLine
 10
932.4091061324773
 20
406.4352806991828
 30
0.0
 11
920.1148863123615
 21
305.5055404199116
 31
0.0
  0
LINE
  5
22DC
330
19
100
AcDbEntity
  8
NOKITOI
 48
5.0
100
AcDbLine
 10
933.1331257733507
 20
404.9353806991828
 30
0.0
 11
920.8690257733508
 21
304.2539806991828
 31
0.0
  0
LINE
  5
22DD
330
19
100
AcDbEntity
  8
NOKITOI
 48
5.0
100
AcDbLine
 10
933.5123257733505
 20
422.9353806991826
 30
0.0
 11
919.2214898368749
 21
305.6143647627243
 31
0.0
  0
LINE
  5
22DE
330
19
100
AcDbEntity
  8
SEIHIN
  6
Continuous
 62
     3
100
AcDbLine
 10
920.8671257733511
 20
304.2563706991827
 30
0.0
 11
932.2236257733509
 21
398.7931106991827
 31
0.0
  0
LINE
  5
22DF
330
19
100
AcDbEntity
  8
SEIHIN
  6
Continuous
 62
     3
100
AcDbLine
 10
934.2093257733511
 20
398.5545106991827
 30
0.0
 11
922.6942257733506
 21
302.6967406991827
 31
0.0
  0
LINE
  5
22E0
330
19
100
AcDbEntity
  8
SEIHIN
  6
Continuous
 62
     3
100
AcDbLine
 10
919.3778257733509
 20
302.9352806991827
 30
0.0
 11
845.7084257733511
 21
302.9352806991827
 31
0.0
  0
LINE
  5
22E1
330
19
100
AcDbEntity
  8
SEIHIN
  6
Continuous
 62
     3
100
AcDbLine
 10
920.7084257733511
 20
300.9352806991827
 30
0.0
 11
845.7084257733511
 21
300.9352806991827
 31
0.0
  0
LINE
  5
22E2
330
19
100
AcDbEntity
  8
CENTER L
  6
CENTER
 62
     1
 48
5.0
100
AcDbLine
 10
845.7084257733507
 20
295.9352806991827
 30
0.0
 11
845.7084257733507
 21
311.7352806991827
 31
0.0
  0
ARC
  5
22E3
330
19
100
AcDbEntity
  8
SEIHIN
  6
Continuous
 62
     3
100
AcDbCircle
 10
920.7084684654743
 20
302.9353185699156
 30
0.0
 40
2.000037871188529
100
AcDbArc
 50
269.9987769839076
 51
353.1490635404925
  0
ARC
  5
22E4
330
19
100
AcDbEntity
  8
NOKITOI
 48
5.0
100
AcDbCircle
 10
918.2288270863343
 20
305.7352806991827
 30
0.0
 40
1.9
100
AcDbArc
 50
270.0
 51
353.0550331906523
  0
ARC
  5
22E5
330
19
100
AcDbEntity
  8
NOKITOI
 48
5.0
100
AcDbCircle
 10
918.2288270863343
 20
305.7352806991827
 30
0.0
 40
1.0
100
AcDbArc
 50
270.0
 51
353.0550331906523
  0
ARC
  5
22E6
330
19
100
AcDbEntity
  8
NOKITOI
 48
5.0
100
AcDbCircle
 10
919.3800240212921
 20
304.4352791475144
 30
0.0
 40
1.499998448332718
100
AcDbArc
 50
270.0000669237721
 51
353.0579294895371
  0
ARC
  5
22E7
330
19
100
AcDbEntity
  8
SEIHIN
  6
Continuous
 62
     3
100
AcDbCircle
 10
919.3778294746856
 20
304.4352839825088
 30
0.0
 40
1.500003283330684
100
AcDbArc
 50
269.9998586197428
 51
353.1501070189422
  0
ARC
  5
22E8
330
19
100
AcDbEntity
  8
SEIHIN
  6
Continuous
 62
     3
100
AcDbCircle
 10
934.6086997069271
 20
430.4353789413299
 30
0.0
 40
7.499973933886609
100
AcDbArc
 50
180.0005213334141
 51
221.8111924522636
  0
ARC
  5
22E9
330
19
100
AcDbEntity
  8
SEIHIN
  6
Continuous
 62
     3
100
AcDbCircle
 10
933.8201218383181
 20
429.8205162895367
 30
0.0
 40
10.00004481440128
100
AcDbArc
 50
193.7997659223564
 51
236.4834980999364
  0
ARC
  5
22EA
330
19
100
AcDbEntity
  8
SEIHIN
  6
Continuous
 62
     3
100
AcDbCircle
 10
935.2021743341699
 20
398.4353537756346
 30
0.0
 40
2.999956923941203
100
AcDbArc
 50
90.00092745663348
 51
173.1509480677443
  0
ARC
  5
22EB
330
19
100
AcDbEntity
  8
SEIHIN
  6
Continuous
 62
     3
100
AcDbCircle
 10
935.2021650930771
 20
398.4353455803993
 30
0.0
 40
0.9999651195562648
100
AcDbArc
 50
90.00225293295043
 51
173.1558384565557
  0
LINE
  5
22EC
330
19
100
AcDbEntity
  8
NOKITOI
 48
5.0
100
AcDbLine
 10
933.3523407878745
 20
406.7352806991827
 30
0.0
 11
935.1064257733508
 21
421.1352806991826
 31
0.0
  0
ARC
  5
22ED
330
19
100
AcDbEntity
  8
SEIHIN
  6
Continuous
 62
     3
100
AcDbCircle
 10
929.1087626672814
 20
420.4352893981597
 30
0.0
 40
2.000021301363369
100
AcDbArc
 50
30.00035230733243
 51
90.00105692199584
  0
LINE
  5
22EE
330
19
100
AcDbEntity
  8
SEIHIN
  6
Continuous
 62
     3
100
AcDbLine
 10
928.6087257733509
 20
422.4353106991827
 30
0.0
 11
928.6087257733509
 21
421.6500106991827
 31
0.0
  0
LINE
  5
22EF
330
19
100
AcDbEntity
  8
SEIHIN
  6
Continuous
 62
     3
100
AcDbLine
 10
929.1087257733508
 20
422.4353106991827
 30
0.0
 11
928.6087257733509
 21
422.4353106991827
 31
0.0
  0
ARC
  5
22F0
330
19
100
AcDbEntity
  8
SEIHIN
  6
Continuous
 62
     3
100
AcDbCircle
 10
928.4087544649672
 20
421.6500261108347
 30
0.0
 40
0.1999713089778479
100
AcDbArc
 50
236.4803680572587
 51
359.9955842534796
  0
LINE
  5
22F1
330
19
100
AcDbEntity
  8
SEIHIN
  6
Continuous
 62
     3
100
AcDbLine
 10
933.1087257733509
 20
420.6353106991826
 30
0.0
 11
933.1087257733509
 21
422.4353106991827
 31
0.0
  0
LINE
  5
22F2
330
19
100
AcDbEntity
  8
SEIHIN
  6
Continuous
 62
     3
100
AcDbLine
 10
932.9087257733506
 20
420.4353106991828
 30
0.0
 11
932.5728257733505
 21
420.4353106991828
 31
0.0
  0
ARC
  5
22F3
330
19
100
AcDbEntity
  8
SEIHIN
  6
Continuous
 62
     3
100
AcDbCircle
 10
932.9087257733506
 20
420.6353106991826
 30
0.0
 40
0.1999999999999318
100
AcDbArc
 50
269.999999999987
 51
359.9999999999918
  0
ARC
  5
22F4
330
19
100
AcDbEntity
  8
SEIHIN
  6
Continuous
 62
     3
100
AcDbCircle
 10
932.5727888794206
 20
422.435332000206
 30
0.0
 40
2.000021301363482
100
AcDbArc
 50
210.0003523073331
 51
270.0010569219958
  0
ARC
  5
22F5
330
19
100
AcDbEntity
  8
SEIHIN
  6
Continuous
 62
     3
100
AcDbCircle
 10
927.1087257733508
 20
427.4353106991827
 30
0.0
 40
3.000000000000056
100
AcDbArc
 50
90.0
 51
179.9999999999991
  0
DIMENSION
  5
22F6
330
19
100
AcDbEntity
  8
SUNPOU
  6
Continuous
100
AcDbDimension
  2
*D11
 10
993.0094388443801
 20
399.4353106991826
 30
0.0
 11
983.00943884438
 21
357.4353106991828
 31
0.0
 70
    32
 71
     5
 42
-1.0
  3
STANDARD
100
AcDbAlignedDimension
 13
945.6088257733506
 23
425.4353106991827
 33
0.0
 14
944.6088257733507
 24
399.4353106991826
 34
0.0
 50
90.0
100
AcDbRotatedDimension
1001
ACAD
1000
DSTYLE
1002
{
1070
   140
1040
12.0
1070
    74
1070
     0
1070
   172
1070
     1
1070
    73
1070
     0
1070
   272
1070
     2
1070
    77
1070
     3
1070
   173
1070
     1
1070
   147
1040
4.0
1070
    42
1040
12.0
1070
    44
1040
6.0
1070
    43
1040
28.0
1070
   271
1070
     0
1070
   178
1070
     4
1070
   177
1070
     4
1070
   176
1070
     4
1070
   141
1040
150.0
1070
     7
1000
_OPEN
1070
     6
1000
_OPEN
1070
    41
1040
14.0
1070
   143
1040
0.03937
1002
}
  0
ARC
  5
22F7
330
19
100
AcDbEntity
  8
SEIHIN
  6
Continuous
 62
     3
100
AcDbCircle
 10
945.6088257733506
 20
424.4353106991826
 30
0.0
 40
1.0
100
AcDbArc
 50
0.0
 51
90.0
  0
ARC
  5
22F8
330
19
100
AcDbEntity
  8
SEIHIN
  6
Continuous
 62
     3
100
AcDbCircle
 10
943.6088257733507
 20
402.4353106991827
 30
0.0
 40
1.0
100
AcDbArc
 50
270.0
 51
0.0
  0
LINE
  5
22F9
330
19
100
AcDbEntity
  8
SEIHIN
  6
Continuous
 62
     3
100
AcDbLine
 10
946.6088257733506
 20
401.4353106991827
 30
0.0
 11
946.6088257733506
 21
424.4353106991826
 31
0.0
  0
ARC
  5
22FA
330
19
100
AcDbEntity
  8
SEIHIN
  6
Continuous
 62
     3
100
AcDbCircle
 10
944.6088257733507
 20
401.4353106991827
 30
0.0
 40
2.000000000000056
100
AcDbArc
 50
270.0
 51
0.0000000000016284
  0
LINE
  5
22FB
330
19
100
AcDbEntity
  8
NOKITOI
 48
5.0
100
AcDbLine
 10
943.5123257733506
 20
404.9353806991828
 30
0.0
 11
943.5123257733506
 21
420.9353806991827
 31
0.0
  0
LINE
  5
22FC
330
19
100
AcDbEntity
  8
NOKITOI
 48
5.0
100
AcDbLine
 10
942.0123257733505
 20
406.4352806991828
 30
0.0
 11
942.0123257733505
 21
420.9353806991827
 31
0.0
  0
ARC
  5
22FD
330
19
100
AcDbEntity
  8
NOKITOI
 48
5.0
100
AcDbCircle
 10
941.5123257733505
 20
420.9353806991827
 30
0.0
 40
0.2000000000000739
100
AcDbArc
 50
359.9999999999755
 51
89.99999999997395
  0
LINE
  5
22FE
330
19
100
AcDbEntity
  8
NOKITOI
 48
5.0
100
AcDbLine
 10
941.7123257733507
 20
406.7352806991827
 30
0.0
 11
941.7123257733507
 21
420.9353806991827
 31
0.0
  0
ARC
  5
22FF
330
19
100
AcDbEntity
  8
NOKITOI
 48
5.0
100
AcDbCircle
 10
941.5123257733505
 20
420.9353806991827
 30
0.0
 40
2.0
100
AcDbArc
 50
0.0
 51
90.0
  0
ARC
  5
2300
330
19
100
AcDbEntity
  8
NOKITOI
 48
5.0
100
AcDbCircle
 10
941.5123257733505
 20
420.9353806991827
 30
0.0
 40
0.5000000000000739
100
AcDbArc
 50
359.9999999999755
 51
89.99999999997395
  0
ARC
  5
2301
330
19
100
AcDbEntity
  8
SEIHIN
  6
Continuous
 62
     3
100
AcDbCircle
 10
943.6087931294165
 20
422.3445406257476
 30
0.0
 40
1.000032644382133
100
AcDbArc
 50
359.9982853901122
 51
94.97174850874904
  0
LINE
  5
2302
330
19
100
AcDbEntity
  8
SEIHIN
  6
Continuous
 62
     3
100
AcDbLine
 10
944.6088257733507
 20
422.3445106991828
 30
0.0
 11
944.6088257733507
 21
402.4353106991827
 31
0.0
  0
LINE
  5
2307
330
19
100
AcDbEntity
  8
SEIHIN
  6
Continuous
 62
     3
100
AcDbLine
 10
944.6088257733507
 20
689.4129106991827
 30
0.0
 11
944.6088257733507
 21
904.8133106991828
 31
0.0
  0
LINE
  5
2308
330
19
100
AcDbEntity
  8
SEIHIN
  6
Continuous
 62
     3
100
AcDbLine
 10
932.2234257733505
 20
688.4129106991827
 30
0.0
 11
932.2233257733508
 21
892.4280106991828
 31
0.0
  0
LINE
  5
2309
330
19
100
AcDbEntity
  8
SEIHIN
  6
Continuous
 62
     3
100
AcDbLine
 10
942.6088257733507
 20
687.4129106991826
 30
0.0
 11
924.1088257733506
 21
687.4129106991826
 31
0.0
  0
LINE
  5
230A
330
19
100
AcDbEntity
  8
SEIHIN
  6
Continuous
 62
     3
100
AcDbLine
 10
944.3408257733507
 20
688.4129106991827
 30
0.0
 11
924.1088257733506
 21
688.4129106991827
 31
0.0
  0
ARC
  5
230B
330
19
100
AcDbEntity
  8
SEIHIN
  6
Continuous
 62
     3
100
AcDbCircle
 10
942.6088257733507
 20
689.4129106991826
 30
0.0
 40
1.999999999999943
100
AcDbArc
 50
270.0
 51
0.0000000000016284
  0
LINE
  5
230C
330
19
100
AcDbEntity
  8
SEIHIN
  6
Continuous
 62
     3
100
AcDbLine
 10
920.2811257733507
 20
882.4855106991826
 30
0.0
 11
931.6376257733507
 21
893.8421106991826
 31
0.0
  0
ARC
  5
230D
330
19
100
AcDbEntity
  8
SEIHIN
  6
Continuous
 62
     3
100
AcDbCircle
 10
918.8668257733509
 20
881.0714106991827
 30
0.0
 40
1.999999999999886
100
AcDbArc
 50
0.0
 51
90.0
  0
ARC
  5
230E
330
19
100
AcDbEntity
  8
SEIHIN
  6
Continuous
 62
     3
100
AcDbCircle
 10
930.2233257733508
 20
892.4280106991828
 30
0.0
 40
2.0
100
AcDbArc
 50
0.0
 51
90.0
  0
ARC
  5
230F
330
19
100
AcDbEntity
  8
SEIHIN
  6
Continuous
 62
     3
100
AcDbCircle
 10
942.6088257733507
 20
904.8133106991828
 30
0.0
 40
1.999999999999886
100
AcDbArc
 50
359.9999999999967
 51
90.0
  0
VIEWPORT
  5
22
330
16
100
AcDbEntity
 67
     1
  8
0
100
AcDbViewport
 10
313.6808219178082
 20
148.5
 30
0.0
 40
627.3616438356165
 41
297.0
 68
     2
 69
     1
 12
313.6808219178082
 22
148.5
 13
0.0
 23
0.0
 14
10.0
 24
10.0
 15
10.0
 25
10.0
 16
0.0
 26
0.0
 36
1.0
 17
0.0
 27
0.0
 37
0.0
 42
50.0
 43
0.0
 44
0.0
 45
297.0
 50
0.0
 51
0.0
 72
   100
 90
    32768
  1

281
     0
 71
     1
 74
     0
110
0.0
120
0.0
130
0.0
111
1.0
121
0.0
131
0.0
112
0.0
122
1.0
132
0.0
 79
     0
146
0.0
  0
VIEWPORT
  5
25
330
16
100
AcDbEntity
 67
     1
  8
VIEWPORT
100
AcDbViewport
 10
210.0
 20
148.5
 30
0.0
 40
420.0
 41
297.0
 68
     1
 69
     2
 12
841.0
 22
594.0
 13
0.0
 23
0.0
 14
57.0
 24
57.0
 15
57.0
 25
57.0
 16
0.0
 26
0.0
 36
1.0
 17
0.0
 27
0.0
 37
0.0
 42
50.0
 43
0.0
 44
0.0
 45
1212.607689320388
 50
0.0
 51
0.0
 72
   100
 90
    32768
  1

281
     0
 71
     1
 74
     0
110
0.0
120
0.0
130
0.0
111
1.0
121
0.0
131
0.0
112
0.0
122
1.0
132
0.0
 79
     0
146
0.0
  0
ENDSEC
  0
SECTION
  2
OBJECTS
  0
DICTIONARY
  5
C
330
0
100
AcDbDictionary
281
     1
  3
ACAD_GROUP
350
D
  3
ACAD_LAYOUT
350
11DA
  3
ACAD_MLINESTYLE
350
E
  3
ACAD_PLOTSETTINGS
350
11DB
  3
ACAD_PLOTSTYLENAME
350
11D8
  0
DICTIONARY
  5
13D5
330
19
100
AcDbDictionary
280
     1
281
     1
  3
ACAD_LAYOUTSELFREF
360
2704
  0
DICTIONARY
  5
13D3
330
16
100
AcDbDictionary
280
     1
281
     1
  3
ACAD_LAYOUTSELFREF
360
2703
  0
DICTIONARY
  5
D
102
{ACAD_REACTORS
330
C
102
}
330
C
100
AcDbDictionary
281
     1
  0
DICTIONARY
  5
11DA
102
{ACAD_REACTORS
330
C
102
}
330
C
100
AcDbDictionary
281
     1
  3
Model
350
11DC
  3
ﾚｲｱｳﾄ1
350
11DD
  0
DICTIONARY
  5
E
102
{ACAD_REACTORS
330
C
102
}
330
C
100
AcDbDictionary
281
     1
  3
STANDARD
350
1C
  0
DICTIONARY
  5
11DB
102
{ACAD_REACTORS
330
C
102
}
330
C
100
AcDbDictionary
281
     1
  0
ACDBDICTIONARYWDFLT
  5
11D8
102
{ACAD_REACTORS
330
C
102
}
330
C
100
AcDbDictionary
281
     1
  3
Normal
350
11D9
100
AcDbDictionaryWithDefault
340
11D9
1001
ACAD
1000
TREAT_AS_HARD
1070
     0
1000
TREAT_AS_HARD
1070
     0
1000
TREAT_AS_HARD
1070
     0
1000
TREAT_AS_HARD
1070
     0
1000
TREAT_AS_HARD
1070
     0
  0
XRECORD
  5
2704
102
{ACAD_REACTORS
330
13D5
102
}
330
13D5
100
AcDbXrecord
280
     1
340
19
  0
XRECORD
  5
2703
102
{ACAD_REACTORS
330
13D3
102
}
330
13D3
100
AcDbXrecord
280
     1
340
16
  0
LAYOUT
  5
11DC
102
{ACAD_REACTORS
330
11DA
102
}
330
11DA
100
AcDbPlotSettings
  1

  2
Adobe PDF
  4
A3
  6

 40
3.174999952316284
 41
3.174999952316284
 42
3.17498779296875
 43
3.17498779296875
 44
297.0318298339843
 45
420.1583251953125
 46
0.6200000000000001
 47
1.689999999999999
 48
-23.17905552211232
 49
-28.78038250231793
140
1618.508822033293
141
1128.996810631994
142
1.0
143
4.0
 70
 28340
 72
     1
 73
     1
 74
     4
  7
systemprinter.ctb
 75
    18
147
0.25
148
23.17905552211232
149
28.78038250231793
100
AcDbLayout
  1
Model
 70
     1
 71
     0
 10
0.0
 20
0.0
 11
12.0
 21
9.0
 12
0.0
 22
0.0
 32
0.0
 14
0.0
 24
0.0
 34
0.0
 15
0.0
 25
0.0
 35
0.0
146
0.0
 13
0.0
 23
0.0
 33
0.0
 16
1.0
 26
0.0
 36
0.0
 17
0.0
 27
1.0
 37
0.0
 76
     0
330
19
  0
LAYOUT
  5
11DD
102
{ACAD_REACTORS
330
11DA
102
}
330
11DA
100
AcDbPlotSettings
  1

  2
Canon LBP-730 LIPS4
  4

  6

 40
0.0
 41
0.0
 42
0.0
 43
0.0
 44
0.0
 45
0.0
 46
0.0
 47
0.0
 48
0.0
 49
0.0
140
0.0
141
0.0
142
1.0
143
1.0
 70
   688
 72
     0
 73
     0
 74
     5
  7
systemprinter.ctb
 75
    16
147
1.0
148
0.0
149
0.0
100
AcDbLayout
  1
ﾚｲｱｳﾄ1
 70
     1
 71
     1
 10
0.0
 20
0.0
 11
420.0
 21
297.0
 12
0.0
 22
0.0
 32
0.0
 14
0.0
 24
0.0
 34
0.0
 15
420.0
 25
297.0
 35
0.0
146
0.0
 13
0.0
 23
0.0
 33
0.0
 16
1.0
 26
0.0
 36
0.0
 17
0.0
 27
1.0
 37
0.0
 76
     0
330
16
331
25
  0
MLINESTYLE
  5
1C
102
{ACAD_REACTORS
330
E
102
}
330
E
100
AcDbMlineStyle
  2
STANDARD
 70
     0
  3

 62
     0
 51
90.0
 52
90.0
 71
     2
 49
0.5
 62
   256
  6
BYLAYER
 49
-0.5
 62
   256
  6
BYLAYER
  0
ACDBPLACEHOLDER
  5
11D9
102
{ACAD_REACTORS
330
11D8
102
}
330
11D8
  0
ENDSEC
  0
EOF
