  0
SECTION
  2
HEADER
  9
$ACADVER
  1
AC1012
  9
$DWGCODEPAGE
  3
dos932
  9
$INSBASE
 10
0.0
 20
0.0
 30
0.0
  9
$EXTMIN
 10
19.90074647074652
 20
5.798621502208327
 30
0.0
  9
$EXTMAX
 10
1611.900746470746
 20
1124.166900699545
 30
0.0
  9
$LIMMIN
 10
0.0
 20
0.0
  9
$LIMMAX
 10
1682.0
 20
1188.0
  9
$ORTHOMODE
 70
     0
  9
$REGENMODE
 70
     1
  9
$FILLMODE
 70
     1
  9
$QTEXTMODE
 70
     0
  9
$MIRRTEXT
 70
     1
  9
$DRAGMODE
 70
     2
  9
$LTSCALE
 40
5.657142857142857
  9
$OSMODE
 70
    37
  9
$ATTMODE
 70
     1
  9
$TEXTSIZE
 40
19.8
  9
$TRACEWID
 40
0.05
  9
$TEXTSTYLE
  7
STANDARD
  9
$CLAYER
  8
ZUWAKU
  9
$CELTYPE
  6
BYLAYER
  9
$CECOLOR
 62
   256
  9
$CELTSCALE
 40
1.0
  9
$DELOBJ
 70
     1
  9
$DISPSILH
 70
     0
  9
$DIMSCALE
 40
1.0
  9
$DIMASZ
 40
14.0
  9
$DIMEXO
 40
12.0
  9
$DIMDLI
 40
28.0
  9
$DIMRND
 40
0.0
  9
$DIMDLE
 40
0.0
  9
$DIMEXE
 40
6.0
  9
$DIMTP
 40
0.0
  9
$DIMTM
 40
0.0
  9
$DIMTXT
 40
12.0
  9
$DIMCEN
 40
150.0
  9
$DIMTSZ
 40
0.0
  9
$DIMTOL
 70
     0
  9
$DIMLIM
 70
     0
  9
$DIMTIH
 70
     0
  9
$DIMTOH
 70
     0
  9
$DIMSE1
 70
     0
  9
$DIMSE2
 70
     0
  9
$DIMTAD
 70
     3
  9
$DIMZIN
 70
     0
  9
$DIMBLK
  1

  9
$DIMASO
 70
     1
  9
$DIMSHO
 70
     1
  9
$DIMPOST
  1

  9
$DIMAPOST
  1

  9
$DIMALT
 70
     0
  9
$DIMALTD
 70
     2
  9
$DIMALTF
 40
0.03937
  9
$DIMLFAC
 40
1.0
  9
$DIMTOFL
 70
     1
  9
$DIMTVP
 40
0.0
  9
$DIMTIX
 70
     0
  9
$DIMSOXD
 70
     0
  9
$DIMSAH
 70
     1
  9
$DIMBLK1
  1
OPEN
  9
$DIMBLK2
  1
OPEN
  9
$DIMSTYLE
  2
STANDARD
  9
$DIMCLRD
 70
   256
  9
$DIMCLRE
 70
   256
  9
$DIMCLRT
 70
   256
  9
$DIMTFAC
 40
1.0
  9
$DIMGAP
 40
4.0
  9
$DIMJUST
 70
     0
  9
$DIMSD1
 70
     0
  9
$DIMSD2
 70
     0
  9
$DIMTOLJ
 70
     1
  9
$DIMTZIN
 70
     0
  9
$DIMALTZ
 70
     0
  9
$DIMALTTZ
 70
     0
  9
$DIMFIT
 70
     3
  9
$DIMUPT
 70
     0
  9
$DIMUNIT
 70
     2
  9
$DIMDEC
 70
     0
  9
$DIMTDEC
 70
     0
  9
$DIMALTU
 70
     2
  9
$DIMALTTD
 70
     2
  9
$DIMTXSTY
  7
STANDARD
  9
$DIMAUNIT
 70
     0
  9
$LUNITS
 70
     2
  9
$LUPREC
 70
     4
  9
$SKETCHINC
 40
0.1
  9
$FILLETRAD
 40
56.57142857142858
  9
$AUNITS
 70
     0
  9
$AUPREC
 70
     0
  9
$MENU
  1
acad
  9
$ELEVATION
 40
0.0
  9
$PELEVATION
 40
0.0
  9
$THICKNESS
 40
0.0
  9
$LIMCHECK
 70
     0
  9
$BLIPMODE
 70
     0
  9
$CHAMFERA
 40
56.57142857142858
  9
$CHAMFERB
 40
56.57142857142858
  9
$CHAMFERC
 40
113.1428571428571
  9
$CHAMFERD
 40
0.0
  9
$SKPOLY
 70
     0
  9
$TDCREATE
 40
2450994.355304167
  9
$TDUPDATE
 40
2452393.707619039
  9
$TDINDWG
 40
0.0387785532
  9
$TDUSRTIMER
 40
0.0387785532
  9
$USRTIMER
 70
     1
  9
$ANGBASE
 50
0.0
  9
$ANGDIR
 70
     0
  9
$PDMODE
 70
     1
  9
$PDSIZE
 40
0.0
  9
$PLINEWID
 40
0.0
  9
$COORDS
 70
     1
  9
$SPLFRAME
 70
     0
  9
$SPLINETYPE
 70
     6
  9
$SPLINESEGS
 70
     8
  9
$ATTDIA
 70
     0
  9
$ATTREQ
 70
     1
  9
$HANDLING
 70
 10241
  9
$HANDSEED
  5
708
  9
$SURFTAB1
 70
     6
  9
$SURFTAB2
 70
     6
  9
$SURFTYPE
 70
     6
  9
$SURFU
 70
     6
  9
$SURFV
 70
     6
  9
$UCSNAME
  2

  9
$UCSORG
 10
0.0
 20
0.0
 30
0.0
  9
$UCSXDIR
 10
1.0
 20
0.0
 30
0.0
  9
$UCSYDIR
 10
0.0
 20
1.0
 30
0.0
  9
$PUCSNAME
  2

  9
$PUCSORG
 10
0.0
 20
0.0
 30
0.0
  9
$PUCSXDIR
 10
1.0
 20
0.0
 30
0.0
  9
$PUCSYDIR
 10
0.0
 20
1.0
 30
0.0
  9
$USERI1
 70
     0
  9
$USERI2
 70
     0
  9
$USERI3
 70
     0
  9
$USERI4
 70
     0
  9
$USERI5
 70
     0
  9
$USERR1
 40
0.0
  9
$USERR2
 40
0.0
  9
$USERR3
 40
0.0
  9
$USERR4
 40
0.0
  9
$USERR5
 40
0.0
  9
$WORLDVIEW
 70
     1
  9
$SHADEDGE
 70
     3
  9
$SHADEDIF
 70
    70
  9
$TILEMODE
 70
     1
  9
$MAXACTVP
 70
    16
  9
$PINSBASE
 10
0.0
 20
0.0
 30
0.0
  9
$PLIMCHECK
 70
     0
  9
$PEXTMIN
 10
0.0
 20
0.0
 30
0.0
  9
$PEXTMAX
 10
420.0
 20
297.0
 30
0.0
  9
$PLIMMIN
 10
0.0
 20
0.0
  9
$PLIMMAX
 10
420.0
 20
297.0
  9
$UNITMODE
 70
     0
  9
$VISRETAIN
 70
     0
  9
$PLINEGEN
 70
     0
  9
$PSLTSCALE
 70
     1
  9
$TREEDEPTH
 70
  3020
  9
$PICKSTYLE
 70
     1
  9
$CMLSTYLE
  2
STANDARD
  9
$CMLJUST
 70
     0
  9
$CMLSCALE
 40
20.0
  9
$SAVEIMAGES
 70
     1
  0
ENDSEC
  0
SECTION
  2
CLASSES
  0
CLASS
  1
ACDBDICTIONARYWDFLT
  2
AcDbDictionaryWithDefault
  3
AutoCAD 2000
 90
    32768
280
     0
281
     0
  0
CLASS
  1
ACDBPLACEHOLDER
  2
AcDbPlaceHolder
  3
AutoCAD 2000
 90
    32768
280
     0
281
     0
  0
CLASS
  1
LAYOUT
  2
AcDbLayout
  3
AutoCAD 2000
 90
    32768
280
     0
281
     0
  0
CLASS
  1
LONG_TRANSACTION
  2
AcDbLongTransaction
  3
AutoCAD 2000
 90
    32768
280
     0
281
     0
  0
CLASS
  1
LWPOLYLINE
  2
AcDbPolyline
  3
AutoCAD 2000
 90
    32768
280
     0
281
     1
  0
CLASS
  1
HATCH
  2
AcDbHatch
  3
AutoCAD 2000
 90
    32768
280
     0
281
     1
  0
CLASS
  1
XRECORD
  2
AcDbXrecord
  3
AutoCAD 2000
 90
    32768
280
     0
281
     0
  0
CLASS
  1
LONG_TRANSACTION
  2
AcDbLongTransaction
  3
AutoCAD 2000
 90
    32768
280
     0
281
     0
  0
CLASS
  1
LWPOLYLINE
  2
AcDbPolyline
  3
AutoCAD 2000
 90
    32768
280
     0
281
     1
  0
CLASS
  1
HATCH
  2
AcDbHatch
  3
AutoCAD 2000
 90
    32768
280
     0
281
     1
  0
CLASS
  1
XRECORD
  2
AcDbXrecord
  3
AutoCAD 2000
 90
    32768
280
     0
281
     0
  0
CLASS
  1
LONG_TRANSACTION
  2
AcDbLongTransaction
  3
AutoCAD 2000
 90
    32768
280
     0
281
     0
  0
CLASS
  1
LWPOLYLINE
  2
AcDbPolyline
  3
AutoCAD 2000
 90
    32768
280
     0
281
     1
  0
CLASS
  1
HATCH
  2
AcDbHatch
  3
AutoCAD 2000
 90
    32768
280
     0
281
     1
  0
CLASS
  1
XRECORD
  2
AcDbXrecord
  3
AutoCAD 2000
 90
    32768
280
     0
281
     0
  0
ENDSEC
  0
SECTION
  2
TABLES
  0
TABLE
  2
VPORT
  5
8
330
0
100
AcDbSymbolTable
 70
     2
  0
VPORT
  5
705
330
8
100
AcDbSymbolTableRecord
100
AcDbViewportTableRecord
  2
*ACTIVE
 70
     0
 10
0.0
 20
0.0
 11
1.0
 21
1.0
 12
1061.018316291612
 22
569.6603252369213
 13
0.0
 23
0.0
 14
10.0
 24
10.0
 15
10.0
 25
10.0
 16
0.0
 26
0.0
 36
1.0
 17
0.0
 27
0.0
 37
0.0
 40
1193.720658452792
 41
2.169459962756052
 42
50.0
 43
0.0
 44
0.0
 50
0.0
 51
0.0
 71
     0
 72
   100
 73
     1
 74
     0
 75
     0
 76
     0
 77
     0
 78
     0
  0
ENDTAB
  0
TABLE
  2
LTYPE
  5
5
330
0
100
AcDbSymbolTable
 70
     2
  0
LTYPE
  5
13
330
5
100
AcDbSymbolTableRecord
100
AcDbLinetypeTableRecord
  2
BYBLOCK
 70
     0
  3

 72
    65
 73
     0
 40
0.0
  0
LTYPE
  5
14
330
5
100
AcDbSymbolTableRecord
100
AcDbLinetypeTableRecord
  2
BYLAYER
 70
     0
  3

 72
    65
 73
     0
 40
0.0
  0
LTYPE
  5
15
330
5
100
AcDbSymbolTableRecord
100
AcDbLinetypeTableRecord
  2
CONTINUOUS
 70
     0
  3
Solid line
 72
    65
 73
     0
 40
0.0
  0
LTYPE
  5
11C
330
5
100
AcDbSymbolTableRecord
100
AcDbLinetypeTableRecord
  2
CENTER
 70
     0
  3
____ _ ____ _ ____ _ ____ _ ____ _ ____ _ ____ 
 72
    65
 73
     4
 40
2.0
 49
1.25
 74
     0
 49
-0.25
 74
     0
 49
0.25
 74
     0
 49
-0.25
 74
     0
  0
ENDTAB
  0
TABLE
  2
LAYER
  5
2
330
0
100
AcDbSymbolTable
 70
     7
  0
LAYER
  5
F
330
2
100
AcDbSymbolTableRecord
100
AcDbLayerTableRecord
  2
0
 70
     0
 62
     7
  6
CONTINUOUS
  0
LAYER
  5
23
330
2
100
AcDbSymbolTableRecord
100
AcDbLayerTableRecord
  2
VIEWPORT
 70
     0
 62
     7
  6
CONTINUOUS
  0
LAYER
  5
2D
330
2
100
AcDbSymbolTableRecord
100
AcDbLayerTableRecord
  2
ZUWAKU
 70
     0
 62
     7
  6
CONTINUOUS
  0
LAYER
  5
A6
330
2
100
AcDbSymbolTableRecord
100
AcDbLayerTableRecord
  2
DEFPOINTS
 70
     0
 62
     7
  6
CONTINUOUS
  0
LAYER
  5
1C6
330
2
100
AcDbSymbolTableRecord
100
AcDbLayerTableRecord
  2
SEIHIN
 70
     0
 62
     3
  6
CONTINUOUS
  0
LAYER
  5
1C7
330
2
100
AcDbSymbolTableRecord
100
AcDbLayerTableRecord
  2
SUNPOU
 70
     0
 62
     4
  6
CONTINUOUS
  0
LAYER
  5
1C8
330
2
100
AcDbSymbolTableRecord
100
AcDbLayerTableRecord
  2
CENTER_L
 70
     0
 62
     1
  6
CENTER
  0
ENDTAB
  0
TABLE
  2
STYLE
  5
3
330
0
100
AcDbSymbolTable
 70
     1
  0
STYLE
  5
10
330
3
100
AcDbSymbolTableRecord
100
AcDbTextStyleTableRecord
  2
STANDARD
 70
     0
 40
0.0
 41
1.0
 50
0.0
 71
     0
 42
19.8
  3
txt
  4
bigfont.shx
  0
ENDTAB
  0
TABLE
  2
VIEW
  5
6
330
0
100
AcDbSymbolTable
 70
     0
  0
ENDTAB
  0
TABLE
  2
UCS
  5
7
330
0
100
AcDbSymbolTable
 70
     0
  0
ENDTAB
  0
TABLE
  2
APPID
  5
9
330
0
100
AcDbSymbolTable
 70
     1
  0
APPID
  5
11
330
9
100
AcDbSymbolTableRecord
100
AcDbRegAppTableRecord
  2
ACAD
 70
     0
  0
ENDTAB
  0
TABLE
  2
DIMSTYLE
  5
A
330
0
100
AcDbSymbolTable
 70
     1
  0
DIMSTYLE
105
1D
102
{ACAD_REACTORS
330
2AD
330
2AF
330
360
330
363
330
568
330
614
330
625
330
63F
330
64E
330
675
330
682
102
}
330
A
100
AcDbSymbolTableRecord
100
AcDbDimStyleTableRecord
  2
STANDARD
 70
     0
  3

  4

  5

  6

  7

 40
1.0
 41
0.18
 42
0.0625
 43
0.38
 44
0.18
 45
0.0
 46
0.0
 47
0.0
 48
0.0
140
0.18
141
0.09
142
0.0
143
25.4
144
1.0
145
0.0
146
1.0
147
0.09
 71
     0
 72
     0
 73
     1
 74
     1
 75
     0
 76
     0
 77
     0
 78
     0
170
     0
171
     2
172
     0
173
     0
174
     0
175
     0
176
     0
177
     0
178
     0
270
     2
271
     4
272
     4
273
     2
274
     2
340
10
275
     0
280
     0
281
     0
282
     0
283
     1
284
     0
285
     0
286
     0
287
     3
288
     0
  0
ENDTAB
  0
TABLE
  2
BLOCK_RECORD
  5
1
330
0
100
AcDbSymbolTable
 70
    12
  0
BLOCK_RECORD
  5
19
102
{ACAD_XDICTIONARY
360
6C3
102
}
330
1
100
AcDbSymbolTableRecord
100
AcDbBlockTableRecord
  2
*MODEL_SPACE
  0
BLOCK_RECORD
  5
16
102
{ACAD_XDICTIONARY
360
6C1
102
}
330
1
100
AcDbSymbolTableRecord
100
AcDbBlockTableRecord
  2
*PAPER_SPACE
  0
BLOCK_RECORD
  5
27
330
1
100
AcDbSymbolTableRecord
100
AcDbBlockTableRecord
  2
_OPEN
  0
BLOCK_RECORD
  5
386
330
1
100
AcDbSymbolTableRecord
100
AcDbBlockTableRecord
  2
*D1
  0
BLOCK_RECORD
  5
39E
330
1
100
AcDbSymbolTableRecord
100
AcDbBlockTableRecord
  2
*D2
  0
BLOCK_RECORD
  5
3C4
330
1
100
AcDbSymbolTableRecord
100
AcDbBlockTableRecord
  2
*D3
  0
BLOCK_RECORD
  5
3DC
330
1
100
AcDbSymbolTableRecord
100
AcDbBlockTableRecord
  2
*D4
  0
BLOCK_RECORD
  5
55A
330
1
100
AcDbSymbolTableRecord
100
AcDbBlockTableRecord
  2
*D5
  0
BLOCK_RECORD
  5
608
330
1
100
AcDbSymbolTableRecord
100
AcDbBlockTableRecord
  2
*D6
  0
BLOCK_RECORD
  5
619
330
1
100
AcDbSymbolTableRecord
100
AcDbBlockTableRecord
  2
*D7
  0
BLOCK_RECORD
  5
631
330
1
100
AcDbSymbolTableRecord
100
AcDbBlockTableRecord
  2
*D8
  0
BLOCK_RECORD
  5
640
330
1
100
AcDbSymbolTableRecord
100
AcDbBlockTableRecord
  2
*D9
  0
BLOCK_RECORD
  5
669
330
1
100
AcDbSymbolTableRecord
100
AcDbBlockTableRecord
  2
*D10
  0
BLOCK_RECORD
  5
676
330
1
100
AcDbSymbolTableRecord
100
AcDbBlockTableRecord
  2
*D11
  0
ENDTAB
  0
ENDSEC
  0
SECTION
  2
BLOCKS
  0
BLOCK
  5
1A
330
19
100
AcDbEntity
  8
0
100
AcDbBlockBegin
  2
*MODEL_SPACE
 70
     0
 10
0.0
 20
0.0
 30
0.0
  3
*MODEL_SPACE
  1

  0
ENDBLK
  5
1B
330
19
100
AcDbEntity
  8
0
100
AcDbBlockEnd
  0
BLOCK
  5
17
330
16
100
AcDbEntity
 67
     1
  8
0
100
AcDbBlockBegin
  2
*PAPER_SPACE
 70
     0
 10
0.0
 20
0.0
 30
0.0
  3
*PAPER_SPACE
  1

  0
ENDBLK
  5
18
330
16
100
AcDbEntity
 67
     1
  8
0
100
AcDbBlockEnd
  0
BLOCK
  5
28
330
27
100
AcDbEntity
  8
0
100
AcDbBlockBegin
  2
_OPEN
 70
     0
 10
0.0
 20
0.0
 30
0.0
  3
_OPEN
  1

  0
LINE
  5
29
330
27
100
AcDbEntity
  8
0
  6
BYBLOCK
 62
     0
100
AcDbLine
 10
-1.0
 20
0.1666666666666666
 30
0.0
 11
0.0
 21
0.0
 31
0.0
  0
LINE
  5
2A
330
27
100
AcDbEntity
  8
0
  6
BYBLOCK
 62
     0
100
AcDbLine
 10
0.0
 20
0.0
 30
0.0
 11
-1.0
 21
-0.1666666666666666
 31
0.0
  0
LINE
  5
2B
330
27
100
AcDbEntity
  8
0
  6
BYBLOCK
 62
     0
100
AcDbLine
 10
0.0
 20
0.0
 30
0.0
 11
-1.0
 21
0.0
 31
0.0
  0
ENDBLK
  5
2C
330
27
100
AcDbEntity
  8
0
100
AcDbBlockEnd
  0
BLOCK
  5
583
330
386
100
AcDbEntity
  8
0
100
AcDbBlockBegin
  2
*D1
 70
     1
 10
0.0
 20
0.0
 30
0.0
  3
*D1
  1

  0
LINE
  5
584
330
386
100
AcDbEntity
  8
0
  6
BYBLOCK
 62
     4
100
AcDbLine
 10
487.0008742930781
 20
539.165145256401
 30
0.0
 11
487.0008742930781
 21
585.398590427126
 31
0.0
  0
LINE
  5
585
330
386
100
AcDbEntity
  8
0
  6
BYBLOCK
 62
     4
100
AcDbLine
 10
215.0015742930781
 20
539.165145256401
 30
0.0
 11
215.0015742930781
 21
585.398590427126
 31
0.0
  0
LINE
  5
586
330
386
100
AcDbEntity
  8
0
  6
BYBLOCK
 62
     4
100
AcDbLine
 10
475.0008742930781
 20
577.398590427126
 30
0.0
 11
227.0015742930781
 21
577.398590427126
 31
0.0
  0
INSERT
  5
587
330
386
100
AcDbEntity
  8
0
  6
BYBLOCK
 62
     4
100
AcDbBlockReference
  2
_OPEN
 10
487.0008742930781
 20
577.398590427126
 30
0.0
 41
12.0
 42
12.0
 43
12.0
  0
INSERT
  5
588
330
386
100
AcDbEntity
  8
0
  6
BYBLOCK
 62
     4
100
AcDbBlockReference
  2
_OPEN
 10
215.0015742930781
 20
577.398590427126
 30
0.0
 41
12.0
 42
12.0
 43
12.0
 50
180.0
  0
MTEXT
  5
589
330
386
100
AcDbEntity
  8
0
  6
BYBLOCK
 62
     4
100
AcDbMText
 10
351.0012242930781
 20
587.3985904271259
 30
0.0
 40
12.0
 41
0.0
 71
     5
 72
     1
  1
\A1;272
1001
ACAD
1000
MTEXTBEGIN
1070
    73
1070
     1
1070
    44
1040
1.0
1070
    74
1070
     0
1000
MTEXTEND
1000
MTEXTBEGIN
1070
    73
1070
     1
1070
    44
1040
1.0
1070
    74
1070
     0
1000
MTEXTEND
1000
MTEXTBEGIN
1070
    73
1070
     1
1070
    44
1040
1.0
1070
    74
1070
     0
1000
MTEXTEND
  0
POINT
  5
58A
330
386
100
AcDbEntity
  8
DEFPOINTS
  6
BYBLOCK
 62
     0
100
AcDbPoint
 10
487.0008742930781
 20
519.165145256401
 30
0.0
  0
POINT
  5
58B
330
386
100
AcDbEntity
  8
DEFPOINTS
  6
BYBLOCK
 62
     0
100
AcDbPoint
 10
215.0015742930781
 20
519.165145256401
 30
0.0
  0
POINT
  5
58C
330
386
100
AcDbEntity
  8
DEFPOINTS
  6
BYBLOCK
 62
     0
100
AcDbPoint
 10
215.0015742930781
 20
577.398590427126
 30
0.0
  0
ENDBLK
  5
58D
330
386
100
AcDbEntity
  8
0
100
AcDbBlockEnd
  0
BLOCK
  5
40B
330
39E
100
AcDbEntity
  8
0
100
AcDbBlockBegin
  2
*D2
 70
     1
 10
0.0
 20
0.0
 30
0.0
  3
*D2
  1

  0
LINE
  5
40C
330
39E
100
AcDbEntity
  8
0
  6
BYBLOCK
 62
     4
100
AcDbLine
 10
753.0846347979482
 20
200.3345809070406
 30
0.0
 11
753.0846347979482
 21
139.7582987671292
 31
0.0
  0
LINE
  5
40D
330
39E
100
AcDbEntity
  8
0
  6
BYBLOCK
 62
     4
100
AcDbLine
 10
532.2178506734497
 20
200.3345809070406
 30
0.0
 11
532.2178506734497
 21
139.7582987671292
 31
0.0
  0
LINE
  5
40E
330
39E
100
AcDbEntity
  8
0
  6
BYBLOCK
 62
     4
100
AcDbLine
 10
741.0846347979482
 20
147.7582987671292
 30
0.0
 11
544.2178506734497
 21
147.7582987671292
 31
0.0
  0
INSERT
  5
40F
330
39E
100
AcDbEntity
  8
0
  6
BYBLOCK
 62
     4
100
AcDbBlockReference
  2
_OPEN
 10
753.0846347979482
 20
147.7582987671292
 30
0.0
 41
12.0
 42
12.0
 43
12.0
  0
INSERT
  5
410
330
39E
100
AcDbEntity
  8
0
  6
BYBLOCK
 62
     4
100
AcDbBlockReference
  2
_OPEN
 10
532.2178506734497
 20
147.7582987671292
 30
0.0
 41
12.0
 42
12.0
 43
12.0
 50
180.0
  0
MTEXT
  5
411
330
39E
100
AcDbEntity
  8
0
  6
BYBLOCK
 62
     4
100
AcDbMText
 10
642.651242735699
 20
157.7582987671292
 30
0.0
 40
12.0
 41
0.0
 71
     5
 72
     1
  1
\A1;{220}
1001
ACAD
1000
MTEXTBEGIN
1070
    73
1070
     1
1070
    44
1040
1.0
1070
    74
1070
     0
1000
MTEXTEND
1000
MTEXTBEGIN
1070
    73
1070
     1
1070
    44
1040
1.0
1070
    74
1070
     0
1000
MTEXTEND
1000
MTEXTBEGIN
1070
    73
1070
     1
1070
    44
1040
1.0
1070
    74
1070
     0
1000
MTEXTEND
  0
POINT
  5
412
330
39E
100
AcDbEntity
  8
DEFPOINTS
  6
BYBLOCK
 62
     0
100
AcDbPoint
 10
753.0846347979482
 20
220.3345809070406
 30
0.0
  0
POINT
  5
413
330
39E
100
AcDbEntity
  8
DEFPOINTS
  6
BYBLOCK
 62
     0
100
AcDbPoint
 10
532.2178506734497
 20
220.3345809070406
 30
0.0
  0
POINT
  5
414
330
39E
100
AcDbEntity
  8
DEFPOINTS
  6
BYBLOCK
 62
     0
100
AcDbPoint
 10
532.2178506734497
 20
147.7582987671292
 30
0.0
  0
ENDBLK
  5
415
330
39E
100
AcDbEntity
  8
0
100
AcDbBlockEnd
  0
BLOCK
  5
42E
330
3C4
100
AcDbEntity
  8
0
100
AcDbBlockBegin
  2
*D3
 70
     1
 10
0.0
 20
0.0
 30
0.0
  3
*D3
  1

  0
LINE
  5
42F
330
3C4
100
AcDbEntity
  8
0
  6
BYBLOCK
 62
     4
100
AcDbLine
 10
1161.870093684756
 20
530.3345809070406
 30
0.0
 11
1161.870093684756
 21
576.0191570247618
 31
0.0
  0
LINE
  5
430
330
3C4
100
AcDbEntity
  8
0
  6
BYBLOCK
 62
     4
100
AcDbLine
 10
890.8696936847562
 20
530.3345809070406
 30
0.0
 11
890.8696936847562
 21
576.0191570247618
 31
0.0
  0
LINE
  5
431
330
3C4
100
AcDbEntity
  8
0
  6
BYBLOCK
 62
     4
100
AcDbLine
 10
1149.870093684756
 20
568.0191570247618
 30
0.0
 11
902.8696936847563
 21
568.0191570247618
 31
0.0
  0
INSERT
  5
432
330
3C4
100
AcDbEntity
  8
0
  6
BYBLOCK
 62
     4
100
AcDbBlockReference
  2
_OPEN
 10
1161.870093684756
 20
568.0191570247618
 30
0.0
 41
12.0
 42
12.0
 43
12.0
  0
INSERT
  5
433
330
3C4
100
AcDbEntity
  8
0
  6
BYBLOCK
 62
     4
100
AcDbBlockReference
  2
_OPEN
 10
890.8696936847562
 20
568.0191570247618
 30
0.0
 41
12.0
 42
12.0
 43
12.0
 50
180.0
  0
MTEXT
  5
434
330
3C4
100
AcDbEntity
  8
0
  6
BYBLOCK
 62
     4
100
AcDbMText
 10
1026.369893684756
 20
578.0191570247618
 30
0.0
 40
12.0
 41
0.0
 71
     5
 72
     1
  1
\A1;271
1001
ACAD
1000
MTEXTBEGIN
1070
    73
1070
     1
1070
    44
1040
1.0
1070
    74
1070
     0
1000
MTEXTEND
1000
MTEXTBEGIN
1070
    73
1070
     1
1070
    44
1040
1.0
1070
    74
1070
     0
1000
MTEXTEND
1000
MTEXTBEGIN
1070
    73
1070
     1
1070
    44
1040
1.0
1070
    74
1070
     0
1000
MTEXTEND
  0
POINT
  5
435
330
3C4
100
AcDbEntity
  8
DEFPOINTS
  6
BYBLOCK
 62
     0
100
AcDbPoint
 10
1161.870093684756
 20
510.3345809070407
 30
0.0
  0
POINT
  5
436
330
3C4
100
AcDbEntity
  8
DEFPOINTS
  6
BYBLOCK
 62
     0
100
AcDbPoint
 10
890.8696936847562
 20
510.3345809070407
 30
0.0
  0
POINT
  5
437
330
3C4
100
AcDbEntity
  8
DEFPOINTS
  6
BYBLOCK
 62
     0
100
AcDbPoint
 10
890.8696936847562
 20
568.0191570247618
 30
0.0
  0
ENDBLK
  5
438
330
3C4
100
AcDbEntity
  8
0
100
AcDbBlockEnd
  0
BLOCK
  5
444
330
3DC
100
AcDbEntity
  8
0
100
AcDbBlockBegin
  2
*D4
 70
     1
 10
0.0
 20
0.0
 30
0.0
  3
*D4
  1

  0
LINE
  5
445
330
3DC
100
AcDbEntity
  8
0
  6
BYBLOCK
 62
     4
100
AcDbLine
 10
916.8696156183997
 20
200.3345809070406
 30
0.0
 11
916.8696156183997
 21
139.7582987671292
 31
0.0
  0
LINE
  5
446
330
3DC
100
AcDbEntity
  8
0
  6
BYBLOCK
 62
     4
100
AcDbLine
 10
1158.869658216596
 20
200.3345809070406
 30
0.0
 11
1158.869658216596
 21
139.7582987671292
 31
0.0
  0
LINE
  5
447
330
3DC
100
AcDbEntity
  8
0
  6
BYBLOCK
 62
     4
100
AcDbLine
 10
928.8696156183998
 20
147.7582987671292
 30
0.0
 11
1146.869658216596
 21
147.7582987671292
 31
0.0
  0
INSERT
  5
448
330
3DC
100
AcDbEntity
  8
0
  6
BYBLOCK
 62
     4
100
AcDbBlockReference
  2
_OPEN
 10
916.8696156183997
 20
147.7582987671292
 30
0.0
 41
12.0
 42
12.0
 43
12.0
 50
180.0
  0
INSERT
  5
449
330
3DC
100
AcDbEntity
  8
0
  6
BYBLOCK
 62
     4
100
AcDbBlockReference
  2
_OPEN
 10
1158.869658216596
 20
147.7582987671292
 30
0.0
 41
12.0
 42
12.0
 43
12.0
  0
MTEXT
  5
44A
330
3DC
100
AcDbEntity
  8
0
  6
BYBLOCK
 62
     4
100
AcDbMText
 10
1037.869636917498
 20
157.7582987671292
 30
0.0
 40
12.0
 41
0.0
 71
     5
 72
     1
  1
\A1;242
1001
ACAD
1000
MTEXTBEGIN
1070
    73
1070
     1
1070
    44
1040
1.0
1070
    74
1070
     0
1000
MTEXTEND
1000
MTEXTBEGIN
1070
    73
1070
     1
1070
    44
1040
1.0
1070
    74
1070
     0
1000
MTEXTEND
1000
MTEXTBEGIN
1070
    73
1070
     1
1070
    44
1040
1.0
1070
    74
1070
     0
1000
MTEXTEND
  0
POINT
  5
44B
330
3DC
100
AcDbEntity
  8
DEFPOINTS
  6
BYBLOCK
 62
     0
100
AcDbPoint
 10
916.8696156183997
 20
220.3345809070406
 30
0.0
  0
POINT
  5
44C
330
3DC
100
AcDbEntity
  8
DEFPOINTS
  6
BYBLOCK
 62
     0
100
AcDbPoint
 10
1158.869658216596
 20
220.3345809070406
 30
0.0
  0
POINT
  5
44D
330
3DC
100
AcDbEntity
  8
DEFPOINTS
  6
BYBLOCK
 62
     0
100
AcDbPoint
 10
1158.869658216596
 20
147.7582987671292
 30
0.0
  0
ENDBLK
  5
44E
330
3DC
100
AcDbEntity
  8
0
100
AcDbBlockEnd
  0
BLOCK
  5
576
330
55A
100
AcDbEntity
  8
0
100
AcDbBlockBegin
  2
*D5
 70
     1
 10
0.0
 20
0.0
 30
0.0
  3
*D5
  1

  0
LINE
  5
577
330
55A
100
AcDbEntity
  8
0
  6
BYBLOCK
 62
     4
100
AcDbLine
 10
1154.501274293078
 20
502.665145256401
 30
0.0
 11
1154.501274293078
 21
541.3519260680422
 31
0.0
  0
LINE
  5
578
330
55A
100
AcDbEntity
  8
0
  6
BYBLOCK
 62
     4
100
AcDbLine
 10
1147.501274293078
 20
502.665145256401
 30
0.0
 11
1147.501274293078
 21
541.3519260680422
 31
0.0
  0
LINE
  5
579
330
55A
100
AcDbEntity
  8
0
  6
BYBLOCK
 62
     4
100
AcDbLine
 10
1133.501274293078
 20
535.3519260680423
 30
0.0
 11
1119.501274293078
 21
535.3519260680423
 31
0.0
  0
LINE
  5
57A
330
55A
100
AcDbEntity
  8
0
  6
BYBLOCK
 62
     4
100
AcDbLine
 10
1168.501274293078
 20
535.3519260680423
 30
0.0
 11
1198.501274293078
 21
535.3519260680423
 31
0.0
  0
LINE
  5
57B
330
55A
100
AcDbEntity
  8
0
  6
BYBLOCK
 62
     4
100
AcDbLine
 10
1147.501274293078
 20
535.3519260680423
 30
0.0
 11
1154.501274293078
 21
535.3519260680423
 31
0.0
  0
INSERT
  5
57C
330
55A
100
AcDbEntity
  8
0
  6
BYBLOCK
 62
     4
100
AcDbBlockReference
  2
_OPEN
 10
1147.501274293078
 20
535.3519260680423
 30
0.0
 41
14.0
 42
14.0
 43
14.0
  0
INSERT
  5
57D
330
55A
100
AcDbEntity
  8
0
  6
BYBLOCK
 62
     4
100
AcDbBlockReference
  2
_OPEN
 10
1154.501274293078
 20
535.3519260680423
 30
0.0
 41
14.0
 42
14.0
 43
14.0
 50
180.0
  0
MTEXT
  5
57E
330
55A
100
AcDbEntity
  8
0
  6
BYBLOCK
 62
     4
100
AcDbMText
 10
1190.501274293078
 20
545.3519260680423
 30
0.0
 40
12.0
 41
0.0
 71
     5
 72
     1
  1
\A1;7
1001
ACAD
1000
MTEXTBEGIN
1070
    73
1070
     1
1070
    44
1040
1.0
1070
    74
1070
     0
1000
MTEXTEND
1000
MTEXTBEGIN
1070
    73
1070
     1
1070
    44
1040
1.0
1070
    74
1070
     0
1000
MTEXTEND
1000
MTEXTBEGIN
1070
    73
1070
     1
1070
    44
1040
1.0
1070
    74
1070
     0
1000
MTEXTEND
  0
POINT
  5
57F
330
55A
100
AcDbEntity
  8
DEFPOINTS
  6
BYBLOCK
 62
     0
100
AcDbPoint
 10
1154.501274293078
 20
490.665145256401
 30
0.0
  0
POINT
  5
580
330
55A
100
AcDbEntity
  8
DEFPOINTS
  6
BYBLOCK
 62
     0
100
AcDbPoint
 10
1147.501274293078
 20
490.665145256401
 30
0.0
  0
POINT
  5
581
330
55A
100
AcDbEntity
  8
DEFPOINTS
  6
BYBLOCK
 62
     0
100
AcDbPoint
 10
1147.501274293078
 20
535.3519260680423
 30
0.0
  0
ENDBLK
  5
582
330
55A
100
AcDbEntity
  8
0
100
AcDbBlockEnd
  0
BLOCK
  5
609
330
608
100
AcDbEntity
  8
0
100
AcDbBlockBegin
  2
*D6
 70
     1
 10
0.0
 20
0.0
 30
0.0
  3
*D6
  1

  0
LINE
  5
60A
330
608
100
AcDbEntity
  8
0
  6
BYBLOCK
 62
     4
100
AcDbLine
 10
991.2191939050854
 20
1004.080888371443
 30
0.0
 11
1050.93774288878
 21
1004.080888371443
 31
0.0
  0
LINE
  5
60B
330
608
100
AcDbEntity
  8
0
  6
BYBLOCK
 62
     4
100
AcDbLine
 10
991.2188939050851
 20
732.0814883714433
 30
0.0
 11
1050.93774288878
 21
732.0814883714433
 31
0.0
  0
LINE
  5
60C
330
608
100
AcDbEntity
  8
0
  6
BYBLOCK
 62
     4
100
AcDbLine
 10
1044.93774288878
 20
990.0808883714434
 30
0.0
 11
1044.93774288878
 21
746.0814883714434
 31
0.0
  0
INSERT
  5
60D
330
608
100
AcDbEntity
  8
0
  6
BYBLOCK
 62
     4
100
AcDbBlockReference
  2
_OPEN
 10
1044.93774288878
 20
1004.080888371443
 30
0.0
 41
14.0
 42
14.0
 43
14.0
 50
90.0
  0
INSERT
  5
60E
330
608
100
AcDbEntity
  8
0
  6
BYBLOCK
 62
     4
100
AcDbBlockReference
  2
_OPEN
 10
1044.93774288878
 20
732.0814883714433
 30
0.0
 41
14.0
 42
14.0
 43
14.0
 50
270.0
  0
MTEXT
  5
60F
330
608
100
AcDbEntity
  8
0
  6
BYBLOCK
 62
     4
100
AcDbMText
 10
1034.93774288878
 20
868.0811883714435
 30
0.0
 40
12.0
 41
0.0
 71
     5
 72
     1
  1
\A1;272
 11
0.0
 21
1.0
 31
0.0
1001
ACAD
1000
MTEXTBEGIN
1070
    73
1070
     1
1070
    44
1040
1.0
1070
    74
1070
     0
1000
MTEXTEND
1000
MTEXTBEGIN
1070
    73
1070
     1
1070
    44
1040
1.0
1070
    74
1070
     0
1000
MTEXTEND
1000
MTEXTBEGIN
1070
    73
1070
     1
1070
    44
1040
1.0
1070
    74
1070
     0
1000
MTEXTEND
  0
POINT
  5
610
330
608
100
AcDbEntity
  8
DEFPOINTS
  6
BYBLOCK
 62
     0
100
AcDbPoint
 10
979.2191939050853
 20
1004.080888371443
 30
0.0
  0
POINT
  5
611
330
608
100
AcDbEntity
  8
DEFPOINTS
  6
BYBLOCK
 62
     0
100
AcDbPoint
 10
979.2188939050852
 20
732.0814883714433
 30
0.0
  0
POINT
  5
612
330
608
100
AcDbEntity
  8
DEFPOINTS
  6
BYBLOCK
 62
     0
100
AcDbPoint
 10
1044.93774288878
 20
732.0814883714433
 30
0.0
  0
ENDBLK
  5
613
330
608
100
AcDbEntity
  8
0
100
AcDbBlockEnd
  0
BLOCK
  5
626
330
619
100
AcDbEntity
  8
0
100
AcDbBlockBegin
  2
*D7
 70
     1
 10
0.0
 20
0.0
 30
0.0
  3
*D7
  1

  0
LINE
  5
627
330
619
100
AcDbEntity
  8
0
  6
BYBLOCK
 62
     4
100
AcDbLine
 10
698.6317886545647
 20
521.4070101433107
 30
0.0
 11
657.639220602322
 21
521.4070101433107
 31
0.0
  0
LINE
  5
628
330
619
100
AcDbEntity
  8
0
  6
BYBLOCK
 62
     4
100
AcDbLine
 10
730.2066886545646
 20
231.4070101433108
 30
0.0
 11
657.639220602322
 21
231.4070101433108
 31
0.0
  0
LINE
  5
629
330
619
100
AcDbEntity
  8
0
  6
BYBLOCK
 62
     4
100
AcDbLine
 10
663.6392206023219
 20
507.4070101433107
 30
0.0
 11
663.6392206023219
 21
245.4070101433107
 31
0.0
  0
INSERT
  5
62A
330
619
100
AcDbEntity
  8
0
  6
BYBLOCK
 62
     4
100
AcDbBlockReference
  2
_OPEN
 10
663.6392206023219
 20
521.4070101433107
 30
0.0
 41
14.0
 42
14.0
 43
14.0
 50
90.0
  0
INSERT
  5
62B
330
619
100
AcDbEntity
  8
0
  6
BYBLOCK
 62
     4
100
AcDbBlockReference
  2
_OPEN
 10
663.6392206023219
 20
231.4070101433108
 30
0.0
 41
14.0
 42
14.0
 43
14.0
 50
270.0
  0
MTEXT
  5
62C
330
619
100
AcDbEntity
  8
0
  6
BYBLOCK
 62
     4
100
AcDbMText
 10
653.639220602322
 20
376.4070101433107
 30
0.0
 40
12.0
 41
0.0
 71
     5
 72
     1
  1
\A1;290
 11
0.0
 21
1.0
 31
0.0
1001
ACAD
1000
MTEXTBEGIN
1070
    73
1070
     1
1070
    44
1040
1.0
1070
    74
1070
     0
1000
MTEXTEND
1000
MTEXTBEGIN
1070
    73
1070
     1
1070
    44
1040
1.0
1070
    74
1070
     0
1000
MTEXTEND
1000
MTEXTBEGIN
1070
    73
1070
     1
1070
    44
1040
1.0
1070
    74
1070
     0
1000
MTEXTEND
  0
POINT
  5
62D
330
619
100
AcDbEntity
  8
DEFPOINTS
  6
BYBLOCK
 62
     0
100
AcDbPoint
 10
710.6317886545647
 20
521.4070101433107
 30
0.0
  0
POINT
  5
62E
330
619
100
AcDbEntity
  8
DEFPOINTS
  6
BYBLOCK
 62
     0
100
AcDbPoint
 10
742.2066886545646
 20
231.4070101433108
 30
0.0
  0
POINT
  5
62F
330
619
100
AcDbEntity
  8
DEFPOINTS
  6
BYBLOCK
 62
     0
100
AcDbPoint
 10
663.6392206023219
 20
231.4070101433108
 30
0.0
  0
ENDBLK
  5
630
330
619
100
AcDbEntity
  8
0
100
AcDbBlockEnd
  0
BLOCK
  5
65C
330
631
100
AcDbEntity
  8
0
100
AcDbBlockBegin
  2
*D8
 70
     1
 10
0.0
 20
0.0
 30
0.0
  3
*D8
  1

  0
LINE
  5
65D
330
631
100
AcDbEntity
  8
0
  6
BYBLOCK
 62
     4
100
AcDbLine
 10
1170.413388654564
 20
488.4070101433108
 30
0.0
 11
1115.638485347754
 21
488.4070101433108
 31
0.0
  0
LINE
  5
65E
330
631
100
AcDbEntity
  8
0
  6
BYBLOCK
 62
     4
100
AcDbLine
 10
1170.413388654564
 20
504.4070101433107
 30
0.0
 11
1115.638485347754
 21
504.4070101433107
 31
0.0
  0
LINE
  5
65F
330
631
100
AcDbEntity
  8
0
  6
BYBLOCK
 62
     4
100
AcDbLine
 10
1121.638485347754
 20
518.4070101433108
 30
0.0
 11
1121.638485347754
 21
532.4070101433107
 31
0.0
  0
LINE
  5
660
330
631
100
AcDbEntity
  8
0
  6
BYBLOCK
 62
     4
100
AcDbLine
 10
1121.638485347754
 20
474.4070101433107
 30
0.0
 11
1121.638485347754
 21
436.4070101433108
 31
0.0
  0
LINE
  5
661
330
631
100
AcDbEntity
  8
0
  6
BYBLOCK
 62
     4
100
AcDbLine
 10
1121.638485347754
 20
504.4070101433107
 30
0.0
 11
1121.638485347754
 21
488.4070101433108
 31
0.0
  0
INSERT
  5
662
330
631
100
AcDbEntity
  8
0
  6
BYBLOCK
 62
     4
100
AcDbBlockReference
  2
_OPEN
 10
1121.638485347754
 20
504.4070101433107
 30
0.0
 41
14.0
 42
14.0
 43
14.0
 50
270.0
  0
INSERT
  5
663
330
631
100
AcDbEntity
  8
0
  6
BYBLOCK
 62
     4
100
AcDbBlockReference
  2
_OPEN
 10
1121.638485347754
 20
488.4070101433108
 30
0.0
 41
14.0
 42
14.0
 43
14.0
 50
90.0
  0
MTEXT
  5
664
330
631
100
AcDbEntity
  8
0
  6
BYBLOCK
 62
     4
100
AcDbMText
 10
1111.638485347754
 20
448.4070101433108
 30
0.0
 40
12.0
 41
0.0
 71
     5
 72
     1
  1
\A1;16
 11
0.0
 21
1.0
 31
0.0
1001
ACAD
1000
MTEXTBEGIN
1070
    73
1070
     1
1070
    44
1040
1.0
1070
    74
1070
     0
1000
MTEXTEND
1000
MTEXTBEGIN
1070
    73
1070
     1
1070
    44
1040
1.0
1070
    74
1070
     0
1000
MTEXTEND
1000
MTEXTBEGIN
1070
    73
1070
     1
1070
    44
1040
1.0
1070
    74
1070
     0
1000
MTEXTEND
  0
POINT
  5
665
330
631
100
AcDbEntity
  8
DEFPOINTS
  6
BYBLOCK
 62
     0
100
AcDbPoint
 10
1182.413388654564
 20
488.4070101433108
 30
0.0
  0
POINT
  5
666
330
631
100
AcDbEntity
  8
DEFPOINTS
  6
BYBLOCK
 62
     0
100
AcDbPoint
 10
1182.413388654564
 20
504.4070101433107
 30
0.0
  0
POINT
  5
667
330
631
100
AcDbEntity
  8
DEFPOINTS
  6
BYBLOCK
 62
     0
100
AcDbPoint
 10
1121.638485347754
 20
504.4070101433107
 30
0.0
  0
ENDBLK
  5
668
330
631
100
AcDbEntity
  8
0
100
AcDbBlockEnd
  0
BLOCK
  5
641
330
640
100
AcDbEntity
  8
0
100
AcDbBlockBegin
  2
*D9
 70
     1
 10
0.0
 20
0.0
 30
0.0
  3
*D9
  1

  0
LINE
  5
642
330
640
100
AcDbEntity
  8
0
  6
BYBLOCK
 62
     4
100
AcDbLine
 10
1134.413688654564
 20
521.4070101433107
 30
0.0
 11
1076.192752326094
 21
521.4070101433107
 31
0.0
  0
LINE
  5
643
330
640
100
AcDbEntity
  8
0
  6
BYBLOCK
 62
     4
100
AcDbLine
 10
1158.813988654564
 20
496.4070101433107
 30
0.0
 11
1076.192752326094
 21
496.4070101433107
 31
0.0
  0
LINE
  5
644
330
640
100
AcDbEntity
  8
0
  6
BYBLOCK
 62
     4
100
AcDbLine
 10
1082.192752326094
 20
535.4070101433108
 30
0.0
 11
1082.192752326094
 21
549.4070101433107
 31
0.0
  0
LINE
  5
645
330
640
100
AcDbEntity
  8
0
  6
BYBLOCK
 62
     4
100
AcDbLine
 10
1082.192752326094
 20
482.4070101433107
 30
0.0
 11
1082.192752326094
 21
440.4070101433108
 31
0.0
  0
LINE
  5
646
330
640
100
AcDbEntity
  8
0
  6
BYBLOCK
 62
     4
100
AcDbLine
 10
1082.192752326094
 20
521.4070101433107
 30
0.0
 11
1082.192752326094
 21
496.4070101433107
 31
0.0
  0
INSERT
  5
647
330
640
100
AcDbEntity
  8
0
  6
BYBLOCK
 62
     4
100
AcDbBlockReference
  2
_OPEN
 10
1082.192752326094
 20
521.4070101433107
 30
0.0
 41
14.0
 42
14.0
 43
14.0
 50
270.0
  0
INSERT
  5
648
330
640
100
AcDbEntity
  8
0
  6
BYBLOCK
 62
     4
100
AcDbBlockReference
  2
_OPEN
 10
1082.192752326094
 20
496.4070101433107
 30
0.0
 41
14.0
 42
14.0
 43
14.0
 50
90.0
  0
MTEXT
  5
649
330
640
100
AcDbEntity
  8
0
  6
BYBLOCK
 62
     4
100
AcDbMText
 10
1072.192752326094
 20
454.4070101433107
 30
0.0
 40
12.0
 41
0.0
 71
     5
 72
     1
  1
\A1;25
 11
0.0
 21
1.0
 31
0.0
1001
ACAD
1000
MTEXTBEGIN
1070
    73
1070
     1
1070
    44
1040
1.0
1070
    74
1070
     0
1000
MTEXTEND
1000
MTEXTBEGIN
1070
    73
1070
     1
1070
    44
1040
1.0
1070
    74
1070
     0
1000
MTEXTEND
1000
MTEXTBEGIN
1070
    73
1070
     1
1070
    44
1040
1.0
1070
    74
1070
     0
1000
MTEXTEND
  0
POINT
  5
64A
330
640
100
AcDbEntity
  8
DEFPOINTS
  6
BYBLOCK
 62
     0
100
AcDbPoint
 10
1146.413688654564
 20
521.4070101433107
 30
0.0
  0
POINT
  5
64B
330
640
100
AcDbEntity
  8
DEFPOINTS
  6
BYBLOCK
 62
     0
100
AcDbPoint
 10
1170.813988654564
 20
496.4070101433107
 30
0.0
  0
POINT
  5
64C
330
640
100
AcDbEntity
  8
DEFPOINTS
  6
BYBLOCK
 62
     0
100
AcDbPoint
 10
1082.192752326094
 20
496.4070101433107
 30
0.0
  0
ENDBLK
  5
64D
330
640
100
AcDbEntity
  8
0
100
AcDbBlockEnd
  0
BLOCK
  5
66A
330
669
100
AcDbEntity
  8
0
100
AcDbBlockBegin
  2
*D10
 70
     1
 10
0.0
 20
0.0
 30
0.0
  3
*D10
  1

  0
LINE
  5
66B
330
669
100
AcDbEntity
  8
0
  6
BYBLOCK
 62
     4
100
AcDbLine
 10
1382.413388654564
 20
519.9505101433108
 30
0.0
 11
1382.413388654564
 21
585.0634090661006
 31
0.0
  0
LINE
  5
66C
330
669
100
AcDbEntity
  8
0
  6
BYBLOCK
 62
     4
100
AcDbLine
 10
1182.413388654564
 20
519.9505101433108
 30
0.0
 11
1182.413388654564
 21
585.0634090661006
 31
0.0
  0
LINE
  5
66D
330
669
100
AcDbEntity
  8
0
  6
BYBLOCK
 62
     4
100
AcDbLine
 10
1368.413388654564
 20
579.0634090661005
 30
0.0
 11
1196.413388654564
 21
579.0634090661005
 31
0.0
  0
INSERT
  5
66E
330
669
100
AcDbEntity
  8
0
  6
BYBLOCK
 62
     4
100
AcDbBlockReference
  2
_OPEN
 10
1382.413388654564
 20
579.0634090661005
 30
0.0
 41
14.0
 42
14.0
 43
14.0
  0
INSERT
  5
66F
330
669
100
AcDbEntity
  8
0
  6
BYBLOCK
 62
     4
100
AcDbBlockReference
  2
_OPEN
 10
1182.413388654564
 20
579.0634090661005
 30
0.0
 41
14.0
 42
14.0
 43
14.0
 50
180.0
  0
MTEXT
  5
670
330
669
100
AcDbEntity
  8
0
  6
BYBLOCK
 62
     4
100
AcDbMText
 10
1282.413388654564
 20
589.0634090661006
 30
0.0
 40
12.0
 41
0.0
 71
     5
 72
     1
  1
\A1;200
1001
ACAD
1000
MTEXTBEGIN
1070
    73
1070
     1
1070
    44
1040
1.0
1070
    74
1070
     0
1000
MTEXTEND
1000
MTEXTBEGIN
1070
    73
1070
     1
1070
    44
1040
1.0
1070
    74
1070
     0
1000
MTEXTEND
1000
MTEXTBEGIN
1070
    73
1070
     1
1070
    44
1040
1.0
1070
    74
1070
     0
1000
MTEXTEND
  0
POINT
  5
671
330
669
100
AcDbEntity
  8
DEFPOINTS
  6
BYBLOCK
 62
     0
100
AcDbPoint
 10
1382.413388654564
 20
507.9505101433108
 30
0.0
  0
POINT
  5
672
330
669
100
AcDbEntity
  8
DEFPOINTS
  6
BYBLOCK
 62
     0
100
AcDbPoint
 10
1182.413388654564
 20
507.9505101433108
 30
0.0
  0
POINT
  5
673
330
669
100
AcDbEntity
  8
DEFPOINTS
  6
BYBLOCK
 62
     0
100
AcDbPoint
 10
1182.413388654564
 20
579.0634090661005
 30
0.0
  0
ENDBLK
  5
674
330
669
100
AcDbEntity
  8
0
100
AcDbBlockEnd
  0
BLOCK
  5
677
330
676
100
AcDbEntity
  8
0
100
AcDbBlockBegin
  2
*D11
 70
     1
 10
0.0
 20
0.0
 30
0.0
  3
*D11
  1

  0
LINE
  5
678
330
676
100
AcDbEntity
  8
0
  6
BYBLOCK
 62
     4
100
AcDbLine
 10
1418.412988654564
 20
533.4070101433107
 30
0.0
 11
1418.412988654564
 21
620.0146327745219
 31
0.0
  0
LINE
  5
679
330
676
100
AcDbEntity
  8
0
  6
BYBLOCK
 62
     4
100
AcDbLine
 10
1146.413688654564
 20
533.4070101433107
 30
0.0
 11
1146.413688654564
 21
620.0146327745219
 31
0.0
  0
LINE
  5
67A
330
676
100
AcDbEntity
  8
0
  6
BYBLOCK
 62
     4
100
AcDbLine
 10
1404.412988654564
 20
614.0146327745219
 30
0.0
 11
1160.413688654564
 21
614.0146327745219
 31
0.0
  0
INSERT
  5
67B
330
676
100
AcDbEntity
  8
0
  6
BYBLOCK
 62
     4
100
AcDbBlockReference
  2
_OPEN
 10
1418.412988654564
 20
614.0146327745219
 30
0.0
 41
14.0
 42
14.0
 43
14.0
  0
INSERT
  5
67C
330
676
100
AcDbEntity
  8
0
  6
BYBLOCK
 62
     4
100
AcDbBlockReference
  2
_OPEN
 10
1146.413688654564
 20
614.0146327745219
 30
0.0
 41
14.0
 42
14.0
 43
14.0
 50
180.0
  0
MTEXT
  5
67D
330
676
100
AcDbEntity
  8
0
  6
BYBLOCK
 62
     4
100
AcDbMText
 10
1282.413338654564
 20
624.0146327745219
 30
0.0
 40
12.0
 41
0.0
 71
     5
 72
     1
  1
\A1;272
1001
ACAD
1000
MTEXTBEGIN
1070
    73
1070
     1
1070
    44
1040
1.0
1070
    74
1070
     0
1000
MTEXTEND
1000
MTEXTBEGIN
1070
    73
1070
     1
1070
    44
1040
1.0
1070
    74
1070
     0
1000
MTEXTEND
1000
MTEXTBEGIN
1070
    73
1070
     1
1070
    44
1040
1.0
1070
    74
1070
     0
1000
MTEXTEND
  0
POINT
  5
67E
330
676
100
AcDbEntity
  8
DEFPOINTS
  6
BYBLOCK
 62
     0
100
AcDbPoint
 10
1418.412988654564
 20
521.4070101433107
 30
0.0
  0
POINT
  5
67F
330
676
100
AcDbEntity
  8
DEFPOINTS
  6
BYBLOCK
 62
     0
100
AcDbPoint
 10
1146.413688654564
 20
521.4070101433107
 30
0.0
  0
POINT
  5
680
330
676
100
AcDbEntity
  8
DEFPOINTS
  6
BYBLOCK
 62
     0
100
AcDbPoint
 10
1146.413688654564
 20
614.0146327745219
 30
0.0
  0
ENDBLK
  5
681
330
676
100
AcDbEntity
  8
0
100
AcDbBlockEnd
  0
ENDSEC
  0
SECTION
  2
ENTITIES
  0
LINE
  5
121
330
19
100
AcDbEntity
  8
ZUWAKU
 62
     7
 48
10.0
100
AcDbLine
 10
19.90074647074652
 20
48.1669006995453
 30
0.0
 11
1611.900746470746
 21
48.16690069954507
 31
0.0
  0
LINE
  5
122
330
19
100
AcDbEntity
  8
ZUWAKU
  6
CONTINUOUS
 62
     7
100
AcDbLine
 10
1611.900746470746
 20
1124.166900699545
 30
0.0
 11
19.90074647074652
 21
1124.166900699545
 31
0.0
  0
LINE
  5
123
330
19
100
AcDbEntity
  8
ZUWAKU
  6
CONTINUOUS
 62
     7
100
AcDbLine
 10
1611.900746470746
 20
24.16690069954529
 30
0.0
 11
19.90074647074652
 21
24.16690069954529
 31
0.0
  0
LINE
  5
124
330
19
100
AcDbEntity
  8
ZUWAKU
  6
CONTINUOUS
 62
     7
100
AcDbLine
 10
19.90074647074652
 20
1124.166900699545
 30
0.0
 11
19.90074647074652
 21
24.16690069954529
 31
0.0
  0
LINE
  5
125
330
19
100
AcDbEntity
  8
ZUWAKU
 62
     7
 48
10.0
100
AcDbLine
 10
88.91574076238157
 20
24.16690069954529
 30
0.0
 11
88.91574076238157
 21
48.1669006995453
 31
0.0
  0
TEXT
  5
126
330
19
100
AcDbEntity
  8
ZUWAKU
 62
     7
100
AcDbText
 10
31.91332132304342
 20
27.64761340998802
 30
0.0
 40
16.0
  1
品 種
100
AcDbText
  0
LINE
  5
127
330
19
100
AcDbEntity
  8
ZUWAKU
 62
     7
 48
10.0
100
AcDbLine
 10
552.0054677130756
 20
24.16690069954529
 30
0.0
 11
552.0054677130756
 21
48.16690069954521
 31
0.0
  0
LINE
  5
128
330
19
100
AcDbEntity
  8
ZUWAKU
 62
     7
 48
10.0
100
AcDbLine
 10
418.8274955845217
 20
24.16690069954529
 30
0.0
 11
418.8274955845218
 21
48.16690069954525
 31
0.0
  0
TEXT
  5
129
330
19
100
AcDbEntity
  8
ZUWAKU
 62
     7
100
AcDbText
 10
564.4260762822405
 20
27.88656214294769
 30
0.0
 40
16.0
  1
Ｂ型　１００
100
AcDbText
  0
TEXT
  5
12A
330
19
100
AcDbEntity
  8
ZUWAKU
 62
     7
100
AcDbText
 10
430.711957737576
 20
28.96889043994906
 30
0.0
 40
16.0
  1
品名・ｻ ｲ ｽﾞ
100
AcDbText
  0
TEXT
  5
12B
330
19
100
AcDbEntity
  8
ZUWAKU
 62
     7
100
AcDbText
 10
100.503666760442
 20
28.80785192669509
 30
0.0
 40
16.0
  1
自在マス
100
AcDbText
  0
LINE
  5
12C
330
19
100
AcDbEntity
  8
ZUWAKU
 62
     7
 48
10.0
100
AcDbLine
 10
1537.246006285983
 20
24.16690069954474
 30
0.0
 11
1537.246006285983
 21
48.16690069954507
 31
0.0
  0
LINE
  5
12D
330
19
100
AcDbEntity
  8
ZUWAKU
 62
     7
 48
10.0
100
AcDbLine
 10
1467.423590774814
 20
24.16690069954483
 30
0.0
 11
1467.423590774814
 21
48.16690069954509
 31
0.0
  0
TEXT
  5
12E
330
19
100
AcDbEntity
  8
ZUWAKU
 62
     7
100
AcDbText
 10
1479.19091629413
 20
27.08628325011705
 30
0.0
 40
16.0
  1
尺 度
100
AcDbText
  0
TEXT
  5
12F
330
19
100
AcDbEntity
  8
ZUWAKU
 62
     7
100
AcDbText
 10
1559.27471636407
 20
27.71150653553059
 30
0.0
 40
16.0
  1
1/4
100
AcDbText
  0
TEXT
  5
130
330
19
100
AcDbEntity
  8
ZUWAKU
 62
     7
100
AcDbText
 10
1308.30613703518
 20
28.40748782453036
 30
0.0
 40
16.0
  1
ＧＨ８４
100
AcDbText
  0
TEXT
  5
131
330
19
100
AcDbEntity
  8
ZUWAKU
 62
     7
100
AcDbText
 10
1240.472447976041
 20
27.90554632275259
 30
0.0
 40
16.0
  1
品 番
100
AcDbText
  0
LINE
  5
132
330
19
100
AcDbEntity
  8
ZUWAKU
 62
     7
 48
10.0
100
AcDbLine
 10
1228.46999593825
 20
24.16690069954464
 30
0.0
 11
1228.46999593825
 21
48.16690069954512
 31
0.0
  0
LINE
  5
133
330
19
100
AcDbEntity
  8
ZUWAKU
 62
     7
 48
10.0
100
AcDbLine
 10
1297.321307773629
 20
24.16690069954464
 30
0.0
 11
1297.321307773629
 21
48.1669006995451
 31
0.0
  0
TEXT
  5
134
330
19
100
AcDbEntity
  8
ZUWAKU
 62
     7
 48
10.0
100
AcDbText
 10
1292.407013373002
 20
5.798621502208334
 30
0.0
 40
16.0
  1
積水化学工業株式会社  建材
100
AcDbText
  0
LINE
  5
135
330
19
100
AcDbEntity
  8
ZUWAKU
  6
CONTINUOUS
 62
     7
100
AcDbLine
 10
1611.900746470746
 20
1124.166900699545
 30
0.0
 11
1611.900746470746
 21
24.16690069954529
 31
0.0
  0
DIMENSION
  5
2AD
330
19
100
AcDbEntity
  8
SUNPOU
  6
CONTINUOUS
 62
     4
100
AcDbDimension
  2
*D1
 10
296.4136886545647
 20
579.6404553140357
 30
0.0
 11
432.4133386545647
 21
589.6404553140357
 31
0.0
 12
81.4121143614866
 22
2.241864886909752
 32
0.0
 70
    32
  3
STANDARD
100
AcDbAlignedDimension
 13
568.4129886545647
 23
521.4070101433107
 33
0.0
 14
296.4136886545647
 24
521.4070101433107
 34
0.0
100
AcDbRotatedDimension
1001
ACAD
1000
DSTYLE
1002
{
1070
   140
1040
12.0
1070
    74
1070
     0
1070
    73
1070
     0
1070
   272
1070
     0
1070
    77
1070
     3
1070
   173
1070
     1
1070
   147
1040
4.0
1070
    42
1040
20.0
1070
    44
1040
8.0
1070
    43
1040
32.0
1070
   271
1070
     0
1070
   178
1070
     4
1070
   177
1070
     4
1070
   176
1070
     4
1070
   141
1040
12.0
1070
     7
1000
_OPEN
1070
     6
1000
_OPEN
1070
    41
1040
12.0
1002
}
  0
DIMENSION
  5
2AF
330
19
100
AcDbEntity
  8
SUNPOU
  6
CONTINUOUS
 62
     4
100
AcDbDimension
  2
*D2
 10
321.9799456432581
 20
158.8307280033994
 30
0.0
 11
432.4133377055074
 21
168.8307280033994
 31
0.0
 12
-210.2379050301915
 22
11.07242923627018
 32
0.0
 70
    32
  1
{220}
  3
STANDARD
100
AcDbAlignedDimension
 13
542.8467297677567
 23
231.4070101433108
 33
0.0
 14
321.9799456432581
 24
231.4070101433108
 34
0.0
100
AcDbRotatedDimension
1001
ACAD
1000
DSTYLE
1002
{
1070
   140
1040
12.0
1070
    74
1070
     0
1070
    73
1070
     0
1070
   272
1070
     0
1070
    77
1070
     3
1070
   173
1070
     1
1070
   147
1040
4.0
1070
    42
1040
20.0
1070
    44
1040
8.0
1070
    43
1040
32.0
1070
   271
1070
     0
1070
   178
1070
     4
1070
   177
1070
     4
1070
   176
1070
     4
1070
   141
1040
12.0
1070
     7
1000
_OPEN
1070
     6
1000
_OPEN
1070
    41
1040
12.0
1002
}
  0
LINE
  5
2B0
330
19
100
AcDbEntity
  8
SEIHIN
  6
CONTINUOUS
 62
     3
100
AcDbLine
 10
327.5424886545647
 20
231.4070101433108
 30
0.0
 11
432.4133886545647
 21
231.4070101433108
 31
0.0
  0
LINE
  5
2B1
330
19
100
AcDbEntity
  8
SEIHIN
  6
CONTINUOUS
 62
     3
100
AcDbLine
 10
432.4133886545647
 20
521.4070101433107
 30
0.0
 11
296.4136886545647
 21
521.4070101433107
 31
0.0
  0
LINE
  5
2B2
330
19
100
AcDbEntity
  8
SEIHIN
  6
CONTINUOUS
 62
     3
100
AcDbLine
 10
302.4144886545647
 20
503.4070101433107
 30
0.0
 11
432.4133886545647
 21
503.4070101433107
 31
0.0
  0
LINE
  5
2B4
330
19
100
AcDbEntity
  8
SEIHIN
  6
CONTINUOUS
 62
     3
100
AcDbLine
 10
321.6154886545647
 20
236.4737101433108
 30
0.0
 11
302.4144886545647
 21
503.4070101433107
 31
0.0
  0
LINE
  5
2B5
330
19
100
AcDbEntity
  8
SEIHIN
  6
CONTINUOUS
 62
     3
100
AcDbLine
 10
352.6154886545647
 20
236.4737101433108
 30
0.0
 11
333.4144886545647
 21
503.4070101433107
 31
0.0
  0
ARC
  5
2BA
330
19
100
AcDbEntity
  8
SEIHIN
  6
CONTINUOUS
 62
     3
100
AcDbCircle
 10
327.5424886545647
 20
237.4070101433108
 30
0.0
 40
6.000016
100
AcDbArc
 50
188.948648
 51
270.0
  0
ARC
  5
2BB
330
19
100
AcDbEntity
  8
SEIHIN
  6
CONTINUOUS
 62
     3
100
AcDbCircle
 10
358.5424886545647
 20
237.4070101433108
 30
0.0
 40
5.999966
100
AcDbArc
 50
188.9487969999999
 51
270.0
  0
LINE
  5
2BF
330
19
100
AcDbEntity
  8
SEIHIN
  6
CONTINUOUS
 62
     3
100
AcDbLine
 10
297.4137886545647
 20
506.4070101433109
 30
0.0
 11
296.4136886545647
 21
521.4070101433107
 31
0.0
  0
LINE
  5
2C0
330
19
100
AcDbEntity
  8
SEIHIN
  6
CONTINUOUS
 62
     3
100
AcDbLine
 10
302.4144886545647
 20
503.4070101433107
 30
0.0
 11
297.4137886545647
 21
506.4070101433109
 31
0.0
  0
LINE
  5
2CA
330
19
100
AcDbEntity
  8
SEIHIN
  6
CONTINUOUS
 62
     3
100
AcDbLine
 10
328.4137886545647
 20
506.4070101433109
 30
0.0
 11
327.4136886545647
 21
521.4070101433107
 31
0.0
  0
LINE
  5
2CB
330
19
100
AcDbEntity
  8
SEIHIN
  6
CONTINUOUS
 62
     3
100
AcDbLine
 10
322.5823886545647
 20
506.4070101433109
 30
0.0
 11
327.5829886545646
 21
503.4070101433107
 31
0.0
  0
LINE
  5
2CC
330
19
100
AcDbEntity
  8
SEIHIN
  6
CONTINUOUS
 62
     3
100
AcDbLine
 10
322.5823886545647
 20
506.4070101433109
 30
0.0
 11
322.0307886545647
 21
514.6813101433108
 31
0.0
  0
LINE
  5
2CD
330
19
100
AcDbEntity
  8
SEIHIN
  6
CONTINUOUS
 62
     3
100
AcDbLine
 10
318.6896886545647
 20
517.4070101433108
 30
0.0
 11
319.1171886545646
 21
517.4070101433108
 31
0.0
  0
LINE
  5
2CE
330
19
100
AcDbEntity
  8
SEIHIN
  6
CONTINUOUS
 62
     3
100
AcDbLine
 10
316.7508886545647
 20
506.4070101433109
 30
0.0
 11
316.1952886545646
 21
514.7407101433107
 31
0.0
  0
LINE
  5
2CF
330
19
100
AcDbEntity
  8
SEIHIN
  6
CONTINUOUS
 62
     3
100
AcDbLine
 10
321.7514886545647
 20
503.4070101433107
 30
0.0
 11
316.7508886545647
 21
506.4070101433109
 31
0.0
  0
ARC
  5
2D0
330
19
100
AcDbEntity
  8
SEIHIN
  6
CONTINUOUS
 62
     3
100
AcDbCircle
 10
319.1171886545646
 20
514.4870101433107
 30
0.0
 40
2.919986
100
AcDbArc
 50
3.81538
 51
90.0
  0
ARC
  5
2D1
330
19
100
AcDbEntity
  8
SEIHIN
  6
CONTINUOUS
 62
     3
100
AcDbCircle
 10
318.6896886545647
 20
514.9070101433108
 30
0.0
 40
2.499968999999999
100
AcDbArc
 50
90.0
 51
183.814227
  0
LINE
  5
2D2
330
19
100
AcDbEntity
  8
SEIHIN
  6
CONTINUOUS
 62
     3
100
AcDbLine
 10
333.4144886545647
 20
503.4070101433107
 30
0.0
 11
328.4137886545647
 21
506.4070101433109
 31
0.0
  0
LINE
  5
2D8
330
19
100
AcDbEntity
  8
CENTER_L
  6
CENTER
 62
     1
 48
5.0
100
AcDbLine
 10
432.4133886545647
 20
205.7505101433108
 30
0.0
 11
432.4133886545647
 21
540.1498101433108
 31
0.0
  0
LINE
  5
2D9
330
19
100
AcDbEntity
  8
SEIHIN
  6
CONTINUOUS
 62
     3
100
AcDbLine
 10
512.2111886545647
 20
236.4737101433108
 30
0.0
 11
531.4122886545646
 21
503.4070101433107
 31
0.0
  0
LINE
  5
2DA
330
19
100
AcDbEntity
  8
SEIHIN
  6
CONTINUOUS
 62
     3
100
AcDbLine
 10
543.2111886545648
 20
236.4737101433108
 30
0.0
 11
562.4122886545647
 21
503.4070101433107
 31
0.0
  0
LINE
  5
2DB
330
19
100
AcDbEntity
  8
SEIHIN
  6
CONTINUOUS
 62
     3
100
AcDbLine
 10
537.2842886545647
 20
231.4070101433108
 30
0.0
 11
432.4133886545647
 21
231.4070101433108
 31
0.0
  0
ARC
  5
2DC
330
19
100
AcDbEntity
  8
SEIHIN
  6
CONTINUOUS
 62
     3
100
AcDbCircle
 10
537.2842886545647
 20
237.4070101433108
 30
0.0
 40
5.999966
100
AcDbArc
 50
270.0
 51
351.051203
  0
ARC
  5
2DD
330
19
100
AcDbEntity
  8
SEIHIN
  6
CONTINUOUS
 62
     3
100
AcDbCircle
 10
506.2842886545647
 20
237.4070101433108
 30
0.0
 40
5.999966
100
AcDbArc
 50
270.0
 51
351.051203
  0
LINE
  5
2DE
330
19
100
AcDbEntity
  8
SEIHIN
  6
CONTINUOUS
 62
     3
100
AcDbLine
 10
432.4133886545647
 20
521.4070101433107
 30
0.0
 11
568.4129886545647
 21
521.4070101433107
 31
0.0
  0
LINE
  5
2DF
330
19
100
AcDbEntity
  8
SEIHIN
  6
CONTINUOUS
 62
     3
100
AcDbLine
 10
562.4122886545647
 20
503.4070101433107
 30
0.0
 11
432.4133886545647
 21
503.4070101433107
 31
0.0
  0
LINE
  5
2E9
330
19
100
AcDbEntity
  8
SEIHIN
  6
CONTINUOUS
 62
     3
100
AcDbLine
 10
536.4129886545647
 20
506.4070101433109
 30
0.0
 11
537.4129886545647
 21
521.4070101433107
 31
0.0
  0
ARC
  5
2EA
330
19
100
AcDbEntity
  8
SEIHIN
  6
CONTINUOUS
 62
     3
100
AcDbCircle
 10
545.7095886545647
 20
514.4870101433107
 30
0.0
 40
2.919986
100
AcDbArc
 50
90.0
 51
176.1846199999999
  0
LINE
  5
2EB
330
19
100
AcDbEntity
  8
SEIHIN
  6
CONTINUOUS
 62
     3
100
AcDbLine
 10
531.4122886545646
 20
503.4070101433107
 30
0.0
 11
536.4129886545647
 21
506.4070101433109
 31
0.0
  0
LINE
  5
2EC
330
19
100
AcDbEntity
  8
SEIHIN
  6
CONTINUOUS
 62
     3
100
AcDbLine
 10
542.2443886545647
 20
506.4070101433109
 30
0.0
 11
537.2437886545647
 21
503.4070101433107
 31
0.0
  0
LINE
  5
2ED
330
19
100
AcDbEntity
  8
SEIHIN
  6
CONTINUOUS
 62
     3
100
AcDbLine
 10
542.2443886545647
 20
506.4070101433109
 30
0.0
 11
542.7959886545647
 21
514.6813101433108
 31
0.0
  0
LINE
  5
2F3
330
19
100
AcDbEntity
  8
SEIHIN
  6
CONTINUOUS
 62
     3
100
AcDbLine
 10
543.0751886545647
 20
503.4070101433107
 30
0.0
 11
548.0758886545646
 21
506.4070101433109
 31
0.0
  0
LINE
  5
2F4
330
19
100
AcDbEntity
  8
SEIHIN
  6
CONTINUOUS
 62
     3
100
AcDbLine
 10
548.0758886545646
 20
506.4070101433109
 30
0.0
 11
548.6314886545646
 21
514.7407101433107
 31
0.0
  0
LINE
  5
2F5
330
19
100
AcDbEntity
  8
SEIHIN
  6
CONTINUOUS
 62
     3
100
AcDbLine
 10
546.1369886545647
 20
517.4070101433108
 30
0.0
 11
545.7095886545647
 21
517.4070101433108
 31
0.0
  0
ARC
  5
2F6
330
19
100
AcDbEntity
  8
SEIHIN
  6
CONTINUOUS
 62
     3
100
AcDbCircle
 10
546.1369886545647
 20
514.9070101433108
 30
0.0
 40
2.500018999999999
100
AcDbArc
 50
356.1859249999999
 51
90.0
  0
LINE
  5
2F7
330
19
100
AcDbEntity
  8
SEIHIN
  6
CONTINUOUS
 62
     3
100
AcDbLine
 10
567.4129886545647
 20
506.4070101433109
 30
0.0
 11
568.4129886545647
 21
521.4070101433107
 31
0.0
  0
LINE
  5
2F8
330
19
100
AcDbEntity
  8
SEIHIN
  6
CONTINUOUS
 62
     3
100
AcDbLine
 10
562.4122886545647
 20
503.4070101433107
 30
0.0
 11
567.4129886545647
 21
506.4070101433109
 31
0.0
  0
DIMENSION
  5
360
330
19
100
AcDbEntity
  8
SUNPOU
  6
CONTINUOUS
 62
     4
100
AcDbDimension
  2
*D3
 10
710.6317886545647
 20
579.091586261032
 30
0.0
 11
846.1319886545645
 21
589.091586261032
 31
0.0
 12
-180.2379050301915
 22
11.07242923627018
 32
0.0
 70
    32
  3
STANDARD
100
AcDbAlignedDimension
 13
981.6321886545646
 23
521.4070101433107
 33
0.0
 14
710.6317886545647
 24
521.4070101433107
 34
0.0
100
AcDbRotatedDimension
1001
ACAD
1000
DSTYLE
1002
{
1070
   140
1040
12.0
1070
    74
1070
     0
1070
    73
1070
     0
1070
   272
1070
     0
1070
    77
1070
     3
1070
   173
1070
     1
1070
   147
1040
4.0
1070
    42
1040
20.0
1070
    44
1040
8.0
1070
    43
1040
32.0
1070
   271
1070
     0
1070
   178
1070
     4
1070
   177
1070
     4
1070
   176
1070
     4
1070
   141
1040
12.0
1070
     7
1000
_OPEN
1070
     6
1000
_OPEN
1070
    41
1040
12.0
1002
}
  0
LINE
  5
361
330
19
100
AcDbEntity
  8
CENTER_L
  6
CENTER
 62
     1
 48
5.0
100
AcDbLine
 10
857.6321886545645
 20
206.9549101433108
 30
0.0
 11
857.6321886545645
 21
547.6247101433107
 31
0.0
  0
DIMENSION
  5
363
330
19
100
AcDbEntity
  8
SUNPOU
  6
CONTINUOUS
 62
     4
100
AcDbDimension
  2
*D4
 10
978.631753186405
 20
158.8307280033994
 30
0.0
 11
857.6317318873066
 21
168.8307280033994
 31
0.0
 12
-180.2379050301915
 22
11.07242923627018
 32
0.0
 70
    32
  3
STANDARD
100
AcDbAlignedDimension
 13
736.6317105882083
 23
231.4070101433108
 33
0.0
 14
978.631753186405
 24
231.4070101433108
 34
0.0
100
AcDbRotatedDimension
1001
ACAD
1000
DSTYLE
1002
{
1070
   140
1040
12.0
1070
    74
1070
     0
1070
    73
1070
     0
1070
   272
1070
     0
1070
    77
1070
     3
1070
   173
1070
     1
1070
   147
1040
4.0
1070
    42
1040
20.0
1070
    44
1040
8.0
1070
    43
1040
32.0
1070
   271
1070
     0
1070
   178
1070
     4
1070
   177
1070
     4
1070
   176
1070
     4
1070
   141
1040
12.0
1070
     7
1000
_OPEN
1070
     6
1000
_OPEN
1070
    41
1040
12.0
1002
}
  0
LINE
  5
364
330
19
100
AcDbEntity
  8
SEIHIN
  6
CONTINUOUS
 62
     3
100
AcDbLine
 10
710.6317886545647
 20
521.4070101433107
 30
0.0
 11
981.6321886545646
 21
521.4070101433107
 31
0.0
  0
LINE
  5
365
330
19
100
AcDbEntity
  8
SEIHIN
  6
CONTINUOUS
 62
     3
100
AcDbLine
 10
742.2066886545646
 20
231.4070101433108
 30
0.0
 11
972.6931886545646
 21
231.4070101433108
 31
0.0
  0
LINE
  5
366
330
19
100
AcDbEntity
  8
SEIHIN
  6
CONTINUOUS
 62
     3
100
AcDbLine
 10
728.6318886545647
 20
506.4070101433109
 30
0.0
 11
981.6321886545646
 21
506.4070101433109
 31
0.0
  0
LINE
  5
367
330
19
100
AcDbEntity
  8
SEIHIN
  6
CONTINUOUS
 62
     3
100
AcDbLine
 10
728.6318886545647
 20
503.4070101433107
 30
0.0
 11
981.6321886545646
 21
503.4070101433107
 31
0.0
  0
LINE
  5
368
330
19
100
AcDbEntity
  8
SEIHIN
  6
CONTINUOUS
 62
     3
100
AcDbLine
 10
716.6317886545647
 20
503.4070101433107
 30
0.0
 11
736.2228886545647
 21
236.9670101433107
 31
0.0
  0
ARC
  5
369
330
19
100
AcDbEntity
  8
SEIHIN
  6
CONTINUOUS
 62
     3
100
AcDbCircle
 10
742.2066886545646
 20
237.4070101433108
 30
0.0
 40
5.999977999999999
100
AcDbArc
 50
184.205497
 51
270.0
  0
LINE
  5
36A
330
19
100
AcDbEntity
  8
SEIHIN
  6
CONTINUOUS
 62
     3
100
AcDbLine
 10
711.6317886545647
 20
506.4070101433109
 30
0.0
 11
722.6318886545647
 21
506.4070101433109
 31
0.0
  0
LINE
  5
36B
330
19
100
AcDbEntity
  8
SEIHIN
  6
CONTINUOUS
 62
     3
100
AcDbLine
 10
711.6317886545647
 20
506.4070101433109
 30
0.0
 11
716.6317886545647
 21
503.4070101433107
 31
0.0
  0
LINE
  5
36C
330
19
100
AcDbEntity
  8
SEIHIN
  6
CONTINUOUS
 62
     3
100
AcDbLine
 10
710.6317886545647
 20
521.4070101433107
 30
0.0
 11
711.6317886545647
 21
506.4070101433109
 31
0.0
  0
ARC
  5
36D
330
19
100
AcDbEntity
  8
SEIHIN
  6
CONTINUOUS
 62
     3
100
AcDbCircle
 10
725.6317886545647
 20
514.4070101433108
 30
0.0
 40
3.0
100
AcDbArc
 50
0.0
 51
90.0
  0
LINE
  5
36E
330
19
100
AcDbEntity
  8
SEIHIN
  6
CONTINUOUS
 62
     3
100
AcDbLine
 10
716.6317886545647
 20
503.4070101433107
 30
0.0
 11
728.6318886545647
 21
503.4070101433107
 31
0.0
  0
LINE
  5
36F
330
19
100
AcDbEntity
  8
SEIHIN
  6
CONTINUOUS
 62
     3
100
AcDbLine
 10
722.6317886545647
 20
503.4070101433107
 30
0.0
 11
722.6317886545647
 21
514.4070101433108
 31
0.0
  0
LINE
  5
370
330
19
100
AcDbEntity
  8
SEIHIN
  6
CONTINUOUS
 62
     3
100
AcDbLine
 10
728.6317886545647
 20
503.4070101433107
 30
0.0
 11
728.6317886545647
 21
514.4070101433108
 31
0.0
  0
ARC
  5
371
330
19
100
AcDbEntity
  8
SEIHIN
  6
CONTINUOUS
 62
     3
100
AcDbCircle
 10
725.6317886545647
 20
514.4070101433108
 30
0.0
 40
3.0
100
AcDbArc
 50
90.0
 51
180.0
  0
LINE
  5
372
330
19
100
AcDbEntity
  8
SEIHIN
  6
CONTINUOUS
 62
     3
100
AcDbLine
 10
981.6321886545646
 20
521.4070101433107
 30
0.0
 11
978.6931886545646
 21
237.3449101433108
 31
0.0
  0
LINE
  5
373
330
19
100
AcDbEntity
  8
SEIHIN
  6
CONTINUOUS
 62
     3
100
AcDbLine
 10
946.6011496669628
 20
518.4070101433108
 30
0.0
 11
946.5080327041578
 21
509.4070101433108
 31
0.0
  0
ARC
  5
375
330
19
100
AcDbEntity
  8
SEIHIN
  6
CONTINUOUS
 62
     3
100
AcDbCircle
 10
972.6931886545646
 20
237.4070101433108
 30
0.0
 40
6.000161
100
AcDbArc
 50
270.0
 51
359.40701
  0
LINE
  5
376
330
19
100
AcDbEntity
  8
CENTER_L
  6
CENTER
 62
     1
 48
5.0
100
AcDbLine
 10
997.6932961381052
 20
496.4070101433107
 30
0.0
 11
962.306898041138
 21
496.4070101433107
 31
0.0
  0
LINE
  5
4DD
330
19
100
AcDbEntity
  8
SEIHIN
  6
CONTINUOUS
 62
     3
100
AcDbLine
 10
1282.413388654564
 20
521.4070101433107
 30
0.0
 11
1146.413688654564
 21
521.4070101433107
 31
0.0
  0
LINE
  5
4E0
330
19
100
AcDbEntity
  8
SEIHIN
  6
CONTINUOUS
 62
     3
100
AcDbLine
 10
1177.542488654564
 20
231.4070101433108
 30
0.0
 11
1282.413388654564
 21
231.4070101433108
 31
0.0
  0
LINE
  5
4E1
330
19
100
AcDbEntity
  8
SEIHIN
  6
CONTINUOUS
 62
     3
100
AcDbLine
 10
1171.615488654564
 20
236.4737101433108
 30
0.0
 11
1152.414488654564
 21
503.4070101433107
 31
0.0
  0
ARC
  5
4E8
330
19
100
AcDbEntity
  8
SEIHIN
  6
CONTINUOUS
 62
     3
100
AcDbCircle
 10
1177.542488654564
 20
237.4070101433108
 30
0.0
 40
6.000016
100
AcDbArc
 50
188.948648
 51
270.0
  0
LINE
  5
4F0
330
19
100
AcDbEntity
  8
CENTER_L
  6
CENTER
 62
     1
 48
5.0
100
AcDbLine
 10
1182.413388654564
 20
484.8198101433108
 30
0.0
 11
1182.413388654564
 21
507.9505101433108
 31
0.0
  0
ARC
  5
4F1
330
19
100
AcDbEntity
  8
SEIHIN
  6
CONTINUOUS
 62
     3
100
AcDbCircle
 10
1182.413388654564
 20
500.9070101433108
 30
0.0
 40
3.5
100
AcDbArc
 50
0.0
 51
180.0
  0
LINE
  5
4F2
330
19
100
AcDbEntity
  8
SEIHIN
  6
CONTINUOUS
 62
     3
100
AcDbLine
 10
1152.414488654564
 20
503.4070101433107
 30
0.0
 11
1147.413788654564
 21
506.4070101433109
 31
0.0
  0
LINE
  5
4F3
330
19
100
AcDbEntity
  8
CENTER_L
  6
CENTER
 62
     1
 48
5.0
100
AcDbLine
 10
1170.813988654564
 20
496.4070101433107
 30
0.0
 11
1194.676388654564
 21
496.4070101433107
 31
0.0
  0
ARC
  5
4F4
330
19
100
AcDbEntity
  8
SEIHIN
  6
CONTINUOUS
 62
     3
100
AcDbCircle
 10
1182.413388654564
 20
491.9070101433107
 30
0.0
 40
3.5
100
AcDbArc
 50
180.0
 51
0.0
  0
ARC
  5
4F5
330
19
100
AcDbEntity
  8
SEIHIN
  6
CONTINUOUS
 62
     3
100
AcDbCircle
 10
1177.913388654564
 20
496.4070101433107
 30
0.0
 40
3.5
100
AcDbArc
 50
90.0
 51
270.0
  0
LINE
  5
4F6
330
19
100
AcDbEntity
  8
SEIHIN
  6
CONTINUOUS
 62
     3
100
AcDbLine
 10
1178.913388654564
 20
492.9070101433108
 30
0.0
 11
1177.913388654564
 21
492.9070101433108
 31
0.0
  0
LINE
  5
4F7
330
19
100
AcDbEntity
  8
SEIHIN
  6
CONTINUOUS
 62
     3
100
AcDbLine
 10
1178.913388654564
 20
492.9070101433108
 30
0.0
 11
1178.913388654564
 21
491.9070101433107
 31
0.0
  0
LINE
  5
4F8
330
19
100
AcDbEntity
  8
SEIHIN
  6
CONTINUOUS
 62
     3
100
AcDbLine
 10
1178.913388654564
 20
499.9070101433107
 30
0.0
 11
1178.913388654564
 21
500.9070101433108
 31
0.0
  0
LINE
  5
4F9
330
19
100
AcDbEntity
  8
SEIHIN
  6
CONTINUOUS
 62
     3
100
AcDbLine
 10
1178.913388654564
 20
499.9070101433107
 30
0.0
 11
1177.913388654564
 21
499.9070101433107
 31
0.0
  0
ARC
  5
4FA
330
19
100
AcDbEntity
  8
SEIHIN
  6
CONTINUOUS
 62
     3
100
AcDbCircle
 10
1186.913388654564
 20
496.4070101433107
 30
0.0
 40
3.5
100
AcDbArc
 50
270.0
 51
90.0
  0
LINE
  5
4FB
330
19
100
AcDbEntity
  8
SEIHIN
  6
CONTINUOUS
 62
     3
100
AcDbLine
 10
1185.913388654564
 20
492.9070101433108
 30
0.0
 11
1186.913388654564
 21
492.9070101433108
 31
0.0
  0
LINE
  5
4FC
330
19
100
AcDbEntity
  8
SEIHIN
  6
CONTINUOUS
 62
     3
100
AcDbLine
 10
1185.913388654564
 20
492.9070101433108
 30
0.0
 11
1185.913388654564
 21
491.9070101433107
 31
0.0
  0
LINE
  5
4FD
330
19
100
AcDbEntity
  8
SEIHIN
  6
CONTINUOUS
 62
     3
100
AcDbLine
 10
1185.913388654564
 20
499.9070101433107
 30
0.0
 11
1186.913388654564
 21
499.9070101433107
 31
0.0
  0
LINE
  5
4FE
330
19
100
AcDbEntity
  8
SEIHIN
  6
CONTINUOUS
 62
     3
100
AcDbLine
 10
1185.913388654564
 20
499.9070101433107
 30
0.0
 11
1185.913388654564
 21
500.9070101433108
 31
0.0
  0
LINE
  5
4FF
330
19
100
AcDbEntity
  8
SEIHIN
  6
CONTINUOUS
 62
     3
100
AcDbLine
 10
1147.413788654564
 20
506.4070101433109
 30
0.0
 11
1146.413688654564
 21
521.4070101433107
 31
0.0
  0
LINE
  5
506
330
19
100
AcDbEntity
  8
CENTER_L
  6
CENTER
 62
     1
 48
5.0
100
AcDbLine
 10
1282.413388654564
 20
205.7505101433108
 30
0.0
 11
1282.413388654564
 21
540.1498101433108
 31
0.0
  0
LINE
  5
508
330
19
100
AcDbEntity
  8
SEIHIN
  6
CONTINUOUS
 62
     3
100
AcDbLine
 10
1393.211188654565
 20
236.4737101433108
 30
0.0
 11
1412.412288654564
 21
503.4070101433107
 31
0.0
  0
LINE
  5
509
330
19
100
AcDbEntity
  8
SEIHIN
  6
CONTINUOUS
 62
     3
100
AcDbLine
 10
1387.284288654564
 20
231.4070101433108
 30
0.0
 11
1282.413388654564
 21
231.4070101433108
 31
0.0
  0
ARC
  5
50B
330
19
100
AcDbEntity
  8
SEIHIN
  6
CONTINUOUS
 62
     3
100
AcDbCircle
 10
1387.284288654564
 20
237.4070101433108
 30
0.0
 40
5.999966
100
AcDbArc
 50
270.0
 51
351.051203
  0
LINE
  5
50C
330
19
100
AcDbEntity
  8
SEIHIN
  6
CONTINUOUS
 62
     3
100
AcDbLine
 10
1378.913388654564
 20
492.9070101433108
 30
0.0
 11
1377.913388654564
 21
492.9070101433108
 31
0.0
  0
LINE
  5
50D
330
19
100
AcDbEntity
  8
SEIHIN
  6
CONTINUOUS
 62
     3
100
AcDbLine
 10
1378.913388654564
 20
499.9070101433107
 30
0.0
 11
1377.913388654564
 21
499.9070101433107
 31
0.0
  0
LINE
  5
50E
330
19
100
AcDbEntity
  8
CENTER_L
  6
CENTER
 62
     1
 48
5.0
100
AcDbLine
 10
1370.813988654564
 20
496.4070101433107
 30
0.0
 11
1394.676388654564
 21
496.4070101433107
 31
0.0
  0
LINE
  5
50F
330
19
100
AcDbEntity
  8
SEIHIN
  6
CONTINUOUS
 62
     3
100
AcDbLine
 10
1282.413388654564
 20
521.4070101433107
 30
0.0
 11
1418.412988654564
 21
521.4070101433107
 31
0.0
  0
ARC
  5
511
330
19
100
AcDbEntity
  8
SEIHIN
  6
CONTINUOUS
 62
     3
100
AcDbCircle
 10
1377.913388654564
 20
496.4070101433107
 30
0.0
 40
3.5
100
AcDbArc
 50
90.0
 51
270.0
  0
LINE
  5
514
330
19
100
AcDbEntity
  8
CENTER_L
  6
CENTER
 62
     1
 48
5.0
100
AcDbLine
 10
1382.413388654564
 20
484.8198101433108
 30
0.0
 11
1382.413388654564
 21
507.9505101433108
 31
0.0
  0
ARC
  5
516
330
19
100
AcDbEntity
  8
SEIHIN
  6
CONTINUOUS
 62
     3
100
AcDbCircle
 10
1382.413388654564
 20
500.9070101433108
 30
0.0
 40
3.5
100
AcDbArc
 50
0.0
 51
180.0
  0
LINE
  5
517
330
19
100
AcDbEntity
  8
SEIHIN
  6
CONTINUOUS
 62
     3
100
AcDbLine
 10
1412.412288654564
 20
503.4070101433107
 30
0.0
 11
1417.412988654564
 21
506.4070101433109
 31
0.0
  0
ARC
  5
518
330
19
100
AcDbEntity
  8
SEIHIN
  6
CONTINUOUS
 62
     3
100
AcDbCircle
 10
1386.913388654564
 20
496.4070101433107
 30
0.0
 40
3.5
100
AcDbArc
 50
270.0
 51
90.0
  0
LINE
  5
519
330
19
100
AcDbEntity
  8
SEIHIN
  6
CONTINUOUS
 62
     3
100
AcDbLine
 10
1385.913388654564
 20
492.9070101433108
 30
0.0
 11
1386.913388654564
 21
492.9070101433108
 31
0.0
  0
LINE
  5
51A
330
19
100
AcDbEntity
  8
SEIHIN
  6
CONTINUOUS
 62
     3
100
AcDbLine
 10
1385.913388654564
 20
492.9070101433108
 30
0.0
 11
1385.913388654564
 21
491.9070101433107
 31
0.0
  0
LINE
  5
51B
330
19
100
AcDbEntity
  8
SEIHIN
  6
CONTINUOUS
 62
     3
100
AcDbLine
 10
1385.913388654564
 20
499.9070101433107
 30
0.0
 11
1385.913388654564
 21
500.9070101433108
 31
0.0
  0
LINE
  5
51C
330
19
100
AcDbEntity
  8
SEIHIN
  6
CONTINUOUS
 62
     3
100
AcDbLine
 10
1385.913388654564
 20
499.9070101433107
 30
0.0
 11
1386.913388654564
 21
499.9070101433107
 31
0.0
  0
LINE
  5
51D
330
19
100
AcDbEntity
  8
SEIHIN
  6
CONTINUOUS
 62
     3
100
AcDbLine
 10
1378.913388654564
 20
492.9070101433108
 30
0.0
 11
1378.913388654564
 21
491.9070101433107
 31
0.0
  0
LINE
  5
51E
330
19
100
AcDbEntity
  8
SEIHIN
  6
CONTINUOUS
 62
     3
100
AcDbLine
 10
1378.913388654564
 20
499.9070101433107
 30
0.0
 11
1378.913388654564
 21
500.9070101433108
 31
0.0
  0
ARC
  5
51F
330
19
100
AcDbEntity
  8
SEIHIN
  6
CONTINUOUS
 62
     3
100
AcDbCircle
 10
1382.413388654564
 20
491.9070101433107
 30
0.0
 40
3.5
100
AcDbArc
 50
180.0
 51
0.0
  0
LINE
  5
526
330
19
100
AcDbEntity
  8
SEIHIN
  6
CONTINUOUS
 62
     3
100
AcDbLine
 10
1417.412988654564
 20
506.4070101433109
 30
0.0
 11
1418.412988654564
 21
521.4070101433107
 31
0.0
  0
DIMENSION
  5
568
330
19
100
AcDbEntity
  8
SUNPOU
  6
CONTINUOUS
 62
     4
100
AcDbDimension
  2
*D5
 10
1178.913388654564
 20
537.593790954952
 30
0.0
 11
1221.913388654564
 21
547.5937909549521
 31
0.0
 12
31.4121143614866
 22
2.241864886909752
 32
0.0
 70
    32
  3
STANDARD
100
AcDbAlignedDimension
 13
1185.913388654564
 23
492.9070101433108
 33
0.0
 14
1178.913388654564
 24
492.9070101433108
 34
0.0
100
AcDbRotatedDimension
1001
ACAD
1000
DSTYLE
1002
{
1070
   140
1040
12.0
1070
    74
1070
     0
1070
   172
1070
     1
1070
    73
1070
     0
1070
   272
1070
     2
1070
    77
1070
     3
1070
   173
1070
     1
1070
   280
1070
     1
1070
   147
1040
4.0
1070
    42
1040
12.0
1070
    44
1040
6.0
1070
    43
1040
28.0
1070
   271
1070
     0
1070
   178
1070
     4
1070
   177
1070
     4
1070
   176
1070
     4
1070
   141
1040
150.0
1070
     7
1000
_OPEN
1070
     6
1000
_OPEN
1070
    41
1040
14.0
1070
   143
1040
0.03937
1002
}
  0
LINE
  5
59C
330
19
100
AcDbEntity
  8
SEIHIN
  6
CONTINUOUS
 62
     3
100
AcDbLine
 10
944.8421939050854
 20
740.9625883714434
 30
0.0
 11
963.2188939050852
 21
740.9625883714434
 31
0.0
  0
LINE
  5
59D
330
19
100
AcDbEntity
  8
SEIHIN
  6
CONTINUOUS
 62
     3
100
AcDbLine
 10
944.2170939050852
 20
732.0814883714433
 30
0.0
 11
979.2188939050852
 21
732.0814883714433
 31
0.0
  0
LINE
  5
59E
330
19
100
AcDbEntity
  8
SEIHIN
  6
CONTINUOUS
 62
     3
100
AcDbLine
 10
944.4044939050852
 20
735.0881883714434
 30
0.0
 11
978.7185939050853
 21
735.0881883714434
 31
0.0
  0
LINE
  5
59F
330
19
100
AcDbEntity
  8
SEIHIN
  6
CONTINUOUS
 62
     3
100
AcDbLine
 10
944.4724939050852
 20
735.9705883714434
 30
0.0
 11
978.7185939050853
 21
735.9705883714434
 31
0.0
  0
LINE
  5
5A0
330
19
100
AcDbEntity
  8
SEIHIN
  6
CONTINUOUS
 62
     3
100
AcDbLine
 10
946.3565939050852
 20
760.4397883714434
 30
0.0
 11
975.7499939050852
 21
760.4397883714434
 31
0.0
  0
LINE
  5
5A1
330
19
100
AcDbEntity
  8
SEIHIN
  6
CONTINUOUS
 62
     3
100
AcDbLine
 10
944.8422939050853
 20
995.1997883714433
 30
0.0
 11
963.2191939050853
 21
995.1997883714433
 31
0.0
  0
LINE
  5
5A2
330
19
100
AcDbEntity
  8
SEIHIN
  6
CONTINUOUS
 62
     3
100
AcDbLine
 10
946.3566939050854
 20
975.7225883714434
 30
0.0
 11
975.7499939050852
 21
975.7225883714434
 31
0.0
  0
LINE
  5
5A3
330
19
100
AcDbEntity
  8
SEIHIN
  6
CONTINUOUS
 62
     3
100
AcDbLine
 10
944.4726939050854
 20
1000.191888371443
 30
0.0
 11
978.7188939050851
 21
1000.191888371443
 31
0.0
  0
LINE
  5
5A4
330
19
100
AcDbEntity
  8
SEIHIN
  6
CONTINUOUS
 62
     3
100
AcDbLine
 10
944.4046939050855
 20
1001.074288371443
 30
0.0
 11
978.7188939050851
 21
1001.074288371443
 31
0.0
  0
LINE
  5
5A5
330
19
100
AcDbEntity
  8
SEIHIN
  6
CONTINUOUS
 62
     3
100
AcDbLine
 10
944.2171939050854
 20
1004.080888371443
 30
0.0
 11
979.2191939050853
 21
1004.080888371443
 31
0.0
  0
LINE
  5
5A6
330
19
100
AcDbEntity
  8
CENTER_L
  6
CENTER
 62
     1
 48
5.0
100
AcDbLine
 10
700.5563939050853
 20
868.0813883714433
 30
0.0
 11
997.6932961381052
 21
868.0811873999862
 31
0.0
  0
LINE
  5
5A7
330
19
100
AcDbEntity
  8
SEIHIN
  6
CONTINUOUS
 62
     3
100
AcDbLine
 10
944.8421939050854
 20
740.9625883714434
 30
0.0
 11
946.3565939050852
 21
760.4397883714434
 31
0.0
  0
LINE
  5
5A8
330
19
100
AcDbEntity
  8
SEIHIN
  6
CONTINUOUS
 62
     3
100
AcDbLine
 10
944.8421939050854
 20
740.9625883714434
 30
0.0
 11
732.2197939050852
 21
773.8138883714435
 31
0.0
  0
LINE
  5
5A9
330
19
100
AcDbEntity
  8
SEIHIN
  6
CONTINUOUS
 62
     3
100
AcDbLine
 10
732.2197939050852
 20
768.7646883714434
 30
0.0
 11
944.4724939050852
 21
735.9705883714434
 31
0.0
  0
LINE
  5
5AA
330
19
100
AcDbEntity
  8
SEIHIN
  6
CONTINUOUS
 62
     3
100
AcDbLine
 10
724.0040939050852
 20
769.1411883714433
 30
0.0
 11
944.4044939050852
 21
735.0881883714434
 31
0.0
  0
LINE
  5
5AB
330
19
100
AcDbEntity
  8
SEIHIN
  6
CONTINUOUS
 62
     3
100
AcDbLine
 10
944.2170939050852
 20
732.0814883714433
 30
0.0
 11
723.5399939050853
 21
766.1772883714434
 31
0.0
  0
LINE
  5
5AC
330
19
100
AcDbEntity
  8
SEIHIN
  6
CONTINUOUS
 62
     3
100
AcDbLine
 10
946.3565939050852
 20
760.4397883714434
 30
0.0
 11
745.5482939050853
 21
791.4656883714434
 31
0.0
  0
LINE
  5
5AD
330
19
100
AcDbEntity
  8
SEIHIN
  6
CONTINUOUS
 62
     3
100
AcDbLine
 10
732.2197939050852
 20
967.3979883714434
 30
0.0
 11
944.4726939050854
 21
1000.191888371443
 31
0.0
  0
LINE
  5
5AE
330
19
100
AcDbEntity
  8
SEIHIN
  6
CONTINUOUS
 62
     3
100
AcDbLine
 10
946.3566939050854
 20
975.7225883714434
 30
0.0
 11
745.5483939050853
 21
944.6969883714434
 31
0.0
  0
LINE
  5
5AF
330
19
100
AcDbEntity
  8
SEIHIN
  6
CONTINUOUS
 62
     3
100
AcDbLine
 10
944.8422939050853
 20
995.1997883714433
 30
0.0
 11
732.2197939050852
 21
962.3487883714433
 31
0.0
  0
LINE
  5
5B0
330
19
100
AcDbEntity
  8
SEIHIN
  6
CONTINUOUS
 62
     3
100
AcDbLine
 10
724.0040939050852
 20
967.0214883714434
 30
0.0
 11
944.4046939050855
 21
1001.074288371443
 31
0.0
  0
LINE
  5
5B1
330
19
100
AcDbEntity
  8
SEIHIN
  6
CONTINUOUS
 62
     3
100
AcDbLine
 10
944.2171939050854
 20
1004.080888371443
 30
0.0
 11
723.5400939050853
 21
969.9853883714434
 31
0.0
  0
LINE
  5
5B2
330
19
100
AcDbEntity
  8
SEIHIN
  6
CONTINUOUS
 62
     3
100
AcDbLine
 10
717.2253939050854
 20
868.0807883714434
 30
0.0
 11
717.2256939050853
 21
959.1153883714433
 31
0.0
  0
LINE
  5
5B3
330
19
100
AcDbEntity
  8
SEIHIN
  6
CONTINUOUS
 62
     3
100
AcDbLine
 10
714.2193939050853
 20
868.0807883714434
 30
0.0
 11
714.2196939050852
 21
959.1143883714433
 31
0.0
  0
LINE
  5
5B4
330
19
100
AcDbEntity
  8
SEIHIN
  6
CONTINUOUS
 62
     3
100
AcDbLine
 10
718.1076939050853
 20
868.0807883714434
 30
0.0
 11
718.1079939050853
 21
958.3587883714434
 31
0.0
  0
LINE
  5
5B5
330
19
100
AcDbEntity
  8
SEIHIN
  6
CONTINUOUS
 62
     3
100
AcDbLine
 10
743.0062939050854
 20
868.0807883714434
 30
0.0
 11
743.0064939050853
 21
941.7321883714434
 31
0.0
  0
LINE
  5
5B6
330
19
100
AcDbEntity
  8
SEIHIN
  6
CONTINUOUS
 62
     3
100
AcDbLine
 10
723.0964939050852
 20
868.0807883714434
 30
0.0
 11
723.0967939050854
 21
958.3671883714433
 31
0.0
  0
LINE
  5
5B7
330
19
100
AcDbEntity
  8
SEIHIN
  6
CONTINUOUS
 62
     3
100
AcDbLine
 10
725.0828939050852
 20
959.2797883714434
 30
0.0
 11
743.0064939050853
 21
944.3041883714434
 31
0.0
  0
ARC
  5
5B8
330
19
100
AcDbEntity
  8
SEIHIN
  6
CONTINUOUS
 62
     3
100
AcDbCircle
 10
726.0967939050853
 20
958.3671883714433
 30
0.0
 40
2.999990999999999
100
AcDbArc
 50
98.78348000000002
 51
180.0
  0
ARC
  5
5B9
330
19
100
AcDbEntity
  8
SEIHIN
  6
CONTINUOUS
 62
     3
100
AcDbCircle
 10
726.1079939050853
 20
958.3586883714435
 30
0.0
 40
8.000002
100
AcDbArc
 50
98.78269900000002
 51
179.999284
  0
ARC
  5
5BA
330
19
100
AcDbEntity
  8
SEIHIN
  6
CONTINUOUS
 62
     3
100
AcDbCircle
 10
725.2256939050853
 20
959.1152883714434
 30
0.0
 40
8.000002
100
AcDbArc
 50
98.78269900000002
 51
179.999284
  0
ARC
  5
5BB
330
19
100
AcDbEntity
  8
SEIHIN
  6
CONTINUOUS
 62
     3
100
AcDbCircle
 10
725.2196939050852
 20
959.1143883714433
 30
0.0
 40
10.999993
100
AcDbArc
 50
98.78291200000001
 51
179.999479
  0
LINE
  5
5BC
330
19
100
AcDbEntity
  8
SEIHIN
  6
CONTINUOUS
 62
     3
100
AcDbLine
 10
732.2197939050852
 20
968.2908883714434
 30
0.0
 11
732.2197939050852
 21
962.2172883714434
 31
0.0
  0
LINE
  5
5BD
330
19
100
AcDbEntity
  8
SEIHIN
  6
CONTINUOUS
 62
     3
100
AcDbLine
 10
726.2196939050852
 20
967.3638883714433
 30
0.0
 11
726.2196939050852
 21
961.2901883714433
 31
0.0
  0
LINE
  5
5BE
330
19
100
AcDbEntity
  8
SEIHIN
  6
CONTINUOUS
 62
     3
100
AcDbLine
 10
724.8864939050852
 20
966.2648883714433
 30
0.0
 11
726.2196939050852
 21
966.4708883714434
 31
0.0
  0
LINE
  5
5BF
330
19
100
AcDbEntity
  8
SEIHIN
  6
CONTINUOUS
 62
     3
100
AcDbLine
 10
726.2196939050852
 20
961.4217883714434
 30
0.0
 11
725.6386939050853
 21
961.3319883714433
 31
0.0
  0
LINE
  5
5C0
330
19
100
AcDbEntity
  8
SEIHIN
  6
CONTINUOUS
 62
     3
100
AcDbLine
 10
726.2196939050852
 20
964.3359883714433
 30
0.0
 11
732.2197939050852
 21
965.2629883714434
 31
0.0
  0
LINE
  5
5C1
330
19
100
AcDbEntity
  8
SEIHIN
  6
CONTINUOUS
 62
     3
100
AcDbLine
 10
726.2196939050852
 20
961.2901883714433
 30
0.0
 11
732.2197939050852
 21
962.2172883714434
 31
0.0
  0
ARC
  5
5C2
330
19
100
AcDbEntity
  8
SEIHIN
  6
CONTINUOUS
 62
     3
100
AcDbCircle
 10
746.0064939050853
 20
941.7321883714434
 30
0.0
 40
2.999990999999999
100
AcDbArc
 50
98.78348000000002
 51
180.0
  0
LINE
  5
5C3
330
19
100
AcDbEntity
  8
SEIHIN
  6
CONTINUOUS
 62
     3
100
AcDbLine
 10
718.1077939050854
 20
868.0818883714433
 30
0.0
 11
718.1079939050853
 21
777.8039883714434
 31
0.0
  0
LINE
  5
5C4
330
19
100
AcDbEntity
  8
SEIHIN
  6
CONTINUOUS
 62
     3
100
AcDbLine
 10
717.2254939050853
 20
868.0818883714433
 30
0.0
 11
717.2255939050853
 21
777.0473883714434
 31
0.0
  0
LINE
  5
5C5
330
19
100
AcDbEntity
  8
SEIHIN
  6
CONTINUOUS
 62
     3
100
AcDbLine
 10
714.2194939050853
 20
868.0818883714433
 30
0.0
 11
714.2196939050852
 21
777.0483883714433
 31
0.0
  0
LINE
  5
5C6
330
19
100
AcDbEntity
  8
SEIHIN
  6
CONTINUOUS
 62
     3
100
AcDbLine
 10
723.0964939050852
 20
868.0817883714434
 30
0.0
 11
723.0966939050854
 21
777.7953883714434
 31
0.0
  0
LINE
  5
5C7
330
19
100
AcDbEntity
  8
SEIHIN
  6
CONTINUOUS
 62
     3
100
AcDbLine
 10
743.0062939050854
 20
868.0818883714433
 30
0.0
 11
743.0064939050853
 21
794.4304883714433
 31
0.0
  0
ARC
  5
5C8
330
19
100
AcDbEntity
  8
SEIHIN
  6
CONTINUOUS
 62
     3
100
AcDbCircle
 10
726.0967939050853
 20
777.7954883714434
 30
0.0
 40
2.999990999999999
100
AcDbArc
 50
180.0
 51
261.21652
  0
ARC
  5
5C9
330
19
100
AcDbEntity
  8
SEIHIN
  6
CONTINUOUS
 62
     3
100
AcDbCircle
 10
726.1079939050853
 20
777.8038883714433
 30
0.0
 40
8.000002
100
AcDbArc
 50
180.0
 51
261.2173009999999
  0
ARC
  5
5CA
330
19
100
AcDbEntity
  8
SEIHIN
  6
CONTINUOUS
 62
     3
100
AcDbCircle
 10
725.2256939050853
 20
777.0472883714433
 30
0.0
 40
7.99996
100
AcDbArc
 50
180.0
 51
261.2164839999999
  0
ARC
  5
5CB
330
19
100
AcDbEntity
  8
SEIHIN
  6
CONTINUOUS
 62
     3
100
AcDbCircle
 10
725.2195939050852
 20
777.0482883714434
 30
0.0
 40
11.00004299999999
100
AcDbArc
 50
180.0
 51
261.217167
  0
LINE
  5
5CC
330
19
100
AcDbEntity
  8
SEIHIN
  6
CONTINUOUS
 62
     3
100
AcDbLine
 10
725.0828939050852
 20
776.8827883714434
 30
0.0
 11
743.0064939050853
 21
791.8583883714434
 31
0.0
  0
ARC
  5
5CD
330
19
100
AcDbEntity
  8
SEIHIN
  6
CONTINUOUS
 62
     3
100
AcDbCircle
 10
746.0063939050853
 20
794.4304883714433
 30
0.0
 40
2.999990999999999
100
AcDbArc
 50
180.0
 51
261.21652
  0
LINE
  5
5CE
330
19
100
AcDbEntity
  8
SEIHIN
  6
CONTINUOUS
 62
     3
100
AcDbLine
 10
732.2197939050852
 20
767.8717883714433
 30
0.0
 11
732.2197939050852
 21
773.9453883714434
 31
0.0
  0
LINE
  5
5CF
330
19
100
AcDbEntity
  8
SEIHIN
  6
CONTINUOUS
 62
     3
100
AcDbLine
 10
724.8864939050852
 20
769.8976883714435
 30
0.0
 11
726.2196939050852
 21
769.6916883714433
 31
0.0
  0
LINE
  5
5D0
330
19
100
AcDbEntity
  8
SEIHIN
  6
CONTINUOUS
 62
     3
100
AcDbLine
 10
726.2196939050852
 20
771.8266883714434
 30
0.0
 11
732.2197939050852
 21
770.8996883714434
 31
0.0
  0
LINE
  5
5D1
330
19
100
AcDbEntity
  8
SEIHIN
  6
CONTINUOUS
 62
     3
100
AcDbLine
 10
726.2196939050852
 20
774.7408883714434
 30
0.0
 11
725.6386939050853
 21
774.8306883714434
 31
0.0
  0
LINE
  5
5D2
330
19
100
AcDbEntity
  8
SEIHIN
  6
CONTINUOUS
 62
     3
100
AcDbLine
 10
726.2196939050852
 20
774.8724883714434
 30
0.0
 11
732.2197939050852
 21
773.9453883714434
 31
0.0
  0
LINE
  5
5D3
330
19
100
AcDbEntity
  8
SEIHIN
  6
CONTINUOUS
 62
     3
100
AcDbLine
 10
726.2196939050852
 20
768.7987883714433
 30
0.0
 11
726.2196939050852
 21
774.8724883714434
 31
0.0
  0
LINE
  5
5D4
330
19
100
AcDbEntity
  8
SEIHIN
  6
CONTINUOUS
 62
     3
100
AcDbLine
 10
944.8422939050853
 20
995.1997883714433
 30
0.0
 11
946.3566939050854
 21
975.7225883714434
 31
0.0
  0
LINE
  5
5D5
330
19
100
AcDbEntity
  8
SEIHIN
  6
CONTINUOUS
 62
     3
100
AcDbLine
 10
981.0104939050852
 20
745.6088883714434
 30
0.0
 11
978.7498939050854
 21
760.4398883714434
 31
0.0
  0
LINE
  5
5D6
330
19
100
AcDbEntity
  8
SEIHIN
  6
CONTINUOUS
 62
     3
100
AcDbLine
 10
981.7183939050853
 20
868.0818883714433
 30
0.0
 11
981.7186939050852
 21
738.0881883714433
 31
0.0
  0
LINE
  5
5D7
330
19
100
AcDbEntity
  8
SEIHIN
  6
CONTINUOUS
 62
     3
100
AcDbLine
 10
985.2189939050854
 20
868.0818883714433
 30
0.0
 11
985.2189939050854
 21
738.0815883714434
 31
0.0
  0
LINE
  5
5D8
330
19
100
AcDbEntity
  8
SEIHIN
  6
CONTINUOUS
 62
     3
100
AcDbLine
 10
981.7183939050853
 20
868.0804883714433
 30
0.0
 11
981.7188939050852
 21
998.0742883714434
 31
0.0
  0
LINE
  5
5D9
330
19
100
AcDbEntity
  8
SEIHIN
  6
CONTINUOUS
 62
     3
100
AcDbLine
 10
978.7496939050852
 20
868.0804883714433
 30
0.0
 11
978.7499939050851
 21
972.7225883714433
 31
0.0
  0
LINE
  5
5DA
330
19
100
AcDbEntity
  8
SEIHIN
  6
CONTINUOUS
 62
     3
100
AcDbLine
 10
985.2189939050854
 20
868.0804883714433
 30
0.0
 11
985.2189939050854
 21
998.0807883714433
 31
0.0
  0
LINE
  5
5DB
330
19
100
AcDbEntity
  8
SEIHIN
  6
CONTINUOUS
 62
     3
100
AcDbLine
 10
981.0106939050854
 20
990.5535883714433
 30
0.0
 11
978.7499939050851
 21
975.7224883714433
 31
0.0
  0
ARC
  5
5DC
330
19
100
AcDbEntity
  8
SEIHIN
  6
CONTINUOUS
 62
     3
100
AcDbCircle
 10
979.2191939050853
 20
998.0808883714434
 30
0.0
 40
5.9999
100
AcDbArc
 50
0.0
 51
90.0
  0
ARC
  5
5DD
330
19
100
AcDbEntity
  8
SEIHIN
  6
CONTINUOUS
 62
     3
100
AcDbCircle
 10
978.7188939050851
 20
998.0742883714434
 30
0.0
 40
3.0
100
AcDbArc
 50
0.0
 51
90.0
  0
ARC
  5
5DE
330
19
100
AcDbEntity
  8
SEIHIN
  6
CONTINUOUS
 62
     3
100
AcDbCircle
 10
978.7188939050851
 20
997.1918883714433
 30
0.0
 40
3.0
100
AcDbArc
 50
0.0
 51
90.0
  0
ARC
  5
5DF
330
19
100
AcDbEntity
  8
SEIHIN
  6
CONTINUOUS
 62
     3
100
AcDbCircle
 10
978.7188939050851
 20
992.1997883714434
 30
0.0
 40
3.0
100
AcDbArc
 50
0.0
 51
90.0
  0
ARC
  5
5E0
330
19
100
AcDbEntity
  8
SEIHIN
  6
CONTINUOUS
 62
     3
100
AcDbCircle
 10
965.2191939050853
 20
996.9432883714434
 30
0.0
 40
2.0
100
AcDbArc
 50
90.0
 51
180.0
  0
ARC
  5
5E1
330
19
100
AcDbEntity
  8
SEIHIN
  6
CONTINUOUS
 62
     3
100
AcDbCircle
 10
971.2191939050853
 20
996.9432883714434
 30
0.0
 40
2.0
100
AcDbArc
 50
0.0
 51
90.0
  0
LINE
  5
5E2
330
19
100
AcDbEntity
  8
SEIHIN
  6
CONTINUOUS
 62
     3
100
AcDbLine
 10
965.2191939050853
 20
998.9432883714433
 30
0.0
 11
971.2191939050853
 21
998.9432883714433
 31
0.0
  0
LINE
  5
5E3
330
19
100
AcDbEntity
  8
SEIHIN
  6
CONTINUOUS
 62
     3
100
AcDbLine
 10
963.2191939050853
 20
996.9432883714434
 30
0.0
 11
963.2191939050853
 21
995.1998883714434
 31
0.0
  0
LINE
  5
5E4
330
19
100
AcDbEntity
  8
SEIHIN
  6
CONTINUOUS
 62
     3
100
AcDbLine
 10
973.2191939050853
 20
996.9432883714434
 30
0.0
 11
973.2191939050853
 21
995.1997883714433
 31
0.0
  0
LINE
  5
5E5
330
19
100
AcDbEntity
  8
SEIHIN
  6
CONTINUOUS
 62
     3
100
AcDbLine
 10
963.2191939050853
 20
995.9355883714433
 30
0.0
 11
973.2191939050853
 21
995.9355883714433
 31
0.0
  0
LINE
  5
5E6
330
19
100
AcDbEntity
  8
SEIHIN
  6
CONTINUOUS
 62
     3
100
AcDbLine
 10
973.2191939050853
 20
995.1997883714433
 30
0.0
 11
978.7188939050851
 21
995.1997883714433
 31
0.0
  0
ARC
  5
5E7
330
19
100
AcDbEntity
  8
SEIHIN
  6
CONTINUOUS
 62
     3
100
AcDbCircle
 10
975.7499939050852
 20
972.7225883714433
 30
0.0
 40
3.0
100
AcDbArc
 50
0.0
 51
90.0
  0
LINE
  5
5E8
330
19
100
AcDbEntity
  8
SEIHIN
  6
CONTINUOUS
 62
     3
100
AcDbLine
 10
985.2189939050854
 20
941.0811883714433
 30
0.0
 11
981.7184939050854
 21
941.0811883714433
 31
0.0
  0
LINE
  5
5E9
330
19
100
AcDbEntity
  8
SEIHIN
  6
CONTINUOUS
 62
     3
100
AcDbLine
 10
985.2189939050854
 20
945.0811883714434
 30
0.0
 11
981.7184939050854
 21
945.0811883714434
 31
0.0
  0
LINE
  5
5EA
330
19
100
AcDbEntity
  8
SEIHIN
  6
CONTINUOUS
 62
     3
100
AcDbLine
 10
985.2189939050854
 20
928.5811883714433
 30
0.0
 11
981.7183939050853
 21
928.5811883714433
 31
0.0
  0
LINE
  5
5EB
330
19
100
AcDbEntity
  8
SEIHIN
  6
CONTINUOUS
 62
     3
100
AcDbLine
 10
985.2189939050854
 20
920.0811883714434
 30
0.0
 11
981.7183939050853
 21
920.0811883714434
 31
0.0
  0
LINE
  5
5EC
330
19
100
AcDbEntity
  8
SEIHIN
  6
CONTINUOUS
 62
     3
100
AcDbLine
 10
985.2189939050854
 20
932.5811883714434
 30
0.0
 11
981.7183939050853
 21
932.5811883714434
 31
0.0
  0
LINE
  5
5ED
330
19
100
AcDbEntity
  8
SEIHIN
  6
CONTINUOUS
 62
     3
100
AcDbLine
 10
985.2189939050854
 20
916.0811883714433
 30
0.0
 11
981.7183939050853
 21
916.0811883714433
 31
0.0
  0
LINE
  5
5EE
330
19
100
AcDbEntity
  8
SEIHIN
  6
CONTINUOUS
 62
     3
100
AcDbLine
 10
978.7496939050852
 20
868.0818883714433
 30
0.0
 11
978.7498939050854
 21
763.4397883714434
 31
0.0
  0
LINE
  5
5EF
330
19
100
AcDbEntity
  8
SEIHIN
  6
CONTINUOUS
 62
     3
100
AcDbLine
 10
985.2189939050854
 20
820.0811883714434
 30
0.0
 11
981.7182939050853
 21
820.0811883714434
 31
0.0
  0
LINE
  5
5F0
330
19
100
AcDbEntity
  8
SEIHIN
  6
CONTINUOUS
 62
     3
100
AcDbLine
 10
985.2189939050854
 20
803.5811883714433
 30
0.0
 11
981.7182939050853
 21
803.5811883714433
 31
0.0
  0
LINE
  5
5F1
330
19
100
AcDbEntity
  8
SEIHIN
  6
CONTINUOUS
 62
     3
100
AcDbLine
 10
985.2189939050854
 20
816.0811883714433
 30
0.0
 11
981.7182939050853
 21
816.0811883714433
 31
0.0
  0
LINE
  5
5F2
330
19
100
AcDbEntity
  8
SEIHIN
  6
CONTINUOUS
 62
     3
100
AcDbLine
 10
985.2189939050854
 20
807.5811883714434
 30
0.0
 11
981.7182939050853
 21
807.5811883714434
 31
0.0
  0
LINE
  5
5F3
330
19
100
AcDbEntity
  8
SEIHIN
  6
CONTINUOUS
 62
     3
100
AcDbLine
 10
985.2189939050854
 20
791.0811883714434
 30
0.0
 11
981.7183939050853
 21
791.0811883714434
 31
0.0
  0
LINE
  5
5F4
330
19
100
AcDbEntity
  8
SEIHIN
  6
CONTINUOUS
 62
     3
100
AcDbLine
 10
985.2189939050854
 20
795.0811883714434
 30
0.0
 11
981.7183939050853
 21
795.0811883714434
 31
0.0
  0
ARC
  5
5F5
330
19
100
AcDbEntity
  8
SEIHIN
  6
CONTINUOUS
 62
     3
100
AcDbCircle
 10
975.7499939050852
 20
763.4397883714434
 30
0.0
 40
3.0
100
AcDbArc
 50
270.0
 51
0.0
  0
ARC
  5
5F6
330
19
100
AcDbEntity
  8
SEIHIN
  6
CONTINUOUS
 62
     3
100
AcDbCircle
 10
979.2188939050852
 20
738.0814883714434
 30
0.0
 40
6.000049999999999
100
AcDbArc
 50
270.0
 51
0.0
  0
ARC
  5
5F7
330
19
100
AcDbEntity
  8
SEIHIN
  6
CONTINUOUS
 62
     3
100
AcDbCircle
 10
978.7185939050853
 20
738.0881883714433
 30
0.0
 40
3.0
100
AcDbArc
 50
270.0
 51
0.0
  0
ARC
  5
5F8
330
19
100
AcDbEntity
  8
SEIHIN
  6
CONTINUOUS
 62
     3
100
AcDbCircle
 10
978.7185939050853
 20
738.9705883714434
 30
0.0
 40
3.0
100
AcDbArc
 50
270.0
 51
0.0
  0
ARC
  5
5F9
330
19
100
AcDbEntity
  8
SEIHIN
  6
CONTINUOUS
 62
     3
100
AcDbCircle
 10
978.7185939050853
 20
743.9625883714434
 30
0.0
 40
3.0
100
AcDbArc
 50
270.0
 51
0.0
  0
ARC
  5
5FA
330
19
100
AcDbEntity
  8
SEIHIN
  6
CONTINUOUS
 62
     3
100
AcDbCircle
 10
965.2188939050851
 20
739.2190883714434
 30
0.0
 40
2.0
100
AcDbArc
 50
180.0
 51
270.0
  0
LINE
  5
5FB
330
19
100
AcDbEntity
  8
SEIHIN
  6
CONTINUOUS
 62
     3
100
AcDbLine
 10
963.2188939050852
 20
739.2190883714434
 30
0.0
 11
963.2188939050852
 21
740.9625883714434
 31
0.0
  0
LINE
  5
5FC
330
19
100
AcDbEntity
  8
SEIHIN
  6
CONTINUOUS
 62
     3
100
AcDbLine
 10
973.2189939050854
 20
739.2190883714434
 30
0.0
 11
973.2189939050854
 21
740.9625883714434
 31
0.0
  0
LINE
  5
5FD
330
19
100
AcDbEntity
  8
SEIHIN
  6
CONTINUOUS
 62
     3
100
AcDbLine
 10
963.2188939050852
 20
740.2267883714434
 30
0.0
 11
973.2189939050854
 21
740.2267883714434
 31
0.0
  0
LINE
  5
5FE
330
19
100
AcDbEntity
  8
SEIHIN
  6
CONTINUOUS
 62
     3
100
AcDbLine
 10
965.2188939050851
 20
737.2190883714433
 30
0.0
 11
971.2189939050855
 21
737.2190883714433
 31
0.0
  0
ARC
  5
5FF
330
19
100
AcDbEntity
  8
SEIHIN
  6
CONTINUOUS
 62
     3
100
AcDbCircle
 10
971.2189939050855
 20
739.2190883714434
 30
0.0
 40
2.0
100
AcDbArc
 50
270.0
 51
0.0
  0
LINE
  5
600
330
19
100
AcDbEntity
  8
SEIHIN
  6
CONTINUOUS
 62
     3
100
AcDbLine
 10
973.2189939050854
 20
740.9625883714434
 30
0.0
 11
978.7185939050853
 21
740.9625883714434
 31
0.0
  0
LINE
  5
602
330
19
100
AcDbEntity
  8
CENTER_L
  6
CENTER
 62
     1
 48
5.0
100
AcDbLine
 10
997.6932961381052
 20
968.080958282624
 30
0.0
 11
962.3068980411382
 21
968.080958282624
 31
0.0
  0
LINE
  5
604
330
19
100
AcDbEntity
  8
CENTER_L
  6
CENTER
 62
     1
 48
5.0
100
AcDbLine
 10
997.6932961381052
 20
768.0809582826241
 30
0.0
 11
962.3068980411382
 21
768.0809582826241
 31
0.0
  0
DIMENSION
  5
614
330
19
100
AcDbEntity
  8
SUNPOU
  6
CONTINUOUS
100
AcDbDimension
  2
*D6
 10
1044.93774288878
 20
732.0814883714433
 30
0.0
 11
1034.93774288878
 21
868.0811883714435
 31
0.0
 70
    32
  3
STANDARD
100
AcDbAlignedDimension
 13
979.2191939050853
 23
1004.080888371443
 33
0.0
 14
979.2188939050852
 24
732.0814883714433
 34
0.0
 50
90.0
100
AcDbRotatedDimension
1001
ACAD
1000
DSTYLE
1002
{
1070
   140
1040
12.0
1070
    74
1070
     0
1070
   172
1070
     1
1070
    73
1070
     0
1070
   272
1070
     2
1070
    77
1070
     3
1070
   173
1070
     1
1070
   147
1040
4.0
1070
    42
1040
12.0
1070
    44
1040
6.0
1070
    43
1040
28.0
1070
   271
1070
     0
1070
   178
1070
     4
1070
   177
1070
     4
1070
   176
1070
     4
1070
   141
1040
150.0
1070
     7
1000
_OPEN
1070
     6
1000
_OPEN
1070
    41
1040
14.0
1070
   143
1040
0.03937
1002
}
  0
LINE
  5
617
330
19
100
AcDbEntity
  8
SEIHIN
  6
CONTINUOUS
 62
     3
100
AcDbLine
 10
946.4149157413528
 20
500.4070101433107
 30
0.0
 11
943.6627921740065
 21
234.4070101433108
 31
0.0
  0
DIMENSION
  5
625
330
19
100
AcDbEntity
  8
SUNPOU
  6
CONTINUOUS
100
AcDbDimension
  2
*D7
 10
663.6392206023219
 20
231.4070101433108
 30
0.0
 11
653.639220602322
 21
376.4070101433107
 31
0.0
 70
    32
  3
STANDARD
100
AcDbAlignedDimension
 13
710.6317886545647
 23
521.4070101433107
 33
0.0
 14
742.2066886545646
 24
231.4070101433108
 34
0.0
 50
90.0
100
AcDbRotatedDimension
1001
ACAD
1000
DSTYLE
1002
{
1070
   140
1040
12.0
1070
    74
1070
     0
1070
   172
1070
     1
1070
    73
1070
     0
1070
   272
1070
     2
1070
    77
1070
     3
1070
   173
1070
     1
1070
   147
1040
4.0
1070
    42
1040
12.0
1070
    44
1040
6.0
1070
    43
1040
28.0
1070
   271
1070
     0
1070
   178
1070
     4
1070
   177
1070
     4
1070
   176
1070
     4
1070
   141
1040
150.0
1070
     7
1000
_OPEN
1070
     6
1000
_OPEN
1070
    41
1040
14.0
1070
   143
1040
0.03937
1002
}
  0
DIMENSION
  5
63F
330
19
100
AcDbEntity
  8
SUNPOU
  6
CONTINUOUS
100
AcDbDimension
  2
*D8
 10
1121.638485347754
 20
504.4070101433107
 30
0.0
 11
1111.638485347754
 21
448.4070101433108
 31
0.0
 70
    32
  3
STANDARD
100
AcDbAlignedDimension
 13
1182.413388654564
 23
488.4070101433108
 33
0.0
 14
1182.413388654564
 24
504.4070101433107
 34
0.0
 50
90.0
100
AcDbRotatedDimension
1001
ACAD
1000
DSTYLE
1002
{
1070
   140
1040
12.0
1070
    74
1070
     0
1070
   172
1070
     1
1070
    73
1070
     0
1070
   272
1070
     2
1070
    77
1070
     3
1070
   173
1070
     1
1070
   280
1070
     1
1070
   147
1040
4.0
1070
    42
1040
12.0
1070
    44
1040
6.0
1070
    43
1040
28.0
1070
   271
1070
     0
1070
   178
1070
     4
1070
   177
1070
     4
1070
   176
1070
     4
1070
   141
1040
150.0
1070
     7
1000
_OPEN
1070
     6
1000
_OPEN
1070
    41
1040
14.0
1070
   143
1040
0.03937
1002
}
  0
DIMENSION
  5
64E
330
19
100
AcDbEntity
  8
SUNPOU
  6
CONTINUOUS
100
AcDbDimension
  2
*D9
 10
1082.192752326094
 20
496.4070101433107
 30
0.0
 11
1072.192752326094
 21
454.4070101433107
 31
0.0
 70
    32
  3
STANDARD
100
AcDbAlignedDimension
 13
1146.413688654564
 23
521.4070101433107
 33
0.0
 14
1170.813988654564
 24
496.4070101433107
 34
0.0
 50
90.0
100
AcDbRotatedDimension
1001
ACAD
1000
DSTYLE
1002
{
1070
   140
1040
12.0
1070
    74
1070
     0
1070
   172
1070
     1
1070
    73
1070
     0
1070
   272
1070
     2
1070
    77
1070
     3
1070
   173
1070
     1
1070
   147
1040
4.0
1070
    42
1040
12.0
1070
    44
1040
6.0
1070
    43
1040
28.0
1070
   271
1070
     0
1070
   178
1070
     4
1070
   177
1070
     4
1070
   176
1070
     4
1070
   141
1040
150.0
1070
     7
1000
_OPEN
1070
     6
1000
_OPEN
1070
    41
1040
14.0
1070
   143
1040
0.03937
1002
}
  0
DIMENSION
  5
675
330
19
100
AcDbEntity
  8
SUNPOU
  6
CONTINUOUS
100
AcDbDimension
  2
*D10
 10
1182.413388654564
 20
579.0634090661005
 30
0.0
 11
1282.413388654564
 21
589.0634090661006
 31
0.0
 70
    32
  3
STANDARD
100
AcDbAlignedDimension
 13
1382.413388654564
 23
507.9505101433108
 33
0.0
 14
1182.413388654564
 24
507.9505101433108
 34
0.0
100
AcDbRotatedDimension
1001
ACAD
1000
DSTYLE
1002
{
1070
   140
1040
12.0
1070
    74
1070
     0
1070
   172
1070
     1
1070
    73
1070
     0
1070
   272
1070
     2
1070
    77
1070
     3
1070
   173
1070
     1
1070
   147
1040
4.0
1070
    42
1040
12.0
1070
    44
1040
6.0
1070
    43
1040
28.0
1070
   271
1070
     0
1070
   178
1070
     4
1070
   177
1070
     4
1070
   176
1070
     4
1070
   141
1040
150.0
1070
     7
1000
_OPEN
1070
     6
1000
_OPEN
1070
    41
1040
14.0
1070
   143
1040
0.03937
1002
}
  0
DIMENSION
  5
682
330
19
100
AcDbEntity
  8
SUNPOU
  6
CONTINUOUS
100
AcDbDimension
  2
*D11
 10
1146.413688654564
 20
614.0146327745219
 30
0.0
 11
1282.413338654564
 21
624.0146327745219
 31
0.0
 70
    32
  3
STANDARD
100
AcDbAlignedDimension
 13
1418.412988654564
 23
521.4070101433107
 33
0.0
 14
1146.413688654564
 24
521.4070101433107
 34
0.0
100
AcDbRotatedDimension
1001
ACAD
1000
DSTYLE
1002
{
1070
   140
1040
12.0
1070
    74
1070
     0
1070
   172
1070
     1
1070
    73
1070
     0
1070
   272
1070
     2
1070
    77
1070
     3
1070
   173
1070
     1
1070
   147
1040
4.0
1070
    42
1040
12.0
1070
    44
1040
6.0
1070
    43
1040
28.0
1070
   271
1070
     0
1070
   178
1070
     4
1070
   177
1070
     4
1070
   176
1070
     4
1070
   141
1040
150.0
1070
     7
1000
_OPEN
1070
     6
1000
_OPEN
1070
    41
1040
14.0
1070
   143
1040
0.03937
1002
}
  0
LINE
  5
690
330
19
100
AcDbEntity
  8
SEIHIN
  6
CONTINUOUS
100
AcDbLine
 10
567.4129886545649
 20
506.4070101433109
 30
0.0
 11
297.4137886545647
 21
506.4070101433109
 31
0.0
  0
VIEWPORT
  5
22
330
16
100
AcDbEntity
 67
     1
  8
0
100
AcDbViewport
 10
313.6808219178082
 20
148.5
 30
0.0
 40
627.3616438356165
 41
297.0
 68
     2
 69
     1
1001
ACAD
1000
MVIEW
1002
{
1070
    16
1010
0.0
1020
0.0
1030
0.0
1010
0.0
1020
0.0
1030
1.0
1040
0.0
1040
297.0
1040
313.6808219178082
1040
148.5
1040
50.0
1040
0.0
1040
0.0
1070
     0
1070
   100
1070
     1
1070
     0
1070
     0
1070
     0
1070
     0
1070
     0
1040
0.0
1040
0.0
1040
0.0
1040
10.0
1040
10.0
1040
10.0
1040
10.0
1070
     0
1002
{
1002
}
1002
}
  0
VIEWPORT
  5
25
330
16
100
AcDbEntity
 67
     1
  8
VIEWPORT
100
AcDbViewport
 10
210.0
 20
148.5
 30
0.0
 40
420.0
 41
297.0
 68
     1
 69
     2
1001
ACAD
1000
MVIEW
1002
{
1070
    16
1010
0.0
1020
0.0
1030
0.0
1010
0.0
1020
0.0
1030
1.0
1040
0.0
1040
1212.607689320388
1040
841.0
1040
594.0
1040
50.0
1040
0.0
1040
0.0
1070
     0
1070
   100
1070
     1
1070
     0
1070
     0
1070
     0
1070
     0
1070
     0
1040
0.0
1040
0.0
1040
0.0
1040
57.0
1040
57.0
1040
57.0
1040
57.0
1070
     0
1002
{
1002
}
1002
}
  0
ENDSEC
  0
SECTION
  2
OBJECTS
  0
DICTIONARY
  5
C
330
0
100
AcDbDictionary
  3
ACAD_GROUP
350
D
  3
ACAD_LAYOUT
350
696
  3
ACAD_MLINESTYLE
350
E
  3
ACAD_PLOTSETTINGS
350
697
1001
ACAD
1000
TREAT_AS_HARD
1070
     0
  0
DICTIONARY
  5
6C3
330
19
100
AcDbDictionary
  3
ACAD_LAYOUTSELFREF
350
707
1001
ACAD
1000
TREAT_AS_HARD
1070
     1
  0
DICTIONARY
  5
6C1
330
16
100
AcDbDictionary
  3
ACAD_LAYOUTSELFREF
350
706
1001
ACAD
1000
TREAT_AS_HARD
1070
     1
  0
DICTIONARY
  5
D
102
{ACAD_REACTORS
330
C
102
}
330
C
100
AcDbDictionary
1001
ACAD
1000
TREAT_AS_HARD
1070
     0
  0
DICTIONARY
  5
696
102
{ACAD_REACTORS
330
C
102
}
330
C
100
AcDbDictionary
1001
ACAD
1000
TREAT_AS_HARD
1070
     0
  0
DICTIONARY
  5
E
102
{ACAD_REACTORS
330
C
102
}
330
C
100
AcDbDictionary
  3
STANDARD
350
1C
1001
ACAD
1000
TREAT_AS_HARD
1070
     0
  0
DICTIONARY
  5
697
102
{ACAD_REACTORS
330
C
102
}
330
C
100
AcDbDictionary
1001
ACAD
1000
TREAT_AS_HARD
1070
     0
  0
XRECORD
  5
707
102
{ACAD_REACTORS
330
6C3
102
}
330
6C3
100
AcDbXrecord
340
19
  0
XRECORD
  5
706
102
{ACAD_REACTORS
330
6C1
102
}
330
6C1
100
AcDbXrecord
340
16
  0
MLINESTYLE
  5
1C
102
{ACAD_REACTORS
330
E
102
}
330
E
100
AcDbMlineStyle
  2
STANDARD
 70
     0
  3

 62
     0
 51
90.0
 52
90.0
 71
     2
 49
0.5
 62
   256
  6
BYLAYER
 49
-0.5
 62
   256
  6
BYLAYER
  0
ENDSEC
  0
EOF
